  0
SECTION
  2
HEADER
  9
$ACADVER
  1
AC1024
  9
$DWGCODEPAGE
  3
ANSI_1252
  9
$EXTMAX
 10
297.0
 20
210.0
 30
0.0
  9
$EXTMIN
 10
0.0
 20
0.0
 30
0.0
  9
$LIMMIN
 10
0.0
 20
0.0
  9
$LIMMAX
 10
297.0
 20
210.0
  9
$VIEWCTR
 10
148.5
 20
105.0
  9
$VIEWSIZE
 40
210.0
  9
$CLAYER
  8
0
  9
$LTSCALE
 40
16.335
  9
$CELTYPE
  6
BYLAYER
  9
$DIMSCALE
 40
1.0
  9
$DIMASZ
 40
3.0
  9
$DIMEXO
 40
0.5
  9
$DIMDLI
 40
11.286
  9
$DIMEXE
 40
1.5
  9
$DIMCEN
 40
2.673
  9
$DIMLFAC
 40
1.0
  9
$DIMBLK
  1
_FILLED
  9
$DIMALT
 70
0
  9
$DIMALTF
 40
0.0393700787
  9
$DIMTXT
 40
3.0
  9
$DIMTOL
 70
1
  9
$DIMLIM
 70
0
  9
$DIMTFAC
 40
1.0
  9
$DIMTP
 40
0.01
  9
$DIMTM
 40
0.01
  9
$DIMGAP
 40
0.625
  9
$DIMDSEP
 70
44
  9
$AUNITS
 70
0
  9
$PDMODE
 70
3
  9
$PDSIZE
 40
3.0
  9
$HANDSEED
  5
493
  9
$TILEMODE
 70
1
  9
$MEASUREMENT
 70
1
  9
$INSUNITS
 70
4
  0
ENDSEC
  0
SECTION
  2
CLASSES
  0
CLASS
  1
ACDBDICTIONARYWDFLT
  2
AcDbDictionaryWithDefault
  3
AutoCAD 2000
 90
0
 91
1
280
0
281
0
  0
CLASS
  1
ACDBPLACEHOLDER
  2
AcDbPlaceHolder
  3
AutoCAD 2000
 90
0
 91
1
280
0
281
0
  0
CLASS
  1
LAYOUT
  2
AcDbLayout
  3
AutoCAD 2000
 90
0
 91
0
280
0
281
0
  0
ENDSEC
  0
SECTION
  2
TABLES
  0
TABLE
  2
VPORT
  5
8
100
AcDbSymbolTable
 70
2
  0
VPORT
  5
1F4
100
AcDbSymbolTableRecord
100
AcDbViewportTableRecord
  2
*ACTIVE
 70
0
 10
0.0
 20
0.0
 11
1.0
 21
1.0
 12
148.5
 22
105.0
 13
0.0
 23
0.0
 14
1.0
 24
1.0
 15
0.0
 25
0.0
 16
0.0
 26
0.0
 36
1.0
 17
0.0
 27
0.0
 37
0.0
 40
210.0
 41
1.4142857143
 42
50.0
 43
0.0
 44
0.0
 50
0.0
 51
0.0
 71
0
 72
100
 73
1
 74
1
 75
0
 76
0
 77
0
 78
0
  0
ENDTAB
  0
TABLE
  2
LTYPE
  5
5
100
AcDbSymbolTable
 70
6
  0
LTYPE
  5
14
100
AcDbSymbolTableRecord
100
AcDbLinetypeTableRecord
  2
BYBLOCK
 70
0
  3

 72
65
 73
0
 40
0.0
  0
LTYPE
  5
15
100
AcDbSymbolTableRecord
100
AcDbLinetypeTableRecord
  2
BYLAYER
 70
0
  3

 72
65
 73
0
 40
0.0
  0
LTYPE
  5
16
100
AcDbSymbolTableRecord
100
AcDbLinetypeTableRecord
  2
CONTINUOUS
 70
64
  3
Solid line
 72
65
 73
0
 40
0.0
  0
LTYPE
  5
1F5
100
AcDbSymbolTableRecord
100
AcDbLinetypeTableRecord
  2
CENTER
 70
64
  3
____ _ ____ _ ____ _ ____ _ ____ _ ____ _ ____
 72
65
 73
4
 40
0.6
 49
0.375
 74
0
 49
-0.075
 74
0
 49
0.075
 74
0
 49
-0.075
 74
0
  0
LTYPE
  5
1F6
100
AcDbSymbolTableRecord
100
AcDbLinetypeTableRecord
  2
HIDDEN
 70
64
  3
- - - - - - - - - - - - - - - - - - - -
 72
65
 73
2
 40
0.2
 49
0.1
 74
0
 49
-0.1
 74
0
  0
LTYPE
  5
1F7
100
AcDbSymbolTableRecord
100
AcDbLinetypeTableRecord
  2
PHANTOM
 70
64
  3
_____ _ _ _____ _ _ _____ _ _ _____
 72
65
 73
6
 40
0.8
 49
0.45
 74
0
 49
-0.05
 74
0
 49
0.1
 74
0
 49
-0.05
 74
0
 49
0.1
 74
0
 49
-0.05
 74
0
  0
LTYPE
  5
1F8
100
AcDbSymbolTableRecord
100
AcDbLinetypeTableRecord
  2
DOT
 70
64
  3
. . . . . . . . . . . . . . . . . . . .
 72
65
 73
2
 40
0.2
 49
0.1
 74
0
 49
-0.1
 74
0
  0
LTYPE
  5
1F9
100
AcDbSymbolTableRecord
100
AcDbLinetypeTableRecord
  2
DASHED
 70
64
  3
- - - - - - - - - - - - - - - - - - - -
 72
65
 73
2
 40
0.2
 49
0.1
 74
0
 49
-0.1
 74
0
  0
ENDTAB
  0
TABLE
  2
LAYER
  5
2
100
AcDbSymbolTable
 70
36
  0
LAYER
  5
10
100
AcDbSymbolTableRecord
100
AcDbLayerTableRecord
  2
0
 70
0
 62
7
  6
CONTINUOUS
370
-3
390
F
  0
LAYER
  5
1FA
100
AcDbSymbolTableRecord
100
AcDbLayerTableRecord
  2
DEFAULT_1
 70
0
 62
7
  6
CENTER
370
-3
390
F
  0
LAYER
  5
1FB
100
AcDbSymbolTableRecord
100
AcDbLayerTableRecord
  2
DEFAULT_2
 70
0
 62
7
  6
HIDDEN
370
-3
390
F
  0
LAYER
  5
1FC
100
AcDbSymbolTableRecord
100
AcDbLayerTableRecord
  2
DEFAULT_3
 70
0
 62
7
  6
PHANTOM
370
-3
390
F
  0
LAYER
  5
1FD
100
AcDbSymbolTableRecord
100
AcDbLayerTableRecord
  2
ASSI
 70
0
 62
7
  6
CONTINUOUS
370
-3
390
F
  0
LAYER
  5
1FE
100
AcDbSymbolTableRecord
100
AcDbLayerTableRecord
  2
COORDINATE
 70
0
 62
7
  6
CONTINUOUS
370
-3
390
F
  0
LAYER
  5
1FF
100
AcDbSymbolTableRecord
100
AcDbLayerTableRecord
  2
COORD_ORIGINE
 70
0
 62
7
  6
CONTINUOUS
370
-3
390
F
  0
LAYER
  5
200
100
AcDbSymbolTableRecord
100
AcDbLayerTableRecord
  2
COPY_PUBLISH
 70
0
 62
7
  6
CONTINUOUS
370
-3
390
F
  0
LAYER
  5
201
100
AcDbSymbolTableRecord
100
AcDbLayerTableRecord
  2
COSMETIC
 70
0
 62
7
  6
CONTINUOUS
370
-3
390
F
  0
LAYER
  5
202
100
AcDbSymbolTableRecord
100
AcDbLayerTableRecord
  2
COSMETICI
 70
0
 62
7
  6
CONTINUOUS
370
-3
390
F
  0
LAYER
  5
203
100
AcDbSymbolTableRecord
100
AcDbLayerTableRecord
  2
CURVE
 70
0
 62
7
  6
CONTINUOUS
370
-3
390
F
  0
LAYER
  5
204
100
AcDbSymbolTableRecord
100
AcDbLayerTableRecord
  2
CURVE_TASSELLI
 70
0
 62
7
  6
CONTINUOUS
370
-3
390
F
  0
LAYER
  5
205
100
AcDbSymbolTableRecord
100
AcDbLayerTableRecord
  2
DRAFT
 70
0
 62
7
  6
CONTINUOUS
370
-3
390
F
  0
LAYER
  5
206
100
AcDbSymbolTableRecord
100
AcDbLayerTableRecord
  2
IMPORT_IGES
 70
0
 62
7
  6
CONTINUOUS
370
-3
390
F
  0
LAYER
  5
207
100
AcDbSymbolTableRecord
100
AcDbLayerTableRecord
  2
INTFCLR_2
 70
0
 62
7
  6
CONTINUOUS
370
-3
390
F
  0
LAYER
  5
208
100
AcDbSymbolTableRecord
100
AcDbLayerTableRecord
  2
INTF_1
 70
0
 62
7
  6
CONTINUOUS
370
-3
390
F
  0
LAYER
  5
209
100
AcDbSymbolTableRecord
100
AcDbLayerTableRecord
  2
INTF_21
 70
0
 62
7
  6
CONTINUOUS
370
-3
390
F
  0
LAYER
  5
20A
100
AcDbSymbolTableRecord
100
AcDbLayerTableRecord
  2
INTF_6
 70
0
 62
7
  6
CONTINUOUS
370
-3
390
F
  0
LAYER
  5
20B
100
AcDbSymbolTableRecord
100
AcDbLayerTableRecord
  2
INTF_7
 70
0
 62
7
  6
CONTINUOUS
370
-3
390
F
  0
LAYER
  5
20C
100
AcDbSymbolTableRecord
100
AcDbLayerTableRecord
  2
INTF_CYAN
 70
0
 62
7
  6
CONTINUOUS
370
-3
390
F
  0
LAYER
  5
20D
100
AcDbSymbolTableRecord
100
AcDbLayerTableRecord
  2
LIVELLO_1
 70
0
 62
7
  6
CONTINUOUS
370
-3
390
F
  0
LAYER
  5
20E
100
AcDbSymbolTableRecord
100
AcDbLayerTableRecord
  2
NOTE
 70
0
 62
7
  6
CONTINUOUS
370
-3
390
F
  0
LAYER
  5
20F
100
AcDbSymbolTableRecord
100
AcDbLayerTableRecord
  2
PIANI
 70
0
 62
7
  6
CONTINUOUS
370
-3
390
F
  0
LAYER
  5
210
100
AcDbSymbolTableRecord
100
AcDbLayerTableRecord
  2
PIANI_ORIGINE
 70
0
 62
7
  6
CONTINUOUS
370
-3
390
F
  0
LAYER
  5
211
100
AcDbSymbolTableRecord
100
AcDbLayerTableRecord
  2
PIANI_RIFERIMENTO
 70
0
 62
7
  6
CONTINUOUS
370
-3
390
F
  0
LAYER
  5
212
100
AcDbSymbolTableRecord
100
AcDbLayerTableRecord
  2
PUNTI
 70
0
 62
7
  6
CONTINUOUS
370
-3
390
F
  0
LAYER
  5
213
100
AcDbSymbolTableRecord
100
AcDbLayerTableRecord
  2
RACCORDO
 70
0
 62
7
  6
CONTINUOUS
370
-3
390
F
  0
LAYER
  5
214
100
AcDbSymbolTableRecord
100
AcDbLayerTableRecord
  2
RGB__255__255__255__
 70
0
 62
7
  6
CONTINUOUS
370
-3
390
F
  0
LAYER
  5
215
100
AcDbSymbolTableRecord
100
AcDbLayerTableRecord
  2
RGB____0____0____0__
 70
0
 62
7
  6
CONTINUOUS
370
-3
390
F
  0
LAYER
  5
216
100
AcDbSymbolTableRecord
100
AcDbLayerTableRecord
  2
SIMBOLI
 70
0
 62
7
  6
CONTINUOUS
370
-3
390
F
  0
LAYER
  5
217
100
AcDbSymbolTableRecord
100
AcDbLayerTableRecord
  2
SMUSSO
 70
0
 62
7
  6
CONTINUOUS
370
-3
390
F
  0
LAYER
  5
218
100
AcDbSymbolTableRecord
100
AcDbLayerTableRecord
  2
SUPERFICI
 70
0
 62
7
  6
CONTINUOUS
370
-3
390
F
  0
LAYER
  5
219
100
AcDbSymbolTableRecord
100
AcDbLayerTableRecord
  2
TRASH
 70
0
 62
7
  6
CONTINUOUS
370
-3
390
F
  0
LAYER
  5
21A
100
AcDbSymbolTableRecord
100
AcDbLayerTableRecord
  2
WHITE
 70
0
 62
7
  6
CONTINUOUS
370
-3
390
F
  0
LAYER
  5
21B
100
AcDbSymbolTableRecord
100
AcDbLayerTableRecord
  2
XSEC_DATUMS
 70
0
 62
7
  6
CONTINUOUS
370
-3
390
F
  0
ENDTAB
  0
TABLE
  2
STYLE
  5
3
100
AcDbSymbolTable
 70
1
  0
STYLE
  5
11
100
AcDbSymbolTableRecord
100
AcDbTextStyleTableRecord
  2
STANDARD
 70
0
 40
0.0
 41
0.8
 50
0.0
 71
0
 42
0.2
  3
txt
  4

  0
STYLE
  5
21C
100
AcDbSymbolTableRecord
100
AcDbTextStyleTableRecord
  2
TEXTSTYLE_1
 70
0
 40
0.0
 41
0.8
 50
0.0
 71
0
 42
0.2
  3
gdt
  4

  0
ENDTAB
  0
TABLE
  2
VIEW
  5
6
100
AcDbSymbolTable
 70
0
  0
ENDTAB
  0
TABLE
  2
UCS
  5
7
100
AcDbSymbolTable
 70
0
  0
ENDTAB
  0
TABLE
  2
APPID
  5
9
100
AcDbSymbolTable
 70
1
  0
APPID
  5
21D
100
AcDbSymbolTableRecord
100
AcDbRegAppTableRecord
  2
ACAD
 70
0
  0
ENDTAB
  0
TABLE
  2
BLOCK_RECORD
  5
1
100
AcDbSymbolTable
 70
0
  0
BLOCK_RECORD
  5
21E
100
AcDbSymbolTableRecord
100
AcDbBlockTableRecord
  2
*Model_Space
  0
BLOCK_RECORD
  5
21F
100
AcDbSymbolTableRecord
100
AcDbBlockTableRecord
  2
*Paper_Space
  0
BLOCK_RECORD
  5
220
100
AcDbSymbolTableRecord
100
AcDbBlockTableRecord
  2
_FILLED
  0
BLOCK_RECORD
  5
221
100
AcDbSymbolTableRecord
100
AcDbBlockTableRecord
  2
*D0
  0
BLOCK_RECORD
  5
222
100
AcDbSymbolTableRecord
100
AcDbBlockTableRecord
  2
*D1
  0
BLOCK_RECORD
  5
223
100
AcDbSymbolTableRecord
100
AcDbBlockTableRecord
  2
*D2
  0
BLOCK_RECORD
  5
224
100
AcDbSymbolTableRecord
100
AcDbBlockTableRecord
  2
*D3
  0
ENDTAB
  0
TABLE
  2
DIMSTYLE
  5
A
100
AcDbSymbolTable
 70
1
100
AcDbDimStyleTable
 71
0
  0
DIMSTYLE
105
225
100
AcDbSymbolTableRecord
100
AcDbDimStyleTableRecord
  2
STANDARD
 70
0
  3

  4

 40
1.0
 41
3.0
 42
0.5
 43
0.38
 44
1.5
 45
0.0
 46
0.0
 47
0.01
 48
0.01
140
3.0
141
0.09
142
0.0
143
25.4
144
1.0
145
0.0
146
1.0
147
0.625
 71
1
 72
0
 73
0
 74
0
 75
0
 76
0
 77
1
 78
8
 79
2
170
0
171
1
172
0
173
0
174
0
175
0
176
0
177
0
178
0
270
2
179
2
271
2
272
2
273
2
274
2
275
0
280
0
281
0
282
0
283
1
284
8
285
0
286
0
287
3
288
0
340
11
278
44
341
220
342
220
343
220
344
220
  0
DIMSTYLE
105
226
100
AcDbSymbolTableRecord
100
AcDbDimStyleTableRecord
  2
DIMSTYLE_1
 70
0
  3

  4

 40
1.0
 41
3.0
 42
0.5
 43
0.38
 44
1.5
 45
0.0
 46
0.0
 47
0.0
 48
0.0
140
3.0
141
0.09
142
0.0
143
25.4
144
1.0
145
0.0
146
1.0
147
0.75
 71
0
 72
0
 73
0
 74
0
 75
0
 76
0
 77
1
 78
8
 79
2
170
0
171
1
172
0
173
0
174
0
175
0
176
0
177
0
178
0
270
2
179
2
271
2
272
2
273
2
274
2
275
0
280
0
281
0
282
0
283
1
284
8
285
0
286
0
287
3
288
0
340
11
278
44
341
220
342
220
343
220
344
220
  0
ENDTAB
  0
ENDSEC
  0
SECTION
  2
BLOCKS
  0
BLOCK
  5
20
100
AcDbEntity
  8
0
100
AcDbBlockBegin
  2
*Model_Space
 70
0
 10
0.0
 20
0.0
 30
0.0
  3
*Model_Space
  1

  0
ENDBLK
  5
21
100
AcDbEntity
  8
0
100
AcDbBlockEnd
  0
BLOCK
  5
1C
100
AcDbEntity
  8
0
100
AcDbBlockBegin
  2
*Paper_Space
 70
0
 10
0.0
 20
0.0
 30
0.0
  3
*Paper_Space
  1

  0
ENDBLK
  5
1D
100
AcDbEntity
  8
0
100
AcDbBlockEnd
  0
BLOCK
  5
227
100
AcDbEntity
  8
0
100
AcDbBlockBegin
  2
_FILLED
 70
64
 10
0.0
 20
0.0
  3
_FILLED
  1

  0
SOLID
  5
228
100
AcDbEntity
  8
0
  6
BYBLOCK
 62
0
100
AcDbTrace
 10
0.0
 20
0.0
 11
-1.0
 21
0.3166666667
 12
-1.0
 22
-0.3166666667
 13
-1.0
 23
-0.3166666667
  0
ENDBLK
  5
229
100
AcDbEntity
  8
0
  6
BYBLOCK
 62
0
100
AcDbBlockEnd
  0
BLOCK
  5
22A
100
AcDbEntity
  8
0
100
AcDbBlockBegin
 62
7
  6
CONTINUOUS
  2
*D0
 70
65
 10
0.0
 20
0.0
  3
*D0
  1

  0
MTEXT
  5
22B
100
AcDbEntity
  8
0
100
AcDbMText
 62
7
  6
CONTINUOUS
  7
STANDARD
 71
2
 72
1
 10
180.5551853429
 20
165.4766089312
 30
0.0
 11
1.0
 21
0.0
 31
0.0
 73
2
 44
0.9
  1
{\ftxt;\W0.0001;\H0.0001;\~}{\ftxt;\W1.5714285714;\H3.0; }{\ftxt;\W0.0001;\H0.0001;\~}
 40
3.0
 41
7.0714285714
  0
LINE
  5
22C
100
AcDbEntity
  8
0
100
AcDbLine
 62
7
  6
CONTINUOUS
 10
135.5551853429
 20
150.2150228273
 11
135.5551853429
 21
163.2266089312
  0
LINE
  5
22D
100
AcDbEntity
  8
0
100
AcDbLine
 62
7
  6
CONTINUOUS
 10
225.5551853429
 20
150.2150228273
 11
225.5551853429
 21
163.2266089312
  0
LINE
  5
22E
100
AcDbEntity
  8
0
100
AcDbLine
 62
7
  6
CONTINUOUS
 10
135.5551853429
 20
161.7266089312
 11
180.5551853429
 21
161.7266089312
  0
LINE
  5
22F
100
AcDbEntity
  8
0
100
AcDbLine
 62
7
  6
CONTINUOUS
 10
225.5551853429
 20
161.7266089312
 11
180.5551853429
 21
161.7266089312
  0
INSERT
  5
230
100
AcDbEntity
  8
0
100
AcDbBlockReference
 62
7
  6
CONTINUOUS
  2
_FILLED
 10
135.5551853429
 20
161.7266089312
 41
3.0
 42
3.0
 43
3.0
 50
180.0
  0
INSERT
  5
231
100
AcDbEntity
  8
0
100
AcDbBlockReference
 62
7
  6
CONTINUOUS
  2
_FILLED
 10
225.5551853429
 20
161.7266089312
 41
3.0
 42
3.0
 43
3.0
  0
ENDBLK
  5
232
100
AcDbEntity
  8
0
  6
BYBLOCK
 62
0
100
AcDbBlockEnd
  0
BLOCK
  5
233
100
AcDbEntity
  8
0
100
AcDbBlockBegin
 62
7
  6
CONTINUOUS
  2
*D1
 70
65
 10
0.0
 20
0.0
  3
*D1
  1

  0
MTEXT
  5
234
100
AcDbEntity
  8
0
100
AcDbMText
 62
7
  6
CONTINUOUS
  7
STANDARD
 71
2
 72
1
 10
231.8701989049
 20
105.7156316294
 30
0.0
 11
0.0
 21
1.0
 31
0.0
 73
2
 44
0.9
  1
{\ftxt;\W0.0001;\H0.0001;\~}{\ftxt;\W1.5714285714;\H3.0; }{\ftxt;\W0.0001;\H0.0001;\~}
 40
3.0
 41
7.0714285714
  0
LINE
  5
235
100
AcDbEntity
  8
0
100
AcDbLine
 62
7
  6
CONTINUOUS
 10
225.0545765408
 20
150.7156316294
 11
237.1201989049
 21
150.7156316294
  0
LINE
  5
236
100
AcDbEntity
  8
0
100
AcDbLine
 62
7
  6
CONTINUOUS
 10
225.0545765408
 20
60.7156316294
 11
237.1201989049
 21
60.7156316294
  0
LINE
  5
237
100
AcDbEntity
  8
0
100
AcDbLine
 62
7
  6
CONTINUOUS
 10
235.6201989049
 20
150.7156316294
 11
235.6201989049
 21
105.7156316294
  0
LINE
  5
238
100
AcDbEntity
  8
0
100
AcDbLine
 62
7
  6
CONTINUOUS
 10
235.6201989049
 20
60.7156316294
 11
235.6201989049
 21
105.7156316294
  0
INSERT
  5
239
100
AcDbEntity
  8
0
100
AcDbBlockReference
 62
7
  6
CONTINUOUS
  2
_FILLED
 10
235.6201989049
 20
150.7156316294
 41
3.0
 42
3.0
 43
3.0
 50
90.0
  0
INSERT
  5
23A
100
AcDbEntity
  8
0
100
AcDbBlockReference
 62
7
  6
CONTINUOUS
  2
_FILLED
 10
235.6201989049
 20
60.7156316294
 41
3.0
 42
3.0
 43
3.0
 50
270.0
  0
ENDBLK
  5
23B
100
AcDbEntity
  8
0
  6
BYBLOCK
 62
0
100
AcDbBlockEnd
  0
BLOCK
  5
23C
100
AcDbEntity
  8
0
100
AcDbBlockBegin
 62
7
  6
CONTINUOUS
  2
*D2
 70
65
 10
0.0
 20
0.0
  3
*D2
  1

  0
MTEXT
  5
23D
100
AcDbEntity
  8
0
100
AcDbMText
 62
7
  6
CONTINUOUS
  7
STANDARD
 71
3
 72
1
 10
78.9855606599
 20
163.2660875328
 30
0.0
 11
1.0
 21
0.0
 31
0.0
 73
2
 44
0.9
  1
{\ftxt;\W0.0001;\H0.0001;\~}{\ftxt;\W2.6428571429;\H3.0; }{\ftxt;\W0.0001;\H0.0001;\~}
 40
3.0
 41
11.8928571429
  0
LINE
  5
23E
100
AcDbEntity
  8
0
100
AcDbLine
 62
7
  6
CONTINUOUS
 10
89.9916709119
 20
147.419529149
 11
89.9916709119
 21
161.0160875328
  0
LINE
  5
23F
100
AcDbEntity
  8
0
100
AcDbLine
 62
7
  6
CONTINUOUS
 10
82.8416709119
 20
149.5923690396
 11
82.8416709119
 21
161.0160875328
  0
LINE
  5
240
100
AcDbEntity
  8
0
100
AcDbLine
 62
7
  6
CONTINUOUS
 10
89.9916709119
 20
159.5160875328
 11
86.4166709119
 21
159.5160875328
  0
LINE
  5
241
100
AcDbEntity
  8
0
100
AcDbLine
 62
7
  6
CONTINUOUS
 10
82.8416709119
 20
159.5160875328
 11
86.4166709119
 21
159.5160875328
  0
LINE
  5
242
100
AcDbEntity
  8
0
100
AcDbLine
 62
7
  6
CONTINUOUS
 10
86.4166709119
 20
159.5160875328
 11
71.0569892313
 21
159.5160875328
  0
INSERT
  5
243
100
AcDbEntity
  8
0
100
AcDbBlockReference
 62
7
  6
CONTINUOUS
  2
_FILLED
 10
89.9916709119
 20
159.5160875328
 41
3.0
 42
3.0
 43
3.0
  0
INSERT
  5
244
100
AcDbEntity
  8
0
100
AcDbBlockReference
 62
7
  6
CONTINUOUS
  2
_FILLED
 10
82.8416709119
 20
159.5160875328
 41
3.0
 42
3.0
 43
3.0
 50
180.0
  0
ENDBLK
  5
245
100
AcDbEntity
  8
0
  6
BYBLOCK
 62
0
100
AcDbBlockEnd
  0
BLOCK
  5
246
100
AcDbEntity
  8
0
100
AcDbBlockBegin
 62
7
  6
CONTINUOUS
  2
*D3
 70
65
 10
0.0
 20
0.0
  3
*D3
  1

  0
MTEXT
  5
247
100
AcDbEntity
  8
0
100
AcDbMText
 62
7
  6
CONTINUOUS
  7
STANDARD
 71
3
 72
1
 10
80.4411682302
 20
170.4413080013
 30
0.0
 11
1.0
 21
0.0
 31
0.0
 73
2
 44
0.9
  1
{\ftxt;\W0.0001;\H0.0001;\~}{\ftxt;\W3.2142857143;\H3.0; }{\ftxt;\W0.0001;\H0.0001;\~}
 40
3.0
 41
14.4642857143
  0
LINE
  5
248
100
AcDbEntity
  8
0
100
AcDbLine
 62
7
  6
CONTINUOUS
 10
82.8416709119
 20
149.5923690396
 11
82.8416709119
 21
168.1913080013
  0
LINE
  5
249
100
AcDbEntity
  8
0
100
AcDbLine
 62
7
  6
CONTINUOUS
 10
92.9916709119
 20
132.2059576623
 11
92.9916709119
 21
168.1913080013
  0
LINE
  5
24A
100
AcDbEntity
  8
0
100
AcDbLine
 62
7
  6
CONTINUOUS
 10
82.8416709119
 20
166.6913080013
 11
87.9166709119
 21
166.6913080013
  0
LINE
  5
24B
100
AcDbEntity
  8
0
100
AcDbLine
 62
7
  6
CONTINUOUS
 10
87.9166709119
 20
166.6913080013
 11
70.7983110873
 21
166.6913080013
  0
LINE
  5
24C
100
AcDbEntity
  8
0
100
AcDbLine
 62
7
  6
CONTINUOUS
 10
92.9916709119
 20
166.6913080013
 11
87.9166709119
 21
166.6913080013
  0
INSERT
  5
24D
100
AcDbEntity
  8
0
100
AcDbBlockReference
 62
7
  6
CONTINUOUS
  2
_FILLED
 10
82.8416709119
 20
166.6913080013
 41
3.0
 42
3.0
 43
3.0
 50
180.0
  0
INSERT
  5
24E
100
AcDbEntity
  8
0
100
AcDbBlockReference
 62
7
  6
CONTINUOUS
  2
_FILLED
 10
92.9916709119
 20
166.6913080013
 41
3.0
 42
3.0
 43
3.0
  0
ENDBLK
  5
24F
100
AcDbEntity
  8
0
  6
BYBLOCK
 62
0
100
AcDbBlockEnd
  0
ENDSEC
  0
SECTION
  2
ENTITIES
  0
DIMENSION
  5
250
100
AcDbEntity
  8
0
100
AcDbDimension
 62
7
  6
CONTINUOUS
  2
*D0
 10
225.5551853429
 20
161.7266089312
 11
180.1266116638
 21
161.7266089312
 70
160
 71
2
 72
2
 41
0.9
 42
90.0
  1
{\ftxt;\W0.0001;\H0.0001;\~}{\ftxt;\W1.5714285714;\H3.0; }{\ftxt;\W0.0001;\H0.0001;\~}
  3
DIMSTYLE_1
100
AcDbAlignedDimension
 13
135.5551853429
 23
149.7150228273
 14
225.5551853429
 24
149.7150228273
100
AcDbRotatedDimension
  0
DIMENSION
  5
251
100
AcDbEntity
  8
0
100
AcDbDimension
 62
7
  6
CONTINUOUS
  2
*D1
 10
235.6201989049
 20
60.7156316294
 11
235.6201989049
 21
105.2870660209
 70
160
 71
2
 72
2
 41
0.9
 42
90.0
  1
{\ftxt;\W0.0001;\H0.0001;\~}{\ftxt;\W1.5714285714;\H3.0; }{\ftxt;\W0.0001;\H0.0001;\~}
  3
DIMSTYLE_1
100
AcDbAlignedDimension
 13
224.5545765408
 23
150.7156316294
 14
224.5545765408
 24
60.7156316294
 50
270.0
100
AcDbRotatedDimension
  0
DIMENSION
  5
252
100
AcDbEntity
  8
0
100
AcDbDimension
 62
7
  6
CONTINUOUS
  2
*D2
 10
82.8416709119
 20
159.5160875328
 11
74.5927038116
 21
159.5160875328
 70
160
 71
3
 72
2
 41
0.9
 42
7.15
  1
{\ftxt;\W0.0001;\H0.0001;\~}{\ftxt;\W2.6428571429;\H3.0; }{\ftxt;\W0.0001;\H0.0001;\~}
  3
DIMSTYLE_1
100
AcDbAlignedDimension
 13
89.9916709119
 23
146.919529149
 14
82.8416709119
 24
149.0923690396
 50
180.0
100
AcDbRotatedDimension
  0
DIMENSION
  5
253
100
AcDbEntity
  8
0
100
AcDbDimension
 62
7
  6
CONTINUOUS
  2
*D3
 10
92.9916709119
 20
166.6913080013
 11
75.19116996
 21
166.6913080013
 70
160
 71
3
 72
2
 41
0.9
 42
10.15
  1
{\ftxt;\W0.0001;\H0.0001;\~}{\ftxt;\W3.2142857143;\H3.0; }{\ftxt;\W0.0001;\H0.0001;\~}
  3
DIMSTYLE_1
100
AcDbAlignedDimension
 13
82.8416709119
 23
149.0923690396
 14
92.9916709119
 24
131.7059576623
100
AcDbRotatedDimension
  0
LINE
  5
254
100
AcDbEntity
  8
0
100
AcDbLine
 62
7
  6
CONTINUOUS
 10
136.735199873
 20
150.5063309517
 11
136.7496256885
 21
150.5218000859
  0
LINE
  5
255
100
AcDbEntity
  8
ASSI
100
AcDbLine
 62
7
  6
CONTINUOUS
 10
136.735199873
 20
150.5063309517
 11
136.7496256885
 21
150.5218000859
  0
LINE
  5
256
100
AcDbEntity
  8
0
100
AcDbLine
 62
7
  6
CONTINUOUS
 10
135.5551853429
 20
149.7150228273
 11
136.555794145
 21
150.7156316294
  0
LINE
  5
257
100
AcDbEntity
  8
ASSI
100
AcDbLine
 62
7
  6
CONTINUOUS
 10
135.5551853429
 20
149.7150228273
 11
136.555794145
 21
150.7156316294
  0
LINE
  5
258
100
AcDbEntity
  8
0
100
AcDbLine
 62
7
  6
CONTINUOUS
 10
136.735199873
 20
150.5063309517
 11
135.7644860206
 21
149.5356170993
  0
LINE
  5
259
100
AcDbEntity
  8
ASSI
100
AcDbLine
 62
7
  6
CONTINUOUS
 10
136.735199873
 20
150.5063309517
 11
135.7644860206
 21
149.5356170993
  0
LINE
  5
25A
100
AcDbEntity
  8
0
100
AcDbLine
 62
7
  6
CONTINUOUS
 10
137.1784479327
 20
149.4869005892
 11
136.7839163831
 21
149.0923690396
  0
LINE
  5
25B
100
AcDbEntity
  8
ASSI
100
AcDbLine
 62
7
  6
CONTINUOUS
 10
137.1784479327
 20
149.4869005892
 11
136.7839163831
 21
149.0923690396
  0
LINE
  5
25C
100
AcDbEntity
  8
0
100
AcDbLine
 62
7
  6
CONTINUOUS
 10
135.7490168864
 20
149.5211912838
 11
135.7644860206
 21
149.5356170993
  0
LINE
  5
25D
100
AcDbEntity
  8
ASSI
100
AcDbLine
 62
7
  6
CONTINUOUS
 10
135.7490168864
 20
149.5211912838
 11
135.7644860206
 21
149.5356170993
  0
LINE
  5
25E
100
AcDbEntity
  8
0
100
AcDbLine
 62
7
  6
CONTINUOUS
 10
135.7644860206
 20
61.8956461595
 11
135.7490168864
 21
61.910071975
  0
LINE
  5
25F
100
AcDbEntity
  8
ASSI
100
AcDbLine
 62
7
  6
CONTINUOUS
 10
135.7644860206
 20
61.8956461595
 11
135.7490168864
 21
61.910071975
  0
LINE
  5
260
100
AcDbEntity
  8
0
100
AcDbLine
 62
7
  6
CONTINUOUS
 10
136.555794145
 20
60.7156316294
 11
135.5551853429
 21
61.7162404315
  0
LINE
  5
261
100
AcDbEntity
  8
ASSI
100
AcDbLine
 62
7
  6
CONTINUOUS
 10
136.555794145
 20
60.7156316294
 11
135.5551853429
 21
61.7162404315
  0
LINE
  5
262
100
AcDbEntity
  8
0
100
AcDbLine
 62
7
  6
CONTINUOUS
 10
135.7644860206
 20
61.8956461595
 11
136.735199873
 21
60.9249323071
  0
LINE
  5
263
100
AcDbEntity
  8
ASSI
100
AcDbLine
 62
7
  6
CONTINUOUS
 10
135.7644860206
 20
61.8956461595
 11
136.735199873
 21
60.9249323071
  0
LINE
  5
264
100
AcDbEntity
  8
0
100
AcDbLine
 62
7
  6
CONTINUOUS
 10
136.7839163831
 20
62.3388942192
 11
137.1784479327
 21
61.9443626696
  0
LINE
  5
265
100
AcDbEntity
  8
ASSI
100
AcDbLine
 62
7
  6
CONTINUOUS
 10
136.7839163831
 20
62.3388942192
 11
137.1784479327
 21
61.9443626696
  0
LINE
  5
266
100
AcDbEntity
  8
0
100
AcDbLine
 62
7
  6
CONTINUOUS
 10
136.7496256885
 20
60.9094631729
 11
136.735199873
 21
60.9249323071
  0
LINE
  5
267
100
AcDbEntity
  8
ASSI
100
AcDbLine
 62
7
  6
CONTINUOUS
 10
136.7496256885
 20
60.9094631729
 11
136.735199873
 21
60.9249323071
  0
LINE
  5
268
100
AcDbEntity
  8
0
100
AcDbLine
 62
7
  6
CONTINUOUS
 10
135.5551853429
 20
149.7150228273
 11
135.5551853429
 21
61.7162404315
  0
LINE
  5
269
100
AcDbEntity
  8
ASSI
100
AcDbLine
 62
7
  6
CONTINUOUS
 10
135.5551853429
 20
149.7150228273
 11
135.5551853429
 21
61.7162404315
  0
LINE
  5
26A
100
AcDbEntity
  8
0
100
AcDbLine
 62
7
  6
CONTINUOUS
 10
135.7490168864
 20
149.5211912838
 11
135.7490168864
 21
61.910071975
  0
LINE
  5
26B
100
AcDbEntity
  8
ASSI
100
AcDbLine
 62
7
  6
CONTINUOUS
 10
135.7490168864
 20
149.5211912838
 11
135.7490168864
 21
61.910071975
  0
LINE
  5
26C
100
AcDbEntity
  8
0
100
AcDbLine
 62
7
  6
CONTINUOUS
 10
136.7839163831
 20
149.0923690396
 11
136.7839163831
 21
62.3388942192
  0
LINE
  5
26D
100
AcDbEntity
  8
ASSI
100
AcDbLine
 62
7
  6
CONTINUOUS
 10
136.7839163831
 20
149.0923690396
 11
136.7839163831
 21
62.3388942192
  0
LINE
  5
26E
100
AcDbEntity
  8
0
100
AcDbLine
 62
7
  6
CONTINUOUS
 10
136.555794145
 20
60.7156316294
 11
224.5545765408
 21
60.7156316294
  0
LINE
  5
26F
100
AcDbEntity
  8
ASSI
100
AcDbLine
 62
7
  6
CONTINUOUS
 10
136.555794145
 20
60.7156316294
 11
224.5545765408
 21
60.7156316294
  0
LINE
  5
270
100
AcDbEntity
  8
0
100
AcDbLine
 62
7
  6
CONTINUOUS
 10
136.7496256885
 20
60.9094631729
 11
224.3607449973
 21
60.9094631729
  0
LINE
  5
271
100
AcDbEntity
  8
ASSI
100
AcDbLine
 62
7
  6
CONTINUOUS
 10
136.7496256885
 20
60.9094631729
 11
224.3607449973
 21
60.9094631729
  0
LINE
  5
272
100
AcDbEntity
  8
0
100
AcDbLine
 62
7
  6
CONTINUOUS
 10
137.1784479327
 20
61.9443626696
 11
223.9319227531
 21
61.9443626696
  0
LINE
  5
273
100
AcDbEntity
  8
ASSI
100
AcDbLine
 62
7
  6
CONTINUOUS
 10
137.1784479327
 20
61.9443626696
 11
223.9319227531
 21
61.9443626696
  0
LWPOLYLINE
  5
274
100
AcDbEntity
  8
0
100
AcDbPolyline
 62
7
  6
CONTINUOUS
 90
10
 70
0
 43
0.3500000006
 10
178.6266112061
 20
162.476605957
 10
179.4837491455
 20
163.3337438965
 10
179.6980336304
 20
164.1908999634
 10
179.6980336304
 20
165.0480379028
 10
179.2694646606
 20
165.4766068726
 10
178.6266112061
 20
165.4766068726
 10
178.1980422363
 20
165.0480379028
 10
178.1980422363
 20
164.1908999634
 10
178.6266112061
 20
163.7623309937
 10
179.5551893921
 20
163.7623309937
  0
LINE
  5
275
100
AcDbEntity
  8
CURVE
100
AcDbLine
 62
250
  6
CONTINUOUS
 10
225.4144435406
 20
69.4582336294
 11
225.5016882689
 21
69.4582336294
  0
LINE
  5
276
100
AcDbEntity
  8
CURVE
100
AcDbLine
 62
250
  6
CONTINUOUS
 10
225.5016882689
 20
69.9800266294
 11
225.4144435406
 21
69.9800266294
  0
LWPOLYLINE
  5
277
100
AcDbEntity
  8
CURVE
100
AcDbPolyline
 62
250
  6
CONTINUOUS
 90
21
 70
0
 10
225.4397028357
 20
76.2929959845
 10
225.4400816159
 20
76.2930246682
 10
225.4404633252
 20
76.2927771425
 10
225.4408474408
 20
76.2922532852
 10
225.44123344
 20
76.2914529741
 10
225.4416207998
 20
76.290376087
 10
225.4420089976
 20
76.2890225015
 10
225.4423975105
 20
76.2873920955
 10
225.4427858158
 20
76.2854847467
 10
225.4431733906
 20
76.283300333
 10
225.4435597122
 20
76.2808387319
 10
225.4439442578
 20
76.2780998214
 10
225.4443265046
 20
76.2750834792
 10
225.4447059298
 20
76.271789583
 10
225.4450820106
 20
76.2682180106
 10
225.4454542242
 20
76.2643686397
 10
225.4458220479
 20
76.2602413482
 10
225.4461849588
 20
76.2558360138
 10
225.4465424342
 20
76.2511525142
 10
225.4468939513
 20
76.2461907273
 10
225.4472389872
 20
76.2409505307
  0
LINE
  5
278
100
AcDbEntity
  8
CURVE
100
AcDbLine
 62
250
  6
CONTINUOUS
 10
225.415468003
 20
75.0870764906
 11
225.5016882695
 21
75.0870764906
  0
LINE
  5
279
100
AcDbEntity
  8
CURVE
100
AcDbLine
 62
250
  6
CONTINUOUS
 10
225.4532598188
 20
75.5894679654
 11
225.4293108714
 21
75.5894679654
  0
LINE
  5
27A
100
AcDbEntity
  8
CURVE
100
AcDbLine
 62
250
  6
CONTINUOUS
 10
225.5016882695
 20
75.6067698322
 11
225.467547543
 21
75.6067698322
  0
LINE
  5
27B
100
AcDbEntity
  8
CURVE
100
AcDbLine
 62
250
  6
CONTINUOUS
 10
225.4609656385
 20
76.4285803858
 11
225.4604501291
 21
76.4285803858
  0
LINE
  5
27C
100
AcDbEntity
  8
0
100
AcDbLine
 62
7
  6
CONTINUOUS
 10
137.1784479327
 20
61.9443626696
 11
136.735199873
 21
60.9249323071
  0
LINE
  5
27D
100
AcDbEntity
  8
ASSI
100
AcDbLine
 62
7
  6
CONTINUOUS
 10
137.1784479327
 20
61.9443626696
 11
136.735199873
 21
60.9249323071
  0
LINE
  5
27E
100
AcDbEntity
  8
0
100
AcDbLine
 62
7
  6
CONTINUOUS
 10
224.3264543027
 20
149.0923690396
 11
225.3458846652
 21
149.5356170993
  0
LINE
  5
27F
100
AcDbEntity
  8
ASSI
100
AcDbLine
 62
7
  6
CONTINUOUS
 10
224.3264543027
 20
149.0923690396
 11
225.3458846652
 21
149.5356170993
  0
LINE
  5
280
100
AcDbEntity
  8
0
100
AcDbLine
 62
7
  6
CONTINUOUS
 10
224.3264543027
 20
62.3388942192
 11
225.3458846652
 21
61.8956461595
  0
LINE
  5
281
100
AcDbEntity
  8
ASSI
100
AcDbLine
 62
7
  6
CONTINUOUS
 10
224.3264543027
 20
62.3388942192
 11
225.3458846652
 21
61.8956461595
  0
LINE
  5
282
100
AcDbEntity
  8
0
100
AcDbLine
 62
7
  6
CONTINUOUS
 10
137.1784479327
 20
149.4869005892
 11
136.735199873
 21
150.5063309517
  0
LINE
  5
283
100
AcDbEntity
  8
ASSI
100
AcDbLine
 62
7
  6
CONTINUOUS
 10
137.1784479327
 20
149.4869005892
 11
136.735199873
 21
150.5063309517
  0
LWPOLYLINE
  5
284
100
AcDbEntity
  8
0
100
AcDbPolyline
 62
7
  6
CONTINUOUS
 90
13
 70
0
 43
0.3500000006
 10
180.5551896973
 20
163.3337438965
 10
180.5551896973
 20
164.6194689331
 10
180.7694741821
 20
165.0480379028
 10
181.1980431519
 20
165.4766068726
 10
181.4123276367
 20
165.4766068726
 10
181.8408966064
 20
165.0480379028
 10
182.0551810913
 20
164.6194689331
 10
182.0551810913
 20
163.3337438965
 10
181.8408966064
 20
162.9051749268
 10
181.4123276367
 20
162.476605957
 10
181.1980431519
 20
162.476605957
 10
180.7694741821
 20
162.9051749268
 10
180.5551896973
 20
163.3337438965
  0
LINE
  5
285
100
AcDbEntity
  8
0
100
AcDbLine
 62
7
  6
CONTINUOUS
 10
135.7490168864
 20
61.910071975
 11
135.5551853429
 21
61.7162404315
  0
LINE
  5
286
100
AcDbEntity
  8
ASSI
100
AcDbLine
 62
7
  6
CONTINUOUS
 10
135.7490168864
 20
61.910071975
 11
135.5551853429
 21
61.7162404315
  0
LINE
  5
287
100
AcDbEntity
  8
0
100
AcDbLine
 62
7
  6
CONTINUOUS
 10
224.3607449973
 20
150.5218000859
 11
224.5545765408
 21
150.7156316294
  0
LINE
  5
288
100
AcDbEntity
  8
ASSI
100
AcDbLine
 62
7
  6
CONTINUOUS
 10
224.3607449973
 20
150.5218000859
 11
224.5545765408
 21
150.7156316294
  0
LWPOLYLINE
  5
289
100
AcDbEntity
  8
0
100
AcDbPolyline
 62
7
  6
CONTINUOUS
 90
13
 70
0
 43
0.3500000006
 10
234.0130506592
 20
105.7156351318
 10
232.72734375
 20
105.7156351318
 10
232.2987747803
 20
105.9299196167
 10
231.8702058105
 20
106.3584885864
 10
231.8702058105
 20
106.5727730713
 10
232.2987747803
 20
107.001342041
 10
232.72734375
 20
107.2156355896
 10
234.0130506592
 20
107.2156355896
 10
234.4416196289
 20
107.001342041
 10
234.8702067261
 20
106.5727730713
 10
234.8702067261
 20
106.3584885864
 10
234.4416196289
 20
105.9299196167
 10
234.0130506592
 20
105.7156351318
  0
LINE
  5
28A
100
AcDbEntity
  8
0
100
AcDbLine
 62
7
  6
CONTINUOUS
 10
135.7490168864
 20
149.5211912838
 11
135.5551853429
 21
149.7150228273
  0
LINE
  5
28B
100
AcDbEntity
  8
ASSI
100
AcDbLine
 62
7
  6
CONTINUOUS
 10
135.7490168864
 20
149.5211912838
 11
135.5551853429
 21
149.7150228273
  0
LINE
  5
28C
100
AcDbEntity
  8
0
100
AcDbLine
 62
7
  6
CONTINUOUS
 10
224.3607449973
 20
60.9094631729
 11
224.5545765408
 21
60.7156316294
  0
LINE
  5
28D
100
AcDbEntity
  8
ASSI
100
AcDbLine
 62
7
  6
CONTINUOUS
 10
224.3607449973
 20
60.9094631729
 11
224.5545765408
 21
60.7156316294
  0
LINE
  5
28E
100
AcDbEntity
  8
0
100
AcDbLine
 62
7
  6
CONTINUOUS
 10
136.7496256885
 20
60.9094631729
 11
136.555794145
 21
60.7156316294
  0
LINE
  5
28F
100
AcDbEntity
  8
ASSI
100
AcDbLine
 62
7
  6
CONTINUOUS
 10
136.7496256885
 20
60.9094631729
 11
136.555794145
 21
60.7156316294
  0
LINE
  5
290
100
AcDbEntity
  8
0
100
AcDbLine
 62
7
  6
CONTINUOUS
 10
225.3613537994
 20
149.5211912838
 11
225.5551853429
 21
149.7150228273
  0
LINE
  5
291
100
AcDbEntity
  8
ASSI
100
AcDbLine
 62
7
  6
CONTINUOUS
 10
225.3613537994
 20
149.5211912838
 11
225.5551853429
 21
149.7150228273
  0
LINE
  5
292
100
AcDbEntity
  8
0
100
AcDbLine
 62
7
  6
CONTINUOUS
 10
136.7496256885
 20
150.5218000859
 11
136.555794145
 21
150.7156316294
  0
LINE
  5
293
100
AcDbEntity
  8
ASSI
100
AcDbLine
 62
7
  6
CONTINUOUS
 10
136.7496256885
 20
150.5218000859
 11
136.555794145
 21
150.7156316294
  0
LINE
  5
294
100
AcDbEntity
  8
0
100
AcDbLine
 62
7
  6
CONTINUOUS
 10
225.3613537994
 20
61.910071975
 11
225.5551853429
 21
61.7162404315
  0
LINE
  5
295
100
AcDbEntity
  8
ASSI
100
AcDbLine
 62
7
  6
CONTINUOUS
 10
225.3613537994
 20
61.910071975
 11
225.5551853429
 21
61.7162404315
  0
LINE
  5
296
100
AcDbEntity
  8
0
100
AcDbLine
 62
7
  6
CONTINUOUS
 10
223.9319227531
 20
149.4869005892
 11
224.3751708128
 21
150.5063309517
  0
LINE
  5
297
100
AcDbEntity
  8
ASSI
100
AcDbLine
 62
7
  6
CONTINUOUS
 10
223.9319227531
 20
149.4869005892
 11
224.3751708128
 21
150.5063309517
  0
LINE
  5
298
100
AcDbEntity
  8
0
100
AcDbLine
 62
7
  6
CONTINUOUS
 10
136.7839163831
 20
62.3388942192
 11
135.7644860206
 21
61.8956461595
  0
LINE
  5
299
100
AcDbEntity
  8
ASSI
100
AcDbLine
 62
7
  6
CONTINUOUS
 10
136.7839163831
 20
62.3388942192
 11
135.7644860206
 21
61.8956461595
  0
LINE
  5
29A
100
AcDbEntity
  8
0
100
AcDbLine
 62
7
  6
CONTINUOUS
 10
136.7839163831
 20
149.0923690396
 11
135.7644860206
 21
149.5356170993
  0
LINE
  5
29B
100
AcDbEntity
  8
ASSI
100
AcDbLine
 62
7
  6
CONTINUOUS
 10
136.7839163831
 20
149.0923690396
 11
135.7644860206
 21
149.5356170993
  0
LINE
  5
29C
100
AcDbEntity
  8
CURVE
100
AcDbLine
 62
250
  6
CONTINUOUS
 10
225.4447225184
 20
70.8727126294
 11
225.5016882689
 21
70.7601096294
  0
LINE
  5
29D
100
AcDbEntity
  8
0
100
AcDbLine
 62
7
  6
CONTINUOUS
 10
223.9319227531
 20
61.9443626696
 11
224.3751708128
 21
60.9249323071
  0
LINE
  5
29E
100
AcDbEntity
  8
ASSI
100
AcDbLine
 62
7
  6
CONTINUOUS
 10
223.9319227531
 20
61.9443626696
 11
224.3751708128
 21
60.9249323071
  0
LINE
  5
29F
100
AcDbEntity
  8
CURVE
100
AcDbLine
 62
250
  6
CONTINUOUS
 10
225.5016882689
 20
70.2609236294
 11
225.4144487406
 21
70.4866356294
  0
LWPOLYLINE
  5
2A0
100
AcDbEntity
  8
0
100
AcDbPolyline
 62
7
  6
CONTINUOUS
 90
10
 70
0
 43
0.3500000006
 10
234.8702067261
 20
103.7870566406
 10
234.0130506592
 20
104.6442036438
 10
233.1559127197
 20
104.8584881287
 10
232.2987747803
 20
104.8584881287
 10
231.8702058105
 20
104.4299191589
 10
231.8702058105
 20
103.7870566406
 10
232.2987747803
 20
103.3584876709
 10
233.1559127197
 20
103.3584876709
 10
233.5844816895
 20
103.7870566406
 10
233.5844816895
 20
104.7156348267
  0
LINE
  5
2A1
100
AcDbEntity
  8
CURVE
100
AcDbLine
 62
250
  6
CONTINUOUS
 10
225.4144487406
 20
69.2645946294
 11
225.5016882689
 21
68.4610796294
  0
LINE
  5
2A2
100
AcDbEntity
  8
CURVE
100
AcDbLine
 62
250
  6
CONTINUOUS
 10
225.462884391
 20
71.5242786294
 11
225.4144487406
 21
72.0460716294
  0
LINE
  5
2A3
100
AcDbEntity
  8
CURVE
100
AcDbLine
 62
250
  6
CONTINUOUS
 10
225.4449599746
 20
72.1784316294
 11
225.5016882689
 21
71.5580206294
  0
LINE
  5
2A4
100
AcDbEntity
  8
CURVE
100
AcDbLine
 62
250
  6
CONTINUOUS
 10
225.4384199485
 20
73.9046816294
 11
225.4707956532
 21
73.6448726294
  0
LINE
  5
2A5
100
AcDbEntity
  8
CURVE
100
AcDbLine
 62
250
  6
CONTINUOUS
 10
225.47449842
 20
68.2521076294
 11
225.4144487406
 21
68.7431586294
  0
LINE
  5
2A6
100
AcDbEntity
  8
CURVE
100
AcDbLine
 62
250
  6
CONTINUOUS
 10
225.4842721637
 20
73.5381376294
 11
225.5016882689
 21
73.3941546294
  0
LINE
  5
2A7
100
AcDbEntity
  8
CURVE
100
AcDbLine
 62
250
  6
CONTINUOUS
 10
225.5016882689
 20
72.8780236294
 11
225.4144487406
 21
73.6620996294
  0
LWPOLYLINE
  5
2A8
100
AcDbEntity
  8
CURVE
100
AcDbPolyline
 62
250
  6
CONTINUOUS
 90
36
 70
0
 10
225.4527088689
 20
76.6724679175
 10
225.4519987853
 20
76.684870012
 10
225.4512715389
 20
76.6965591015
 10
225.4505289085
 20
76.7075240756
 10
225.4497726726
 20
76.7177538243
 10
225.4490046099
 20
76.7272372373
 10
225.448226499
 20
76.7359632043
 10
225.4474401184
 20
76.7439206151
 10
225.4466477456
 20
76.7510957464
 10
225.4458493508
 20
76.7575026087
 10
225.4450453911
 20
76.7631511922
 10
225.4442363237
 20
76.7680514871
 10
225.4434226059
 20
76.7722134837
 10
225.4426046949
 20
76.7756471722
 10
225.4416651976
 20
76.7786933745
 10
225.4407220106
 20
76.7808170136
 10
225.4397763269
 20
76.7820342927
 10
225.4388293394
 20
76.7823614152
 10
225.437882241
 20
76.7818145844
 10
225.4369362246
 20
76.7804100037
 10
225.4360159857
 20
76.7782225774
 10
225.4350990274
 20
76.7752055462
 10
225.4341864673
 20
76.7713293978
 10
225.433279423
 20
76.7665646195
 10
225.4323790124
 20
76.760881699
 10
225.4315762385
 20
76.7549679652
 10
225.4307807034
 20
76.7482827921
 10
225.4299933827
 20
76.740820476
 10
225.429215252
 20
76.7325753126
 10
225.4284472867
 20
76.7235415982
 10
225.4276239843
 20
76.7128092193
 10
225.4268152547
 20
76.7011582932
 10
225.4260224675
 20
76.6886115327
 10
225.4252469925
 20
76.6751916507
 10
225.4244901991
 20
76.6609213603
 10
225.4230381362
 20
76.629920406
  0
LINE
  5
2A9
100
AcDbEntity
  8
CURVE
100
AcDbLine
 62
250
  6
CONTINUOUS
 10
225.4472389872
 20
76.2409505307
 11
225.4479075246
 21
76.2296344198
  0
LINE
  5
2AA
100
AcDbEntity
  8
CURVE
100
AcDbLine
 62
250
  6
CONTINUOUS
 10
225.4479075246
 20
76.2296344198
 11
225.448543864
 21
76.2172032035
  0
LINE
  5
2AB
100
AcDbEntity
  8
CURVE
100
AcDbLine
 62
250
  6
CONTINUOUS
 10
225.4540704335
 20
76.6455691543
 11
225.4527088689
 21
76.6724679175
  0
LINE
  5
2AC
100
AcDbEntity
  8
CURVE
100
AcDbLine
 62
250
  6
CONTINUOUS
 10
225.448543864
 20
76.2172032035
 11
225.4491438231
 21
76.203655904
  0
LINE
  5
2AD
100
AcDbEntity
  8
CURVE
100
AcDbLine
 62
250
  6
CONTINUOUS
 10
225.4552973272
 20
76.6170987992
 11
225.4540704335
 21
76.6455691543
  0
LINE
  5
2AE
100
AcDbEntity
  8
CURVE
100
AcDbLine
 62
250
  6
CONTINUOUS
 10
225.4491438231
 20
76.203655904
 11
225.4497032197
 21
76.1889915433
  0
LINE
  5
2AF
100
AcDbEntity
  8
CURVE
100
AcDbLine
 62
250
  6
CONTINUOUS
 10
225.4564031457
 20
76.587477524
 11
225.4552973272
 21
76.6170987992
  0
LINE
  5
2B0
100
AcDbEntity
  8
CURVE
100
AcDbLine
 62
250
  6
CONTINUOUS
 10
225.4497032197
 20
76.1889915433
 11
225.4502178713
 21
76.1732091437
  0
LINE
  5
2B1
100
AcDbEntity
  8
CURVE
100
AcDbLine
 62
250
  6
CONTINUOUS
 10
225.4584785104
 20
76.5223470662
 11
225.4564031457
 21
76.587477524
  0
LINE
  5
2B2
100
AcDbEntity
  8
CURVE
100
AcDbLine
 62
250
  6
CONTINUOUS
 10
225.4595709268
 20
76.4836552232
 11
225.4584785104
 21
76.5223470662
  0
LINE
  5
2B3
100
AcDbEntity
  8
CURVE
100
AcDbLine
 62
250
  6
CONTINUOUS
 10
225.4502178713
 20
76.1732091437
 11
225.4508918677
 21
76.1478585468
  0
LINE
  5
2B4
100
AcDbEntity
  8
CURVE
100
AcDbLine
 62
250
  6
CONTINUOUS
 10
225.4599190512
 20
76.4688571097
 11
225.4595709268
 21
76.4836552232
  0
LINE
  5
2B5
100
AcDbEntity
  8
CURVE
100
AcDbLine
 62
250
  6
CONTINUOUS
 10
225.4508918677
 20
76.1478585468
 11
225.4514655723
 21
76.1204035315
  0
LINE
  5
2B6
100
AcDbEntity
  8
CURVE
100
AcDbLine
 62
250
  6
CONTINUOUS
 10
225.4602025409
 20
76.4533926295
 11
225.4599190512
 21
76.4688571097
  0
LINE
  5
2B7
100
AcDbEntity
  8
CURVE
100
AcDbLine
 62
250
  6
CONTINUOUS
 10
225.4514655723
 20
76.1204035315
 11
225.4520863489
 21
76.0811215292
  0
LINE
  5
2B8
100
AcDbEntity
  8
CURVE
100
AcDbLine
 62
250
  6
CONTINUOUS
 10
225.4520863489
 20
76.0811215292
 11
225.4526534755
 21
76.0288731307
  0
LWPOLYLINE
  5
2B9
100
AcDbEntity
  8
CURVE
100
AcDbPolyline
 62
250
  6
CONTINUOUS
 90
3
 70
0
 10
225.4604501291
 20
76.4285803858
 10
225.4603955872
 20
76.437094429
 10
225.4602025409
 20
76.4533926295
  0
LINE
  5
2BA
100
AcDbEntity
  8
CURVE
100
AcDbLine
 62
250
  6
CONTINUOUS
 10
225.4526534755
 20
76.0288731307
 11
225.4531144729
 21
75.9527245115
  0
LINE
  5
2BB
100
AcDbEntity
  8
CURVE
100
AcDbLine
 62
250
  6
CONTINUOUS
 10
225.4293108714
 20
75.5894679654
 11
225.4285430184
 21
75.7788210542
  0
LINE
  5
2BC
100
AcDbEntity
  8
CURVE
100
AcDbLine
 62
250
  6
CONTINUOUS
 10
225.4134431694
 20
75.7099563579
 11
225.415468003
 21
75.0870764906
  0
LINE
  5
2BD
100
AcDbEntity
  8
0
100
AcDbLine
 62
7
  6
CONTINUOUS
 10
224.3264543027
 20
62.3388942192
 11
224.3264543027
 21
149.0923690396
  0
LINE
  5
2BE
100
AcDbEntity
  8
ASSI
100
AcDbLine
 62
7
  6
CONTINUOUS
 10
224.3264543027
 20
62.3388942192
 11
224.3264543027
 21
149.0923690396
  0
LINE
  5
2BF
100
AcDbEntity
  8
0
100
AcDbLine
 62
7
  6
CONTINUOUS
 10
225.3613537994
 20
61.910071975
 11
225.3613537994
 21
149.5211912838
  0
LINE
  5
2C0
100
AcDbEntity
  8
ASSI
100
AcDbLine
 62
7
  6
CONTINUOUS
 10
225.3613537994
 20
61.910071975
 11
225.3613537994
 21
149.5211912838
  0
LINE
  5
2C1
100
AcDbEntity
  8
CURVE
100
AcDbLine
 62
250
  6
CONTINUOUS
 10
225.4144435406
 20
69.9800266294
 11
225.4144435406
 21
69.4582336294
  0
LINE
  5
2C2
100
AcDbEntity
  8
CURVE
100
AcDbLine
 62
250
  6
CONTINUOUS
 10
225.4144487406
 20
67.2087846294
 11
225.4144487406
 21
67.7756126294
  0
LINE
  5
2C3
100
AcDbEntity
  8
CURVE
100
AcDbLine
 62
250
  6
CONTINUOUS
 10
225.4144487406
 20
68.7431586294
 11
225.4144487406
 21
69.2645946294
  0
LINE
  5
2C4
100
AcDbEntity
  8
CURVE
100
AcDbLine
 62
250
  6
CONTINUOUS
 10
225.4144487406
 20
70.4866356294
 11
225.4144487406
 21
71.0079966294
  0
LINE
  5
2C5
100
AcDbEntity
  8
CURVE
100
AcDbLine
 62
250
  6
CONTINUOUS
 10
225.4144487406
 20
72.0460716294
 11
225.4144487406
 21
72.5623346294
  0
LINE
  5
2C6
100
AcDbEntity
  8
CURVE
100
AcDbLine
 62
250
  6
CONTINUOUS
 10
225.4144487406
 20
73.6620996294
 11
225.4144487406
 21
74.1668716294
  0
LINE
  5
2C7
100
AcDbEntity
  8
CURVE
100
AcDbLine
 62
250
  6
CONTINUOUS
 10
225.4531144729
 20
75.9527245115
 11
225.4532598188
 21
75.5894679654
  0
LINE
  5
2C8
100
AcDbEntity
  8
CURVE
100
AcDbLine
 62
250
  6
CONTINUOUS
 10
225.4707956532
 20
73.6448726294
 11
225.4707956532
 21
74.1444526294
  0
LINE
  5
2C9
100
AcDbEntity
  8
CURVE
100
AcDbLine
 62
250
  6
CONTINUOUS
 10
225.4842721637
 20
74.2487326294
 11
225.4842721637
 21
73.5381376294
  0
LINE
  5
2CA
100
AcDbEntity
  8
CURVE
100
AcDbLine
 62
250
  6
CONTINUOUS
 10
225.5016882689
 20
74.9338526294
 11
225.5016882689
 21
74.3839046294
  0
LINE
  5
2CB
100
AcDbEntity
  8
CURVE
100
AcDbLine
 62
250
  6
CONTINUOUS
 10
225.5016882689
 20
73.3941546294
 11
225.5016882689
 21
72.8780236294
  0
LINE
  5
2CC
100
AcDbEntity
  8
CURVE
100
AcDbLine
 62
250
  6
CONTINUOUS
 10
225.5016882689
 20
72.7960876294
 11
225.5016882689
 21
72.2856356294
  0
LINE
  5
2CD
100
AcDbEntity
  8
CURVE
100
AcDbLine
 62
250
  6
CONTINUOUS
 10
225.5016882689
 20
71.5580206294
 11
225.5016882689
 21
71.4848386294
  0
LINE
  5
2CE
100
AcDbEntity
  8
CURVE
100
AcDbLine
 62
250
  6
CONTINUOUS
 10
225.5016882689
 20
70.7601096294
 11
225.5016882689
 21
70.2609236294
  0
LINE
  5
2CF
100
AcDbEntity
  8
CURVE
100
AcDbLine
 62
250
  6
CONTINUOUS
 10
225.5016882689
 20
68.4610796294
 11
225.5016882689
 21
68.0012496294
  0
LINE
  5
2D0
100
AcDbEntity
  8
CURVE
100
AcDbLine
 62
250
  6
CONTINUOUS
 10
225.5016882689
 20
69.4582336294
 11
225.5016882689
 21
69.9800266294
  0
LINE
  5
2D1
100
AcDbEntity
  8
CURVE
100
AcDbLine
 62
250
  6
CONTINUOUS
 10
225.5016882695
 20
75.0870764906
 11
225.5016882695
 21
75.6067698322
  0
LINE
  5
2D2
100
AcDbEntity
  8
CURVE
100
AcDbLine
 62
250
  6
CONTINUOUS
 10
225.5016882695
 20
76.4058236509
 11
225.5016882695
 21
76.9077277492
  0
LINE
  5
2D3
100
AcDbEntity
  8
0
100
AcDbLine
 62
7
  6
CONTINUOUS
 10
225.5551853429
 20
61.7162404315
 11
225.5551853429
 21
149.7150228273
  0
LINE
  5
2D4
100
AcDbEntity
  8
ASSI
100
AcDbLine
 62
7
  6
CONTINUOUS
 10
225.5551853429
 20
61.7162404315
 11
225.5551853429
 21
149.7150228273
  0
LINE
  5
2D5
100
AcDbEntity
  8
CURVE
100
AcDbLine
 62
250
  6
CONTINUOUS
 10
225.4285430184
 20
75.7788210542
 11
225.4286576575
 21
75.958546868
  0
LINE
  5
2D6
100
AcDbEntity
  8
CURVE
100
AcDbLine
 62
250
  6
CONTINUOUS
 10
225.4139806724
 20
76.0627597843
 11
225.4134431694
 21
75.7099563579
  0
LINE
  5
2D7
100
AcDbEntity
  8
CURVE
100
AcDbLine
 62
250
  6
CONTINUOUS
 10
225.467547543
 20
75.6067698322
 11
225.4676375118
 21
75.926773123
  0
LINE
  5
2D8
100
AcDbEntity
  8
CURVE
100
AcDbLine
 62
250
  6
CONTINUOUS
 10
225.4286576575
 20
75.958546868
 11
225.4290243604
 21
76.0364601465
  0
LINE
  5
2D9
100
AcDbEntity
  8
CURVE
100
AcDbLine
 62
250
  6
CONTINUOUS
 10
225.4151164297
 20
76.2523257618
 11
225.4139806724
 21
76.0627597843
  0
LINE
  5
2DA
100
AcDbEntity
  8
CURVE
100
AcDbLine
 62
250
  6
CONTINUOUS
 10
225.4676375118
 20
75.926773123
 11
225.467912272
 21
75.9665332825
  0
LINE
  5
2DB
100
AcDbEntity
  8
CURVE
100
AcDbLine
 62
250
  6
CONTINUOUS
 10
225.4163864996
 20
76.3747815151
 11
225.4151164297
 21
76.2523257618
  0
LINE
  5
2DC
100
AcDbEntity
  8
CURVE
100
AcDbLine
 62
250
  6
CONTINUOUS
 10
225.4290243604
 20
76.0364601465
 11
225.4295092379
 21
76.0834529347
  0
LINE
  5
2DD
100
AcDbEntity
  8
CURVE
100
AcDbLine
 62
250
  6
CONTINUOUS
 10
225.467912272
 20
75.9665332825
 11
225.4682700227
 21
75.9973082478
  0
LINE
  5
2DE
100
AcDbEntity
  8
CURVE
100
AcDbLine
 62
250
  6
CONTINUOUS
 10
225.4171290971
 20
76.42372734
 11
225.4163864996
 21
76.3747815151
  0
LINE
  5
2DF
100
AcDbEntity
  8
CURVE
100
AcDbLine
 62
250
  6
CONTINUOUS
 10
225.4295092379
 20
76.0834529347
 11
225.4300560278
 21
76.1196053111
  0
LINE
  5
2E0
100
AcDbEntity
  8
CURVE
100
AcDbLine
 62
250
  6
CONTINUOUS
 10
225.4614515645
 20
76.4583341445
 11
225.4609656385
 21
76.4285803858
  0
LINE
  5
2E1
100
AcDbEntity
  8
CURVE
100
AcDbLine
 62
250
  6
CONTINUOUS
 10
225.4682700227
 20
75.9973082478
 11
225.4687578721
 21
76.0267733439
  0
LINE
  5
2E2
100
AcDbEntity
  8
CURVE
100
AcDbLine
 62
250
  6
CONTINUOUS
 10
225.4180589867
 20
76.4701767611
 11
225.4171290971
 21
76.42372734
  0
LINE
  5
2E3
100
AcDbEntity
  8
CURVE
100
AcDbLine
 62
250
  6
CONTINUOUS
 10
225.4300560278
 20
76.1196053111
 11
225.4307422931
 21
76.1537457331
  0
LINE
  5
2E4
100
AcDbEntity
  8
CURVE
100
AcDbLine
 62
250
  6
CONTINUOUS
 10
225.4620478031
 20
76.4862176111
 11
225.4614515645
 21
76.4583341445
  0
LINE
  5
2E5
100
AcDbEntity
  8
CURVE
100
AcDbLine
 62
250
  6
CONTINUOUS
 10
225.4687578721
 20
76.0267733439
 11
225.469216152
 21
76.0480127393
  0
LINE
  5
2E6
100
AcDbEntity
  8
CURVE
100
AcDbLine
 62
250
  6
CONTINUOUS
 10
225.419410924
 20
76.5246420998
 11
225.4180589867
 21
76.4701767611
  0
LINE
  5
2E7
100
AcDbEntity
  8
CURVE
100
AcDbLine
 62
250
  6
CONTINUOUS
 10
225.4307422931
 20
76.1537457331
 11
225.4313475463
 21
76.1776251741
  0
LINE
  5
2E8
100
AcDbEntity
  8
CURVE
100
AcDbLine
 62
250
  6
CONTINUOUS
 10
225.469216152
 20
76.0480127393
 11
225.4697415016
 21
76.0680725006
  0
LINE
  5
2E9
100
AcDbEntity
  8
CURVE
100
AcDbLine
 62
250
  6
CONTINUOUS
 10
225.4627441195
 20
76.512292393
 11
225.4620478031
 21
76.4862176111
  0
LINE
  5
2EA
100
AcDbEntity
  8
CURVE
100
AcDbLine
 62
250
  6
CONTINUOUS
 10
225.4205161731
 20
76.5619271137
 11
225.419410924
 21
76.5246420998
  0
LINE
  5
2EB
100
AcDbEntity
  8
CURVE
100
AcDbLine
 62
250
  6
CONTINUOUS
 10
225.4697415016
 20
76.0680725006
 11
225.4703267934
 21
76.0869057572
  0
LINE
  5
2EC
100
AcDbEntity
  8
CURVE
100
AcDbLine
 62
250
  6
CONTINUOUS
 10
225.4313475463
 20
76.1776251741
 11
225.4320296567
 21
76.1997092952
  0
LINE
  5
2ED
100
AcDbEntity
  8
CURVE
100
AcDbLine
 62
250
  6
CONTINUOUS
 10
225.4635302784
 20
76.5366200977
 11
225.4627441195
 21
76.512292393
  0
LINE
  5
2EE
100
AcDbEntity
  8
CURVE
100
AcDbLine
 62
250
  6
CONTINUOUS
 10
225.4217135818
 20
76.5967792211
 11
225.4205161731
 21
76.5619271137
  0
LINE
  5
2EF
100
AcDbEntity
  8
CURVE
100
AcDbLine
 62
250
  6
CONTINUOUS
 10
225.4320296567
 20
76.1997092952
 11
225.4325253106
 21
76.2132601312
  0
LINE
  5
2F0
100
AcDbEntity
  8
CURVE
100
AcDbLine
 62
250
  6
CONTINUOUS
 10
225.4703267934
 20
76.0869057572
 11
225.4709648999
 21
76.1044656382
  0
LINE
  5
2F1
100
AcDbEntity
  8
CURVE
100
AcDbLine
 62
250
  6
CONTINUOUS
 10
225.4643960449
 20
76.5592623327
 11
225.4635302784
 21
76.5366200977
  0
LINE
  5
2F2
100
AcDbEntity
  8
CURVE
100
AcDbLine
 62
250
  6
CONTINUOUS
 10
225.4230381362
 20
76.629920406
 11
225.4217135818
 21
76.5967792211
  0
LINE
  5
2F3
100
AcDbEntity
  8
CURVE
100
AcDbLine
 62
250
  6
CONTINUOUS
 10
225.4325253106
 20
76.2132601312
 11
225.4330514219
 21
76.2258061345
  0
LINE
  5
2F4
100
AcDbEntity
  8
CURVE
100
AcDbLine
 62
250
  6
CONTINUOUS
 10
225.4709648999
 20
76.1044656382
 11
225.4716486936
 21
76.1207052729
  0
LINE
  5
2F5
100
AcDbEntity
  8
CURVE
100
AcDbLine
 62
250
  6
CONTINUOUS
 10
225.465331184
 20
76.5802807053
 11
225.4643960449
 21
76.5592623327
  0
LINE
  5
2F6
100
AcDbEntity
  8
CURVE
100
AcDbLine
 62
250
  6
CONTINUOUS
 10
225.4716486936
 20
76.1207052729
 11
225.4721264181
 21
76.1307750799
  0
LINE
  5
2F7
100
AcDbEntity
  8
CURVE
100
AcDbLine
 62
250
  6
CONTINUOUS
 10
225.4330514219
 20
76.2258061345
 11
225.433606192
 21
76.2373597616
  0
LINE
  5
2F8
100
AcDbEntity
  8
CURVE
100
AcDbLine
 62
250
  6
CONTINUOUS
 10
225.465988096
 20
76.5934212314
 11
225.465331184
 21
76.5802807053
  0
LINE
  5
2F9
100
AcDbEntity
  8
CURVE
100
AcDbLine
 62
250
  6
CONTINUOUS
 10
225.4721264181
 20
76.1307750799
 11
225.4726191683
 21
76.1402233916
  0
LINE
  5
2FA
100
AcDbEntity
  8
CURVE
100
AcDbLine
 62
250
  6
CONTINUOUS
 10
225.4666682588
 20
76.6058856761
 11
225.465988096
 21
76.5934212314
  0
LWPOLYLINE
  5
2FB
100
AcDbEntity
  8
CURVE
100
AcDbPolyline
 62
250
  6
CONTINUOUS
 90
19
 70
0
 10
225.433606192
 20
76.2373597616
 10
225.4341864668
 20
76.2478968034
 10
225.4344851828
 20
76.2527765395
 10
225.4347890922
 20
76.2573930508
 10
225.4350978007
 20
76.2617433114
 10
225.435410914
 20
76.2658242949
 10
225.4357280379
 20
76.2696329753
 10
225.4360487781
 20
76.2731663265
 10
225.4363727404
 20
76.2764213223
 10
225.4366995304
 20
76.2793949366
 10
225.4370287539
 20
76.2820841432
 10
225.4373600166
 20
76.284485916
 10
225.4376929243
 20
76.2865972289
 10
225.4380270827
 20
76.2884150557
 10
225.4383620975
 20
76.2899363704
 10
225.4386975745
 20
76.2911581468
 10
225.4390331194
 20
76.2920773586
 10
225.4393683378
 20
76.2926909799
 10
225.4397028357
 20
76.2929959845
  0
LINE
  5
2FC
100
AcDbEntity
  8
CURVE
100
AcDbLine
 62
250
  6
CONTINUOUS
 10
225.4726191683
 20
76.1402233916
 11
225.4731248325
 21
76.1490363204
  0
LINE
  5
2FD
100
AcDbEntity
  8
CURVE
100
AcDbLine
 62
250
  6
CONTINUOUS
 10
225.4673686396
 20
76.6176922934
 11
225.4666682588
 21
76.6058856761
  0
LINE
  5
2FE
100
AcDbEntity
  8
CURVE
100
AcDbLine
 62
250
  6
CONTINUOUS
 10
225.4731248325
 20
76.1490363204
 11
225.4736412987
 21
76.1571999788
  0
LINE
  5
2FF
100
AcDbEntity
  8
CURVE
100
AcDbLine
 62
250
  6
CONTINUOUS
 10
225.4680862061
 20
76.6288593374
 11
225.4673686396
 21
76.6176922934
  0
LINE
  5
300
100
AcDbEntity
  8
CURVE
100
AcDbLine
 62
250
  6
CONTINUOUS
 10
225.4688179254
 20
76.6394050621
 11
225.4680862061
 21
76.6288593374
  0
LINE
  5
301
100
AcDbEntity
  8
CURVE
100
AcDbLine
 62
250
  6
CONTINUOUS
 10
225.4736412987
 20
76.1571999788
 11
225.4741664551
 21
76.164700479
  0
LINE
  5
302
100
AcDbEntity
  8
CURVE
100
AcDbLine
 62
250
  6
CONTINUOUS
 10
225.4695607651
 20
76.6493477217
 11
225.4688179254
 21
76.6394050621
  0
LWPOLYLINE
  5
303
100
AcDbEntity
  8
CURVE
100
AcDbPolyline
 62
250
  6
CONTINUOUS
 90
4
 70
0
 10
225.4741664551
 20
76.164700479
 10
225.4746981898
 20
76.1715239334
 10
225.4749658641
 20
76.1746774286
 10
225.475234391
 20
76.1776564545
  0
LWPOLYLINE
  5
304
100
AcDbEntity
  8
CURVE
100
AcDbPolyline
 62
250
  6
CONTINUOUS
 90
3
 70
0
 10
225.4706892414
 20
76.6631708946
 10
225.4703116925
 20
76.6587055701
 10
225.4695607651
 20
76.6493477217
  0
LINE
  5
305
100
AcDbEntity
  8
0
100
AcDbLine
 62
7
  6
CONTINUOUS
 10
223.9319227531
 20
149.4869005892
 11
137.1784479327
 21
149.4869005892
  0
LINE
  5
306
100
AcDbEntity
  8
ASSI
100
AcDbLine
 62
7
  6
CONTINUOUS
 10
223.9319227531
 20
149.4869005892
 11
137.1784479327
 21
149.4869005892
  0
LINE
  5
307
100
AcDbEntity
  8
0
100
AcDbLine
 62
7
  6
CONTINUOUS
 10
224.3607449973
 20
150.5218000859
 11
136.7496256885
 21
150.5218000859
  0
LINE
  5
308
100
AcDbEntity
  8
ASSI
100
AcDbLine
 62
7
  6
CONTINUOUS
 10
224.3607449973
 20
150.5218000859
 11
136.7496256885
 21
150.5218000859
  0
LINE
  5
309
100
AcDbEntity
  8
0
100
AcDbLine
 62
7
  6
CONTINUOUS
 10
224.5545765408
 20
150.7156316294
 11
136.555794145
 21
150.7156316294
  0
LINE
  5
30A
100
AcDbEntity
  8
ASSI
100
AcDbLine
 62
7
  6
CONTINUOUS
 10
224.5545765408
 20
150.7156316294
 11
136.555794145
 21
150.7156316294
  0
LINE
  5
30B
100
AcDbEntity
  8
CURVE
100
AcDbLine
 62
250
  6
CONTINUOUS
 10
225.4714466142
 20
76.6716857527
 11
225.4706892414
 21
76.6631708946
  0
LINE
  5
30C
100
AcDbEntity
  8
CURVE
100
AcDbLine
 62
250
  6
CONTINUOUS
 10
225.5016882689
 20
71.4848386294
 11
225.4447225184
 21
70.8727126294
  0
LINE
  5
30D
100
AcDbEntity
  8
CURVE
100
AcDbLine
 62
250
  6
CONTINUOUS
 10
225.4144487406
 20
71.0079966294
 11
225.462884391
 21
71.5242786294
  0
LINE
  5
30E
100
AcDbEntity
  8
CURVE
100
AcDbLine
 62
250
  6
CONTINUOUS
 10
225.475234391
 20
76.1776564545
 11
225.4764416668
 21
76.1903393818
  0
LINE
  5
30F
100
AcDbEntity
  8
CURVE
100
AcDbLine
 62
250
  6
CONTINUOUS
 10
225.4722044932
 20
76.6796614348
 11
225.4714466142
 21
76.6716857527
  0
LINE
  5
310
100
AcDbEntity
  8
CURVE
100
AcDbLine
 62
250
  6
CONTINUOUS
 10
225.4764416668
 20
76.1903393818
 11
225.4788741831
 21
76.2142105111
  0
LINE
  5
311
100
AcDbEntity
  8
CURVE
100
AcDbLine
 62
250
  6
CONTINUOUS
 10
225.5016882689
 20
68.0012496294
 11
225.4144487406
 21
67.2087846294
  0
LINE
  5
312
100
AcDbEntity
  8
CURVE
100
AcDbLine
 62
250
  6
CONTINUOUS
 10
225.4788741831
 20
76.2142105111
 11
225.4813260715
 21
76.2364634208
  0
LINE
  5
313
100
AcDbEntity
  8
CURVE
100
AcDbLine
 62
250
  6
CONTINUOUS
 10
225.4144487406
 20
74.1668716294
 11
225.5016882689
 21
74.9338526294
  0
LWPOLYLINE
  5
314
100
AcDbEntity
  8
CURVE
100
AcDbPolyline
 62
250
  6
CONTINUOUS
 90
5
 70
0
 10
225.4746986731
 20
76.7026538165
 10
225.4740194128
 20
76.6968232282
 10
225.4733356271
 20
76.6906539338
 10
225.4729598459
 20
76.687116195
 10
225.4722044932
 20
76.6796614348
  0
LINE
  5
315
100
AcDbEntity
  8
CURVE
100
AcDbLine
 62
250
  6
CONTINUOUS
 10
225.4813260715
 20
76.2364634208
 11
225.483791835
 21
76.2575478081
  0
LINE
  5
316
100
AcDbEntity
  8
CURVE
100
AcDbLine
 62
250
  6
CONTINUOUS
 10
225.483791835
 20
76.2575478081
 11
225.5016882695
 21
76.4058236509
  0
LINE
  5
317
100
AcDbEntity
  8
CURVE
100
AcDbLine
 62
250
  6
CONTINUOUS
 10
225.4760492336
 20
76.7135985062
 11
225.4746986731
 21
76.7026538165
  0
LINE
  5
318
100
AcDbEntity
  8
CURVE
100
AcDbLine
 62
250
  6
CONTINUOUS
 10
225.4144487406
 20
67.7756126294
 11
225.47449842
 21
68.2521076294
  0
LINE
  5
319
100
AcDbEntity
  8
CURVE
100
AcDbLine
 62
250
  6
CONTINUOUS
 10
225.5016882689
 20
74.3839046294
 11
225.4842721637
 21
74.2487326294
  0
LINE
  5
31A
100
AcDbEntity
  8
CURVE
100
AcDbLine
 62
250
  6
CONTINUOUS
 10
225.4875387974
 20
76.8014833829
 11
225.4760492336
 21
76.7135985062
  0
LINE
  5
31B
100
AcDbEntity
  8
CURVE
100
AcDbLine
 62
250
  6
CONTINUOUS
 10
225.5016882695
 20
76.9077277492
 11
225.4875387974
 21
76.8014833829
  0
LINE
  5
31C
100
AcDbEntity
  8
CURVE
100
AcDbLine
 62
250
  6
CONTINUOUS
 10
225.4707956532
 20
74.1444526294
 11
225.4384199485
 21
73.9046816294
  0
LINE
  5
31D
100
AcDbEntity
  8
CURVE
100
AcDbLine
 62
250
  6
CONTINUOUS
 10
225.4144487406
 20
72.5623346294
 11
225.5016882689
 21
72.7960876294
  0
LINE
  5
31E
100
AcDbEntity
  8
CURVE
100
AcDbLine
 62
250
  6
CONTINUOUS
 10
225.5016882689
 20
72.2856356294
 11
225.4449599746
 21
72.1784316294
  0
LINE
  5
31F
100
AcDbEntity
  8
CURVE
100
AcDbLine
 62
7
  6
CONTINUOUS
 10
225.4989617673
 20
76.8870102511
 11
225.5016882695
 21
76.8897367534
  0
LINE
  5
320
100
AcDbEntity
  8
CURVE
100
AcDbLine
 62
7
  6
CONTINUOUS
 10
225.421858102
 20
76.5998958718
 11
225.4546428754
 21
76.6326806453
  0
LINE
  5
321
100
AcDbEntity
  8
CURVE
100
AcDbLine
 62
7
  6
CONTINUOUS
 10
225.4694310767
 20
76.6474688466
 11
225.5016882695
 21
76.6797260394
  0
LINE
  5
322
100
AcDbEntity
  8
CURVE
100
AcDbLine
 62
7
  6
CONTINUOUS
 10
225.4165389526
 20
76.3845660084
 11
225.5016882695
 21
76.4697153254
  0
LINE
  5
323
100
AcDbEntity
  8
CURVE
100
AcDbLine
 62
7
  6
CONTINUOUS
 10
225.4145517339
 20
76.1725680757
 11
225.4317161136
 21
76.1897324555
  0
LINE
  5
324
100
AcDbEntity
  8
CURVE
100
AcDbLine
 62
7
  6
CONTINUOUS
 10
225.4489794263
 20
76.2069957681
 11
225.4817322056
 21
76.2397485475
  0
LINE
  5
325
100
AcDbEntity
  8
CURVE
100
AcDbLine
 62
7
  6
CONTINUOUS
 10
225.4136866873
 20
75.9616923151
 11
225.4287273372
 21
75.9767329651
  0
LINE
  5
326
100
AcDbEntity
  8
CURVE
100
AcDbLine
 62
7
  6
CONTINUOUS
 10
225.4528574319
 20
76.0008630597
 11
225.4685755767
 21
76.0165812045
  0
LINE
  5
327
100
AcDbEntity
  8
CURVE
100
AcDbLine
 62
7
  6
CONTINUOUS
 10
225.4134576726
 20
75.7514525864
 11
225.4285710386
 21
75.7665659524
  0
LINE
  5
328
100
AcDbEntity
  8
CURVE
100
AcDbLine
 62
7
  6
CONTINUOUS
 10
225.4532598188
 20
75.7912547326
 11
225.467547543
 21
75.8055424568
  0
LINE
  5
329
100
AcDbEntity
  8
CURVE
100
AcDbLine
 62
7
  6
CONTINUOUS
 10
225.4136928652
 20
75.541677065
 11
225.4787856324
 21
75.6067698322
  0
LINE
  5
32A
100
AcDbEntity
  8
CURVE
100
AcDbLine
 62
7
  6
CONTINUOUS
 10
225.414364553
 20
75.3323380387
 11
225.5016882695
 21
75.4196617553
  0
LINE
  5
32B
100
AcDbEntity
  8
CURVE
100
AcDbLine
 62
7
  6
CONTINUOUS
 10
225.4152938467
 20
75.1232566185
 11
225.5016882695
 21
75.2096510413
  0
LINE
  5
32C
100
AcDbEntity
  8
CURVE
100
AcDbLine
 62
7
  6
CONTINUOUS
 10
225.483178367
 20
74.7711197108
 11
225.5016882689
 21
74.7896296127
  0
LINE
  5
32D
100
AcDbEntity
  8
CURVE
100
AcDbLine
 62
7
  6
CONTINUOUS
 10
225.4562251262
 20
74.5341557559
 11
225.5016882689
 21
74.5796188987
  0
LINE
  5
32E
100
AcDbEntity
  8
CURVE
100
AcDbLine
 62
7
  6
CONTINUOUS
 10
225.4292718853
 20
74.297191801
 11
225.4995738237
 21
74.3674937395
  0
LINE
  5
32F
100
AcDbEntity
  8
CURVE
100
AcDbLine
 62
7
  6
CONTINUOUS
 10
225.4144487406
 20
74.0723579424
 11
225.468337327
 21
74.1262465287
  0
LINE
  5
330
100
AcDbEntity
  8
CURVE
100
AcDbLine
 62
7
  6
CONTINUOUS
 10
225.4707956532
 20
74.128704855
 11
225.4842721637
 21
74.1421813654
  0
LINE
  5
331
100
AcDbEntity
  8
CURVE
100
AcDbLine
 62
7
  6
CONTINUOUS
 10
225.4144487406
 20
73.8623472283
 11
225.4404546934
 21
73.8883531811
  0
LINE
  5
332
100
AcDbEntity
  8
CURVE
100
AcDbLine
 62
7
  6
CONTINUOUS
 10
225.4707956532
 20
73.9186941409
 11
225.4842721637
 21
73.9321706514
  0
LINE
  5
333
100
AcDbEntity
  8
CURVE
100
AcDbLine
 62
7
  6
CONTINUOUS
 10
225.415426262
 20
73.6533140357
 11
225.4637250588
 21
73.7016128325
  0
LINE
  5
334
100
AcDbEntity
  8
CURVE
100
AcDbLine
 62
7
  6
CONTINUOUS
 10
225.4707956532
 20
73.7086834269
 11
225.4842721637
 21
73.7221599374
  0
LINE
  5
335
100
AcDbEntity
  8
CURVE
100
AcDbLine
 62
7
  6
CONTINUOUS
 10
225.4364533584
 20
73.4643304181
 11
225.4870764965
 21
73.5149535562
  0
LINE
  5
336
100
AcDbEntity
  8
CURVE
100
AcDbLine
 62
7
  6
CONTINUOUS
 10
225.4574804548
 20
73.2753468005
 11
225.5016882689
 21
73.3195546146
  0
LINE
  5
337
100
AcDbEntity
  8
CURVE
100
AcDbLine
 62
7
  6
CONTINUOUS
 10
225.4785075513
 20
73.0863631829
 11
225.5016882689
 21
73.1095439006
  0
LINE
  5
338
100
AcDbEntity
  8
CURVE
100
AcDbLine
 62
7
  6
CONTINUOUS
 10
225.4995346477
 20
72.8973795653
 11
225.5016882689
 21
72.8995331866
  0
LINE
  5
339
100
AcDbEntity
  8
CURVE
100
AcDbLine
 62
7
  6
CONTINUOUS
 10
225.4382354416
 20
72.6260696453
 11
225.5016882689
 21
72.6895224726
  0
LINE
  5
33A
100
AcDbEntity
  8
CURVE
100
AcDbLine
 62
7
  6
CONTINUOUS
 10
225.4144487406
 20
72.3922722303
 11
225.5016882689
 21
72.4795117585
  0
LINE
  5
33B
100
AcDbEntity
  8
CURVE
100
AcDbLine
 62
7
  6
CONTINUOUS
 10
225.4144487406
 20
72.1822615162
 11
225.4835550409
 21
72.2513678165
  0
LINE
  5
33C
100
AcDbEntity
  8
CURVE
100
AcDbLine
 62
7
  6
CONTINUOUS
 10
225.4207191372
 20
71.9785211988
 11
225.4596769412
 21
72.0174790028
  0
LINE
  5
33D
100
AcDbEntity
  8
0
100
AcDbLine
 62
7
  6
CONTINUOUS
 10
224.3751708128
 20
60.9249323071
 11
224.3607449973
 21
60.9094631729
  0
LINE
  5
33E
100
AcDbEntity
  8
ASSI
100
AcDbLine
 62
7
  6
CONTINUOUS
 10
224.3751708128
 20
60.9249323071
 11
224.3607449973
 21
60.9094631729
  0
LINE
  5
33F
100
AcDbEntity
  8
CURVE
100
AcDbLine
 62
7
  6
CONTINUOUS
 10
225.4385576052
 20
71.7863489528
 11
225.4772708834
 21
71.825062231
  0
LINE
  5
340
100
AcDbEntity
  8
CURVE
100
AcDbLine
 62
7
  6
CONTINUOUS
 10
225.4563960732
 20
71.5941767067
 11
225.4948648256
 21
71.6326454592
  0
LINE
  5
341
100
AcDbEntity
  8
CURVE
100
AcDbLine
 62
7
  6
CONTINUOUS
 10
225.449050403
 20
71.3768203226
 11
225.4960056063
 21
71.4237755259
  0
LINE
  5
342
100
AcDbEntity
  8
CURVE
100
AcDbLine
 62
7
  6
CONTINUOUS
 10
225.4273082102
 20
71.1450674158
 11
225.4744561205
 21
71.192215326
  0
LINE
  5
343
100
AcDbEntity
  8
CURVE
100
AcDbLine
 62
7
  6
CONTINUOUS
 10
225.4144487406
 20
70.9221972322
 11
225.4529066347
 21
70.9606551262
  0
LINE
  5
344
100
AcDbEntity
  8
CURVE
100
AcDbLine
 62
7
  6
CONTINUOUS
 10
225.4144487406
 20
70.7121865182
 11
225.4884801206
 21
70.7862178981
  0
LINE
  5
345
100
AcDbEntity
  8
CURVE
100
AcDbLine
 62
7
  6
CONTINUOUS
 10
225.4144487406
 20
70.5021758041
 11
225.5016882689
 21
70.5894153324
  0
LINE
  5
346
100
AcDbEntity
  8
CURVE
100
AcDbLine
 62
7
  6
CONTINUOUS
 10
225.4686600692
 20
70.3463764187
 11
225.5016882689
 21
70.3794046184
  0
LINE
  5
347
100
AcDbEntity
  8
CURVE
100
AcDbLine
 62
7
  6
CONTINUOUS
 10
225.4144435406
 20
69.8721384621
 11
225.5016882689
 21
69.9593831904
  0
LINE
  5
348
100
AcDbEntity
  8
CURVE
100
AcDbLine
 62
7
  6
CONTINUOUS
 10
225.4144435406
 20
69.6621277481
 11
225.5016882689
 21
69.7493724764
  0
LINE
  5
349
100
AcDbEntity
  8
CURVE
100
AcDbLine
 62
7
  6
CONTINUOUS
 10
225.420560136
 20
69.4582336294
 11
225.5016882689
 21
69.5393617624
  0
LINE
  5
34A
100
AcDbEntity
  8
CURVE
100
AcDbLine
 62
7
  6
CONTINUOUS
 10
225.4144487406
 20
69.2421115201
 11
225.4166507119
 21
69.2443134913
  0
LINE
  5
34B
100
AcDbEntity
  8
CURVE
100
AcDbLine
 62
7
  6
CONTINUOUS
 10
225.4144487406
 20
69.0321008061
 11
225.4372189325
 21
69.0548709979
  0
LINE
  5
34C
100
AcDbEntity
  8
CURVE
100
AcDbLine
 62
7
  6
CONTINUOUS
 10
225.4144487406
 20
68.822090092
 11
225.457787153
 21
68.8654285045
  0
LINE
  5
34D
100
AcDbEntity
  8
CURVE
100
AcDbLine
 62
7
  6
CONTINUOUS
 10
225.428731552
 20
68.6263621893
 11
225.4783553736
 21
68.675986011
  0
LINE
  5
34E
100
AcDbEntity
  8
CURVE
100
AcDbLine
 62
7
  6
CONTINUOUS
 10
225.451614986
 20
68.4392349094
 11
225.4989235942
 21
68.4865435176
  0
LINE
  5
34F
100
AcDbEntity
  8
CURVE
100
AcDbLine
 62
7
  6
CONTINUOUS
 10
225.47449842
 20
68.2521076294
 11
225.5016882689
 21
68.2792974783
  0
LINE
  5
350
100
AcDbEntity
  8
CURVE
100
AcDbLine
 62
7
  6
CONTINUOUS
 10
225.4442157504
 20
68.0118142458
 11
225.5016882689
 21
68.0692867643
  0
LINE
  5
351
100
AcDbEntity
  8
CURVE
100
AcDbLine
 62
7
  6
CONTINUOUS
 10
225.4144487406
 20
67.772036522
 11
225.4841255056
 21
67.8417132869
  0
LINE
  5
352
100
AcDbEntity
  8
CURVE
100
AcDbLine
 62
7
  6
CONTINUOUS
 10
225.4144487406
 20
67.562025808
 11
225.4581462459
 21
67.6057233133
  0
LINE
  5
353
100
AcDbEntity
  8
CURVE
100
AcDbLine
 62
7
  6
CONTINUOUS
 10
225.4144487406
 20
67.352015094
 11
225.4321669863
 21
67.3697333396
  0
LINE
  5
354
100
AcDbEntity
  8
0
100
AcDbLine
 62
7
  6
CONTINUOUS
 10
223.9319227531
 20
61.9443626696
 11
224.3264543027
 21
62.3388942192
  0
LINE
  5
355
100
AcDbEntity
  8
ASSI
100
AcDbLine
 62
7
  6
CONTINUOUS
 10
223.9319227531
 20
61.9443626696
 11
224.3264543027
 21
62.3388942192
  0
LINE
  5
356
100
AcDbEntity
  8
0
100
AcDbLine
 62
7
  6
CONTINUOUS
 10
224.3751708128
 20
60.9249323071
 11
225.3458846652
 21
61.8956461595
  0
LINE
  5
357
100
AcDbEntity
  8
ASSI
100
AcDbLine
 62
7
  6
CONTINUOUS
 10
224.3751708128
 20
60.9249323071
 11
225.3458846652
 21
61.8956461595
  0
LINE
  5
358
100
AcDbEntity
  8
0
100
AcDbLine
 62
7
  6
CONTINUOUS
 10
225.5551853429
 20
61.7162404315
 11
224.5545765408
 21
60.7156316294
  0
LINE
  5
359
100
AcDbEntity
  8
ASSI
100
AcDbLine
 62
7
  6
CONTINUOUS
 10
225.5551853429
 20
61.7162404315
 11
224.5545765408
 21
60.7156316294
  0
LINE
  5
35A
100
AcDbEntity
  8
0
100
AcDbLine
 62
7
  6
CONTINUOUS
 10
225.3613537994
 20
61.910071975
 11
225.3458846652
 21
61.8956461595
  0
LINE
  5
35B
100
AcDbEntity
  8
ASSI
100
AcDbLine
 62
7
  6
CONTINUOUS
 10
225.3613537994
 20
61.910071975
 11
225.3458846652
 21
61.8956461595
  0
LINE
  5
35C
100
AcDbEntity
  8
0
100
AcDbLine
 62
7
  6
CONTINUOUS
 10
225.3458846652
 20
149.5356170993
 11
225.3613537994
 21
149.5211912838
  0
LINE
  5
35D
100
AcDbEntity
  8
ASSI
100
AcDbLine
 62
7
  6
CONTINUOUS
 10
225.3458846652
 20
149.5356170993
 11
225.3613537994
 21
149.5211912838
  0
LINE
  5
35E
100
AcDbEntity
  8
0
100
AcDbLine
 62
7
  6
CONTINUOUS
 10
224.3264543027
 20
149.0923690396
 11
223.9319227531
 21
149.4869005892
  0
LINE
  5
35F
100
AcDbEntity
  8
ASSI
100
AcDbLine
 62
7
  6
CONTINUOUS
 10
224.3264543027
 20
149.0923690396
 11
223.9319227531
 21
149.4869005892
  0
LINE
  5
360
100
AcDbEntity
  8
0
100
AcDbLine
 62
7
  6
CONTINUOUS
 10
225.3458846652
 20
149.5356170993
 11
224.3751708128
 21
150.5063309517
  0
LINE
  5
361
100
AcDbEntity
  8
ASSI
100
AcDbLine
 62
7
  6
CONTINUOUS
 10
225.3458846652
 20
149.5356170993
 11
224.3751708128
 21
150.5063309517
  0
LINE
  5
362
100
AcDbEntity
  8
0
100
AcDbLine
 62
7
  6
CONTINUOUS
 10
224.5545765408
 20
150.7156316294
 11
225.5551853429
 21
149.7150228273
  0
LINE
  5
363
100
AcDbEntity
  8
ASSI
100
AcDbLine
 62
7
  6
CONTINUOUS
 10
224.5545765408
 20
150.7156316294
 11
225.5551853429
 21
149.7150228273
  0
LINE
  5
364
100
AcDbEntity
  8
0
100
AcDbLine
 62
7
  6
CONTINUOUS
 10
224.3607449973
 20
150.5218000859
 11
224.3751708128
 21
150.5063309517
  0
LINE
  5
365
100
AcDbEntity
  8
ASSI
100
AcDbLine
 62
7
  6
CONTINUOUS
 10
224.3607449973
 20
150.5218000859
 11
224.3751708128
 21
150.5063309517
  0
LWPOLYLINE
  5
366
100
AcDbEntity
  8
0
100
AcDbPolyline
 62
7
  6
CONTINUOUS
 90
3
 70
0
 43
0.3500000006
 10
70.7983130951
 20
169.5841582031
 10
71.6554555664
 20
170.44131427
 10
71.6554555664
 20
167.4413133545
  0
LWPOLYLINE
  5
367
100
AcDbEntity
  8
0
100
AcDbPolyline
 62
7
  6
CONTINUOUS
 90
3
 70
0
 43
0.3500000006
 10
76.5840259094
 20
169.5841582031
 10
77.4411638489
 20
170.44131427
 10
77.4411638489
 20
167.4413133545
  0
LWPOLYLINE
  5
368
100
AcDbEntity
  8
0
100
AcDbPolyline
 62
7
  6
CONTINUOUS
 90
3
 70
0
 43
0.3500000006
 10
75.1284195557
 20
162.4089362183
 10
75.985562027
 20
163.2660922852
 10
75.985562027
 20
160.2660913696
  0
LINE
  5
369
100
AcDbEntity
  8
0
100
AcDbLine
 62
7
  6
CONTINUOUS
 10
83.8410617389
 20
60.9094631729
 11
89.3916709119
 21
60.7156316294
  0
LINE
  5
36A
100
AcDbEntity
  8
ASSI
100
AcDbLine
 62
7
  6
CONTINUOUS
 10
83.8410617389
 20
60.9094631729
 11
89.3916709119
 21
60.7156316294
  0
LINE
  5
36B
100
AcDbEntity
  8
0
100
AcDbLine
 62
7
  6
CONTINUOUS
 10
83.8410617389
 20
61.910071975
 11
89.3916709119
 21
61.7162404315
  0
LINE
  5
36C
100
AcDbEntity
  8
ASSI
100
AcDbLine
 62
7
  6
CONTINUOUS
 10
83.8410617389
 20
61.910071975
 11
89.3916709119
 21
61.7162404315
  0
LINE
  5
36D
100
AcDbEntity
  8
0
100
AcDbLine
 62
7
  6
CONTINUOUS
 10
89.3916709119
 20
62.9575877166
 11
89.9916709119
 21
62.9156316294
  0
LINE
  5
36E
100
AcDbEntity
  8
0
100
AcDbLine
 62
7
  6
CONTINUOUS
 10
82.8416709119
 20
149.0923690396
 11
83.8261233697
 21
149.5356170993
  0
LINE
  5
36F
100
AcDbEntity
  8
ASSI
100
AcDbLine
 62
7
  6
CONTINUOUS
 10
82.8416709119
 20
149.0923690396
 11
83.8261233697
 21
149.5356170993
  0
LINE
  5
370
100
AcDbEntity
  8
0
100
AcDbLine
 62
250
  6
CONTINUOUS
 10
89.3916709119
 20
64.553690197
 11
89.9916709119
 21
64.5117341098
  0
LINE
  5
371
100
AcDbEntity
  8
0
100
AcDbLine
 62
7
  6
CONTINUOUS
 10
82.8416709119
 20
62.3388942192
 11
83.8261233697
 21
61.8956461595
  0
LINE
  5
372
100
AcDbEntity
  8
ASSI
100
AcDbLine
 62
7
  6
CONTINUOUS
 10
82.8416709119
 20
62.3388942192
 11
83.8261233697
 21
61.8956461595
  0
LINE
  5
373
100
AcDbEntity
  8
CURVE
100
AcDbLine
 62
250
  6
CONTINUOUS
 10
85.3615019234
 20
67.7756126294
 11
87.0810997523
 21
68.2521076294
  0
LINE
  5
374
100
AcDbEntity
  8
CURVE
100
AcDbLine
 62
250
  6
CONTINUOUS
 10
85.3613530141
 20
69.4582336294
 11
87.8597151518
 21
69.4582336294
  0
LINE
  5
375
100
AcDbEntity
  8
CURVE
100
AcDbLine
 62
250
  6
CONTINUOUS
 10
87.0810997523
 20
68.2521076294
 11
85.3615019234
 21
68.7431586294
  0
LINE
  5
376
100
AcDbEntity
  8
0
100
AcDbLine
 62
7
  6
CONTINUOUS
 10
82.8416709119
 20
149.4869005892
 11
83.8410617389
 21
150.5218000859
  0
LINE
  5
377
100
AcDbEntity
  8
ASSI
100
AcDbLine
 62
7
  6
CONTINUOUS
 10
82.8416709119
 20
149.4869005892
 11
83.8410617389
 21
150.5218000859
  0
LINE
  5
378
100
AcDbEntity
  8
CURVE
100
AcDbLine
 62
250
  6
CONTINUOUS
 10
87.8597151518
 20
72.2856356294
 11
86.2352293478
 21
72.1784316294
  0
LINE
  5
379
100
AcDbEntity
  8
CURVE
100
AcDbLine
 62
250
  6
CONTINUOUS
 10
87.8597151518
 20
69.9800266294
 11
85.3613530141
 21
69.9800266294
  0
LINE
  5
37A
100
AcDbEntity
  8
CURVE
100
AcDbLine
 62
250
  6
CONTINUOUS
 10
86.2284294926
 20
70.8727126294
 11
87.8597151518
 21
70.7601096294
  0
LINE
  5
37B
100
AcDbEntity
  8
CURVE
100
AcDbLine
 62
250
  6
CONTINUOUS
 10
87.8597151518
 20
70.2609236294
 11
85.3615019234
 21
70.4866356294
  0
LINE
  5
37C
100
AcDbEntity
  8
CURVE
100
AcDbLine
 62
250
  6
CONTINUOUS
 10
85.3615019234
 20
69.2645946294
 11
87.8597151518
 21
68.4610796294
  0
LINE
  5
37D
100
AcDbEntity
  8
0
100
AcDbLine
 62
7
  6
CONTINUOUS
 10
82.8416709119
 20
61.9443626696
 11
83.8410617389
 21
60.9094631729
  0
LINE
  5
37E
100
AcDbEntity
  8
ASSI
100
AcDbLine
 62
7
  6
CONTINUOUS
 10
82.8416709119
 20
61.9443626696
 11
83.8410617389
 21
60.9094631729
  0
LWPOLYLINE
  5
37F
100
AcDbEntity
  8
0
100
AcDbPolyline
 62
7
  6
CONTINUOUS
 90
3
 70
0
 43
0.3500000006
 10
75.5840256042
 20
167.7270199585
 10
75.5125989532
 20
167.5127354736
 10
75.3697411194
 20
167.2270288696
  0
LWPOLYLINE
  5
380
100
AcDbEntity
  8
0
100
AcDbPolyline
 62
7
  6
CONTINUOUS
 90
3
 70
0
 43
0.3500000006
 10
74.1284192505
 20
160.5517979736
 10
74.0569880676
 20
160.3375134888
 10
73.9141302338
 20
160.0518068848
  0
LINE
  5
381
100
AcDbEntity
  8
CURVE
100
AcDbLine
 62
250
  6
CONTINUOUS
 10
87.8597151518
 20
74.3839046294
 11
87.360983151
 21
74.2487326294
  0
LINE
  5
382
100
AcDbEntity
  8
CURVE
100
AcDbLine
 62
250
  6
CONTINUOUS
 10
86.9750663844
 20
74.1444526294
 11
86.0479475044
 21
73.9046816294
  0
LINE
  5
383
100
AcDbEntity
  8
CURVE
100
AcDbLine
 62
250
  6
CONTINUOUS
 10
85.3615019234
 20
72.5623346294
 11
87.8597151518
 21
72.7960876294
  0
LINE
  5
384
100
AcDbEntity
  8
CURVE
100
AcDbLine
 62
250
  6
CONTINUOUS
 10
85.3906897795
 20
75.0870764906
 11
87.8597151682
 21
75.0870764906
  0
LINE
  5
385
100
AcDbEntity
  8
CURVE
100
AcDbLine
 62
250
  6
CONTINUOUS
 10
86.4729057866
 20
75.5894679654
 11
85.7870976647
 21
75.5894679654
  0
LINE
  5
386
100
AcDbEntity
  8
CURVE
100
AcDbLine
 62
250
  6
CONTINUOUS
 10
87.8597151682
 20
75.6067698322
 11
86.8820526775
 21
75.6067698322
  0
LINE
  5
387
100
AcDbEntity
  8
CURVE
100
AcDbLine
 62
250
  6
CONTINUOUS
 10
86.0479475044
 20
73.9046816294
 11
86.9750663844
 21
73.6448726294
  0
LINE
  5
388
100
AcDbEntity
  8
CURVE
100
AcDbLine
 62
250
  6
CONTINUOUS
 10
87.360983151
 20
73.5381376294
 11
87.8597151518
 21
73.3941546294
  0
LINE
  5
389
100
AcDbEntity
  8
CURVE
100
AcDbLine
 62
250
  6
CONTINUOUS
 10
87.8597151518
 20
72.8780236294
 11
85.3615019234
 21
73.6620996294
  0
LINE
  5
38A
100
AcDbEntity
  8
CURVE
100
AcDbLine
 62
250
  6
CONTINUOUS
 10
86.748517476
 20
71.5242786294
 11
85.3615019234
 21
72.0460716294
  0
LINE
  5
38B
100
AcDbEntity
  8
CURVE
100
AcDbLine
 62
250
  6
CONTINUOUS
 10
86.2352293478
 20
72.1784316294
 11
87.8597151518
 21
71.5580206294
  0
LWPOLYLINE
  5
38C
100
AcDbEntity
  8
CURVE
100
AcDbPolyline
 62
250
  6
CONTINUOUS
 90
4
 70
0
 10
87.4180784801
 20
76.27791337
 10
87.4890111255
 20
76.2980098035
 10
87.5244591942
 20
76.3080976275
 10
87.8597151682
 20
76.4058236509
  0
LWPOLYLINE
  5
38D
100
AcDbEntity
  8
CURVE
100
AcDbPolyline
 62
250
  6
CONTINUOUS
 90
45
 70
0
 10
87.1255092426
 20
76.7135985062
 10
87.106196335
 20
76.7082206066
 10
87.0868342499
 20
76.7026538165
 10
87.0673827804
 20
76.6968232282
 10
87.0478017198
 20
76.6906539338
 10
87.037040753
 20
76.687116195
 10
87.026239989
 20
76.6834527893
 10
87.0154102832
 20
76.6796614348
 10
87.0045624907
 20
76.6757398499
 10
86.9937074669
 20
76.6716857527
 10
86.9828560672
 20
76.6674968615
 10
86.9720191467
 20
76.6631708946
 10
86.9612075608
 20
76.6587055701
 10
86.9504321648
 20
76.6540986064
 10
86.9397038141
 20
76.6493477217
 10
86.9290333638
 20
76.6444506342
 10
86.9184316693
 20
76.6394050621
 10
86.9079095859
 20
76.6342087238
 10
86.8974779689
 20
76.6288593374
 10
86.8871476736
 20
76.6233546212
 10
86.8769295553
 20
76.6176922934
 10
86.8668344692
 20
76.6118700723
 10
86.8568732708
 20
76.6058856761
 10
86.8470568153
 20
76.599736823
 10
86.837395958
 20
76.5934212314
 10
86.8279015541
 20
76.5869366194
 10
86.8185844591
 20
76.5802807053
 10
86.8094555281
 20
76.5734512073
 10
86.8005256166
 20
76.5664458437
 10
86.7918055797
 20
76.5592623327
 10
86.7833062728
 20
76.5518983925
 10
86.7750385512
 20
76.5443517415
 10
86.7670132703
 20
76.5366200977
 10
86.7592412852
 20
76.5287011796
 10
86.7517334513
 20
76.5205927053
 10
86.7445006238
 20
76.512292393
 10
86.7375536582
 20
76.5037979611
 10
86.7309034097
 20
76.4951071277
 10
86.7245607336
 20
76.4862176111
 10
86.7185364851
 20
76.4771271295
 10
86.7128415197
 20
76.4678334013
 10
86.7074866925
 20
76.4583341445
 10
86.7024828589
 20
76.4486270775
 10
86.6978408743
 20
76.4387099185
 10
86.6935715938
 20
76.4285803858
  0
LINE
  5
38E
100
AcDbEntity
  8
CURVE
100
AcDbLine
 62
250
  6
CONTINUOUS
 10
87.2737920391
 20
76.7537184875
 11
87.1255092426
 21
76.7135985062
  0
LINE
  5
38F
100
AcDbEntity
  8
CURVE
100
AcDbLine
 62
250
  6
CONTINUOUS
 10
87.8597151682
 20
76.9077277492
 11
87.7705244416
 21
76.8839212722
  0
LINE
  5
390
100
AcDbEntity
  8
CURVE
100
AcDbLine
 62
250
  6
CONTINUOUS
 10
87.4545273025
 20
76.8014833829
 11
87.2737920391
 21
76.7537184875
  0
LINE
  5
391
100
AcDbEntity
  8
CURVE
100
AcDbLine
 62
250
  6
CONTINUOUS
 10
87.7705244416
 20
76.8839212722
 11
87.4545273025
 21
76.8014833829
  0
LWPOLYLINE
  5
392
100
AcDbEntity
  8
CURVE
100
AcDbPolyline
 62
250
  6
CONTINUOUS
 90
59
 70
0
 10
86.084684586
 20
76.2929959845
 10
86.0955314323
 20
76.2930246682
 10
86.1064621568
 20
76.2927771425
 10
86.1174617886
 20
76.2922532852
 10
86.1285153572
 20
76.2914529741
 10
86.1396078917
 20
76.290376087
 10
86.1507244215
 20
76.2890225015
 10
86.1618499757
 20
76.2873920955
 10
86.1729695838
 20
76.2854847467
 10
86.1840682749
 20
76.283300333
 10
86.1951310783
 20
76.2808387319
 10
86.2061430233
 20
76.2780998214
 10
86.2170891392
 20
76.2750834792
 10
86.2279544551
 20
76.271789583
 10
86.2387240005
 20
76.2682180106
 10
86.2493828046
 20
76.2643686397
 10
86.2599158966
 20
76.2602413482
 10
86.2703083058
 20
76.2558360138
 10
86.2805450615
 20
76.2511525142
 10
86.2906111929
 20
76.2461907273
 10
86.3004917294
 20
76.2409505307
 10
86.3101717001
 20
76.2354318023
 10
86.3196361344
 20
76.2296344198
 10
86.3288700616
 20
76.2235582609
 10
86.3378585108
 20
76.2172032035
 10
86.3465865114
 20
76.2105691253
 10
86.3550390927
 20
76.203655904
 10
86.3632012838
 20
76.1964634174
 10
86.3710581142
 20
76.1889915433
 10
86.378594613
 20
76.1812401595
 10
86.3857958095
 20
76.1732091437
 10
86.3925606105
 20
76.1650141341
 10
86.3989917641
 20
76.1565596621
 10
86.4050965396
 20
76.1478585468
 10
86.4108822065
 20
76.1389236072
 10
86.4163560339
 20
76.1297676624
 10
86.4215252912
 20
76.1204035315
 10
86.4263972477
 20
76.1108440337
 10
86.4309791726
 20
76.1011019879
 10
86.4352783354
 20
76.0911902134
 10
86.4393020053
 20
76.0811215292
 10
86.4430574516
 20
76.0709087543
 10
86.4465519436
 20
76.060564708
 10
86.4497927506
 20
76.0501022092
 10
86.452787142
 20
76.0395340771
 10
86.455542387
 20
76.0288731307
 10
86.4580657549
 20
76.0181321892
 10
86.4603645151
 20
76.0073240717
 10
86.4624459368
 20
75.9964615972
 10
86.4643172894
 20
75.9855575848
 10
86.4659858422
 20
75.9746248537
 10
86.4674588644
 20
75.9636762229
 10
86.4687436254
 20
75.9527245115
 10
86.4698473944
 20
75.9417825386
 10
86.4707774409
 20
75.9308631233
 10
86.471541034
 20
75.9199790847
 10
86.4721454431
 20
75.9091432418
 10
86.4725979376
 20
75.8983684139
 10
86.4729057866
 20
75.8876674199
  0
LINE
  5
393
100
AcDbEntity
  8
0
100
AcDbLine
 62
7
  6
CONTINUOUS
 10
90.9175080629
 20
78.5655021907
 11
89.9916709119
 21
78.5638862984
  0
LINE
  5
394
100
AcDbEntity
  8
0
100
AcDbLine
 62
250
  6
CONTINUOUS
 10
90.9174434956
 20
78.7879523855
 11
89.9916709119
 21
78.787534191
  0
LINE
  5
395
100
AcDbEntity
  8
CURVE
100
AcDbLine
 62
250
  6
CONTINUOUS
 10
86.6935715938
 20
76.4285803858
 11
86.6788093341
 21
76.4285803858
  0
LWPOLYLINE
  5
396
100
AcDbEntity
  8
0
100
AcDbPolyline
 62
250
  6
CONTINUOUS
 90
5
 70
0
 10
92.0368726341
 20
79.2119781501
 10
92.0166721471
 20
79.2101909988
 10
91.9957682299
 20
79.2087892556
 10
91.9740654568
 20
79.2077336867
 10
91.9515638278
 20
79.2070241813
  0
LINE
  5
397
100
AcDbEntity
  8
0
100
AcDbLine
 62
7
  6
CONTINUOUS
 10
89.9916709119
 20
79.8811607298
 11
90.9935508317
 21
79.9155485743
  0
LWPOLYLINE
  5
398
100
AcDbEntity
  8
0
100
AcDbPolyline
 62
7
  6
CONTINUOUS
 90
15
 70
0
 10
91.9516611331
 20
79.1870102936
 10
91.9757704117
 20
79.1876734539
 10
92.0043733389
 20
79.1890539705
 10
92.0324626684
 20
79.1910345392
 10
92.0599054969
 20
79.1935797026
 10
92.0867847326
 20
79.1966985115
 10
92.1130353004
 20
79.2003904128
 10
92.1383677597
 20
79.2046362145
 10
92.1628194599
 20
79.2094723072
 10
92.1864762661
 20
79.2149657071
 10
92.2093372601
 20
79.221223908
 10
92.2319136149
 20
79.2285188618
 10
92.254091167
 20
79.237104374
 10
92.2750612636
 20
79.246913003
 10
92.2790838246
 20
79.2490134896
  0
LINE
  5
399
100
AcDbEntity
  8
0
100
AcDbLine
 62
7
  6
CONTINUOUS
 10
89.9916709119
 20
79.1518454793
 11
91.9516612498
 21
79.1870102919
  0
LINE
  5
39A
100
AcDbEntity
  8
0
100
AcDbLine
 62
250
  6
CONTINUOUS
 10
91.9515638278
 20
79.2070241813
 11
89.9916709119
 21
79.171830821
  0
LINE
  5
39B
100
AcDbEntity
  8
0
100
AcDbLine
 62
7
  6
CONTINUOUS
 10
90.9417952908
 20
80.5156316294
 11
89.9916709119
 21
80.5156316294
  0
LINE
  5
39C
100
AcDbEntity
  8
0
100
AcDbLine
 62
7
  6
CONTINUOUS
 10
89.9916709119
 20
80.6656316294
 11
90.1416709119
 21
80.6656316294
  0
LINE
  5
39D
100
AcDbEntity
  8
0
100
AcDbLine
 62
7
  6
CONTINUOUS
 10
90.4416709119
 20
80.6656316294
 11
90.6416709119
 21
80.6656316294
  0
LWPOLYLINE
  5
39E
100
AcDbEntity
  8
0
100
AcDbPolyline
 62
7
  6
CONTINUOUS
 90
25
 70
0
 10
92.8021381032
 20
79.8994078055
 10
92.8154676487
 20
79.8990326355
 10
92.8286490324
 20
79.8981910094
 10
92.8416249303
 20
79.8968829274
 10
92.854356825
 20
79.8950877006
 10
92.866773474
 20
79.8928260177
 10
92.8787751845
 20
79.8901599449
 10
92.8903090889
 20
79.8870833402
 10
92.9013443382
 20
79.8836023455
 10
92.9118258678
 20
79.879797453
 10
92.9217131082
 20
79.8756710448
 10
92.9309923315
 20
79.8712207387
 10
92.9396549077
 20
79.8665198804
 10
92.9476721947
 20
79.8615765927
 10
92.9550374803
 20
79.8563827528
 10
92.9617692861
 20
79.8509873372
 10
92.9678472541
 20
79.8453951821
 10
92.9732571259
 20
79.8396014515
 10
92.9780107518
 20
79.8336406134
 10
92.9820847316
 20
79.827515504
 10
92.9854605455
 20
79.8212232872
 10
92.9881355521
 20
79.8147899226
 10
92.9900834679
 20
79.8082240636
 10
92.9912702374
 20
79.8015170567
 10
92.9916709119
 20
79.7946689021
  0
LINE
  5
39F
100
AcDbEntity
  8
0
100
AcDbLine
 62
7
  6
CONTINUOUS
 10
89.9916709119
 20
79.9598117549
 11
90.9935508317
 21
79.9155485743
  0
LINE
  5
3A0
100
AcDbEntity
  8
0
100
AcDbLine
 62
7
  6
CONTINUOUS
 10
91.0412990098
 20
80.5106688196
 11
92.9916709119
 21
80.3156316294
  0
LWPOLYLINE
  5
3A1
100
AcDbEntity
  8
0
100
AcDbPolyline
 62
7
  6
CONTINUOUS
 90
4
 70
0
 43
0.3500000006
 10
71.0569871521
 20
162.6232388306
 10
71.0569871521
 20
163.2660922852
 10
72.5569876099
 20
163.2660922852
 10
71.6998451385
 20
160.2660913696
  0
LWPOLYLINE
  5
3A2
100
AcDbEntity
  8
0
100
AcDbPolyline
 62
7
  6
CONTINUOUS
 90
13
 70
0
 43
0.3500000006
 10
72.5125980377
 20
168.2984512939
 10
72.5125980377
 20
169.5841582031
 10
72.7268825226
 20
170.0127453003
 10
73.1554560242
 20
170.44131427
 10
73.369740509
 20
170.44131427
 10
73.7983094788
 20
170.0127453003
 10
74.0125984955
 20
169.5841582031
 10
74.0125984955
 20
168.2984512939
 10
73.7983094788
 20
167.8698823242
 10
73.369740509
 20
167.4413133545
 10
73.1554560242
 20
167.4413133545
 10
72.7268825226
 20
167.8698823242
 10
72.5125980377
 20
168.2984512939
  0
LINE
  5
3A3
100
AcDbEntity
  8
0
100
AcDbLine
 62
7
  6
CONTINUOUS
 10
90.1416709119
 20
130.7656316294
 11
90.2916709119
 21
130.9156316294
  0
LINE
  5
3A4
100
AcDbEntity
  8
0
100
AcDbLine
 62
7
  6
CONTINUOUS
 10
90.6416709119
 20
130.7656316294
 11
90.7916709119
 21
130.9156316294
  0
LINE
  5
3A5
100
AcDbEntity
  8
0
100
AcDbLine
 62
7
  6
CONTINUOUS
 10
90.1416709119
 20
80.6656316294
 11
90.2916709119
 21
80.5156316294
  0
LINE
  5
3A6
100
AcDbEntity
  8
0
100
AcDbLine
 62
7
  6
CONTINUOUS
 10
90.6416709119
 20
80.6656316294
 11
90.7916709119
 21
80.5156316294
  0
LWPOLYLINE
  5
3A7
100
AcDbEntity
  8
0
100
AcDbPolyline
 62
250
  6
CONTINUOUS
 90
9
 70
0
 10
91.0116036117
 20
78.6410316046
 10
91.0188643026
 20
78.6318363986
 10
91.0259102111
 20
78.6234376523
 10
91.032657147
 20
78.6160073518
 10
91.0389797944
 20
78.6097598309
 10
91.0447544456
 20
78.6048978464
 10
91.0498597805
 20
78.6016213082
 10
91.0541759606
 20
78.6001287872
 10
91.0575771456
 20
78.6006158333
  0
LWPOLYLINE
  5
3A8
100
AcDbEntity
  8
0
100
AcDbPolyline
 62
250
  6
CONTINUOUS
 90
19
 70
0
 10
90.9174434956
 20
132.6433108733
 10
90.9254013538
 20
132.6571259457
 10
90.9337121869
 20
132.6713238692
 10
90.9423425218
 20
132.6858115118
 10
90.9512597104
 20
132.700500912
 10
90.9604037491
 20
132.7152475821
 10
90.9696887342
 20
132.7298576112
 10
90.979041887
 20
132.744171416
 10
90.988392723
 20
132.7580432935
 10
90.9976479431
 20
132.771289178
 10
91.0067436425
 20
132.7837663292
 10
91.0155438683
 20
132.7952324852
 10
91.0238548569
 20
132.8053876817
 10
91.0316009894
 20
132.8140918523
 10
91.0386634452
 20
132.8211667241
 10
91.0448430108
 20
132.8263956428
 10
91.0500622671
 20
132.8297211508
 10
91.0543186177
 20
132.8311443967
 10
91.0575771456
 20
132.8306474255
  0
LWPOLYLINE
  5
3A9
100
AcDbEntity
  8
0
100
AcDbPolyline
 62
250
  6
CONTINUOUS
 90
14
 70
0
 10
90.9174434956
 20
78.7879523855
 10
90.9242166532
 20
78.776159009
 10
90.9310965838
 20
78.7643436599
 10
90.9380663023
 20
78.7525452535
 10
90.9450696582
 20
78.7408647028
 10
90.9521244791
 20
78.7292836095
 10
90.9593184889
 20
78.7176809811
 10
90.9666371624
 20
78.7061038166
 10
90.9740322758
 20
78.6946478385
 10
90.9815275008
 20
78.6833021962
 10
90.9890841627
 20
78.6721566503
 10
90.9966412363
 20
78.6613345194
 10
91.0041723315
 20
78.6509111947
 10
91.0116036117
 20
78.6410316046
  0
LWPOLYLINE
  5
3AA
100
AcDbEntity
  8
CURVE
100
AcDbPolyline
 62
250
  6
CONTINUOUS
 90
73
 70
0
 10
86.6788093341
 20
76.4285803858
 10
86.6772474607
 20
76.437094429
 10
86.6748533338
 20
76.4453582039
 10
86.6717193357
 20
76.4533926295
 10
86.6679378486
 20
76.461218625
 10
86.6636012547
 20
76.4688571097
 10
86.6588019362
 20
76.4763290027
 10
86.6536322753
 20
76.4836552232
 10
86.6481846542
 20
76.4908566903
 10
86.6425514552
 20
76.4979543233
 10
86.6368250603
 20
76.5049690414
 10
86.6223495626
 20
76.5223470662
 10
86.6077950512
 20
76.5393094247
 10
86.593087672
 20
76.555833619
 10
86.5781535708
 20
76.5718971514
 10
86.5629188937
 20
76.587477524
 10
86.5473097864
 20
76.6025522392
 10
86.5312523949
 20
76.6170987992
 10
86.5146728651
 20
76.631094706
 10
86.4961187565
 20
76.6455691543
 10
86.4769203729
 20
76.6593639282
 10
86.4571286473
 20
76.6724679175
 10
86.4367945128
 20
76.684870012
 10
86.4159689025
 20
76.6965591015
 10
86.3947027496
 20
76.7075240756
 10
86.3730469871
 20
76.7177538243
 10
86.3510525482
 20
76.7272372373
 10
86.3287703659
 20
76.7359632043
 10
86.3062513734
 20
76.7439206151
 10
86.2835607854
 20
76.7510957464
 10
86.2606977483
 20
76.7575026087
 10
86.2376753548
 20
76.7631511922
 10
86.2145066975
 20
76.7680514871
 10
86.1912048689
 20
76.7722134837
 10
86.1677829618
 20
76.7756471722
 10
86.1408792789
 20
76.7786933745
 10
86.1138699377
 20
76.7808170136
 10
86.0867890991
 20
76.7820342927
 10
86.0596709243
 20
76.7823614152
 10
86.0325495744
 20
76.7818145844
 10
86.0054592105
 20
76.7804100037
 10
85.9791070157
 20
76.7782225774
 10
85.9528487644
 20
76.7752055462
 10
85.9267164621
 20
76.7713293978
 10
85.9007421144
 20
76.7665646195
 10
85.8749577268
 20
76.760881699
 10
85.8519692903
 20
76.7549679652
 10
85.8291881459
 20
76.7482827921
 10
85.8066422307
 20
76.740820476
 10
85.7843594816
 20
76.7325753126
 10
85.7623678356
 20
76.7235415982
 10
85.7387915385
 20
76.7128092193
 10
85.7156325524
 20
76.7011582932
 10
85.6929300986
 20
76.6886115327
 10
85.6707233981
 20
76.6751916507
 10
85.6490516723
 20
76.6609213603
 10
85.6279541424
 20
76.6458233744
 10
85.6074700297
 20
76.629920406
 10
85.5876385554
 20
76.6132351681
 10
85.5695397555
 20
76.5967792211
 10
85.5520723205
 20
76.5796688341
 10
85.5352504561
 20
76.5619271137
 10
85.5190883682
 20
76.5435771666
 10
85.5036002624
 20
76.5246420998
 10
85.4888003444
 20
76.5051450199
 10
85.47470282
 20
76.4851090336
 10
85.4648858438
 20
76.4701767611
 10
85.4555033973
 20
76.4549696102
 10
85.4466092795
 20
76.4394867475
 10
85.4382572897
 20
76.42372734
 10
85.430501227
 20
76.4076905542
 10
85.4233948906
 20
76.391375557
 10
85.4169920796
 20
76.3747815151
  0
LWPOLYLINE
  5
3AB
100
AcDbEntity
  8
CURVE
100
AcDbPolyline
 62
250
  6
CONTINUOUS
 90
22
 70
0
 10
85.7870976647
 20
75.5894679654
 10
85.7840535678
 20
75.6076874344
 10
85.7811473346
 20
75.6259290588
 10
85.7784022535
 20
75.6441960033
 10
85.7758416129
 20
75.6624914328
 10
85.7734887014
 20
75.6808185119
 10
85.7713668074
 20
75.6991804054
 10
85.769357803
 20
75.7190396926
 10
85.7676451415
 20
75.7389370269
 10
85.7662289192
 20
75.7588662126
 10
85.7651092326
 20
75.7788210542
 10
85.7642861782
 20
75.7987953561
 10
85.7637598522
 20
75.8187829227
 10
85.7635303511
 20
75.8387775582
 10
85.7635977712
 20
75.8587730673
 10
85.7639622091
 20
75.8787632542
 10
85.7646237611
 20
75.8987419233
 10
85.7655825236
 20
75.918702879
 10
85.766838593
 20
75.9386399258
 10
85.7683920657
 20
75.958546868
 10
85.7702430381
 20
75.97841751
 10
85.7723916066
 20
75.9982456562
  0
LINE
  5
3AC
100
AcDbEntity
  8
0
100
AcDbLine
 62
7
  6
CONTINUOUS
 10
82.8416709119
 20
61.9443626696
 11
82.8416709119
 21
149.4869005892
  0
LINE
  5
3AD
100
AcDbEntity
  8
ASSI
100
AcDbLine
 62
7
  6
CONTINUOUS
 10
82.8416709119
 20
61.9443626696
 11
82.8416709119
 21
149.4869005892
  0
LINE
  5
3AE
100
AcDbEntity
  8
0
100
AcDbLine
 62
7
  6
CONTINUOUS
 10
83.8261233697
 20
60.9249323071
 11
83.8261233697
 21
61.8956461595
  0
LINE
  5
3AF
100
AcDbEntity
  8
ASSI
100
AcDbLine
 62
7
  6
CONTINUOUS
 10
83.8261233697
 20
60.9249323071
 11
83.8261233697
 21
61.8956461595
  0
LINE
  5
3B0
100
AcDbEntity
  8
0
100
AcDbLine
 62
7
  6
CONTINUOUS
 10
83.8261233697
 20
149.5356170993
 11
83.8261233697
 21
150.5063309517
  0
LINE
  5
3B1
100
AcDbEntity
  8
ASSI
100
AcDbLine
 62
7
  6
CONTINUOUS
 10
83.8261233697
 20
149.5356170993
 11
83.8261233697
 21
150.5063309517
  0
LINE
  5
3B2
100
AcDbEntity
  8
0
100
AcDbLine
 62
7
  6
CONTINUOUS
 10
83.8410617389
 20
61.910071975
 11
83.8410617389
 21
149.5211912838
  0
LINE
  5
3B3
100
AcDbEntity
  8
ASSI
100
AcDbLine
 62
7
  6
CONTINUOUS
 10
83.8410617389
 20
61.910071975
 11
83.8410617389
 21
149.5211912838
  0
LINE
  5
3B4
100
AcDbEntity
  8
CURVE
100
AcDbLine
 62
250
  6
CONTINUOUS
 10
85.3613530141
 20
69.9800266294
 11
85.3613530141
 21
69.4582336294
  0
LINE
  5
3B5
100
AcDbEntity
  8
CURVE
100
AcDbLine
 62
250
  6
CONTINUOUS
 10
85.3615019234
 20
67.2087846294
 11
85.3615019234
 21
67.7756126294
  0
LINE
  5
3B6
100
AcDbEntity
  8
CURVE
100
AcDbLine
 62
250
  6
CONTINUOUS
 10
85.3615019234
 20
68.7431586294
 11
85.3615019234
 21
69.2645946294
  0
LINE
  5
3B7
100
AcDbEntity
  8
CURVE
100
AcDbLine
 62
250
  6
CONTINUOUS
 10
85.3615019234
 20
70.4866356294
 11
85.3615019234
 21
71.0079966294
  0
LINE
  5
3B8
100
AcDbEntity
  8
CURVE
100
AcDbLine
 62
250
  6
CONTINUOUS
 10
85.3615019234
 20
72.0460716294
 11
85.3615019234
 21
72.5623346294
  0
LINE
  5
3B9
100
AcDbEntity
  8
CURVE
100
AcDbLine
 62
250
  6
CONTINUOUS
 10
85.3615019234
 20
73.6620996294
 11
85.3615019234
 21
74.1668716294
  0
LINE
  5
3BA
100
AcDbEntity
  8
CURVE
100
AcDbLine
 62
250
  6
CONTINUOUS
 10
86.4729057866
 20
75.8876674199
 11
86.4729057866
 21
75.5894679654
  0
LINE
  5
3BB
100
AcDbEntity
  8
CURVE
100
AcDbLine
 62
250
  6
CONTINUOUS
 10
86.8820526775
 20
75.6067698322
 11
86.8820526775
 21
75.8865427049
  0
LINE
  5
3BC
100
AcDbEntity
  8
CURVE
100
AcDbLine
 62
250
  6
CONTINUOUS
 10
86.9750663844
 20
73.6448726294
 11
86.9750663844
 21
74.1444526294
  0
LINE
  5
3BD
100
AcDbEntity
  8
CURVE
100
AcDbLine
 62
250
  6
CONTINUOUS
 10
87.360983151
 20
74.2487326294
 11
87.360983151
 21
73.5381376294
  0
LINE
  5
3BE
100
AcDbEntity
  8
CURVE
100
AcDbLine
 62
250
  6
CONTINUOUS
 10
87.8597151518
 20
74.9338526294
 11
87.8597151518
 21
74.3839046294
  0
LINE
  5
3BF
100
AcDbEntity
  8
CURVE
100
AcDbLine
 62
250
  6
CONTINUOUS
 10
87.8597151518
 20
73.3941546294
 11
87.8597151518
 21
72.8780236294
  0
LINE
  5
3C0
100
AcDbEntity
  8
CURVE
100
AcDbLine
 62
250
  6
CONTINUOUS
 10
87.8597151518
 20
72.7960876294
 11
87.8597151518
 21
72.2856356294
  0
LINE
  5
3C1
100
AcDbEntity
  8
CURVE
100
AcDbLine
 62
250
  6
CONTINUOUS
 10
87.8597151518
 20
71.5580206294
 11
87.8597151518
 21
71.4848386294
  0
LINE
  5
3C2
100
AcDbEntity
  8
CURVE
100
AcDbLine
 62
250
  6
CONTINUOUS
 10
87.8597151518
 20
70.7601096294
 11
87.8597151518
 21
70.2609236294
  0
LINE
  5
3C3
100
AcDbEntity
  8
CURVE
100
AcDbLine
 62
250
  6
CONTINUOUS
 10
87.8597151518
 20
68.4610796294
 11
87.8597151518
 21
68.0012496294
  0
LINE
  5
3C4
100
AcDbEntity
  8
CURVE
100
AcDbLine
 62
250
  6
CONTINUOUS
 10
87.8597151518
 20
69.4582336294
 11
87.8597151518
 21
69.9800266294
  0
LINE
  5
3C5
100
AcDbEntity
  8
CURVE
100
AcDbLine
 62
250
  6
CONTINUOUS
 10
87.8597151682
 20
75.0870764906
 11
87.8597151682
 21
75.6067698322
  0
LINE
  5
3C6
100
AcDbEntity
  8
CURVE
100
AcDbLine
 62
250
  6
CONTINUOUS
 10
87.8597151682
 20
76.4058236509
 11
87.8597151682
 21
76.9077277492
  0
LWPOLYLINE
  5
3C7
100
AcDbEntity
  8
CURVE
100
AcDbPolyline
 62
250
  6
CONTINUOUS
 90
48
 70
0
 10
86.8820526775
 20
75.8865427049
 10
86.8821546203
 20
75.8945767966
 10
86.8824615606
 20
75.902625153
 10
86.8829751664
 20
75.9106795054
 10
86.8836971056
 20
75.918731585
 10
86.8846290462
 20
75.926773123
 10
86.8857726561
 20
75.9347958506
 10
86.8871296034
 20
75.9427914992
 10
86.8887015559
 20
75.9507517998
 10
86.8904901817
 20
75.9586684839
 10
86.8924971487
 20
75.9665332825
 10
86.8947241248
 20
75.974337927
 10
86.897172778
 20
75.9820741485
 10
86.8998447763
 20
75.9897336784
 10
86.9027417876
 20
75.9973082478
 10
86.9058654799
 20
76.004789588
 10
86.9092175212
 20
76.0121694302
 10
86.9127995793
 20
76.0194395057
 10
86.9167119686
 20
76.0267733439
 10
86.9208604393
 20
76.0339813196
 10
86.9252374317
 20
76.0410616967
 10
86.9298353866
 20
76.0480127393
 10
86.9346467443
 20
76.0548327114
 10
86.9396639455
 20
76.0615198772
 10
86.9448794307
 20
76.0680725006
 10
86.9502856404
 20
76.0744888457
 10
86.9558750152
 20
76.0807671766
 10
86.9616399955
 20
76.0869057572
 10
86.967573022
 20
76.0929028516
 10
86.9736665352
 20
76.098756724
 10
86.9799129755
 20
76.1044656382
 10
86.9863047836
 20
76.1100278584
 10
86.9928344
 20
76.1154416487
 10
86.9994942652
 20
76.1207052729
 10
87.0062768197
 20
76.1258169953
 10
87.0131745041
 20
76.1307750799
 10
87.020179759
 20
76.1355777906
 10
87.0272850248
 20
76.1402233916
 10
87.0344827421
 20
76.1447101468
 10
87.0417653514
 20
76.1490363204
 10
87.0491252933
 20
76.1532001764
 10
87.0565550083
 20
76.1571999788
 10
87.0640469369
 20
76.1610339916
 10
87.0715935198
 20
76.164700479
 10
87.0791871973
 20
76.1681977049
 10
87.0868204101
 20
76.1715239334
 10
87.0944855987
 20
76.1746774286
 10
87.1021752036
 20
76.1776564545
  0
LINE
  5
3C8
100
AcDbEntity
  8
0
100
AcDbLine
 62
7
  6
CONTINUOUS
 10
89.3916709119
 20
60.7156316294
 11
89.3916709119
 21
150.7156316294
  0
LINE
  5
3C9
100
AcDbEntity
  8
ASSI
100
AcDbLine
 62
7
  6
CONTINUOUS
 10
89.3916709119
 20
60.7156316294
 11
89.3916709119
 21
150.7156316294
  0
LINE
  5
3CA
100
AcDbEntity
  8
0
100
AcDbLine
 62
7
  6
CONTINUOUS
 10
89.9916709119
 20
62.9156316294
 11
89.9916709119
 21
148.5156316294
  0
LINE
  5
3CB
100
AcDbEntity
  8
0
100
AcDbLine
 62
250
  6
CONTINUOUS
 10
90.9175082706
 20
78.5658539175
 11
90.9174434956
 21
78.7879523855
  0
LINE
  5
3CC
100
AcDbEntity
  8
0
100
AcDbLine
 62
250
  6
CONTINUOUS
 10
90.9174434956
 20
132.6433108733
 11
90.9175081179
 21
132.8654076746
  0
LWPOLYLINE
  5
3CD
100
AcDbEntity
  8
0
100
AcDbPolyline
 62
250
  6
CONTINUOUS
 90
4
 70
0
 10
91.8686148958
 20
132.2865456972
 10
91.8685823983
 20
132.2855671512
 10
91.8685423066
 20
132.2818856578
 10
91.8684592051
 20
132.2665519976
  0
LWPOLYLINE
  5
3CE
100
AcDbEntity
  8
0
100
AcDbPolyline
 62
7
  6
CONTINUOUS
 90
16
 70
0
 10
92.9916709119
 20
131.7059576623
 10
92.9908064299
 20
131.6958372785
 10
92.9882279958
 20
131.685974078
 10
92.9839690108
 20
131.6763680607
 10
92.9780560094
 20
131.6669217789
 10
92.9705611377
 20
131.6577326803
 10
92.9616502013
 20
131.6490931083
 10
92.9514904887
 20
131.6410617064
 10
92.9401807772
 20
131.6335798311
 10
92.9278288938
 20
131.6267638948
 10
92.914568972
 20
131.6206327792
 10
92.9005277524
 20
131.6151676026
 10
92.8857894074
 20
131.6104281321
 10
92.8704619057
 20
131.60643429
 10
92.8546847736
 20
131.6031661541
 10
92.8385816435
 20
131.6006237243
  0
LWPOLYLINE
  5
3CF
100
AcDbEntity
  8
CURVE
100
AcDbPolyline
 62
250
  6
CONTINUOUS
 90
49
 70
0
 10
85.7723916066
 20
75.9982456562
 10
85.7736301815
 20
76.007808834
 10
85.7751270999
 20
76.0173726639
 10
85.7768816353
 20
76.0269266125
 10
85.7788930616
 20
76.0364601465
 10
85.7811606525
 20
76.0459627328
 10
85.7836836816
 20
76.055423838
 10
85.7864614228
 20
76.0648329289
 10
85.7894931498
 20
76.0741794722
 10
85.7927781363
 20
76.0834529347
 10
85.796315656
 20
76.0926427831
 10
85.8001049828
 20
76.1017384841
 10
85.8041453902
 20
76.1107295045
 10
85.8084361521
 20
76.1196053111
 10
85.8129765422
 20
76.1283553705
 10
85.8177658342
 20
76.1369691494
 10
85.8228033018
 20
76.1454361147
 10
85.8280882189
 20
76.1537457331
 10
85.833619859
 20
76.1618874713
 10
85.8393974961
 20
76.169850796
 10
85.8454204037
 20
76.1776251741
 10
85.8516878557
 20
76.1852000721
 10
85.8581991258
 20
76.1925649569
 10
85.8649534876
 20
76.1997092952
 10
85.871950215
 20
76.2066225538
 10
85.8791471608
 20
76.2132601312
 10
85.8865718579
 20
76.2196556668
 10
85.894213016
 20
76.2258061345
 10
85.9020593445
 20
76.2317085081
 10
85.9100995533
 20
76.2373597616
 10
85.9183223519
 20
76.2427568687
 10
85.92671645
 20
76.2478968034
 10
85.9352705573
 20
76.2527765395
 10
85.9439733833
 20
76.2573930508
 10
85.9528136378
 20
76.2617433114
 10
85.9617800303
 20
76.2658242949
 10
85.9708612705
 20
76.2696329753
 10
85.9800460681
 20
76.2731663265
 10
85.9893231327
 20
76.2764213223
 10
85.998681174
 20
76.2793949366
 10
86.0081089015
 20
76.2820841432
 10
86.017595025
 20
76.284485916
 10
86.0271282541
 20
76.2865972289
 10
86.0366972984
 20
76.2884150557
 10
86.0462908676
 20
76.2899363704
 10
86.0558976713
 20
76.2911581468
 10
86.0655064192
 20
76.2920773586
 10
86.0751058209
 20
76.2926909799
 10
86.084684586
 20
76.2929959845
  0
LINE
  5
3D0
100
AcDbEntity
  8
0
100
AcDbLine
 62
250
  6
CONTINUOUS
 10
92.8021381032
 20
131.5956182971
 11
92.8021381032
 21
131.0966783485
  0
LINE
  5
3D1
100
AcDbEntity
  8
0
100
AcDbLine
 62
250
  6
CONTINUOUS
 10
92.8021381032
 20
80.3345849103
 11
92.8021381032
 21
79.8994214375
  0
LINE
  5
3D2
100
AcDbEntity
  8
0
100
AcDbLine
 62
7
  6
CONTINUOUS
 10
92.9916709119
 20
131.8039959698
 11
92.9916709119
 21
131.1156316294
  0
LINE
  5
3D3
100
AcDbEntity
  8
0
100
AcDbLine
 62
7
  6
CONTINUOUS
 10
92.9916709119
 20
80.3156316294
 11
92.9916709119
 21
79.627267289
  0
LWPOLYLINE
  5
3D4
100
AcDbEntity
  8
0
100
AcDbPolyline
 62
250
  6
CONTINUOUS
 90
4
 70
0
 10
91.9516612498
 20
79.1870102919
 10
91.9517030125
 20
79.187993145
 10
91.9517063729
 20
79.1916798922
 10
91.9515638278
 20
79.2070241813
  0
LWPOLYLINE
  5
3D5
100
AcDbEntity
  8
CURVE
100
AcDbPolyline
 62
250
  6
CONTINUOUS
 90
32
 70
0
 10
85.4169920796
 20
76.3747815151
 10
85.4066030137
 20
76.3445769467
 10
85.3971072058
 20
76.3140823905
 10
85.3884613239
 20
76.2833234583
 10
85.3806220364
 20
76.2523257618
 10
85.3735460111
 20
76.2211149125
 10
85.3671899163
 20
76.1897165222
 10
85.3615104201
 20
76.1581562026
 10
85.3564641906
 20
76.1264595652
 10
85.3520078959
 20
76.0946522219
 10
85.3480982041
 20
76.0627597843
 10
85.3446917833
 20
76.0308078639
 10
85.3417453017
 20
75.9988220727
 10
85.3381028512
 20
75.950694435
 10
85.3353650549
 20
75.9025532676
 10
85.3334941988
 20
75.8544037234
 10
85.332452569
 20
75.8062509551
 10
85.3322024514
 20
75.7581001157
 10
85.3327061322
 20
75.7099563579
 10
85.3339258973
 20
75.6618248347
 10
85.3358240329
 20
75.6137106989
 10
85.3383628249
 20
75.5656191033
 10
85.3415045594
 20
75.5175552009
 10
85.3452115224
 20
75.4695241444
 10
85.349446
 20
75.4215310868
 10
85.3541702783
 20
75.3735811809
 10
85.3593466432
 20
75.3256795795
 10
85.3649373809
 20
75.2778314355
 10
85.3709047773
 20
75.2300419017
 10
85.3772111185
 20
75.1823161311
 10
85.3838186906
 20
75.1346592764
 10
85.3906897795
 20
75.0870764906
  0
LWPOLYLINE
  5
3D6
100
AcDbEntity
  8
0
100
AcDbPolyline
 62
7
  6
CONTINUOUS
 90
10
 70
0
 43
0.3500000006
 10
74.0569880676
 20
160.7660824585
 10
74.1284192505
 20
160.6232382202
 10
74.1284192505
 20
160.5517979736
 10
73.9855614166
 20
160.4089537354
 10
73.9141302338
 20
160.4089537354
 10
73.8427035828
 20
160.4803758545
 10
73.8427035828
 20
160.5517979736
 10
73.9141302338
 20
160.6946603394
 10
73.9855614166
 20
160.7660824585
 10
74.0569880676
 20
160.7660824585
  0
LWPOLYLINE
  5
3D7
100
AcDbEntity
  8
0
100
AcDbPolyline
 62
7
  6
CONTINUOUS
 90
10
 70
0
 43
0.3500000006
 10
75.5125989532
 20
167.9413044434
 10
75.5840256042
 20
167.7984420776
 10
75.5840256042
 20
167.7270199585
 10
75.4411677704
 20
167.5841575928
 10
75.3697411194
 20
167.5841575928
 10
75.2983099365
 20
167.6555978394
 10
75.2983099365
 20
167.7270199585
 10
75.3697411194
 20
167.8698823242
 10
75.4411677704
 20
167.9413044434
 10
75.5125989532
 20
167.9413044434
  0
LINE
  5
3D8
100
AcDbEntity
  8
CURVE
100
AcDbLine
 62
7
  6
CONTINUOUS
 10
85.3698288972
 20
76.2013296189
 11
85.9421291015
 21
76.7736298231
  0
LINE
  5
3D9
100
AcDbEntity
  8
CURVE
100
AcDbLine
 62
7
  6
CONTINUOUS
 10
85.3396487751
 20
75.9611387827
 11
86.1551531434
 21
76.776643151
  0
LINE
  5
3DA
100
AcDbEntity
  8
CURVE
100
AcDbLine
 62
7
  6
CONTINUOUS
 10
85.3331111397
 20
75.7445904333
 11
86.325201848
 21
76.7366811416
  0
LINE
  5
3DB
100
AcDbEntity
  8
0
100
AcDbLine
 62
7
  6
CONTINUOUS
 10
90.2916709119
 20
80.5156316294
 11
90.4416709119
 21
80.6656316294
  0
LINE
  5
3DC
100
AcDbEntity
  8
CURVE
100
AcDbLine
 62
7
  6
CONTINUOUS
 10
85.3398802482
 20
75.5413488278
 11
85.7698864069
 21
75.9713549865
  0
LINE
  5
3DD
100
AcDbEntity
  8
CURVE
100
AcDbLine
 62
7
  6
CONTINUOUS
 10
86.0913757888
 20
76.2928443684
 11
86.4654924535
 21
76.6669610331
  0
LINE
  5
3DE
100
AcDbEntity
  8
CURVE
100
AcDbLine
 62
7
  6
CONTINUOUS
 10
85.3572212404
 20
75.348679106
 11
85.7663224
 21
75.7577802656
  0
LINE
  5
3DF
100
AcDbEntity
  8
CURVE
100
AcDbLine
 62
7
  6
CONTINUOUS
 10
86.2659040159
 20
76.2573618814
 11
86.5789231986
 21
76.5703810642
  0
LINE
  5
3E0
100
AcDbEntity
  8
CURVE
100
AcDbLine
 62
7
  6
CONTINUOUS
 10
85.3803851952
 20
75.1618323468
 11
85.8080208138
 21
75.5894679654
  0
LINE
  5
3E1
100
AcDbEntity
  8
CURVE
100
AcDbLine
 62
7
  6
CONTINUOUS
 10
86.3883682232
 20
76.1698153747
 11
86.6715617242
 21
76.4530088758
  0
LINE
  5
3E2
100
AcDbEntity
  8
CURVE
100
AcDbLine
 62
7
  6
CONTINUOUS
 10
85.515640053
 20
75.0870764906
 11
86.0180315278
 21
75.5894679654
  0
LINE
  5
3E3
100
AcDbEntity
  8
CURVE
100
AcDbLine
 62
7
  6
CONTINUOUS
 10
86.455800767
 20
76.0272372046
 11
87.1483905986
 21
76.7198270362
  0
LINE
  5
3E4
100
AcDbEntity
  8
CURVE
100
AcDbLine
 62
7
  6
CONTINUOUS
 10
85.725650767
 20
75.0870764906
 11
86.2280422418
 21
75.5894679654
  0
LINE
  5
3E5
100
AcDbEntity
  8
CURVE
100
AcDbLine
 62
7
  6
CONTINUOUS
 10
86.4729057866
 20
75.8343315102
 11
87.4348082606
 21
76.7962339841
  0
LINE
  5
3E6
100
AcDbEntity
  8
CURVE
100
AcDbLine
 62
7
  6
CONTINUOUS
 10
85.9356614811
 20
75.0870764906
 11
86.4380529559
 21
75.5894679654
  0
LINE
  5
3E7
100
AcDbEntity
  8
CURVE
100
AcDbLine
 62
7
  6
CONTINUOUS
 10
86.4729057866
 20
75.6243207962
 11
87.7190088145
 21
76.8704238241
  0
LINE
  5
3E8
100
AcDbEntity
  8
CURVE
100
AcDbLine
 62
7
  6
CONTINUOUS
 10
86.1456721951
 20
75.0870764906
 11
86.8820526775
 21
75.8234569731
  0
LINE
  5
3E9
100
AcDbEntity
  8
CURVE
100
AcDbLine
 62
7
  6
CONTINUOUS
 10
87.3029234455
 20
76.244327741
 11
87.8597151682
 21
76.8011194638
  0
LINE
  5
3EA
100
AcDbEntity
  8
CURVE
100
AcDbLine
 62
7
  6
CONTINUOUS
 10
85.3615019234
 20
74.0928955049
 11
85.4682513991
 21
74.1996449807
  0
LINE
  5
3EB
100
AcDbEntity
  8
CURVE
100
AcDbLine
 62
7
  6
CONTINUOUS
 10
86.3556829091
 20
75.0870764906
 11
86.8820526775
 21
75.6134462591
  0
LINE
  5
3EC
100
AcDbEntity
  8
CURVE
100
AcDbLine
 62
7
  6
CONTINUOUS
 10
87.5981518139
 20
76.3295453954
 11
87.8597151682
 21
76.5911087498
  0
LINE
  5
3ED
100
AcDbEntity
  8
CURVE
100
AcDbLine
 62
7
  6
CONTINUOUS
 10
85.3615019234
 20
73.8828847909
 11
85.7713023332
 21
74.2926852007
  0
LINE
  5
3EE
100
AcDbEntity
  8
CURVE
100
AcDbLine
 62
7
  6
CONTINUOUS
 10
86.5656936231
 20
75.0870764906
 11
87.0853869647
 21
75.6067698322
  0
LINE
  5
3EF
100
AcDbEntity
  8
CURVE
100
AcDbLine
 62
7
  6
CONTINUOUS
 10
85.3615019234
 20
73.6728740769
 11
86.0743532672
 21
74.3857254207
  0
LINE
  5
3F0
100
AcDbEntity
  8
CURVE
100
AcDbLine
 62
7
  6
CONTINUOUS
 10
86.7757043371
 20
75.0870764906
 11
87.2953976787
 21
75.6067698322
  0
LINE
  5
3F1
100
AcDbEntity
  8
CURVE
100
AcDbLine
 62
7
  6
CONTINUOUS
 10
85.5131444637
 20
73.6145059032
 11
86.3774042013
 21
74.4787656408
  0
LINE
  5
3F2
100
AcDbEntity
  8
CURVE
100
AcDbLine
 62
7
  6
CONTINUOUS
 10
86.9857150511
 20
75.0870764906
 11
87.5054083927
 21
75.6067698322
  0
LINE
  5
3F3
100
AcDbEntity
  8
CURVE
100
AcDbLine
 62
7
  6
CONTINUOUS
 10
85.6729876424
 20
73.5643383679
 11
86.6804551353
 21
74.5718058608
  0
LINE
  5
3F4
100
AcDbEntity
  8
CURVE
100
AcDbLine
 62
7
  6
CONTINUOUS
 10
87.1957257651
 20
75.0870764906
 11
87.7154191067
 21
75.6067698322
  0
LINE
  5
3F5
100
AcDbEntity
  8
CURVE
100
AcDbLine
 62
7
  6
CONTINUOUS
 10
85.8328308212
 20
73.5141708327
 11
86.1849492522
 21
73.8662892637
  0
LINE
  5
3F6
100
AcDbEntity
  8
CURVE
100
AcDbLine
 62
7
  6
CONTINUOUS
 10
86.2845252241
 20
73.9658652356
 11
86.9835060693
 21
74.6648460808
  0
LINE
  5
3F7
100
AcDbEntity
  8
CURVE
100
AcDbLine
 62
7
  6
CONTINUOUS
 10
87.4057364791
 20
75.0870764906
 11
87.8597151682
 21
75.5410551797
  0
LINE
  5
3F8
100
AcDbEntity
  8
CURVE
100
AcDbLine
 62
7
  6
CONTINUOUS
 10
85.992674
 20
73.4640032974
 11
86.3489903041
 21
73.8203196016
  0
LINE
  5
3F9
100
AcDbEntity
  8
CURVE
100
AcDbLine
 62
7
  6
CONTINUOUS
 10
86.5677950263
 20
74.0391243237
 11
87.2865570034
 21
74.7578863008
  0
LINE
  5
3FA
100
AcDbEntity
  8
CURVE
100
AcDbLine
 62
7
  6
CONTINUOUS
 10
87.6157471932
 20
75.0870764906
 11
87.8597151682
 21
75.3310444657
  0
LINE
  5
3FB
100
AcDbEntity
  8
0
100
AcDbLine
 62
7
  6
CONTINUOUS
 10
90.2916709119
 20
130.9156316294
 11
90.4416709119
 21
130.7656316294
  0
LINE
  5
3FC
100
AcDbEntity
  8
CURVE
100
AcDbLine
 62
7
  6
CONTINUOUS
 10
86.1525171787
 20
73.4138357621
 11
86.513031356
 21
73.7743499395
  0
LINE
  5
3FD
100
AcDbEntity
  8
CURVE
100
AcDbLine
 62
7
  6
CONTINUOUS
 10
86.8510648284
 20
74.1123834118
 11
87.5896079374
 21
74.8509265209
  0
LINE
  5
3FE
100
AcDbEntity
  8
CURVE
100
AcDbLine
 62
7
  6
CONTINUOUS
 10
87.8257579072
 20
75.0870764906
 11
87.8597151682
 21
75.1210337517
  0
LINE
  5
3FF
100
AcDbEntity
  8
CURVE
100
AcDbLine
 62
7
  6
CONTINUOUS
 10
85.3615019234
 20
72.4128097928
 11
85.5264617315
 21
72.5777696009
  0
LINE
  5
400
100
AcDbEntity
  8
CURVE
100
AcDbLine
 62
7
  6
CONTINUOUS
 10
86.3123603575
 20
73.3636682269
 11
86.6770724079
 21
73.7283802773
  0
LINE
  5
401
100
AcDbEntity
  8
CURVE
100
AcDbLine
 62
7
  6
CONTINUOUS
 10
86.9750663844
 20
74.0263742538
 11
87.8597151518
 21
74.9110230212
  0
LINE
  5
402
100
AcDbEntity
  8
CURVE
100
AcDbLine
 62
7
  6
CONTINUOUS
 10
85.3615019234
 20
72.2027990788
 11
85.7581511811
 21
72.5994483365
  0
LINE
  5
403
100
AcDbEntity
  8
CURVE
100
AcDbLine
 62
7
  6
CONTINUOUS
 10
86.4722035362
 20
73.3135006916
 11
86.8411134598
 21
73.6824106152
  0
LINE
  5
404
100
AcDbEntity
  8
CURVE
100
AcDbLine
 62
7
  6
CONTINUOUS
 10
86.9750663844
 20
73.8163635398
 11
87.360983151
 21
74.2022803064
  0
LINE
  5
405
100
AcDbEntity
  8
CURVE
100
AcDbLine
 62
7
  6
CONTINUOUS
 10
87.4247064977
 20
74.2660036531
 11
87.8597151518
 21
74.7010123072
  0
LINE
  5
406
100
AcDbEntity
  8
CURVE
100
AcDbLine
 62
7
  6
CONTINUOUS
 10
85.4002196442
 20
72.0315060856
 11
85.9898406306
 21
72.621127072
  0
LINE
  5
407
100
AcDbEntity
  8
CURVE
100
AcDbLine
 62
7
  6
CONTINUOUS
 10
86.632046715
 20
73.2633331564
 11
87.360983151
 21
73.9922695924
  0
LINE
  5
408
100
AcDbEntity
  8
CURVE
100
AcDbLine
 62
7
  6
CONTINUOUS
 10
87.7127994215
 20
74.3440858629
 11
87.8597151518
 21
74.4910015932
  0
LINE
  5
409
100
AcDbEntity
  8
CURVE
100
AcDbLine
 62
7
  6
CONTINUOUS
 10
85.5528217091
 20
71.9740974365
 11
86.2215300802
 21
72.6428058075
  0
LINE
  5
40A
100
AcDbEntity
  8
CURVE
100
AcDbLine
 62
7
  6
CONTINUOUS
 10
86.7918898937
 20
73.2131656211
 11
87.360983151
 21
73.7822588784
  0
LINE
  5
40B
100
AcDbEntity
  8
CURVE
100
AcDbLine
 62
7
  6
CONTINUOUS
 10
85.705423774
 20
71.9166887873
 11
86.4532195297
 21
72.6644845431
  0
LINE
  5
40C
100
AcDbEntity
  8
CURVE
100
AcDbLine
 62
7
  6
CONTINUOUS
 10
86.9517330725
 20
73.1629980858
 11
87.360983151
 21
73.5722481644
  0
LINE
  5
40D
100
AcDbEntity
  8
CURVE
100
AcDbLine
 62
7
  6
CONTINUOUS
 10
85.8580258388
 20
71.8592801382
 11
86.6849089793
 21
72.6861632786
  0
LINE
  5
40E
100
AcDbEntity
  8
CURVE
100
AcDbLine
 62
7
  6
CONTINUOUS
 10
87.1115762512
 20
73.1128305506
 11
87.4974776285
 21
73.4987319279
  0
LINE
  5
40F
100
AcDbEntity
  8
CURVE
100
AcDbLine
 62
7
  6
CONTINUOUS
 10
86.0106279037
 20
71.801871489
 11
86.3451919726
 21
72.1364355579
  0
LINE
  5
410
100
AcDbEntity
  8
CURVE
100
AcDbLine
 62
7
  6
CONTINUOUS
 10
86.3979247312
 20
72.1891683166
 11
86.9165984288
 21
72.7078420142
  0
LINE
  5
411
100
AcDbEntity
  8
CURVE
100
AcDbLine
 62
7
  6
CONTINUOUS
 10
87.27141943
 20
73.0626630153
 11
87.6604410936
 21
73.451684679
  0
LINE
  5
412
100
AcDbEntity
  8
CURVE
100
AcDbLine
 62
7
  6
CONTINUOUS
 10
85.3615019234
 20
70.9427347947
 11
85.4654593044
 21
71.0466921757
  0
LINE
  5
413
100
AcDbEntity
  8
CURVE
100
AcDbLine
 62
7
  6
CONTINUOUS
 10
86.1632299685
 20
71.7444628399
 11
86.4971630667
 21
72.0783959381
  0
LINE
  5
414
100
AcDbEntity
  8
CURVE
100
AcDbLine
 62
7
  6
CONTINUOUS
 10
86.6227738151
 20
72.2040066864
 11
87.1482878784
 21
72.7295207497
  0
LINE
  5
415
100
AcDbEntity
  8
CURVE
100
AcDbLine
 62
7
  6
CONTINUOUS
 10
87.4312626087
 20
73.0124954801
 11
87.8234045587
 21
73.40463743
  0
LINE
  5
416
100
AcDbEntity
  8
CURVE
100
AcDbLine
 62
7
  6
CONTINUOUS
 10
85.3615019234
 20
70.7327240807
 11
85.7999911778
 21
71.1712133351
  0
LINE
  5
417
100
AcDbEntity
  8
CURVE
100
AcDbLine
 62
7
  6
CONTINUOUS
 10
86.3158320334
 20
71.6870541907
 11
86.6491341609
 21
72.0203563182
  0
LINE
  5
418
100
AcDbEntity
  8
CURVE
100
AcDbLine
 62
7
  6
CONTINUOUS
 10
86.847622899
 20
72.2188450563
 11
87.3799773279
 21
72.7511994852
  0
LINE
  5
419
100
AcDbEntity
  8
CURVE
100
AcDbLine
 62
7
  6
CONTINUOUS
 10
87.5911057875
 20
72.9623279448
 11
87.8597151518
 21
73.2309373091
  0
LINE
  5
41A
100
AcDbEntity
  8
CURVE
100
AcDbLine
 62
7
  6
CONTINUOUS
 10
85.3615019234
 20
70.5227133667
 11
86.1345230511
 21
71.2957344944
  0
LINE
  5
41B
100
AcDbEntity
  8
CURVE
100
AcDbLine
 62
7
  6
CONTINUOUS
 10
86.4684340983
 20
71.6296455416
 11
86.8011052551
 21
71.9623166984
  0
LINE
  5
41C
100
AcDbEntity
  8
CURVE
100
AcDbLine
 62
7
  6
CONTINUOUS
 10
87.0724719828
 20
72.2336834261
 11
87.6116667775
 21
72.7728782208
  0
LINE
  5
41D
100
AcDbEntity
  8
CURVE
100
AcDbLine
 62
7
  6
CONTINUOUS
 10
87.7509489662
 20
72.9121604095
 11
87.8597151518
 21
73.0209265951
  0
LINE
  5
41E
100
AcDbEntity
  8
CURVE
100
AcDbLine
 62
7
  6
CONTINUOUS
 10
85.5210223312
 20
70.4722230605
 11
86.4690549245
 21
71.4202556538
  0
LINE
  5
41F
100
AcDbEntity
  8
CURVE
100
AcDbLine
 62
7
  6
CONTINUOUS
 10
86.6210361631
 20
71.5722368924
 11
86.9530763492
 21
71.9042770785
  0
LINE
  5
420
100
AcDbEntity
  8
CURVE
100
AcDbLine
 62
7
  6
CONTINUOUS
 10
87.2973210667
 20
72.248521796
 11
87.843356227
 21
72.7945569563
  0
LINE
  5
421
100
AcDbEntity
  8
CURVE
100
AcDbLine
 62
7
  6
CONTINUOUS
 10
85.7136309749
 20
70.4548209902
 11
87.1050474434
 21
71.8462374587
  0
LINE
  5
422
100
AcDbEntity
  8
CURVE
100
AcDbLine
 62
7
  6
CONTINUOUS
 10
87.5221701506
 20
72.2633601659
 11
87.8597151518
 21
72.600905167
  0
LINE
  5
423
100
AcDbEntity
  8
CURVE
100
AcDbLine
 62
7
  6
CONTINUOUS
 10
85.3613530141
 20
69.8925323154
 11
85.4488473281
 21
69.9800266294
  0
LINE
  5
424
100
AcDbEntity
  8
CURVE
100
AcDbLine
 62
7
  6
CONTINUOUS
 10
85.9062396187
 20
70.4374189199
 11
86.3342302064
 21
70.8654095077
  0
LINE
  5
425
100
AcDbEntity
  8
CURVE
100
AcDbLine
 62
7
  6
CONTINUOUS
 10
86.409465568
 20
70.9406448693
 11
87.2570185376
 21
71.7881978388
  0
LINE
  5
426
100
AcDbEntity
  8
CURVE
100
AcDbLine
 62
7
  6
CONTINUOUS
 10
87.7470192344
 20
72.2781985357
 11
87.8597151518
 21
72.390894453
  0
LINE
  5
427
100
AcDbEntity
  8
CURVE
100
AcDbLine
 62
7
  6
CONTINUOUS
 10
85.3613530141
 20
69.6825216014
 11
85.6588580421
 21
69.9800266294
  0
LINE
  5
428
100
AcDbEntity
  8
CURVE
100
AcDbLine
 62
7
  6
CONTINUOUS
 10
86.0988482624
 20
70.4200168496
 11
86.5306805154
 21
70.8518491027
  0
LINE
  5
429
100
AcDbEntity
  8
CURVE
100
AcDbLine
 62
7
  6
CONTINUOUS
 10
86.745612572
 20
71.0667811593
 11
87.4089896317
 21
71.730158219
  0
LINE
  5
42A
100
AcDbEntity
  8
CURVE
100
AcDbLine
 62
7
  6
CONTINUOUS
 10
85.3613530141
 20
69.4725108874
 11
85.8688687562
 21
69.9800266294
  0
LINE
  5
42B
100
AcDbEntity
  8
CURVE
100
AcDbLine
 62
7
  6
CONTINUOUS
 10
86.2914569061
 20
70.4026147794
 11
86.7271308245
 21
70.8382886977
  0
LINE
  5
42C
100
AcDbEntity
  8
CURVE
100
AcDbLine
 62
7
  6
CONTINUOUS
 10
87.081759576
 20
71.1929174493
 11
87.5609607259
 21
71.6721185991
  0
LINE
  5
42D
100
AcDbEntity
  8
CURVE
100
AcDbLine
 62
7
  6
CONTINUOUS
 10
85.3615019234
 20
69.2626490826
 11
85.3629739981
 21
69.2641211574
  0
LINE
  5
42E
100
AcDbEntity
  8
CURVE
100
AcDbLine
 62
7
  6
CONTINUOUS
 10
85.5570864702
 20
69.4582336294
 11
86.0788794702
 21
69.9800266294
  0
LINE
  5
42F
100
AcDbEntity
  8
CURVE
100
AcDbLine
 62
7
  6
CONTINUOUS
 10
86.4840655498
 20
70.3852127091
 11
86.9235811335
 21
70.8247282928
  0
LINE
  5
430
100
AcDbEntity
  8
CURVE
100
AcDbLine
 62
7
  6
CONTINUOUS
 10
87.41790658
 20
71.3190537393
 11
87.7129318201
 21
71.6140789793
  0
LINE
  5
431
100
AcDbEntity
  8
CURVE
100
AcDbLine
 62
7
  6
CONTINUOUS
 10
85.3615019234
 20
69.0526383686
 11
85.5218760965
 21
69.2130125417
  0
LINE
  5
432
100
AcDbEntity
  8
CURVE
100
AcDbLine
 62
7
  6
CONTINUOUS
 10
85.7670971842
 20
69.4582336294
 11
86.2888901842
 21
69.9800266294
  0
LINE
  5
433
100
AcDbEntity
  8
CURVE
100
AcDbLine
 62
7
  6
CONTINUOUS
 10
86.6766741936
 20
70.3678106388
 11
87.1200314426
 21
70.8111678878
  0
LINE
  5
434
100
AcDbEntity
  8
CURVE
100
AcDbLine
 62
7
  6
CONTINUOUS
 10
87.7540535841
 20
71.4451900293
 11
87.8597151518
 21
71.550851597
  0
LINE
  5
435
100
AcDbEntity
  8
CURVE
100
AcDbLine
 62
7
  6
CONTINUOUS
 10
85.3615019234
 20
68.8426276546
 11
85.6807781949
 21
69.1619039261
  0
LINE
  5
436
100
AcDbEntity
  8
CURVE
100
AcDbLine
 62
7
  6
CONTINUOUS
 10
85.9771078982
 20
69.4582336294
 11
86.4989008982
 21
69.9800266294
  0
LINE
  5
437
100
AcDbEntity
  8
CURVE
100
AcDbLine
 62
7
  6
CONTINUOUS
 10
86.8692828373
 20
70.3504085685
 11
87.3164817516
 21
70.7976074828
  0
LINE
  5
438
100
AcDbEntity
  8
CURVE
100
AcDbLine
 62
7
  6
CONTINUOUS
 10
85.4474890081
 20
68.7186040253
 11
85.8396802933
 21
69.1107953105
  0
LINE
  5
439
100
AcDbEntity
  8
CURVE
100
AcDbLine
 62
7
  6
CONTINUOUS
 10
86.1871186122
 20
69.4582336294
 11
86.7089116122
 21
69.9800266294
  0
LINE
  5
43A
100
AcDbEntity
  8
CURVE
100
AcDbLine
 62
7
  6
CONTINUOUS
 10
87.061891481
 20
70.3330064982
 11
87.5129320607
 21
70.7840470779
  0
LINE
  5
43B
100
AcDbEntity
  8
CURVE
100
AcDbLine
 62
7
  6
CONTINUOUS
 10
85.6108500825
 20
68.6719543857
 11
85.9985823917
 21
69.0596866949
  0
LINE
  5
43C
100
AcDbEntity
  8
CURVE
100
AcDbLine
 62
7
  6
CONTINUOUS
 10
86.3971293262
 20
69.4582336294
 11
86.9189223262
 21
69.9800266294
  0
LINE
  5
43D
100
AcDbEntity
  8
CURVE
100
AcDbLine
 62
7
  6
CONTINUOUS
 10
87.2545001247
 20
70.3156044279
 11
87.7093823697
 21
70.7704866729
  0
LINE
  5
43E
100
AcDbEntity
  8
CURVE
100
AcDbLine
 62
7
  6
CONTINUOUS
 10
85.7742111569
 20
68.6253047461
 11
86.1574844901
 21
69.0085780793
  0
LINE
  5
43F
100
AcDbEntity
  8
CURVE
100
AcDbLine
 62
7
  6
CONTINUOUS
 10
86.6071400402
 20
69.4582336294
 11
87.1289330402
 21
69.9800266294
  0
LINE
  5
440
100
AcDbEntity
  8
CURVE
100
AcDbLine
 62
7
  6
CONTINUOUS
 10
87.4471087685
 20
70.2982023576
 11
87.8597151518
 21
70.7108087409
  0
LINE
  5
441
100
AcDbEntity
  8
CURVE
100
AcDbLine
 62
7
  6
CONTINUOUS
 10
85.9375722314
 20
68.5786551065
 11
86.3163865885
 21
68.9574694637
  0
LINE
  5
442
100
AcDbEntity
  8
CURVE
100
AcDbLine
 62
7
  6
CONTINUOUS
 10
86.8171507542
 20
69.4582336294
 11
87.3389437542
 21
69.9800266294
  0
LINE
  5
443
100
AcDbEntity
  8
CURVE
100
AcDbLine
 62
7
  6
CONTINUOUS
 10
87.6397174122
 20
70.2808002873
 11
87.8597151518
 21
70.5007980269
  0
LINE
  5
444
100
AcDbEntity
  8
CURVE
100
AcDbLine
 62
7
  6
CONTINUOUS
 10
86.1009333058
 20
68.5320054669
 11
86.4752886869
 21
68.9063608481
  0
LINE
  5
445
100
AcDbEntity
  8
CURVE
100
AcDbLine
 62
7
  6
CONTINUOUS
 10
87.0271614683
 20
69.4582336294
 11
87.5489544683
 21
69.9800266294
  0
LINE
  5
446
100
AcDbEntity
  8
CURVE
100
AcDbLine
 62
7
  6
CONTINUOUS
 10
87.8323260559
 20
70.2633982171
 11
87.8597151518
 21
70.2907873129
  0
LINE
  5
447
100
AcDbEntity
  8
CURVE
100
AcDbLine
 62
7
  6
CONTINUOUS
 10
85.3615019234
 20
67.5825633705
 11
85.6285490885
 21
67.8496105357
  0
LINE
  5
448
100
AcDbEntity
  8
CURVE
100
AcDbLine
 62
7
  6
CONTINUOUS
 10
86.2642943802
 20
68.4853558273
 11
86.6341907853
 21
68.8552522325
  0
LINE
  5
449
100
AcDbEntity
  8
CURVE
100
AcDbLine
 62
7
  6
CONTINUOUS
 10
87.2371721823
 20
69.4582336294
 11
87.7589651823
 21
69.9800266294
  0
LINE
  5
44A
100
AcDbEntity
  8
CURVE
100
AcDbLine
 62
7
  6
CONTINUOUS
 10
85.3615019234
 20
67.3725526565
 11
85.9190592213
 21
67.9301099544
  0
LINE
  5
44B
100
AcDbEntity
  8
CURVE
100
AcDbLine
 62
7
  6
CONTINUOUS
 10
86.4276554546
 20
68.4387061878
 11
86.7930928837
 21
68.8041436169
  0
LINE
  5
44C
100
AcDbEntity
  8
CURVE
100
AcDbLine
 62
7
  6
CONTINUOUS
 10
87.4471828963
 20
69.4582336294
 11
87.8597151518
 21
69.8707658849
  0
LINE
  5
44D
100
AcDbEntity
  8
CURVE
100
AcDbLine
 62
7
  6
CONTINUOUS
 10
85.4292282679
 20
67.230268287
 11
86.2095693541
 21
68.0106093732
  0
LINE
  5
44E
100
AcDbEntity
  8
CURVE
100
AcDbLine
 62
7
  6
CONTINUOUS
 10
86.5910165291
 20
68.3920565482
 11
86.9519949822
 21
68.7530350013
  0
LINE
  5
44F
100
AcDbEntity
  8
CURVE
100
AcDbLine
 62
7
  6
CONTINUOUS
 10
87.6571936103
 20
69.4582336294
 11
87.8597151518
 21
69.6607551709
  0
LINE
  5
450
100
AcDbEntity
  8
CURVE
100
AcDbLine
 62
7
  6
CONTINUOUS
 10
85.7368068045
 20
67.3278361096
 11
86.5000794868
 21
68.0911087919
  0
LINE
  5
451
100
AcDbEntity
  8
CURVE
100
AcDbLine
 62
7
  6
CONTINUOUS
 10
86.7543776035
 20
68.3454069086
 11
87.1108970806
 21
68.7019263857
  0
LINE
  5
452
100
AcDbEntity
  8
CURVE
100
AcDbLine
 62
7
  6
CONTINUOUS
 10
86.044385341
 20
67.4254039321
 11
86.7905896196
 21
68.1716082107
  0
LINE
  5
453
100
AcDbEntity
  8
CURVE
100
AcDbLine
 62
7
  6
CONTINUOUS
 10
86.9177386779
 20
68.298757269
 11
87.269799179
 21
68.65081777
  0
LINE
  5
454
100
AcDbEntity
  8
CURVE
100
AcDbLine
 62
7
  6
CONTINUOUS
 10
86.3519638776
 20
67.5229717547
 11
87.4287012774
 21
68.5997091544
  0
LINE
  5
455
100
AcDbEntity
  8
CURVE
100
AcDbLine
 62
7
  6
CONTINUOUS
 10
86.6595424142
 20
67.6205395772
 11
87.5876033758
 21
68.5486005388
  0
LINE
  5
456
100
AcDbEntity
  8
CURVE
100
AcDbLine
 62
7
  6
CONTINUOUS
 10
86.9671209508
 20
67.7181073998
 11
87.7465054742
 21
68.4974919232
  0
LINE
  5
457
100
AcDbEntity
  8
CURVE
100
AcDbLine
 62
7
  6
CONTINUOUS
 10
87.2746994873
 20
67.8156752224
 11
87.8597151518
 21
68.4006908868
  0
LINE
  5
458
100
AcDbEntity
  8
CURVE
100
AcDbLine
 62
7
  6
CONTINUOUS
 10
87.5822780239
 20
67.9132430449
 11
87.8597151518
 21
68.1906801728
  0
LINE
  5
459
100
AcDbEntity
  8
0
100
AcDbLine
 62
250
  6
CONTINUOUS
 10
92.9916709114
 20
79.6749584588
 11
92.1885863013
 21
79.2458375159
  0
LINE
  5
45A
100
AcDbEntity
  8
0
100
AcDbLine
 62
250
  6
CONTINUOUS
 10
90.9174434956
 20
78.7879523855
 11
91.6593427008
 21
79.1817657115
  0
LINE
  5
45B
100
AcDbEntity
  8
0
100
AcDbLine
 62
7
  6
CONTINUOUS
 10
92.9916709119
 20
79.627267289
 11
91.0566828737
 21
78.6001411379
  0
LWPOLYLINE
  5
45C
100
AcDbEntity
  8
0
100
AcDbPolyline
 62
250
  6
CONTINUOUS
 90
12
 70
0
 10
92.1885863013
 20
79.2458375159
 10
92.1802955355
 20
79.2419079105
 10
92.1709315349
 20
79.2381499769
 10
92.1604942994
 20
79.2345633905
 10
92.1490113176
 20
79.2311534417
 10
92.1364551009
 20
79.2279142383
 10
92.1227431836
 20
79.2248287296
 10
92.1078245548
 20
79.2218653652
 10
92.0917502255
 20
79.2190552623
 10
92.0745907634
 20
79.2164753244
 10
92.0562742652
 20
79.2141119066
 10
92.0368726341
 20
79.2119781501
  0
LINE
  5
45D
100
AcDbEntity
  8
0
100
AcDbLine
 62
250
  6
CONTINUOUS
 10
92.2788673196
 20
79.2488984331
 11
92.2750612636
 21
79.246913003
  0
LWPOLYLINE
  5
45E
100
AcDbEntity
  8
CURVE
100
AcDbPolyline
 62
250
  6
CONTINUOUS
 90
8
 70
0
 10
87.1021752036
 20
76.1776564545
 10
87.1367470583
 20
76.1903393818
 10
87.1714969529
 20
76.2025053299
 10
87.2064052107
 20
76.2142105111
 10
87.2414521547
 20
76.2255111373
 10
87.2766181081
 20
76.2364634208
 10
87.3118833942
 20
76.2471235737
 10
87.3472283362
 20
76.2575478081
  0
LWPOLYLINE
  5
45F
100
AcDbEntity
  8
0
100
AcDbPolyline
 62
250
  6
CONTINUOUS
 90
9
 70
0
 10
92.2700983055
 20
79.2448166097
 10
92.2608992194
 20
79.2416494501
 10
92.2513166022
 20
79.2394129793
 10
92.2413989146
 20
79.2381185016
 10
92.2311963567
 20
79.2377725769
 10
92.2207605988
 20
79.2383769776
 10
92.2101444412
 20
79.2399286409
 10
92.1994015625
 20
79.242419693
 10
92.1885863013
 20
79.2458375159
  0
LINE
  5
460
100
AcDbEntity
  8
0
100
AcDbLine
 62
7
  6
CONTINUOUS
 10
91.0412990098
 20
130.9205944392
 11
92.9916709119
 21
131.1156316294
  0
LINE
  5
461
100
AcDbEntity
  8
0
100
AcDbLine
 62
7
  6
CONTINUOUS
 10
89.9916709119
 20
131.4714515039
 11
92.8021381032
 21
131.5956182971
  0
LINE
  5
462
100
AcDbEntity
  8
0
100
AcDbLine
 62
7
  6
CONTINUOUS
 10
89.9916709119
 20
130.7656316294
 11
90.1416709119
 21
130.7656316294
  0
LINE
  5
463
100
AcDbEntity
  8
0
100
AcDbLine
 62
7
  6
CONTINUOUS
 10
90.4416709119
 20
130.7656316294
 11
90.6416709119
 21
130.7656316294
  0
LINE
  5
464
100
AcDbEntity
  8
0
100
AcDbLine
 62
7
  6
CONTINUOUS
 10
89.9916709119
 20
130.9156316294
 11
90.9417952908
 21
130.9156316294
  0
LINE
  5
465
100
AcDbEntity
  8
0
100
AcDbLine
 62
250
  6
CONTINUOUS
 10
90.9174434956
 20
132.6433108733
 11
89.9916709119
 21
132.6437290678
  0
LINE
  5
466
100
AcDbEntity
  8
0
100
AcDbLine
 62
250
  6
CONTINUOUS
 10
89.9916709119
 20
132.2680152046
 11
91.8684592051
 21
132.2665519976
  0
LINE
  5
467
100
AcDbEntity
  8
0
100
AcDbLine
 62
7
  6
CONTINUOUS
 10
91.8686148918
 20
132.2865456972
 11
89.9916709119
 21
132.2879991046
  0
LINE
  5
468
100
AcDbEntity
  8
0
100
AcDbLine
 62
7
  6
CONTINUOUS
 10
90.9175080629
 20
132.8657610681
 11
89.9916709119
 21
132.8673769604
  0
LWPOLYLINE
  5
469
100
AcDbEntity
  8
0
100
AcDbPolyline
 62
250
  6
CONTINUOUS
 90
3
 70
0
 10
91.8684592051
 20
132.2665519976
 10
91.88627446
 20
132.2663348864
 10
91.9035539298
 20
132.2658701904
  0
LWPOLYLINE
  5
46A
100
AcDbEntity
  8
0
100
AcDbPolyline
 62
250
  6
CONTINUOUS
 90
5
 70
0
 10
91.9035539298
 20
132.2658701904
 10
91.9202976144
 20
132.2651578543
 10
91.9365868353
 20
132.264169646
 10
91.9523402711
 20
132.2629335872
 10
91.9673139574
 20
132.2615340078
  0
LWPOLYLINE
  5
46B
100
AcDbEntity
  8
0
100
AcDbPolyline
 62
250
  6
CONTINUOUS
 90
13
 70
0
 10
91.9673139574
 20
132.2615340078
 10
91.9813890969
 20
132.2599869734
 10
91.9946844869
 20
132.2582761949
 10
92.0073125543
 20
132.2564375303
 10
92.0192082227
 20
132.2545058041
 10
92.0304365685
 20
132.2524459824
 10
92.041305248
 20
132.2501890862
 10
92.051984259
 20
132.2477310345
 10
92.0623036036
 20
132.2450754621
 10
92.0720609447
 20
132.2421647948
 10
92.0811888364
 20
132.2389795619
 10
92.0897547245
 20
132.2355384765
 10
92.0977586091
 20
132.2318411217
  0
LWPOLYLINE
  5
46C
100
AcDbEntity
  8
0
100
AcDbPolyline
 62
250
  6
CONTINUOUS
 90
10
 70
0
 10
92.1915301097
 20
132.2287249739
 10
92.1823991596
 20
132.2329751155
 10
92.1728220916
 20
132.2362717507
 10
92.1628493845
 20
132.2385975044
 10
92.1525336021
 20
132.2399401187
 10
92.1419291166
 20
132.2402925175
 10
92.1310918214
 20
132.2396528441
 10
92.1200788372
 20
132.2380244705
 10
92.1089482109
 20
132.2354159799
 10
92.0977586091
 20
132.2318411217
  0
LWPOLYLINE
  5
46D
100
AcDbEntity
  8
0
100
AcDbPolyline
 62
7
  6
CONTINUOUS
 90
15
 70
0
 10
92.1914148225
 20
132.2287858222
 10
92.1838073074
 20
132.2326810078
 10
92.1628957811
 20
132.2420847948
 10
92.1408495832
 20
132.2502563748
 10
92.118427319
 20
132.2571668996
 10
92.0956895852
 20
132.2630397048
 10
92.0721600497
 20
132.2681402559
 10
92.0478535335
 20
132.2725571606
 10
92.0226933229
 20
132.2763565883
 10
91.9966330037
 20
132.279572047
 10
91.969950243
 20
132.2821863232
 10
91.9427077053
 20
132.2842022286
 10
91.9148311635
 20
132.2856170796
 10
91.8864684226
 20
132.2863977924
 10
91.8686149524
 20
132.2865456941
  0
LINE
  5
46E
100
AcDbEntity
  8
0
100
AcDbLine
 62
250
  6
CONTINUOUS
 10
91.5891405369
 20
132.2867621076
 11
90.9174434956
 21
132.6433108733
  0
LINE
  5
46F
100
AcDbEntity
  8
0
100
AcDbLine
 62
7
  6
CONTINUOUS
 10
91.0566828737
 20
132.831122121
 11
92.9916709119
 21
131.8039959698
  0
LINE
  5
470
100
AcDbEntity
  8
0
100
AcDbLine
 62
250
  6
CONTINUOUS
 10
92.0977586091
 20
132.2318411217
 11
92.9916709119
 21
131.7540975939
  0
LINE
  5
471
100
AcDbEntity
  8
0
100
AcDbLine
 62
7
  6
CONTINUOUS
 10
83.8410617389
 20
61.910071975
 11
83.8261233697
 21
61.8956461595
  0
LINE
  5
472
100
AcDbEntity
  8
ASSI
100
AcDbLine
 62
7
  6
CONTINUOUS
 10
83.8410617389
 20
61.910071975
 11
83.8261233697
 21
61.8956461595
  0
LINE
  5
473
100
AcDbEntity
  8
CURVE
100
AcDbLine
 62
250
  6
CONTINUOUS
 10
85.3615019234
 20
74.1668716294
 11
87.8597151518
 21
74.9338526294
  0
LINE
  5
474
100
AcDbEntity
  8
CURVE
100
AcDbLine
 62
250
  6
CONTINUOUS
 10
87.3472283362
 20
76.2575478081
 11
87.4180784801
 21
76.27791337
  0
LINE
  5
475
100
AcDbEntity
  8
0
100
AcDbLine
 62
7
  6
CONTINUOUS
 10
83.8261233697
 20
149.5356170993
 11
83.8410617389
 21
149.5211912838
  0
LINE
  5
476
100
AcDbEntity
  8
ASSI
100
AcDbLine
 62
7
  6
CONTINUOUS
 10
83.8261233697
 20
149.5356170993
 11
83.8410617389
 21
149.5211912838
  0
LINE
  5
477
100
AcDbEntity
  8
CURVE
100
AcDbLine
 62
250
  6
CONTINUOUS
 10
87.8597151518
 20
71.4848386294
 11
86.2284294926
 21
70.8727126294
  0
LINE
  5
478
100
AcDbEntity
  8
CURVE
100
AcDbLine
 62
250
  6
CONTINUOUS
 10
85.3615019234
 20
71.0079966294
 11
86.748517476
 21
71.5242786294
  0
LINE
  5
479
100
AcDbEntity
  8
CURVE
100
AcDbLine
 62
250
  6
CONTINUOUS
 10
87.8597151518
 20
68.0012496294
 11
85.3615019234
 21
67.2087846294
  0
LINE
  5
47A
100
AcDbEntity
  8
0
100
AcDbLine
 62
250
  6
CONTINUOUS
 10
89.3916709119
 20
146.8775730618
 11
89.9916709119
 21
146.919529149
  0
LINE
  5
47B
100
AcDbEntity
  8
0
100
AcDbLine
 62
7
  6
CONTINUOUS
 10
89.3916709119
 20
148.4736755422
 11
89.9916709119
 21
148.5156316294
  0
LINE
  5
47C
100
AcDbEntity
  8
0
100
AcDbLine
 62
7
  6
CONTINUOUS
 10
83.8410617389
 20
149.5211912838
 11
89.3916709119
 21
149.7150228273
  0
LINE
  5
47D
100
AcDbEntity
  8
ASSI
100
AcDbLine
 62
7
  6
CONTINUOUS
 10
83.8410617389
 20
149.5211912838
 11
89.3916709119
 21
149.7150228273
  0
LINE
  5
47E
100
AcDbEntity
  8
0
100
AcDbLine
 62
7
  6
CONTINUOUS
 10
83.8410617389
 20
150.5218000859
 11
89.3916709119
 21
150.7156316294
  0
LINE
  5
47F
100
AcDbEntity
  8
ASSI
100
AcDbLine
 62
7
  6
CONTINUOUS
 10
83.8410617389
 20
150.5218000859
 11
89.3916709119
 21
150.7156316294
  0
LWPOLYLINE
  5
480
100
AcDbEntity
  8
0
100
AcDbPolyline
 62
7
  6
CONTINUOUS
 90
8
 70
0
 43
0.3500000006
 10
76.8427044983
 20
160.2660913696
 10
77.6998424377
 20
160.2660913696
 10
78.1284204712
 20
160.6946603394
 10
78.1284204712
 20
161.5517982788
 10
77.6998424377
 20
161.9803672485
 10
76.8427044983
 20
161.9803672485
 10
76.8427044983
 20
163.2660922852
 10
78.1284204712
 20
163.2660922852
  0
LWPOLYLINE
  5
481
100
AcDbEntity
  8
0
100
AcDbPolyline
 62
7
  6
CONTINUOUS
 90
8
 70
0
 43
0.3500000006
 10
78.2983108521
 20
167.4413133545
 10
79.1554578552
 20
167.4413133545
 10
79.584026825
 20
167.8698823242
 10
79.584026825
 20
168.7270202637
 10
79.1554578552
 20
169.1555892334
 10
78.2983108521
 20
169.1555892334
 10
78.2983108521
 20
170.44131427
 10
79.584026825
 20
170.44131427
  0
CIRCLE
  5
482
100
AcDbEntity
  8
0
100
AcDbCircle
 62
7
  6
CONTINUOUS
 10
169.3051853429
 20
105.7156316294
 40
4.85
  0
CIRCLE
  5
483
100
AcDbEntity
  8
0
100
AcDbCircle
 62
7
  6
CONTINUOUS
 10
191.8051853429
 20
105.7156316294
 40
4.85
  0
CIRCLE
  5
484
100
AcDbEntity
  8
ASSI
100
AcDbCircle
 62
7
  6
CONTINUOUS
 10
169.3051853429
 20
105.7156316294
 40
4.85
  0
CIRCLE
  5
485
100
AcDbEntity
  8
ASSI
100
AcDbCircle
 62
7
  6
CONTINUOUS
 10
191.8051853429
 20
105.7156316294
 40
4.85
  0
CIRCLE
  5
486
100
AcDbEntity
  8
0
100
AcDbCircle
 62
7
  6
CONTINUOUS
 10
191.8051853429
 20
105.7156316294
 40
4.35
  0
CIRCLE
  5
487
100
AcDbEntity
  8
0
100
AcDbCircle
 62
7
  6
CONTINUOUS
 10
169.3051853429
 20
105.7156316294
 40
4.35
  0
CIRCLE
  5
488
100
AcDbEntity
  8
ASSI
100
AcDbCircle
 62
7
  6
CONTINUOUS
 10
191.8051853429
 20
105.7156316294
 40
4.35
  0
CIRCLE
  5
489
100
AcDbEntity
  8
ASSI
100
AcDbCircle
 62
7
  6
CONTINUOUS
 10
169.3051853429
 20
105.7156316294
 40
4.35
  0
ARC
  5
48A
100
AcDbEntity
  8
0
100
AcDbCircle
 62
7
  6
CONTINUOUS
 10
90.9417952908
 20
131.9156316294
 40
1.0
100
AcDbArc
 50
270.0
 51
275.7105931375
  0
ARC
  5
48B
100
AcDbEntity
  8
0
100
AcDbCircle
 62
7
  6
CONTINUOUS
 10
90.9417952908
 20
79.5156316294
 40
1.0
100
AcDbArc
 50
84.2894068625
 51
90.0
  0
ARC
  5
48C
100
AcDbEntity
  8
0
100
AcDbCircle
 62
7
  6
CONTINUOUS
 10
90.9169842368
 20
78.8656321334
 40
0.3
100
AcDbArc
 50
270.1000001427
 51
297.9489629825
  0
ARC
  5
48D
100
AcDbEntity
  8
0
100
AcDbCircle
 62
7
  6
CONTINUOUS
 10
90.9169842368
 20
132.5656311254
 40
0.3
100
AcDbArc
 50
62.0510370175
 51
89.8999998573
  0
ELLIPSE
  5
48E
100
AcDbEntity
  8
0
100
AcDbEllipse
 62
7
  6
CONTINUOUS
 10
4958.7219942008
 20
105.7156316294
 30
0.0
 11
5070.6192780382
 21
-20.8600030618
 31
0.0
 40
0.0041137573
 41
2.856472503
 42
2.8584753448
  0
ELLIPSE
  5
48F
100
AcDbEntity
  8
0
100
AcDbEllipse
 62
7
  6
CONTINUOUS
 10
186.1404629769
 20
105.7156316294
 30
0.0
 11
530.7034459343
 21
0.0
 31
0.0
 40
0.0494155445
 41
-1.7510554651
 42
-1.7475925186
  0
ELLIPSE
  5
490
100
AcDbEntity
  8
0
100
AcDbEllipse
 62
7
  6
CONTINUOUS
 10
92.7916709119
 20
131.7954303244
 30
0.0
 11
-0.1417119467
 21
0.1422961243
 31
0.0
 40
0.9918061237
 41
-3.8766878413
 42
-3.6922883272
  0
ENDSEC
  0
SECTION
  2
OBJECTS
  0
DICTIONARY
  5
C
100
AcDbDictionary
280
0
281
1
  3
ACAD_GROUP
350
D
  3
ACAD_MLINESTYLE
350
17
  3
ACAD_LAYOUT
350
1A
  3
ACAD_PLOTSETTINGS
350
19
  3
ACAD_PLOTSTYLENAME
350
E
  0
DICTIONARY
  5
D
102
{ACAD_REACTORS
330
C
102
}
100
AcDbDictionary
280
0
281
1
  0
ACDBDICTIONARYWDFLT
  5
E
102
{ACAD_REACTORS
330
C
102
}
100
AcDbDictionary
281
1
  3
Normal
350
F
100
AcDbDictionaryWithDefault
340
F
  0
DICTIONARY
  5
17
102
{ACAD_REACTORS
330
C
102
}
100
AcDbDictionary
280
0
281
1
  3
Standard
350
18
  0
DICTIONARY
  5
19
102
{ACAD_REACTORS
330
C
102
}
100
AcDbDictionary
281
1
  0
DICTIONARY
  5
1A
102
{ACAD_REACTORS
330
C
102
}
100
AcDbDictionary
281
1
  3
Model
350
491
  3
Layout1
350
492
  0
ACDBPLACEHOLDER
  5
F
102
{ACAD_REACTORS
330
E
102
}
  0
MLINESTYLE
  5
18
102
{ACAD_REACTORS
330
17
102
}
100
AcDbMlineStyle
  2
STANDARD
 70
0
  3

 62
256
 51
90.0
 52
90.0
 71
2
 49
0.5
 62
256
  6
BYLAYER
 49
-0.5
 62
256
  6
BYLAYER
  0
LAYOUT
  5
491
102
{ACAD_REACTORS
330
1A
102
}
100
AcDbPlotSettings
  1

  2
none_device
  4
ISO_A4_(297.00_x_210.00_MM)
  6

 40
0.0
 41
0.0
 42
0.0
 43
0.0
 44
297.0
 45
210.0
 46
0.0
 47
0.0
 48
0.0
 49
0.0
140
0.0
141
0.0
142
1.0
143
1.0
 70
1024
 72
1
 73
0
 74
0
  7

 75
0
147
1.0
148
0.0
149
0.0
100
AcDbLayout
  1
Model
 70
0
 71
0
 10
0.0
 20
0.0
 11
297.0
 21
210.0
 12
0.0
 22
0.0
 32
0.0
 14
0.0
 24
0.0
 34
0.0
 15
0.0
 25
0.0
 35
0.0
146
0.0
 13
0.0
 23
0.0
 33
0.0
 16
1.0
 26
0.0
 36
0.0
 17
0.0
 27
1.0
 37
0.0
 76
0
330
21E
345
0
346
0
  0
LAYOUT
  5
492
102
{ACAD_REACTORS
330
1A
102
}
100
AcDbPlotSettings
  1

  2
none_device
  4
ISO_A4_(297.00_x_210.00_MM)
  6

 40
0.0
 41
0.0
 42
0.0
 43
0.0
 44
297.0
 45
210.0
 46
0.0
 47
0.0
 48
0.0
 49
0.0
140
0.0
141
0.0
142
1.0
143
1.0
 70
0
 72
1
 73
0
 74
0
  7

 75
0
147
1.0
148
0.0
149
0.0
100
AcDbLayout
  1
Layout1
 70
0
 71
1
 10
0.0
 20
0.0
 11
297.0
 21
210.0
 12
0.0
 22
0.0
 32
0.0
 14
0.0
 24
0.0
 34
0.0
 15
0.0
 25
0.0
 35
0.0
146
0.0
 13
0.0
 23
0.0
 33
0.0
 16
1.0
 26
0.0
 36
0.0
 17
0.0
 27
1.0
 37
0.0
 76
0
330
21F
345
0
346
0
  0
ENDSEC
  0
EOF
