  0
SECTION
  2
HEADER
  9
$ACADVER
  1
AC1024
  9
$DWGCODEPAGE
  3
ANSI_1252
  9
$EXTMAX
 10
297.0
 20
210.0
 30
0.0
  9
$EXTMIN
 10
0.0
 20
0.0
 30
0.0
  9
$LIMMIN
 10
0.0
 20
0.0
  9
$LIMMAX
 10
297.0
 20
210.0
  9
$VIEWCTR
 10
148.5
 20
105.0
  9
$VIEWSIZE
 40
210.0
  9
$CLAYER
  8
0
  9
$LTSCALE
 40
16.335
  9
$CELTYPE
  6
BYLAYER
  9
$DIMSCALE
 40
1.0
  9
$DIMASZ
 40
3.0
  9
$DIMEXO
 40
0.5
  9
$DIMDLI
 40
11.286
  9
$DIMEXE
 40
1.5
  9
$DIMCEN
 40
2.673
  9
$DIMLFAC
 40
1.0
  9
$DIMBLK
  1
_FILLED
  9
$DIMALT
 70
0
  9
$DIMALTF
 40
0.0393700787
  9
$DIMTXT
 40
3.0
  9
$DIMTOL
 70
1
  9
$DIMLIM
 70
0
  9
$DIMTFAC
 40
1.0
  9
$DIMTP
 40
0.01
  9
$DIMTM
 40
0.01
  9
$DIMGAP
 40
0.625
  9
$DIMDSEP
 70
44
  9
$AUNITS
 70
0
  9
$PDMODE
 70
3
  9
$PDSIZE
 40
3.0
  9
$HANDSEED
  5
46E
  9
$TILEMODE
 70
1
  9
$MEASUREMENT
 70
1
  9
$INSUNITS
 70
4
  0
ENDSEC
  0
SECTION
  2
CLASSES
  0
CLASS
  1
ACDBDICTIONARYWDFLT
  2
AcDbDictionaryWithDefault
  3
AutoCAD 2000
 90
0
 91
1
280
0
281
0
  0
CLASS
  1
ACDBPLACEHOLDER
  2
AcDbPlaceHolder
  3
AutoCAD 2000
 90
0
 91
1
280
0
281
0
  0
CLASS
  1
LAYOUT
  2
AcDbLayout
  3
AutoCAD 2000
 90
0
 91
0
280
0
281
0
  0
ENDSEC
  0
SECTION
  2
TABLES
  0
TABLE
  2
VPORT
  5
8
100
AcDbSymbolTable
 70
2
  0
VPORT
  5
1F4
100
AcDbSymbolTableRecord
100
AcDbViewportTableRecord
  2
*ACTIVE
 70
0
 10
0.0
 20
0.0
 11
1.0
 21
1.0
 12
148.5
 22
105.0
 13
0.0
 23
0.0
 14
1.0
 24
1.0
 15
0.0
 25
0.0
 16
0.0
 26
0.0
 36
1.0
 17
0.0
 27
0.0
 37
0.0
 40
210.0
 41
1.4142857143
 42
50.0
 43
0.0
 44
0.0
 50
0.0
 51
0.0
 71
0
 72
100
 73
1
 74
1
 75
0
 76
0
 77
0
 78
0
  0
ENDTAB
  0
TABLE
  2
LTYPE
  5
5
100
AcDbSymbolTable
 70
6
  0
LTYPE
  5
14
100
AcDbSymbolTableRecord
100
AcDbLinetypeTableRecord
  2
BYBLOCK
 70
0
  3

 72
65
 73
0
 40
0.0
  0
LTYPE
  5
15
100
AcDbSymbolTableRecord
100
AcDbLinetypeTableRecord
  2
BYLAYER
 70
0
  3

 72
65
 73
0
 40
0.0
  0
LTYPE
  5
16
100
AcDbSymbolTableRecord
100
AcDbLinetypeTableRecord
  2
CONTINUOUS
 70
64
  3
Solid line
 72
65
 73
0
 40
0.0
  0
LTYPE
  5
1F5
100
AcDbSymbolTableRecord
100
AcDbLinetypeTableRecord
  2
CENTER
 70
64
  3
____ _ ____ _ ____ _ ____ _ ____ _ ____ _ ____
 72
65
 73
4
 40
0.6
 49
0.375
 74
0
 49
-0.075
 74
0
 49
0.075
 74
0
 49
-0.075
 74
0
  0
LTYPE
  5
1F6
100
AcDbSymbolTableRecord
100
AcDbLinetypeTableRecord
  2
HIDDEN
 70
64
  3
- - - - - - - - - - - - - - - - - - - -
 72
65
 73
2
 40
0.2
 49
0.1
 74
0
 49
-0.1
 74
0
  0
LTYPE
  5
1F7
100
AcDbSymbolTableRecord
100
AcDbLinetypeTableRecord
  2
PHANTOM
 70
64
  3
_____ _ _ _____ _ _ _____ _ _ _____
 72
65
 73
6
 40
0.8
 49
0.45
 74
0
 49
-0.05
 74
0
 49
0.1
 74
0
 49
-0.05
 74
0
 49
0.1
 74
0
 49
-0.05
 74
0
  0
LTYPE
  5
1F8
100
AcDbSymbolTableRecord
100
AcDbLinetypeTableRecord
  2
DOT
 70
64
  3
. . . . . . . . . . . . . . . . . . . .
 72
65
 73
2
 40
0.2
 49
0.1
 74
0
 49
-0.1
 74
0
  0
LTYPE
  5
1F9
100
AcDbSymbolTableRecord
100
AcDbLinetypeTableRecord
  2
DASHED
 70
64
  3
- - - - - - - - - - - - - - - - - - - -
 72
65
 73
2
 40
0.2
 49
0.1
 74
0
 49
-0.1
 74
0
  0
ENDTAB
  0
TABLE
  2
LAYER
  5
2
100
AcDbSymbolTable
 70
36
  0
LAYER
  5
10
100
AcDbSymbolTableRecord
100
AcDbLayerTableRecord
  2
0
 70
0
 62
7
  6
CONTINUOUS
370
-3
390
F
  0
LAYER
  5
1FA
100
AcDbSymbolTableRecord
100
AcDbLayerTableRecord
  2
DEFAULT_1
 70
0
 62
7
  6
CENTER
370
-3
390
F
  0
LAYER
  5
1FB
100
AcDbSymbolTableRecord
100
AcDbLayerTableRecord
  2
DEFAULT_2
 70
0
 62
7
  6
HIDDEN
370
-3
390
F
  0
LAYER
  5
1FC
100
AcDbSymbolTableRecord
100
AcDbLayerTableRecord
  2
DEFAULT_3
 70
0
 62
7
  6
PHANTOM
370
-3
390
F
  0
LAYER
  5
1FD
100
AcDbSymbolTableRecord
100
AcDbLayerTableRecord
  2
ASSI
 70
0
 62
7
  6
CONTINUOUS
370
-3
390
F
  0
LAYER
  5
1FE
100
AcDbSymbolTableRecord
100
AcDbLayerTableRecord
  2
COORDINATE
 70
0
 62
7
  6
CONTINUOUS
370
-3
390
F
  0
LAYER
  5
1FF
100
AcDbSymbolTableRecord
100
AcDbLayerTableRecord
  2
COORD_ORIGINE
 70
0
 62
7
  6
CONTINUOUS
370
-3
390
F
  0
LAYER
  5
200
100
AcDbSymbolTableRecord
100
AcDbLayerTableRecord
  2
COPY_PUBLISH
 70
0
 62
7
  6
CONTINUOUS
370
-3
390
F
  0
LAYER
  5
201
100
AcDbSymbolTableRecord
100
AcDbLayerTableRecord
  2
COSMETIC
 70
0
 62
7
  6
CONTINUOUS
370
-3
390
F
  0
LAYER
  5
202
100
AcDbSymbolTableRecord
100
AcDbLayerTableRecord
  2
COSMETICI
 70
0
 62
7
  6
CONTINUOUS
370
-3
390
F
  0
LAYER
  5
203
100
AcDbSymbolTableRecord
100
AcDbLayerTableRecord
  2
CURVE
 70
0
 62
7
  6
CONTINUOUS
370
-3
390
F
  0
LAYER
  5
204
100
AcDbSymbolTableRecord
100
AcDbLayerTableRecord
  2
CURVE_TASSELLI
 70
0
 62
7
  6
CONTINUOUS
370
-3
390
F
  0
LAYER
  5
205
100
AcDbSymbolTableRecord
100
AcDbLayerTableRecord
  2
DRAFT
 70
0
 62
7
  6
CONTINUOUS
370
-3
390
F
  0
LAYER
  5
206
100
AcDbSymbolTableRecord
100
AcDbLayerTableRecord
  2
IMPORT_IGES
 70
0
 62
7
  6
CONTINUOUS
370
-3
390
F
  0
LAYER
  5
207
100
AcDbSymbolTableRecord
100
AcDbLayerTableRecord
  2
INTFCLR_2
 70
0
 62
7
  6
CONTINUOUS
370
-3
390
F
  0
LAYER
  5
208
100
AcDbSymbolTableRecord
100
AcDbLayerTableRecord
  2
INTF_1
 70
0
 62
7
  6
CONTINUOUS
370
-3
390
F
  0
LAYER
  5
209
100
AcDbSymbolTableRecord
100
AcDbLayerTableRecord
  2
INTF_21
 70
0
 62
7
  6
CONTINUOUS
370
-3
390
F
  0
LAYER
  5
20A
100
AcDbSymbolTableRecord
100
AcDbLayerTableRecord
  2
INTF_6
 70
0
 62
7
  6
CONTINUOUS
370
-3
390
F
  0
LAYER
  5
20B
100
AcDbSymbolTableRecord
100
AcDbLayerTableRecord
  2
INTF_7
 70
0
 62
7
  6
CONTINUOUS
370
-3
390
F
  0
LAYER
  5
20C
100
AcDbSymbolTableRecord
100
AcDbLayerTableRecord
  2
INTF_CYAN
 70
0
 62
7
  6
CONTINUOUS
370
-3
390
F
  0
LAYER
  5
20D
100
AcDbSymbolTableRecord
100
AcDbLayerTableRecord
  2
LIVELLO_1
 70
0
 62
7
  6
CONTINUOUS
370
-3
390
F
  0
LAYER
  5
20E
100
AcDbSymbolTableRecord
100
AcDbLayerTableRecord
  2
NOTE
 70
0
 62
7
  6
CONTINUOUS
370
-3
390
F
  0
LAYER
  5
20F
100
AcDbSymbolTableRecord
100
AcDbLayerTableRecord
  2
PIANI
 70
0
 62
7
  6
CONTINUOUS
370
-3
390
F
  0
LAYER
  5
210
100
AcDbSymbolTableRecord
100
AcDbLayerTableRecord
  2
PIANI_ORIGINE
 70
0
 62
7
  6
CONTINUOUS
370
-3
390
F
  0
LAYER
  5
211
100
AcDbSymbolTableRecord
100
AcDbLayerTableRecord
  2
PIANI_RIFERIMENTO
 70
0
 62
7
  6
CONTINUOUS
370
-3
390
F
  0
LAYER
  5
212
100
AcDbSymbolTableRecord
100
AcDbLayerTableRecord
  2
PUNTI
 70
0
 62
7
  6
CONTINUOUS
370
-3
390
F
  0
LAYER
  5
213
100
AcDbSymbolTableRecord
100
AcDbLayerTableRecord
  2
RACCORDO
 70
0
 62
7
  6
CONTINUOUS
370
-3
390
F
  0
LAYER
  5
214
100
AcDbSymbolTableRecord
100
AcDbLayerTableRecord
  2
RGB__255__255__255__
 70
0
 62
7
  6
CONTINUOUS
370
-3
390
F
  0
LAYER
  5
215
100
AcDbSymbolTableRecord
100
AcDbLayerTableRecord
  2
RGB____0____0____0__
 70
0
 62
7
  6
CONTINUOUS
370
-3
390
F
  0
LAYER
  5
216
100
AcDbSymbolTableRecord
100
AcDbLayerTableRecord
  2
SIMBOLI
 70
0
 62
7
  6
CONTINUOUS
370
-3
390
F
  0
LAYER
  5
217
100
AcDbSymbolTableRecord
100
AcDbLayerTableRecord
  2
SMUSSO
 70
0
 62
7
  6
CONTINUOUS
370
-3
390
F
  0
LAYER
  5
218
100
AcDbSymbolTableRecord
100
AcDbLayerTableRecord
  2
SUPERFICI
 70
0
 62
7
  6
CONTINUOUS
370
-3
390
F
  0
LAYER
  5
219
100
AcDbSymbolTableRecord
100
AcDbLayerTableRecord
  2
TRASH
 70
0
 62
7
  6
CONTINUOUS
370
-3
390
F
  0
LAYER
  5
21A
100
AcDbSymbolTableRecord
100
AcDbLayerTableRecord
  2
WHITE
 70
0
 62
7
  6
CONTINUOUS
370
-3
390
F
  0
LAYER
  5
21B
100
AcDbSymbolTableRecord
100
AcDbLayerTableRecord
  2
XSEC_DATUMS
 70
0
 62
7
  6
CONTINUOUS
370
-3
390
F
  0
ENDTAB
  0
TABLE
  2
STYLE
  5
3
100
AcDbSymbolTable
 70
1
  0
STYLE
  5
11
100
AcDbSymbolTableRecord
100
AcDbTextStyleTableRecord
  2
STANDARD
 70
0
 40
0.0
 41
0.8
 50
0.0
 71
0
 42
0.2
  3
txt
  4

  0
STYLE
  5
21C
100
AcDbSymbolTableRecord
100
AcDbTextStyleTableRecord
  2
TEXTSTYLE_1
 70
0
 40
0.0
 41
0.8
 50
0.0
 71
0
 42
0.2
  3
gdt
  4

  0
ENDTAB
  0
TABLE
  2
VIEW
  5
6
100
AcDbSymbolTable
 70
0
  0
ENDTAB
  0
TABLE
  2
UCS
  5
7
100
AcDbSymbolTable
 70
0
  0
ENDTAB
  0
TABLE
  2
APPID
  5
9
100
AcDbSymbolTable
 70
1
  0
APPID
  5
21D
100
AcDbSymbolTableRecord
100
AcDbRegAppTableRecord
  2
ACAD
 70
0
  0
ENDTAB
  0
TABLE
  2
BLOCK_RECORD
  5
1
100
AcDbSymbolTable
 70
0
  0
BLOCK_RECORD
  5
21E
100
AcDbSymbolTableRecord
100
AcDbBlockTableRecord
  2
*Model_Space
  0
BLOCK_RECORD
  5
21F
100
AcDbSymbolTableRecord
100
AcDbBlockTableRecord
  2
*Paper_Space
  0
BLOCK_RECORD
  5
220
100
AcDbSymbolTableRecord
100
AcDbBlockTableRecord
  2
_FILLED
  0
BLOCK_RECORD
  5
221
100
AcDbSymbolTableRecord
100
AcDbBlockTableRecord
  2
*D0
  0
BLOCK_RECORD
  5
222
100
AcDbSymbolTableRecord
100
AcDbBlockTableRecord
  2
*D1
  0
BLOCK_RECORD
  5
223
100
AcDbSymbolTableRecord
100
AcDbBlockTableRecord
  2
*D2
  0
BLOCK_RECORD
  5
224
100
AcDbSymbolTableRecord
100
AcDbBlockTableRecord
  2
*D3
  0
ENDTAB
  0
TABLE
  2
DIMSTYLE
  5
A
100
AcDbSymbolTable
 70
1
100
AcDbDimStyleTable
 71
0
  0
DIMSTYLE
105
225
100
AcDbSymbolTableRecord
100
AcDbDimStyleTableRecord
  2
STANDARD
 70
0
  3

  4

 40
1.0
 41
3.0
 42
0.5
 43
0.38
 44
1.5
 45
0.0
 46
0.0
 47
0.01
 48
0.01
140
3.0
141
0.09
142
0.0
143
25.4
144
1.0
145
0.0
146
1.0
147
0.625
 71
1
 72
0
 73
0
 74
0
 75
0
 76
0
 77
1
 78
8
 79
2
170
0
171
1
172
0
173
0
174
0
175
0
176
0
177
0
178
0
270
2
179
2
271
2
272
2
273
2
274
2
275
0
280
0
281
0
282
0
283
1
284
8
285
0
286
0
287
3
288
0
340
11
278
44
341
220
342
220
343
220
344
220
  0
DIMSTYLE
105
226
100
AcDbSymbolTableRecord
100
AcDbDimStyleTableRecord
  2
DIMSTYLE_1
 70
0
  3

  4

 40
1.0
 41
3.0
 42
0.5
 43
0.38
 44
1.5
 45
0.0
 46
0.0
 47
0.0
 48
0.0
140
3.0
141
0.09
142
0.0
143
25.4
144
1.0
145
0.0
146
1.0
147
0.75
 71
0
 72
0
 73
0
 74
0
 75
0
 76
0
 77
1
 78
8
 79
2
170
0
171
1
172
0
173
0
174
0
175
0
176
0
177
0
178
0
270
2
179
2
271
2
272
2
273
2
274
2
275
0
280
0
281
0
282
0
283
1
284
8
285
0
286
0
287
3
288
0
340
11
278
44
341
220
342
220
343
220
344
220
  0
ENDTAB
  0
ENDSEC
  0
SECTION
  2
BLOCKS
  0
BLOCK
  5
20
100
AcDbEntity
  8
0
100
AcDbBlockBegin
  2
*Model_Space
 70
0
 10
0.0
 20
0.0
 30
0.0
  3
*Model_Space
  1

  0
ENDBLK
  5
21
100
AcDbEntity
  8
0
100
AcDbBlockEnd
  0
BLOCK
  5
1C
100
AcDbEntity
  8
0
100
AcDbBlockBegin
  2
*Paper_Space
 70
0
 10
0.0
 20
0.0
 30
0.0
  3
*Paper_Space
  1

  0
ENDBLK
  5
1D
100
AcDbEntity
  8
0
100
AcDbBlockEnd
  0
BLOCK
  5
227
100
AcDbEntity
  8
0
100
AcDbBlockBegin
  2
_FILLED
 70
64
 10
0.0
 20
0.0
  3
_FILLED
  1

  0
SOLID
  5
228
100
AcDbEntity
  8
0
  6
BYBLOCK
 62
0
100
AcDbTrace
 10
0.0
 20
0.0
 11
-1.0
 21
0.3166666667
 12
-1.0
 22
-0.3166666667
 13
-1.0
 23
-0.3166666667
  0
ENDBLK
  5
229
100
AcDbEntity
  8
0
  6
BYBLOCK
 62
0
100
AcDbBlockEnd
  0
BLOCK
  5
22A
100
AcDbEntity
  8
0
100
AcDbBlockBegin
 62
7
  6
CONTINUOUS
  2
*D0
 70
65
 10
0.0
 20
0.0
  3
*D0
  1

  0
MTEXT
  5
22B
100
AcDbEntity
  8
0
100
AcDbMText
 62
7
  6
CONTINUOUS
  7
STANDARD
 71
2
 72
1
 10
0.0
 20
59.3400786742
 30
0.0
 11
1.0
 21
0.0
 31
0.0
 73
2
 44
0.9
  1
{\ftxt;\W0.0001;\H0.0001;\~}{\ftxt;\W1.5714285714;\H3.0; }{\ftxt;\W0.0001;\H0.0001;\~}
 40
3.0
 41
7.0714285714
  0
LINE
  5
22C
100
AcDbEntity
  8
0
100
AcDbLine
 62
7
  6
CONTINUOUS
 10
45.0
 20
44.4993911979
 11
45.0
 21
57.0900786742
  0
LINE
  5
22D
100
AcDbEntity
  8
0
100
AcDbLine
 62
7
  6
CONTINUOUS
 10
-45.0
 20
44.4993911979
 11
-45.0
 21
57.0900786742
  0
LINE
  5
22E
100
AcDbEntity
  8
0
100
AcDbLine
 62
7
  6
CONTINUOUS
 10
45.0
 20
55.5900786742
 11
0.0
 21
55.5900786742
  0
LINE
  5
22F
100
AcDbEntity
  8
0
100
AcDbLine
 62
7
  6
CONTINUOUS
 10
-45.0
 20
55.5900786742
 11
0.0
 21
55.5900786742
  0
INSERT
  5
230
100
AcDbEntity
  8
0
100
AcDbBlockReference
 62
7
  6
CONTINUOUS
  2
_FILLED
 10
45.0
 20
55.5900786742
 41
3.0
 42
3.0
 43
3.0
  0
INSERT
  5
231
100
AcDbEntity
  8
0
100
AcDbBlockReference
 62
7
  6
CONTINUOUS
  2
_FILLED
 10
-45.0
 20
55.5900786742
 41
3.0
 42
3.0
 43
3.0
 50
180.0
  0
ENDBLK
  5
232
100
AcDbEntity
  8
0
  6
BYBLOCK
 62
0
100
AcDbBlockEnd
  0
BLOCK
  5
233
100
AcDbEntity
  8
0
100
AcDbBlockBegin
 62
7
  6
CONTINUOUS
  2
*D1
 70
65
 10
0.0
 20
0.0
  3
*D1
  1

  0
MTEXT
  5
234
100
AcDbEntity
  8
0
100
AcDbMText
 62
7
  6
CONTINUOUS
  7
STANDARD
 71
2
 72
1
 10
55.0801300506
 20
0.0
 30
0.0
 11
0.0
 21
1.0
 31
0.0
 73
2
 44
0.9
  1
{\ftxt;\W0.0001;\H0.0001;\~}{\ftxt;\W1.5714285714;\H3.0; }{\ftxt;\W0.0001;\H0.0001;\~}
 40
3.0
 41
7.0714285714
  0
LINE
  5
235
100
AcDbEntity
  8
0
100
AcDbLine
 62
7
  6
CONTINUOUS
 10
44.4993911979
 20
45.0
 11
60.3301300506
 21
45.0
  0
LINE
  5
236
100
AcDbEntity
  8
0
100
AcDbLine
 62
7
  6
CONTINUOUS
 10
44.4993911979
 20
-45.0
 11
60.3301300506
 21
-45.0
  0
LINE
  5
237
100
AcDbEntity
  8
0
100
AcDbLine
 62
7
  6
CONTINUOUS
 10
58.8301300506
 20
45.0
 11
58.8301300506
 21
0.0
  0
LINE
  5
238
100
AcDbEntity
  8
0
100
AcDbLine
 62
7
  6
CONTINUOUS
 10
58.8301300506
 20
-45.0
 11
58.8301300506
 21
0.0
  0
INSERT
  5
239
100
AcDbEntity
  8
0
100
AcDbBlockReference
 62
7
  6
CONTINUOUS
  2
_FILLED
 10
58.8301300506
 20
45.0
 41
3.0
 42
3.0
 43
3.0
 50
90.0
  0
INSERT
  5
23A
100
AcDbEntity
  8
0
100
AcDbBlockReference
 62
7
  6
CONTINUOUS
  2
_FILLED
 10
58.8301300506
 20
-45.0
 41
3.0
 42
3.0
 43
3.0
 50
270.0
  0
ENDBLK
  5
23B
100
AcDbEntity
  8
0
  6
BYBLOCK
 62
0
100
AcDbBlockEnd
  0
BLOCK
  5
23C
100
AcDbEntity
  8
0
100
AcDbBlockBegin
 62
7
  6
CONTINUOUS
  2
*D2
 70
65
 10
0.0
 20
0.0
  3
*D2
  1

  0
MTEXT
  5
23D
100
AcDbEntity
  8
0
100
AcDbMText
 62
7
  6
CONTINUOUS
  7
STANDARD
 71
3
 72
1
 10
-86.5531019291
 20
58.9559869753
 30
0.0
 11
1.0
 21
0.0
 31
0.0
 73
2
 44
0.9
  1
{\ftxt;\W0.0001;\H0.0001;\~}{\ftxt;\W2.6428571429;\H3.0; }{\ftxt;\W0.0001;\H0.0001;\~}
 40
3.0
 41
11.8928571429
  0
LINE
  5
23E
100
AcDbEntity
  8
0
100
AcDbLine
 62
7
  6
CONTINUOUS
 10
-84.9714194123
 20
43.8767374102
 11
-84.9714194123
 21
56.7059869753
  0
LINE
  5
23F
100
AcDbEntity
  8
0
100
AcDbLine
 62
7
  6
CONTINUOUS
 10
-77.8214194123
 20
41.7038975196
 11
-77.8214194123
 21
56.7059869753
  0
LINE
  5
240
100
AcDbEntity
  8
0
100
AcDbLine
 62
7
  6
CONTINUOUS
 10
-84.9714194123
 20
55.2059869753
 11
-81.3964194123
 21
55.2059869753
  0
LINE
  5
241
100
AcDbEntity
  8
0
100
AcDbLine
 62
7
  6
CONTINUOUS
 10
-81.3964194123
 20
55.2059869753
 11
-94.4816733577
 21
55.2059869753
  0
LINE
  5
242
100
AcDbEntity
  8
0
100
AcDbLine
 62
7
  6
CONTINUOUS
 10
-77.8214194123
 20
55.2059869753
 11
-81.3964194123
 21
55.2059869753
  0
INSERT
  5
243
100
AcDbEntity
  8
0
100
AcDbBlockReference
 62
7
  6
CONTINUOUS
  2
_FILLED
 10
-84.9714194123
 20
55.2059869753
 41
3.0
 42
3.0
 43
3.0
 50
180.0
  0
INSERT
  5
244
100
AcDbEntity
  8
0
100
AcDbBlockReference
 62
7
  6
CONTINUOUS
  2
_FILLED
 10
-77.8214194123
 20
55.2059869753
 41
3.0
 42
3.0
 43
3.0
  0
ENDBLK
  5
245
100
AcDbEntity
  8
0
  6
BYBLOCK
 62
0
100
AcDbBlockEnd
  0
BLOCK
  5
246
100
AcDbEntity
  8
0
100
AcDbBlockBegin
 62
7
  6
CONTINUOUS
  2
*D3
 70
65
 10
0.0
 20
0.0
  3
*D3
  1

  0
MTEXT
  5
247
100
AcDbEntity
  8
0
100
AcDbMText
 62
7
  6
CONTINUOUS
  7
STANDARD
 71
3
 72
1
 10
-86.4447564407
 20
67.4759534156
 30
0.0
 11
1.0
 21
0.0
 31
0.0
 73
2
 44
0.9
  1
{\ftxt;\W0.0001;\H0.0001;\~}{\ftxt;\W3.2142857143;\H3.0; }{\ftxt;\W0.0001;\H0.0001;\~}
 40
3.0
 41
14.4642857143
  0
LINE
  5
248
100
AcDbEntity
  8
0
100
AcDbLine
 62
7
  6
CONTINUOUS
 10
-84.9714194123
 20
43.8767374102
 11
-84.9714194123
 21
65.2259534156
  0
LINE
  5
249
100
AcDbEntity
  8
0
100
AcDbLine
 62
7
  6
CONTINUOUS
 10
-74.8214194123
 20
26.4209627273
 11
-74.8214194123
 21
65.2259534156
  0
LINE
  5
24A
100
AcDbEntity
  8
0
100
AcDbLine
 62
7
  6
CONTINUOUS
 10
-84.9714194123
 20
63.7259534156
 11
-79.8964194123
 21
63.7259534156
  0
LINE
  5
24B
100
AcDbEntity
  8
0
100
AcDbLine
 62
7
  6
CONTINUOUS
 10
-79.8964194123
 20
63.7259534156
 11
-96.0876135836
 21
63.7259534156
  0
LINE
  5
24C
100
AcDbEntity
  8
0
100
AcDbLine
 62
7
  6
CONTINUOUS
 10
-74.8214194123
 20
63.7259534156
 11
-79.8964194123
 21
63.7259534156
  0
INSERT
  5
24D
100
AcDbEntity
  8
0
100
AcDbBlockReference
 62
7
  6
CONTINUOUS
  2
_FILLED
 10
-84.9714194123
 20
63.7259534156
 41
3.0
 42
3.0
 43
3.0
 50
180.0
  0
INSERT
  5
24E
100
AcDbEntity
  8
0
100
AcDbBlockReference
 62
7
  6
CONTINUOUS
  2
_FILLED
 10
-74.8214194123
 20
63.7259534156
 41
3.0
 42
3.0
 43
3.0
  0
ENDBLK
  5
24F
100
AcDbEntity
  8
0
  6
BYBLOCK
 62
0
100
AcDbBlockEnd
  0
ENDSEC
  0
SECTION
  2
ENTITIES
  0
DIMENSION
  5
250
100
AcDbEntity
  8
0
100
AcDbDimension
 62
7
  6
CONTINUOUS
  2
*D0
 10
-45.0
 20
55.5900786742
 11
-0.4285713773
 21
55.5900786742
 70
160
 71
2
 72
2
 41
0.9
 42
90.0
  1
{\ftxt;\W0.0001;\H0.0001;\~}{\ftxt;\W1.5714285714;\H3.0; }{\ftxt;\W0.0001;\H0.0001;\~}
  3
DIMSTYLE_1
100
AcDbAlignedDimension
 13
45.0
 23
43.9993911979
 14
-45.0
 24
43.9993911979
 50
180.0
100
AcDbRotatedDimension
  0
DIMENSION
  5
251
100
AcDbEntity
  8
0
100
AcDbDimension
 62
7
  6
CONTINUOUS
  2
*D1
 10
58.8301300506
 20
-45.0
 11
58.8301300506
 21
-0.4285715527
 70
160
 71
2
 72
2
 41
0.9
 42
90.0
  1
{\ftxt;\W0.0001;\H0.0001;\~}{\ftxt;\W1.5714285714;\H3.0; }{\ftxt;\W0.0001;\H0.0001;\~}
  3
DIMSTYLE_1
100
AcDbAlignedDimension
 13
43.9993911979
 23
45.0
 14
43.9993911979
 24
-45.0
 50
270.0
100
AcDbRotatedDimension
  0
DIMENSION
  5
252
100
AcDbEntity
  8
0
100
AcDbDimension
 62
7
  6
CONTINUOUS
  2
*D2
 10
-77.8214194123
 20
55.2059869753
 11
-90.9459581451
 21
55.2059869753
 70
160
 71
3
 72
2
 41
0.9
 42
7.15
  1
{\ftxt;\W0.0001;\H0.0001;\~}{\ftxt;\W2.6428571429;\H3.0; }{\ftxt;\W0.0001;\H0.0001;\~}
  3
DIMSTYLE_1
100
AcDbAlignedDimension
 13
-84.9714194123
 23
43.3767374102
 14
-77.8214194123
 24
41.2038975196
100
AcDbRotatedDimension
  0
DIMENSION
  5
253
100
AcDbEntity
  8
0
100
AcDbDimension
 62
7
  6
CONTINUOUS
  2
*D3
 10
-74.8214194123
 20
63.7259534156
 11
-91.694757431
 21
63.7259534156
 70
160
 71
3
 72
2
 41
0.9
 42
10.15
  1
{\ftxt;\W0.0001;\H0.0001;\~}{\ftxt;\W3.2142857143;\H3.0; }{\ftxt;\W0.0001;\H0.0001;\~}
  3
DIMSTYLE_1
100
AcDbAlignedDimension
 13
-84.9714194123
 23
43.3767374102
 14
-74.8214194123
 24
25.9209627273
100
AcDbRotatedDimension
  0
LINE
  5
254
100
AcDbEntity
  8
0
100
AcDbLine
 62
7
  6
CONTINUOUS
 10
-43.8199854699
 20
44.7906993223
 11
-43.8055596544
 21
44.8061684565
  0
LINE
  5
255
100
AcDbEntity
  8
ASSI
100
AcDbLine
 62
7
  6
CONTINUOUS
 10
-43.8199854699
 20
44.7906993223
 11
-43.8055596544
 21
44.8061684565
  0
LINE
  5
256
100
AcDbEntity
  8
0
100
AcDbLine
 62
7
  6
CONTINUOUS
 10
-45.0
 20
43.9993911979
 11
-43.9993911979
 21
45.0
  0
LINE
  5
257
100
AcDbEntity
  8
ASSI
100
AcDbLine
 62
7
  6
CONTINUOUS
 10
-45.0
 20
43.9993911979
 11
-43.9993911979
 21
45.0
  0
LINE
  5
258
100
AcDbEntity
  8
0
100
AcDbLine
 62
7
  6
CONTINUOUS
 10
-43.8199854699
 20
44.7906993223
 11
-44.7906993223
 21
43.8199854699
  0
LINE
  5
259
100
AcDbEntity
  8
ASSI
100
AcDbLine
 62
7
  6
CONTINUOUS
 10
-43.8199854699
 20
44.7906993223
 11
-44.7906993223
 21
43.8199854699
  0
LINE
  5
25A
100
AcDbEntity
  8
0
100
AcDbLine
 62
7
  6
CONTINUOUS
 10
-43.3767374102
 20
43.7712689598
 11
-43.7712689598
 21
43.3767374102
  0
LINE
  5
25B
100
AcDbEntity
  8
ASSI
100
AcDbLine
 62
7
  6
CONTINUOUS
 10
-43.3767374102
 20
43.7712689598
 11
-43.7712689598
 21
43.3767374102
  0
LINE
  5
25C
100
AcDbEntity
  8
0
100
AcDbLine
 62
7
  6
CONTINUOUS
 10
-44.8061684565
 20
43.8055596544
 11
-44.7906993223
 21
43.8199854699
  0
LINE
  5
25D
100
AcDbEntity
  8
ASSI
100
AcDbLine
 62
7
  6
CONTINUOUS
 10
-44.8061684565
 20
43.8055596544
 11
-44.7906993223
 21
43.8199854699
  0
LINE
  5
25E
100
AcDbEntity
  8
0
100
AcDbLine
 62
7
  6
CONTINUOUS
 10
-44.7906993223
 20
-43.8199854699
 11
-44.8061684565
 21
-43.8055596544
  0
LINE
  5
25F
100
AcDbEntity
  8
ASSI
100
AcDbLine
 62
7
  6
CONTINUOUS
 10
-44.7906993223
 20
-43.8199854699
 11
-44.8061684565
 21
-43.8055596544
  0
LINE
  5
260
100
AcDbEntity
  8
0
100
AcDbLine
 62
7
  6
CONTINUOUS
 10
-43.9993911979
 20
-45.0
 11
-45.0
 21
-43.9993911979
  0
LINE
  5
261
100
AcDbEntity
  8
ASSI
100
AcDbLine
 62
7
  6
CONTINUOUS
 10
-43.9993911979
 20
-45.0
 11
-45.0
 21
-43.9993911979
  0
LINE
  5
262
100
AcDbEntity
  8
0
100
AcDbLine
 62
7
  6
CONTINUOUS
 10
-44.7906993223
 20
-43.8199854699
 11
-43.8199854699
 21
-44.7906993223
  0
LINE
  5
263
100
AcDbEntity
  8
ASSI
100
AcDbLine
 62
7
  6
CONTINUOUS
 10
-44.7906993223
 20
-43.8199854699
 11
-43.8199854699
 21
-44.7906993223
  0
LINE
  5
264
100
AcDbEntity
  8
0
100
AcDbLine
 62
7
  6
CONTINUOUS
 10
-43.7712689598
 20
-43.3767374102
 11
-43.3767374102
 21
-43.7712689598
  0
LINE
  5
265
100
AcDbEntity
  8
ASSI
100
AcDbLine
 62
7
  6
CONTINUOUS
 10
-43.7712689598
 20
-43.3767374102
 11
-43.3767374102
 21
-43.7712689598
  0
LINE
  5
266
100
AcDbEntity
  8
0
100
AcDbLine
 62
7
  6
CONTINUOUS
 10
-43.8055596544
 20
-44.8061684565
 11
-43.8199854699
 21
-44.7906993223
  0
LINE
  5
267
100
AcDbEntity
  8
ASSI
100
AcDbLine
 62
7
  6
CONTINUOUS
 10
-43.8055596544
 20
-44.8061684565
 11
-43.8199854699
 21
-44.7906993223
  0
LINE
  5
268
100
AcDbEntity
  8
0
100
AcDbLine
 62
7
  6
CONTINUOUS
 10
-45.0
 20
43.9993911979
 11
-45.0
 21
-43.9993911979
  0
LINE
  5
269
100
AcDbEntity
  8
ASSI
100
AcDbLine
 62
7
  6
CONTINUOUS
 10
-45.0
 20
43.9993911979
 11
-45.0
 21
-43.9993911979
  0
LINE
  5
26A
100
AcDbEntity
  8
0
100
AcDbLine
 62
7
  6
CONTINUOUS
 10
-44.8061684565
 20
43.8055596544
 11
-44.8061684565
 21
-43.8055596544
  0
LINE
  5
26B
100
AcDbEntity
  8
ASSI
100
AcDbLine
 62
7
  6
CONTINUOUS
 10
-44.8061684565
 20
43.8055596544
 11
-44.8061684565
 21
-43.8055596544
  0
LINE
  5
26C
100
AcDbEntity
  8
0
100
AcDbLine
 62
7
  6
CONTINUOUS
 10
-43.7712689598
 20
43.3767374102
 11
-43.7712689598
 21
-43.3767374102
  0
LINE
  5
26D
100
AcDbEntity
  8
ASSI
100
AcDbLine
 62
7
  6
CONTINUOUS
 10
-43.7712689598
 20
43.3767374102
 11
-43.7712689598
 21
-43.3767374102
  0
LINE
  5
26E
100
AcDbEntity
  8
0
100
AcDbLine
 62
7
  6
CONTINUOUS
 10
-43.9993911979
 20
-45.0
 11
43.9993911979
 21
-45.0
  0
LINE
  5
26F
100
AcDbEntity
  8
ASSI
100
AcDbLine
 62
7
  6
CONTINUOUS
 10
-43.9993911979
 20
-45.0
 11
43.9993911979
 21
-45.0
  0
LINE
  5
270
100
AcDbEntity
  8
0
100
AcDbLine
 62
7
  6
CONTINUOUS
 10
-43.8055596544
 20
-44.8061684565
 11
43.8055596544
 21
-44.8061684565
  0
LINE
  5
271
100
AcDbEntity
  8
ASSI
100
AcDbLine
 62
7
  6
CONTINUOUS
 10
-43.8055596544
 20
-44.8061684565
 11
43.8055596544
 21
-44.8061684565
  0
LINE
  5
272
100
AcDbEntity
  8
0
100
AcDbLine
 62
7
  6
CONTINUOUS
 10
-43.3767374102
 20
-43.7712689598
 11
43.3767374102
 21
-43.7712689598
  0
LINE
  5
273
100
AcDbEntity
  8
ASSI
100
AcDbLine
 62
7
  6
CONTINUOUS
 10
-43.3767374102
 20
-43.7712689598
 11
43.3767374102
 21
-43.7712689598
  0
LWPOLYLINE
  5
274
100
AcDbEntity
  8
0
100
AcDbPolyline
 62
7
  6
CONTINUOUS
 90
10
 70
0
 43
0.3500000006
 10
-1.9285714102
 20
56.3400830383
 10
-1.0714285848
 20
57.1972209778
 10
-0.8571428254
 20
58.054367981
 10
-0.8571428254
 20
58.9115059204
 10
-1.2857142735
 20
59.3400748901
 10
-1.9285714102
 20
59.3400748901
 10
-2.3571427875
 20
58.9115059204
 10
-2.3571427875
 20
58.054367981
 10
-1.9285714102
 20
57.6257899475
 10
-1.0000000219
 20
57.6257899475
  0
LINE
  5
275
100
AcDbEntity
  8
CURVE
100
AcDbLine
 62
250
  6
CONTINUOUS
 10
44.8592581977
 20
-36.257398
 11
44.946502926
 21
-36.257398
  0
LINE
  5
276
100
AcDbEntity
  8
CURVE
100
AcDbLine
 62
250
  6
CONTINUOUS
 10
44.946502926
 20
-35.735605
 11
44.8592581977
 21
-35.735605
  0
LINE
  5
277
100
AcDbEntity
  8
CURVE
100
AcDbLine
 62
250
  6
CONTINUOUS
 10
44.8602826601
 20
-30.6285551388
 11
44.9465029266
 21
-30.6285551388
  0
LINE
  5
278
100
AcDbEntity
  8
CURVE
100
AcDbLine
 62
250
  6
CONTINUOUS
 10
44.8980744759
 20
-30.126163664
 11
44.8741255285
 21
-30.126163664
  0
LINE
  5
279
100
AcDbEntity
  8
CURVE
100
AcDbLine
 62
250
  6
CONTINUOUS
 10
44.9465029266
 20
-30.1088617972
 11
44.9123622001
 21
-30.1088617972
  0
LINE
  5
27A
100
AcDbEntity
  8
CURVE
100
AcDbLine
 62
250
  6
CONTINUOUS
 10
44.9057802956
 20
-29.2870512436
 11
44.9052647862
 21
-29.2870512436
  0
LINE
  5
27B
100
AcDbEntity
  8
0
100
AcDbLine
 62
7
  6
CONTINUOUS
 10
-43.3767374102
 20
-43.7712689598
 11
-43.8199854699
 21
-44.7906993223
  0
LINE
  5
27C
100
AcDbEntity
  8
ASSI
100
AcDbLine
 62
7
  6
CONTINUOUS
 10
-43.3767374102
 20
-43.7712689598
 11
-43.8199854699
 21
-44.7906993223
  0
LINE
  5
27D
100
AcDbEntity
  8
0
100
AcDbLine
 62
7
  6
CONTINUOUS
 10
43.7712689598
 20
43.3767374102
 11
44.7906993223
 21
43.8199854699
  0
LINE
  5
27E
100
AcDbEntity
  8
ASSI
100
AcDbLine
 62
7
  6
CONTINUOUS
 10
43.7712689598
 20
43.3767374102
 11
44.7906993223
 21
43.8199854699
  0
LINE
  5
27F
100
AcDbEntity
  8
0
100
AcDbLine
 62
7
  6
CONTINUOUS
 10
43.7712689598
 20
-43.3767374102
 11
44.7906993223
 21
-43.8199854699
  0
LINE
  5
280
100
AcDbEntity
  8
ASSI
100
AcDbLine
 62
7
  6
CONTINUOUS
 10
43.7712689598
 20
-43.3767374102
 11
44.7906993223
 21
-43.8199854699
  0
LINE
  5
281
100
AcDbEntity
  8
0
100
AcDbLine
 62
7
  6
CONTINUOUS
 10
-43.3767374102
 20
43.7712689598
 11
-43.8199854699
 21
44.7906993223
  0
LINE
  5
282
100
AcDbEntity
  8
ASSI
100
AcDbLine
 62
7
  6
CONTINUOUS
 10
-43.3767374102
 20
43.7712689598
 11
-43.8199854699
 21
44.7906993223
  0
LINE
  5
283
100
AcDbEntity
  8
0
100
AcDbLine
 62
7
  6
CONTINUOUS
 10
-8.4
 20
-6.7
 11
-8.4
 21
6.7
  0
LINE
  5
284
100
AcDbEntity
  8
ASSI
100
AcDbLine
 62
7
  6
CONTINUOUS
 10
-8.4
 20
-6.7
 11
-8.4
 21
6.7
  0
LINE
  5
285
100
AcDbEntity
  8
0
100
AcDbLine
 62
7
  6
CONTINUOUS
 10
6.7
 20
-8.4
 11
-6.7
 21
-8.4
  0
LINE
  5
286
100
AcDbEntity
  8
ASSI
100
AcDbLine
 62
7
  6
CONTINUOUS
 10
6.7
 20
-8.4
 11
-6.7
 21
-8.4
  0
LINE
  5
287
100
AcDbEntity
  8
0
100
AcDbLine
 62
7
  6
CONTINUOUS
 10
-7.9
 20
-6.7
 11
-7.9
 21
6.7
  0
LINE
  5
288
100
AcDbEntity
  8
ASSI
100
AcDbLine
 62
7
  6
CONTINUOUS
 10
-7.9
 20
-6.7
 11
-7.9
 21
6.7
  0
LINE
  5
289
100
AcDbEntity
  8
0
100
AcDbLine
 62
250
  6
CONTINUOUS
 10
-6.7
 20
8.4
 11
-6.7
 21
7.9
  0
LINE
  5
28A
100
AcDbEntity
  8
ASSI
100
AcDbLine
 62
250
  6
CONTINUOUS
 10
-6.7
 20
8.4
 11
-6.7
 21
7.9
  0
LINE
  5
28B
100
AcDbEntity
  8
0
100
AcDbLine
 62
250
  6
CONTINUOUS
 10
-6.7
 20
-8.4
 11
-6.7
 21
-7.9
  0
LINE
  5
28C
100
AcDbEntity
  8
ASSI
100
AcDbLine
 62
250
  6
CONTINUOUS
 10
-6.7
 20
-8.4
 11
-6.7
 21
-7.9
  0
LINE
  5
28D
100
AcDbEntity
  8
0
100
AcDbLine
 62
7
  6
CONTINUOUS
 10
6.7
 20
-7.9
 11
-6.7
 21
-7.9
  0
LINE
  5
28E
100
AcDbEntity
  8
ASSI
100
AcDbLine
 62
7
  6
CONTINUOUS
 10
6.7
 20
-7.9
 11
-6.7
 21
-7.9
  0
LINE
  5
28F
100
AcDbEntity
  8
0
100
AcDbLine
 62
250
  6
CONTINUOUS
 10
-8.4
 20
-6.7
 11
-7.9
 21
-6.7
  0
LINE
  5
290
100
AcDbEntity
  8
ASSI
100
AcDbLine
 62
250
  6
CONTINUOUS
 10
-8.4
 20
-6.7
 11
-7.9
 21
-6.7
  0
LINE
  5
291
100
AcDbEntity
  8
0
100
AcDbLine
 62
250
  6
CONTINUOUS
 10
8.4
 20
-6.7
 11
7.9
 21
-6.7
  0
LINE
  5
292
100
AcDbEntity
  8
ASSI
100
AcDbLine
 62
250
  6
CONTINUOUS
 10
8.4
 20
-6.7
 11
7.9
 21
-6.7
  0
LWPOLYLINE
  5
293
100
AcDbEntity
  8
0
100
AcDbPolyline
 62
7
  6
CONTINUOUS
 90
13
 70
0
 43
0.3500000006
 10
0.0
 20
57.1972209778
 10
0.0
 20
58.4829369507
 10
0.2142857063
 20
58.9115059204
 10
0.6428571367
 20
59.3400748901
 10
0.8571428254
 20
59.3400748901
 10
1.2857142735
 20
58.9115059204
 10
1.5000000329
 20
58.4829369507
 10
1.5000000329
 20
57.1972209778
 10
1.2857142735
 20
56.7686520081
 10
0.8571428254
 20
56.3400830383
 10
0.6428571367
 20
56.3400830383
 10
0.2142857063
 20
56.7686520081
 10
0.0
 20
57.1972209778
  0
LINE
  5
294
100
AcDbEntity
  8
0
100
AcDbLine
 62
7
  6
CONTINUOUS
 10
-44.8061684565
 20
-43.8055596544
 11
-45.0
 21
-43.9993911979
  0
LINE
  5
295
100
AcDbEntity
  8
ASSI
100
AcDbLine
 62
7
  6
CONTINUOUS
 10
-44.8061684565
 20
-43.8055596544
 11
-45.0
 21
-43.9993911979
  0
LINE
  5
296
100
AcDbEntity
  8
0
100
AcDbLine
 62
7
  6
CONTINUOUS
 10
43.8055596544
 20
44.8061684565
 11
43.9993911979
 21
45.0
  0
LINE
  5
297
100
AcDbEntity
  8
ASSI
100
AcDbLine
 62
7
  6
CONTINUOUS
 10
43.8055596544
 20
44.8061684565
 11
43.9993911979
 21
45.0
  0
LWPOLYLINE
  5
298
100
AcDbEntity
  8
0
100
AcDbPolyline
 62
7
  6
CONTINUOUS
 90
13
 70
0
 43
0.3500000006
 10
57.2229894562
 20
-0.0000003204
 10
55.9372734833
 20
-0.0000003204
 10
55.5086999817
 20
0.2142864304
 10
55.080131012
 20
0.642857666
 10
55.080131012
 20
0.8571421509
 10
55.5086999817
 20
1.2857133865
 10
55.9372734833
 20
1.5000001373
 10
57.2229894562
 20
1.5000001373
 10
57.6515584259
 20
1.2857133865
 10
58.0801319275
 20
0.8571421509
 10
58.0801319275
 20
0.642857666
 10
57.6515584259
 20
0.2142864304
 10
57.2229894562
 20
-0.0000003204
  0
LINE
  5
299
100
AcDbEntity
  8
0
100
AcDbLine
 62
7
  6
CONTINUOUS
 10
43.8055596544
 20
-44.8061684565
 11
43.9993911979
 21
-45.0
  0
LINE
  5
29A
100
AcDbEntity
  8
ASSI
100
AcDbLine
 62
7
  6
CONTINUOUS
 10
43.8055596544
 20
-44.8061684565
 11
43.9993911979
 21
-45.0
  0
LINE
  5
29B
100
AcDbEntity
  8
0
100
AcDbLine
 62
7
  6
CONTINUOUS
 10
-44.8061684565
 20
43.8055596544
 11
-45.0
 21
43.9993911979
  0
LINE
  5
29C
100
AcDbEntity
  8
ASSI
100
AcDbLine
 62
7
  6
CONTINUOUS
 10
-44.8061684565
 20
43.8055596544
 11
-45.0
 21
43.9993911979
  0
LINE
  5
29D
100
AcDbEntity
  8
0
100
AcDbLine
 62
7
  6
CONTINUOUS
 10
-43.8055596544
 20
-44.8061684565
 11
-43.9993911979
 21
-45.0
  0
LINE
  5
29E
100
AcDbEntity
  8
ASSI
100
AcDbLine
 62
7
  6
CONTINUOUS
 10
-43.8055596544
 20
-44.8061684565
 11
-43.9993911979
 21
-45.0
  0
LINE
  5
29F
100
AcDbEntity
  8
0
100
AcDbLine
 62
7
  6
CONTINUOUS
 10
44.8061684565
 20
43.8055596544
 11
45.0
 21
43.9993911979
  0
LINE
  5
2A0
100
AcDbEntity
  8
ASSI
100
AcDbLine
 62
7
  6
CONTINUOUS
 10
44.8061684565
 20
43.8055596544
 11
45.0
 21
43.9993911979
  0
LINE
  5
2A1
100
AcDbEntity
  8
0
100
AcDbLine
 62
7
  6
CONTINUOUS
 10
44.8061684565
 20
-43.8055596544
 11
45.0
 21
-43.9993911979
  0
LINE
  5
2A2
100
AcDbEntity
  8
ASSI
100
AcDbLine
 62
7
  6
CONTINUOUS
 10
44.8061684565
 20
-43.8055596544
 11
45.0
 21
-43.9993911979
  0
LINE
  5
2A3
100
AcDbEntity
  8
0
100
AcDbLine
 62
7
  6
CONTINUOUS
 10
-43.8055596544
 20
44.8061684565
 11
-43.9993911979
 21
45.0
  0
LINE
  5
2A4
100
AcDbEntity
  8
ASSI
100
AcDbLine
 62
7
  6
CONTINUOUS
 10
-43.8055596544
 20
44.8061684565
 11
-43.9993911979
 21
45.0
  0
LINE
  5
2A5
100
AcDbEntity
  8
0
100
AcDbLine
 62
250
  6
CONTINUOUS
 10
6.7
 20
8.4
 11
6.7
 21
7.9
  0
LINE
  5
2A6
100
AcDbEntity
  8
ASSI
100
AcDbLine
 62
250
  6
CONTINUOUS
 10
6.7
 20
8.4
 11
6.7
 21
7.9
  0
LINE
  5
2A7
100
AcDbEntity
  8
0
100
AcDbLine
 62
250
  6
CONTINUOUS
 10
6.7
 20
-8.4
 11
6.7
 21
-7.9
  0
LINE
  5
2A8
100
AcDbEntity
  8
ASSI
100
AcDbLine
 62
250
  6
CONTINUOUS
 10
6.7
 20
-8.4
 11
6.7
 21
-7.9
  0
LINE
  5
2A9
100
AcDbEntity
  8
0
100
AcDbLine
 62
7
  6
CONTINUOUS
 10
7.9
 20
6.7
 11
7.9
 21
-6.7
  0
LINE
  5
2AA
100
AcDbEntity
  8
ASSI
100
AcDbLine
 62
7
  6
CONTINUOUS
 10
7.9
 20
6.7
 11
7.9
 21
-6.7
  0
LINE
  5
2AB
100
AcDbEntity
  8
0
100
AcDbLine
 62
7
  6
CONTINUOUS
 10
8.4
 20
6.7
 11
8.4
 21
-6.7
  0
LINE
  5
2AC
100
AcDbEntity
  8
ASSI
100
AcDbLine
 62
7
  6
CONTINUOUS
 10
8.4
 20
6.7
 11
8.4
 21
-6.7
  0
LINE
  5
2AD
100
AcDbEntity
  8
0
100
AcDbLine
 62
250
  6
CONTINUOUS
 10
-8.4
 20
6.7
 11
-7.9
 21
6.7
  0
LINE
  5
2AE
100
AcDbEntity
  8
ASSI
100
AcDbLine
 62
250
  6
CONTINUOUS
 10
-8.4
 20
6.7
 11
-7.9
 21
6.7
  0
LINE
  5
2AF
100
AcDbEntity
  8
0
100
AcDbLine
 62
250
  6
CONTINUOUS
 10
8.4
 20
6.7
 11
7.9
 21
6.7
  0
LINE
  5
2B0
100
AcDbEntity
  8
ASSI
100
AcDbLine
 62
250
  6
CONTINUOUS
 10
8.4
 20
6.7
 11
7.9
 21
6.7
  0
LINE
  5
2B1
100
AcDbEntity
  8
0
100
AcDbLine
 62
7
  6
CONTINUOUS
 10
-6.7
 20
7.9
 11
6.7
 21
7.9
  0
LINE
  5
2B2
100
AcDbEntity
  8
ASSI
100
AcDbLine
 62
7
  6
CONTINUOUS
 10
-6.7
 20
7.9
 11
6.7
 21
7.9
  0
LINE
  5
2B3
100
AcDbEntity
  8
0
100
AcDbLine
 62
7
  6
CONTINUOUS
 10
-6.7
 20
8.4
 11
6.7
 21
8.4
  0
LINE
  5
2B4
100
AcDbEntity
  8
ASSI
100
AcDbLine
 62
7
  6
CONTINUOUS
 10
-6.7
 20
8.4
 11
6.7
 21
8.4
  0
LINE
  5
2B5
100
AcDbEntity
  8
0
100
AcDbLine
 62
7
  6
CONTINUOUS
 10
43.3767374102
 20
43.7712689598
 11
43.8199854699
 21
44.7906993223
  0
LINE
  5
2B6
100
AcDbEntity
  8
ASSI
100
AcDbLine
 62
7
  6
CONTINUOUS
 10
43.3767374102
 20
43.7712689598
 11
43.8199854699
 21
44.7906993223
  0
LINE
  5
2B7
100
AcDbEntity
  8
0
100
AcDbLine
 62
7
  6
CONTINUOUS
 10
-43.7712689598
 20
-43.3767374102
 11
-44.7906993223
 21
-43.8199854699
  0
LINE
  5
2B8
100
AcDbEntity
  8
ASSI
100
AcDbLine
 62
7
  6
CONTINUOUS
 10
-43.7712689598
 20
-43.3767374102
 11
-44.7906993223
 21
-43.8199854699
  0
LINE
  5
2B9
100
AcDbEntity
  8
0
100
AcDbLine
 62
7
  6
CONTINUOUS
 10
-43.7712689598
 20
43.3767374102
 11
-44.7906993223
 21
43.8199854699
  0
LINE
  5
2BA
100
AcDbEntity
  8
ASSI
100
AcDbLine
 62
7
  6
CONTINUOUS
 10
-43.7712689598
 20
43.3767374102
 11
-44.7906993223
 21
43.8199854699
  0
LINE
  5
2BB
100
AcDbEntity
  8
CURVE
100
AcDbLine
 62
250
  6
CONTINUOUS
 10
44.8895371756
 20
-34.842919
 11
44.946502926
 21
-34.955522
  0
LINE
  5
2BC
100
AcDbEntity
  8
0
100
AcDbLine
 62
7
  6
CONTINUOUS
 10
43.3767374102
 20
-43.7712689598
 11
43.8199854699
 21
-44.7906993223
  0
LINE
  5
2BD
100
AcDbEntity
  8
ASSI
100
AcDbLine
 62
7
  6
CONTINUOUS
 10
43.3767374102
 20
-43.7712689598
 11
43.8199854699
 21
-44.7906993223
  0
LINE
  5
2BE
100
AcDbEntity
  8
CURVE
100
AcDbLine
 62
250
  6
CONTINUOUS
 10
44.946502926
 20
-35.454708
 11
44.8592633977
 21
-35.228996
  0
LINE
  5
2BF
100
AcDbEntity
  8
CURVE
100
AcDbLine
 62
250
  6
CONTINUOUS
 10
44.8592633977
 20
-36.451037
 11
44.946502926
 21
-37.254552
  0
LINE
  5
2C0
100
AcDbEntity
  8
CURVE
100
AcDbLine
 62
250
  6
CONTINUOUS
 10
44.9076990481
 20
-34.191353
 11
44.8592633977
 21
-33.66956
  0
LINE
  5
2C1
100
AcDbEntity
  8
CURVE
100
AcDbLine
 62
250
  6
CONTINUOUS
 10
44.8897746317
 20
-33.5372
 11
44.946502926
 21
-34.157611
  0
LWPOLYLINE
  5
2C2
100
AcDbEntity
  8
0
100
AcDbPolyline
 62
7
  6
CONTINUOUS
 90
10
 70
0
 43
0.3500000006
 10
58.0801319275
 20
-1.9285708809
 10
57.2229894562
 20
-1.0714295425
 10
56.365842453
 20
-0.8571427917
 10
55.5086999817
 20
-0.8571427917
 10
55.080131012
 20
-1.2857140274
 10
55.080131012
 20
-1.9285708809
 10
55.5086999817
 20
-2.3571432495
 10
56.365842453
 20
-2.3571432495
 10
56.7944159546
 20
-1.9285708809
 10
56.7944159546
 20
-1.0000006256
  0
LINE
  5
2C3
100
AcDbEntity
  8
CURVE
100
AcDbLine
 62
250
  6
CONTINUOUS
 10
44.8832346056
 20
-31.81095
 11
44.9156103103
 21
-32.070759
  0
LINE
  5
2C4
100
AcDbEntity
  8
CURVE
100
AcDbLine
 62
250
  6
CONTINUOUS
 10
44.9193130771
 20
-37.463524
 11
44.8592633977
 21
-36.972473
  0
LINE
  5
2C5
100
AcDbEntity
  8
CURVE
100
AcDbLine
 62
250
  6
CONTINUOUS
 10
44.9290868208
 20
-32.177494
 11
44.946502926
 21
-32.321477
  0
LINE
  5
2C6
100
AcDbEntity
  8
CURVE
100
AcDbLine
 62
250
  6
CONTINUOUS
 10
44.946502926
 20
-32.837608
 11
44.8592633977
 21
-32.053532
  0
LINE
  5
2C7
100
AcDbEntity
  8
0
100
AcDbLine
 62
7
  6
CONTINUOUS
 10
43.7712689598
 20
-43.3767374102
 11
43.7712689598
 21
43.3767374102
  0
LINE
  5
2C8
100
AcDbEntity
  8
ASSI
100
AcDbLine
 62
7
  6
CONTINUOUS
 10
43.7712689598
 20
-43.3767374102
 11
43.7712689598
 21
43.3767374102
  0
LINE
  5
2C9
100
AcDbEntity
  8
0
100
AcDbLine
 62
7
  6
CONTINUOUS
 10
44.8061684565
 20
-43.8055596544
 11
44.8061684565
 21
43.8055596544
  0
LINE
  5
2CA
100
AcDbEntity
  8
ASSI
100
AcDbLine
 62
7
  6
CONTINUOUS
 10
44.8061684565
 20
-43.8055596544
 11
44.8061684565
 21
43.8055596544
  0
LINE
  5
2CB
100
AcDbEntity
  8
CURVE
100
AcDbLine
 62
250
  6
CONTINUOUS
 10
44.8592581977
 20
-35.735605
 11
44.8592581977
 21
-36.257398
  0
LINE
  5
2CC
100
AcDbEntity
  8
CURVE
100
AcDbLine
 62
250
  6
CONTINUOUS
 10
44.8592633977
 20
-38.506847
 11
44.8592633977
 21
-37.940019
  0
LINE
  5
2CD
100
AcDbEntity
  8
CURVE
100
AcDbLine
 62
250
  6
CONTINUOUS
 10
44.8592633977
 20
-36.972473
 11
44.8592633977
 21
-36.451037
  0
LINE
  5
2CE
100
AcDbEntity
  8
CURVE
100
AcDbLine
 62
250
  6
CONTINUOUS
 10
44.8592633977
 20
-35.228996
 11
44.8592633977
 21
-34.707635
  0
LINE
  5
2CF
100
AcDbEntity
  8
CURVE
100
AcDbLine
 62
250
  6
CONTINUOUS
 10
44.8592633977
 20
-33.66956
 11
44.8592633977
 21
-33.153297
  0
LINE
  5
2D0
100
AcDbEntity
  8
CURVE
100
AcDbLine
 62
250
  6
CONTINUOUS
 10
44.8592633977
 20
-32.053532
 11
44.8592633977
 21
-31.54876
  0
LINE
  5
2D1
100
AcDbEntity
  8
CURVE
100
AcDbLine
 62
250
  6
CONTINUOUS
 10
44.8980744759
 20
-29.8279642095
 11
44.8980744759
 21
-30.126163664
  0
LINE
  5
2D2
100
AcDbEntity
  8
CURVE
100
AcDbLine
 62
250
  6
CONTINUOUS
 10
44.9123622001
 20
-30.1088617972
 11
44.9123622001
 21
-29.8290889245
  0
LINE
  5
2D3
100
AcDbEntity
  8
CURVE
100
AcDbLine
 62
250
  6
CONTINUOUS
 10
44.9156103103
 20
-32.070759
 11
44.9156103103
 21
-31.571179
  0
LINE
  5
2D4
100
AcDbEntity
  8
CURVE
100
AcDbLine
 62
250
  6
CONTINUOUS
 10
44.9290868208
 20
-31.466899
 11
44.9290868208
 21
-32.177494
  0
LINE
  5
2D5
100
AcDbEntity
  8
CURVE
100
AcDbLine
 62
250
  6
CONTINUOUS
 10
44.946502926
 20
-36.257398
 11
44.946502926
 21
-35.735605
  0
LINE
  5
2D6
100
AcDbEntity
  8
CURVE
100
AcDbLine
 62
250
  6
CONTINUOUS
 10
44.9465029266
 20
-30.6285551388
 11
44.9465029266
 21
-30.1088617972
  0
LINE
  5
2D7
100
AcDbEntity
  8
CURVE
100
AcDbLine
 62
250
  6
CONTINUOUS
 10
44.9465029266
 20
-29.3098079785
 11
44.9465029266
 21
-28.8079038802
  0
LINE
  5
2D8
100
AcDbEntity
  8
CURVE
100
AcDbLine
 62
250
  6
CONTINUOUS
 10
44.946502926
 20
-30.781779
 11
44.946502926
 21
-31.331727
  0
LINE
  5
2D9
100
AcDbEntity
  8
CURVE
100
AcDbLine
 62
250
  6
CONTINUOUS
 10
44.946502926
 20
-32.321477
 11
44.946502926
 21
-32.837608
  0
LINE
  5
2DA
100
AcDbEntity
  8
CURVE
100
AcDbLine
 62
250
  6
CONTINUOUS
 10
44.946502926
 20
-32.919544
 11
44.946502926
 21
-33.429996
  0
LINE
  5
2DB
100
AcDbEntity
  8
CURVE
100
AcDbLine
 62
250
  6
CONTINUOUS
 10
44.946502926
 20
-34.157611
 11
44.946502926
 21
-34.230793
  0
LINE
  5
2DC
100
AcDbEntity
  8
CURVE
100
AcDbLine
 62
250
  6
CONTINUOUS
 10
44.946502926
 20
-34.955522
 11
44.946502926
 21
-35.454708
  0
LINE
  5
2DD
100
AcDbEntity
  8
CURVE
100
AcDbLine
 62
250
  6
CONTINUOUS
 10
44.946502926
 20
-37.254552
 11
44.946502926
 21
-37.714382
  0
LINE
  5
2DE
100
AcDbEntity
  8
0
100
AcDbLine
 62
7
  6
CONTINUOUS
 10
45.0
 20
-43.9993911979
 11
45.0
 21
43.9993911979
  0
LINE
  5
2DF
100
AcDbEntity
  8
ASSI
100
AcDbLine
 62
7
  6
CONTINUOUS
 10
45.0
 20
-43.9993911979
 11
45.0
 21
43.9993911979
  0
LINE
  5
2E0
100
AcDbEntity
  8
0
100
AcDbLine
 62
7
  6
CONTINUOUS
 10
43.3767374102
 20
43.7712689598
 11
-43.3767374102
 21
43.7712689598
  0
LINE
  5
2E1
100
AcDbEntity
  8
ASSI
100
AcDbLine
 62
7
  6
CONTINUOUS
 10
43.3767374102
 20
43.7712689598
 11
-43.3767374102
 21
43.7712689598
  0
LINE
  5
2E2
100
AcDbEntity
  8
0
100
AcDbLine
 62
7
  6
CONTINUOUS
 10
43.8055596544
 20
44.8061684565
 11
-43.8055596544
 21
44.8061684565
  0
LINE
  5
2E3
100
AcDbEntity
  8
ASSI
100
AcDbLine
 62
7
  6
CONTINUOUS
 10
43.8055596544
 20
44.8061684565
 11
-43.8055596544
 21
44.8061684565
  0
LINE
  5
2E4
100
AcDbEntity
  8
0
100
AcDbLine
 62
7
  6
CONTINUOUS
 10
43.9993911979
 20
45.0
 11
-43.9993911979
 21
45.0
  0
LINE
  5
2E5
100
AcDbEntity
  8
ASSI
100
AcDbLine
 62
7
  6
CONTINUOUS
 10
43.9993911979
 20
45.0
 11
-43.9993911979
 21
45.0
  0
LINE
  5
2E6
100
AcDbEntity
  8
CURVE
100
AcDbLine
 62
250
  6
CONTINUOUS
 10
44.946502926
 20
-34.230793
 11
44.8895371756
 21
-34.842919
  0
LINE
  5
2E7
100
AcDbEntity
  8
CURVE
100
AcDbLine
 62
250
  6
CONTINUOUS
 10
44.8592633977
 20
-34.707635
 11
44.9076990481
 21
-34.191353
  0
LINE
  5
2E8
100
AcDbEntity
  8
CURVE
100
AcDbLine
 62
250
  6
CONTINUOUS
 10
44.946502926
 20
-37.714382
 11
44.8592633977
 21
-38.506847
  0
LINE
  5
2E9
100
AcDbEntity
  8
CURVE
100
AcDbLine
 62
250
  6
CONTINUOUS
 10
44.8592633977
 20
-31.54876
 11
44.946502926
 21
-30.781779
  0
LINE
  5
2EA
100
AcDbEntity
  8
CURVE
100
AcDbLine
 62
250
  6
CONTINUOUS
 10
44.8592633977
 20
-37.940019
 11
44.9193130771
 21
-37.463524
  0
LINE
  5
2EB
100
AcDbEntity
  8
CURVE
100
AcDbLine
 62
250
  6
CONTINUOUS
 10
44.946502926
 20
-31.331727
 11
44.9290868208
 21
-31.466899
  0
LINE
  5
2EC
100
AcDbEntity
  8
CURVE
100
AcDbLine
 62
250
  6
CONTINUOUS
 10
44.9156103103
 20
-31.571179
 11
44.8832346056
 21
-31.81095
  0
LINE
  5
2ED
100
AcDbEntity
  8
CURVE
100
AcDbLine
 62
250
  6
CONTINUOUS
 10
44.8592633977
 20
-33.153297
 11
44.946502926
 21
-32.919544
  0
LINE
  5
2EE
100
AcDbEntity
  8
CURVE
100
AcDbLine
 62
250
  6
CONTINUOUS
 10
44.946502926
 20
-33.429996
 11
44.8897746317
 21
-33.5372
  0
LINE
  5
2EF
100
AcDbEntity
  8
CURVE
100
AcDbLine
 62
7
  6
CONTINUOUS
 10
44.9437764244
 20
-28.8286213783
 11
44.9465029266
 21
-28.825894876
  0
LINE
  5
2F0
100
AcDbEntity
  8
CURVE
100
AcDbLine
 62
7
  6
CONTINUOUS
 10
44.8666727591
 20
-29.1157357576
 11
44.8994575325
 21
-29.0829509841
  0
LINE
  5
2F1
100
AcDbEntity
  8
CURVE
100
AcDbLine
 62
7
  6
CONTINUOUS
 10
44.9142457338
 20
-29.0681627828
 11
44.9465029266
 21
-29.03590559
  0
LINE
  5
2F2
100
AcDbEntity
  8
CURVE
100
AcDbLine
 62
7
  6
CONTINUOUS
 10
44.8613536097
 20
-29.331065621
 11
44.9465029266
 21
-29.2459163041
  0
LINE
  5
2F3
100
AcDbEntity
  8
CURVE
100
AcDbLine
 62
7
  6
CONTINUOUS
 10
44.859366391
 20
-29.5430635537
 11
44.8765307707
 21
-29.5258991739
  0
LINE
  5
2F4
100
AcDbEntity
  8
CURVE
100
AcDbLine
 62
7
  6
CONTINUOUS
 10
44.8937940834
 20
-29.5086358613
 11
44.9265468627
 21
-29.4758830819
  0
LINE
  5
2F5
100
AcDbEntity
  8
CURVE
100
AcDbLine
 62
7
  6
CONTINUOUS
 10
44.897672089
 20
-29.7147685697
 11
44.9133902338
 21
-29.6990504249
  0
LINE
  5
2F6
100
AcDbEntity
  8
CURVE
100
AcDbLine
 62
7
  6
CONTINUOUS
 10
44.8585013444
 20
-29.7539393143
 11
44.8735419943
 21
-29.7388986643
  0
LINE
  5
2F7
100
AcDbEntity
  8
CURVE
100
AcDbLine
 62
7
  6
CONTINUOUS
 10
44.8582723297
 20
-29.964179043
 11
44.8733856957
 21
-29.949065677
  0
LINE
  5
2F8
100
AcDbEntity
  8
CURVE
100
AcDbLine
 62
7
  6
CONTINUOUS
 10
44.8980744759
 20
-29.9243768968
 11
44.9123622001
 21
-29.9100891726
  0
LINE
  5
2F9
100
AcDbEntity
  8
CURVE
100
AcDbLine
 62
7
  6
CONTINUOUS
 10
44.8585075223
 20
-30.1739545644
 11
44.9236002895
 21
-30.1088617972
  0
LINE
  5
2FA
100
AcDbEntity
  8
CURVE
100
AcDbLine
 62
7
  6
CONTINUOUS
 10
44.8591792101
 20
-30.3832935907
 11
44.9465029266
 21
-30.2959698741
  0
LINE
  5
2FB
100
AcDbEntity
  8
CURVE
100
AcDbLine
 62
7
  6
CONTINUOUS
 10
44.8601085038
 20
-30.5923750109
 11
44.9465029266
 21
-30.5059805881
  0
LINE
  5
2FC
100
AcDbEntity
  8
CURVE
100
AcDbLine
 62
7
  6
CONTINUOUS
 10
44.9279930241
 20
-30.9445119186
 11
44.946502926
 21
-30.9260020167
  0
LINE
  5
2FD
100
AcDbEntity
  8
CURVE
100
AcDbLine
 62
7
  6
CONTINUOUS
 10
44.9010397833
 20
-31.1814758735
 11
44.946502926
 21
-31.1360127307
  0
LINE
  5
2FE
100
AcDbEntity
  8
CURVE
100
AcDbLine
 62
7
  6
CONTINUOUS
 10
44.8740865424
 20
-31.4184398284
 11
44.9443884808
 21
-31.34813789
  0
LINE
  5
2FF
100
AcDbEntity
  8
CURVE
100
AcDbLine
 62
7
  6
CONTINUOUS
 10
44.9156103103
 20
-31.5869267745
 11
44.9290868208
 21
-31.573450264
  0
LINE
  5
300
100
AcDbEntity
  8
CURVE
100
AcDbLine
 62
7
  6
CONTINUOUS
 10
44.8592633977
 20
-31.6432736871
 11
44.9131519841
 21
-31.5893851007
  0
LINE
  5
301
100
AcDbEntity
  8
CURVE
100
AcDbLine
 62
7
  6
CONTINUOUS
 10
44.9156103103
 20
-31.7969374885
 11
44.9290868208
 21
-31.783460978
  0
LINE
  5
302
100
AcDbEntity
  8
CURVE
100
AcDbLine
 62
7
  6
CONTINUOUS
 10
44.8592633977
 20
-31.8532844011
 11
44.8852693505
 21
-31.8272784483
  0
LINE
  5
303
100
AcDbEntity
  8
CURVE
100
AcDbLine
 62
7
  6
CONTINUOUS
 10
44.9156103103
 20
-32.0069482025
 11
44.9290868208
 21
-31.993471692
  0
LINE
  5
304
100
AcDbEntity
  8
CURVE
100
AcDbLine
 62
7
  6
CONTINUOUS
 10
44.8602409191
 20
-32.0623175937
 11
44.9085397159
 21
-32.0140187969
  0
LINE
  5
305
100
AcDbEntity
  8
CURVE
100
AcDbLine
 62
7
  6
CONTINUOUS
 10
44.8812680155
 20
-32.2513012113
 11
44.9318911537
 21
-32.2006780732
  0
LINE
  5
306
100
AcDbEntity
  8
CURVE
100
AcDbLine
 62
7
  6
CONTINUOUS
 10
44.902295112
 20
-32.4402848289
 11
44.946502926
 21
-32.3960770148
  0
LINE
  5
307
100
AcDbEntity
  8
CURVE
100
AcDbLine
 62
7
  6
CONTINUOUS
 10
44.9233222084
 20
-32.6292684465
 11
44.946502926
 21
-32.6060877288
  0
LINE
  5
308
100
AcDbEntity
  8
CURVE
100
AcDbLine
 62
7
  6
CONTINUOUS
 10
44.9443493048
 20
-32.8182520641
 11
44.946502926
 21
-32.8160984428
  0
LINE
  5
309
100
AcDbEntity
  8
CURVE
100
AcDbLine
 62
7
  6
CONTINUOUS
 10
44.8830500987
 20
-33.0895619841
 11
44.946502926
 21
-33.0261091569
  0
LINE
  5
30A
100
AcDbEntity
  8
CURVE
100
AcDbLine
 62
7
  6
CONTINUOUS
 10
44.8592633977
 20
-33.3233593992
 11
44.946502926
 21
-33.2361198709
  0
LINE
  5
30B
100
AcDbEntity
  8
CURVE
100
AcDbLine
 62
7
  6
CONTINUOUS
 10
44.8592633977
 20
-33.5333701132
 11
44.928369698
 21
-33.4642638129
  0
LINE
  5
30C
100
AcDbEntity
  8
CURVE
100
AcDbLine
 62
7
  6
CONTINUOUS
 10
44.8655337943
 20
-33.7371104306
 11
44.9044915983
 21
-33.6981526266
  0
LINE
  5
30D
100
AcDbEntity
  8
0
100
AcDbLine
 62
7
  6
CONTINUOUS
 10
43.8199854699
 20
-44.7906993223
 11
43.8055596544
 21
-44.8061684565
  0
LINE
  5
30E
100
AcDbEntity
  8
ASSI
100
AcDbLine
 62
7
  6
CONTINUOUS
 10
43.8199854699
 20
-44.7906993223
 11
43.8055596544
 21
-44.8061684565
  0
LINE
  5
30F
100
AcDbEntity
  8
CURVE
100
AcDbLine
 62
7
  6
CONTINUOUS
 10
44.8833722623
 20
-33.9292826766
 11
44.9220855405
 21
-33.8905693984
  0
LINE
  5
310
100
AcDbEntity
  8
CURVE
100
AcDbLine
 62
7
  6
CONTINUOUS
 10
44.9012107303
 20
-34.1214549227
 11
44.9396794827
 21
-34.0829861703
  0
LINE
  5
311
100
AcDbEntity
  8
CURVE
100
AcDbLine
 62
7
  6
CONTINUOUS
 10
44.8938650601
 20
-34.3388113068
 11
44.9408202634
 21
-34.2918561035
  0
LINE
  5
312
100
AcDbEntity
  8
CURVE
100
AcDbLine
 62
7
  6
CONTINUOUS
 10
44.8721228673
 20
-34.5705642136
 11
44.9192707776
 21
-34.5234163034
  0
LINE
  5
313
100
AcDbEntity
  8
CURVE
100
AcDbLine
 62
7
  6
CONTINUOUS
 10
44.8592633977
 20
-34.7934343972
 11
44.8977212918
 21
-34.7549765032
  0
LINE
  5
314
100
AcDbEntity
  8
CURVE
100
AcDbLine
 62
7
  6
CONTINUOUS
 10
44.8592633977
 20
-35.0034451113
 11
44.9332947777
 21
-34.9294137313
  0
LINE
  5
315
100
AcDbEntity
  8
CURVE
100
AcDbLine
 62
7
  6
CONTINUOUS
 10
44.8592633977
 20
-35.2134558253
 11
44.946502926
 21
-35.126216297
  0
LINE
  5
316
100
AcDbEntity
  8
CURVE
100
AcDbLine
 62
7
  6
CONTINUOUS
 10
44.9134747263
 20
-35.3692552108
 11
44.946502926
 21
-35.336227011
  0
LINE
  5
317
100
AcDbEntity
  8
CURVE
100
AcDbLine
 62
7
  6
CONTINUOUS
 10
44.8592581977
 20
-35.8434931673
 11
44.946502926
 21
-35.756248439
  0
LINE
  5
318
100
AcDbEntity
  8
CURVE
100
AcDbLine
 62
7
  6
CONTINUOUS
 10
44.8592581977
 20
-36.0535038813
 11
44.946502926
 21
-35.966259153
  0
LINE
  5
319
100
AcDbEntity
  8
CURVE
100
AcDbLine
 62
7
  6
CONTINUOUS
 10
44.8653747931
 20
-36.257398
 11
44.946502926
 21
-36.176269867
  0
LINE
  5
31A
100
AcDbEntity
  8
CURVE
100
AcDbLine
 62
7
  6
CONTINUOUS
 10
44.8592633977
 20
-36.4735201093
 11
44.861465369
 21
-36.4713181381
  0
LINE
  5
31B
100
AcDbEntity
  8
CURVE
100
AcDbLine
 62
7
  6
CONTINUOUS
 10
44.8592633977
 20
-36.6835308234
 11
44.8820335896
 21
-36.6607606315
  0
LINE
  5
31C
100
AcDbEntity
  8
CURVE
100
AcDbLine
 62
7
  6
CONTINUOUS
 10
44.8592633977
 20
-36.8935415374
 11
44.9026018102
 21
-36.850203125
  0
LINE
  5
31D
100
AcDbEntity
  8
CURVE
100
AcDbLine
 62
7
  6
CONTINUOUS
 10
44.8735462091
 20
-37.0892694401
 11
44.9231700307
 21
-37.0396456184
  0
LINE
  5
31E
100
AcDbEntity
  8
CURVE
100
AcDbLine
 62
7
  6
CONTINUOUS
 10
44.8964296431
 20
-37.27639672
 11
44.9437382513
 21
-37.2290881118
  0
LINE
  5
31F
100
AcDbEntity
  8
CURVE
100
AcDbLine
 62
7
  6
CONTINUOUS
 10
44.9193130771
 20
-37.463524
 11
44.946502926
 21
-37.4363341511
  0
LINE
  5
320
100
AcDbEntity
  8
CURVE
100
AcDbLine
 62
7
  6
CONTINUOUS
 10
44.8890304075
 20
-37.7038173836
 11
44.946502926
 21
-37.6463448651
  0
LINE
  5
321
100
AcDbEntity
  8
CURVE
100
AcDbLine
 62
7
  6
CONTINUOUS
 10
44.8592633977
 20
-37.9435951074
 11
44.9289401627
 21
-37.8739183425
  0
LINE
  5
322
100
AcDbEntity
  8
CURVE
100
AcDbLine
 62
7
  6
CONTINUOUS
 10
44.8592633977
 20
-38.1536058214
 11
44.902960903
 21
-38.1099083161
  0
LINE
  5
323
100
AcDbEntity
  8
CURVE
100
AcDbLine
 62
7
  6
CONTINUOUS
 10
44.8592633977
 20
-38.3636165355
 11
44.8769816434
 21
-38.3458982898
  0
LINE
  5
324
100
AcDbEntity
  8
0
100
AcDbLine
 62
7
  6
CONTINUOUS
 10
43.3767374102
 20
-43.7712689598
 11
43.7712689598
 21
-43.3767374102
  0
LINE
  5
325
100
AcDbEntity
  8
ASSI
100
AcDbLine
 62
7
  6
CONTINUOUS
 10
43.3767374102
 20
-43.7712689598
 11
43.7712689598
 21
-43.3767374102
  0
LINE
  5
326
100
AcDbEntity
  8
0
100
AcDbLine
 62
7
  6
CONTINUOUS
 10
43.8199854699
 20
-44.7906993223
 11
44.7906993223
 21
-43.8199854699
  0
LINE
  5
327
100
AcDbEntity
  8
ASSI
100
AcDbLine
 62
7
  6
CONTINUOUS
 10
43.8199854699
 20
-44.7906993223
 11
44.7906993223
 21
-43.8199854699
  0
LINE
  5
328
100
AcDbEntity
  8
0
100
AcDbLine
 62
7
  6
CONTINUOUS
 10
45.0
 20
-43.9993911979
 11
43.9993911979
 21
-45.0
  0
LINE
  5
329
100
AcDbEntity
  8
ASSI
100
AcDbLine
 62
7
  6
CONTINUOUS
 10
45.0
 20
-43.9993911979
 11
43.9993911979
 21
-45.0
  0
LINE
  5
32A
100
AcDbEntity
  8
0
100
AcDbLine
 62
7
  6
CONTINUOUS
 10
44.8061684565
 20
-43.8055596544
 11
44.7906993223
 21
-43.8199854699
  0
LINE
  5
32B
100
AcDbEntity
  8
ASSI
100
AcDbLine
 62
7
  6
CONTINUOUS
 10
44.8061684565
 20
-43.8055596544
 11
44.7906993223
 21
-43.8199854699
  0
LINE
  5
32C
100
AcDbEntity
  8
0
100
AcDbLine
 62
7
  6
CONTINUOUS
 10
44.7906993223
 20
43.8199854699
 11
44.8061684565
 21
43.8055596544
  0
LINE
  5
32D
100
AcDbEntity
  8
ASSI
100
AcDbLine
 62
7
  6
CONTINUOUS
 10
44.7906993223
 20
43.8199854699
 11
44.8061684565
 21
43.8055596544
  0
LINE
  5
32E
100
AcDbEntity
  8
0
100
AcDbLine
 62
7
  6
CONTINUOUS
 10
43.7712689598
 20
43.3767374102
 11
43.3767374102
 21
43.7712689598
  0
LINE
  5
32F
100
AcDbEntity
  8
ASSI
100
AcDbLine
 62
7
  6
CONTINUOUS
 10
43.7712689598
 20
43.3767374102
 11
43.3767374102
 21
43.7712689598
  0
LINE
  5
330
100
AcDbEntity
  8
0
100
AcDbLine
 62
7
  6
CONTINUOUS
 10
44.7906993223
 20
43.8199854699
 11
43.8199854699
 21
44.7906993223
  0
LINE
  5
331
100
AcDbEntity
  8
ASSI
100
AcDbLine
 62
7
  6
CONTINUOUS
 10
44.7906993223
 20
43.8199854699
 11
43.8199854699
 21
44.7906993223
  0
LINE
  5
332
100
AcDbEntity
  8
0
100
AcDbLine
 62
7
  6
CONTINUOUS
 10
43.9993911979
 20
45.0
 11
45.0
 21
43.9993911979
  0
LINE
  5
333
100
AcDbEntity
  8
ASSI
100
AcDbLine
 62
7
  6
CONTINUOUS
 10
43.9993911979
 20
45.0
 11
45.0
 21
43.9993911979
  0
LINE
  5
334
100
AcDbEntity
  8
0
100
AcDbLine
 62
7
  6
CONTINUOUS
 10
43.8055596544
 20
44.8061684565
 11
43.8199854699
 21
44.7906993223
  0
LINE
  5
335
100
AcDbEntity
  8
ASSI
100
AcDbLine
 62
7
  6
CONTINUOUS
 10
43.8055596544
 20
44.8061684565
 11
43.8199854699
 21
44.7906993223
  0
LWPOLYLINE
  5
336
100
AcDbEntity
  8
0
100
AcDbPolyline
 62
7
  6
CONTINUOUS
 90
3
 70
0
 43
0.3500000006
 10
-96.08761203
 20
66.6188136292
 10
-95.2304740906
 20
67.4759515686
 10
-95.2304740906
 20
64.4759506531
  0
LWPOLYLINE
  5
337
100
AcDbEntity
  8
0
100
AcDbPolyline
 62
7
  6
CONTINUOUS
 90
3
 70
0
 43
0.3500000006
 10
-90.3019037476
 20
66.6188136292
 10
-89.4447567444
 20
67.4759515686
 10
-89.4447567444
 20
64.4759506531
  0
LWPOLYLINE
  5
338
100
AcDbEntity
  8
0
100
AcDbPolyline
 62
7
  6
CONTINUOUS
 90
3
 70
0
 43
0.3500000006
 10
-90.4102424011
 20
58.0988436584
 10
-89.5531044617
 20
58.9559906616
 10
-89.5531044617
 20
55.9559897461
  0
LINE
  5
339
100
AcDbEntity
  8
0
100
AcDbLine
 62
7
  6
CONTINUOUS
 10
-83.9720285853
 20
-44.8061684565
 11
-78.4214194123
 21
-45.0
  0
LINE
  5
33A
100
AcDbEntity
  8
ASSI
100
AcDbLine
 62
7
  6
CONTINUOUS
 10
-83.9720285853
 20
-44.8061684565
 11
-78.4214194123
 21
-45.0
  0
LINE
  5
33B
100
AcDbEntity
  8
0
100
AcDbLine
 62
7
  6
CONTINUOUS
 10
-83.9720285853
 20
-43.8055596544
 11
-78.4214194123
 21
-43.9993911979
  0
LINE
  5
33C
100
AcDbEntity
  8
ASSI
100
AcDbLine
 62
7
  6
CONTINUOUS
 10
-83.9720285853
 20
-43.8055596544
 11
-78.4214194123
 21
-43.9993911979
  0
LINE
  5
33D
100
AcDbEntity
  8
0
100
AcDbLine
 62
7
  6
CONTINUOUS
 10
-78.4214194123
 20
-42.7580439128
 11
-77.8214194123
 21
-42.8
  0
LINE
  5
33E
100
AcDbEntity
  8
0
100
AcDbLine
 62
7
  6
CONTINUOUS
 10
-84.9714194123
 20
43.3767374102
 11
-83.9869669545
 21
43.8199854699
  0
LINE
  5
33F
100
AcDbEntity
  8
ASSI
100
AcDbLine
 62
7
  6
CONTINUOUS
 10
-84.9714194123
 20
43.3767374102
 11
-83.9869669545
 21
43.8199854699
  0
LINE
  5
340
100
AcDbEntity
  8
0
100
AcDbLine
 62
250
  6
CONTINUOUS
 10
-78.4214194123
 20
-41.1619414324
 11
-77.8214194123
 21
-41.2038975196
  0
LINE
  5
341
100
AcDbEntity
  8
0
100
AcDbLine
 62
7
  6
CONTINUOUS
 10
-84.9714194123
 20
-43.3767374102
 11
-83.9869669545
 21
-43.8199854699
  0
LINE
  5
342
100
AcDbEntity
  8
ASSI
100
AcDbLine
 62
7
  6
CONTINUOUS
 10
-84.9714194123
 20
-43.3767374102
 11
-83.9869669545
 21
-43.8199854699
  0
LINE
  5
343
100
AcDbEntity
  8
CURVE
100
AcDbLine
 62
250
  6
CONTINUOUS
 10
-82.4515884008
 20
-37.940019
 11
-80.7319905719
 21
-37.463524
  0
LINE
  5
344
100
AcDbEntity
  8
CURVE
100
AcDbLine
 62
250
  6
CONTINUOUS
 10
-82.45173731
 20
-36.257398
 11
-79.9533751724
 21
-36.257398
  0
LINE
  5
345
100
AcDbEntity
  8
CURVE
100
AcDbLine
 62
250
  6
CONTINUOUS
 10
-80.7319905719
 20
-37.463524
 11
-82.4515884008
 21
-36.972473
  0
LINE
  5
346
100
AcDbEntity
  8
0
100
AcDbLine
 62
7
  6
CONTINUOUS
 10
-83.9720285853
 20
44.8061684565
 11
-84.9714194123
 21
43.7712689598
  0
LINE
  5
347
100
AcDbEntity
  8
ASSI
100
AcDbLine
 62
7
  6
CONTINUOUS
 10
-83.9720285853
 20
44.8061684565
 11
-84.9714194123
 21
43.7712689598
  0
LINE
  5
348
100
AcDbEntity
  8
CURVE
100
AcDbLine
 62
250
  6
CONTINUOUS
 10
-79.9533751724
 20
-33.429996
 11
-81.5778609764
 21
-33.5372
  0
LINE
  5
349
100
AcDbEntity
  8
CURVE
100
AcDbLine
 62
250
  6
CONTINUOUS
 10
-79.9533751724
 20
-35.735605
 11
-82.45173731
 21
-35.735605
  0
LINE
  5
34A
100
AcDbEntity
  8
CURVE
100
AcDbLine
 62
250
  6
CONTINUOUS
 10
-81.5846608316
 20
-34.842919
 11
-79.9533751724
 21
-34.955522
  0
LINE
  5
34B
100
AcDbEntity
  8
CURVE
100
AcDbLine
 62
250
  6
CONTINUOUS
 10
-79.9533751724
 20
-35.454708
 11
-82.4515884008
 21
-35.228996
  0
LINE
  5
34C
100
AcDbEntity
  8
CURVE
100
AcDbLine
 62
250
  6
CONTINUOUS
 10
-82.4515884008
 20
-36.451037
 11
-79.9533751724
 21
-37.254552
  0
LINE
  5
34D
100
AcDbEntity
  8
0
100
AcDbLine
 62
7
  6
CONTINUOUS
 10
-84.9714194123
 20
-43.7712689598
 11
-83.9720285853
 21
-44.8061684565
  0
LINE
  5
34E
100
AcDbEntity
  8
ASSI
100
AcDbLine
 62
7
  6
CONTINUOUS
 10
-84.9714194123
 20
-43.7712689598
 11
-83.9720285853
 21
-44.8061684565
  0
LWPOLYLINE
  5
34F
100
AcDbEntity
  8
0
100
AcDbPolyline
 62
7
  6
CONTINUOUS
 90
3
 70
0
 43
0.3500000006
 10
-91.301894989
 20
64.7616663208
 10
-91.3733261719
 20
64.5473818359
 10
-91.5161885376
 20
64.2616661682
  0
LINE
  5
350
100
AcDbEntity
  8
CURVE
100
AcDbLine
 62
250
  6
CONTINUOUS
 10
-79.9533751724
 20
-31.331727
 11
-80.4521071732
 21
-31.466899
  0
LINE
  5
351
100
AcDbEntity
  8
CURVE
100
AcDbLine
 62
250
  6
CONTINUOUS
 10
-80.8380239398
 20
-31.571179
 11
-81.7651428198
 21
-31.81095
  0
LINE
  5
352
100
AcDbEntity
  8
CURVE
100
AcDbLine
 62
250
  6
CONTINUOUS
 10
-82.4515884008
 20
-33.153297
 11
-79.9533751724
 21
-32.919544
  0
LINE
  5
353
100
AcDbEntity
  8
CURVE
100
AcDbLine
 62
250
  6
CONTINUOUS
 10
-82.4224005447
 20
-30.6285551388
 11
-79.953375156
 21
-30.6285551388
  0
LINE
  5
354
100
AcDbEntity
  8
CURVE
100
AcDbLine
 62
250
  6
CONTINUOUS
 10
-81.3401845376
 20
-30.126163664
 11
-82.0259926595
 21
-30.126163664
  0
LINE
  5
355
100
AcDbEntity
  8
CURVE
100
AcDbLine
 62
250
  6
CONTINUOUS
 10
-79.953375156
 20
-30.1088617972
 11
-80.9310376466
 21
-30.1088617972
  0
LINE
  5
356
100
AcDbEntity
  8
CURVE
100
AcDbLine
 62
250
  6
CONTINUOUS
 10
-81.7651428198
 20
-31.81095
 11
-80.8380239398
 21
-32.070759
  0
LINE
  5
357
100
AcDbEntity
  8
CURVE
100
AcDbLine
 62
250
  6
CONTINUOUS
 10
-80.4521071732
 20
-32.177494
 11
-79.9533751724
 21
-32.321477
  0
LINE
  5
358
100
AcDbEntity
  8
CURVE
100
AcDbLine
 62
250
  6
CONTINUOUS
 10
-79.9533751724
 20
-32.837608
 11
-82.4515884008
 21
-32.053532
  0
LINE
  5
359
100
AcDbEntity
  8
CURVE
100
AcDbLine
 62
250
  6
CONTINUOUS
 10
-81.0645728482
 20
-34.191353
 11
-82.4515884008
 21
-33.66956
  0
LINE
  5
35A
100
AcDbEntity
  8
CURVE
100
AcDbLine
 62
250
  6
CONTINUOUS
 10
-81.5778609764
 20
-33.5372
 11
-79.9533751724
 21
-34.157611
  0
LWPOLYLINE
  5
35B
100
AcDbEntity
  8
0
100
AcDbPolyline
 62
7
  6
CONTINUOUS
 90
3
 70
0
 43
0.3500000006
 10
-91.4102427063
 20
56.2417054138
 10
-91.4816738892
 20
56.0274118652
 10
-91.6245271912
 20
55.7417052612
  0
LINE
  5
35C
100
AcDbEntity
  8
0
100
AcDbLine
 62
7
  6
CONTINUOUS
 10
-76.8955822613
 20
-27.1501294387
 11
-77.8214194123
 21
-27.151745331
  0
LINE
  5
35D
100
AcDbEntity
  8
0
100
AcDbLine
 62
250
  6
CONTINUOUS
 10
-76.8956468285
 20
-26.9276792439
 11
-77.8214194123
 21
-26.9280974384
  0
LINE
  5
35E
100
AcDbEntity
  8
CURVE
100
AcDbLine
 62
250
  6
CONTINUOUS
 10
-81.1195187304
 20
-29.2870512436
 11
-81.13428099
 21
-29.2870512436
  0
LWPOLYLINE
  5
35F
100
AcDbEntity
  8
0
100
AcDbPolyline
 62
7
  6
CONTINUOUS
 90
15
 70
0
 10
-75.9444761579
 20
-26.5709140641
 10
-75.9206635921
 20
-26.5706580512
 10
-75.892286233
 20
-26.5697371415
 10
-75.8644158958
 20
-26.5681832496
 10
-75.8372076804
 20
-26.5660315132
 10
-75.8105768857
 20
-26.5632745534
 10
-75.7845837146
 20
-26.5599118309
 10
-75.7595280802
 20
-26.5559592401
 10
-75.735384798
 20
-26.5513857937
 10
-75.7120360864
 20
-26.5461167249
 10
-75.6894181185
 20
-26.5400260439
 10
-75.6669972972
 20
-26.5328245389
 10
-75.6449348911
 20
-26.5242563298
 10
-75.6240741606
 20
-26.514411931
 10
-75.6213932924
 20
-26.5130046776
  0
LINE
  5
360
100
AcDbEntity
  8
0
100
AcDbLine
 62
7
  6
CONTINUOUS
 10
-77.8214194123
 20
-26.5723674752
 11
-75.9444762243
 21
-26.5709140684
  0
LINE
  5
361
100
AcDbEntity
  8
0
100
AcDbLine
 62
250
  6
CONTINUOUS
 10
-75.9446311191
 20
-26.5509203682
 11
-77.8214194123
 21
-26.5523835751
  0
LINE
  5
362
100
AcDbEntity
  8
0
100
AcDbLine
 62
7
  6
CONTINUOUS
 10
-76.8712950334
 20
-25.2
 11
-77.8214194123
 21
-25.2
  0
LINE
  5
363
100
AcDbEntity
  8
0
100
AcDbLine
 62
7
  6
CONTINUOUS
 10
-77.8214194123
 20
-25.05
 11
-77.6714194123
 21
-25.05
  0
LINE
  5
364
100
AcDbEntity
  8
0
100
AcDbLine
 62
7
  6
CONTINUOUS
 10
-77.3714194123
 20
-25.05
 11
-77.1714194123
 21
-25.05
  0
LINE
  5
365
100
AcDbEntity
  8
0
100
AcDbLine
 62
7
  6
CONTINUOUS
 10
-77.8214194123
 20
-25.7558198745
 11
-75.010952221
 21
-25.8799866677
  0
LINE
  5
366
100
AcDbEntity
  8
0
100
AcDbLine
 62
7
  6
CONTINUOUS
 10
-74.8214194123
 20
-25.4
 11
-76.7717913144
 21
-25.2049628098
  0
LINE
  5
367
100
AcDbEntity
  8
0
100
AcDbLine
 62
7
  6
CONTINUOUS
 10
-77.6714194123
 20
25.05
 11
-77.5214194123
 21
25.2
  0
LINE
  5
368
100
AcDbEntity
  8
0
100
AcDbLine
 62
7
  6
CONTINUOUS
 10
-77.1714194123
 20
25.05
 11
-77.0214194123
 21
25.2
  0
LINE
  5
369
100
AcDbEntity
  8
0
100
AcDbLine
 62
7
  6
CONTINUOUS
 10
-77.6714194123
 20
-25.05
 11
-77.5214194123
 21
-25.2
  0
LINE
  5
36A
100
AcDbEntity
  8
0
100
AcDbLine
 62
7
  6
CONTINUOUS
 10
-77.1714194123
 20
-25.05
 11
-77.0214194123
 21
-25.2
  0
LWPOLYLINE
  5
36B
100
AcDbEntity
  8
0
100
AcDbPolyline
 62
7
  6
CONTINUOUS
 90
4
 70
0
 43
0.3500000006
 10
-94.4816748047
 20
58.3131281433
 10
-94.4816748047
 20
58.9559906616
 10
-92.9816743469
 20
58.9559906616
 10
-93.8388122864
 20
55.9559897461
  0
LWPOLYLINE
  5
36C
100
AcDbEntity
  8
0
100
AcDbPolyline
 62
7
  6
CONTINUOUS
 90
13
 70
0
 43
0.3500000006
 10
-94.3733270874
 20
65.3330976563
 10
-94.3733270874
 20
66.6188136292
 10
-94.1590426025
 20
67.0473825989
 10
-93.7304736328
 20
67.4759515686
 10
-93.5161891479
 20
67.4759515686
 10
-93.0876111145
 20
67.0473825989
 10
-92.8733266296
 20
66.6188136292
 10
-92.8733266296
 20
65.3330976563
 10
-93.0876111145
 20
64.9045286865
 10
-93.5161891479
 20
64.4759506531
 10
-93.7304736328
 20
64.4759506531
 10
-94.1590426025
 20
64.9045286865
 10
-94.3733270874
 20
65.3330976563
  0
LINE
  5
36D
100
AcDbEntity
  8
0
100
AcDbLine
 62
7
  6
CONTINUOUS
 10
-84.9714194123
 20
-43.7712689598
 11
-84.9714194123
 21
43.7712689598
  0
LINE
  5
36E
100
AcDbEntity
  8
ASSI
100
AcDbLine
 62
7
  6
CONTINUOUS
 10
-84.9714194123
 20
-43.7712689598
 11
-84.9714194123
 21
43.7712689598
  0
LINE
  5
36F
100
AcDbEntity
  8
0
100
AcDbLine
 62
7
  6
CONTINUOUS
 10
-83.9869669545
 20
-44.7906993223
 11
-83.9869669545
 21
-43.8199854699
  0
LINE
  5
370
100
AcDbEntity
  8
ASSI
100
AcDbLine
 62
7
  6
CONTINUOUS
 10
-83.9869669545
 20
-44.7906993223
 11
-83.9869669545
 21
-43.8199854699
  0
LINE
  5
371
100
AcDbEntity
  8
0
100
AcDbLine
 62
7
  6
CONTINUOUS
 10
-83.9869669545
 20
43.8199854699
 11
-83.9869669545
 21
44.7906993223
  0
LINE
  5
372
100
AcDbEntity
  8
ASSI
100
AcDbLine
 62
7
  6
CONTINUOUS
 10
-83.9869669545
 20
43.8199854699
 11
-83.9869669545
 21
44.7906993223
  0
LINE
  5
373
100
AcDbEntity
  8
0
100
AcDbLine
 62
7
  6
CONTINUOUS
 10
-83.9720285853
 20
-43.8055596544
 11
-83.9720285853
 21
43.8055596544
  0
LINE
  5
374
100
AcDbEntity
  8
ASSI
100
AcDbLine
 62
7
  6
CONTINUOUS
 10
-83.9720285853
 20
-43.8055596544
 11
-83.9720285853
 21
43.8055596544
  0
LINE
  5
375
100
AcDbEntity
  8
CURVE
100
AcDbLine
 62
250
  6
CONTINUOUS
 10
-82.45173731
 20
-35.735605
 11
-82.45173731
 21
-36.257398
  0
LINE
  5
376
100
AcDbEntity
  8
CURVE
100
AcDbLine
 62
250
  6
CONTINUOUS
 10
-82.4515884008
 20
-38.506847
 11
-82.4515884008
 21
-37.940019
  0
LINE
  5
377
100
AcDbEntity
  8
CURVE
100
AcDbLine
 62
250
  6
CONTINUOUS
 10
-82.4515884008
 20
-36.972473
 11
-82.4515884008
 21
-36.451037
  0
LINE
  5
378
100
AcDbEntity
  8
CURVE
100
AcDbLine
 62
250
  6
CONTINUOUS
 10
-82.4515884008
 20
-35.228996
 11
-82.4515884008
 21
-34.707635
  0
LINE
  5
379
100
AcDbEntity
  8
CURVE
100
AcDbLine
 62
250
  6
CONTINUOUS
 10
-82.4515884008
 20
-33.66956
 11
-82.4515884008
 21
-33.153297
  0
LINE
  5
37A
100
AcDbEntity
  8
CURVE
100
AcDbLine
 62
250
  6
CONTINUOUS
 10
-82.4515884008
 20
-32.053532
 11
-82.4515884008
 21
-31.54876
  0
LINE
  5
37B
100
AcDbEntity
  8
CURVE
100
AcDbLine
 62
250
  6
CONTINUOUS
 10
-81.3401845376
 20
-29.8279642095
 11
-81.3401845376
 21
-30.126163664
  0
LINE
  5
37C
100
AcDbEntity
  8
CURVE
100
AcDbLine
 62
250
  6
CONTINUOUS
 10
-80.9310376466
 20
-30.1088617972
 11
-80.9310376466
 21
-29.8290889245
  0
LINE
  5
37D
100
AcDbEntity
  8
CURVE
100
AcDbLine
 62
250
  6
CONTINUOUS
 10
-80.8380239398
 20
-32.070759
 11
-80.8380239398
 21
-31.571179
  0
LINE
  5
37E
100
AcDbEntity
  8
CURVE
100
AcDbLine
 62
250
  6
CONTINUOUS
 10
-80.4521071732
 20
-31.466899
 11
-80.4521071732
 21
-32.177494
  0
LINE
  5
37F
100
AcDbEntity
  8
CURVE
100
AcDbLine
 62
250
  6
CONTINUOUS
 10
-79.9533751724
 20
-36.257398
 11
-79.9533751724
 21
-35.735605
  0
LINE
  5
380
100
AcDbEntity
  8
CURVE
100
AcDbLine
 62
250
  6
CONTINUOUS
 10
-79.9533751724
 20
-30.781779
 11
-79.9533751724
 21
-31.331727
  0
LINE
  5
381
100
AcDbEntity
  8
CURVE
100
AcDbLine
 62
250
  6
CONTINUOUS
 10
-79.9533751724
 20
-32.321477
 11
-79.9533751724
 21
-32.837608
  0
LINE
  5
382
100
AcDbEntity
  8
CURVE
100
AcDbLine
 62
250
  6
CONTINUOUS
 10
-79.9533751724
 20
-32.919544
 11
-79.9533751724
 21
-33.429996
  0
LINE
  5
383
100
AcDbEntity
  8
CURVE
100
AcDbLine
 62
250
  6
CONTINUOUS
 10
-79.9533751724
 20
-34.157611
 11
-79.9533751724
 21
-34.230793
  0
LINE
  5
384
100
AcDbEntity
  8
CURVE
100
AcDbLine
 62
250
  6
CONTINUOUS
 10
-79.9533751724
 20
-34.955522
 11
-79.9533751724
 21
-35.454708
  0
LINE
  5
385
100
AcDbEntity
  8
CURVE
100
AcDbLine
 62
250
  6
CONTINUOUS
 10
-79.9533751724
 20
-37.254552
 11
-79.9533751724
 21
-37.714382
  0
LINE
  5
386
100
AcDbEntity
  8
CURVE
100
AcDbLine
 62
250
  6
CONTINUOUS
 10
-79.953375156
 20
-30.6285551388
 11
-79.953375156
 21
-30.1088617972
  0
LINE
  5
387
100
AcDbEntity
  8
CURVE
100
AcDbLine
 62
250
  6
CONTINUOUS
 10
-79.953375156
 20
-29.3098079785
 11
-79.953375156
 21
-28.8079038802
  0
LINE
  5
388
100
AcDbEntity
  8
0
100
AcDbLine
 62
250
  6
CONTINUOUS
 10
-76.8955823324
 20
-27.1500750748
 11
-76.8956468285
 21
-26.9276792439
  0
LINE
  5
389
100
AcDbEntity
  8
0
100
AcDbLine
 62
7
  6
CONTINUOUS
 10
-78.4214194123
 20
-45.0
 11
-78.4214194123
 21
45.0
  0
LINE
  5
38A
100
AcDbEntity
  8
ASSI
100
AcDbLine
 62
7
  6
CONTINUOUS
 10
-78.4214194123
 20
-45.0
 11
-78.4214194123
 21
45.0
  0
LINE
  5
38B
100
AcDbEntity
  8
0
100
AcDbLine
 62
7
  6
CONTINUOUS
 10
-77.8214194123
 20
-42.8
 11
-77.8214194123
 21
42.8
  0
LINE
  5
38C
100
AcDbEntity
  8
0
100
AcDbLine
 62
250
  6
CONTINUOUS
 10
-76.8956468285
 20
26.9276792439
 11
-76.8955823638
 21
27.1501232518
  0
LINE
  5
38D
100
AcDbEntity
  8
0
100
AcDbLine
 62
250
  6
CONTINUOUS
 10
-75.010952221
 20
25.8162101919
 11
-75.010952221
 21
25.3810467191
  0
LINE
  5
38E
100
AcDbEntity
  8
0
100
AcDbLine
 62
250
  6
CONTINUOUS
 10
-75.010952221
 20
-25.3810467191
 11
-75.010952221
 21
-25.8799866677
  0
LINE
  5
38F
100
AcDbEntity
  8
0
100
AcDbLine
 62
7
  6
CONTINUOUS
 10
-74.8214194123
 20
26.0883643404
 11
-74.8214194123
 21
25.4
  0
LINE
  5
390
100
AcDbEntity
  8
0
100
AcDbLine
 62
7
  6
CONTINUOUS
 10
-74.8214194123
 20
-25.4
 11
-74.8214194123
 21
-26.0883643404
  0
LWPOLYLINE
  5
391
100
AcDbEntity
  8
0
100
AcDbPolyline
 62
7
  6
CONTINUOUS
 90
10
 70
0
 43
0.3500000006
 10
-91.4816738892
 20
56.4559898987
 10
-91.4102427063
 20
56.313127533
 10
-91.4102427063
 20
56.2417054138
 10
-91.553105072
 20
56.0988430481
 10
-91.6245271912
 20
56.0988430481
 10
-91.695958374
 20
56.170274231
 10
-91.695958374
 20
56.2417054138
 10
-91.6245271912
 20
56.3845587158
 10
-91.553105072
 20
56.4559898987
 10
-91.4816738892
 20
56.4559898987
  0
LINE
  5
392
100
AcDbEntity
  8
CURVE
100
AcDbLine
 62
7
  6
CONTINUOUS
 10
-82.443261427
 20
-29.5143020106
 11
-81.8709612227
 21
-28.9420018063
  0
LINE
  5
393
100
AcDbEntity
  8
CURVE
100
AcDbLine
 62
7
  6
CONTINUOUS
 10
-82.4734415491
 20
-29.7544928467
 11
-81.6579371808
 21
-28.9389884784
  0
LINE
  5
394
100
AcDbEntity
  8
CURVE
100
AcDbLine
 62
7
  6
CONTINUOUS
 10
-82.4799791845
 20
-29.9710411961
 11
-81.4878884762
 21
-28.9789504878
  0
LINE
  5
395
100
AcDbEntity
  8
0
100
AcDbLine
 62
7
  6
CONTINUOUS
 10
-77.5214194123
 20
-25.2
 11
-77.3714194123
 21
-25.05
  0
LINE
  5
396
100
AcDbEntity
  8
CURVE
100
AcDbLine
 62
7
  6
CONTINUOUS
 10
-82.473210076
 20
-30.1742828016
 11
-82.0432039173
 21
-29.7442766429
  0
LINE
  5
397
100
AcDbEntity
  8
CURVE
100
AcDbLine
 62
7
  6
CONTINUOUS
 10
-81.7217145354
 20
-29.422787261
 11
-81.3475978707
 21
-29.0486705963
  0
LINE
  5
398
100
AcDbEntity
  8
CURVE
100
AcDbLine
 62
7
  6
CONTINUOUS
 10
-82.4558690838
 20
-30.3669525234
 11
-82.0467679242
 21
-29.9578513638
  0
LINE
  5
399
100
AcDbEntity
  8
CURVE
100
AcDbLine
 62
7
  6
CONTINUOUS
 10
-81.5471863083
 20
-29.458269748
 11
-81.2341671256
 21
-29.1452505652
  0
LINE
  5
39A
100
AcDbEntity
  8
CURVE
100
AcDbLine
 62
7
  6
CONTINUOUS
 10
-82.432705129
 20
-30.5537992826
 11
-82.0050695104
 21
-30.126163664
  0
LINE
  5
39B
100
AcDbEntity
  8
CURVE
100
AcDbLine
 62
7
  6
CONTINUOUS
 10
-81.424722101
 20
-29.5458162547
 11
-81.1415286
 21
-29.2626227537
  0
LINE
  5
39C
100
AcDbEntity
  8
CURVE
100
AcDbLine
 62
7
  6
CONTINUOUS
 10
-82.2974502712
 20
-30.6285551388
 11
-81.7950587964
 21
-30.126163664
  0
LINE
  5
39D
100
AcDbEntity
  8
CURVE
100
AcDbLine
 62
7
  6
CONTINUOUS
 10
-81.3572895572
 20
-29.6883944248
 11
-80.6646997256
 21
-28.9958045932
  0
LINE
  5
39E
100
AcDbEntity
  8
CURVE
100
AcDbLine
 62
7
  6
CONTINUOUS
 10
-82.0874395571
 20
-30.6285551388
 11
-81.5850480823
 21
-30.126163664
  0
LINE
  5
39F
100
AcDbEntity
  8
CURVE
100
AcDbLine
 62
7
  6
CONTINUOUS
 10
-81.3401845376
 20
-29.8813001192
 11
-80.3782820636
 21
-28.9193976453
  0
LINE
  5
3A0
100
AcDbEntity
  8
CURVE
100
AcDbLine
 62
7
  6
CONTINUOUS
 10
-81.8774288431
 20
-30.6285551388
 11
-81.3750373683
 21
-30.126163664
  0
LINE
  5
3A1
100
AcDbEntity
  8
CURVE
100
AcDbLine
 62
7
  6
CONTINUOUS
 10
-81.3401845376
 20
-30.0913108332
 11
-80.0940815096
 21
-28.8452078053
  0
LINE
  5
3A2
100
AcDbEntity
  8
CURVE
100
AcDbLine
 62
7
  6
CONTINUOUS
 10
-81.6674181291
 20
-30.6285551388
 11
-80.9310376466
 21
-29.8921746563
  0
LINE
  5
3A3
100
AcDbEntity
  8
CURVE
100
AcDbLine
 62
7
  6
CONTINUOUS
 10
-80.5101668787
 20
-29.4713038884
 11
-79.953375156
 21
-28.9145121656
  0
LINE
  5
3A4
100
AcDbEntity
  8
CURVE
100
AcDbLine
 62
7
  6
CONTINUOUS
 10
-82.4515884008
 20
-31.6227361245
 11
-82.344838925
 21
-31.5159866487
  0
LINE
  5
3A5
100
AcDbEntity
  8
CURVE
100
AcDbLine
 62
7
  6
CONTINUOUS
 10
-81.4574074151
 20
-30.6285551388
 11
-80.9310376466
 21
-30.1021853703
  0
LINE
  5
3A6
100
AcDbEntity
  8
CURVE
100
AcDbLine
 62
7
  6
CONTINUOUS
 10
-80.2149385103
 20
-29.386086234
 11
-79.953375156
 21
-29.1245228797
  0
LINE
  5
3A7
100
AcDbEntity
  8
CURVE
100
AcDbLine
 62
7
  6
CONTINUOUS
 10
-82.4515884008
 20
-31.8327468385
 11
-82.041787991
 21
-31.4229464287
  0
LINE
  5
3A8
100
AcDbEntity
  8
CURVE
100
AcDbLine
 62
7
  6
CONTINUOUS
 10
-81.2473967011
 20
-30.6285551388
 11
-80.7277033595
 21
-30.1088617972
  0
LINE
  5
3A9
100
AcDbEntity
  8
CURVE
100
AcDbLine
 62
7
  6
CONTINUOUS
 10
-82.4515884008
 20
-32.0427575525
 11
-81.738737057
 21
-31.3299062087
  0
LINE
  5
3AA
100
AcDbEntity
  8
CURVE
100
AcDbLine
 62
7
  6
CONTINUOUS
 10
-81.0373859871
 20
-30.6285551388
 11
-80.5176926455
 21
-30.1088617972
  0
LINE
  5
3AB
100
AcDbEntity
  8
CURVE
100
AcDbLine
 62
7
  6
CONTINUOUS
 10
-82.2999458605
 20
-32.1011257262
 11
-81.4356861229
 21
-31.2368659887
  0
LINE
  5
3AC
100
AcDbEntity
  8
CURVE
100
AcDbLine
 62
7
  6
CONTINUOUS
 10
-80.8273752731
 20
-30.6285551388
 11
-80.3076819315
 21
-30.1088617972
  0
LINE
  5
3AD
100
AcDbEntity
  8
CURVE
100
AcDbLine
 62
7
  6
CONTINUOUS
 10
-82.1401026817
 20
-32.1512932615
 11
-81.1326351889
 21
-31.1438257686
  0
LINE
  5
3AE
100
AcDbEntity
  8
CURVE
100
AcDbLine
 62
7
  6
CONTINUOUS
 10
-80.6173645591
 20
-30.6285551388
 11
-80.0976712175
 21
-30.1088617972
  0
LINE
  5
3AF
100
AcDbEntity
  8
CURVE
100
AcDbLine
 62
7
  6
CONTINUOUS
 10
-81.980259503
 20
-32.2014607967
 11
-81.628141072
 21
-31.8493423657
  0
LINE
  5
3B0
100
AcDbEntity
  8
CURVE
100
AcDbLine
 62
7
  6
CONTINUOUS
 10
-81.5285651001
 20
-31.7497663938
 11
-80.8295842548
 21
-31.0507855486
  0
LINE
  5
3B1
100
AcDbEntity
  8
CURVE
100
AcDbLine
 62
7
  6
CONTINUOUS
 10
-80.407353845
 20
-30.6285551388
 11
-79.953375156
 21
-30.1745764497
  0
LINE
  5
3B2
100
AcDbEntity
  8
CURVE
100
AcDbLine
 62
7
  6
CONTINUOUS
 10
-81.8204163242
 20
-32.251628332
 11
-81.4641000201
 21
-31.8953120278
  0
LINE
  5
3B3
100
AcDbEntity
  8
CURVE
100
AcDbLine
 62
7
  6
CONTINUOUS
 10
-81.2452952979
 20
-31.6765073057
 11
-80.5265333208
 21
-30.9577453286
  0
LINE
  5
3B4
100
AcDbEntity
  8
CURVE
100
AcDbLine
 62
7
  6
CONTINUOUS
 10
-80.197343131
 20
-30.6285551388
 11
-79.953375156
 21
-30.3845871637
  0
LINE
  5
3B5
100
AcDbEntity
  8
0
100
AcDbLine
 62
7
  6
CONTINUOUS
 10
-77.5214194123
 20
25.2
 11
-77.3714194123
 21
25.05
  0
LWPOLYLINE
  5
3B6
100
AcDbEntity
  8
0
100
AcDbPolyline
 62
7
  6
CONTINUOUS
 90
10
 70
0
 43
0.3500000006
 10
-91.3733261719
 20
64.9759508057
 10
-91.301894989
 20
64.8330975037
 10
-91.301894989
 20
64.7616663208
 10
-91.4447573547
 20
64.6188130188
 10
-91.5161885376
 20
64.6188130188
 10
-91.5876106567
 20
64.6902351379
 10
-91.5876106567
 20
64.7616663208
 10
-91.5161885376
 20
64.9045286865
 10
-91.4447573547
 20
64.9759508057
 10
-91.3733261719
 20
64.9759508057
  0
LINE
  5
3B7
100
AcDbEntity
  8
CURVE
100
AcDbLine
 62
7
  6
CONTINUOUS
 10
-81.6605731455
 20
-32.3017958673
 11
-81.3000589682
 21
-31.9412816899
  0
LINE
  5
3B8
100
AcDbEntity
  8
CURVE
100
AcDbLine
 62
7
  6
CONTINUOUS
 10
-80.9620254958
 20
-31.6032482176
 11
-80.2234823868
 21
-30.8647051085
  0
LINE
  5
3B9
100
AcDbEntity
  8
CURVE
100
AcDbLine
 62
7
  6
CONTINUOUS
 10
-79.987332417
 20
-30.6285551388
 11
-79.953375156
 21
-30.5945978777
  0
LINE
  5
3BA
100
AcDbEntity
  8
CURVE
100
AcDbLine
 62
7
  6
CONTINUOUS
 10
-82.4515884008
 20
-33.3028218366
 11
-82.2866285927
 21
-33.1378620285
  0
LINE
  5
3BB
100
AcDbEntity
  8
CURVE
100
AcDbLine
 62
7
  6
CONTINUOUS
 10
-81.5007299667
 20
-32.3519634025
 11
-81.1360179163
 21
-31.9872513521
  0
LINE
  5
3BC
100
AcDbEntity
  8
CURVE
100
AcDbLine
 62
7
  6
CONTINUOUS
 10
-80.8380239398
 20
-31.6892573756
 11
-79.9533751724
 21
-30.8046086082
  0
LINE
  5
3BD
100
AcDbEntity
  8
CURVE
100
AcDbLine
 62
7
  6
CONTINUOUS
 10
-82.4515884008
 20
-33.5128325506
 11
-82.0549391431
 21
-33.1161832929
  0
LINE
  5
3BE
100
AcDbEntity
  8
CURVE
100
AcDbLine
 62
7
  6
CONTINUOUS
 10
-81.340886788
 20
-32.4021309378
 11
-80.9719768644
 21
-32.0332210142
  0
LINE
  5
3BF
100
AcDbEntity
  8
CURVE
100
AcDbLine
 62
7
  6
CONTINUOUS
 10
-80.8380239398
 20
-31.8992680896
 11
-80.4521071732
 21
-31.513351323
  0
LINE
  5
3C0
100
AcDbEntity
  8
CURVE
100
AcDbLine
 62
7
  6
CONTINUOUS
 10
-80.3883838264
 20
-31.4496279763
 11
-79.9533751724
 21
-31.0146193222
  0
LINE
  5
3C1
100
AcDbEntity
  8
CURVE
100
AcDbLine
 62
7
  6
CONTINUOUS
 10
-82.4128706799
 20
-33.6841255438
 11
-81.8232496936
 21
-33.0945045574
  0
LINE
  5
3C2
100
AcDbEntity
  8
CURVE
100
AcDbLine
 62
7
  6
CONTINUOUS
 10
-81.1810436092
 20
-32.452298473
 11
-80.4521071732
 21
-31.723362037
  0
LINE
  5
3C3
100
AcDbEntity
  8
CURVE
100
AcDbLine
 62
7
  6
CONTINUOUS
 10
-80.1002909027
 20
-31.3715457665
 11
-79.9533751724
 21
-31.2246300363
  0
LINE
  5
3C4
100
AcDbEntity
  8
CURVE
100
AcDbLine
 62
7
  6
CONTINUOUS
 10
-82.2602686151
 20
-33.7415341929
 11
-81.591560244
 21
-33.0728258219
  0
LINE
  5
3C5
100
AcDbEntity
  8
CURVE
100
AcDbLine
 62
7
  6
CONTINUOUS
 10
-81.0212004305
 20
-32.5024660083
 11
-80.4521071732
 21
-31.933372751
  0
LINE
  5
3C6
100
AcDbEntity
  8
CURVE
100
AcDbLine
 62
7
  6
CONTINUOUS
 10
-82.1076665502
 20
-33.7989428421
 11
-81.3598707945
 21
-33.0511470863
  0
LINE
  5
3C7
100
AcDbEntity
  8
CURVE
100
AcDbLine
 62
7
  6
CONTINUOUS
 10
-80.8613572517
 20
-32.5526335436
 11
-80.4521071732
 21
-32.143383465
  0
LINE
  5
3C8
100
AcDbEntity
  8
CURVE
100
AcDbLine
 62
7
  6
CONTINUOUS
 10
-81.9550644854
 20
-33.8563514912
 11
-81.1281813449
 21
-33.0294683508
  0
LINE
  5
3C9
100
AcDbEntity
  8
CURVE
100
AcDbLine
 62
7
  6
CONTINUOUS
 10
-80.701514073
 20
-32.6028010788
 11
-80.3156126957
 21
-32.2168997015
  0
LINE
  5
3CA
100
AcDbEntity
  8
CURVE
100
AcDbLine
 62
7
  6
CONTINUOUS
 10
-81.8024624205
 20
-33.9137601404
 11
-81.4678983516
 21
-33.5791960715
  0
LINE
  5
3CB
100
AcDbEntity
  8
CURVE
100
AcDbLine
 62
7
  6
CONTINUOUS
 10
-81.415165593
 20
-33.5264633128
 11
-80.8964918954
 21
-33.0077896152
  0
LINE
  5
3CC
100
AcDbEntity
  8
CURVE
100
AcDbLine
 62
7
  6
CONTINUOUS
 10
-80.5416708942
 20
-32.6529686141
 11
-80.1526492306
 21
-32.2639469505
  0
LINE
  5
3CD
100
AcDbEntity
  8
CURVE
100
AcDbLine
 62
7
  6
CONTINUOUS
 10
-82.4515884008
 20
-34.7728968347
 11
-82.3476310198
 21
-34.6689394537
  0
LINE
  5
3CE
100
AcDbEntity
  8
CURVE
100
AcDbLine
 62
7
  6
CONTINUOUS
 10
-81.6498603556
 20
-33.9711687895
 11
-81.3159272575
 21
-33.6372356913
  0
LINE
  5
3CF
100
AcDbEntity
  8
CURVE
100
AcDbLine
 62
7
  6
CONTINUOUS
 10
-81.1903165091
 20
-33.511624943
 11
-80.6648024458
 21
-32.9861108797
  0
LINE
  5
3D0
100
AcDbEntity
  8
CURVE
100
AcDbLine
 62
7
  6
CONTINUOUS
 10
-80.3818277155
 20
-32.7031361494
 11
-79.9896857655
 21
-32.3109941994
  0
LINE
  5
3D1
100
AcDbEntity
  8
CURVE
100
AcDbLine
 62
7
  6
CONTINUOUS
 10
-82.4515884008
 20
-34.9829075487
 11
-82.0130991464
 21
-34.5444182943
  0
LINE
  5
3D2
100
AcDbEntity
  8
CURVE
100
AcDbLine
 62
7
  6
CONTINUOUS
 10
-81.4972582908
 20
-34.0285774387
 11
-81.1639561633
 21
-33.6952753112
  0
LINE
  5
3D3
100
AcDbEntity
  8
CURVE
100
AcDbLine
 62
7
  6
CONTINUOUS
 10
-80.9654674252
 20
-33.4967865731
 11
-80.4331129963
 21
-32.9644321442
  0
LINE
  5
3D4
100
AcDbEntity
  8
CURVE
100
AcDbLine
 62
7
  6
CONTINUOUS
 10
-80.2219845367
 20
-32.7533036846
 11
-79.9533751724
 21
-32.4846943203
  0
LINE
  5
3D5
100
AcDbEntity
  8
CURVE
100
AcDbLine
 62
7
  6
CONTINUOUS
 10
-82.4515884008
 20
-35.1929182627
 11
-81.678567273
 21
-34.419897135
  0
LINE
  5
3D6
100
AcDbEntity
  8
CURVE
100
AcDbLine
 62
7
  6
CONTINUOUS
 10
-81.3446562259
 20
-34.0859860878
 11
-81.0119850691
 21
-33.753314931
  0
LINE
  5
3D7
100
AcDbEntity
  8
CURVE
100
AcDbLine
 62
7
  6
CONTINUOUS
 10
-80.7406183413
 20
-33.4819482033
 11
-80.2014235467
 21
-32.9427534086
  0
LINE
  5
3D8
100
AcDbEntity
  8
CURVE
100
AcDbLine
 62
7
  6
CONTINUOUS
 10
-80.062141358
 20
-32.8034712199
 11
-79.9533751724
 21
-32.6947050343
  0
LINE
  5
3D9
100
AcDbEntity
  8
CURVE
100
AcDbLine
 62
7
  6
CONTINUOUS
 10
-82.292067993
 20
-35.2434085689
 11
-81.3440353997
 21
-34.2953759756
  0
LINE
  5
3DA
100
AcDbEntity
  8
CURVE
100
AcDbLine
 62
7
  6
CONTINUOUS
 10
-81.1920541611
 20
-34.143394737
 11
-80.860013975
 21
-33.8113545509
  0
LINE
  5
3DB
100
AcDbEntity
  8
CURVE
100
AcDbLine
 62
7
  6
CONTINUOUS
 10
-80.5157692575
 20
-33.4671098334
 11
-79.9697340972
 21
-32.9210746731
  0
LINE
  5
3DC
100
AcDbEntity
  8
CURVE
100
AcDbLine
 62
7
  6
CONTINUOUS
 10
-82.0994593493
 20
-35.2608106392
 11
-80.7080428808
 21
-33.8693941707
  0
LINE
  5
3DD
100
AcDbEntity
  8
CURVE
100
AcDbLine
 62
7
  6
CONTINUOUS
 10
-80.2909201736
 20
-33.4522714635
 11
-79.9533751724
 21
-33.1147264624
  0
LINE
  5
3DE
100
AcDbEntity
  8
CURVE
100
AcDbLine
 62
7
  6
CONTINUOUS
 10
-82.45173731
 20
-35.823099314
 11
-82.3642429961
 21
-35.735605
  0
LINE
  5
3DF
100
AcDbEntity
  8
CURVE
100
AcDbLine
 62
7
  6
CONTINUOUS
 10
-81.9068507055
 20
-35.2782127095
 11
-81.4788601178
 21
-34.8502221217
  0
LINE
  5
3E0
100
AcDbEntity
  8
CURVE
100
AcDbLine
 62
7
  6
CONTINUOUS
 10
-81.4036247562
 20
-34.7749867601
 11
-80.5560717866
 21
-33.9274337906
  0
LINE
  5
3E1
100
AcDbEntity
  8
CURVE
100
AcDbLine
 62
7
  6
CONTINUOUS
 10
-80.0660710897
 20
-33.4374330937
 11
-79.9533751724
 21
-33.3247371764
  0
LINE
  5
3E2
100
AcDbEntity
  8
CURVE
100
AcDbLine
 62
7
  6
CONTINUOUS
 10
-82.45173731
 20
-36.033110028
 11
-82.154232282
 21
-35.735605
  0
LINE
  5
3E3
100
AcDbEntity
  8
CURVE
100
AcDbLine
 62
7
  6
CONTINUOUS
 10
-81.7142420618
 20
-35.2956147798
 11
-81.2824098087
 21
-34.8637825267
  0
LINE
  5
3E4
100
AcDbEntity
  8
CURVE
100
AcDbLine
 62
7
  6
CONTINUOUS
 10
-81.0674777522
 20
-34.6488504701
 11
-80.4041006925
 21
-33.9854734104
  0
LINE
  5
3E5
100
AcDbEntity
  8
CURVE
100
AcDbLine
 62
7
  6
CONTINUOUS
 10
-82.45173731
 20
-36.243120742
 11
-81.944221568
 21
-35.735605
  0
LINE
  5
3E6
100
AcDbEntity
  8
CURVE
100
AcDbLine
 62
7
  6
CONTINUOUS
 10
-81.5216334181
 20
-35.3130168501
 11
-81.0859594997
 21
-34.8773429317
  0
LINE
  5
3E7
100
AcDbEntity
  8
CURVE
100
AcDbLine
 62
7
  6
CONTINUOUS
 10
-80.7313307482
 20
-34.5227141801
 11
-80.2521295983
 21
-34.0435130303
  0
LINE
  5
3E8
100
AcDbEntity
  8
CURVE
100
AcDbLine
 62
7
  6
CONTINUOUS
 10
-82.4515884008
 20
-36.4529825468
 11
-82.4501163261
 21
-36.451510472
  0
LINE
  5
3E9
100
AcDbEntity
  8
CURVE
100
AcDbLine
 62
7
  6
CONTINUOUS
 10
-82.256003854
 20
-36.257398
 11
-81.734210854
 21
-35.735605
  0
LINE
  5
3EA
100
AcDbEntity
  8
CURVE
100
AcDbLine
 62
7
  6
CONTINUOUS
 10
-81.3290247744
 20
-35.3304189203
 11
-80.8895091907
 21
-34.8909033366
  0
LINE
  5
3EB
100
AcDbEntity
  8
CURVE
100
AcDbLine
 62
7
  6
CONTINUOUS
 10
-80.3951837441
 20
-34.3965778901
 11
-80.1001585041
 21
-34.1015526501
  0
LINE
  5
3EC
100
AcDbEntity
  8
CURVE
100
AcDbLine
 62
7
  6
CONTINUOUS
 10
-82.4515884008
 20
-36.6629932608
 11
-82.2912142277
 21
-36.5026190877
  0
LINE
  5
3ED
100
AcDbEntity
  8
CURVE
100
AcDbLine
 62
7
  6
CONTINUOUS
 10
-82.04599314
 20
-36.257398
 11
-81.52420014
 21
-35.735605
  0
LINE
  5
3EE
100
AcDbEntity
  8
CURVE
100
AcDbLine
 62
7
  6
CONTINUOUS
 10
-81.1364161306
 20
-35.3478209906
 11
-80.6930588816
 21
-34.9044637416
  0
LINE
  5
3EF
100
AcDbEntity
  8
CURVE
100
AcDbLine
 62
7
  6
CONTINUOUS
 10
-80.0590367401
 20
-34.2704416001
 11
-79.9533751724
 21
-34.1647800324
  0
LINE
  5
3F0
100
AcDbEntity
  8
CURVE
100
AcDbLine
 62
7
  6
CONTINUOUS
 10
-82.4515884008
 20
-36.8730039748
 11
-82.1323121293
 21
-36.5537277033
  0
LINE
  5
3F1
100
AcDbEntity
  8
CURVE
100
AcDbLine
 62
7
  6
CONTINUOUS
 10
-81.835982426
 20
-36.257398
 11
-81.314189426
 21
-35.735605
  0
LINE
  5
3F2
100
AcDbEntity
  8
CURVE
100
AcDbLine
 62
7
  6
CONTINUOUS
 10
-80.9438074869
 20
-35.3652230609
 11
-80.4966085726
 21
-34.9180241466
  0
LINE
  5
3F3
100
AcDbEntity
  8
CURVE
100
AcDbLine
 62
7
  6
CONTINUOUS
 10
-82.3656013161
 20
-36.9970276041
 11
-81.9734100309
 21
-36.6048363189
  0
LINE
  5
3F4
100
AcDbEntity
  8
CURVE
100
AcDbLine
 62
7
  6
CONTINUOUS
 10
-81.625971712
 20
-36.257398
 11
-81.104178712
 21
-35.735605
  0
LINE
  5
3F5
100
AcDbEntity
  8
CURVE
100
AcDbLine
 62
7
  6
CONTINUOUS
 10
-80.7511988432
 20
-35.3826251312
 11
-80.3001582635
 21
-34.9315845515
  0
LINE
  5
3F6
100
AcDbEntity
  8
CURVE
100
AcDbLine
 62
7
  6
CONTINUOUS
 10
-82.2022402417
 20
-37.0436772437
 11
-81.8145079324
 21
-36.6559449345
  0
LINE
  5
3F7
100
AcDbEntity
  8
CURVE
100
AcDbLine
 62
7
  6
CONTINUOUS
 10
-81.415960998
 20
-36.257398
 11
-80.894167998
 21
-35.735605
  0
LINE
  5
3F8
100
AcDbEntity
  8
CURVE
100
AcDbLine
 62
7
  6
CONTINUOUS
 10
-80.5585901995
 20
-35.4000272015
 11
-80.1037079545
 21
-34.9451449565
  0
LINE
  5
3F9
100
AcDbEntity
  8
CURVE
100
AcDbLine
 62
7
  6
CONTINUOUS
 10
-82.0388791672
 20
-37.0903268833
 11
-81.655605834
 21
-36.7070535501
  0
LINE
  5
3FA
100
AcDbEntity
  8
CURVE
100
AcDbLine
 62
7
  6
CONTINUOUS
 10
-81.205950284
 20
-36.257398
 11
-80.684157284
 21
-35.735605
  0
LINE
  5
3FB
100
AcDbEntity
  8
CURVE
100
AcDbLine
 62
7
  6
CONTINUOUS
 10
-80.3659815557
 20
-35.4174292718
 11
-79.9533751724
 21
-35.0048228885
  0
LINE
  5
3FC
100
AcDbEntity
  8
CURVE
100
AcDbLine
 62
7
  6
CONTINUOUS
 10
-81.8755180928
 20
-37.1369765229
 11
-81.4967037356
 21
-36.7581621657
  0
LINE
  5
3FD
100
AcDbEntity
  8
CURVE
100
AcDbLine
 62
7
  6
CONTINUOUS
 10
-80.9959395699
 20
-36.257398
 11
-80.4741465699
 21
-35.735605
  0
LINE
  5
3FE
100
AcDbEntity
  8
CURVE
100
AcDbLine
 62
7
  6
CONTINUOUS
 10
-80.173372912
 20
-35.4348313421
 11
-79.9533751724
 21
-35.2148336025
  0
LINE
  5
3FF
100
AcDbEntity
  8
CURVE
100
AcDbLine
 62
7
  6
CONTINUOUS
 10
-81.7121570184
 20
-37.1836261625
 11
-81.3378016372
 21
-36.8092707813
  0
LINE
  5
400
100
AcDbEntity
  8
CURVE
100
AcDbLine
 62
7
  6
CONTINUOUS
 10
-80.7859288559
 20
-36.257398
 11
-80.2641358559
 21
-35.735605
  0
LINE
  5
401
100
AcDbEntity
  8
CURVE
100
AcDbLine
 62
7
  6
CONTINUOUS
 10
-79.9807642683
 20
-35.4522334124
 11
-79.9533751724
 21
-35.4248443165
  0
LINE
  5
402
100
AcDbEntity
  8
CURVE
100
AcDbLine
 62
7
  6
CONTINUOUS
 10
-82.4515884008
 20
-38.1330682589
 11
-82.1845412357
 21
-37.8660210937
  0
LINE
  5
403
100
AcDbEntity
  8
CURVE
100
AcDbLine
 62
7
  6
CONTINUOUS
 10
-81.548795944
 20
-37.2302758021
 11
-81.1788995388
 21
-36.8603793969
  0
LINE
  5
404
100
AcDbEntity
  8
CURVE
100
AcDbLine
 62
7
  6
CONTINUOUS
 10
-80.5759181419
 20
-36.257398
 11
-80.0541251419
 21
-35.735605
  0
LINE
  5
405
100
AcDbEntity
  8
CURVE
100
AcDbLine
 62
7
  6
CONTINUOUS
 10
-82.4515884008
 20
-38.3430789729
 11
-81.8940311029
 21
-37.785521675
  0
LINE
  5
406
100
AcDbEntity
  8
CURVE
100
AcDbLine
 62
7
  6
CONTINUOUS
 10
-81.3854348695
 20
-37.2769254416
 11
-81.0199974404
 21
-36.9114880125
  0
LINE
  5
407
100
AcDbEntity
  8
CURVE
100
AcDbLine
 62
7
  6
CONTINUOUS
 10
-80.3659074279
 20
-36.257398
 11
-79.9533751724
 21
-35.8448657445
  0
LINE
  5
408
100
AcDbEntity
  8
CURVE
100
AcDbLine
 62
7
  6
CONTINUOUS
 10
-82.3838620563
 20
-38.4853633424
 11
-81.6035209701
 21
-37.7050222562
  0
LINE
  5
409
100
AcDbEntity
  8
CURVE
100
AcDbLine
 62
7
  6
CONTINUOUS
 10
-81.2220737951
 20
-37.3235750812
 11
-80.861095342
 21
-36.9625966281
  0
LINE
  5
40A
100
AcDbEntity
  8
CURVE
100
AcDbLine
 62
7
  6
CONTINUOUS
 10
-80.1558967139
 20
-36.257398
 11
-79.9533751724
 21
-36.0548764585
  0
LINE
  5
40B
100
AcDbEntity
  8
CURVE
100
AcDbLine
 62
7
  6
CONTINUOUS
 10
-82.0762835197
 20
-38.3877955198
 11
-81.3130108374
 21
-37.6245228375
  0
LINE
  5
40C
100
AcDbEntity
  8
CURVE
100
AcDbLine
 62
7
  6
CONTINUOUS
 10
-81.0587127207
 20
-37.3702247208
 11
-80.7021932436
 21
-37.0137052437
  0
LINE
  5
40D
100
AcDbEntity
  8
CURVE
100
AcDbLine
 62
7
  6
CONTINUOUS
 10
-81.7687049831
 20
-38.2902276973
 11
-81.0225007046
 21
-37.5440234187
  0
LINE
  5
40E
100
AcDbEntity
  8
CURVE
100
AcDbLine
 62
7
  6
CONTINUOUS
 10
-80.8953516463
 20
-37.4168743604
 11
-80.5432911452
 21
-37.0648138594
  0
LINE
  5
40F
100
AcDbEntity
  8
CURVE
100
AcDbLine
 62
7
  6
CONTINUOUS
 10
-81.4611264466
 20
-38.1926598747
 11
-80.3843890468
 21
-37.115922475
  0
LINE
  5
410
100
AcDbEntity
  8
CURVE
100
AcDbLine
 62
7
  6
CONTINUOUS
 10
-81.15354791
 20
-38.0950920522
 11
-80.2254869484
 21
-37.1670310906
  0
LINE
  5
411
100
AcDbEntity
  8
CURVE
100
AcDbLine
 62
7
  6
CONTINUOUS
 10
-80.8459693734
 20
-37.9975242296
 11
-80.06658485
 21
-37.2181397062
  0
LINE
  5
412
100
AcDbEntity
  8
CURVE
100
AcDbLine
 62
7
  6
CONTINUOUS
 10
-80.5383908369
 20
-37.899956407
 11
-79.9533751724
 21
-37.3149407426
  0
LINE
  5
413
100
AcDbEntity
  8
CURVE
100
AcDbLine
 62
7
  6
CONTINUOUS
 10
-80.2308123003
 20
-37.8023885845
 11
-79.9533751724
 21
-37.5249514566
  0
LINE
  5
414
100
AcDbEntity
  8
0
100
AcDbLine
 62
250
  6
CONTINUOUS
 10
-74.8214194123
 20
-26.0384659645
 11
-75.7153317151
 21
-26.5162094923
  0
LINE
  5
415
100
AcDbEntity
  8
0
100
AcDbLine
 62
250
  6
CONTINUOUS
 10
-76.8956468285
 20
-26.9276792439
 11
-76.2239497873
 21
-26.5711304782
  0
LINE
  5
416
100
AcDbEntity
  8
0
100
AcDbLine
 62
7
  6
CONTINUOUS
 10
-74.8214194123
 20
-26.0883643404
 11
-76.7564074505
 21
-27.1154904916
  0
LINE
  5
417
100
AcDbEntity
  8
0
100
AcDbLine
 62
7
  6
CONTINUOUS
 10
-74.8214194123
 20
25.4
 11
-76.7717913144
 21
25.2049628098
  0
LINE
  5
418
100
AcDbEntity
  8
0
100
AcDbLine
 62
7
  6
CONTINUOUS
 10
-77.8214194123
 20
25.7558198745
 11
-76.8195393833
 21
25.8000830599
  0
LINE
  5
419
100
AcDbEntity
  8
0
100
AcDbLine
 62
7
  6
CONTINUOUS
 10
-77.8214194123
 20
25.05
 11
-77.6714194123
 21
25.05
  0
LINE
  5
41A
100
AcDbEntity
  8
0
100
AcDbLine
 62
7
  6
CONTINUOUS
 10
-77.3714194123
 20
25.05
 11
-77.1714194123
 21
25.05
  0
LINE
  5
41B
100
AcDbEntity
  8
0
100
AcDbLine
 62
7
  6
CONTINUOUS
 10
-77.8214194123
 20
25.2
 11
-76.8712950334
 21
25.2
  0
LINE
  5
41C
100
AcDbEntity
  8
0
100
AcDbLine
 62
250
  6
CONTINUOUS
 10
-76.8956468285
 20
26.9276792439
 11
-77.8214194123
 21
26.9280974384
  0
LINE
  5
41D
100
AcDbEntity
  8
0
100
AcDbLine
 62
7
  6
CONTINUOUS
 10
-76.8955822613
 20
27.1501294387
 11
-77.8214194123
 21
27.151745331
  0
LINE
  5
41E
100
AcDbEntity
  8
0
100
AcDbLine
 62
7
  6
CONTINUOUS
 10
-75.8614280444
 20
26.528621319
 11
-77.8214194123
 21
26.5637861501
  0
LWPOLYLINE
  5
41F
100
AcDbEntity
  8
0
100
AcDbPolyline
 62
7
  6
CONTINUOUS
 90
15
 70
0
 10
-75.5343492704
 20
26.466799801
 10
-75.5432588785
 20
26.4713391458
 10
-75.5642762197
 20
26.4807184228
 10
-75.5864234679
 20
26.4889178697
 10
-75.6089923811
 20
26.4959347155
 10
-75.6319711985
 20
26.5019868069
 10
-75.6558056145
 20
26.5073235231
 10
-75.6804177246
 20
26.5120121366
 10
-75.7058537808
 20
26.5161149823
 10
-75.7321732168
 20
26.5196681981
 10
-75.7591071939
 20
26.5226528247
 10
-75.7865890319
 20
26.5250696469
 10
-75.8146914258
 20
26.5269180403
 10
-75.8432877128
 20
26.5281647618
 10
-75.8614281382
 20
26.5286213179
  0
LINE
  5
420
100
AcDbEntity
  8
0
100
AcDbLine
 62
250
  6
CONTINUOUS
 10
-76.1537476234
 20
26.5338659179
 11
-76.8956468285
 21
26.9276792439
  0
LINE
  5
421
100
AcDbEntity
  8
0
100
AcDbLine
 62
7
  6
CONTINUOUS
 10
-76.7564074505
 20
27.1154904916
 11
-74.8214194123
 21
26.0883643404
  0
LINE
  5
422
100
AcDbEntity
  8
0
100
AcDbLine
 62
250
  6
CONTINUOUS
 10
-75.6245040229
 20
26.4697941135
 11
-74.8214194134
 21
26.040673171
  0
LINE
  5
423
100
AcDbEntity
  8
0
100
AcDbLine
 62
7
  6
CONTINUOUS
 10
-83.9720285853
 20
-43.8055596544
 11
-83.9869669545
 21
-43.8199854699
  0
LINE
  5
424
100
AcDbEntity
  8
ASSI
100
AcDbLine
 62
7
  6
CONTINUOUS
 10
-83.9720285853
 20
-43.8055596544
 11
-83.9869669545
 21
-43.8199854699
  0
LINE
  5
425
100
AcDbEntity
  8
CURVE
100
AcDbLine
 62
250
  6
CONTINUOUS
 10
-82.4515884008
 20
-31.54876
 11
-79.9533751724
 21
-30.781779
  0
LINE
  5
426
100
AcDbEntity
  8
0
100
AcDbLine
 62
7
  6
CONTINUOUS
 10
-83.9869669545
 20
43.8199854699
 11
-83.9720285853
 21
43.8055596544
  0
LINE
  5
427
100
AcDbEntity
  8
ASSI
100
AcDbLine
 62
7
  6
CONTINUOUS
 10
-83.9869669545
 20
43.8199854699
 11
-83.9720285853
 21
43.8055596544
  0
LINE
  5
428
100
AcDbEntity
  8
CURVE
100
AcDbLine
 62
250
  6
CONTINUOUS
 10
-79.9533751724
 20
-34.230793
 11
-81.5846608316
 21
-34.842919
  0
LINE
  5
429
100
AcDbEntity
  8
CURVE
100
AcDbLine
 62
250
  6
CONTINUOUS
 10
-82.4515884008
 20
-34.707635
 11
-81.0645728482
 21
-34.191353
  0
LINE
  5
42A
100
AcDbEntity
  8
CURVE
100
AcDbLine
 62
250
  6
CONTINUOUS
 10
-79.9533751724
 20
-37.714382
 11
-82.4515884008
 21
-38.506847
  0
LINE
  5
42B
100
AcDbEntity
  8
0
100
AcDbLine
 62
250
  6
CONTINUOUS
 10
-78.4214194123
 20
41.1619414324
 11
-77.8214194123
 21
41.2038975196
  0
LINE
  5
42C
100
AcDbEntity
  8
0
100
AcDbLine
 62
7
  6
CONTINUOUS
 10
-78.4214194123
 20
42.7580439128
 11
-77.8214194123
 21
42.8
  0
LINE
  5
42D
100
AcDbEntity
  8
0
100
AcDbLine
 62
7
  6
CONTINUOUS
 10
-83.9720285853
 20
43.8055596544
 11
-78.4214194123
 21
43.9993911979
  0
LINE
  5
42E
100
AcDbEntity
  8
ASSI
100
AcDbLine
 62
7
  6
CONTINUOUS
 10
-83.9720285853
 20
43.8055596544
 11
-78.4214194123
 21
43.9993911979
  0
LINE
  5
42F
100
AcDbEntity
  8
0
100
AcDbLine
 62
7
  6
CONTINUOUS
 10
-83.9720285853
 20
44.8061684565
 11
-78.4214194123
 21
45.0
  0
LINE
  5
430
100
AcDbEntity
  8
ASSI
100
AcDbLine
 62
7
  6
CONTINUOUS
 10
-83.9720285853
 20
44.8061684565
 11
-78.4214194123
 21
45.0
  0
LWPOLYLINE
  5
431
100
AcDbEntity
  8
0
100
AcDbPolyline
 62
7
  6
CONTINUOUS
 90
8
 70
0
 43
0.3500000006
 10
-88.6959574585
 20
55.9559897461
 10
-87.838819519
 20
55.9559897461
 10
-87.4102414856
 20
56.3845587158
 10
-87.4102414856
 20
57.241705719
 10
-87.838819519
 20
57.6702746887
 10
-88.6959574585
 20
57.6702746887
 10
-88.6959574585
 20
58.9559906616
 10
-87.4102414856
 20
58.9559906616
  0
LWPOLYLINE
  5
432
100
AcDbEntity
  8
0
100
AcDbPolyline
 62
7
  6
CONTINUOUS
 90
8
 70
0
 43
0.3500000006
 10
-88.5876097412
 20
64.4759506531
 10
-87.7304718018
 20
64.4759506531
 10
-87.301902832
 20
64.9045286865
 10
-87.301902832
 20
65.761666626
 10
-87.7304718018
 20
66.1902355957
 10
-88.5876097412
 20
66.1902355957
 10
-88.5876097412
 20
67.4759515686
 10
-87.301902832
 20
67.4759515686
  0
ARC
  5
433
100
AcDbEntity
  8
CURVE
100
AcDbCircle
 62
250
  6
CONTINUOUS
 10
84.7414207771
 20
-29.8716892664
 40
39.8681074
100
AcDbArc
 50
179.7782450657
 51
180.3657160807
  0
ARC
  5
434
100
AcDbEntity
  8
0
100
AcDbCircle
 62
7
  6
CONTINUOUS
 10
-6.7
 20
6.7
 40
1.7
100
AcDbArc
 50
90.0
 51
180.0
  0
ARC
  5
435
100
AcDbEntity
  8
0
100
AcDbCircle
 62
7
  6
CONTINUOUS
 10
-6.7
 20
-6.7
 40
1.7
100
AcDbArc
 50
180.0
 51
270.0
  0
ARC
  5
436
100
AcDbEntity
  8
0
100
AcDbCircle
 62
7
  6
CONTINUOUS
 10
6.7
 20
-6.7
 40
1.7
100
AcDbArc
 50
270.0
 51
360.0
  0
ARC
  5
437
100
AcDbEntity
  8
0
100
AcDbCircle
 62
7
  6
CONTINUOUS
 10
6.7
 20
6.7
 40
1.7
100
AcDbArc
 50
0.0
 51
90.0
  0
ARC
  5
438
100
AcDbEntity
  8
ASSI
100
AcDbCircle
 62
7
  6
CONTINUOUS
 10
-6.7
 20
6.7
 40
1.7
100
AcDbArc
 50
90.0
 51
180.0
  0
ARC
  5
439
100
AcDbEntity
  8
ASSI
100
AcDbCircle
 62
7
  6
CONTINUOUS
 10
-6.7
 20
-6.7
 40
1.7
100
AcDbArc
 50
180.0
 51
270.0
  0
ARC
  5
43A
100
AcDbEntity
  8
ASSI
100
AcDbCircle
 62
7
  6
CONTINUOUS
 10
6.7
 20
-6.7
 40
1.7
100
AcDbArc
 50
270.0
 51
360.0
  0
ARC
  5
43B
100
AcDbEntity
  8
ASSI
100
AcDbCircle
 62
7
  6
CONTINUOUS
 10
6.7
 20
6.7
 40
1.7
100
AcDbArc
 50
0.0
 51
90.0
  0
ARC
  5
43C
100
AcDbEntity
  8
0
100
AcDbCircle
 62
7
  6
CONTINUOUS
 10
-6.7
 20
-6.7
 40
1.2
100
AcDbArc
 50
180.0
 51
270.0
  0
ARC
  5
43D
100
AcDbEntity
  8
0
100
AcDbCircle
 62
7
  6
CONTINUOUS
 10
6.7
 20
-6.7
 40
1.2
100
AcDbArc
 50
270.0
 51
360.0
  0
ARC
  5
43E
100
AcDbEntity
  8
0
100
AcDbCircle
 62
7
  6
CONTINUOUS
 10
-6.7
 20
6.7
 40
1.2
100
AcDbArc
 50
90.0
 51
180.0
  0
ARC
  5
43F
100
AcDbEntity
  8
0
100
AcDbCircle
 62
7
  6
CONTINUOUS
 10
6.7
 20
6.7
 40
1.2
100
AcDbArc
 50
0.0
 51
90.0
  0
ARC
  5
440
100
AcDbEntity
  8
ASSI
100
AcDbCircle
 62
7
  6
CONTINUOUS
 10
-6.7
 20
-6.7
 40
1.2
100
AcDbArc
 50
180.0
 51
270.0
  0
ARC
  5
441
100
AcDbEntity
  8
ASSI
100
AcDbCircle
 62
7
  6
CONTINUOUS
 10
6.7
 20
-6.7
 40
1.2
100
AcDbArc
 50
270.0
 51
360.0
  0
ARC
  5
442
100
AcDbEntity
  8
ASSI
100
AcDbCircle
 62
7
  6
CONTINUOUS
 10
-6.7
 20
6.7
 40
1.2
100
AcDbArc
 50
90.0
 51
180.0
  0
ARC
  5
443
100
AcDbEntity
  8
ASSI
100
AcDbCircle
 62
7
  6
CONTINUOUS
 10
6.7
 20
6.7
 40
1.2
100
AcDbArc
 50
0.0
 51
90.0
  0
ARC
  5
444
100
AcDbEntity
  8
0
100
AcDbCircle
 62
250
  6
CONTINUOUS
 10
-75.8807164541
 20
25.445834267
 40
1.0629464187
100
AcDbArc
 50
87.0072136692
 51
88.9655515095
  0
ARC
  5
445
100
AcDbEntity
  8
0
100
AcDbCircle
 62
250
  6
CONTINUOUS
 10
-75.8798763806
 20
25.4536417379
 40
1.055105824
100
AcDbArc
 50
84.2890121823
 51
87.0306345885
  0
ARC
  5
446
100
AcDbEntity
  8
0
100
AcDbCircle
 62
7
  6
CONTINUOUS
 10
-76.8712950334
 20
-26.2
 40
1.0
100
AcDbArc
 50
84.2894068625
 51
90.0
  0
ARC
  5
447
100
AcDbEntity
  8
0
100
AcDbCircle
 62
7
  6
CONTINUOUS
 10
-76.8712950334
 20
26.2
 40
1.0
100
AcDbArc
 50
270.0
 51
275.7105931375
  0
ARC
  5
448
100
AcDbEntity
  8
0
100
AcDbCircle
 62
250
  6
CONTINUOUS
 10
-75.945251799
 20
-25.559178983
 40
0.9917415794
100
AcDbArc
 50
270.0358584787
 51
274.8041049356
  0
ARC
  5
449
100
AcDbEntity
  8
0
100
AcDbCircle
 62
7
  6
CONTINUOUS
 10
-76.8961060874
 20
26.849999496
 40
0.3
100
AcDbArc
 50
62.0510370175
 51
89.9000000064
  0
ARC
  5
44A
100
AcDbEntity
  8
0
100
AcDbCircle
 62
7
  6
CONTINUOUS
 10
-76.8961060874
 20
-26.849999496
 40
0.3
100
AcDbArc
 50
270.0999999936
 51
297.9489629825
  0
SPLINE
  5
44B
100
AcDbEntity
  8
CURVE
100
AcDbSpline
 62
250
  6
CONTINUOUS
 70
0
 71
3
 72
9
 73
5
 74
0
 42
0.0000001
 43
0.0000001
 44
0.0000000001
 40
0.0
 40
0.0
 40
0.0
 40
0.0
 40
0.3559141631
 40
1.0
 40
1.0
 40
1.0
 40
1.0
 10
44.9123622001
 20
-29.8290889245
 30
0.0
 10
44.9123622001
 20
-29.7836184402
 30
0.0
 10
44.9133231166
 20
-29.6528120506
 30
0.0
 10
44.9173603957
 20
-29.5668873007
 30
0.0
 10
44.9200490481
 20
-29.5379751749
 30
0.0
  0
SPLINE
  5
44C
100
AcDbEntity
  8
CURVE
100
AcDbSpline
 62
250
  6
CONTINUOUS
 70
0
 71
3
 72
9
 73
5
 74
0
 42
0.0000001
 43
0.0000001
 44
0.0000000001
 40
0.0
 40
0.0
 40
0.0
 40
0.0
 40
0.2957417834
 40
1.0
 40
1.0
 40
1.0
 40
1.0
 10
44.8612011567
 20
-29.3408501143
 30
0.0
 10
44.8596855759
 20
-29.4610542637
 30
0.0
 10
44.8572150889
 20
-29.8931154132
 30
0.0
 10
44.8587366566
 20
-30.3274429247
 30
0.0
 10
44.8602826601
 20
-30.6285551388
 30
0.0
  0
SPLINE
  5
44D
100
AcDbEntity
  8
CURVE
100
AcDbSpline
 62
250
  6
CONTINUOUS
 70
0
 71
3
 72
17
 73
13
 74
0
 42
0.0000001
 43
0.0000001
 44
0.0000000001
 40
0.0
 40
0.0
 40
0.0
 40
0.0
 40
0.0559780952
 40
0.1687540387
 40
0.321006234
 40
0.4122750837
 40
0.516613223
 40
0.6013931059
 40
0.6776022439
 40
0.8103422694
 40
0.9200404832
 40
1.0
 40
1.0
 40
1.0
 40
1.0
 10
44.9052647862
 20
-29.2870512436
 30
0.0
 10
44.9051350028
 20
-29.2582307418
 30
0.0
 10
44.9031214221
 20
-29.184972753
 30
0.0
 10
44.8992829754
 20
-29.0634829078
 30
0.0
 10
44.8933742828
 20
-28.9740276278
 30
0.0
 10
44.8872101789
 20
-28.9341773505
 30
0.0
 10
44.8820941014
 20
-28.9304334968
 30
0.0
 10
44.8773157265
 20
-28.9501640226
 30
0.0
 10
44.8722383304
 20
-28.9979840427
 30
0.0
 10
44.8672623715
 20
-29.0877998266
 30
0.0
 10
44.863371041
 20
-29.2146127248
 30
0.0
 10
44.8616927458
 20
-29.301804483
 30
0.0
 10
44.8612011567
 20
-29.3408501143
 30
0.0
  0
SPLINE
  5
44E
100
AcDbEntity
  8
CURVE
100
AcDbSpline
 62
250
  6
CONTINUOUS
 70
0
 71
3
 72
9
 73
5
 74
0
 42
0.0000001
 43
0.0000001
 44
0.0000000001
 40
0.0
 40
0.0
 40
0.0
 40
0.0
 40
0.2426586216
 40
1.0
 40
1.0
 40
1.0
 40
1.0
 10
44.9228908922
 20
-28.9862836897
 30
0.0
 10
44.9213056035
 20
-28.9986586641
 30
0.0
 10
44.9149038215
 20
-29.0459291565
 30
0.0
 10
44.9076796642
 20
-29.1505648409
 30
0.0
 10
44.9057802956
 20
-29.2870512436
 30
0.0
  0
LINE
  5
44F
100
AcDbEntity
  8
CURVE
100
AcDbLine
 62
250
  6
CONTINUOUS
 10
44.9465029266
 20
-28.8079038802
 11
44.9228908922
 21
-28.9862836897
  0
SPLINE
  5
450
100
AcDbEntity
  8
CURVE
100
AcDbSpline
 62
250
  6
CONTINUOUS
 70
0
 71
3
 72
9
 73
5
 74
0
 42
0.0000001
 43
0.0000001
 44
0.0000000001
 40
0.0
 40
0.0
 40
0.0
 40
0.0
 40
0.5586214172
 40
1.0
 40
1.0
 40
1.0
 40
1.0
 10
44.9200490481
 20
-29.5379751749
 30
0.0
 10
44.9248648004
 20
-29.486134558
 30
0.0
 10
44.9337822144
 20
-29.4179595379
 30
0.0
 10
44.9425964832
 20
-29.3419894791
 30
0.0
 10
44.9465029266
 20
-29.3098079785
 30
0.0
  0
SPLINE
  5
451
100
AcDbEntity
  8
CURVE
100
AcDbSpline
 62
250
  6
CONTINUOUS
 70
0
 71
3
 72
9
 73
5
 74
0
 42
0.0000001
 43
0.0000001
 44
0.0000000001
 40
0.0
 40
0.0
 40
0.0
 40
0.0
 40
0.5206208722
 40
1.0
 40
1.0
 40
1.0
 40
1.0
 10
44.8845174928
 20
-29.4226356449
 30
0.0
 10
44.8882889069
 20
-29.4209681689
 30
0.0
 10
44.8965275239
 20
-29.4973108459
 30
0.0
 10
44.8979969217
 20
-29.728472706
 30
0.0
 10
44.8980744759
 20
-29.8279642095
 30
0.0
  0
SPLINE
  5
452
100
AcDbEntity
  8
CURVE
100
AcDbSpline
 62
250
  6
CONTINUOUS
 70
0
 71
3
 72
9
 73
5
 74
0
 42
0.0000001
 43
0.0000001
 44
0.0000000001
 40
0.0
 40
0.0
 40
0.0
 40
0.0
 40
0.5013510385
 40
1.0
 40
1.0
 40
1.0
 40
1.0
 10
44.8736119817
 20
-29.7173859732
 30
0.0
 10
44.8739218438
 20
-29.6409112471
 30
0.0
 10
44.8762722239
 20
-29.4862321801
 30
0.0
 10
44.881845444
 20
-29.423833145
 30
0.0
 10
44.8845174928
 20
-29.4226356449
 30
0.0
  0
SPLINE
  5
453
100
AcDbEntity
  8
CURVE
100
AcDbSpline
 62
250
  6
CONTINUOUS
 70
0
 71
3
 72
9
 73
5
 74
0
 42
0.0000001
 43
0.0000001
 44
0.0000000001
 40
0.0
 40
0.0
 40
0.0
 40
0.0
 40
0.3559141631
 40
1.0
 40
1.0
 40
1.0
 40
1.0
 10
-80.9310376466
 20
-29.8290889245
 30
0.0
 10
-80.9310376466
 20
-29.7836184402
 30
0.0
 10
-80.9035205987
 20
-29.6528120506
 30
0.0
 10
-80.787908053
 20
-29.5668873007
 30
0.0
 10
-80.7109151206
 20
-29.5379751749
 30
0.0
  0
SPLINE
  5
454
100
AcDbEntity
  8
CURVE
100
AcDbSpline
 62
250
  6
CONTINUOUS
 70
0
 71
3
 72
9
 73
5
 74
0
 42
0.0000001
 43
0.0000001
 44
0.0000000001
 40
0.0
 40
0.0
 40
0.0
 40
0.0
 40
0.2957417834
 40
1.0
 40
1.0
 40
1.0
 40
1.0
 10
-82.3960982445
 20
-29.3408501143
 30
0.0
 10
-82.4394988002
 20
-29.4610542637
 30
0.0
 10
-82.5102442927
 20
-29.8931154132
 30
0.0
 10
-82.4666722931
 20
-30.3274429247
 30
0.0
 10
-82.4224005447
 20
-30.6285551388
 30
0.0
  0
SPLINE
  5
455
100
AcDbEntity
  8
CURVE
100
AcDbSpline
 62
250
  6
CONTINUOUS
 70
0
 71
3
 72
17
 73
13
 74
0
 42
0.0000001
 43
0.0000001
 44
0.0000000001
 40
0.0
 40
0.0
 40
0.0
 40
0.0
 40
0.0559780952
 40
0.1687540387
 40
0.321006234
 40
0.4122750837
 40
0.516613223
 40
0.6013931059
 40
0.6776022439
 40
0.8103422694
 40
0.9200404832
 40
1.0
 40
1.0
 40
1.0
 40
1.0
 10
-81.13428099
 20
-29.2870512436
 30
0.0
 10
-81.1379974991
 20
-29.2582307418
 30
0.0
 10
-81.1956589073
 20
-29.184972753
 30
0.0
 10
-81.3055776373
 20
-29.0634829078
 30
0.0
 10
-81.4747804565
 20
-28.9740276278
 30
0.0
 10
-81.6512972958
 20
-28.9341773505
 30
0.0
 10
-81.7978025877
 20
-28.9304334968
 30
0.0
 10
-81.934637342
 20
-28.9501640226
 30
0.0
 10
-82.0800349428
 20
-28.9979840427
 30
0.0
 10
-82.2225277613
 20
-29.0877998266
 30
0.0
 10
-82.3339608886
 20
-29.2146127248
 30
0.0
 10
-82.3820209758
 20
-29.301804483
 30
0.0
 10
-82.3960982445
 20
-29.3408501143
 30
0.0
  0
SPLINE
  5
456
100
AcDbEntity
  8
CURVE
100
AcDbSpline
 62
250
  6
CONTINUOUS
 70
0
 71
3
 72
9
 73
5
 74
0
 42
0.0000001
 43
0.0000001
 44
0.0000000001
 40
0.0
 40
0.0
 40
0.0
 40
0.0
 40
0.2426586216
 40
1.0
 40
1.0
 40
1.0
 40
1.0
 10
-80.6295353544
 20
-28.9862836897
 30
0.0
 10
-80.6749320823
 20
-28.9986586641
 30
0.0
 10
-80.8582551327
 20
-29.0459291565
 30
0.0
 10
-81.0651279309
 20
-29.1505648409
 30
0.0
 10
-81.1195187304
 20
-29.2870512436
 30
0.0
  0
SPLINE
  5
457
100
AcDbEntity
  8
CURVE
100
AcDbSpline
 62
250
  6
CONTINUOUS
 70
0
 71
3
 72
9
 73
5
 74
0
 42
0.0000001
 43
0.0000001
 44
0.0000000001
 40
0.0
 40
0.0
 40
0.0
 40
0.0
 40
0.1980141723
 40
1.0
 40
1.0
 40
1.0
 40
1.0
 10
-79.953375156
 20
-28.8079038802
 30
0.0
 10
-79.9979164714
 20
-28.8200085492
 30
0.0
 10
-80.2233621154
 20
-28.8792554798
 30
0.0
 10
-80.4491753529
 20
-28.9371156095
 30
0.0
 10
-80.6295353544
 20
-28.9862836897
 30
0.0
  0
SPLINE
  5
458
100
AcDbEntity
  8
CURVE
100
AcDbSpline
 62
250
  6
CONTINUOUS
 70
0
 71
3
 72
9
 73
5
 74
0
 42
0.0000001
 43
0.0000001
 44
0.0000000001
 40
0.0
 40
0.0
 40
0.0
 40
0.0
 40
0.5586214172
 40
1.0
 40
1.0
 40
1.0
 40
1.0
 10
-80.7109151206
 20
-29.5379751749
 30
0.0
 10
-80.5730100173
 20
-29.486134558
 30
0.0
 10
-80.3176486929
 20
-29.4179595379
 30
0.0
 10
-80.0652410595
 20
-29.3419894791
 30
0.0
 10
-79.953375156
 20
-29.3098079785
 30
0.0
  0
SPLINE
  5
459
100
AcDbEntity
  8
CURVE
100
AcDbSpline
 62
250
  6
CONTINUOUS
 70
0
 71
3
 72
9
 73
5
 74
0
 42
0.0000001
 43
0.0000001
 44
0.0000000001
 40
0.0
 40
0.0
 40
0.0
 40
0.0
 40
0.5206208722
 40
1.0
 40
1.0
 40
1.0
 40
1.0
 10
-81.7284057381
 20
-29.4226356449
 30
0.0
 10
-81.6204065685
 20
-29.4209681689
 30
0.0
 10
-81.3844834449
 20
-29.4973108459
 30
0.0
 10
-81.3424053991
 20
-29.728472706
 30
0.0
 10
-81.3401845376
 20
-29.8279642095
 30
0.0
  0
SPLINE
  5
45A
100
AcDbEntity
  8
CURVE
100
AcDbSpline
 62
250
  6
CONTINUOUS
 70
0
 71
3
 72
9
 73
5
 74
0
 42
0.0000001
 43
0.0000001
 44
0.0000000001
 40
0.0
 40
0.0
 40
0.0
 40
0.0
 40
0.5013510385
 40
1.0
 40
1.0
 40
1.0
 40
1.0
 10
-82.0406987176
 20
-29.7173859732
 30
0.0
 10
-82.0318254279
 20
-29.6409112471
 30
0.0
 10
-81.9645193458
 20
-29.4862321801
 30
0.0
 10
-81.8049232055
 20
-29.423833145
 30
0.0
 10
-81.7284057381
 20
-29.4226356449
 30
0.0
  0
SPLINE
  5
45B
100
AcDbEntity
  8
CURVE
100
AcDbSpline
 62
250
  6
CONTINUOUS
 70
0
 71
3
 72
9
 73
5
 74
0
 42
0.0000001
 43
0.0000001
 44
0.0000000001
 40
0.0
 40
0.0
 40
0.0
 40
0.0
 40
0.2703953699
 40
1.0
 40
1.0
 40
1.0
 40
1.0
 10
-82.0259926595
 20
-30.126163664
 30
0.0
 10
-82.0322031912
 20
-30.0897447717
 30
0.0
 10
-82.0526291352
 20
-29.9546358143
 30
0.0
 10
-82.0521857111
 20
-29.8164101388
 30
0.0
 10
-82.0406987176
 20
-29.7173859732
 30
0.0
  0
SPLINE
  5
45C
100
AcDbEntity
  8
0
100
AcDbSpline
 62
250
  6
CONTINUOUS
 70
0
 71
3
 72
9
 73
5
 74
0
 42
0.0000001
 43
0.0000001
 44
0.0000000001
 40
0.0
 40
0.0
 40
0.0
 40
0.0
 40
0.4766956698
 40
1.0
 40
1.0
 40
1.0
 40
1.0
 10
-75.621560215
 20
-26.5130933448
 30
0.0
 10
-75.6350272881
 20
-26.5202419069
 30
0.0
 10
-75.6673531101
 20
-26.5282402425
 30
0.0
 10
-75.6995928596
 20
-26.5219044748
 30
0.0
 10
-75.7153317151
 20
-26.5162094923
 30
0.0
  0
SPLINE
  5
45D
100
AcDbEntity
  8
0
100
AcDbSpline
 62
7
  6
CONTINUOUS
 70
0
 71
3
 72
11
 73
7
 74
0
 42
0.0000001
 43
0.0000001
 44
0.0000000001
 40
0.0
 40
0.0
 40
0.0
 40
0.0
 40
0.3310430733
 40
0.6066164859
 40
0.8233371923
 40
1.0
 40
1.0
 40
1.0
 40
1.0
 10
-74.9745086807
 20
-25.8849920949
 30
0.0
 10
-74.9527002068
 20
-25.8878685511
 30
0.0
 10
-74.9130387262
 20
-25.896888045
 30
0.0
 10
-74.8633728132
 20
-25.9210987513
 30
0.0
 10
-74.8302355653
 20
-25.95230288
 30
0.0
 10
-74.8214194123
 20
-25.9785870345
 30
0.0
 10
-74.8214194123
 20
-25.9903260329
 30
0.0
  0
LINE
  5
45E
100
AcDbEntity
  8
0
100
AcDbLine
 62
250
  6
CONTINUOUS
 10
-75.861428006
 20
26.5286232409
 11
-75.8615264964
 21
26.5086074481
  0
SPLINE
  5
45F
100
AcDbEntity
  8
0
100
AcDbSpline
 62
250
  6
CONTINUOUS
 70
0
 71
3
 72
9
 73
5
 74
0
 42
0.0000001
 43
0.0000001
 44
0.0000000001
 40
0.0
 40
0.0
 40
0.0
 40
0.0
 40
0.4758656545
 40
1.0
 40
1.0
 40
1.0
 40
1.0
 10
-75.5342230042
 20
26.4667331961
 30
0.0
 10
-75.5471640758
 20
26.4736025477
 30
0.0
 10
-75.5782815739
 20
26.4812892108
 30
0.0
 10
-75.6093097008
 20
26.4752298969
 30
0.0
 10
-75.6245040229
 20
26.4697941135
 30
0.0
  0
LINE
  5
460
100
AcDbEntity
  8
0
100
AcDbLine
 62
250
  6
CONTINUOUS
 10
-75.9444762228
 20
-26.5709159932
 11
-75.9446311191
 21
-26.5509203682
  0
SPLINE
  5
461
100
AcDbEntity
  8
0
100
AcDbSpline
 62
250
  6
CONTINUOUS
 70
0
 71
3
 72
13
 73
9
 74
0
 42
0.0000001
 43
0.0000001
 44
0.0000000001
 40
0.0
 40
0.0
 40
0.0
 40
0.0
 40
0.3880873768
 40
0.7025988063
 40
0.8214552708
 40
0.9105861323
 40
0.9687926632
 40
1.0
 40
1.0
 40
1.0
 40
1.0
 10
-76.8956468285
 20
26.9276792439
 30
0.0
 10
-76.8804489235
 20
26.954388973
 30
0.0
 10
-76.8519344022
 20
27.0021522321
 30
0.0
 10
-76.8157160563
 20
27.0563451373
 30
0.0
 10
-76.7904313898
 20
27.0889874445
 30
0.0
 10
-76.7757981875
 20
27.1045153454
 30
0.0
 10
-76.7656130292
 20
27.1136634531
 30
0.0
 10
-76.7576937806
 20
27.1161783954
 30
0.0
 10
-76.7555131786
 20
27.1150157961
 30
0.0
  0
SPLINE
  5
462
100
AcDbEntity
  8
0
100
AcDbSpline
 62
250
  6
CONTINUOUS
 70
0
 71
3
 72
9
 73
5
 74
0
 42
0.0000001
 43
0.0000001
 44
0.0000000001
 40
0.0
 40
0.0
 40
0.0
 40
0.0
 40
0.559051935
 40
1.0
 40
1.0
 40
1.0
 40
1.0
 10
-76.8956468285
 20
-26.9276792439
 30
0.0
 10
-76.8794791537
 20
-26.956105941
 30
0.0
 10
-76.8494309661
 20
-27.0063036816
 30
0.0
 10
-76.8167048347
 20
-27.0548979666
 30
0.0
 10
-76.800938135
 20
-27.0753122965
 30
0.0
  0
SPLINE
  5
463
100
AcDbEntity
  8
0
100
AcDbSpline
 62
250
  6
CONTINUOUS
 70
0
 71
3
 72
10
 73
6
 74
0
 42
0.0000001
 43
0.0000001
 44
0.0000000001
 40
0.0
 40
0.0
 40
0.0
 40
0.0
 40
0.6950890107
 40
0.8909699854
 40
1.0
 40
1.0
 40
1.0
 40
1.0
 10
-76.800938135
 20
-27.0753122965
 30
0.0
 10
-76.7921465729
 20
-27.0866953919
 30
0.0
 10
-76.7800719832
 20
-27.1011552054
 30
0.0
 10
-76.7645696838
 20
-27.1142214567
 30
0.0
 10
-76.7575080271
 20
-27.1160695448
 30
0.0
 10
-76.7555131786
 20
-27.1150157961
 30
0.0
  0
SPLINE
  5
464
100
AcDbEntity
  8
0
100
AcDbSpline
 62
7
  6
CONTINUOUS
 70
0
 71
3
 72
12
 73
8
 74
0
 42
0.0000001
 43
0.0000001
 44
0.0000000001
 40
0.0
 40
0.0
 40
0.0
 40
0.0
 40
0.1697215909
 40
0.2706372439
 40
0.3867390335
 40
0.6676292082
 40
1.0
 40
1.0
 40
1.0
 40
1.0
 10
-74.8214194123
 20
25.9209627273
 30
0.0
 10
-74.8214194123
 20
25.9076888863
 30
0.0
 10
-74.8295840043
 20
25.886341911
 30
0.0
 10
-74.8504210487
 20
25.8642944149
 30
0.0
 10
-74.882493186
 20
25.8417421274
 30
0.0
 10
-74.9368934944
 20
25.8219069619
 30
0.0
 10
-74.9849586802
 20
25.8164571063
 30
0.0
 10
-75.010952221
 20
25.8162276178
 30
0.0
  0
SPLINE
  5
465
100
AcDbEntity
  8
0
100
AcDbSpline
 62
250
  6
CONTINUOUS
 70
0
 71
3
 72
10
 73
6
 74
0
 42
0.0000001
 43
0.0000001
 44
0.0000000001
 40
0.0
 40
0.0
 40
0.0
 40
0.0
 40
0.2213506535
 40
0.4698164785
 40
1.0
 40
1.0
 40
1.0
 40
1.0
 10
-75.7153317151
 20
-26.5162094923
 30
0.0
 10
-75.7251454205
 20
-26.5214535121
 30
0.0
 10
-75.7476849294
 20
-26.5291832151
 30
0.0
 10
-75.7966517461
 20
-26.540414477
 30
0.0
 10
-75.8356368431
 20
-26.5451989542
 30
0.0
 10
-75.862194199
 20
-26.547436437
 30
0.0
  0
SPLINE
  5
466
100
AcDbEntity
  8
0
100
AcDbSpline
 62
250
  6
CONTINUOUS
 70
0
 71
3
 72
10
 73
6
 74
0
 42
0.0000001
 43
0.0000001
 44
0.0000000001
 40
0.0
 40
0.0
 40
0.0
 40
0.0
 40
0.5282935748
 40
0.7769943771
 40
1.0
 40
1.0
 40
1.0
 40
1.0
 10
-75.7748821952
 20
26.5035105491
 30
0.0
 10
-75.7477695098
 20
26.5007899987
 30
0.0
 10
-75.707937048
 20
26.4953299967
 30
0.0
 10
-75.6578105377
 20
26.4833011597
 30
0.0
 10
-75.6346493568
 20
26.4752142055
 30
0.0
 10
-75.6245040229
 20
26.4697941135
 30
0.0
  0
LINE
  5
467
100
AcDbEntity
  8
0
100
AcDbLine
 62
250
  6
CONTINUOUS
 10
-77.8214194124
 20
26.5438008307
 11
-75.8615264964
 21
26.5086074481
  0
LINE
  5
468
100
AcDbEntity
  8
0
100
AcDbLine
 62
7
  6
CONTINUOUS
 10
-76.8195394924
 20
25.8000830551
 11
-77.8214193892
 21
25.8344712818
  0
ELLIPSE
  5
469
100
AcDbEntity
  8
0
100
AcDbEllipse
 62
7
  6
CONTINUOUS
 10
-75.0214194123
 20
-26.079798695
 30
0.0
 11
0.1417119467
 21
0.1422961243
 31
0.0
 40
0.9918061237
 41
0.5506956737
 42
0.7350951877
  0
ELLIPSE
  5
46A
100
AcDbEntity
  8
0
100
AcDbEllipse
 62
7
  6
CONTINUOUS
 10
4790.9089038766
 20
0.0
 30
0.0
 11
5070.6192780382
 21
20.8600030618
 31
0.0
 40
0.0041137573
 41
-2.8584753448
 42
-2.856472503
  0
ELLIPSE
  5
46B
100
AcDbEntity
  8
0
100
AcDbEllipse
 62
7
  6
CONTINUOUS
 10
18.3273726527
 20
0.0
 30
0.0
 11
530.7034459343
 21
0.0
 31
0.0
 40
0.0494155445
 41
1.7475925186
 42
1.7510554651
  0
ENDSEC
  0
SECTION
  2
OBJECTS
  0
DICTIONARY
  5
C
100
AcDbDictionary
280
0
281
1
  3
ACAD_GROUP
350
D
  3
ACAD_MLINESTYLE
350
17
  3
ACAD_LAYOUT
350
1A
  3
ACAD_PLOTSETTINGS
350
19
  3
ACAD_PLOTSTYLENAME
350
E
  0
DICTIONARY
  5
D
102
{ACAD_REACTORS
330
C
102
}
100
AcDbDictionary
280
0
281
1
  0
ACDBDICTIONARYWDFLT
  5
E
102
{ACAD_REACTORS
330
C
102
}
100
AcDbDictionary
281
1
  3
Normal
350
F
100
AcDbDictionaryWithDefault
340
F
  0
DICTIONARY
  5
17
102
{ACAD_REACTORS
330
C
102
}
100
AcDbDictionary
280
0
281
1
  3
Standard
350
18
  0
DICTIONARY
  5
19
102
{ACAD_REACTORS
330
C
102
}
100
AcDbDictionary
281
1
  0
DICTIONARY
  5
1A
102
{ACAD_REACTORS
330
C
102
}
100
AcDbDictionary
281
1
  3
Model
350
46C
  3
Layout1
350
46D
  0
ACDBPLACEHOLDER
  5
F
102
{ACAD_REACTORS
330
E
102
}
  0
MLINESTYLE
  5
18
102
{ACAD_REACTORS
330
17
102
}
100
AcDbMlineStyle
  2
STANDARD
 70
0
  3

 62
256
 51
90.0
 52
90.0
 71
2
 49
0.5
 62
256
  6
BYLAYER
 49
-0.5
 62
256
  6
BYLAYER
  0
LAYOUT
  5
46C
102
{ACAD_REACTORS
330
1A
102
}
100
AcDbPlotSettings
  1

  2
none_device
  4
ISO_A4_(297.00_x_210.00_MM)
  6

 40
0.0
 41
0.0
 42
0.0
 43
0.0
 44
297.0
 45
210.0
 46
0.0
 47
0.0
 48
0.0
 49
0.0
140
0.0
141
0.0
142
1.0
143
1.0
 70
1024
 72
1
 73
0
 74
0
  7

 75
0
147
1.0
148
0.0
149
0.0
100
AcDbLayout
  1
Model
 70
0
 71
0
 10
0.0
 20
0.0
 11
297.0
 21
210.0
 12
0.0
 22
0.0
 32
0.0
 14
0.0
 24
0.0
 34
0.0
 15
0.0
 25
0.0
 35
0.0
146
0.0
 13
0.0
 23
0.0
 33
0.0
 16
1.0
 26
0.0
 36
0.0
 17
0.0
 27
1.0
 37
0.0
 76
0
330
21E
345
0
346
0
  0
LAYOUT
  5
46D
102
{ACAD_REACTORS
330
1A
102
}
100
AcDbPlotSettings
  1

  2
none_device
  4
ISO_A4_(297.00_x_210.00_MM)
  6

 40
0.0
 41
0.0
 42
0.0
 43
0.0
 44
297.0
 45
210.0
 46
0.0
 47
0.0
 48
0.0
 49
0.0
140
0.0
141
0.0
142
1.0
143
1.0
 70
0
 72
1
 73
0
 74
0
  7

 75
0
147
1.0
148
0.0
149
0.0
100
AcDbLayout
  1
Layout1
 70
0
 71
1
 10
0.0
 20
0.0
 11
297.0
 21
210.0
 12
0.0
 22
0.0
 32
0.0
 14
0.0
 24
0.0
 34
0.0
 15
0.0
 25
0.0
 35
0.0
146
0.0
 13
0.0
 23
0.0
 33
0.0
 16
1.0
 26
0.0
 36
0.0
 17
0.0
 27
1.0
 37
0.0
 76
0
330
21F
345
0
346
0
  0
ENDSEC
  0
EOF
