  0
SECTION
  2
HEADER
  9
$ACADVER
  1
AC1024
  9
$DWGCODEPAGE
  3
ANSI_1252
  9
$EXTMAX
 10
297.0
 20
210.0
 30
0.0
  9
$EXTMIN
 10
0.0
 20
0.0
 30
0.0
  9
$LIMMIN
 10
0.0
 20
0.0
  9
$LIMMAX
 10
297.0
 20
210.0
  9
$VIEWCTR
 10
148.5
 20
105.0
  9
$VIEWSIZE
 40
210.0
  9
$CLAYER
  8
0
  9
$LTSCALE
 40
16.335
  9
$CELTYPE
  6
BYLAYER
  9
$DIMSCALE
 40
1.0
  9
$DIMASZ
 40
3.0
  9
$DIMEXO
 40
0.5
  9
$DIMDLI
 40
11.286
  9
$DIMEXE
 40
1.5
  9
$DIMCEN
 40
2.673
  9
$DIMLFAC
 40
1.0
  9
$DIMBLK
  1
_FILLED
  9
$DIMALT
 70
0
  9
$DIMALTF
 40
0.0393700787
  9
$DIMTXT
 40
3.0
  9
$DIMTOL
 70
1
  9
$DIMLIM
 70
0
  9
$DIMTFAC
 40
1.0
  9
$DIMTP
 40
0.01
  9
$DIMTM
 40
0.01
  9
$DIMGAP
 40
0.625
  9
$DIMDSEP
 70
44
  9
$AUNITS
 70
0
  9
$PDMODE
 70
3
  9
$PDSIZE
 40
3.0
  9
$HANDSEED
  5
4A2
  9
$TILEMODE
 70
1
  9
$MEASUREMENT
 70
1
  9
$INSUNITS
 70
4
  0
ENDSEC
  0
SECTION
  2
CLASSES
  0
CLASS
  1
ACDBDICTIONARYWDFLT
  2
AcDbDictionaryWithDefault
  3
AutoCAD 2000
 90
0
 91
1
280
0
281
0
  0
CLASS
  1
ACDBPLACEHOLDER
  2
AcDbPlaceHolder
  3
AutoCAD 2000
 90
0
 91
1
280
0
281
0
  0
CLASS
  1
LAYOUT
  2
AcDbLayout
  3
AutoCAD 2000
 90
0
 91
0
280
0
281
0
  0
ENDSEC
  0
SECTION
  2
TABLES
  0
TABLE
  2
VPORT
  5
8
100
AcDbSymbolTable
 70
2
  0
VPORT
  5
1F4
100
AcDbSymbolTableRecord
100
AcDbViewportTableRecord
  2
*ACTIVE
 70
0
 10
0.0
 20
0.0
 11
1.0
 21
1.0
 12
148.5
 22
105.0
 13
0.0
 23
0.0
 14
1.0
 24
1.0
 15
0.0
 25
0.0
 16
0.0
 26
0.0
 36
1.0
 17
0.0
 27
0.0
 37
0.0
 40
210.0
 41
1.4142857143
 42
50.0
 43
0.0
 44
0.0
 50
0.0
 51
0.0
 71
0
 72
100
 73
1
 74
1
 75
0
 76
0
 77
0
 78
0
  0
ENDTAB
  0
TABLE
  2
LTYPE
  5
5
100
AcDbSymbolTable
 70
6
  0
LTYPE
  5
14
100
AcDbSymbolTableRecord
100
AcDbLinetypeTableRecord
  2
BYBLOCK
 70
0
  3

 72
65
 73
0
 40
0.0
  0
LTYPE
  5
15
100
AcDbSymbolTableRecord
100
AcDbLinetypeTableRecord
  2
BYLAYER
 70
0
  3

 72
65
 73
0
 40
0.0
  0
LTYPE
  5
16
100
AcDbSymbolTableRecord
100
AcDbLinetypeTableRecord
  2
CONTINUOUS
 70
64
  3
Solid line
 72
65
 73
0
 40
0.0
  0
LTYPE
  5
1F5
100
AcDbSymbolTableRecord
100
AcDbLinetypeTableRecord
  2
CENTER
 70
64
  3
____ _ ____ _ ____ _ ____ _ ____ _ ____ _ ____
 72
65
 73
4
 40
0.6
 49
0.375
 74
0
 49
-0.075
 74
0
 49
0.075
 74
0
 49
-0.075
 74
0
  0
LTYPE
  5
1F6
100
AcDbSymbolTableRecord
100
AcDbLinetypeTableRecord
  2
HIDDEN
 70
64
  3
- - - - - - - - - - - - - - - - - - - -
 72
65
 73
2
 40
0.2
 49
0.1
 74
0
 49
-0.1
 74
0
  0
LTYPE
  5
1F7
100
AcDbSymbolTableRecord
100
AcDbLinetypeTableRecord
  2
PHANTOM
 70
64
  3
_____ _ _ _____ _ _ _____ _ _ _____
 72
65
 73
6
 40
0.8
 49
0.45
 74
0
 49
-0.05
 74
0
 49
0.1
 74
0
 49
-0.05
 74
0
 49
0.1
 74
0
 49
-0.05
 74
0
  0
LTYPE
  5
1F8
100
AcDbSymbolTableRecord
100
AcDbLinetypeTableRecord
  2
DOT
 70
64
  3
. . . . . . . . . . . . . . . . . . . .
 72
65
 73
2
 40
0.2
 49
0.1
 74
0
 49
-0.1
 74
0
  0
LTYPE
  5
1F9
100
AcDbSymbolTableRecord
100
AcDbLinetypeTableRecord
  2
DASHED
 70
64
  3
- - - - - - - - - - - - - - - - - - - -
 72
65
 73
2
 40
0.2
 49
0.1
 74
0
 49
-0.1
 74
0
  0
ENDTAB
  0
TABLE
  2
LAYER
  5
2
100
AcDbSymbolTable
 70
36
  0
LAYER
  5
10
100
AcDbSymbolTableRecord
100
AcDbLayerTableRecord
  2
0
 70
0
 62
7
  6
CONTINUOUS
370
-3
390
F
  0
LAYER
  5
1FA
100
AcDbSymbolTableRecord
100
AcDbLayerTableRecord
  2
DEFAULT_1
 70
0
 62
7
  6
CENTER
370
-3
390
F
  0
LAYER
  5
1FB
100
AcDbSymbolTableRecord
100
AcDbLayerTableRecord
  2
DEFAULT_2
 70
0
 62
7
  6
HIDDEN
370
-3
390
F
  0
LAYER
  5
1FC
100
AcDbSymbolTableRecord
100
AcDbLayerTableRecord
  2
DEFAULT_3
 70
0
 62
7
  6
PHANTOM
370
-3
390
F
  0
LAYER
  5
1FD
100
AcDbSymbolTableRecord
100
AcDbLayerTableRecord
  2
ASSI
 70
0
 62
7
  6
CONTINUOUS
370
-3
390
F
  0
LAYER
  5
1FE
100
AcDbSymbolTableRecord
100
AcDbLayerTableRecord
  2
COORDINATE
 70
0
 62
7
  6
CONTINUOUS
370
-3
390
F
  0
LAYER
  5
1FF
100
AcDbSymbolTableRecord
100
AcDbLayerTableRecord
  2
COORD_ORIGINE
 70
0
 62
7
  6
CONTINUOUS
370
-3
390
F
  0
LAYER
  5
200
100
AcDbSymbolTableRecord
100
AcDbLayerTableRecord
  2
COPY_PUBLISH
 70
0
 62
7
  6
CONTINUOUS
370
-3
390
F
  0
LAYER
  5
201
100
AcDbSymbolTableRecord
100
AcDbLayerTableRecord
  2
COSMETIC
 70
0
 62
7
  6
CONTINUOUS
370
-3
390
F
  0
LAYER
  5
202
100
AcDbSymbolTableRecord
100
AcDbLayerTableRecord
  2
COSMETICI
 70
0
 62
7
  6
CONTINUOUS
370
-3
390
F
  0
LAYER
  5
203
100
AcDbSymbolTableRecord
100
AcDbLayerTableRecord
  2
CURVE
 70
0
 62
7
  6
CONTINUOUS
370
-3
390
F
  0
LAYER
  5
204
100
AcDbSymbolTableRecord
100
AcDbLayerTableRecord
  2
CURVE_TASSELLI
 70
0
 62
7
  6
CONTINUOUS
370
-3
390
F
  0
LAYER
  5
205
100
AcDbSymbolTableRecord
100
AcDbLayerTableRecord
  2
DRAFT
 70
0
 62
7
  6
CONTINUOUS
370
-3
390
F
  0
LAYER
  5
206
100
AcDbSymbolTableRecord
100
AcDbLayerTableRecord
  2
IMPORT_IGES
 70
0
 62
7
  6
CONTINUOUS
370
-3
390
F
  0
LAYER
  5
207
100
AcDbSymbolTableRecord
100
AcDbLayerTableRecord
  2
INTFCLR_2
 70
0
 62
7
  6
CONTINUOUS
370
-3
390
F
  0
LAYER
  5
208
100
AcDbSymbolTableRecord
100
AcDbLayerTableRecord
  2
INTF_1
 70
0
 62
7
  6
CONTINUOUS
370
-3
390
F
  0
LAYER
  5
209
100
AcDbSymbolTableRecord
100
AcDbLayerTableRecord
  2
INTF_21
 70
0
 62
7
  6
CONTINUOUS
370
-3
390
F
  0
LAYER
  5
20A
100
AcDbSymbolTableRecord
100
AcDbLayerTableRecord
  2
INTF_6
 70
0
 62
7
  6
CONTINUOUS
370
-3
390
F
  0
LAYER
  5
20B
100
AcDbSymbolTableRecord
100
AcDbLayerTableRecord
  2
INTF_7
 70
0
 62
7
  6
CONTINUOUS
370
-3
390
F
  0
LAYER
  5
20C
100
AcDbSymbolTableRecord
100
AcDbLayerTableRecord
  2
INTF_CYAN
 70
0
 62
7
  6
CONTINUOUS
370
-3
390
F
  0
LAYER
  5
20D
100
AcDbSymbolTableRecord
100
AcDbLayerTableRecord
  2
LIVELLO_1
 70
0
 62
7
  6
CONTINUOUS
370
-3
390
F
  0
LAYER
  5
20E
100
AcDbSymbolTableRecord
100
AcDbLayerTableRecord
  2
NOTE
 70
0
 62
7
  6
CONTINUOUS
370
-3
390
F
  0
LAYER
  5
20F
100
AcDbSymbolTableRecord
100
AcDbLayerTableRecord
  2
PIANI
 70
0
 62
7
  6
CONTINUOUS
370
-3
390
F
  0
LAYER
  5
210
100
AcDbSymbolTableRecord
100
AcDbLayerTableRecord
  2
PIANI_ORIGINE
 70
0
 62
7
  6
CONTINUOUS
370
-3
390
F
  0
LAYER
  5
211
100
AcDbSymbolTableRecord
100
AcDbLayerTableRecord
  2
PIANI_RIFERIMENTO
 70
0
 62
7
  6
CONTINUOUS
370
-3
390
F
  0
LAYER
  5
212
100
AcDbSymbolTableRecord
100
AcDbLayerTableRecord
  2
PUNTI
 70
0
 62
7
  6
CONTINUOUS
370
-3
390
F
  0
LAYER
  5
213
100
AcDbSymbolTableRecord
100
AcDbLayerTableRecord
  2
RACCORDO
 70
0
 62
7
  6
CONTINUOUS
370
-3
390
F
  0
LAYER
  5
214
100
AcDbSymbolTableRecord
100
AcDbLayerTableRecord
  2
RGB__255__255__255__
 70
0
 62
7
  6
CONTINUOUS
370
-3
390
F
  0
LAYER
  5
215
100
AcDbSymbolTableRecord
100
AcDbLayerTableRecord
  2
RGB____0____0____0__
 70
0
 62
7
  6
CONTINUOUS
370
-3
390
F
  0
LAYER
  5
216
100
AcDbSymbolTableRecord
100
AcDbLayerTableRecord
  2
SIMBOLI
 70
0
 62
7
  6
CONTINUOUS
370
-3
390
F
  0
LAYER
  5
217
100
AcDbSymbolTableRecord
100
AcDbLayerTableRecord
  2
SMUSSO
 70
0
 62
7
  6
CONTINUOUS
370
-3
390
F
  0
LAYER
  5
218
100
AcDbSymbolTableRecord
100
AcDbLayerTableRecord
  2
SUPERFICI
 70
0
 62
7
  6
CONTINUOUS
370
-3
390
F
  0
LAYER
  5
219
100
AcDbSymbolTableRecord
100
AcDbLayerTableRecord
  2
TRASH
 70
0
 62
7
  6
CONTINUOUS
370
-3
390
F
  0
LAYER
  5
21A
100
AcDbSymbolTableRecord
100
AcDbLayerTableRecord
  2
WHITE
 70
0
 62
7
  6
CONTINUOUS
370
-3
390
F
  0
LAYER
  5
21B
100
AcDbSymbolTableRecord
100
AcDbLayerTableRecord
  2
XSEC_DATUMS
 70
0
 62
7
  6
CONTINUOUS
370
-3
390
F
  0
ENDTAB
  0
TABLE
  2
STYLE
  5
3
100
AcDbSymbolTable
 70
1
  0
STYLE
  5
11
100
AcDbSymbolTableRecord
100
AcDbTextStyleTableRecord
  2
STANDARD
 70
0
 40
0.0
 41
0.8
 50
0.0
 71
0
 42
0.2
  3
txt
  4

  0
STYLE
  5
21C
100
AcDbSymbolTableRecord
100
AcDbTextStyleTableRecord
  2
TEXTSTYLE_1
 70
0
 40
0.0
 41
0.8
 50
0.0
 71
0
 42
0.2
  3
gdt
  4

  0
ENDTAB
  0
TABLE
  2
VIEW
  5
6
100
AcDbSymbolTable
 70
0
  0
ENDTAB
  0
TABLE
  2
UCS
  5
7
100
AcDbSymbolTable
 70
0
  0
ENDTAB
  0
TABLE
  2
APPID
  5
9
100
AcDbSymbolTable
 70
1
  0
APPID
  5
21D
100
AcDbSymbolTableRecord
100
AcDbRegAppTableRecord
  2
ACAD
 70
0
  0
ENDTAB
  0
TABLE
  2
BLOCK_RECORD
  5
1
100
AcDbSymbolTable
 70
0
  0
BLOCK_RECORD
  5
21E
100
AcDbSymbolTableRecord
100
AcDbBlockTableRecord
  2
*Model_Space
  0
BLOCK_RECORD
  5
21F
100
AcDbSymbolTableRecord
100
AcDbBlockTableRecord
  2
*Paper_Space
  0
BLOCK_RECORD
  5
220
100
AcDbSymbolTableRecord
100
AcDbBlockTableRecord
  2
_FILLED
  0
BLOCK_RECORD
  5
221
100
AcDbSymbolTableRecord
100
AcDbBlockTableRecord
  2
*D0
  0
BLOCK_RECORD
  5
222
100
AcDbSymbolTableRecord
100
AcDbBlockTableRecord
  2
*D1
  0
BLOCK_RECORD
  5
223
100
AcDbSymbolTableRecord
100
AcDbBlockTableRecord
  2
*D2
  0
BLOCK_RECORD
  5
224
100
AcDbSymbolTableRecord
100
AcDbBlockTableRecord
  2
*D3
  0
ENDTAB
  0
TABLE
  2
DIMSTYLE
  5
A
100
AcDbSymbolTable
 70
1
100
AcDbDimStyleTable
 71
0
  0
DIMSTYLE
105
225
100
AcDbSymbolTableRecord
100
AcDbDimStyleTableRecord
  2
STANDARD
 70
0
  3

  4

 40
1.0
 41
3.0
 42
0.5
 43
0.38
 44
1.5
 45
0.0
 46
0.0
 47
0.01
 48
0.01
140
3.0
141
0.09
142
0.0
143
25.4
144
1.0
145
0.0
146
1.0
147
0.625
 71
1
 72
0
 73
0
 74
0
 75
0
 76
0
 77
1
 78
8
 79
2
170
0
171
1
172
0
173
0
174
0
175
0
176
0
177
0
178
0
270
2
179
2
271
2
272
2
273
2
274
2
275
0
280
0
281
0
282
0
283
1
284
8
285
0
286
0
287
3
288
0
340
11
278
44
341
220
342
220
343
220
344
220
  0
DIMSTYLE
105
226
100
AcDbSymbolTableRecord
100
AcDbDimStyleTableRecord
  2
DIMSTYLE_1
 70
0
  3

  4

 40
1.0
 41
3.0
 42
0.5
 43
0.38
 44
1.5
 45
0.0
 46
0.0
 47
0.0
 48
0.0
140
3.0
141
0.09
142
0.0
143
25.4
144
1.0
145
0.0
146
1.0
147
0.75
 71
0
 72
0
 73
0
 74
0
 75
0
 76
0
 77
1
 78
8
 79
2
170
0
171
1
172
0
173
0
174
0
175
0
176
0
177
0
178
0
270
2
179
2
271
2
272
2
273
2
274
2
275
0
280
0
281
0
282
0
283
1
284
8
285
0
286
0
287
3
288
0
340
11
278
44
341
220
342
220
343
220
344
220
  0
ENDTAB
  0
ENDSEC
  0
SECTION
  2
BLOCKS
  0
BLOCK
  5
20
100
AcDbEntity
  8
0
100
AcDbBlockBegin
  2
*Model_Space
 70
0
 10
0.0
 20
0.0
 30
0.0
  3
*Model_Space
  1

  0
ENDBLK
  5
21
100
AcDbEntity
  8
0
100
AcDbBlockEnd
  0
BLOCK
  5
1C
100
AcDbEntity
  8
0
100
AcDbBlockBegin
  2
*Paper_Space
 70
0
 10
0.0
 20
0.0
 30
0.0
  3
*Paper_Space
  1

  0
ENDBLK
  5
1D
100
AcDbEntity
  8
0
100
AcDbBlockEnd
  0
BLOCK
  5
227
100
AcDbEntity
  8
0
100
AcDbBlockBegin
  2
_FILLED
 70
64
 10
0.0
 20
0.0
  3
_FILLED
  1

  0
SOLID
  5
228
100
AcDbEntity
  8
0
  6
BYBLOCK
 62
0
100
AcDbTrace
 10
0.0
 20
0.0
 11
-1.0
 21
0.3166666667
 12
-1.0
 22
-0.3166666667
 13
-1.0
 23
-0.3166666667
  0
ENDBLK
  5
229
100
AcDbEntity
  8
0
  6
BYBLOCK
 62
0
100
AcDbBlockEnd
  0
BLOCK
  5
22A
100
AcDbEntity
  8
0
100
AcDbBlockBegin
 62
7
  6
CONTINUOUS
  2
*D0
 70
65
 10
0.0
 20
0.0
  3
*D0
  1

  0
MTEXT
  5
22B
100
AcDbEntity
  8
0
100
AcDbMText
 62
7
  6
CONTINUOUS
  7
STANDARD
 71
2
 72
1
 10
0.0
 20
58.8134064884
 30
0.0
 11
1.0
 21
0.0
 31
0.0
 73
2
 44
0.9
  1
{\ftxt;\W0.0001;\H0.0001;\~}{\ftxt;\W1.5714285714;\H3.0; }{\ftxt;\W0.0001;\H0.0001;\~}
 40
3.0
 41
7.0714285714
  0
LINE
  5
22C
100
AcDbEntity
  8
0
100
AcDbLine
 62
7
  6
CONTINUOUS
 10
-45.0
 20
44.4993911979
 11
-45.0
 21
56.5634064884
  0
LINE
  5
22D
100
AcDbEntity
  8
0
100
AcDbLine
 62
7
  6
CONTINUOUS
 10
45.0
 20
44.4993911979
 11
45.0
 21
56.5634064884
  0
LINE
  5
22E
100
AcDbEntity
  8
0
100
AcDbLine
 62
7
  6
CONTINUOUS
 10
-45.0
 20
55.0634064884
 11
0.0
 21
55.0634064884
  0
LINE
  5
22F
100
AcDbEntity
  8
0
100
AcDbLine
 62
7
  6
CONTINUOUS
 10
45.0
 20
55.0634064884
 11
0.0
 21
55.0634064884
  0
INSERT
  5
230
100
AcDbEntity
  8
0
100
AcDbBlockReference
 62
7
  6
CONTINUOUS
  2
_FILLED
 10
-45.0
 20
55.0634064884
 41
3.0
 42
3.0
 43
3.0
 50
180.0
  0
INSERT
  5
231
100
AcDbEntity
  8
0
100
AcDbBlockReference
 62
7
  6
CONTINUOUS
  2
_FILLED
 10
45.0
 20
55.0634064884
 41
3.0
 42
3.0
 43
3.0
  0
ENDBLK
  5
232
100
AcDbEntity
  8
0
  6
BYBLOCK
 62
0
100
AcDbBlockEnd
  0
BLOCK
  5
233
100
AcDbEntity
  8
0
100
AcDbBlockBegin
 62
7
  6
CONTINUOUS
  2
*D1
 70
65
 10
0.0
 20
0.0
  3
*D1
  1

  0
MTEXT
  5
234
100
AcDbEntity
  8
0
100
AcDbMText
 62
7
  6
CONTINUOUS
  7
STANDARD
 71
2
 72
1
 10
51.8776907173
 20
0.0
 30
0.0
 11
0.0
 21
1.0
 31
0.0
 73
2
 44
0.9
  1
{\ftxt;\W0.0001;\H0.0001;\~}{\ftxt;\W1.5714285714;\H3.0; }{\ftxt;\W0.0001;\H0.0001;\~}
 40
3.0
 41
7.0714285714
  0
LINE
  5
235
100
AcDbEntity
  8
0
100
AcDbLine
 62
7
  6
CONTINUOUS
 10
44.4993911979
 20
45.0
 11
57.1276907173
 21
45.0
  0
LINE
  5
236
100
AcDbEntity
  8
0
100
AcDbLine
 62
7
  6
CONTINUOUS
 10
44.4993911979
 20
-45.0
 11
57.1276907173
 21
-45.0
  0
LINE
  5
237
100
AcDbEntity
  8
0
100
AcDbLine
 62
7
  6
CONTINUOUS
 10
55.6276907173
 20
45.0
 11
55.6276907173
 21
0.0
  0
LINE
  5
238
100
AcDbEntity
  8
0
100
AcDbLine
 62
7
  6
CONTINUOUS
 10
55.6276907173
 20
-45.0
 11
55.6276907173
 21
0.0
  0
INSERT
  5
239
100
AcDbEntity
  8
0
100
AcDbBlockReference
 62
7
  6
CONTINUOUS
  2
_FILLED
 10
55.6276907173
 20
45.0
 41
3.0
 42
3.0
 43
3.0
 50
90.0
  0
INSERT
  5
23A
100
AcDbEntity
  8
0
100
AcDbBlockReference
 62
7
  6
CONTINUOUS
  2
_FILLED
 10
55.6276907173
 20
-45.0
 41
3.0
 42
3.0
 43
3.0
 50
270.0
  0
ENDBLK
  5
23B
100
AcDbEntity
  8
0
  6
BYBLOCK
 62
0
100
AcDbBlockEnd
  0
BLOCK
  5
23C
100
AcDbEntity
  8
0
100
AcDbBlockBegin
 62
7
  6
CONTINUOUS
  2
*D2
 70
65
 10
0.0
 20
0.0
  3
*D2
  1

  0
MTEXT
  5
23D
100
AcDbEntity
  8
0
100
AcDbMText
 62
7
  6
CONTINUOUS
  7
STANDARD
 71
3
 72
1
 10
-88.899046971
 20
66.6519726732
 30
0.0
 11
1.0
 21
0.0
 31
0.0
 73
2
 44
0.9
  1
{\ftxt;\W0.0001;\H0.0001;\~}{\ftxt;\W3.2142857143;\H3.0; }{\ftxt;\W0.0001;\H0.0001;\~}
 40
3.0
 41
14.4642857143
  0
LINE
  5
23E
100
AcDbEntity
  8
0
100
AcDbLine
 62
7
  6
CONTINUOUS
 10
-87.9539235154
 20
43.8767374102
 11
-87.9539235154
 21
64.4019726732
  0
LINE
  5
23F
100
AcDbEntity
  8
0
100
AcDbLine
 62
7
  6
CONTINUOUS
 10
-77.8039235154
 20
26.4209627273
 11
-77.8039235154
 21
64.4019726732
  0
LINE
  5
240
100
AcDbEntity
  8
0
100
AcDbLine
 62
7
  6
CONTINUOUS
 10
-87.9539235154
 20
62.9019726732
 11
-82.8789235154
 21
62.9019726732
  0
LINE
  5
241
100
AcDbEntity
  8
0
100
AcDbLine
 62
7
  6
CONTINUOUS
 10
-82.8789235154
 20
62.9019726732
 11
-98.5419041139
 21
62.9019726732
  0
LINE
  5
242
100
AcDbEntity
  8
0
100
AcDbLine
 62
7
  6
CONTINUOUS
 10
-77.8039235154
 20
62.9019726732
 11
-82.8789235154
 21
62.9019726732
  0
INSERT
  5
243
100
AcDbEntity
  8
0
100
AcDbBlockReference
 62
7
  6
CONTINUOUS
  2
_FILLED
 10
-87.9539235154
 20
62.9019726732
 41
3.0
 42
3.0
 43
3.0
 50
180.0
  0
INSERT
  5
244
100
AcDbEntity
  8
0
100
AcDbBlockReference
 62
7
  6
CONTINUOUS
  2
_FILLED
 10
-77.8039235154
 20
62.9019726732
 41
3.0
 42
3.0
 43
3.0
  0
ENDBLK
  5
245
100
AcDbEntity
  8
0
  6
BYBLOCK
 62
0
100
AcDbBlockEnd
  0
BLOCK
  5
246
100
AcDbEntity
  8
0
100
AcDbBlockBegin
 62
7
  6
CONTINUOUS
  2
*D3
 70
65
 10
0.0
 20
0.0
  3
*D3
  1

  0
MTEXT
  5
247
100
AcDbEntity
  8
0
100
AcDbMText
 62
7
  6
CONTINUOUS
  7
STANDARD
 71
3
 72
1
 10
-89.0957378446
 20
58.5965667214
 30
0.0
 11
1.0
 21
0.0
 31
0.0
 73
2
 44
0.9
  1
{\ftxt;\W0.0001;\H0.0001;\~}{\ftxt;\W2.6428571429;\H3.0; }{\ftxt;\W0.0001;\H0.0001;\~}
 40
3.0
 41
11.8928571429
  0
LINE
  5
248
100
AcDbEntity
  8
0
100
AcDbLine
 62
7
  6
CONTINUOUS
 10
-80.8039235154
 20
41.7038975196
 11
-80.8039235154
 21
56.3465667214
  0
LINE
  5
249
100
AcDbEntity
  8
0
100
AcDbLine
 62
7
  6
CONTINUOUS
 10
-87.9539235154
 20
43.8767374102
 11
-87.9539235154
 21
56.3465667214
  0
LINE
  5
24A
100
AcDbEntity
  8
0
100
AcDbLine
 62
7
  6
CONTINUOUS
 10
-80.8039235154
 20
54.8465667214
 11
-84.3789235154
 21
54.8465667214
  0
LINE
  5
24B
100
AcDbEntity
  8
0
100
AcDbLine
 62
7
  6
CONTINUOUS
 10
-87.9539235154
 20
54.8465667214
 11
-84.3789235154
 21
54.8465667214
  0
LINE
  5
24C
100
AcDbEntity
  8
0
100
AcDbLine
 62
7
  6
CONTINUOUS
 10
-84.3789235154
 20
54.8465667214
 11
-97.0243092732
 21
54.8465667214
  0
INSERT
  5
24D
100
AcDbEntity
  8
0
100
AcDbBlockReference
 62
7
  6
CONTINUOUS
  2
_FILLED
 10
-80.8039235154
 20
54.8465667214
 41
3.0
 42
3.0
 43
3.0
  0
INSERT
  5
24E
100
AcDbEntity
  8
0
100
AcDbBlockReference
 62
7
  6
CONTINUOUS
  2
_FILLED
 10
-87.9539235154
 20
54.8465667214
 41
3.0
 42
3.0
 43
3.0
 50
180.0
  0
ENDBLK
  5
24F
100
AcDbEntity
  8
0
  6
BYBLOCK
 62
0
100
AcDbBlockEnd
  0
ENDSEC
  0
SECTION
  2
ENTITIES
  0
DIMENSION
  5
250
100
AcDbEntity
  8
0
100
AcDbDimension
 62
7
  6
CONTINUOUS
  2
*D0
 10
45.0
 20
55.0634064884
 11
-0.4285713773
 21
55.0634064884
 70
160
 71
2
 72
2
 41
0.9
 42
90.0
  1
{\ftxt;\W0.0001;\H0.0001;\~}{\ftxt;\W1.5714285714;\H3.0; }{\ftxt;\W0.0001;\H0.0001;\~}
  3
DIMSTYLE_1
100
AcDbAlignedDimension
 13
-45.0
 23
43.9993911979
 14
45.0
 24
43.9993911979
100
AcDbRotatedDimension
  0
DIMENSION
  5
251
100
AcDbEntity
  8
0
100
AcDbDimension
 62
7
  6
CONTINUOUS
  2
*D1
 10
55.6276907173
 20
-45.0
 11
55.6276907173
 21
-0.4285713369
 70
160
 71
2
 72
2
 41
0.9
 42
90.0
  1
{\ftxt;\W0.0001;\H0.0001;\~}{\ftxt;\W1.5714285714;\H3.0; }{\ftxt;\W0.0001;\H0.0001;\~}
  3
DIMSTYLE_1
100
AcDbAlignedDimension
 13
43.9993911979
 23
45.0
 14
43.9993911979
 24
-45.0
 50
270.0
100
AcDbRotatedDimension
  0
DIMENSION
  5
252
100
AcDbEntity
  8
0
100
AcDbDimension
 62
7
  6
CONTINUOUS
  2
*D2
 10
-77.8039235154
 20
62.9019726732
 11
-94.1490453186
 21
62.9019726732
 70
160
 71
3
 72
2
 41
0.9
 42
10.15
  1
{\ftxt;\W0.0001;\H0.0001;\~}{\ftxt;\W3.2142857143;\H3.0; }{\ftxt;\W0.0001;\H0.0001;\~}
  3
DIMSTYLE_1
100
AcDbAlignedDimension
 13
-87.9539235154
 23
43.3767374102
 14
-77.8039235154
 24
25.9209627273
100
AcDbRotatedDimension
  0
DIMENSION
  5
253
100
AcDbEntity
  8
0
100
AcDbDimension
 62
7
  6
CONTINUOUS
  2
*D3
 10
-87.9539235154
 20
54.8465667214
 11
-93.4885946503
 21
54.8465667214
 70
160
 71
3
 72
2
 41
0.9
 42
7.15
  1
{\ftxt;\W0.0001;\H0.0001;\~}{\ftxt;\W2.6428571429;\H3.0; }{\ftxt;\W0.0001;\H0.0001;\~}
  3
DIMSTYLE_1
100
AcDbAlignedDimension
 13
-80.8039235154
 23
41.2038975196
 14
-87.9539235154
 24
43.3767374102
 50
180.0
100
AcDbRotatedDimension
  0
LINE
  5
254
100
AcDbEntity
  8
0
100
AcDbLine
 62
7
  6
CONTINUOUS
 10
-43.8199854699
 20
44.7906993223
 11
-43.8055596544
 21
44.8061684565
  0
LINE
  5
255
100
AcDbEntity
  8
ASSI
100
AcDbLine
 62
7
  6
CONTINUOUS
 10
-43.8199854699
 20
44.7906993223
 11
-43.8055596544
 21
44.8061684565
  0
LINE
  5
256
100
AcDbEntity
  8
0
100
AcDbLine
 62
7
  6
CONTINUOUS
 10
-45.0
 20
43.9993911979
 11
-43.9993911979
 21
45.0
  0
LINE
  5
257
100
AcDbEntity
  8
ASSI
100
AcDbLine
 62
7
  6
CONTINUOUS
 10
-45.0
 20
43.9993911979
 11
-43.9993911979
 21
45.0
  0
LINE
  5
258
100
AcDbEntity
  8
0
100
AcDbLine
 62
7
  6
CONTINUOUS
 10
-43.8199854699
 20
44.7906993223
 11
-44.7906993223
 21
43.8199854699
  0
LINE
  5
259
100
AcDbEntity
  8
ASSI
100
AcDbLine
 62
7
  6
CONTINUOUS
 10
-43.8199854699
 20
44.7906993223
 11
-44.7906993223
 21
43.8199854699
  0
LINE
  5
25A
100
AcDbEntity
  8
0
100
AcDbLine
 62
7
  6
CONTINUOUS
 10
-43.3767374102
 20
43.7712689598
 11
-43.7712689598
 21
43.3767374102
  0
LINE
  5
25B
100
AcDbEntity
  8
ASSI
100
AcDbLine
 62
7
  6
CONTINUOUS
 10
-43.3767374102
 20
43.7712689598
 11
-43.7712689598
 21
43.3767374102
  0
LINE
  5
25C
100
AcDbEntity
  8
0
100
AcDbLine
 62
7
  6
CONTINUOUS
 10
-44.8061684565
 20
43.8055596544
 11
-44.7906993223
 21
43.8199854699
  0
LINE
  5
25D
100
AcDbEntity
  8
ASSI
100
AcDbLine
 62
7
  6
CONTINUOUS
 10
-44.8061684565
 20
43.8055596544
 11
-44.7906993223
 21
43.8199854699
  0
LINE
  5
25E
100
AcDbEntity
  8
0
100
AcDbLine
 62
7
  6
CONTINUOUS
 10
-44.7906993223
 20
-43.8199854699
 11
-44.8061684565
 21
-43.8055596544
  0
LINE
  5
25F
100
AcDbEntity
  8
ASSI
100
AcDbLine
 62
7
  6
CONTINUOUS
 10
-44.7906993223
 20
-43.8199854699
 11
-44.8061684565
 21
-43.8055596544
  0
LINE
  5
260
100
AcDbEntity
  8
0
100
AcDbLine
 62
7
  6
CONTINUOUS
 10
-43.9993911979
 20
-45.0
 11
-45.0
 21
-43.9993911979
  0
LINE
  5
261
100
AcDbEntity
  8
ASSI
100
AcDbLine
 62
7
  6
CONTINUOUS
 10
-43.9993911979
 20
-45.0
 11
-45.0
 21
-43.9993911979
  0
LINE
  5
262
100
AcDbEntity
  8
0
100
AcDbLine
 62
7
  6
CONTINUOUS
 10
-44.7906993223
 20
-43.8199854699
 11
-43.8199854699
 21
-44.7906993223
  0
LINE
  5
263
100
AcDbEntity
  8
ASSI
100
AcDbLine
 62
7
  6
CONTINUOUS
 10
-44.7906993223
 20
-43.8199854699
 11
-43.8199854699
 21
-44.7906993223
  0
LINE
  5
264
100
AcDbEntity
  8
0
100
AcDbLine
 62
7
  6
CONTINUOUS
 10
-43.7712689598
 20
-43.3767374102
 11
-43.3767374102
 21
-43.7712689598
  0
LINE
  5
265
100
AcDbEntity
  8
ASSI
100
AcDbLine
 62
7
  6
CONTINUOUS
 10
-43.7712689598
 20
-43.3767374102
 11
-43.3767374102
 21
-43.7712689598
  0
LINE
  5
266
100
AcDbEntity
  8
0
100
AcDbLine
 62
7
  6
CONTINUOUS
 10
-43.8055596544
 20
-44.8061684565
 11
-43.8199854699
 21
-44.7906993223
  0
LINE
  5
267
100
AcDbEntity
  8
ASSI
100
AcDbLine
 62
7
  6
CONTINUOUS
 10
-43.8055596544
 20
-44.8061684565
 11
-43.8199854699
 21
-44.7906993223
  0
LINE
  5
268
100
AcDbEntity
  8
0
100
AcDbLine
 62
7
  6
CONTINUOUS
 10
-45.0
 20
43.9993911979
 11
-45.0
 21
-43.9993911979
  0
LINE
  5
269
100
AcDbEntity
  8
ASSI
100
AcDbLine
 62
7
  6
CONTINUOUS
 10
-45.0
 20
43.9993911979
 11
-45.0
 21
-43.9993911979
  0
LINE
  5
26A
100
AcDbEntity
  8
0
100
AcDbLine
 62
7
  6
CONTINUOUS
 10
-44.8061684565
 20
43.8055596544
 11
-44.8061684565
 21
-43.8055596544
  0
LINE
  5
26B
100
AcDbEntity
  8
ASSI
100
AcDbLine
 62
7
  6
CONTINUOUS
 10
-44.8061684565
 20
43.8055596544
 11
-44.8061684565
 21
-43.8055596544
  0
LINE
  5
26C
100
AcDbEntity
  8
0
100
AcDbLine
 62
7
  6
CONTINUOUS
 10
-43.7712689598
 20
43.3767374102
 11
-43.7712689598
 21
-43.3767374102
  0
LINE
  5
26D
100
AcDbEntity
  8
ASSI
100
AcDbLine
 62
7
  6
CONTINUOUS
 10
-43.7712689598
 20
43.3767374102
 11
-43.7712689598
 21
-43.3767374102
  0
LINE
  5
26E
100
AcDbEntity
  8
0
100
AcDbLine
 62
7
  6
CONTINUOUS
 10
-43.9993911979
 20
-45.0
 11
43.9993911979
 21
-45.0
  0
LINE
  5
26F
100
AcDbEntity
  8
ASSI
100
AcDbLine
 62
7
  6
CONTINUOUS
 10
-43.9993911979
 20
-45.0
 11
43.9993911979
 21
-45.0
  0
LINE
  5
270
100
AcDbEntity
  8
0
100
AcDbLine
 62
7
  6
CONTINUOUS
 10
-43.8055596544
 20
-44.8061684565
 11
43.8055596544
 21
-44.8061684565
  0
LINE
  5
271
100
AcDbEntity
  8
ASSI
100
AcDbLine
 62
7
  6
CONTINUOUS
 10
-43.8055596544
 20
-44.8061684565
 11
43.8055596544
 21
-44.8061684565
  0
LINE
  5
272
100
AcDbEntity
  8
0
100
AcDbLine
 62
7
  6
CONTINUOUS
 10
-43.3767374102
 20
-43.7712689598
 11
43.3767374102
 21
-43.7712689598
  0
LINE
  5
273
100
AcDbEntity
  8
ASSI
100
AcDbLine
 62
7
  6
CONTINUOUS
 10
-43.3767374102
 20
-43.7712689598
 11
43.3767374102
 21
-43.7712689598
  0
LWPOLYLINE
  5
274
100
AcDbEntity
  8
0
100
AcDbPolyline
 62
7
  6
CONTINUOUS
 90
10
 70
0
 43
0.3500000006
 10
-1.9285714102
 20
55.8134083557
 10
-1.0714285848
 20
56.6705462952
 10
-0.8571428254
 20
57.5276932983
 10
-0.8571428254
 20
58.3848312378
 10
-1.2857142735
 20
58.8134092712
 10
-1.9285714102
 20
58.8134092712
 10
-2.3571427875
 20
58.3848312378
 10
-2.3571427875
 20
57.5276932983
 10
-1.9285714102
 20
57.0991243286
 10
-1.0000000219
 20
57.0991243286
  0
LINE
  5
275
100
AcDbEntity
  8
CURVE
100
AcDbLine
 62
250
  6
CONTINUOUS
 10
44.860131217
 20
-36.257398
 11
44.9473759453
 21
-36.257398
  0
LINE
  5
276
100
AcDbEntity
  8
CURVE
100
AcDbLine
 62
250
  6
CONTINUOUS
 10
44.9473759453
 20
-35.735605
 11
44.860131217
 21
-35.735605
  0
LINE
  5
277
100
AcDbEntity
  8
CURVE
100
AcDbLine
 62
250
  6
CONTINUOUS
 10
44.8611556794
 20
-30.6285551388
 11
44.9473759458
 21
-30.6285551388
  0
LINE
  5
278
100
AcDbEntity
  8
CURVE
100
AcDbLine
 62
250
  6
CONTINUOUS
 10
44.8989474951
 20
-30.126163664
 11
44.8749985478
 21
-30.126163664
  0
LINE
  5
279
100
AcDbEntity
  8
CURVE
100
AcDbLine
 62
250
  6
CONTINUOUS
 10
44.9473759458
 20
-30.1088617972
 11
44.9132352194
 21
-30.1088617972
  0
LINE
  5
27A
100
AcDbEntity
  8
CURVE
100
AcDbLine
 62
250
  6
CONTINUOUS
 10
44.9066533149
 20
-29.2870512436
 11
44.9061378054
 21
-29.2870512436
  0
LINE
  5
27B
100
AcDbEntity
  8
0
100
AcDbLine
 62
7
  6
CONTINUOUS
 10
-43.3767374102
 20
-43.7712689598
 11
-43.8199854699
 21
-44.7906993223
  0
LINE
  5
27C
100
AcDbEntity
  8
ASSI
100
AcDbLine
 62
7
  6
CONTINUOUS
 10
-43.3767374102
 20
-43.7712689598
 11
-43.8199854699
 21
-44.7906993223
  0
LINE
  5
27D
100
AcDbEntity
  8
0
100
AcDbLine
 62
7
  6
CONTINUOUS
 10
43.7712689598
 20
43.3767374102
 11
44.7906993223
 21
43.8199854699
  0
LINE
  5
27E
100
AcDbEntity
  8
ASSI
100
AcDbLine
 62
7
  6
CONTINUOUS
 10
43.7712689598
 20
43.3767374102
 11
44.7906993223
 21
43.8199854699
  0
LINE
  5
27F
100
AcDbEntity
  8
0
100
AcDbLine
 62
7
  6
CONTINUOUS
 10
43.7712689598
 20
-43.3767374102
 11
44.7906993223
 21
-43.8199854699
  0
LINE
  5
280
100
AcDbEntity
  8
ASSI
100
AcDbLine
 62
7
  6
CONTINUOUS
 10
43.7712689598
 20
-43.3767374102
 11
44.7906993223
 21
-43.8199854699
  0
LINE
  5
281
100
AcDbEntity
  8
0
100
AcDbLine
 62
7
  6
CONTINUOUS
 10
-43.3767374102
 20
43.7712689598
 11
-43.8199854699
 21
44.7906993223
  0
LINE
  5
282
100
AcDbEntity
  8
ASSI
100
AcDbLine
 62
7
  6
CONTINUOUS
 10
-43.3767374102
 20
43.7712689598
 11
-43.8199854699
 21
44.7906993223
  0
LINE
  5
283
100
AcDbEntity
  8
0
100
AcDbLine
 62
7
  6
CONTINUOUS
 10
-19.65
 20
-6.7
 11
-19.65
 21
6.7
  0
LINE
  5
284
100
AcDbEntity
  8
ASSI
100
AcDbLine
 62
7
  6
CONTINUOUS
 10
-19.65
 20
-6.7
 11
-19.65
 21
6.7
  0
LINE
  5
285
100
AcDbEntity
  8
0
100
AcDbLine
 62
7
  6
CONTINUOUS
 10
-19.15
 20
-6.7
 11
-19.15
 21
6.7
  0
LINE
  5
286
100
AcDbEntity
  8
ASSI
100
AcDbLine
 62
7
  6
CONTINUOUS
 10
-19.15
 20
-6.7
 11
-19.15
 21
6.7
  0
LINE
  5
287
100
AcDbEntity
  8
0
100
AcDbLine
 62
250
  6
CONTINUOUS
 10
-17.95
 20
8.4
 11
-17.95
 21
7.9
  0
LINE
  5
288
100
AcDbEntity
  8
ASSI
100
AcDbLine
 62
250
  6
CONTINUOUS
 10
-17.95
 20
8.4
 11
-17.95
 21
7.9
  0
LINE
  5
289
100
AcDbEntity
  8
0
100
AcDbLine
 62
250
  6
CONTINUOUS
 10
-17.95
 20
-8.4
 11
-17.95
 21
-7.9
  0
LINE
  5
28A
100
AcDbEntity
  8
ASSI
100
AcDbLine
 62
250
  6
CONTINUOUS
 10
-17.95
 20
-8.4
 11
-17.95
 21
-7.9
  0
LINE
  5
28B
100
AcDbEntity
  8
0
100
AcDbLine
 62
7
  6
CONTINUOUS
 10
17.95
 20
-8.4
 11
4.55
 21
-8.4
  0
LINE
  5
28C
100
AcDbEntity
  8
ASSI
100
AcDbLine
 62
7
  6
CONTINUOUS
 10
17.95
 20
-8.4
 11
4.55
 21
-8.4
  0
LINE
  5
28D
100
AcDbEntity
  8
0
100
AcDbLine
 62
7
  6
CONTINUOUS
 10
-4.55
 20
-8.4
 11
-17.95
 21
-8.4
  0
LINE
  5
28E
100
AcDbEntity
  8
ASSI
100
AcDbLine
 62
7
  6
CONTINUOUS
 10
-4.55
 20
-8.4
 11
-17.95
 21
-8.4
  0
LINE
  5
28F
100
AcDbEntity
  8
0
100
AcDbLine
 62
250
  6
CONTINUOUS
 10
-4.55
 20
8.4
 11
-4.55
 21
7.9
  0
LINE
  5
290
100
AcDbEntity
  8
ASSI
100
AcDbLine
 62
250
  6
CONTINUOUS
 10
-4.55
 20
8.4
 11
-4.55
 21
7.9
  0
LINE
  5
291
100
AcDbEntity
  8
0
100
AcDbLine
 62
250
  6
CONTINUOUS
 10
-4.55
 20
-8.4
 11
-4.55
 21
-7.9
  0
LINE
  5
292
100
AcDbEntity
  8
ASSI
100
AcDbLine
 62
250
  6
CONTINUOUS
 10
-4.55
 20
-8.4
 11
-4.55
 21
-7.9
  0
LINE
  5
293
100
AcDbEntity
  8
0
100
AcDbLine
 62
7
  6
CONTINUOUS
 10
17.95
 20
-7.9
 11
4.55
 21
-7.9
  0
LINE
  5
294
100
AcDbEntity
  8
ASSI
100
AcDbLine
 62
7
  6
CONTINUOUS
 10
17.95
 20
-7.9
 11
4.55
 21
-7.9
  0
LINE
  5
295
100
AcDbEntity
  8
0
100
AcDbLine
 62
7
  6
CONTINUOUS
 10
-4.55
 20
-7.9
 11
-17.95
 21
-7.9
  0
LINE
  5
296
100
AcDbEntity
  8
ASSI
100
AcDbLine
 62
7
  6
CONTINUOUS
 10
-4.55
 20
-7.9
 11
-17.95
 21
-7.9
  0
LINE
  5
297
100
AcDbEntity
  8
0
100
AcDbLine
 62
250
  6
CONTINUOUS
 10
-19.65
 20
-6.7
 11
-19.15
 21
-6.7
  0
LINE
  5
298
100
AcDbEntity
  8
ASSI
100
AcDbLine
 62
250
  6
CONTINUOUS
 10
-19.65
 20
-6.7
 11
-19.15
 21
-6.7
  0
LINE
  5
299
100
AcDbEntity
  8
0
100
AcDbLine
 62
250
  6
CONTINUOUS
 10
19.65
 20
-6.7
 11
19.15
 21
-6.7
  0
LINE
  5
29A
100
AcDbEntity
  8
ASSI
100
AcDbLine
 62
250
  6
CONTINUOUS
 10
19.65
 20
-6.7
 11
19.15
 21
-6.7
  0
LINE
  5
29B
100
AcDbEntity
  8
0
100
AcDbLine
 62
250
  6
CONTINUOUS
 10
2.85
 20
-6.7
 11
3.35
 21
-6.7
  0
LINE
  5
29C
100
AcDbEntity
  8
ASSI
100
AcDbLine
 62
250
  6
CONTINUOUS
 10
2.85
 20
-6.7
 11
3.35
 21
-6.7
  0
LINE
  5
29D
100
AcDbEntity
  8
0
100
AcDbLine
 62
250
  6
CONTINUOUS
 10
-2.85
 20
-6.7
 11
-3.35
 21
-6.7
  0
LINE
  5
29E
100
AcDbEntity
  8
ASSI
100
AcDbLine
 62
250
  6
CONTINUOUS
 10
-2.85
 20
-6.7
 11
-3.35
 21
-6.7
  0
LINE
  5
29F
100
AcDbEntity
  8
0
100
AcDbLine
 62
7
  6
CONTINUOUS
 10
-3.35
 20
6.7
 11
-3.35
 21
-6.7
  0
LINE
  5
2A0
100
AcDbEntity
  8
ASSI
100
AcDbLine
 62
7
  6
CONTINUOUS
 10
-3.35
 20
6.7
 11
-3.35
 21
-6.7
  0
LINE
  5
2A1
100
AcDbEntity
  8
0
100
AcDbLine
 62
7
  6
CONTINUOUS
 10
-2.85
 20
6.7
 11
-2.85
 21
-6.7
  0
LINE
  5
2A2
100
AcDbEntity
  8
ASSI
100
AcDbLine
 62
7
  6
CONTINUOUS
 10
-2.85
 20
6.7
 11
-2.85
 21
-6.7
  0
LWPOLYLINE
  5
2A3
100
AcDbEntity
  8
0
100
AcDbPolyline
 62
7
  6
CONTINUOUS
 90
13
 70
0
 43
0.3500000006
 10
0.0
 20
56.6705462952
 10
0.0
 20
57.9562622681
 10
0.2142857063
 20
58.3848312378
 10
0.6428571367
 20
58.8134092712
 10
0.8571428254
 20
58.8134092712
 10
1.2857142735
 20
58.3848312378
 10
1.5000000329
 20
57.9562622681
 10
1.5000000329
 20
56.6705462952
 10
1.2857142735
 20
56.2419773254
 10
0.8571428254
 20
55.8134083557
 10
0.6428571367
 20
55.8134083557
 10
0.2142857063
 20
56.2419773254
 10
0.0
 20
56.6705462952
  0
LINE
  5
2A4
100
AcDbEntity
  8
0
100
AcDbLine
 62
7
  6
CONTINUOUS
 10
-44.8061684565
 20
-43.8055596544
 11
-45.0
 21
-43.9993911979
  0
LINE
  5
2A5
100
AcDbEntity
  8
ASSI
100
AcDbLine
 62
7
  6
CONTINUOUS
 10
-44.8061684565
 20
-43.8055596544
 11
-45.0
 21
-43.9993911979
  0
LINE
  5
2A6
100
AcDbEntity
  8
0
100
AcDbLine
 62
7
  6
CONTINUOUS
 10
43.8055596544
 20
44.8061684565
 11
43.9993911979
 21
45.0
  0
LINE
  5
2A7
100
AcDbEntity
  8
ASSI
100
AcDbLine
 62
7
  6
CONTINUOUS
 10
43.8055596544
 20
44.8061684565
 11
43.9993911979
 21
45.0
  0
LWPOLYLINE
  5
2A8
100
AcDbEntity
  8
0
100
AcDbPolyline
 62
7
  6
CONTINUOUS
 90
13
 70
0
 43
0.3500000006
 10
54.0205458069
 20
-0.0000003204
 10
52.7348343658
 20
-0.0000003204
 10
52.3062608643
 20
0.2142864304
 10
51.8776918945
 20
0.642857666
 10
51.8776918945
 20
0.8571421509
 10
52.3062608643
 20
1.2857133865
 10
52.7348343658
 20
1.5000001373
 10
54.0205458069
 20
1.5000001373
 10
54.4491193085
 20
1.2857133865
 10
54.8776928101
 20
0.8571421509
 10
54.8776928101
 20
0.642857666
 10
54.4491193085
 20
0.2142864304
 10
54.0205458069
 20
-0.0000003204
  0
LINE
  5
2A9
100
AcDbEntity
  8
0
100
AcDbLine
 62
7
  6
CONTINUOUS
 10
43.8055596544
 20
-44.8061684565
 11
43.9993911979
 21
-45.0
  0
LINE
  5
2AA
100
AcDbEntity
  8
ASSI
100
AcDbLine
 62
7
  6
CONTINUOUS
 10
43.8055596544
 20
-44.8061684565
 11
43.9993911979
 21
-45.0
  0
LINE
  5
2AB
100
AcDbEntity
  8
0
100
AcDbLine
 62
7
  6
CONTINUOUS
 10
-44.8061684565
 20
43.8055596544
 11
-45.0
 21
43.9993911979
  0
LINE
  5
2AC
100
AcDbEntity
  8
ASSI
100
AcDbLine
 62
7
  6
CONTINUOUS
 10
-44.8061684565
 20
43.8055596544
 11
-45.0
 21
43.9993911979
  0
LINE
  5
2AD
100
AcDbEntity
  8
0
100
AcDbLine
 62
7
  6
CONTINUOUS
 10
2.85
 20
-6.7
 11
2.85
 21
6.7
  0
LINE
  5
2AE
100
AcDbEntity
  8
ASSI
100
AcDbLine
 62
7
  6
CONTINUOUS
 10
2.85
 20
-6.7
 11
2.85
 21
6.7
  0
LINE
  5
2AF
100
AcDbEntity
  8
0
100
AcDbLine
 62
7
  6
CONTINUOUS
 10
3.35
 20
-6.7
 11
3.35
 21
6.7
  0
LINE
  5
2B0
100
AcDbEntity
  8
ASSI
100
AcDbLine
 62
7
  6
CONTINUOUS
 10
3.35
 20
-6.7
 11
3.35
 21
6.7
  0
LINE
  5
2B1
100
AcDbEntity
  8
0
100
AcDbLine
 62
250
  6
CONTINUOUS
 10
4.55
 20
8.4
 11
4.55
 21
7.9
  0
LINE
  5
2B2
100
AcDbEntity
  8
ASSI
100
AcDbLine
 62
250
  6
CONTINUOUS
 10
4.55
 20
8.4
 11
4.55
 21
7.9
  0
LINE
  5
2B3
100
AcDbEntity
  8
0
100
AcDbLine
 62
250
  6
CONTINUOUS
 10
4.55
 20
-8.4
 11
4.55
 21
-7.9
  0
LINE
  5
2B4
100
AcDbEntity
  8
ASSI
100
AcDbLine
 62
250
  6
CONTINUOUS
 10
4.55
 20
-8.4
 11
4.55
 21
-7.9
  0
LINE
  5
2B5
100
AcDbEntity
  8
0
100
AcDbLine
 62
7
  6
CONTINUOUS
 10
-43.8055596544
 20
-44.8061684565
 11
-43.9993911979
 21
-45.0
  0
LINE
  5
2B6
100
AcDbEntity
  8
ASSI
100
AcDbLine
 62
7
  6
CONTINUOUS
 10
-43.8055596544
 20
-44.8061684565
 11
-43.9993911979
 21
-45.0
  0
LINE
  5
2B7
100
AcDbEntity
  8
0
100
AcDbLine
 62
7
  6
CONTINUOUS
 10
44.8061684565
 20
43.8055596544
 11
45.0
 21
43.9993911979
  0
LINE
  5
2B8
100
AcDbEntity
  8
ASSI
100
AcDbLine
 62
7
  6
CONTINUOUS
 10
44.8061684565
 20
43.8055596544
 11
45.0
 21
43.9993911979
  0
LINE
  5
2B9
100
AcDbEntity
  8
0
100
AcDbLine
 62
7
  6
CONTINUOUS
 10
44.8061684565
 20
-43.8055596544
 11
45.0
 21
-43.9993911979
  0
LINE
  5
2BA
100
AcDbEntity
  8
ASSI
100
AcDbLine
 62
7
  6
CONTINUOUS
 10
44.8061684565
 20
-43.8055596544
 11
45.0
 21
-43.9993911979
  0
LINE
  5
2BB
100
AcDbEntity
  8
0
100
AcDbLine
 62
7
  6
CONTINUOUS
 10
-43.8055596544
 20
44.8061684565
 11
-43.9993911979
 21
45.0
  0
LINE
  5
2BC
100
AcDbEntity
  8
ASSI
100
AcDbLine
 62
7
  6
CONTINUOUS
 10
-43.8055596544
 20
44.8061684565
 11
-43.9993911979
 21
45.0
  0
LINE
  5
2BD
100
AcDbEntity
  8
0
100
AcDbLine
 62
250
  6
CONTINUOUS
 10
-19.65
 20
6.7
 11
-19.15
 21
6.7
  0
LINE
  5
2BE
100
AcDbEntity
  8
ASSI
100
AcDbLine
 62
250
  6
CONTINUOUS
 10
-19.65
 20
6.7
 11
-19.15
 21
6.7
  0
LINE
  5
2BF
100
AcDbEntity
  8
0
100
AcDbLine
 62
250
  6
CONTINUOUS
 10
19.65
 20
6.7
 11
19.15
 21
6.7
  0
LINE
  5
2C0
100
AcDbEntity
  8
ASSI
100
AcDbLine
 62
250
  6
CONTINUOUS
 10
19.65
 20
6.7
 11
19.15
 21
6.7
  0
LINE
  5
2C1
100
AcDbEntity
  8
0
100
AcDbLine
 62
250
  6
CONTINUOUS
 10
2.85
 20
6.7
 11
3.35
 21
6.7
  0
LINE
  5
2C2
100
AcDbEntity
  8
ASSI
100
AcDbLine
 62
250
  6
CONTINUOUS
 10
2.85
 20
6.7
 11
3.35
 21
6.7
  0
LINE
  5
2C3
100
AcDbEntity
  8
0
100
AcDbLine
 62
250
  6
CONTINUOUS
 10
-2.85
 20
6.7
 11
-3.35
 21
6.7
  0
LINE
  5
2C4
100
AcDbEntity
  8
ASSI
100
AcDbLine
 62
250
  6
CONTINUOUS
 10
-2.85
 20
6.7
 11
-3.35
 21
6.7
  0
LINE
  5
2C5
100
AcDbEntity
  8
0
100
AcDbLine
 62
7
  6
CONTINUOUS
 10
-17.95
 20
7.9
 11
-4.55
 21
7.9
  0
LINE
  5
2C6
100
AcDbEntity
  8
ASSI
100
AcDbLine
 62
7
  6
CONTINUOUS
 10
-17.95
 20
7.9
 11
-4.55
 21
7.9
  0
LINE
  5
2C7
100
AcDbEntity
  8
0
100
AcDbLine
 62
7
  6
CONTINUOUS
 10
4.55
 20
7.9
 11
17.95
 21
7.9
  0
LINE
  5
2C8
100
AcDbEntity
  8
ASSI
100
AcDbLine
 62
7
  6
CONTINUOUS
 10
4.55
 20
7.9
 11
17.95
 21
7.9
  0
LINE
  5
2C9
100
AcDbEntity
  8
0
100
AcDbLine
 62
7
  6
CONTINUOUS
 10
-17.95
 20
8.4
 11
-4.55
 21
8.4
  0
LINE
  5
2CA
100
AcDbEntity
  8
ASSI
100
AcDbLine
 62
7
  6
CONTINUOUS
 10
-17.95
 20
8.4
 11
-4.55
 21
8.4
  0
LINE
  5
2CB
100
AcDbEntity
  8
0
100
AcDbLine
 62
7
  6
CONTINUOUS
 10
4.55
 20
8.4
 11
17.95
 21
8.4
  0
LINE
  5
2CC
100
AcDbEntity
  8
ASSI
100
AcDbLine
 62
7
  6
CONTINUOUS
 10
4.55
 20
8.4
 11
17.95
 21
8.4
  0
LINE
  5
2CD
100
AcDbEntity
  8
0
100
AcDbLine
 62
250
  6
CONTINUOUS
 10
17.95
 20
8.4
 11
17.95
 21
7.9
  0
LINE
  5
2CE
100
AcDbEntity
  8
ASSI
100
AcDbLine
 62
250
  6
CONTINUOUS
 10
17.95
 20
8.4
 11
17.95
 21
7.9
  0
LINE
  5
2CF
100
AcDbEntity
  8
0
100
AcDbLine
 62
250
  6
CONTINUOUS
 10
17.95
 20
-8.4
 11
17.95
 21
-7.9
  0
LINE
  5
2D0
100
AcDbEntity
  8
ASSI
100
AcDbLine
 62
250
  6
CONTINUOUS
 10
17.95
 20
-8.4
 11
17.95
 21
-7.9
  0
LINE
  5
2D1
100
AcDbEntity
  8
0
100
AcDbLine
 62
7
  6
CONTINUOUS
 10
19.15
 20
6.7
 11
19.15
 21
-6.7
  0
LINE
  5
2D2
100
AcDbEntity
  8
ASSI
100
AcDbLine
 62
7
  6
CONTINUOUS
 10
19.15
 20
6.7
 11
19.15
 21
-6.7
  0
LINE
  5
2D3
100
AcDbEntity
  8
0
100
AcDbLine
 62
7
  6
CONTINUOUS
 10
19.65
 20
6.7
 11
19.65
 21
-6.7
  0
LINE
  5
2D4
100
AcDbEntity
  8
ASSI
100
AcDbLine
 62
7
  6
CONTINUOUS
 10
19.65
 20
6.7
 11
19.65
 21
-6.7
  0
LINE
  5
2D5
100
AcDbEntity
  8
0
100
AcDbLine
 62
7
  6
CONTINUOUS
 10
43.3767374102
 20
43.7712689598
 11
43.8199854699
 21
44.7906993223
  0
LINE
  5
2D6
100
AcDbEntity
  8
ASSI
100
AcDbLine
 62
7
  6
CONTINUOUS
 10
43.3767374102
 20
43.7712689598
 11
43.8199854699
 21
44.7906993223
  0
LINE
  5
2D7
100
AcDbEntity
  8
0
100
AcDbLine
 62
7
  6
CONTINUOUS
 10
-43.7712689598
 20
-43.3767374102
 11
-44.7906993223
 21
-43.8199854699
  0
LINE
  5
2D8
100
AcDbEntity
  8
ASSI
100
AcDbLine
 62
7
  6
CONTINUOUS
 10
-43.7712689598
 20
-43.3767374102
 11
-44.7906993223
 21
-43.8199854699
  0
LINE
  5
2D9
100
AcDbEntity
  8
0
100
AcDbLine
 62
7
  6
CONTINUOUS
 10
-43.7712689598
 20
43.3767374102
 11
-44.7906993223
 21
43.8199854699
  0
LINE
  5
2DA
100
AcDbEntity
  8
ASSI
100
AcDbLine
 62
7
  6
CONTINUOUS
 10
-43.7712689598
 20
43.3767374102
 11
-44.7906993223
 21
43.8199854699
  0
LINE
  5
2DB
100
AcDbEntity
  8
CURVE
100
AcDbLine
 62
250
  6
CONTINUOUS
 10
44.8904101948
 20
-34.842919
 11
44.9473759453
 21
-34.955522
  0
LINE
  5
2DC
100
AcDbEntity
  8
0
100
AcDbLine
 62
7
  6
CONTINUOUS
 10
43.3767374102
 20
-43.7712689598
 11
43.8199854699
 21
-44.7906993223
  0
LINE
  5
2DD
100
AcDbEntity
  8
ASSI
100
AcDbLine
 62
7
  6
CONTINUOUS
 10
43.3767374102
 20
-43.7712689598
 11
43.8199854699
 21
-44.7906993223
  0
LINE
  5
2DE
100
AcDbEntity
  8
CURVE
100
AcDbLine
 62
250
  6
CONTINUOUS
 10
44.9473759453
 20
-35.454708
 11
44.860136417
 21
-35.228996
  0
LWPOLYLINE
  5
2DF
100
AcDbEntity
  8
0
100
AcDbPolyline
 62
7
  6
CONTINUOUS
 90
10
 70
0
 43
0.3500000006
 10
54.8776928101
 20
-1.9285708809
 10
54.0205458069
 20
-1.0714295425
 10
53.1634033356
 20
-0.8571427917
 10
52.3062608643
 20
-0.8571427917
 10
51.8776918945
 20
-1.2857140274
 10
51.8776918945
 20
-1.9285708809
 10
52.3062608643
 20
-2.3571432495
 10
53.1634033356
 20
-2.3571432495
 10
53.5919768372
 20
-1.9285708809
 10
53.5919768372
 20
-1.0000006256
  0
LINE
  5
2E0
100
AcDbEntity
  8
CURVE
100
AcDbLine
 62
250
  6
CONTINUOUS
 10
44.860136417
 20
-36.451037
 11
44.9473759453
 21
-37.254552
  0
LINE
  5
2E1
100
AcDbEntity
  8
CURVE
100
AcDbLine
 62
250
  6
CONTINUOUS
 10
44.9085720674
 20
-34.191353
 11
44.860136417
 21
-33.66956
  0
LINE
  5
2E2
100
AcDbEntity
  8
CURVE
100
AcDbLine
 62
250
  6
CONTINUOUS
 10
44.890647651
 20
-33.5372
 11
44.9473759453
 21
-34.157611
  0
LINE
  5
2E3
100
AcDbEntity
  8
CURVE
100
AcDbLine
 62
250
  6
CONTINUOUS
 10
44.8841076249
 20
-31.81095
 11
44.9164833296
 21
-32.070759
  0
LINE
  5
2E4
100
AcDbEntity
  8
CURVE
100
AcDbLine
 62
250
  6
CONTINUOUS
 10
44.9201860964
 20
-37.463524
 11
44.860136417
 21
-36.972473
  0
LINE
  5
2E5
100
AcDbEntity
  8
CURVE
100
AcDbLine
 62
250
  6
CONTINUOUS
 10
44.92995984
 20
-32.177494
 11
44.9473759453
 21
-32.321477
  0
LINE
  5
2E6
100
AcDbEntity
  8
CURVE
100
AcDbLine
 62
250
  6
CONTINUOUS
 10
44.9473759453
 20
-32.837608
 11
44.860136417
 21
-32.053532
  0
LINE
  5
2E7
100
AcDbEntity
  8
0
100
AcDbLine
 62
7
  6
CONTINUOUS
 10
43.7712689598
 20
-43.3767374102
 11
43.7712689598
 21
43.3767374102
  0
LINE
  5
2E8
100
AcDbEntity
  8
ASSI
100
AcDbLine
 62
7
  6
CONTINUOUS
 10
43.7712689598
 20
-43.3767374102
 11
43.7712689598
 21
43.3767374102
  0
LINE
  5
2E9
100
AcDbEntity
  8
0
100
AcDbLine
 62
7
  6
CONTINUOUS
 10
44.8061684565
 20
-43.8055596544
 11
44.8061684565
 21
43.8055596544
  0
LINE
  5
2EA
100
AcDbEntity
  8
ASSI
100
AcDbLine
 62
7
  6
CONTINUOUS
 10
44.8061684565
 20
-43.8055596544
 11
44.8061684565
 21
43.8055596544
  0
LINE
  5
2EB
100
AcDbEntity
  8
CURVE
100
AcDbLine
 62
250
  6
CONTINUOUS
 10
44.860131217
 20
-35.735605
 11
44.860131217
 21
-36.257398
  0
LINE
  5
2EC
100
AcDbEntity
  8
CURVE
100
AcDbLine
 62
250
  6
CONTINUOUS
 10
44.860136417
 20
-38.506847
 11
44.860136417
 21
-37.940019
  0
LINE
  5
2ED
100
AcDbEntity
  8
CURVE
100
AcDbLine
 62
250
  6
CONTINUOUS
 10
44.860136417
 20
-36.972473
 11
44.860136417
 21
-36.451037
  0
LINE
  5
2EE
100
AcDbEntity
  8
CURVE
100
AcDbLine
 62
250
  6
CONTINUOUS
 10
44.860136417
 20
-35.228996
 11
44.860136417
 21
-34.707635
  0
LINE
  5
2EF
100
AcDbEntity
  8
CURVE
100
AcDbLine
 62
250
  6
CONTINUOUS
 10
44.860136417
 20
-33.66956
 11
44.860136417
 21
-33.153297
  0
LINE
  5
2F0
100
AcDbEntity
  8
CURVE
100
AcDbLine
 62
250
  6
CONTINUOUS
 10
44.860136417
 20
-32.053532
 11
44.860136417
 21
-31.54876
  0
LINE
  5
2F1
100
AcDbEntity
  8
CURVE
100
AcDbLine
 62
250
  6
CONTINUOUS
 10
44.8989474951
 20
-29.8279642095
 11
44.8989474951
 21
-30.126163664
  0
LINE
  5
2F2
100
AcDbEntity
  8
CURVE
100
AcDbLine
 62
250
  6
CONTINUOUS
 10
44.9132352194
 20
-30.1088617972
 11
44.9132352194
 21
-29.8290889245
  0
LINE
  5
2F3
100
AcDbEntity
  8
CURVE
100
AcDbLine
 62
250
  6
CONTINUOUS
 10
44.9164833296
 20
-32.070759
 11
44.9164833296
 21
-31.571179
  0
LINE
  5
2F4
100
AcDbEntity
  8
CURVE
100
AcDbLine
 62
250
  6
CONTINUOUS
 10
44.92995984
 20
-31.466899
 11
44.92995984
 21
-32.177494
  0
LINE
  5
2F5
100
AcDbEntity
  8
CURVE
100
AcDbLine
 62
250
  6
CONTINUOUS
 10
44.9473759453
 20
-36.257398
 11
44.9473759453
 21
-35.735605
  0
LINE
  5
2F6
100
AcDbEntity
  8
CURVE
100
AcDbLine
 62
250
  6
CONTINUOUS
 10
44.9473759458
 20
-30.6285551388
 11
44.9473759458
 21
-30.1088617972
  0
LINE
  5
2F7
100
AcDbEntity
  8
CURVE
100
AcDbLine
 62
250
  6
CONTINUOUS
 10
44.9473759458
 20
-29.3098079785
 11
44.9473759458
 21
-28.8079038802
  0
LINE
  5
2F8
100
AcDbEntity
  8
CURVE
100
AcDbLine
 62
250
  6
CONTINUOUS
 10
44.9473759453
 20
-30.781779
 11
44.9473759453
 21
-31.331727
  0
LINE
  5
2F9
100
AcDbEntity
  8
CURVE
100
AcDbLine
 62
250
  6
CONTINUOUS
 10
44.9473759453
 20
-32.321477
 11
44.9473759453
 21
-32.837608
  0
LINE
  5
2FA
100
AcDbEntity
  8
CURVE
100
AcDbLine
 62
250
  6
CONTINUOUS
 10
44.9473759453
 20
-32.919544
 11
44.9473759453
 21
-33.429996
  0
LINE
  5
2FB
100
AcDbEntity
  8
CURVE
100
AcDbLine
 62
250
  6
CONTINUOUS
 10
44.9473759453
 20
-34.157611
 11
44.9473759453
 21
-34.230793
  0
LINE
  5
2FC
100
AcDbEntity
  8
CURVE
100
AcDbLine
 62
250
  6
CONTINUOUS
 10
44.9473759453
 20
-34.955522
 11
44.9473759453
 21
-35.454708
  0
LINE
  5
2FD
100
AcDbEntity
  8
CURVE
100
AcDbLine
 62
250
  6
CONTINUOUS
 10
44.9473759453
 20
-37.254552
 11
44.9473759453
 21
-37.714382
  0
LINE
  5
2FE
100
AcDbEntity
  8
0
100
AcDbLine
 62
7
  6
CONTINUOUS
 10
45.0
 20
-43.9993911979
 11
45.0
 21
43.9993911979
  0
LINE
  5
2FF
100
AcDbEntity
  8
ASSI
100
AcDbLine
 62
7
  6
CONTINUOUS
 10
45.0
 20
-43.9993911979
 11
45.0
 21
43.9993911979
  0
LINE
  5
300
100
AcDbEntity
  8
0
100
AcDbLine
 62
7
  6
CONTINUOUS
 10
43.3767374102
 20
43.7712689598
 11
-43.3767374102
 21
43.7712689598
  0
LINE
  5
301
100
AcDbEntity
  8
ASSI
100
AcDbLine
 62
7
  6
CONTINUOUS
 10
43.3767374102
 20
43.7712689598
 11
-43.3767374102
 21
43.7712689598
  0
LINE
  5
302
100
AcDbEntity
  8
0
100
AcDbLine
 62
7
  6
CONTINUOUS
 10
43.8055596544
 20
44.8061684565
 11
-43.8055596544
 21
44.8061684565
  0
LINE
  5
303
100
AcDbEntity
  8
ASSI
100
AcDbLine
 62
7
  6
CONTINUOUS
 10
43.8055596544
 20
44.8061684565
 11
-43.8055596544
 21
44.8061684565
  0
LINE
  5
304
100
AcDbEntity
  8
0
100
AcDbLine
 62
7
  6
CONTINUOUS
 10
43.9993911979
 20
45.0
 11
-43.9993911979
 21
45.0
  0
LINE
  5
305
100
AcDbEntity
  8
ASSI
100
AcDbLine
 62
7
  6
CONTINUOUS
 10
43.9993911979
 20
45.0
 11
-43.9993911979
 21
45.0
  0
LINE
  5
306
100
AcDbEntity
  8
CURVE
100
AcDbLine
 62
250
  6
CONTINUOUS
 10
44.9473759453
 20
-34.230793
 11
44.8904101948
 21
-34.842919
  0
LINE
  5
307
100
AcDbEntity
  8
CURVE
100
AcDbLine
 62
250
  6
CONTINUOUS
 10
44.860136417
 20
-34.707635
 11
44.9085720674
 21
-34.191353
  0
LINE
  5
308
100
AcDbEntity
  8
CURVE
100
AcDbLine
 62
250
  6
CONTINUOUS
 10
44.9473759453
 20
-37.714382
 11
44.860136417
 21
-38.506847
  0
LINE
  5
309
100
AcDbEntity
  8
CURVE
100
AcDbLine
 62
250
  6
CONTINUOUS
 10
44.860136417
 20
-31.54876
 11
44.9473759453
 21
-30.781779
  0
LINE
  5
30A
100
AcDbEntity
  8
CURVE
100
AcDbLine
 62
250
  6
CONTINUOUS
 10
44.860136417
 20
-37.940019
 11
44.9201860964
 21
-37.463524
  0
LINE
  5
30B
100
AcDbEntity
  8
CURVE
100
AcDbLine
 62
250
  6
CONTINUOUS
 10
44.9473759453
 20
-31.331727
 11
44.92995984
 21
-31.466899
  0
LINE
  5
30C
100
AcDbEntity
  8
CURVE
100
AcDbLine
 62
250
  6
CONTINUOUS
 10
44.9164833296
 20
-31.571179
 11
44.8841076249
 21
-31.81095
  0
LINE
  5
30D
100
AcDbEntity
  8
CURVE
100
AcDbLine
 62
250
  6
CONTINUOUS
 10
44.860136417
 20
-33.153297
 11
44.9473759453
 21
-32.919544
  0
LINE
  5
30E
100
AcDbEntity
  8
CURVE
100
AcDbLine
 62
250
  6
CONTINUOUS
 10
44.9473759453
 20
-33.429996
 11
44.890647651
 21
-33.5372
  0
LINE
  5
30F
100
AcDbEntity
  8
CURVE
100
AcDbLine
 62
7
  6
CONTINUOUS
 10
44.9324975919
 20
-28.9197046926
 11
44.9473759458
 21
-28.9048263387
  0
LINE
  5
310
100
AcDbEntity
  8
CURVE
100
AcDbLine
 62
7
  6
CONTINUOUS
 10
44.8755531683
 20
-28.9766491162
 11
44.8917284604
 21
-28.9604738241
  0
LINE
  5
311
100
AcDbEntity
  8
CURVE
100
AcDbLine
 62
7
  6
CONTINUOUS
 10
44.8649492422
 20
-29.1972637563
 11
44.903111229
 21
-29.1591017695
  0
LINE
  5
312
100
AcDbEntity
  8
CURVE
100
AcDbLine
 62
7
  6
CONTINUOUS
 10
44.9102747191
 20
-29.1519382794
 11
44.9473759458
 21
-29.1148370527
  0
LINE
  5
313
100
AcDbEntity
  8
CURVE
100
AcDbLine
 62
7
  6
CONTINUOUS
 10
44.8613109348
 20
-29.4109127777
 11
44.9453325953
 21
-29.3268911172
  0
LINE
  5
314
100
AcDbEntity
  8
CURVE
100
AcDbLine
 62
7
  6
CONTINUOUS
 10
44.8969435501
 20
-29.5852908764
 11
44.9190347261
 21
-29.5631997005
  0
LINE
  5
315
100
AcDbEntity
  8
CURVE
100
AcDbLine
 62
7
  6
CONTINUOUS
 10
44.8597994348
 20
-29.6224349918
 11
44.8755681946
 21
-29.606666232
  0
LINE
  5
316
100
AcDbEntity
  8
CURVE
100
AcDbLine
 62
7
  6
CONTINUOUS
 10
44.8988937906
 20
-29.79335135
 11
44.9133811384
 21
-29.7788640022
  0
LINE
  5
317
100
AcDbEntity
  8
CURVE
100
AcDbLine
 62
7
  6
CONTINUOUS
 10
44.8592207145
 20
-29.833024426
 11
44.8742222539
 21
-29.8180228866
  0
LINE
  5
318
100
AcDbEntity
  8
CURVE
100
AcDbLine
 62
7
  6
CONTINUOUS
 10
44.8989474951
 20
-30.0033083595
 11
44.9132352194
 21
-29.9890206352
  0
LINE
  5
319
100
AcDbEntity
  8
CURVE
100
AcDbLine
 62
7
  6
CONTINUOUS
 10
44.8591757532
 20
-30.0430801013
 11
44.8744997271
 21
-30.0277561275
  0
LINE
  5
31A
100
AcDbEntity
  8
CURVE
100
AcDbLine
 62
7
  6
CONTINUOUS
 10
44.8596096984
 20
-30.2526568702
 11
44.9473759458
 21
-30.1648906227
  0
LINE
  5
31B
100
AcDbEntity
  8
CURVE
100
AcDbLine
 62
7
  6
CONTINUOUS
 10
44.8603663752
 20
-30.4619109074
 11
44.9473759458
 21
-30.3749013368
  0
LINE
  5
31C
100
AcDbEntity
  8
CURVE
100
AcDbLine
 62
7
  6
CONTINUOUS
 10
44.9037328578
 20
-30.6285551388
 11
44.9473759458
 21
-30.5849120508
  0
LINE
  5
31D
100
AcDbEntity
  8
CURVE
100
AcDbLine
 62
7
  6
CONTINUOUS
 10
44.9456890453
 20
-30.7966096654
 11
44.9473759453
 21
-30.7949227654
  0
LINE
  5
31E
100
AcDbEntity
  8
CURVE
100
AcDbLine
 62
7
  6
CONTINUOUS
 10
44.9187358044
 20
-31.0335736202
 11
44.9473759453
 21
-31.0049334794
  0
LINE
  5
31F
100
AcDbEntity
  8
CURVE
100
AcDbLine
 62
7
  6
CONTINUOUS
 10
44.8917825635
 20
-31.2705375751
 11
44.9473759453
 21
-31.2149441934
  0
LINE
  5
320
100
AcDbEntity
  8
CURVE
100
AcDbLine
 62
7
  6
CONTINUOUS
 10
44.8648293226
 20
-31.50750153
 11
44.9335875311
 21
-31.4387433215
  0
LINE
  5
321
100
AcDbEntity
  8
CURVE
100
AcDbLine
 62
7
  6
CONTINUOUS
 10
44.9164833296
 20
-31.6658582371
 11
44.92995984
 21
-31.6523817266
  0
LINE
  5
322
100
AcDbEntity
  8
CURVE
100
AcDbLine
 62
7
  6
CONTINUOUS
 10
44.860136417
 20
-31.7222051497
 11
44.9017033076
 21
-31.6806382591
  0
LINE
  5
323
100
AcDbEntity
  8
CURVE
100
AcDbLine
 62
7
  6
CONTINUOUS
 10
44.9164833296
 20
-31.8758689511
 11
44.92995984
 21
-31.8623924406
  0
LINE
  5
324
100
AcDbEntity
  8
CURVE
100
AcDbLine
 62
7
  6
CONTINUOUS
 10
44.860136417
 20
-31.9322158637
 11
44.8948884187
 21
-31.897463862
  0
LINE
  5
325
100
AcDbEntity
  8
CURVE
100
AcDbLine
 62
7
  6
CONTINUOUS
 10
44.869016866
 20
-32.1333461287
 11
44.92995984
 21
-32.0724031547
  0
LINE
  5
326
100
AcDbEntity
  8
CURVE
100
AcDbLine
 62
7
  6
CONTINUOUS
 10
44.8900439624
 20
-32.3223297463
 11
44.9412814361
 21
-32.2710922726
  0
LINE
  5
327
100
AcDbEntity
  8
CURVE
100
AcDbLine
 62
7
  6
CONTINUOUS
 10
44.9110710588
 20
-32.5113133639
 11
44.9473759453
 21
-32.4750084775
  0
LINE
  5
328
100
AcDbEntity
  8
CURVE
100
AcDbLine
 62
7
  6
CONTINUOUS
 10
44.9320981552
 20
-32.7002969815
 11
44.9473759453
 21
-32.6850191915
  0
LINE
  5
329
100
AcDbEntity
  8
CURVE
100
AcDbLine
 62
7
  6
CONTINUOUS
 10
44.860136417
 20
-33.1922801478
 11
44.9473759453
 21
-33.1050406195
  0
LINE
  5
32A
100
AcDbEntity
  8
CURVE
100
AcDbLine
 62
7
  6
CONTINUOUS
 10
44.860136417
 20
-33.4022908618
 11
44.9473759453
 21
-33.3150513335
  0
LINE
  5
32B
100
AcDbEntity
  8
CURVE
100
AcDbLine
 62
7
  6
CONTINUOUS
 10
44.860136417
 20
-33.6123015758
 11
44.8943832694
 21
-33.5780547234
  0
LINE
  5
32C
100
AcDbEntity
  8
CURVE
100
AcDbLine
 62
7
  6
CONTINUOUS
 10
44.8731113113
 20
-33.8093373954
 11
44.9119772116
 21
-33.7704714952
  0
LINE
  5
32D
100
AcDbEntity
  8
0
100
AcDbLine
 62
7
  6
CONTINUOUS
 10
43.8199854699
 20
-44.7906993223
 11
43.8055596544
 21
-44.8061684565
  0
LINE
  5
32E
100
AcDbEntity
  8
ASSI
100
AcDbLine
 62
7
  6
CONTINUOUS
 10
43.8199854699
 20
-44.7906993223
 11
43.8055596544
 21
-44.8061684565
  0
LINE
  5
32F
100
AcDbEntity
  8
CURVE
100
AcDbLine
 62
7
  6
CONTINUOUS
 10
44.8909497793
 20
-34.0015096415
 11
44.9295711538
 21
-33.962888267
  0
LINE
  5
330
100
AcDbEntity
  8
CURVE
100
AcDbLine
 62
7
  6
CONTINUOUS
 10
44.9083085792
 20
-34.1941615557
 11
44.9471650959
 21
-34.1553050389
  0
LINE
  5
331
100
AcDbEntity
  8
CURVE
100
AcDbLine
 62
7
  6
CONTINUOUS
 10
44.8865663864
 20
-34.4259144624
 11
44.9335940176
 21
-34.3788868312
  0
LINE
  5
332
100
AcDbEntity
  8
CURVE
100
AcDbLine
 62
7
  6
CONTINUOUS
 10
44.8648241936
 20
-34.6576673692
 11
44.9120445318
 21
-34.610447031
  0
LINE
  5
333
100
AcDbEntity
  8
CURVE
100
AcDbLine
 62
7
  6
CONTINUOUS
 10
44.860136417
 20
-34.8723658599
 11
44.890495046
 21
-34.8420072309
  0
LINE
  5
334
100
AcDbEntity
  8
CURVE
100
AcDbLine
 62
7
  6
CONTINUOUS
 10
44.860136417
 20
-35.0823765739
 11
44.9473759453
 21
-34.9951370456
  0
LINE
  5
335
100
AcDbEntity
  8
CURVE
100
AcDbLine
 62
7
  6
CONTINUOUS
 10
44.8778076074
 20
-35.2747160975
 11
44.9473759453
 21
-35.2051477596
  0
LINE
  5
336
100
AcDbEntity
  8
CURVE
100
AcDbLine
 62
7
  6
CONTINUOUS
 10
44.9363509727
 20
-35.4261834462
 11
44.9473759453
 21
-35.4151584736
  0
LINE
  5
337
100
AcDbEntity
  8
CURVE
100
AcDbLine
 62
7
  6
CONTINUOUS
 10
44.860131217
 20
-35.92242463
 11
44.9473759453
 21
-35.8351799016
  0
LINE
  5
338
100
AcDbEntity
  8
CURVE
100
AcDbLine
 62
7
  6
CONTINUOUS
 10
44.860131217
 20
-36.132435344
 11
44.9473759453
 21
-36.0451906157
  0
LINE
  5
339
100
AcDbEntity
  8
CURVE
100
AcDbLine
 62
7
  6
CONTINUOUS
 10
44.9451792749
 20
-36.257398
 11
44.9473759453
 21
-36.2552013297
  0
LINE
  5
33A
100
AcDbEntity
  8
CURVE
100
AcDbLine
 62
7
  6
CONTINUOUS
 10
44.860136417
 20
-36.552451572
 11
44.8700688497
 21
-36.5425191393
  0
LINE
  5
33B
100
AcDbEntity
  8
CURVE
100
AcDbLine
 62
7
  6
CONTINUOUS
 10
44.860136417
 20
-36.762462286
 11
44.8906370703
 21
-36.7319616327
  0
LINE
  5
33C
100
AcDbEntity
  8
CURVE
100
AcDbLine
 62
7
  6
CONTINUOUS
 10
44.860136417
 20
-36.972473
 11
44.9112052909
 21
-36.9214041261
  0
LINE
  5
33D
100
AcDbEntity
  8
CURVE
100
AcDbLine
 62
7
  6
CONTINUOUS
 10
44.883019851
 20
-37.15960028
 11
44.9317735115
 21
-37.1108466195
  0
LINE
  5
33E
100
AcDbEntity
  8
CURVE
100
AcDbLine
 62
7
  6
CONTINUOUS
 10
44.9059032851
 20
-37.3467275599
 11
44.9473759453
 21
-37.3052548997
  0
LINE
  5
33F
100
AcDbEntity
  8
CURVE
100
AcDbLine
 62
7
  6
CONTINUOUS
 10
44.9088045085
 20
-37.5538370505
 11
44.9473759453
 21
-37.5152656137
  0
LINE
  5
340
100
AcDbEntity
  8
CURVE
100
AcDbLine
 62
7
  6
CONTINUOUS
 10
44.8785218389
 20
-37.7941304342
 11
44.9460282685
 21
-37.7266240046
  0
LINE
  5
341
100
AcDbEntity
  8
CURVE
100
AcDbLine
 62
7
  6
CONTINUOUS
 10
44.860136417
 20
-38.0225265701
 11
44.9200490088
 21
-37.9626139782
  0
LINE
  5
342
100
AcDbEntity
  8
CURVE
100
AcDbLine
 62
7
  6
CONTINUOUS
 10
44.860136417
 20
-38.2325372841
 11
44.8940697492
 21
-38.1986039519
  0
LINE
  5
343
100
AcDbEntity
  8
CURVE
100
AcDbLine
 62
7
  6
CONTINUOUS
 10
44.860136417
 20
-38.4425479981
 11
44.8680904896
 21
-38.4345939255
  0
LINE
  5
344
100
AcDbEntity
  8
0
100
AcDbLine
 62
7
  6
CONTINUOUS
 10
43.3767374102
 20
-43.7712689598
 11
43.7712689598
 21
-43.3767374102
  0
LINE
  5
345
100
AcDbEntity
  8
ASSI
100
AcDbLine
 62
7
  6
CONTINUOUS
 10
43.3767374102
 20
-43.7712689598
 11
43.7712689598
 21
-43.3767374102
  0
LINE
  5
346
100
AcDbEntity
  8
0
100
AcDbLine
 62
7
  6
CONTINUOUS
 10
43.8199854699
 20
-44.7906993223
 11
44.7906993223
 21
-43.8199854699
  0
LINE
  5
347
100
AcDbEntity
  8
ASSI
100
AcDbLine
 62
7
  6
CONTINUOUS
 10
43.8199854699
 20
-44.7906993223
 11
44.7906993223
 21
-43.8199854699
  0
LINE
  5
348
100
AcDbEntity
  8
0
100
AcDbLine
 62
7
  6
CONTINUOUS
 10
45.0
 20
-43.9993911979
 11
43.9993911979
 21
-45.0
  0
LINE
  5
349
100
AcDbEntity
  8
ASSI
100
AcDbLine
 62
7
  6
CONTINUOUS
 10
45.0
 20
-43.9993911979
 11
43.9993911979
 21
-45.0
  0
LINE
  5
34A
100
AcDbEntity
  8
0
100
AcDbLine
 62
7
  6
CONTINUOUS
 10
44.8061684565
 20
-43.8055596544
 11
44.7906993223
 21
-43.8199854699
  0
LINE
  5
34B
100
AcDbEntity
  8
ASSI
100
AcDbLine
 62
7
  6
CONTINUOUS
 10
44.8061684565
 20
-43.8055596544
 11
44.7906993223
 21
-43.8199854699
  0
LINE
  5
34C
100
AcDbEntity
  8
0
100
AcDbLine
 62
7
  6
CONTINUOUS
 10
44.7906993223
 20
43.8199854699
 11
44.8061684565
 21
43.8055596544
  0
LINE
  5
34D
100
AcDbEntity
  8
ASSI
100
AcDbLine
 62
7
  6
CONTINUOUS
 10
44.7906993223
 20
43.8199854699
 11
44.8061684565
 21
43.8055596544
  0
LINE
  5
34E
100
AcDbEntity
  8
0
100
AcDbLine
 62
7
  6
CONTINUOUS
 10
43.7712689598
 20
43.3767374102
 11
43.3767374102
 21
43.7712689598
  0
LINE
  5
34F
100
AcDbEntity
  8
ASSI
100
AcDbLine
 62
7
  6
CONTINUOUS
 10
43.7712689598
 20
43.3767374102
 11
43.3767374102
 21
43.7712689598
  0
LINE
  5
350
100
AcDbEntity
  8
0
100
AcDbLine
 62
7
  6
CONTINUOUS
 10
44.7906993223
 20
43.8199854699
 11
43.8199854699
 21
44.7906993223
  0
LINE
  5
351
100
AcDbEntity
  8
ASSI
100
AcDbLine
 62
7
  6
CONTINUOUS
 10
44.7906993223
 20
43.8199854699
 11
43.8199854699
 21
44.7906993223
  0
LINE
  5
352
100
AcDbEntity
  8
0
100
AcDbLine
 62
7
  6
CONTINUOUS
 10
43.9993911979
 20
45.0
 11
45.0
 21
43.9993911979
  0
LINE
  5
353
100
AcDbEntity
  8
ASSI
100
AcDbLine
 62
7
  6
CONTINUOUS
 10
43.9993911979
 20
45.0
 11
45.0
 21
43.9993911979
  0
LINE
  5
354
100
AcDbEntity
  8
0
100
AcDbLine
 62
7
  6
CONTINUOUS
 10
43.8055596544
 20
44.8061684565
 11
43.8199854699
 21
44.7906993223
  0
LINE
  5
355
100
AcDbEntity
  8
ASSI
100
AcDbLine
 62
7
  6
CONTINUOUS
 10
43.8055596544
 20
44.8061684565
 11
43.8199854699
 21
44.7906993223
  0
LWPOLYLINE
  5
356
100
AcDbEntity
  8
0
100
AcDbPolyline
 62
7
  6
CONTINUOUS
 90
3
 70
0
 43
0.3500000006
 10
-98.5419044495
 20
65.79483078
 10
-97.6847574463
 20
66.6519687195
 10
-97.6847574463
 20
63.6519768677
  0
LWPOLYLINE
  5
357
100
AcDbEntity
  8
0
100
AcDbPolyline
 62
7
  6
CONTINUOUS
 90
3
 70
0
 43
0.3500000006
 10
-92.7561871033
 20
65.79483078
 10
-91.8990491638
 20
66.6519687195
 10
-91.8990491638
 20
63.6519768677
  0
LWPOLYLINE
  5
358
100
AcDbEntity
  8
0
100
AcDbPolyline
 62
7
  6
CONTINUOUS
 90
3
 70
0
 43
0.3500000006
 10
-92.9528789063
 20
57.739421814
 10
-92.0957409668
 20
58.5965688171
 10
-92.0957409668
 20
55.5965679016
  0
LINE
  5
359
100
AcDbEntity
  8
0
100
AcDbLine
 62
7
  6
CONTINUOUS
 10
-86.9545326884
 20
-44.8061684565
 11
-81.4039235154
 21
-45.0
  0
LINE
  5
35A
100
AcDbEntity
  8
ASSI
100
AcDbLine
 62
7
  6
CONTINUOUS
 10
-86.9545326884
 20
-44.8061684565
 11
-81.4039235154
 21
-45.0
  0
LINE
  5
35B
100
AcDbEntity
  8
0
100
AcDbLine
 62
7
  6
CONTINUOUS
 10
-86.9545326884
 20
-43.8055596544
 11
-81.4039235154
 21
-43.9993911979
  0
LINE
  5
35C
100
AcDbEntity
  8
ASSI
100
AcDbLine
 62
7
  6
CONTINUOUS
 10
-86.9545326884
 20
-43.8055596544
 11
-81.4039235154
 21
-43.9993911979
  0
LINE
  5
35D
100
AcDbEntity
  8
0
100
AcDbLine
 62
7
  6
CONTINUOUS
 10
-81.4039235154
 20
-42.7580439128
 11
-80.8039235154
 21
-42.8
  0
LINE
  5
35E
100
AcDbEntity
  8
0
100
AcDbLine
 62
7
  6
CONTINUOUS
 10
-87.9539235154
 20
43.3767374102
 11
-86.9694710577
 21
43.8199854699
  0
LINE
  5
35F
100
AcDbEntity
  8
ASSI
100
AcDbLine
 62
7
  6
CONTINUOUS
 10
-87.9539235154
 20
43.3767374102
 11
-86.9694710577
 21
43.8199854699
  0
LINE
  5
360
100
AcDbEntity
  8
0
100
AcDbLine
 62
250
  6
CONTINUOUS
 10
-81.4039235154
 20
-41.1619414324
 11
-80.8039235154
 21
-41.2038975196
  0
LINE
  5
361
100
AcDbEntity
  8
0
100
AcDbLine
 62
7
  6
CONTINUOUS
 10
-87.9539235154
 20
-43.3767374102
 11
-86.9694710577
 21
-43.8199854699
  0
LINE
  5
362
100
AcDbEntity
  8
ASSI
100
AcDbLine
 62
7
  6
CONTINUOUS
 10
-87.9539235154
 20
-43.3767374102
 11
-86.9694710577
 21
-43.8199854699
  0
LINE
  5
363
100
AcDbEntity
  8
CURVE
100
AcDbLine
 62
250
  6
CONTINUOUS
 10
-85.409092504
 20
-37.940019
 11
-83.689494675
 21
-37.463524
  0
LINE
  5
364
100
AcDbEntity
  8
CURVE
100
AcDbLine
 62
250
  6
CONTINUOUS
 10
-85.4092414132
 20
-36.257398
 11
-82.9108792756
 21
-36.257398
  0
LINE
  5
365
100
AcDbEntity
  8
CURVE
100
AcDbLine
 62
250
  6
CONTINUOUS
 10
-83.689494675
 20
-37.463524
 11
-85.409092504
 21
-36.972473
  0
LINE
  5
366
100
AcDbEntity
  8
0
100
AcDbLine
 62
7
  6
CONTINUOUS
 10
-86.9545326884
 20
44.8061684565
 11
-87.9539235154
 21
43.7712689598
  0
LINE
  5
367
100
AcDbEntity
  8
ASSI
100
AcDbLine
 62
7
  6
CONTINUOUS
 10
-86.9545326884
 20
44.8061684565
 11
-87.9539235154
 21
43.7712689598
  0
LINE
  5
368
100
AcDbEntity
  8
CURVE
100
AcDbLine
 62
250
  6
CONTINUOUS
 10
-82.9108792756
 20
-33.429996
 11
-84.5353650795
 21
-33.5372
  0
LINE
  5
369
100
AcDbEntity
  8
CURVE
100
AcDbLine
 62
250
  6
CONTINUOUS
 10
-82.9108792756
 20
-35.735605
 11
-85.4092414132
 21
-35.735605
  0
LINE
  5
36A
100
AcDbEntity
  8
CURVE
100
AcDbLine
 62
250
  6
CONTINUOUS
 10
-84.5421649347
 20
-34.842919
 11
-82.9108792756
 21
-34.955522
  0
LINE
  5
36B
100
AcDbEntity
  8
CURVE
100
AcDbLine
 62
250
  6
CONTINUOUS
 10
-82.9108792756
 20
-35.454708
 11
-85.409092504
 21
-35.228996
  0
LINE
  5
36C
100
AcDbEntity
  8
CURVE
100
AcDbLine
 62
250
  6
CONTINUOUS
 10
-85.409092504
 20
-36.451037
 11
-82.9108792756
 21
-37.254552
  0
LINE
  5
36D
100
AcDbEntity
  8
0
100
AcDbLine
 62
7
  6
CONTINUOUS
 10
-87.9539235154
 20
-43.7712689598
 11
-86.9545326884
 21
-44.8061684565
  0
LINE
  5
36E
100
AcDbEntity
  8
ASSI
100
AcDbLine
 62
7
  6
CONTINUOUS
 10
-87.9539235154
 20
-43.7712689598
 11
-86.9545326884
 21
-44.8061684565
  0
LWPOLYLINE
  5
36F
100
AcDbEntity
  8
0
100
AcDbPolyline
 62
7
  6
CONTINUOUS
 90
3
 70
0
 43
0.3500000006
 10
-93.7561874084
 20
63.9376834717
 10
-93.8276185913
 20
63.7233989868
 10
-93.9704718933
 20
63.4376833191
  0
LINE
  5
370
100
AcDbEntity
  8
CURVE
100
AcDbLine
 62
250
  6
CONTINUOUS
 10
-82.9108792756
 20
-31.331727
 11
-83.4096112763
 21
-31.466899
  0
LINE
  5
371
100
AcDbEntity
  8
CURVE
100
AcDbLine
 62
250
  6
CONTINUOUS
 10
-83.795528043
 20
-31.571179
 11
-84.722646923
 21
-31.81095
  0
LINE
  5
372
100
AcDbEntity
  8
CURVE
100
AcDbLine
 62
250
  6
CONTINUOUS
 10
-85.409092504
 20
-33.153297
 11
-82.9108792756
 21
-32.919544
  0
LINE
  5
373
100
AcDbEntity
  8
CURVE
100
AcDbLine
 62
250
  6
CONTINUOUS
 10
-85.3799046478
 20
-30.6285551388
 11
-82.9108792591
 21
-30.6285551388
  0
LINE
  5
374
100
AcDbEntity
  8
CURVE
100
AcDbLine
 62
250
  6
CONTINUOUS
 10
-84.2976886407
 20
-30.126163664
 11
-84.9834967627
 21
-30.126163664
  0
LINE
  5
375
100
AcDbEntity
  8
CURVE
100
AcDbLine
 62
250
  6
CONTINUOUS
 10
-82.9108792591
 20
-30.1088617972
 11
-83.8885417498
 21
-30.1088617972
  0
LINE
  5
376
100
AcDbEntity
  8
CURVE
100
AcDbLine
 62
250
  6
CONTINUOUS
 10
-84.722646923
 20
-31.81095
 11
-83.795528043
 21
-32.070759
  0
LINE
  5
377
100
AcDbEntity
  8
CURVE
100
AcDbLine
 62
250
  6
CONTINUOUS
 10
-83.4096112763
 20
-32.177494
 11
-82.9108792756
 21
-32.321477
  0
LINE
  5
378
100
AcDbEntity
  8
CURVE
100
AcDbLine
 62
250
  6
CONTINUOUS
 10
-82.9108792756
 20
-32.837608
 11
-85.409092504
 21
-32.053532
  0
LINE
  5
379
100
AcDbEntity
  8
CURVE
100
AcDbLine
 62
250
  6
CONTINUOUS
 10
-84.0220769514
 20
-34.191353
 11
-85.409092504
 21
-33.66956
  0
LINE
  5
37A
100
AcDbEntity
  8
CURVE
100
AcDbLine
 62
250
  6
CONTINUOUS
 10
-84.5353650795
 20
-33.5372
 11
-82.9108792756
 21
-34.157611
  0
LWPOLYLINE
  5
37B
100
AcDbEntity
  8
0
100
AcDbPolyline
 62
7
  6
CONTINUOUS
 90
3
 70
0
 43
0.3500000006
 10
-93.9528792114
 20
55.8822835693
 10
-94.0243103943
 20
55.6679945526
 10
-94.1671636963
 20
55.3822788849
  0
LINE
  5
37C
100
AcDbEntity
  8
0
100
AcDbLine
 62
7
  6
CONTINUOUS
 10
-79.8780863644
 20
-27.1501294387
 11
-80.8039235154
 21
-27.151745331
  0
LINE
  5
37D
100
AcDbEntity
  8
0
100
AcDbLine
 62
250
  6
CONTINUOUS
 10
-79.8781509317
 20
-26.9276792439
 11
-80.8039235154
 21
-26.9280974384
  0
LINE
  5
37E
100
AcDbEntity
  8
CURVE
100
AcDbLine
 62
250
  6
CONTINUOUS
 10
-84.0770228336
 20
-29.2870512436
 11
-84.0917850932
 21
-29.2870512436
  0
LWPOLYLINE
  5
37F
100
AcDbEntity
  8
0
100
AcDbPolyline
 62
7
  6
CONTINUOUS
 90
15
 70
0
 10
-78.926980261
 20
-26.5709140641
 10
-78.9031676953
 20
-26.5706580512
 10
-78.8747903362
 20
-26.5697371415
 10
-78.846919999
 20
-26.5681832496
 10
-78.8197117835
 20
-26.5660315132
 10
-78.7930809889
 20
-26.5632745534
 10
-78.7670878178
 20
-26.5599118309
 10
-78.7420321833
 20
-26.5559592401
 10
-78.7178889011
 20
-26.5513857937
 10
-78.6945401896
 20
-26.5461167249
 10
-78.6719222216
 20
-26.5400260439
 10
-78.6495014003
 20
-26.5328245389
 10
-78.6274389943
 20
-26.5242563298
 10
-78.6065782637
 20
-26.514411931
 10
-78.6038973955
 20
-26.5130046776
  0
LINE
  5
380
100
AcDbEntity
  8
0
100
AcDbLine
 62
7
  6
CONTINUOUS
 10
-80.8039235154
 20
-26.5723674752
 11
-78.9269803275
 21
-26.5709140684
  0
LINE
  5
381
100
AcDbEntity
  8
0
100
AcDbLine
 62
250
  6
CONTINUOUS
 10
-78.9271352222
 20
-26.5509203682
 11
-80.8039235154
 21
-26.5523835751
  0
LINE
  5
382
100
AcDbEntity
  8
0
100
AcDbLine
 62
7
  6
CONTINUOUS
 10
-79.8537991366
 20
-25.2
 11
-80.8039235154
 21
-25.2
  0
LINE
  5
383
100
AcDbEntity
  8
0
100
AcDbLine
 62
7
  6
CONTINUOUS
 10
-80.8039235154
 20
-25.05
 11
-80.6539235154
 21
-25.05
  0
LINE
  5
384
100
AcDbEntity
  8
0
100
AcDbLine
 62
7
  6
CONTINUOUS
 10
-80.3539235154
 20
-25.05
 11
-80.1539235154
 21
-25.05
  0
LINE
  5
385
100
AcDbEntity
  8
0
100
AcDbLine
 62
7
  6
CONTINUOUS
 10
-80.8039235154
 20
-25.7558198745
 11
-77.9934563242
 21
-25.8799866677
  0
LINE
  5
386
100
AcDbEntity
  8
0
100
AcDbLine
 62
7
  6
CONTINUOUS
 10
-77.8039235154
 20
-25.4
 11
-79.7542954175
 21
-25.2049628098
  0
LINE
  5
387
100
AcDbEntity
  8
0
100
AcDbLine
 62
7
  6
CONTINUOUS
 10
-80.6539235154
 20
25.05
 11
-80.5039235154
 21
25.2
  0
LINE
  5
388
100
AcDbEntity
  8
0
100
AcDbLine
 62
7
  6
CONTINUOUS
 10
-80.1539235154
 20
25.05
 11
-80.0039235154
 21
25.2
  0
LINE
  5
389
100
AcDbEntity
  8
0
100
AcDbLine
 62
7
  6
CONTINUOUS
 10
-80.6539235154
 20
-25.05
 11
-80.5039235154
 21
-25.2
  0
LINE
  5
38A
100
AcDbEntity
  8
0
100
AcDbLine
 62
7
  6
CONTINUOUS
 10
-80.1539235154
 20
-25.05
 11
-80.0039235154
 21
-25.2
  0
LWPOLYLINE
  5
38B
100
AcDbEntity
  8
0
100
AcDbPolyline
 62
7
  6
CONTINUOUS
 90
4
 70
0
 43
0.3500000006
 10
-97.0243113098
 20
57.9537062988
 10
-97.0243113098
 20
58.5965688171
 10
-95.5243108521
 20
58.5965688171
 10
-96.3814487915
 20
55.5965679016
  0
LWPOLYLINE
  5
38C
100
AcDbEntity
  8
0
100
AcDbPolyline
 62
7
  6
CONTINUOUS
 90
13
 70
0
 43
0.3500000006
 10
-96.8276195068
 20
64.5091148071
 10
-96.8276195068
 20
65.79483078
 10
-96.613335022
 20
66.2233997498
 10
-96.1847569885
 20
66.6519687195
 10
-95.9704725037
 20
66.6519687195
 10
-95.5419035339
 20
66.2233997498
 10
-95.3276190491
 20
65.79483078
 10
-95.3276190491
 20
64.5091148071
 10
-95.5419035339
 20
64.0805458374
 10
-95.9704725037
 20
63.6519768677
 10
-96.1847569885
 20
63.6519768677
 10
-96.613335022
 20
64.0805458374
 10
-96.8276195068
 20
64.5091148071
  0
LINE
  5
38D
100
AcDbEntity
  8
0
100
AcDbLine
 62
7
  6
CONTINUOUS
 10
-87.9539235154
 20
-43.7712689598
 11
-87.9539235154
 21
43.7712689598
  0
LINE
  5
38E
100
AcDbEntity
  8
ASSI
100
AcDbLine
 62
7
  6
CONTINUOUS
 10
-87.9539235154
 20
-43.7712689598
 11
-87.9539235154
 21
43.7712689598
  0
LINE
  5
38F
100
AcDbEntity
  8
0
100
AcDbLine
 62
7
  6
CONTINUOUS
 10
-86.9694710577
 20
-44.7906993223
 11
-86.9694710577
 21
-43.8199854699
  0
LINE
  5
390
100
AcDbEntity
  8
ASSI
100
AcDbLine
 62
7
  6
CONTINUOUS
 10
-86.9694710577
 20
-44.7906993223
 11
-86.9694710577
 21
-43.8199854699
  0
LINE
  5
391
100
AcDbEntity
  8
0
100
AcDbLine
 62
7
  6
CONTINUOUS
 10
-86.9694710577
 20
43.8199854699
 11
-86.9694710577
 21
44.7906993223
  0
LINE
  5
392
100
AcDbEntity
  8
ASSI
100
AcDbLine
 62
7
  6
CONTINUOUS
 10
-86.9694710577
 20
43.8199854699
 11
-86.9694710577
 21
44.7906993223
  0
LINE
  5
393
100
AcDbEntity
  8
0
100
AcDbLine
 62
7
  6
CONTINUOUS
 10
-86.9545326884
 20
-43.8055596544
 11
-86.9545326884
 21
43.8055596544
  0
LINE
  5
394
100
AcDbEntity
  8
ASSI
100
AcDbLine
 62
7
  6
CONTINUOUS
 10
-86.9545326884
 20
-43.8055596544
 11
-86.9545326884
 21
43.8055596544
  0
LINE
  5
395
100
AcDbEntity
  8
CURVE
100
AcDbLine
 62
250
  6
CONTINUOUS
 10
-85.4092414132
 20
-35.735605
 11
-85.4092414132
 21
-36.257398
  0
LINE
  5
396
100
AcDbEntity
  8
CURVE
100
AcDbLine
 62
250
  6
CONTINUOUS
 10
-85.409092504
 20
-38.506847
 11
-85.409092504
 21
-37.940019
  0
LINE
  5
397
100
AcDbEntity
  8
CURVE
100
AcDbLine
 62
250
  6
CONTINUOUS
 10
-85.409092504
 20
-36.972473
 11
-85.409092504
 21
-36.451037
  0
LINE
  5
398
100
AcDbEntity
  8
CURVE
100
AcDbLine
 62
250
  6
CONTINUOUS
 10
-85.409092504
 20
-35.228996
 11
-85.409092504
 21
-34.707635
  0
LINE
  5
399
100
AcDbEntity
  8
CURVE
100
AcDbLine
 62
250
  6
CONTINUOUS
 10
-85.409092504
 20
-33.66956
 11
-85.409092504
 21
-33.153297
  0
LINE
  5
39A
100
AcDbEntity
  8
CURVE
100
AcDbLine
 62
250
  6
CONTINUOUS
 10
-85.409092504
 20
-32.053532
 11
-85.409092504
 21
-31.54876
  0
LINE
  5
39B
100
AcDbEntity
  8
CURVE
100
AcDbLine
 62
250
  6
CONTINUOUS
 10
-84.2976886407
 20
-29.8279642095
 11
-84.2976886407
 21
-30.126163664
  0
LINE
  5
39C
100
AcDbEntity
  8
CURVE
100
AcDbLine
 62
250
  6
CONTINUOUS
 10
-83.8885417498
 20
-30.1088617972
 11
-83.8885417498
 21
-29.8290889245
  0
LINE
  5
39D
100
AcDbEntity
  8
CURVE
100
AcDbLine
 62
250
  6
CONTINUOUS
 10
-83.795528043
 20
-32.070759
 11
-83.795528043
 21
-31.571179
  0
LINE
  5
39E
100
AcDbEntity
  8
CURVE
100
AcDbLine
 62
250
  6
CONTINUOUS
 10
-83.4096112763
 20
-31.466899
 11
-83.4096112763
 21
-32.177494
  0
LINE
  5
39F
100
AcDbEntity
  8
CURVE
100
AcDbLine
 62
250
  6
CONTINUOUS
 10
-82.9108792756
 20
-36.257398
 11
-82.9108792756
 21
-35.735605
  0
LINE
  5
3A0
100
AcDbEntity
  8
CURVE
100
AcDbLine
 62
250
  6
CONTINUOUS
 10
-82.9108792756
 20
-30.781779
 11
-82.9108792756
 21
-31.331727
  0
LINE
  5
3A1
100
AcDbEntity
  8
CURVE
100
AcDbLine
 62
250
  6
CONTINUOUS
 10
-82.9108792756
 20
-32.321477
 11
-82.9108792756
 21
-32.837608
  0
LINE
  5
3A2
100
AcDbEntity
  8
CURVE
100
AcDbLine
 62
250
  6
CONTINUOUS
 10
-82.9108792756
 20
-32.919544
 11
-82.9108792756
 21
-33.429996
  0
LINE
  5
3A3
100
AcDbEntity
  8
CURVE
100
AcDbLine
 62
250
  6
CONTINUOUS
 10
-82.9108792756
 20
-34.157611
 11
-82.9108792756
 21
-34.230793
  0
LINE
  5
3A4
100
AcDbEntity
  8
CURVE
100
AcDbLine
 62
250
  6
CONTINUOUS
 10
-82.9108792756
 20
-34.955522
 11
-82.9108792756
 21
-35.454708
  0
LINE
  5
3A5
100
AcDbEntity
  8
CURVE
100
AcDbLine
 62
250
  6
CONTINUOUS
 10
-82.9108792756
 20
-37.254552
 11
-82.9108792756
 21
-37.714382
  0
LINE
  5
3A6
100
AcDbEntity
  8
CURVE
100
AcDbLine
 62
250
  6
CONTINUOUS
 10
-82.9108792591
 20
-30.6285551388
 11
-82.9108792591
 21
-30.1088617972
  0
LINE
  5
3A7
100
AcDbEntity
  8
CURVE
100
AcDbLine
 62
250
  6
CONTINUOUS
 10
-82.9108792591
 20
-29.3098079785
 11
-82.9108792591
 21
-28.8079038802
  0
LINE
  5
3A8
100
AcDbEntity
  8
0
100
AcDbLine
 62
250
  6
CONTINUOUS
 10
-79.8780864355
 20
-27.1500750748
 11
-79.8781509317
 21
-26.9276792439
  0
LINE
  5
3A9
100
AcDbEntity
  8
0
100
AcDbLine
 62
7
  6
CONTINUOUS
 10
-81.4039235154
 20
-45.0
 11
-81.4039235154
 21
45.0
  0
LINE
  5
3AA
100
AcDbEntity
  8
ASSI
100
AcDbLine
 62
7
  6
CONTINUOUS
 10
-81.4039235154
 20
-45.0
 11
-81.4039235154
 21
45.0
  0
LINE
  5
3AB
100
AcDbEntity
  8
0
100
AcDbLine
 62
7
  6
CONTINUOUS
 10
-80.8039235154
 20
-42.8
 11
-80.8039235154
 21
42.8
  0
LINE
  5
3AC
100
AcDbEntity
  8
0
100
AcDbLine
 62
250
  6
CONTINUOUS
 10
-79.8781509317
 20
26.9276792439
 11
-79.878086467
 21
27.1501232518
  0
LINE
  5
3AD
100
AcDbEntity
  8
0
100
AcDbLine
 62
250
  6
CONTINUOUS
 10
-77.9934563242
 20
25.8162101919
 11
-77.9934563242
 21
25.3810467191
  0
LINE
  5
3AE
100
AcDbEntity
  8
0
100
AcDbLine
 62
250
  6
CONTINUOUS
 10
-77.9934563242
 20
-25.3810467191
 11
-77.9934563242
 21
-25.8799866677
  0
LINE
  5
3AF
100
AcDbEntity
  8
0
100
AcDbLine
 62
7
  6
CONTINUOUS
 10
-77.8039235154
 20
26.0883643404
 11
-77.8039235154
 21
25.4
  0
LINE
  5
3B0
100
AcDbEntity
  8
0
100
AcDbLine
 62
7
  6
CONTINUOUS
 10
-77.8039235154
 20
-25.4
 11
-77.8039235154
 21
-26.0883643404
  0
LWPOLYLINE
  5
3B1
100
AcDbEntity
  8
0
100
AcDbPolyline
 62
7
  6
CONTINUOUS
 90
10
 70
0
 43
0.3500000006
 10
-94.0243103943
 20
56.0965680542
 10
-93.9528792114
 20
55.9537056885
 10
-93.9528792114
 20
55.8822835693
 10
-94.0957415771
 20
55.7394212036
 10
-94.1671636963
 20
55.7394212036
 10
-94.2385948792
 20
55.8108523865
 10
-94.2385948792
 20
55.8822835693
 10
-94.1671636963
 20
56.0251368713
 10
-94.0957415771
 20
56.0965680542
 10
-94.0243103943
 20
56.0965680542
  0
LINE
  5
3B2
100
AcDbEntity
  8
CURVE
100
AcDbLine
 62
7
  6
CONTINUOUS
 10
-85.3607419281
 20
-29.3637367197
 11
-84.9773593685
 21
-28.9803541601
  0
LINE
  5
3B3
100
AcDbEntity
  8
CURVE
100
AcDbLine
 62
7
  6
CONTINUOUS
 10
-85.4198593633
 20
-29.6328648689
 11
-84.7213414887
 21
-28.9343469943
  0
LINE
  5
3B4
100
AcDbEntity
  8
CURVE
100
AcDbLine
 62
7
  6
CONTINUOUS
 10
-85.436805681
 20
-29.8598219006
 11
-84.5302208675
 21
-28.9532370872
  0
LINE
  5
3B5
100
AcDbEntity
  8
CURVE
100
AcDbLine
 62
7
  6
CONTINUOUS
 10
-85.4354636911
 20
-30.0684906248
 11
-84.9605923567
 21
-29.5936192903
  0
LINE
  5
3B6
100
AcDbEntity
  8
CURVE
100
AcDbLine
 62
7
  6
CONTINUOUS
 10
-84.8240339427
 20
-29.4570608763
 11
-84.3758106627
 21
-29.0088375964
  0
LINE
  5
3B7
100
AcDbEntity
  8
0
100
AcDbLine
 62
7
  6
CONTINUOUS
 10
-80.5039235154
 20
-25.2
 11
-80.3539235154
 21
-25.05
  0
LINE
  5
3B8
100
AcDbEntity
  8
CURVE
100
AcDbLine
 62
7
  6
CONTINUOUS
 10
-85.4230548685
 20
-30.2660925161
 11
-85.0066755531
 21
-29.8497132007
  0
LINE
  5
3B9
100
AcDbEntity
  8
CURVE
100
AcDbLine
 62
7
  6
CONTINUOUS
 10
-84.5888882817
 20
-29.4319259293
 11
-84.2483081533
 21
-29.091345801
  0
LINE
  5
3BA
100
AcDbEntity
  8
CURVE
100
AcDbLine
 62
7
  6
CONTINUOUS
 10
-85.4031598993
 20
-30.4562082609
 11
-84.9951637088
 21
-30.0482120705
  0
LINE
  5
3BB
100
AcDbEntity
  8
CURVE
100
AcDbLine
 62
7
  6
CONTINUOUS
 10
-84.4403602877
 20
-29.4934086494
 11
-84.1447584434
 21
-29.197806805
  0
LINE
  5
3BC
100
AcDbEntity
  8
CURVE
100
AcDbLine
 62
7
  6
CONTINUOUS
 10
-85.3654960631
 20
-30.6285551388
 11
-84.8631045883
 21
-30.126163664
  0
LINE
  5
3BD
100
AcDbEntity
  8
CURVE
100
AcDbLine
 62
7
  6
CONTINUOUS
 10
-84.3436471207
 20
-29.6067061963
 11
-83.7835265732
 21
-29.0465856489
  0
LINE
  5
3BE
100
AcDbEntity
  8
CURVE
100
AcDbLine
 62
7
  6
CONTINUOUS
 10
-85.1554853491
 20
-30.6285551388
 11
-84.6530938743
 21
-30.126163664
  0
LINE
  5
3BF
100
AcDbEntity
  8
CURVE
100
AcDbLine
 62
7
  6
CONTINUOUS
 10
-84.3009298659
 20
-29.7739996556
 11
-83.4864309458
 21
-28.9595007355
  0
LINE
  5
3C0
100
AcDbEntity
  8
CURVE
100
AcDbLine
 62
7
  6
CONTINUOUS
 10
-84.9454746351
 20
-30.6285551388
 11
-84.4430831603
 21
-30.126163664
  0
LINE
  5
3C1
100
AcDbEntity
  8
CURVE
100
AcDbLine
 62
7
  6
CONTINUOUS
 10
-84.2976886407
 20
-29.9807691444
 11
-83.2011001515
 21
-28.8841806552
  0
LINE
  5
3C2
100
AcDbEntity
  8
CURVE
100
AcDbLine
 62
7
  6
CONTINUOUS
 10
-84.7354639211
 20
-30.6285551388
 11
-83.8840411962
 21
-29.7771324139
  0
LINE
  5
3C3
100
AcDbEntity
  8
CURVE
100
AcDbLine
 62
7
  6
CONTINUOUS
 10
-83.6321717683
 20
-29.525262986
 11
-82.9162333608
 21
-28.8093245785
  0
LINE
  5
3C4
100
AcDbEntity
  8
CURVE
100
AcDbLine
 62
7
  6
CONTINUOUS
 10
-84.5254532071
 20
-30.6285551388
 11
-83.8885417498
 21
-29.9916436815
  0
LINE
  5
3C5
100
AcDbEntity
  8
CURVE
100
AcDbLine
 62
7
  6
CONTINUOUS
 10
-83.327525621
 20
-29.4306275527
 11
-82.9108792591
 21
-29.0139811908
  0
LINE
  5
3C6
100
AcDbEntity
  8
CURVE
100
AcDbLine
 62
7
  6
CONTINUOUS
 10
-85.409092504
 20
-31.7222051497
 11
-85.1588066323
 21
-31.471919278
  0
LINE
  5
3C7
100
AcDbEntity
  8
CURVE
100
AcDbLine
 62
7
  6
CONTINUOUS
 10
-84.3154424931
 20
-30.6285551388
 11
-83.7957491515
 21
-30.1088617972
  0
LINE
  5
3C8
100
AcDbEntity
  8
CURVE
100
AcDbLine
 62
7
  6
CONTINUOUS
 10
-83.0320798571
 20
-29.3451925029
 11
-82.9108792591
 21
-29.2239919048
  0
LINE
  5
3C9
100
AcDbEntity
  8
CURVE
100
AcDbLine
 62
7
  6
CONTINUOUS
 10
-85.409092504
 20
-31.9322158637
 11
-84.8557556982
 21
-31.378879058
  0
LINE
  5
3CA
100
AcDbEntity
  8
CURVE
100
AcDbLine
 62
7
  6
CONTINUOUS
 10
-84.1054317791
 20
-30.6285551388
 11
-83.5857384375
 21
-30.1088617972
  0
LINE
  5
3CB
100
AcDbEntity
  8
CURVE
100
AcDbLine
 62
7
  6
CONTINUOUS
 10
-85.3415853613
 20
-32.074719435
 11
-84.5527047642
 21
-31.285838838
  0
LINE
  5
3CC
100
AcDbEntity
  8
CURVE
100
AcDbLine
 62
7
  6
CONTINUOUS
 10
-83.8954210651
 20
-30.6285551388
 11
-83.3757277235
 21
-30.1088617972
  0
LINE
  5
3CD
100
AcDbEntity
  8
CURVE
100
AcDbLine
 62
7
  6
CONTINUOUS
 10
-85.1817421825
 20
-32.1248869703
 11
-84.2496538302
 21
-31.1927986179
  0
LINE
  5
3CE
100
AcDbEntity
  8
CURVE
100
AcDbLine
 62
7
  6
CONTINUOUS
 10
-83.685410351
 20
-30.6285551388
 11
-83.1657170095
 21
-30.1088617972
  0
LINE
  5
3CF
100
AcDbEntity
  8
CURVE
100
AcDbLine
 62
7
  6
CONTINUOUS
 10
-85.0218990038
 20
-32.1750545055
 11
-84.6719901742
 21
-31.825145676
  0
LINE
  5
3D0
100
AcDbEntity
  8
CURVE
100
AcDbLine
 62
7
  6
CONTINUOUS
 10
-84.6351717024
 20
-31.7883272042
 11
-83.9466028961
 21
-31.0997583979
  0
LINE
  5
3D1
100
AcDbEntity
  8
CURVE
100
AcDbLine
 62
7
  6
CONTINUOUS
 10
-83.475399637
 20
-30.6285551388
 11
-82.9557062955
 21
-30.1088617972
  0
LINE
  5
3D2
100
AcDbEntity
  8
CURVE
100
AcDbLine
 62
7
  6
CONTINUOUS
 10
-84.862055825
 20
-32.2252220408
 11
-84.5079491223
 21
-31.8711153381
  0
LINE
  5
3D3
100
AcDbEntity
  8
CURVE
100
AcDbLine
 62
7
  6
CONTINUOUS
 10
-84.3519019003
 20
-31.7150681161
 11
-83.6435519621
 21
-31.0067181779
  0
LINE
  5
3D4
100
AcDbEntity
  8
CURVE
100
AcDbLine
 62
7
  6
CONTINUOUS
 10
-83.265388923
 20
-30.6285551388
 11
-82.9108792591
 21
-30.2740454749
  0
LINE
  5
3D5
100
AcDbEntity
  8
CURVE
100
AcDbLine
 62
7
  6
CONTINUOUS
 10
-84.7022126463
 20
-32.2753895761
 11
-84.3439080704
 21
-31.9170850002
  0
LINE
  5
3D6
100
AcDbEntity
  8
CURVE
100
AcDbLine
 62
7
  6
CONTINUOUS
 10
-84.0686320982
 20
-31.641809028
 11
-83.3405010281
 21
-30.9136779579
  0
LINE
  5
3D7
100
AcDbEntity
  8
CURVE
100
AcDbLine
 62
7
  6
CONTINUOUS
 10
-83.055378209
 20
-30.6285551388
 11
-82.9108792591
 21
-30.4840561889
  0
LINE
  5
3D8
100
AcDbEntity
  8
0
100
AcDbLine
 62
7
  6
CONTINUOUS
 10
-80.5039235154
 20
25.2
 11
-80.3539235154
 21
25.05
  0
LWPOLYLINE
  5
3D9
100
AcDbEntity
  8
0
100
AcDbPolyline
 62
7
  6
CONTINUOUS
 90
10
 70
0
 43
0.3500000006
 10
-93.8276185913
 20
64.1519770203
 10
-93.7561874084
 20
64.0091146545
 10
-93.7561874084
 20
63.9376834717
 10
-93.8990497742
 20
63.7948301697
 10
-93.9704718933
 20
63.7948301697
 10
-94.0419030762
 20
63.8662613525
 10
-94.0419030762
 20
63.9376834717
 10
-93.9704718933
 20
64.0805458374
 10
-93.8990497742
 20
64.1519770203
 10
-93.8276185913
 20
64.1519770203
  0
LINE
  5
3DA
100
AcDbEntity
  8
CURVE
100
AcDbLine
 62
7
  6
CONTINUOUS
 10
-85.409092504
 20
-33.1922801478
 11
-85.3660852503
 21
-33.1492728941
  0
LINE
  5
3DB
100
AcDbEntity
  8
CURVE
100
AcDbLine
 62
7
  6
CONTINUOUS
 10
-84.5423694675
 20
-32.3255571113
 11
-84.1798670185
 21
-31.9630546623
  0
LINE
  5
3DC
100
AcDbEntity
  8
CURVE
100
AcDbLine
 62
7
  6
CONTINUOUS
 10
-83.795528043
 20
-31.5787156868
 11
-83.037450094
 21
-30.8206377378
  0
LINE
  5
3DD
100
AcDbEntity
  8
CURVE
100
AcDbLine
 62
7
  6
CONTINUOUS
 10
-85.409092504
 20
-33.4022908618
 11
-85.1343958007
 21
-33.1275941586
  0
LINE
  5
3DE
100
AcDbEntity
  8
CURVE
100
AcDbLine
 62
7
  6
CONTINUOUS
 10
-84.3825262887
 20
-32.3757246466
 11
-84.0158259666
 21
-32.0090243245
  0
LINE
  5
3DF
100
AcDbEntity
  8
CURVE
100
AcDbLine
 62
7
  6
CONTINUOUS
 10
-83.795528043
 20
-31.7887264008
 11
-82.9108792756
 21
-30.9040776334
  0
LINE
  5
3E0
100
AcDbEntity
  8
CURVE
100
AcDbLine
 62
7
  6
CONTINUOUS
 10
-85.409092504
 20
-33.6123015758
 11
-84.9027063512
 21
-33.105915423
  0
LINE
  5
3E1
100
AcDbEntity
  8
CURVE
100
AcDbLine
 62
7
  6
CONTINUOUS
 10
-84.22268311
 20
-32.4258921818
 11
-83.8517849147
 21
-32.0549939866
  0
LINE
  5
3E2
100
AcDbEntity
  8
CURVE
100
AcDbLine
 62
7
  6
CONTINUOUS
 10
-83.795528043
 20
-31.9987371148
 11
-83.4096112763
 21
-31.6128203482
  0
LINE
  5
3E3
100
AcDbEntity
  8
CURVE
100
AcDbLine
 62
7
  6
CONTINUOUS
 10
-83.2094362137
 20
-31.4126452855
 11
-82.9108792756
 21
-31.1140883474
  0
LINE
  5
3E4
100
AcDbEntity
  8
CURVE
100
AcDbLine
 62
7
  6
CONTINUOUS
 10
-85.2980966676
 20
-33.7113164535
 11
-84.6710169016
 21
-33.0842366875
  0
LINE
  5
3E5
100
AcDbEntity
  8
CURVE
100
AcDbLine
 62
7
  6
CONTINUOUS
 10
-84.0628399312
 20
-32.4760597171
 11
-83.4096112763
 21
-31.8228310622
  0
LINE
  5
3E6
100
AcDbEntity
  8
CURVE
100
AcDbLine
 62
7
  6
CONTINUOUS
 10
-82.9213432899
 20
-31.3345630758
 11
-82.9108792756
 21
-31.3240990614
  0
LINE
  5
3E7
100
AcDbEntity
  8
CURVE
100
AcDbLine
 62
7
  6
CONTINUOUS
 10
-85.1454946028
 20
-33.7687251026
 11
-84.4393274521
 21
-33.0625579519
  0
LINE
  5
3E8
100
AcDbEntity
  8
CURVE
100
AcDbLine
 62
7
  6
CONTINUOUS
 10
-83.9029967525
 20
-32.5262272524
 11
-83.4096112763
 21
-32.0328417762
  0
LINE
  5
3E9
100
AcDbEntity
  8
CURVE
100
AcDbLine
 62
7
  6
CONTINUOUS
 10
-84.9928925379
 20
-33.8261337518
 11
-84.2076380025
 21
-33.0408792164
  0
LINE
  5
3EA
100
AcDbEntity
  8
CURVE
100
AcDbLine
 62
7
  6
CONTINUOUS
 10
-83.7431535737
 20
-32.5763947876
 11
-83.358894597
 21
-32.1921358109
  0
LINE
  5
3EB
100
AcDbEntity
  8
CURVE
100
AcDbLine
 62
7
  6
CONTINUOUS
 10
-84.8402904731
 20
-33.883542401
 11
-84.5053942851
 21
-33.548646213
  0
LINE
  5
3EC
100
AcDbEntity
  8
CURVE
100
AcDbLine
 62
7
  6
CONTINUOUS
 10
-84.4910217411
 20
-33.5342736689
 11
-83.975948553
 21
-33.0192004809
  0
LINE
  5
3ED
100
AcDbEntity
  8
CURVE
100
AcDbLine
 62
7
  6
CONTINUOUS
 10
-83.583310395
 20
-32.6265623229
 11
-83.1959311319
 21
-32.2391830598
  0
LINE
  5
3EE
100
AcDbEntity
  8
CURVE
100
AcDbLine
 62
7
  6
CONTINUOUS
 10
-84.6876884082
 20
-33.9409510501
 11
-84.3534231909
 21
-33.6066858328
  0
LINE
  5
3EF
100
AcDbEntity
  8
CURVE
100
AcDbLine
 62
7
  6
CONTINUOUS
 10
-84.2661726572
 20
-33.5194352991
 11
-83.7442591034
 21
-32.9975217453
  0
LINE
  5
3F0
100
AcDbEntity
  8
CURVE
100
AcDbLine
 62
7
  6
CONTINUOUS
 10
-83.4234672162
 20
-32.6767298581
 11
-83.0329676669
 21
-32.2862303088
  0
LINE
  5
3F1
100
AcDbEntity
  8
CURVE
100
AcDbLine
 62
7
  6
CONTINUOUS
 10
-85.409092504
 20
-34.8723658599
 11
-85.1466881623
 21
-34.6099615182
  0
LINE
  5
3F2
100
AcDbEntity
  8
CURVE
100
AcDbLine
 62
7
  6
CONTINUOUS
 10
-84.5350863434
 20
-33.9983596993
 11
-84.2014520968
 21
-33.6647254527
  0
LINE
  5
3F3
100
AcDbEntity
  8
CURVE
100
AcDbLine
 62
7
  6
CONTINUOUS
 10
-84.0413235733
 20
-33.5045969292
 11
-83.5125696539
 21
-32.9758430098
  0
LINE
  5
3F4
100
AcDbEntity
  8
CURVE
100
AcDbLine
 62
7
  6
CONTINUOUS
 10
-83.2636240375
 20
-32.7268973934
 11
-82.9108792756
 21
-32.3741526315
  0
LINE
  5
3F5
100
AcDbEntity
  8
CURVE
100
AcDbLine
 62
7
  6
CONTINUOUS
 10
-85.409092504
 20
-35.0823765739
 11
-84.8121562889
 21
-34.4854403589
  0
LINE
  5
3F6
100
AcDbEntity
  8
CURVE
100
AcDbLine
 62
7
  6
CONTINUOUS
 10
-84.3824842785
 20
-34.0557683484
 11
-84.0494810026
 21
-33.7227650725
  0
LINE
  5
3F7
100
AcDbEntity
  8
CURVE
100
AcDbLine
 62
7
  6
CONTINUOUS
 10
-83.8164744894
 20
-33.4897585594
 11
-83.2808802043
 21
-32.9541642742
  0
LINE
  5
3F8
100
AcDbEntity
  8
CURVE
100
AcDbLine
 62
7
  6
CONTINUOUS
 10
-83.1037808587
 20
-32.7770649287
 11
-82.9108792756
 21
-32.5841633455
  0
LINE
  5
3F9
100
AcDbEntity
  8
CURVE
100
AcDbLine
 62
7
  6
CONTINUOUS
 10
-85.350953994
 20
-35.2342487779
 11
-84.4776244156
 21
-34.3609191995
  0
LINE
  5
3FA
100
AcDbEntity
  8
CURVE
100
AcDbLine
 62
7
  6
CONTINUOUS
 10
-84.2298822136
 20
-34.1131769976
 11
-83.8975099084
 21
-33.7808046924
  0
LINE
  5
3FB
100
AcDbEntity
  8
CURVE
100
AcDbLine
 62
7
  6
CONTINUOUS
 10
-82.94393768
 20
-32.8272324639
 11
-82.9108792756
 21
-32.7941740595
  0
LINE
  5
3FC
100
AcDbEntity
  8
CURVE
100
AcDbLine
 62
7
  6
CONTINUOUS
 10
-83.5916254056
 20
-33.4749201895
 11
-83.0491907548
 21
-32.9324855387
  0
LINE
  5
3FD
100
AcDbEntity
  8
CURVE
100
AcDbLine
 62
7
  6
CONTINUOUS
 10
-85.1583453503
 20
-35.2516508482
 11
-84.1430925422
 21
-34.2363980402
  0
LINE
  5
3FE
100
AcDbEntity
  8
CURVE
100
AcDbLine
 62
7
  6
CONTINUOUS
 10
-84.0772801488
 20
-34.1705856467
 11
-83.7455388143
 21
-33.8388443122
  0
LINE
  5
3FF
100
AcDbEntity
  8
CURVE
100
AcDbLine
 62
7
  6
CONTINUOUS
 10
-83.3667763217
 20
-33.4600818197
 11
-82.9108792756
 21
-33.0041847735
  0
LINE
  5
400
100
AcDbEntity
  8
CURVE
100
AcDbLine
 62
7
  6
CONTINUOUS
 10
-84.9657367066
 20
-35.2690529185
 11
-84.539768226
 21
-34.843084438
  0
LINE
  5
401
100
AcDbEntity
  8
CURVE
100
AcDbLine
 62
7
  6
CONTINUOUS
 10
-84.5380639157
 20
-34.8413801277
 11
-83.5935677201
 21
-33.8968839321
  0
LINE
  5
402
100
AcDbEntity
  8
CURVE
100
AcDbLine
 62
7
  6
CONTINUOUS
 10
-83.1419272378
 20
-33.4452434498
 11
-82.9108792756
 21
-33.2141954876
  0
LINE
  5
403
100
AcDbEntity
  8
CURVE
100
AcDbLine
 62
7
  6
CONTINUOUS
 10
-85.4092414132
 20
-35.9225683392
 11
-85.222278074
 21
-35.735605
  0
LINE
  5
404
100
AcDbEntity
  8
CURVE
100
AcDbLine
 62
7
  6
CONTINUOUS
 10
-84.7731280628
 20
-35.2864549888
 11
-84.343317917
 21
-34.8566448429
  0
LINE
  5
405
100
AcDbEntity
  8
CURVE
100
AcDbLine
 62
7
  6
CONTINUOUS
 10
-84.2019169117
 20
-34.7152438377
 11
-83.4415966259
 21
-33.9549235519
  0
LINE
  5
406
100
AcDbEntity
  8
CURVE
100
AcDbLine
 62
7
  6
CONTINUOUS
 10
-82.917078154
 20
-33.4304050799
 11
-82.9108792756
 21
-33.4242062016
  0
LINE
  5
407
100
AcDbEntity
  8
CURVE
100
AcDbLine
 62
7
  6
CONTINUOUS
 10
-85.4092414132
 20
-36.1325790532
 11
-85.01226736
 21
-35.735605
  0
LINE
  5
408
100
AcDbEntity
  8
CURVE
100
AcDbLine
 62
7
  6
CONTINUOUS
 10
-84.5805194191
 20
-35.3038570591
 11
-84.1468676079
 21
-34.8702052479
  0
LINE
  5
409
100
AcDbEntity
  8
CURVE
100
AcDbLine
 62
7
  6
CONTINUOUS
 10
-83.8657699077
 20
-34.5891075477
 11
-83.2896255318
 21
-34.0129631718
  0
LINE
  5
40A
100
AcDbEntity
  8
CURVE
100
AcDbLine
 62
7
  6
CONTINUOUS
 10
-85.324049646
 20
-36.257398
 11
-84.802256646
 21
-35.735605
  0
LINE
  5
40B
100
AcDbEntity
  8
CURVE
100
AcDbLine
 62
7
  6
CONTINUOUS
 10
-84.3879107754
 20
-35.3212591294
 11
-83.9504172989
 21
-34.8837656529
  0
LINE
  5
40C
100
AcDbEntity
  8
CURVE
100
AcDbLine
 62
7
  6
CONTINUOUS
 10
-83.5296229037
 20
-34.4629712577
 11
-83.1376544376
 21
-34.0710027916
  0
LINE
  5
40D
100
AcDbEntity
  8
CURVE
100
AcDbLine
 62
7
  6
CONTINUOUS
 10
-85.409092504
 20
-36.552451572
 11
-85.3323583794
 21
-36.4757174474
  0
LINE
  5
40E
100
AcDbEntity
  8
CURVE
100
AcDbLine
 62
7
  6
CONTINUOUS
 10
-85.114038932
 20
-36.257398
 11
-84.592245932
 21
-35.735605
  0
LINE
  5
40F
100
AcDbEntity
  8
CURVE
100
AcDbLine
 62
7
  6
CONTINUOUS
 10
-84.1953021317
 20
-35.3386611997
 11
-83.7539669898
 21
-34.8973260578
  0
LINE
  5
410
100
AcDbEntity
  8
CURVE
100
AcDbLine
 62
7
  6
CONTINUOUS
 10
-83.1934758996
 20
-34.3368349676
 11
-82.9856833434
 21
-34.1290424115
  0
LINE
  5
411
100
AcDbEntity
  8
CURVE
100
AcDbLine
 62
7
  6
CONTINUOUS
 10
-85.409092504
 20
-36.762462286
 11
-85.173456281
 21
-36.526826063
  0
LINE
  5
412
100
AcDbEntity
  8
CURVE
100
AcDbLine
 62
7
  6
CONTINUOUS
 10
-84.904028218
 20
-36.257398
 11
-84.382235218
 21
-35.735605
  0
LINE
  5
413
100
AcDbEntity
  8
CURVE
100
AcDbLine
 62
7
  6
CONTINUOUS
 10
-84.0026934879
 20
-35.35606327
 11
-83.5575166808
 21
-34.9108864628
  0
LINE
  5
414
100
AcDbEntity
  8
CURVE
100
AcDbLine
 62
7
  6
CONTINUOUS
 10
-85.409092504
 20
-36.972473
 11
-85.0145541826
 21
-36.5779346786
  0
LINE
  5
415
100
AcDbEntity
  8
CURVE
100
AcDbLine
 62
7
  6
CONTINUOUS
 10
-84.694017504
 20
-36.257398
 11
-84.172224504
 21
-35.735605
  0
LINE
  5
416
100
AcDbEntity
  8
CURVE
100
AcDbLine
 62
7
  6
CONTINUOUS
 10
-83.8100848442
 20
-35.3734653402
 11
-83.3610663717
 21
-34.9244468678
  0
LINE
  5
417
100
AcDbEntity
  8
CURVE
100
AcDbLine
 62
7
  6
CONTINUOUS
 10
-85.2457314295
 20
-37.0191226396
 11
-84.8556520842
 21
-36.6290432942
  0
LINE
  5
418
100
AcDbEntity
  8
CURVE
100
AcDbLine
 62
7
  6
CONTINUOUS
 10
-84.4840067899
 20
-36.257398
 11
-83.9622137899
 21
-35.735605
  0
LINE
  5
419
100
AcDbEntity
  8
CURVE
100
AcDbLine
 62
7
  6
CONTINUOUS
 10
-83.6174762005
 20
-35.3908674105
 11
-83.1646160627
 21
-34.9380072727
  0
LINE
  5
41A
100
AcDbEntity
  8
CURVE
100
AcDbLine
 62
7
  6
CONTINUOUS
 10
-85.0823703551
 20
-37.0657722792
 11
-84.6967499858
 21
-36.6801519098
  0
LINE
  5
41B
100
AcDbEntity
  8
CURVE
100
AcDbLine
 62
7
  6
CONTINUOUS
 10
-84.2739960759
 20
-36.257398
 11
-83.7522030759
 21
-35.735605
  0
LINE
  5
41C
100
AcDbEntity
  8
CURVE
100
AcDbLine
 62
7
  6
CONTINUOUS
 10
-83.4248675568
 20
-35.4082694808
 11
-82.9681657536
 21
-34.9515676777
  0
LINE
  5
41D
100
AcDbEntity
  8
CURVE
100
AcDbLine
 62
7
  6
CONTINUOUS
 10
-84.9190092807
 20
-37.1124219188
 11
-84.5378478873
 21
-36.7312605254
  0
LINE
  5
41E
100
AcDbEntity
  8
CURVE
100
AcDbLine
 62
7
  6
CONTINUOUS
 10
-84.0639853619
 20
-36.257398
 11
-83.5421923619
 21
-35.735605
  0
LINE
  5
41F
100
AcDbEntity
  8
CURVE
100
AcDbLine
 62
7
  6
CONTINUOUS
 10
-83.232258913
 20
-35.4256715511
 11
-82.9108792756
 21
-35.1042919137
  0
LINE
  5
420
100
AcDbEntity
  8
CURVE
100
AcDbLine
 62
7
  6
CONTINUOUS
 10
-84.7556482063
 20
-37.1590715584
 11
-84.3789457889
 21
-36.782369141
  0
LINE
  5
421
100
AcDbEntity
  8
CURVE
100
AcDbLine
 62
7
  6
CONTINUOUS
 10
-83.8539746479
 20
-36.257398
 11
-83.3321816479
 21
-35.735605
  0
LINE
  5
422
100
AcDbEntity
  8
CURVE
100
AcDbLine
 62
7
  6
CONTINUOUS
 10
-83.0396502693
 20
-35.4430736214
 11
-82.9108792756
 21
-35.3143026277
  0
LINE
  5
423
100
AcDbEntity
  8
CURVE
100
AcDbLine
 62
7
  6
CONTINUOUS
 10
-85.409092504
 20
-38.0225265701
 11
-85.2949588739
 21
-37.90839294
  0
LINE
  5
424
100
AcDbEntity
  8
CURVE
100
AcDbLine
 62
7
  6
CONTINUOUS
 10
-84.5922871318
 20
-37.2057211979
 11
-84.2200436905
 21
-36.8334777566
  0
LINE
  5
425
100
AcDbEntity
  8
CURVE
100
AcDbLine
 62
7
  6
CONTINUOUS
 10
-83.6439639339
 20
-36.257398
 11
-83.1221709339
 21
-35.735605
  0
LINE
  5
426
100
AcDbEntity
  8
CURVE
100
AcDbLine
 62
7
  6
CONTINUOUS
 10
-85.409092504
 20
-38.2325372841
 11
-85.0044487412
 21
-37.8278935213
  0
LINE
  5
427
100
AcDbEntity
  8
CURVE
100
AcDbLine
 62
7
  6
CONTINUOUS
 10
-84.4289260574
 20
-37.2523708375
 11
-84.0611415921
 21
-36.8845863723
  0
LINE
  5
428
100
AcDbEntity
  8
CURVE
100
AcDbLine
 62
7
  6
CONTINUOUS
 10
-83.4339532199
 20
-36.257398
 11
-82.9121602199
 21
-35.735605
  0
LINE
  5
429
100
AcDbEntity
  8
CURVE
100
AcDbLine
 62
7
  6
CONTINUOUS
 10
-85.409092504
 20
-38.4425479981
 11
-84.7139386084
 21
-37.7473941026
  0
LINE
  5
42A
100
AcDbEntity
  8
CURVE
100
AcDbLine
 62
7
  6
CONTINUOUS
 10
-84.265564983
 20
-37.2990204771
 11
-83.9022394937
 21
-36.9356949879
  0
LINE
  5
42B
100
AcDbEntity
  8
CURVE
100
AcDbLine
 62
7
  6
CONTINUOUS
 10
-83.2239425059
 20
-36.257398
 11
-82.9108792756
 21
-35.9443347697
  0
LINE
  5
42C
100
AcDbEntity
  8
CURVE
100
AcDbLine
 62
7
  6
CONTINUOUS
 10
-85.1956853196
 20
-38.4391515277
 11
-84.4234284757
 21
-37.6668946838
  0
LINE
  5
42D
100
AcDbEntity
  8
CURVE
100
AcDbLine
 62
7
  6
CONTINUOUS
 10
-84.1022039086
 20
-37.3456701167
 11
-83.7433373953
 21
-36.9868036035
  0
LINE
  5
42E
100
AcDbEntity
  8
CURVE
100
AcDbLine
 62
7
  6
CONTINUOUS
 10
-83.0139317919
 20
-36.257398
 11
-82.9108792756
 21
-36.1543454837
  0
LINE
  5
42F
100
AcDbEntity
  8
CURVE
100
AcDbLine
 62
7
  6
CONTINUOUS
 10
-84.888106783
 20
-38.3415837051
 11
-84.1329183429
 21
-37.5863952651
  0
LINE
  5
430
100
AcDbEntity
  8
CURVE
100
AcDbLine
 62
7
  6
CONTINUOUS
 10
-83.9388428341
 20
-37.3923197563
 11
-83.5844352969
 21
-37.0379122191
  0
LINE
  5
431
100
AcDbEntity
  8
CURVE
100
AcDbLine
 62
7
  6
CONTINUOUS
 10
-84.5805282464
 20
-38.2440158826
 11
-83.8424082101
 21
-37.5058958463
  0
LINE
  5
432
100
AcDbEntity
  8
CURVE
100
AcDbLine
 62
7
  6
CONTINUOUS
 10
-83.7754817597
 20
-37.4389693959
 11
-83.4255331985
 21
-37.0890208347
  0
LINE
  5
433
100
AcDbEntity
  8
CURVE
100
AcDbLine
 62
7
  6
CONTINUOUS
 10
-84.2729497099
 20
-38.14644806
 11
-83.2666311001
 21
-37.1401294503
  0
LINE
  5
434
100
AcDbEntity
  8
CURVE
100
AcDbLine
 62
7
  6
CONTINUOUS
 10
-83.9653711733
 20
-38.0488802375
 11
-83.1077290017
 21
-37.1912380659
  0
LINE
  5
435
100
AcDbEntity
  8
CURVE
100
AcDbLine
 62
7
  6
CONTINUOUS
 10
-83.6577926367
 20
-37.9513124149
 11
-82.9488269033
 21
-37.2423466815
  0
LINE
  5
436
100
AcDbEntity
  8
CURVE
100
AcDbLine
 62
7
  6
CONTINUOUS
 10
-83.3502141001
 20
-37.8537445923
 11
-82.9108792756
 21
-37.4144097678
  0
LINE
  5
437
100
AcDbEntity
  8
CURVE
100
AcDbLine
 62
7
  6
CONTINUOUS
 10
-83.0426355636
 20
-37.7561767698
 11
-82.9108792756
 21
-37.6244204818
  0
LINE
  5
438
100
AcDbEntity
  8
0
100
AcDbLine
 62
250
  6
CONTINUOUS
 10
-77.8039235154
 20
-26.0384659645
 11
-78.6978358182
 21
-26.5162094923
  0
LINE
  5
439
100
AcDbEntity
  8
0
100
AcDbLine
 62
250
  6
CONTINUOUS
 10
-79.8781509317
 20
-26.9276792439
 11
-79.2064538904
 21
-26.5711304782
  0
LINE
  5
43A
100
AcDbEntity
  8
0
100
AcDbLine
 62
7
  6
CONTINUOUS
 10
-77.8039235154
 20
-26.0883643404
 11
-79.7389115537
 21
-27.1154904916
  0
LINE
  5
43B
100
AcDbEntity
  8
0
100
AcDbLine
 62
7
  6
CONTINUOUS
 10
-77.8039235154
 20
25.4
 11
-79.7542954175
 21
25.2049628098
  0
LINE
  5
43C
100
AcDbEntity
  8
0
100
AcDbLine
 62
7
  6
CONTINUOUS
 10
-80.8039235154
 20
25.7558198745
 11
-79.8020434865
 21
25.8000830599
  0
LINE
  5
43D
100
AcDbEntity
  8
0
100
AcDbLine
 62
7
  6
CONTINUOUS
 10
-80.8039235154
 20
25.05
 11
-80.6539235154
 21
25.05
  0
LINE
  5
43E
100
AcDbEntity
  8
0
100
AcDbLine
 62
7
  6
CONTINUOUS
 10
-80.3539235154
 20
25.05
 11
-80.1539235154
 21
25.05
  0
LINE
  5
43F
100
AcDbEntity
  8
0
100
AcDbLine
 62
7
  6
CONTINUOUS
 10
-80.8039235154
 20
25.2
 11
-79.8537991366
 21
25.2
  0
LINE
  5
440
100
AcDbEntity
  8
0
100
AcDbLine
 62
250
  6
CONTINUOUS
 10
-79.8781509317
 20
26.9276792439
 11
-80.8039235154
 21
26.9280974384
  0
LINE
  5
441
100
AcDbEntity
  8
0
100
AcDbLine
 62
7
  6
CONTINUOUS
 10
-79.8780863644
 20
27.1501294387
 11
-80.8039235154
 21
27.151745331
  0
LINE
  5
442
100
AcDbEntity
  8
0
100
AcDbLine
 62
7
  6
CONTINUOUS
 10
-78.8439321476
 20
26.528621319
 11
-80.8039235154
 21
26.5637861501
  0
LWPOLYLINE
  5
443
100
AcDbEntity
  8
0
100
AcDbPolyline
 62
7
  6
CONTINUOUS
 90
15
 70
0
 10
-78.5168533735
 20
26.466799801
 10
-78.5257629816
 20
26.4713391458
 10
-78.5467803228
 20
26.4807184228
 10
-78.568927571
 20
26.4889178697
 10
-78.5914964843
 20
26.4959347155
 10
-78.6144753017
 20
26.5019868069
 10
-78.6383097176
 20
26.5073235231
 10
-78.6629218278
 20
26.5120121366
 10
-78.688357884
 20
26.5161149823
 10
-78.7146773199
 20
26.5196681981
 10
-78.7416112971
 20
26.5226528247
 10
-78.7690931351
 20
26.5250696469
 10
-78.797195529
 20
26.5269180403
 10
-78.825791816
 20
26.5281647618
 10
-78.8439322413
 20
26.5286213179
  0
LINE
  5
444
100
AcDbEntity
  8
0
100
AcDbLine
 62
250
  6
CONTINUOUS
 10
-79.1362517266
 20
26.5338659179
 11
-79.8781509317
 21
26.9276792439
  0
LINE
  5
445
100
AcDbEntity
  8
0
100
AcDbLine
 62
7
  6
CONTINUOUS
 10
-79.7389115537
 20
27.1154904916
 11
-77.8039235154
 21
26.0883643404
  0
LINE
  5
446
100
AcDbEntity
  8
0
100
AcDbLine
 62
250
  6
CONTINUOUS
 10
-78.6070081261
 20
26.4697941135
 11
-77.8039235166
 21
26.040673171
  0
LINE
  5
447
100
AcDbEntity
  8
0
100
AcDbLine
 62
7
  6
CONTINUOUS
 10
-86.9545326884
 20
-43.8055596544
 11
-86.9694710577
 21
-43.8199854699
  0
LINE
  5
448
100
AcDbEntity
  8
ASSI
100
AcDbLine
 62
7
  6
CONTINUOUS
 10
-86.9545326884
 20
-43.8055596544
 11
-86.9694710577
 21
-43.8199854699
  0
LINE
  5
449
100
AcDbEntity
  8
CURVE
100
AcDbLine
 62
250
  6
CONTINUOUS
 10
-85.409092504
 20
-31.54876
 11
-82.9108792756
 21
-30.781779
  0
LINE
  5
44A
100
AcDbEntity
  8
0
100
AcDbLine
 62
7
  6
CONTINUOUS
 10
-86.9694710577
 20
43.8199854699
 11
-86.9545326884
 21
43.8055596544
  0
LINE
  5
44B
100
AcDbEntity
  8
ASSI
100
AcDbLine
 62
7
  6
CONTINUOUS
 10
-86.9694710577
 20
43.8199854699
 11
-86.9545326884
 21
43.8055596544
  0
LINE
  5
44C
100
AcDbEntity
  8
CURVE
100
AcDbLine
 62
250
  6
CONTINUOUS
 10
-82.9108792756
 20
-34.230793
 11
-84.5421649347
 21
-34.842919
  0
LINE
  5
44D
100
AcDbEntity
  8
CURVE
100
AcDbLine
 62
250
  6
CONTINUOUS
 10
-85.409092504
 20
-34.707635
 11
-84.0220769514
 21
-34.191353
  0
LINE
  5
44E
100
AcDbEntity
  8
CURVE
100
AcDbLine
 62
250
  6
CONTINUOUS
 10
-82.9108792756
 20
-37.714382
 11
-85.409092504
 21
-38.506847
  0
LINE
  5
44F
100
AcDbEntity
  8
0
100
AcDbLine
 62
250
  6
CONTINUOUS
 10
-81.4039235154
 20
41.1619414324
 11
-80.8039235154
 21
41.2038975196
  0
LINE
  5
450
100
AcDbEntity
  8
0
100
AcDbLine
 62
7
  6
CONTINUOUS
 10
-81.4039235154
 20
42.7580439128
 11
-80.8039235154
 21
42.8
  0
LINE
  5
451
100
AcDbEntity
  8
0
100
AcDbLine
 62
7
  6
CONTINUOUS
 10
-86.9545326884
 20
43.8055596544
 11
-81.4039235154
 21
43.9993911979
  0
LINE
  5
452
100
AcDbEntity
  8
ASSI
100
AcDbLine
 62
7
  6
CONTINUOUS
 10
-86.9545326884
 20
43.8055596544
 11
-81.4039235154
 21
43.9993911979
  0
LINE
  5
453
100
AcDbEntity
  8
0
100
AcDbLine
 62
7
  6
CONTINUOUS
 10
-86.9545326884
 20
44.8061684565
 11
-81.4039235154
 21
45.0
  0
LINE
  5
454
100
AcDbEntity
  8
ASSI
100
AcDbLine
 62
7
  6
CONTINUOUS
 10
-86.9545326884
 20
44.8061684565
 11
-81.4039235154
 21
45.0
  0
LWPOLYLINE
  5
455
100
AcDbEntity
  8
0
100
AcDbPolyline
 62
7
  6
CONTINUOUS
 90
8
 70
0
 43
0.3500000006
 10
-91.2385939636
 20
55.5965679016
 10
-90.3814560242
 20
55.5965679016
 10
-89.9528779907
 20
56.0251368713
 10
-89.9528779907
 20
56.8822838745
 10
-90.3814560242
 20
57.3108528442
 10
-91.2385939636
 20
57.3108528442
 10
-91.2385939636
 20
58.5965688171
 10
-89.9528779907
 20
58.5965688171
  0
LWPOLYLINE
  5
456
100
AcDbEntity
  8
0
100
AcDbPolyline
 62
7
  6
CONTINUOUS
 90
8
 70
0
 43
0.3500000006
 10
-91.0419021606
 20
63.6519768677
 10
-90.1847642212
 20
63.6519768677
 10
-89.7561861877
 20
64.0805458374
 10
-89.7561861877
 20
64.9376837769
 10
-90.1847642212
 20
65.3662618103
 10
-91.0419021606
 20
65.3662618103
 10
-91.0419021606
 20
66.6519687195
 10
-89.7561861877
 20
66.6519687195
  0
ARC
  5
457
100
AcDbEntity
  8
CURVE
100
AcDbCircle
 62
250
  6
CONTINUOUS
 10
84.7422937963
 20
-29.8716892664
 40
39.8681074
100
AcDbArc
 50
179.7782450657
 51
180.3657160807
  0
ARC
  5
458
100
AcDbEntity
  8
0
100
AcDbCircle
 62
7
  6
CONTINUOUS
 10
17.95
 20
6.7
 40
1.7
100
AcDbArc
 50
0.0
 51
90.0
  0
ARC
  5
459
100
AcDbEntity
  8
0
100
AcDbCircle
 62
7
  6
CONTINUOUS
 10
4.55
 20
6.7
 40
1.7
100
AcDbArc
 50
90.0
 51
180.0
  0
ARC
  5
45A
100
AcDbEntity
  8
0
100
AcDbCircle
 62
7
  6
CONTINUOUS
 10
4.55
 20
-6.7
 40
1.7
100
AcDbArc
 50
180.0
 51
270.0
  0
ARC
  5
45B
100
AcDbEntity
  8
0
100
AcDbCircle
 62
7
  6
CONTINUOUS
 10
17.95
 20
-6.7
 40
1.7
100
AcDbArc
 50
270.0
 51
360.0
  0
ARC
  5
45C
100
AcDbEntity
  8
0
100
AcDbCircle
 62
7
  6
CONTINUOUS
 10
-4.55
 20
6.7
 40
1.7
100
AcDbArc
 50
0.0
 51
90.0
  0
ARC
  5
45D
100
AcDbEntity
  8
0
100
AcDbCircle
 62
7
  6
CONTINUOUS
 10
-17.95
 20
6.7
 40
1.7
100
AcDbArc
 50
90.0
 51
180.0
  0
ARC
  5
45E
100
AcDbEntity
  8
0
100
AcDbCircle
 62
7
  6
CONTINUOUS
 10
-17.95
 20
-6.7
 40
1.7
100
AcDbArc
 50
180.0
 51
270.0
  0
ARC
  5
45F
100
AcDbEntity
  8
0
100
AcDbCircle
 62
7
  6
CONTINUOUS
 10
-4.55
 20
-6.7
 40
1.7
100
AcDbArc
 50
270.0
 51
360.0
  0
ARC
  5
460
100
AcDbEntity
  8
ASSI
100
AcDbCircle
 62
7
  6
CONTINUOUS
 10
17.95
 20
6.7
 40
1.7
100
AcDbArc
 50
0.0
 51
90.0
  0
ARC
  5
461
100
AcDbEntity
  8
ASSI
100
AcDbCircle
 62
7
  6
CONTINUOUS
 10
4.55
 20
6.7
 40
1.7
100
AcDbArc
 50
90.0
 51
180.0
  0
ARC
  5
462
100
AcDbEntity
  8
ASSI
100
AcDbCircle
 62
7
  6
CONTINUOUS
 10
4.55
 20
-6.7
 40
1.7
100
AcDbArc
 50
180.0
 51
270.0
  0
ARC
  5
463
100
AcDbEntity
  8
ASSI
100
AcDbCircle
 62
7
  6
CONTINUOUS
 10
17.95
 20
-6.7
 40
1.7
100
AcDbArc
 50
270.0
 51
360.0
  0
ARC
  5
464
100
AcDbEntity
  8
ASSI
100
AcDbCircle
 62
7
  6
CONTINUOUS
 10
-4.55
 20
6.7
 40
1.7
100
AcDbArc
 50
0.0
 51
90.0
  0
ARC
  5
465
100
AcDbEntity
  8
ASSI
100
AcDbCircle
 62
7
  6
CONTINUOUS
 10
-17.95
 20
6.7
 40
1.7
100
AcDbArc
 50
90.0
 51
180.0
  0
ARC
  5
466
100
AcDbEntity
  8
ASSI
100
AcDbCircle
 62
7
  6
CONTINUOUS
 10
-17.95
 20
-6.7
 40
1.7
100
AcDbArc
 50
180.0
 51
270.0
  0
ARC
  5
467
100
AcDbEntity
  8
ASSI
100
AcDbCircle
 62
7
  6
CONTINUOUS
 10
-4.55
 20
-6.7
 40
1.7
100
AcDbArc
 50
270.0
 51
360.0
  0
ARC
  5
468
100
AcDbEntity
  8
0
100
AcDbCircle
 62
7
  6
CONTINUOUS
 10
-17.95
 20
-6.7
 40
1.2
100
AcDbArc
 50
180.0
 51
270.0
  0
ARC
  5
469
100
AcDbEntity
  8
0
100
AcDbCircle
 62
7
  6
CONTINUOUS
 10
-4.55
 20
-6.7
 40
1.2
100
AcDbArc
 50
270.0
 51
360.0
  0
ARC
  5
46A
100
AcDbEntity
  8
0
100
AcDbCircle
 62
7
  6
CONTINUOUS
 10
-17.95
 20
6.7
 40
1.2
100
AcDbArc
 50
90.0
 51
180.0
  0
ARC
  5
46B
100
AcDbEntity
  8
0
100
AcDbCircle
 62
7
  6
CONTINUOUS
 10
-4.55
 20
6.7
 40
1.2
100
AcDbArc
 50
0.0
 51
90.0
  0
ARC
  5
46C
100
AcDbEntity
  8
0
100
AcDbCircle
 62
7
  6
CONTINUOUS
 10
4.55
 20
-6.7
 40
1.2
100
AcDbArc
 50
180.0
 51
270.0
  0
ARC
  5
46D
100
AcDbEntity
  8
0
100
AcDbCircle
 62
7
  6
CONTINUOUS
 10
17.95
 20
-6.7
 40
1.2
100
AcDbArc
 50
270.0
 51
360.0
  0
ARC
  5
46E
100
AcDbEntity
  8
0
100
AcDbCircle
 62
7
  6
CONTINUOUS
 10
4.55
 20
6.7
 40
1.2
100
AcDbArc
 50
90.0
 51
180.0
  0
ARC
  5
46F
100
AcDbEntity
  8
0
100
AcDbCircle
 62
7
  6
CONTINUOUS
 10
17.95
 20
6.7
 40
1.2
100
AcDbArc
 50
0.0
 51
90.0
  0
ARC
  5
470
100
AcDbEntity
  8
ASSI
100
AcDbCircle
 62
7
  6
CONTINUOUS
 10
-17.95
 20
-6.7
 40
1.2
100
AcDbArc
 50
180.0
 51
270.0
  0
ARC
  5
471
100
AcDbEntity
  8
ASSI
100
AcDbCircle
 62
7
  6
CONTINUOUS
 10
-4.55
 20
-6.7
 40
1.2
100
AcDbArc
 50
270.0
 51
360.0
  0
ARC
  5
472
100
AcDbEntity
  8
ASSI
100
AcDbCircle
 62
7
  6
CONTINUOUS
 10
-17.95
 20
6.7
 40
1.2
100
AcDbArc
 50
90.0
 51
180.0
  0
ARC
  5
473
100
AcDbEntity
  8
ASSI
100
AcDbCircle
 62
7
  6
CONTINUOUS
 10
-4.55
 20
6.7
 40
1.2
100
AcDbArc
 50
0.0
 51
90.0
  0
ARC
  5
474
100
AcDbEntity
  8
ASSI
100
AcDbCircle
 62
7
  6
CONTINUOUS
 10
4.55
 20
-6.7
 40
1.2
100
AcDbArc
 50
180.0
 51
270.0
  0
ARC
  5
475
100
AcDbEntity
  8
ASSI
100
AcDbCircle
 62
7
  6
CONTINUOUS
 10
17.95
 20
-6.7
 40
1.2
100
AcDbArc
 50
270.0
 51
360.0
  0
ARC
  5
476
100
AcDbEntity
  8
ASSI
100
AcDbCircle
 62
7
  6
CONTINUOUS
 10
4.55
 20
6.7
 40
1.2
100
AcDbArc
 50
90.0
 51
180.0
  0
ARC
  5
477
100
AcDbEntity
  8
ASSI
100
AcDbCircle
 62
7
  6
CONTINUOUS
 10
17.95
 20
6.7
 40
1.2
100
AcDbArc
 50
0.0
 51
90.0
  0
ARC
  5
478
100
AcDbEntity
  8
0
100
AcDbCircle
 62
250
  6
CONTINUOUS
 10
-78.8632205572
 20
25.445834267
 40
1.0629464187
100
AcDbArc
 50
87.0072136692
 51
88.9655515095
  0
ARC
  5
479
100
AcDbEntity
  8
0
100
AcDbCircle
 62
250
  6
CONTINUOUS
 10
-78.8623804838
 20
25.4536417379
 40
1.055105824
100
AcDbArc
 50
84.2890121823
 51
87.0306345885
  0
ARC
  5
47A
100
AcDbEntity
  8
0
100
AcDbCircle
 62
7
  6
CONTINUOUS
 10
-79.8537991366
 20
-26.2
 40
1.0
100
AcDbArc
 50
84.2894068625
 51
90.0
  0
ARC
  5
47B
100
AcDbEntity
  8
0
100
AcDbCircle
 62
7
  6
CONTINUOUS
 10
-79.8537991366
 20
26.2
 40
1.0
100
AcDbArc
 50
270.0
 51
275.7105931375
  0
ARC
  5
47C
100
AcDbEntity
  8
0
100
AcDbCircle
 62
250
  6
CONTINUOUS
 10
-78.9277559022
 20
-25.559178983
 40
0.9917415794
100
AcDbArc
 50
270.0358584787
 51
274.8041049356
  0
ARC
  5
47D
100
AcDbEntity
  8
0
100
AcDbCircle
 62
7
  6
CONTINUOUS
 10
-79.8786101905
 20
26.849999496
 40
0.3
100
AcDbArc
 50
62.0510370175
 51
89.9000000064
  0
ARC
  5
47E
100
AcDbEntity
  8
0
100
AcDbCircle
 62
7
  6
CONTINUOUS
 10
-79.8786101905
 20
-26.849999496
 40
0.3
100
AcDbArc
 50
270.0999999936
 51
297.9489629825
  0
SPLINE
  5
47F
100
AcDbEntity
  8
CURVE
100
AcDbSpline
 62
250
  6
CONTINUOUS
 70
0
 71
3
 72
9
 73
5
 74
0
 42
0.0000001
 43
0.0000001
 44
0.0000000001
 40
0.0
 40
0.0
 40
0.0
 40
0.0
 40
0.5206208722
 40
1.0
 40
1.0
 40
1.0
 40
1.0
 10
44.885390512
 20
-29.4226356449
 30
0.0
 10
44.8891619261
 20
-29.4209681689
 30
0.0
 10
44.8974005432
 20
-29.4973108459
 30
0.0
 10
44.8988699409
 20
-29.728472706
 30
0.0
 10
44.8989474951
 20
-29.8279642095
 30
0.0
  0
SPLINE
  5
480
100
AcDbEntity
  8
CURVE
100
AcDbSpline
 62
250
  6
CONTINUOUS
 70
0
 71
3
 72
9
 73
5
 74
0
 42
0.0000001
 43
0.0000001
 44
0.0000000001
 40
0.0
 40
0.0
 40
0.0
 40
0.0
 40
0.5013510385
 40
1.0
 40
1.0
 40
1.0
 40
1.0
 10
44.8744850009
 20
-29.7173859732
 30
0.0
 10
44.874794863
 20
-29.6409112471
 30
0.0
 10
44.8771452432
 20
-29.4862321801
 30
0.0
 10
44.8827184632
 20
-29.423833145
 30
0.0
 10
44.885390512
 20
-29.4226356449
 30
0.0
  0
SPLINE
  5
481
100
AcDbEntity
  8
CURVE
100
AcDbSpline
 62
250
  6
CONTINUOUS
 70
0
 71
3
 72
9
 73
5
 74
0
 42
0.0000001
 43
0.0000001
 44
0.0000000001
 40
0.0
 40
0.0
 40
0.0
 40
0.0
 40
0.2957417834
 40
1.0
 40
1.0
 40
1.0
 40
1.0
 10
44.8620741759
 20
-29.3408501143
 30
0.0
 10
44.8605585951
 20
-29.4610542637
 30
0.0
 10
44.8580881081
 20
-29.8931154132
 30
0.0
 10
44.8596096759
 20
-30.3274429247
 30
0.0
 10
44.8611556794
 20
-30.6285551388
 30
0.0
  0
SPLINE
  5
482
100
AcDbEntity
  8
CURVE
100
AcDbSpline
 62
250
  6
CONTINUOUS
 70
0
 71
3
 72
17
 73
13
 74
0
 42
0.0000001
 43
0.0000001
 44
0.0000000001
 40
0.0
 40
0.0
 40
0.0
 40
0.0
 40
0.0559780952
 40
0.1687540387
 40
0.321006234
 40
0.4122750837
 40
0.516613223
 40
0.6013931059
 40
0.6776022439
 40
0.8103422694
 40
0.9200404832
 40
1.0
 40
1.0
 40
1.0
 40
1.0
 10
44.9061378054
 20
-29.2870512436
 30
0.0
 10
44.9060080221
 20
-29.2582307418
 30
0.0
 10
44.9039944413
 20
-29.184972753
 30
0.0
 10
44.9001559947
 20
-29.0634829078
 30
0.0
 10
44.894247302
 20
-28.9740276278
 30
0.0
 10
44.8880831982
 20
-28.9341773505
 30
0.0
 10
44.8829671207
 20
-28.9304334968
 30
0.0
 10
44.8781887457
 20
-28.9501640226
 30
0.0
 10
44.8731113496
 20
-28.9979840427
 30
0.0
 10
44.8681353908
 20
-29.0877998266
 30
0.0
 10
44.8642440602
 20
-29.2146127248
 30
0.0
 10
44.862565765
 20
-29.301804483
 30
0.0
 10
44.8620741759
 20
-29.3408501143
 30
0.0
  0
SPLINE
  5
483
100
AcDbEntity
  8
CURVE
100
AcDbSpline
 62
250
  6
CONTINUOUS
 70
0
 71
3
 72
9
 73
5
 74
0
 42
0.0000001
 43
0.0000001
 44
0.0000000001
 40
0.0
 40
0.0
 40
0.0
 40
0.0
 40
0.2426586216
 40
1.0
 40
1.0
 40
1.0
 40
1.0
 10
44.9237639114
 20
-28.9862836897
 30
0.0
 10
44.9221786227
 20
-28.9986586641
 30
0.0
 10
44.9157768408
 20
-29.0459291565
 30
0.0
 10
44.9085526835
 20
-29.1505648409
 30
0.0
 10
44.9066533149
 20
-29.2870512436
 30
0.0
  0
LINE
  5
484
100
AcDbEntity
  8
CURVE
100
AcDbLine
 62
250
  6
CONTINUOUS
 10
44.9473759458
 20
-28.8079038802
 11
44.9237639114
 21
-28.9862836897
  0
SPLINE
  5
485
100
AcDbEntity
  8
CURVE
100
AcDbSpline
 62
250
  6
CONTINUOUS
 70
0
 71
3
 72
9
 73
5
 74
0
 42
0.0000001
 43
0.0000001
 44
0.0000000001
 40
0.0
 40
0.0
 40
0.0
 40
0.0
 40
0.5586214172
 40
1.0
 40
1.0
 40
1.0
 40
1.0
 10
44.9209220674
 20
-29.5379751749
 30
0.0
 10
44.9257378197
 20
-29.486134558
 30
0.0
 10
44.9346552336
 20
-29.4179595379
 30
0.0
 10
44.9434695024
 20
-29.3419894791
 30
0.0
 10
44.9473759458
 20
-29.3098079785
 30
0.0
  0
SPLINE
  5
486
100
AcDbEntity
  8
CURVE
100
AcDbSpline
 62
250
  6
CONTINUOUS
 70
0
 71
3
 72
9
 73
5
 74
0
 42
0.0000001
 43
0.0000001
 44
0.0000000001
 40
0.0
 40
0.0
 40
0.0
 40
0.0
 40
0.3559141631
 40
1.0
 40
1.0
 40
1.0
 40
1.0
 10
44.9132352194
 20
-29.8290889245
 30
0.0
 10
44.9132352194
 20
-29.7836184402
 30
0.0
 10
44.9141961358
 20
-29.6528120506
 30
0.0
 10
44.9182334149
 20
-29.5668873007
 30
0.0
 10
44.9209220674
 20
-29.5379751749
 30
0.0
  0
SPLINE
  5
487
100
AcDbEntity
  8
CURVE
100
AcDbSpline
 62
250
  6
CONTINUOUS
 70
0
 71
3
 72
9
 73
5
 74
0
 42
0.0000001
 43
0.0000001
 44
0.0000000001
 40
0.0
 40
0.0
 40
0.0
 40
0.0
 40
0.5206208722
 40
1.0
 40
1.0
 40
1.0
 40
1.0
 10
-84.6859098413
 20
-29.4226356449
 30
0.0
 10
-84.5779106717
 20
-29.4209681689
 30
0.0
 10
-84.3419875481
 20
-29.4973108459
 30
0.0
 10
-84.2999095022
 20
-29.728472706
 30
0.0
 10
-84.2976886407
 20
-29.8279642095
 30
0.0
  0
SPLINE
  5
488
100
AcDbEntity
  8
CURVE
100
AcDbSpline
 62
250
  6
CONTINUOUS
 70
0
 71
3
 72
9
 73
5
 74
0
 42
0.0000001
 43
0.0000001
 44
0.0000000001
 40
0.0
 40
0.0
 40
0.0
 40
0.0
 40
0.5013510385
 40
1.0
 40
1.0
 40
1.0
 40
1.0
 10
-84.9982028208
 20
-29.7173859732
 30
0.0
 10
-84.9893295311
 20
-29.6409112471
 30
0.0
 10
-84.922023449
 20
-29.4862321801
 30
0.0
 10
-84.7624273087
 20
-29.423833145
 30
0.0
 10
-84.6859098413
 20
-29.4226356449
 30
0.0
  0
SPLINE
  5
489
100
AcDbEntity
  8
CURVE
100
AcDbSpline
 62
250
  6
CONTINUOUS
 70
0
 71
3
 72
9
 73
5
 74
0
 42
0.0000001
 43
0.0000001
 44
0.0000000001
 40
0.0
 40
0.0
 40
0.0
 40
0.0
 40
0.2703953699
 40
1.0
 40
1.0
 40
1.0
 40
1.0
 10
-84.9834967627
 20
-30.126163664
 30
0.0
 10
-84.9897072944
 20
-30.0897447717
 30
0.0
 10
-85.0101332383
 20
-29.9546358143
 30
0.0
 10
-85.0096898142
 20
-29.8164101388
 30
0.0
 10
-84.9982028208
 20
-29.7173859732
 30
0.0
  0
SPLINE
  5
48A
100
AcDbEntity
  8
CURVE
100
AcDbSpline
 62
250
  6
CONTINUOUS
 70
0
 71
3
 72
9
 73
5
 74
0
 42
0.0000001
 43
0.0000001
 44
0.0000000001
 40
0.0
 40
0.0
 40
0.0
 40
0.0
 40
0.2957417834
 40
1.0
 40
1.0
 40
1.0
 40
1.0
 10
-85.3536023477
 20
-29.3408501143
 30
0.0
 10
-85.3970029034
 20
-29.4610542637
 30
0.0
 10
-85.4677483959
 20
-29.8931154132
 30
0.0
 10
-85.4241763963
 20
-30.3274429247
 30
0.0
 10
-85.3799046478
 20
-30.6285551388
 30
0.0
  0
SPLINE
  5
48B
100
AcDbEntity
  8
CURVE
100
AcDbSpline
 62
250
  6
CONTINUOUS
 70
0
 71
3
 72
17
 73
13
 74
0
 42
0.0000001
 43
0.0000001
 44
0.0000000001
 40
0.0
 40
0.0
 40
0.0
 40
0.0
 40
0.0559780952
 40
0.1687540387
 40
0.321006234
 40
0.4122750837
 40
0.516613223
 40
0.6013931059
 40
0.6776022439
 40
0.8103422694
 40
0.9200404832
 40
1.0
 40
1.0
 40
1.0
 40
1.0
 10
-84.0917850932
 20
-29.2870512436
 30
0.0
 10
-84.0955016022
 20
-29.2582307418
 30
0.0
 10
-84.1531630105
 20
-29.184972753
 30
0.0
 10
-84.2630817405
 20
-29.0634829078
 30
0.0
 10
-84.4322845597
 20
-28.9740276278
 30
0.0
 10
-84.608801399
 20
-28.9341773505
 30
0.0
 10
-84.7553066909
 20
-28.9304334968
 30
0.0
 10
-84.8921414451
 20
-28.9501640226
 30
0.0
 10
-85.037539046
 20
-28.9979840427
 30
0.0
 10
-85.1800318645
 20
-29.0877998266
 30
0.0
 10
-85.2914649918
 20
-29.2146127248
 30
0.0
 10
-85.339525079
 20
-29.301804483
 30
0.0
 10
-85.3536023477
 20
-29.3408501143
 30
0.0
  0
SPLINE
  5
48C
100
AcDbEntity
  8
CURVE
100
AcDbSpline
 62
250
  6
CONTINUOUS
 70
0
 71
3
 72
9
 73
5
 74
0
 42
0.0000001
 43
0.0000001
 44
0.0000000001
 40
0.0
 40
0.0
 40
0.0
 40
0.0
 40
0.2426586216
 40
1.0
 40
1.0
 40
1.0
 40
1.0
 10
-83.5870394576
 20
-28.9862836897
 30
0.0
 10
-83.6324361855
 20
-28.9986586641
 30
0.0
 10
-83.8157592358
 20
-29.0459291565
 30
0.0
 10
-84.0226320341
 20
-29.1505648409
 30
0.0
 10
-84.0770228336
 20
-29.2870512436
 30
0.0
  0
SPLINE
  5
48D
100
AcDbEntity
  8
CURVE
100
AcDbSpline
 62
250
  6
CONTINUOUS
 70
0
 71
3
 72
9
 73
5
 74
0
 42
0.0000001
 43
0.0000001
 44
0.0000000001
 40
0.0
 40
0.0
 40
0.0
 40
0.0
 40
0.1980141723
 40
1.0
 40
1.0
 40
1.0
 40
1.0
 10
-82.9108792591
 20
-28.8079038802
 30
0.0
 10
-82.9554205746
 20
-28.8200085492
 30
0.0
 10
-83.1808662185
 20
-28.8792554798
 30
0.0
 10
-83.4066794561
 20
-28.9371156095
 30
0.0
 10
-83.5870394576
 20
-28.9862836897
 30
0.0
  0
SPLINE
  5
48E
100
AcDbEntity
  8
CURVE
100
AcDbSpline
 62
250
  6
CONTINUOUS
 70
0
 71
3
 72
9
 73
5
 74
0
 42
0.0000001
 43
0.0000001
 44
0.0000000001
 40
0.0
 40
0.0
 40
0.0
 40
0.0
 40
0.5586214172
 40
1.0
 40
1.0
 40
1.0
 40
1.0
 10
-83.6684192238
 20
-29.5379751749
 30
0.0
 10
-83.5305141204
 20
-29.486134558
 30
0.0
 10
-83.275152796
 20
-29.4179595379
 30
0.0
 10
-83.0227451627
 20
-29.3419894791
 30
0.0
 10
-82.9108792591
 20
-29.3098079785
 30
0.0
  0
SPLINE
  5
48F
100
AcDbEntity
  8
CURVE
100
AcDbSpline
 62
250
  6
CONTINUOUS
 70
0
 71
3
 72
9
 73
5
 74
0
 42
0.0000001
 43
0.0000001
 44
0.0000000001
 40
0.0
 40
0.0
 40
0.0
 40
0.0
 40
0.3559141631
 40
1.0
 40
1.0
 40
1.0
 40
1.0
 10
-83.8885417498
 20
-29.8290889245
 30
0.0
 10
-83.8885417498
 20
-29.7836184402
 30
0.0
 10
-83.8610247019
 20
-29.6528120506
 30
0.0
 10
-83.7454121562
 20
-29.5668873007
 30
0.0
 10
-83.6684192238
 20
-29.5379751749
 30
0.0
  0
SPLINE
  5
490
100
AcDbEntity
  8
0
100
AcDbSpline
 62
250
  6
CONTINUOUS
 70
0
 71
3
 72
9
 73
5
 74
0
 42
0.0000001
 43
0.0000001
 44
0.0000000001
 40
0.0
 40
0.0
 40
0.0
 40
0.0
 40
0.4766956698
 40
1.0
 40
1.0
 40
1.0
 40
1.0
 10
-78.6040643182
 20
-26.5130933448
 30
0.0
 10
-78.6175313913
 20
-26.5202419069
 30
0.0
 10
-78.6498572133
 20
-26.5282402425
 30
0.0
 10
-78.6820969627
 20
-26.5219044748
 30
0.0
 10
-78.6978358182
 20
-26.5162094923
 30
0.0
  0
SPLINE
  5
491
100
AcDbEntity
  8
0
100
AcDbSpline
 62
7
  6
CONTINUOUS
 70
0
 71
3
 72
11
 73
7
 74
0
 42
0.0000001
 43
0.0000001
 44
0.0000000001
 40
0.0
 40
0.0
 40
0.0
 40
0.0
 40
0.3310430733
 40
0.6066164859
 40
0.8233371923
 40
1.0
 40
1.0
 40
1.0
 40
1.0
 10
-77.9570127839
 20
-25.8849920949
 30
0.0
 10
-77.9352043099
 20
-25.8878685511
 30
0.0
 10
-77.8955428294
 20
-25.896888045
 30
0.0
 10
-77.8458769164
 20
-25.9210987513
 30
0.0
 10
-77.8127396685
 20
-25.95230288
 30
0.0
 10
-77.8039235154
 20
-25.9785870345
 30
0.0
 10
-77.8039235154
 20
-25.9903260329
 30
0.0
  0
LINE
  5
492
100
AcDbEntity
  8
0
100
AcDbLine
 62
250
  6
CONTINUOUS
 10
-78.8439321092
 20
26.5286232409
 11
-78.8440305996
 21
26.5086074481
  0
SPLINE
  5
493
100
AcDbEntity
  8
0
100
AcDbSpline
 62
250
  6
CONTINUOUS
 70
0
 71
3
 72
9
 73
5
 74
0
 42
0.0000001
 43
0.0000001
 44
0.0000000001
 40
0.0
 40
0.0
 40
0.0
 40
0.0
 40
0.4758656545
 40
1.0
 40
1.0
 40
1.0
 40
1.0
 10
-78.5167271074
 20
26.4667331961
 30
0.0
 10
-78.529668179
 20
26.4736025477
 30
0.0
 10
-78.560785677
 20
26.4812892108
 30
0.0
 10
-78.5918138039
 20
26.4752298969
 30
0.0
 10
-78.6070081261
 20
26.4697941135
 30
0.0
  0
LINE
  5
494
100
AcDbEntity
  8
0
100
AcDbLine
 62
250
  6
CONTINUOUS
 10
-78.926980326
 20
-26.5709159932
 11
-78.9271352222
 21
-26.5509203682
  0
SPLINE
  5
495
100
AcDbEntity
  8
0
100
AcDbSpline
 62
250
  6
CONTINUOUS
 70
0
 71
3
 72
13
 73
9
 74
0
 42
0.0000001
 43
0.0000001
 44
0.0000000001
 40
0.0
 40
0.0
 40
0.0
 40
0.0
 40
0.3880873768
 40
0.7025988063
 40
0.8214552708
 40
0.9105861323
 40
0.9687926632
 40
1.0
 40
1.0
 40
1.0
 40
1.0
 10
-79.8781509317
 20
26.9276792439
 30
0.0
 10
-79.8629530267
 20
26.954388973
 30
0.0
 10
-79.8344385053
 20
27.0021522321
 30
0.0
 10
-79.7982201595
 20
27.0563451373
 30
0.0
 10
-79.7729354929
 20
27.0889874445
 30
0.0
 10
-79.7583022907
 20
27.1045153454
 30
0.0
 10
-79.7481171323
 20
27.1136634531
 30
0.0
 10
-79.7401978837
 20
27.1161783954
 30
0.0
 10
-79.7380172818
 20
27.1150157961
 30
0.0
  0
SPLINE
  5
496
100
AcDbEntity
  8
0
100
AcDbSpline
 62
250
  6
CONTINUOUS
 70
0
 71
3
 72
9
 73
5
 74
0
 42
0.0000001
 43
0.0000001
 44
0.0000000001
 40
0.0
 40
0.0
 40
0.0
 40
0.0
 40
0.559051935
 40
1.0
 40
1.0
 40
1.0
 40
1.0
 10
-79.8781509317
 20
-26.9276792439
 30
0.0
 10
-79.8619832569
 20
-26.956105941
 30
0.0
 10
-79.8319350692
 20
-27.0063036816
 30
0.0
 10
-79.7992089379
 20
-27.0548979666
 30
0.0
 10
-79.7834422381
 20
-27.0753122965
 30
0.0
  0
SPLINE
  5
497
100
AcDbEntity
  8
0
100
AcDbSpline
 62
250
  6
CONTINUOUS
 70
0
 71
3
 72
10
 73
6
 74
0
 42
0.0000001
 43
0.0000001
 44
0.0000000001
 40
0.0
 40
0.0
 40
0.0
 40
0.0
 40
0.6950890107
 40
0.8909699854
 40
1.0
 40
1.0
 40
1.0
 40
1.0
 10
-79.7834422381
 20
-27.0753122965
 30
0.0
 10
-79.774650676
 20
-27.0866953919
 30
0.0
 10
-79.7625760864
 20
-27.1011552054
 30
0.0
 10
-79.7470737869
 20
-27.1142214567
 30
0.0
 10
-79.7400121302
 20
-27.1160695448
 30
0.0
 10
-79.7380172818
 20
-27.1150157961
 30
0.0
  0
SPLINE
  5
498
100
AcDbEntity
  8
0
100
AcDbSpline
 62
7
  6
CONTINUOUS
 70
0
 71
3
 72
12
 73
8
 74
0
 42
0.0000001
 43
0.0000001
 44
0.0000000001
 40
0.0
 40
0.0
 40
0.0
 40
0.0
 40
0.1697215909
 40
0.2706372439
 40
0.3867390335
 40
0.6676292082
 40
1.0
 40
1.0
 40
1.0
 40
1.0
 10
-77.8039235154
 20
25.9209627273
 30
0.0
 10
-77.8039235154
 20
25.9076888863
 30
0.0
 10
-77.8120881074
 20
25.886341911
 30
0.0
 10
-77.8329251519
 20
25.8642944149
 30
0.0
 10
-77.8649972892
 20
25.8417421274
 30
0.0
 10
-77.9193975976
 20
25.8219069619
 30
0.0
 10
-77.9674627833
 20
25.8164571063
 30
0.0
 10
-77.9934563242
 20
25.8162276178
 30
0.0
  0
SPLINE
  5
499
100
AcDbEntity
  8
0
100
AcDbSpline
 62
250
  6
CONTINUOUS
 70
0
 71
3
 72
10
 73
6
 74
0
 42
0.0000001
 43
0.0000001
 44
0.0000000001
 40
0.0
 40
0.0
 40
0.0
 40
0.0
 40
0.2213506535
 40
0.4698164785
 40
1.0
 40
1.0
 40
1.0
 40
1.0
 10
-78.6978358182
 20
-26.5162094923
 30
0.0
 10
-78.7076495236
 20
-26.5214535121
 30
0.0
 10
-78.7301890326
 20
-26.5291832151
 30
0.0
 10
-78.7791558493
 20
-26.540414477
 30
0.0
 10
-78.8181409463
 20
-26.5451989542
 30
0.0
 10
-78.8446983021
 20
-26.547436437
 30
0.0
  0
SPLINE
  5
49A
100
AcDbEntity
  8
0
100
AcDbSpline
 62
250
  6
CONTINUOUS
 70
0
 71
3
 72
10
 73
6
 74
0
 42
0.0000001
 43
0.0000001
 44
0.0000000001
 40
0.0
 40
0.0
 40
0.0
 40
0.0
 40
0.5282935748
 40
0.7769943771
 40
1.0
 40
1.0
 40
1.0
 40
1.0
 10
-78.7573862983
 20
26.5035105491
 30
0.0
 10
-78.730273613
 20
26.5007899987
 30
0.0
 10
-78.6904411512
 20
26.4953299967
 30
0.0
 10
-78.6403146409
 20
26.4833011597
 30
0.0
 10
-78.61715346
 20
26.4752142055
 30
0.0
 10
-78.6070081261
 20
26.4697941135
 30
0.0
  0
LINE
  5
49B
100
AcDbEntity
  8
0
100
AcDbLine
 62
250
  6
CONTINUOUS
 10
-80.8039235156
 20
26.5438008307
 11
-78.8440305996
 21
26.5086074481
  0
LINE
  5
49C
100
AcDbEntity
  8
0
100
AcDbLine
 62
7
  6
CONTINUOUS
 10
-79.8020435956
 20
25.8000830551
 11
-80.8039234924
 21
25.8344712818
  0
ELLIPSE
  5
49D
100
AcDbEntity
  8
0
100
AcDbEllipse
 62
7
  6
CONTINUOUS
 10
-78.0039235154
 20
-26.079798695
 30
0.0
 11
0.1417119467
 21
0.1422961243
 31
0.0
 40
0.9918061237
 41
0.5506956737
 42
0.7350951877
  0
ELLIPSE
  5
49E
100
AcDbEntity
  8
0
100
AcDbEllipse
 62
7
  6
CONTINUOUS
 10
4787.9263997734
 20
0.0
 30
0.0
 11
5070.6192780382
 21
20.8600030618
 31
0.0
 40
0.0041137573
 41
-2.8584753448
 42
-2.856472503
  0
ELLIPSE
  5
49F
100
AcDbEntity
  8
0
100
AcDbEllipse
 62
7
  6
CONTINUOUS
 10
15.3448685495
 20
0.0
 30
0.0
 11
530.7034459343
 21
0.0
 31
0.0
 40
0.0494155445
 41
1.7475925186
 42
1.7510554651
  0
ENDSEC
  0
SECTION
  2
OBJECTS
  0
DICTIONARY
  5
C
100
AcDbDictionary
280
0
281
1
  3
ACAD_GROUP
350
D
  3
ACAD_MLINESTYLE
350
17
  3
ACAD_LAYOUT
350
1A
  3
ACAD_PLOTSETTINGS
350
19
  3
ACAD_PLOTSTYLENAME
350
E
  0
DICTIONARY
  5
D
102
{ACAD_REACTORS
330
C
102
}
100
AcDbDictionary
280
0
281
1
  0
ACDBDICTIONARYWDFLT
  5
E
102
{ACAD_REACTORS
330
C
102
}
100
AcDbDictionary
281
1
  3
Normal
350
F
100
AcDbDictionaryWithDefault
340
F
  0
DICTIONARY
  5
17
102
{ACAD_REACTORS
330
C
102
}
100
AcDbDictionary
280
0
281
1
  3
Standard
350
18
  0
DICTIONARY
  5
19
102
{ACAD_REACTORS
330
C
102
}
100
AcDbDictionary
281
1
  0
DICTIONARY
  5
1A
102
{ACAD_REACTORS
330
C
102
}
100
AcDbDictionary
281
1
  3
Model
350
4A0
  3
Layout1
350
4A1
  0
ACDBPLACEHOLDER
  5
F
102
{ACAD_REACTORS
330
E
102
}
  0
MLINESTYLE
  5
18
102
{ACAD_REACTORS
330
17
102
}
100
AcDbMlineStyle
  2
STANDARD
 70
0
  3

 62
256
 51
90.0
 52
90.0
 71
2
 49
0.5
 62
256
  6
BYLAYER
 49
-0.5
 62
256
  6
BYLAYER
  0
LAYOUT
  5
4A0
102
{ACAD_REACTORS
330
1A
102
}
100
AcDbPlotSettings
  1

  2
none_device
  4
ISO_A4_(297.00_x_210.00_MM)
  6

 40
0.0
 41
0.0
 42
0.0
 43
0.0
 44
297.0
 45
210.0
 46
0.0
 47
0.0
 48
0.0
 49
0.0
140
0.0
141
0.0
142
1.0
143
1.0
 70
1024
 72
1
 73
0
 74
0
  7

 75
0
147
1.0
148
0.0
149
0.0
100
AcDbLayout
  1
Model
 70
0
 71
0
 10
0.0
 20
0.0
 11
297.0
 21
210.0
 12
0.0
 22
0.0
 32
0.0
 14
0.0
 24
0.0
 34
0.0
 15
0.0
 25
0.0
 35
0.0
146
0.0
 13
0.0
 23
0.0
 33
0.0
 16
1.0
 26
0.0
 36
0.0
 17
0.0
 27
1.0
 37
0.0
 76
0
330
21E
345
0
346
0
  0
LAYOUT
  5
4A1
102
{ACAD_REACTORS
330
1A
102
}
100
AcDbPlotSettings
  1

  2
none_device
  4
ISO_A4_(297.00_x_210.00_MM)
  6

 40
0.0
 41
0.0
 42
0.0
 43
0.0
 44
297.0
 45
210.0
 46
0.0
 47
0.0
 48
0.0
 49
0.0
140
0.0
141
0.0
142
1.0
143
1.0
 70
0
 72
1
 73
0
 74
0
  7

 75
0
147
1.0
148
0.0
149
0.0
100
AcDbLayout
  1
Layout1
 70
0
 71
1
 10
0.0
 20
0.0
 11
297.0
 21
210.0
 12
0.0
 22
0.0
 32
0.0
 14
0.0
 24
0.0
 34
0.0
 15
0.0
 25
0.0
 35
0.0
146
0.0
 13
0.0
 23
0.0
 33
0.0
 16
1.0
 26
0.0
 36
0.0
 17
0.0
 27
1.0
 37
0.0
 76
0
330
21F
345
0
346
0
  0
ENDSEC
  0
EOF
