  0
SECTION
  2
HEADER
  9
$ACADVER
  1
AC1024
  9
$DWGCODEPAGE
  3
ANSI_1252
  9
$EXTMAX
 10
297.0
 20
210.0
 30
0.0
  9
$EXTMIN
 10
0.0
 20
0.0
 30
0.0
  9
$LIMMIN
 10
0.0
 20
0.0
  9
$LIMMAX
 10
297.0
 20
210.0
  9
$VIEWCTR
 10
148.5
 20
105.0
  9
$VIEWSIZE
 40
210.0
  9
$CLAYER
  8
0
  9
$LTSCALE
 40
16.335
  9
$CELTYPE
  6
BYLAYER
  9
$DIMSCALE
 40
1.0
  9
$DIMASZ
 40
3.0
  9
$DIMEXO
 40
0.5
  9
$DIMDLI
 40
11.286
  9
$DIMEXE
 40
1.5
  9
$DIMCEN
 40
2.673
  9
$DIMLFAC
 40
1.0
  9
$DIMBLK
  1
_FILLED
  9
$DIMALT
 70
0
  9
$DIMALTF
 40
0.0393700787
  9
$DIMTXT
 40
3.0
  9
$DIMTOL
 70
1
  9
$DIMLIM
 70
0
  9
$DIMTFAC
 40
1.0
  9
$DIMTP
 40
0.01
  9
$DIMTM
 40
0.01
  9
$DIMGAP
 40
0.625
  9
$DIMDSEP
 70
44
  9
$AUNITS
 70
0
  9
$PDMODE
 70
3
  9
$PDSIZE
 40
3.0
  9
$HANDSEED
  5
2F8
  9
$TILEMODE
 70
1
  9
$MEASUREMENT
 70
1
  9
$INSUNITS
 70
4
  0
ENDSEC
  0
SECTION
  2
CLASSES
  0
CLASS
  1
ACDBDICTIONARYWDFLT
  2
AcDbDictionaryWithDefault
  3
AutoCAD 2000
 90
0
 91
1
280
0
281
0
  0
CLASS
  1
ACDBPLACEHOLDER
  2
AcDbPlaceHolder
  3
AutoCAD 2000
 90
0
 91
1
280
0
281
0
  0
CLASS
  1
LAYOUT
  2
AcDbLayout
  3
AutoCAD 2000
 90
0
 91
0
280
0
281
0
  0
ENDSEC
  0
SECTION
  2
TABLES
  0
TABLE
  2
VPORT
  5
8
100
AcDbSymbolTable
 70
2
  0
VPORT
  5
1F4
100
AcDbSymbolTableRecord
100
AcDbViewportTableRecord
  2
*ACTIVE
 70
0
 10
0.0
 20
0.0
 11
1.0
 21
1.0
 12
148.5
 22
105.0
 13
0.0
 23
0.0
 14
1.0
 24
1.0
 15
0.0
 25
0.0
 16
0.0
 26
0.0
 36
1.0
 17
0.0
 27
0.0
 37
0.0
 40
210.0
 41
1.4142857143
 42
50.0
 43
0.0
 44
0.0
 50
0.0
 51
0.0
 71
0
 72
100
 73
1
 74
1
 75
0
 76
0
 77
0
 78
0
  0
ENDTAB
  0
TABLE
  2
LTYPE
  5
5
100
AcDbSymbolTable
 70
6
  0
LTYPE
  5
14
100
AcDbSymbolTableRecord
100
AcDbLinetypeTableRecord
  2
BYBLOCK
 70
0
  3

 72
65
 73
0
 40
0.0
  0
LTYPE
  5
15
100
AcDbSymbolTableRecord
100
AcDbLinetypeTableRecord
  2
BYLAYER
 70
0
  3

 72
65
 73
0
 40
0.0
  0
LTYPE
  5
16
100
AcDbSymbolTableRecord
100
AcDbLinetypeTableRecord
  2
CONTINUOUS
 70
64
  3
Solid line
 72
65
 73
0
 40
0.0
  0
LTYPE
  5
1F5
100
AcDbSymbolTableRecord
100
AcDbLinetypeTableRecord
  2
CENTER
 70
64
  3
____ _ ____ _ ____ _ ____ _ ____ _ ____ _ ____
 72
65
 73
4
 40
0.6
 49
0.375
 74
0
 49
-0.075
 74
0
 49
0.075
 74
0
 49
-0.075
 74
0
  0
LTYPE
  5
1F6
100
AcDbSymbolTableRecord
100
AcDbLinetypeTableRecord
  2
HIDDEN
 70
64
  3
- - - - - - - - - - - - - - - - - - - -
 72
65
 73
2
 40
0.2
 49
0.1
 74
0
 49
-0.1
 74
0
  0
LTYPE
  5
1F7
100
AcDbSymbolTableRecord
100
AcDbLinetypeTableRecord
  2
PHANTOM
 70
64
  3
_____ _ _ _____ _ _ _____ _ _ _____
 72
65
 73
6
 40
0.8
 49
0.45
 74
0
 49
-0.05
 74
0
 49
0.1
 74
0
 49
-0.05
 74
0
 49
0.1
 74
0
 49
-0.05
 74
0
  0
LTYPE
  5
1F8
100
AcDbSymbolTableRecord
100
AcDbLinetypeTableRecord
  2
DOT
 70
64
  3
. . . . . . . . . . . . . . . . . . . .
 72
65
 73
2
 40
0.2
 49
0.1
 74
0
 49
-0.1
 74
0
  0
LTYPE
  5
1F9
100
AcDbSymbolTableRecord
100
AcDbLinetypeTableRecord
  2
DASHED
 70
64
  3
- - - - - - - - - - - - - - - - - - - -
 72
65
 73
2
 40
0.2
 49
0.1
 74
0
 49
-0.1
 74
0
  0
ENDTAB
  0
TABLE
  2
LAYER
  5
2
100
AcDbSymbolTable
 70
36
  0
LAYER
  5
10
100
AcDbSymbolTableRecord
100
AcDbLayerTableRecord
  2
0
 70
0
 62
7
  6
CONTINUOUS
370
-3
390
F
  0
LAYER
  5
1FA
100
AcDbSymbolTableRecord
100
AcDbLayerTableRecord
  2
DEFAULT_1
 70
0
 62
7
  6
CENTER
370
-3
390
F
  0
LAYER
  5
1FB
100
AcDbSymbolTableRecord
100
AcDbLayerTableRecord
  2
DEFAULT_2
 70
0
 62
7
  6
HIDDEN
370
-3
390
F
  0
LAYER
  5
1FC
100
AcDbSymbolTableRecord
100
AcDbLayerTableRecord
  2
DEFAULT_3
 70
0
 62
7
  6
PHANTOM
370
-3
390
F
  0
LAYER
  5
1FD
100
AcDbSymbolTableRecord
100
AcDbLayerTableRecord
  2
ASSI
 70
0
 62
7
  6
CONTINUOUS
370
-3
390
F
  0
LAYER
  5
1FE
100
AcDbSymbolTableRecord
100
AcDbLayerTableRecord
  2
COORDINATE
 70
0
 62
7
  6
CONTINUOUS
370
-3
390
F
  0
LAYER
  5
1FF
100
AcDbSymbolTableRecord
100
AcDbLayerTableRecord
  2
COORD_ORIGINE
 70
0
 62
7
  6
CONTINUOUS
370
-3
390
F
  0
LAYER
  5
200
100
AcDbSymbolTableRecord
100
AcDbLayerTableRecord
  2
COPY_PUBLISH
 70
0
 62
7
  6
CONTINUOUS
370
-3
390
F
  0
LAYER
  5
201
100
AcDbSymbolTableRecord
100
AcDbLayerTableRecord
  2
COSMETIC
 70
0
 62
7
  6
CONTINUOUS
370
-3
390
F
  0
LAYER
  5
202
100
AcDbSymbolTableRecord
100
AcDbLayerTableRecord
  2
COSMETICI
 70
0
 62
7
  6
CONTINUOUS
370
-3
390
F
  0
LAYER
  5
203
100
AcDbSymbolTableRecord
100
AcDbLayerTableRecord
  2
CURVE
 70
0
 62
7
  6
CONTINUOUS
370
-3
390
F
  0
LAYER
  5
204
100
AcDbSymbolTableRecord
100
AcDbLayerTableRecord
  2
CURVE_TASSELLI
 70
0
 62
7
  6
CONTINUOUS
370
-3
390
F
  0
LAYER
  5
205
100
AcDbSymbolTableRecord
100
AcDbLayerTableRecord
  2
DRAFT
 70
0
 62
7
  6
CONTINUOUS
370
-3
390
F
  0
LAYER
  5
206
100
AcDbSymbolTableRecord
100
AcDbLayerTableRecord
  2
IMPORT_IGES
 70
0
 62
7
  6
CONTINUOUS
370
-3
390
F
  0
LAYER
  5
207
100
AcDbSymbolTableRecord
100
AcDbLayerTableRecord
  2
INTFCLR_2
 70
0
 62
7
  6
CONTINUOUS
370
-3
390
F
  0
LAYER
  5
208
100
AcDbSymbolTableRecord
100
AcDbLayerTableRecord
  2
INTF_1
 70
0
 62
7
  6
CONTINUOUS
370
-3
390
F
  0
LAYER
  5
209
100
AcDbSymbolTableRecord
100
AcDbLayerTableRecord
  2
INTF_21
 70
0
 62
7
  6
CONTINUOUS
370
-3
390
F
  0
LAYER
  5
20A
100
AcDbSymbolTableRecord
100
AcDbLayerTableRecord
  2
INTF_7
 70
0
 62
7
  6
CONTINUOUS
370
-3
390
F
  0
LAYER
  5
20B
100
AcDbSymbolTableRecord
100
AcDbLayerTableRecord
  2
INTF_CYAN
 70
0
 62
7
  6
CONTINUOUS
370
-3
390
F
  0
LAYER
  5
20C
100
AcDbSymbolTableRecord
100
AcDbLayerTableRecord
  2
NOTE
 70
0
 62
7
  6
CONTINUOUS
370
-3
390
F
  0
LAYER
  5
20D
100
AcDbSymbolTableRecord
100
AcDbLayerTableRecord
  2
PIANI
 70
0
 62
7
  6
CONTINUOUS
370
-3
390
F
  0
LAYER
  5
20E
100
AcDbSymbolTableRecord
100
AcDbLayerTableRecord
  2
PIANI_ORIGINE
 70
0
 62
7
  6
CONTINUOUS
370
-3
390
F
  0
LAYER
  5
20F
100
AcDbSymbolTableRecord
100
AcDbLayerTableRecord
  2
PIANI_RIFERIMENTO
 70
0
 62
7
  6
CONTINUOUS
370
-3
390
F
  0
LAYER
  5
210
100
AcDbSymbolTableRecord
100
AcDbLayerTableRecord
  2
PUNTI
 70
0
 62
7
  6
CONTINUOUS
370
-3
390
F
  0
LAYER
  5
211
100
AcDbSymbolTableRecord
100
AcDbLayerTableRecord
  2
RACCORDO
 70
0
 62
7
  6
CONTINUOUS
370
-3
390
F
  0
LAYER
  5
212
100
AcDbSymbolTableRecord
100
AcDbLayerTableRecord
  2
RGB__255__255__255__
 70
0
 62
7
  6
CONTINUOUS
370
-3
390
F
  0
LAYER
  5
213
100
AcDbSymbolTableRecord
100
AcDbLayerTableRecord
  2
RGB____0____0____0__
 70
0
 62
7
  6
CONTINUOUS
370
-3
390
F
  0
LAYER
  5
214
100
AcDbSymbolTableRecord
100
AcDbLayerTableRecord
  2
SIMBOLI
 70
0
 62
7
  6
CONTINUOUS
370
-3
390
F
  0
LAYER
  5
215
100
AcDbSymbolTableRecord
100
AcDbLayerTableRecord
  2
SMUSSO
 70
0
 62
7
  6
CONTINUOUS
370
-3
390
F
  0
LAYER
  5
216
100
AcDbSymbolTableRecord
100
AcDbLayerTableRecord
  2
SUPERFICI
 70
0
 62
7
  6
CONTINUOUS
370
-3
390
F
  0
LAYER
  5
217
100
AcDbSymbolTableRecord
100
AcDbLayerTableRecord
  2
TRASH
 70
0
 62
7
  6
CONTINUOUS
370
-3
390
F
  0
LAYER
  5
218
100
AcDbSymbolTableRecord
100
AcDbLayerTableRecord
  2
XSEC_DATUMS
 70
0
 62
7
  6
CONTINUOUS
370
-3
390
F
  0
ENDTAB
  0
TABLE
  2
STYLE
  5
3
100
AcDbSymbolTable
 70
1
  0
STYLE
  5
11
100
AcDbSymbolTableRecord
100
AcDbTextStyleTableRecord
  2
STANDARD
 70
0
 40
0.0
 41
0.8
 50
0.0
 71
0
 42
0.2
  3
txt
  4

  0
STYLE
  5
219
100
AcDbSymbolTableRecord
100
AcDbTextStyleTableRecord
  2
TEXTSTYLE_1
 70
0
 40
0.0
 41
0.8
 50
0.0
 71
0
 42
0.2
  3
gdt
  4

  0
ENDTAB
  0
TABLE
  2
VIEW
  5
6
100
AcDbSymbolTable
 70
0
  0
ENDTAB
  0
TABLE
  2
UCS
  5
7
100
AcDbSymbolTable
 70
0
  0
ENDTAB
  0
TABLE
  2
APPID
  5
9
100
AcDbSymbolTable
 70
1
  0
APPID
  5
21A
100
AcDbSymbolTableRecord
100
AcDbRegAppTableRecord
  2
ACAD
 70
0
  0
ENDTAB
  0
TABLE
  2
BLOCK_RECORD
  5
1
100
AcDbSymbolTable
 70
0
  0
BLOCK_RECORD
  5
21B
100
AcDbSymbolTableRecord
100
AcDbBlockTableRecord
  2
*Model_Space
  0
BLOCK_RECORD
  5
21C
100
AcDbSymbolTableRecord
100
AcDbBlockTableRecord
  2
*Paper_Space
  0
BLOCK_RECORD
  5
21D
100
AcDbSymbolTableRecord
100
AcDbBlockTableRecord
  2
_FILLED
  0
BLOCK_RECORD
  5
21E
100
AcDbSymbolTableRecord
100
AcDbBlockTableRecord
  2
*D0
  0
BLOCK_RECORD
  5
21F
100
AcDbSymbolTableRecord
100
AcDbBlockTableRecord
  2
*D1
  0
BLOCK_RECORD
  5
220
100
AcDbSymbolTableRecord
100
AcDbBlockTableRecord
  2
*D2
  0
BLOCK_RECORD
  5
221
100
AcDbSymbolTableRecord
100
AcDbBlockTableRecord
  2
*D3
  0
ENDTAB
  0
TABLE
  2
DIMSTYLE
  5
A
100
AcDbSymbolTable
 70
1
100
AcDbDimStyleTable
 71
0
  0
DIMSTYLE
105
222
100
AcDbSymbolTableRecord
100
AcDbDimStyleTableRecord
  2
STANDARD
 70
0
  3

  4

 40
1.0
 41
3.0
 42
0.5
 43
0.38
 44
1.5
 45
0.0
 46
0.0
 47
0.01
 48
0.01
140
3.0
141
0.09
142
0.0
143
25.4
144
1.0
145
0.0
146
1.0
147
0.625
 71
1.0
 72
0.0
 73
0
 74
0
 75
0
 76
0
 77
1
 78
8
 79
2
170
0
171
1
172
0
173
0
174
0
175
0
176
0
177
0
178
0
270
2
179
2
271
2
272
2
273
2
274
2
275
0
280
0
281
0
282
0
283
1
284
8
285
0
286
0
287
3
288
0
340
11
278
44
341
21D
342
21D
343
21D
344
21D
  0
DIMSTYLE
105
223
100
AcDbSymbolTableRecord
100
AcDbDimStyleTableRecord
  2
DIMSTYLE_1
 70
0
  3

  4

 40
1.0
 41
3.0
 42
0.5
 43
0.38
 44
1.5
 45
0.0
 46
0.0
 47
0.0
 48
0.0
140
3.0
141
0.09
142
0.0
143
25.4
144
1.0
145
0.0
146
1.0
147
0.75
 71
0.0
 72
0.0
 73
0
 74
0
 75
0
 76
0
 77
1
 78
8
 79
2
170
0
171
1
172
0
173
0
174
0
175
0
176
0
177
0
178
0
270
2
179
2
271
2
272
2
273
2
274
2
275
0
280
0
281
0
282
0
283
1
284
8
285
0
286
0
287
3
288
0
340
11
278
44
341
21D
342
21D
343
21D
344
21D
  0
ENDTAB
  0
ENDSEC
  0
SECTION
  2
BLOCKS
  0
BLOCK
  5
20
100
AcDbEntity
  8
0
100
AcDbBlockBegin
  2
*Model_Space
 70
0
 10
0.0
 20
0.0
 30
0.0
  3
*Model_Space
  1

  0
ENDBLK
  5
21
100
AcDbEntity
  8
0
100
AcDbBlockEnd
  0
BLOCK
  5
1C
100
AcDbEntity
  8
0
100
AcDbBlockBegin
  2
*Paper_Space
 70
0
 10
0.0
 20
0.0
 30
0.0
  3
*Paper_Space
  1

  0
ENDBLK
  5
1D
100
AcDbEntity
  8
0
100
AcDbBlockEnd
  0
BLOCK
  5
224
100
AcDbEntity
  8
0
100
AcDbBlockBegin
  2
_FILLED
 70
64
 10
0.0
 20
0.0
  3
_FILLED
  1

  0
SOLID
  5
225
100
AcDbEntity
  8
0
  6
BYBLOCK
 62
0
100
AcDbTrace
 10
0.0
 20
0.0
 11
-1.0
 21
0.3166666667
 12
-1.0
 22
-0.3166666667
 13
-1.0
 23
-0.3166666667
  0
ENDBLK
  5
226
100
AcDbEntity
  8
0
  6
BYBLOCK
 62
0
100
AcDbBlockEnd
  0
BLOCK
  5
227
100
AcDbEntity
  8
0
100
AcDbBlockBegin
 62
7
  6
CONTINUOUS
  2
*D0
 70
65
 10
0.0
 20
0.0
  3
*D0
  1

  0
LINE
  5
228
100
AcDbEntity
  8
0
100
AcDbLine
 62
7
  6
CONTINUOUS
 10
234.4687808388
 20
149.3345268887
 11
234.4687808388
 21
161.925214365
  0
LINE
  5
229
100
AcDbEntity
  8
0
100
AcDbLine
 62
7
  6
CONTINUOUS
 10
144.4687808388
 20
149.3345268887
 11
144.4687808388
 21
161.925214365
  0
LINE
  5
22A
100
AcDbEntity
  8
0
100
AcDbLine
 62
7
  6
CONTINUOUS
 10
234.4687808388
 20
160.425214365
 11
189.4687808388
 21
160.425214365
  0
LINE
  5
22B
100
AcDbEntity
  8
0
100
AcDbLine
 62
7
  6
CONTINUOUS
 10
144.4687808388
 20
160.425214365
 11
189.4687808388
 21
160.425214365
  0
INSERT
  5
22C
100
AcDbEntity
  8
0
100
AcDbBlockReference
 62
7
  6
CONTINUOUS
  2
_FILLED
 10
234.4687808388
 20
160.425214365
 41
3.0
 42
3.0
 43
3.0
  0
INSERT
  5
22D
100
AcDbEntity
  8
0
100
AcDbBlockReference
 62
7
  6
CONTINUOUS
  2
_FILLED
 10
144.4687808388
 20
160.425214365
 41
3.0
 42
3.0
 43
3.0
 50
180.0
  0
ENDBLK
  5
22E
100
AcDbEntity
  8
0
  6
BYBLOCK
 62
0
100
AcDbBlockEnd
  0
BLOCK
  5
22F
100
AcDbEntity
  8
0
100
AcDbBlockBegin
 62
7
  6
CONTINUOUS
  2
*D1
 70
65
 10
0.0
 20
0.0
  3
*D1
  1

  0
LINE
  5
230
100
AcDbEntity
  8
0
100
AcDbLine
 62
7
  6
CONTINUOUS
 10
233.9681720367
 20
149.8351356908
 11
249.7989108894
 21
149.8351356908
  0
LINE
  5
231
100
AcDbEntity
  8
0
100
AcDbLine
 62
7
  6
CONTINUOUS
 10
233.9681720367
 20
59.8351356908
 11
249.7989108894
 21
59.8351356908
  0
LINE
  5
232
100
AcDbEntity
  8
0
100
AcDbLine
 62
7
  6
CONTINUOUS
 10
248.2989108894
 20
149.8351356908
 11
248.2989108894
 21
104.8351356908
  0
LINE
  5
233
100
AcDbEntity
  8
0
100
AcDbLine
 62
7
  6
CONTINUOUS
 10
248.2989108894
 20
59.8351356908
 11
248.2989108894
 21
104.8351356908
  0
INSERT
  5
234
100
AcDbEntity
  8
0
100
AcDbBlockReference
 62
7
  6
CONTINUOUS
  2
_FILLED
 10
248.2989108894
 20
149.8351356908
 41
3.0
 42
3.0
 43
3.0
 50
90.0
  0
INSERT
  5
235
100
AcDbEntity
  8
0
100
AcDbBlockReference
 62
7
  6
CONTINUOUS
  2
_FILLED
 10
248.2989108894
 20
59.8351356908
 41
3.0
 42
3.0
 43
3.0
 50
270.0
  0
ENDBLK
  5
236
100
AcDbEntity
  8
0
  6
BYBLOCK
 62
0
100
AcDbBlockEnd
  0
BLOCK
  5
237
100
AcDbEntity
  8
0
100
AcDbBlockBegin
 62
7
  6
CONTINUOUS
  2
*D2
 70
65
 10
0.0
 20
0.0
  3
*D2
  1

  0
LINE
  5
238
100
AcDbEntity
  8
0
100
AcDbLine
 62
7
  6
CONTINUOUS
 10
85.6631406206
 20
148.711873101
 11
85.6631406206
 21
161.5411226661
  0
LINE
  5
239
100
AcDbEntity
  8
0
100
AcDbLine
 62
7
  6
CONTINUOUS
 10
92.8131406206
 20
146.5390332104
 11
92.8131406206
 21
161.5411226661
  0
LINE
  5
23A
100
AcDbEntity
  8
0
100
AcDbLine
 62
7
  6
CONTINUOUS
 10
85.6631406206
 20
160.0411226661
 11
89.2381406206
 21
160.0411226661
  0
LINE
  5
23B
100
AcDbEntity
  8
0
100
AcDbLine
 62
7
  6
CONTINUOUS
 10
89.2381406206
 20
160.0411226661
 11
76.1528866752
 21
160.0411226661
  0
LINE
  5
23C
100
AcDbEntity
  8
0
100
AcDbLine
 62
7
  6
CONTINUOUS
 10
92.8131406206
 20
160.0411226661
 11
89.2381406206
 21
160.0411226661
  0
INSERT
  5
23D
100
AcDbEntity
  8
0
100
AcDbBlockReference
 62
7
  6
CONTINUOUS
  2
_FILLED
 10
85.6631406206
 20
160.0411226661
 41
3.0
 42
3.0
 43
3.0
 50
180.0
  0
INSERT
  5
23E
100
AcDbEntity
  8
0
100
AcDbBlockReference
 62
7
  6
CONTINUOUS
  2
_FILLED
 10
92.8131406206
 20
160.0411226661
 41
3.0
 42
3.0
 43
3.0
  0
ENDBLK
  5
23F
100
AcDbEntity
  8
0
  6
BYBLOCK
 62
0
100
AcDbBlockEnd
  0
BLOCK
  5
240
100
AcDbEntity
  8
0
100
AcDbBlockBegin
 62
7
  6
CONTINUOUS
  2
*D3
 70
65
 10
0.0
 20
0.0
  3
*D3
  1

  0
LINE
  5
241
100
AcDbEntity
  8
0
100
AcDbLine
 62
7
  6
CONTINUOUS
 10
85.6631406206
 20
148.711873101
 11
85.6631406206
 21
170.0610891064
  0
LINE
  5
242
100
AcDbEntity
  8
0
100
AcDbLine
 62
7
  6
CONTINUOUS
 10
95.8131406206
 20
131.2560984181
 11
95.8131406206
 21
170.0610891064
  0
LINE
  5
243
100
AcDbEntity
  8
0
100
AcDbLine
 62
7
  6
CONTINUOUS
 10
85.6631406206
 20
168.5610891064
 11
90.7381406206
 21
168.5610891064
  0
LINE
  5
244
100
AcDbEntity
  8
0
100
AcDbLine
 62
7
  6
CONTINUOUS
 10
90.7381406206
 20
168.5610891064
 11
74.5469464493
 21
168.5610891064
  0
LINE
  5
245
100
AcDbEntity
  8
0
100
AcDbLine
 62
7
  6
CONTINUOUS
 10
95.8131406206
 20
168.5610891064
 11
90.7381406206
 21
168.5610891064
  0
INSERT
  5
246
100
AcDbEntity
  8
0
100
AcDbBlockReference
 62
7
  6
CONTINUOUS
  2
_FILLED
 10
85.6631406206
 20
168.5610891064
 41
3.0
 42
3.0
 43
3.0
 50
180.0
  0
INSERT
  5
247
100
AcDbEntity
  8
0
100
AcDbBlockReference
 62
7
  6
CONTINUOUS
  2
_FILLED
 10
95.8131406206
 20
168.5610891064
 41
3.0
 42
3.0
 43
3.0
  0
ENDBLK
  5
248
100
AcDbEntity
  8
0
  6
BYBLOCK
 62
0
100
AcDbBlockEnd
  0
ENDSEC
  0
SECTION
  2
ENTITIES
  0
DIMENSION
  5
249
100
AcDbEntity
  8
0
100
AcDbDimension
 62
7
  6
CONTINUOUS
  2
*D0
 10
144.4687808388
 20
160.425214365
 11
187.1116379817
 21
160.425214365
 70
160
 71
2
 72
2
 41
0.9
 42
90.0
  3
DIMSTYLE_1
100
AcDbAlignedDimension
 13
234.4687808388
 23
148.8345268887
 14
144.4687808388
 24
148.8345268887
 50
180.0
100
AcDbRotatedDimension
  0
DIMENSION
  5
24A
100
AcDbEntity
  8
0
100
AcDbDimension
 62
7
  6
CONTINUOUS
  2
*D1
 10
248.2989108894
 20
59.8351356908
 11
248.2989108894
 21
102.4779928336
 70
160
 71
2
 72
2
 41
0.9
 42
90.0
  3
DIMSTYLE_1
100
AcDbAlignedDimension
 13
233.4681720367
 23
149.8351356908
 14
233.4681720367
 24
59.8351356908
 50
270.0
100
AcDbRotatedDimension
  0
DIMENSION
  5
24B
100
AcDbEntity
  8
0
100
AcDbDimension
 62
7
  6
CONTINUOUS
  2
*D2
 10
92.8131406206
 20
160.0411226661
 11
76.1528866752
 21
160.0411226661
 70
160
 71
3
 72
2
 41
0.9
 42
7.15
  3
DIMSTYLE_1
100
AcDbAlignedDimension
 13
85.6631406206
 23
148.211873101
 14
92.8131406206
 24
146.0390332104
100
AcDbRotatedDimension
  0
DIMENSION
  5
24C
100
AcDbEntity
  8
0
100
AcDbDimension
 62
7
  6
CONTINUOUS
  2
*D3
 10
95.8131406206
 20
168.5610891064
 11
74.5469464493
 21
168.5610891064
 70
160
 71
3
 72
2
 41
0.9
 42
10.15
  3
DIMSTYLE_1
100
AcDbAlignedDimension
 13
85.6631406206
 23
148.211873101
 14
95.8131406206
 24
130.7560984181
100
AcDbRotatedDimension
  0
LINE
  5
24D
100
AcDbEntity
  8
0
100
AcDbLine
 62
7
  6
CONTINUOUS
 10
145.6487953689
 20
149.6258350131
 11
145.6632211844
 21
149.6413041473
  0
LINE
  5
24E
100
AcDbEntity
  8
0
100
AcDbLine
 62
7
  6
CONTINUOUS
 10
144.4687808388
 20
148.8345268887
 11
145.4693896409
 21
149.8351356908
  0
LINE
  5
24F
100
AcDbEntity
  8
0
100
AcDbLine
 62
7
  6
CONTINUOUS
 10
145.6487953689
 20
149.6258350131
 11
144.6780815165
 21
148.6551211607
  0
LINE
  5
250
100
AcDbEntity
  8
0
100
AcDbLine
 62
7
  6
CONTINUOUS
 10
146.0920434286
 20
148.6064046506
 11
145.697511879
 21
148.211873101
  0
LINE
  5
251
100
AcDbEntity
  8
0
100
AcDbLine
 62
7
  6
CONTINUOUS
 10
144.6626123823
 20
148.6406953452
 11
144.6780815165
 21
148.6551211607
  0
LINE
  5
252
100
AcDbEntity
  8
0
100
AcDbLine
 62
7
  6
CONTINUOUS
 10
144.6780815165
 20
61.0151502209
 11
144.6626123823
 21
61.0295760364
  0
LINE
  5
253
100
AcDbEntity
  8
0
100
AcDbLine
 62
7
  6
CONTINUOUS
 10
145.4693896409
 20
59.8351356908
 11
144.4687808388
 21
60.8357444929
  0
LINE
  5
254
100
AcDbEntity
  8
0
100
AcDbLine
 62
7
  6
CONTINUOUS
 10
144.6780815165
 20
61.0151502209
 11
145.6487953689
 21
60.0444363685
  0
LINE
  5
255
100
AcDbEntity
  8
0
100
AcDbLine
 62
7
  6
CONTINUOUS
 10
145.697511879
 20
61.4583982806
 11
146.0920434286
 21
61.063866731
  0
LINE
  5
256
100
AcDbEntity
  8
0
100
AcDbLine
 62
7
  6
CONTINUOUS
 10
145.6632211844
 20
60.0289672343
 11
145.6487953689
 21
60.0444363685
  0
LINE
  5
257
100
AcDbEntity
  8
0
100
AcDbLine
 62
7
  6
CONTINUOUS
 10
144.4687808388
 20
148.8345268887
 11
144.4687808388
 21
60.8357444929
  0
LINE
  5
258
100
AcDbEntity
  8
0
100
AcDbLine
 62
7
  6
CONTINUOUS
 10
144.6626123823
 20
148.6406953452
 11
144.6626123823
 21
61.0295760364
  0
LINE
  5
259
100
AcDbEntity
  8
0
100
AcDbLine
 62
7
  6
CONTINUOUS
 10
145.697511879
 20
148.211873101
 11
145.697511879
 21
61.4583982806
  0
LINE
  5
25A
100
AcDbEntity
  8
0
100
AcDbLine
 62
7
  6
CONTINUOUS
 10
145.4693896409
 20
59.8351356908
 11
233.4681720367
 21
59.8351356908
  0
LINE
  5
25B
100
AcDbEntity
  8
0
100
AcDbLine
 62
7
  6
CONTINUOUS
 10
145.6632211844
 20
60.0289672343
 11
233.2743404932
 21
60.0289672343
  0
LINE
  5
25C
100
AcDbEntity
  8
0
100
AcDbLine
 62
7
  6
CONTINUOUS
 10
146.0920434286
 20
61.063866731
 11
232.845518249
 21
61.063866731
  0
LWPOLYLINE
  5
25D
100
AcDbEntity
  8
0
100
AcDbPolyline
 62
7
  6
CONTINUOUS
 90
10
 70
0
 43
0.3500000006
 10
187.5402004395
 20
161.175218811
 10
188.3973565063
 20
162.0323567505
 10
188.6116409912
 20
162.8894946899
 10
188.6116409912
 20
163.7466507568
 10
188.1830720215
 20
164.1752197266
 10
187.5402004395
 20
164.1752197266
 10
187.1116314697
 20
163.7466507568
 10
187.1116314697
 20
162.8894946899
 10
187.5402004395
 20
162.4609257202
 10
188.4687786255
 20
162.4609257202
  0
LINE
  5
25E
100
AcDbEntity
  8
0
100
AcDbLine
 62
7
  6
CONTINUOUS
 10
146.0920434286
 20
61.063866731
 11
145.6487953689
 21
60.0444363685
  0
LINE
  5
25F
100
AcDbEntity
  8
0
100
AcDbLine
 62
7
  6
CONTINUOUS
 10
233.2400497986
 20
148.211873101
 11
234.2594801611
 21
148.6551211607
  0
LINE
  5
260
100
AcDbEntity
  8
0
100
AcDbLine
 62
7
  6
CONTINUOUS
 10
233.2400497986
 20
61.4583982806
 11
234.2594801611
 21
61.0151502209
  0
LINE
  5
261
100
AcDbEntity
  8
0
100
AcDbLine
 62
7
  6
CONTINUOUS
 10
146.0920434286
 20
148.6064046506
 11
145.6487953689
 21
149.6258350131
  0
LINE
  5
262
100
AcDbEntity
  8
0
100
AcDbLine
 62
7
  6
CONTINUOUS
 10
181.0687808388
 20
98.1351356908
 11
181.0687808388
 21
111.5351356908
  0
LINE
  5
263
100
AcDbEntity
  8
0
100
AcDbLine
 62
7
  6
CONTINUOUS
 10
196.1687808388
 20
96.4351356908
 11
182.7687808388
 21
96.4351356908
  0
LINE
  5
264
100
AcDbEntity
  8
0
100
AcDbLine
 62
7
  6
CONTINUOUS
 10
181.5687808388
 20
98.1351356908
 11
181.5687808388
 21
111.5351356908
  0
LINE
  5
265
100
AcDbEntity
  8
0
100
AcDbLine
 62
250
  6
CONTINUOUS
 10
182.7687808388
 20
113.2351356908
 11
182.7687808388
 21
112.7351356908
  0
LINE
  5
266
100
AcDbEntity
  8
0
100
AcDbLine
 62
250
  6
CONTINUOUS
 10
182.7687808388
 20
96.4351356908
 11
182.7687808388
 21
96.9351356908
  0
LINE
  5
267
100
AcDbEntity
  8
0
100
AcDbLine
 62
7
  6
CONTINUOUS
 10
196.1687808388
 20
96.9351356908
 11
182.7687808388
 21
96.9351356908
  0
LINE
  5
268
100
AcDbEntity
  8
0
100
AcDbLine
 62
250
  6
CONTINUOUS
 10
197.8687808388
 20
98.1351356908
 11
197.3687808388
 21
98.1351356908
  0
LINE
  5
269
100
AcDbEntity
  8
0
100
AcDbLine
 62
250
  6
CONTINUOUS
 10
181.0687808388
 20
98.1351356908
 11
181.5687808388
 21
98.1351356908
  0
LWPOLYLINE
  5
26A
100
AcDbEntity
  8
0
100
AcDbPolyline
 62
7
  6
CONTINUOUS
 90
13
 70
0
 43
0.3500000006
 10
189.4687789307
 20
162.0323567505
 10
189.4687789307
 20
163.3180636597
 10
189.6830634155
 20
163.7466507568
 10
190.1116323853
 20
164.1752197266
 10
190.3259168701
 20
164.1752197266
 10
190.7545039673
 20
163.7466507568
 10
190.9687884521
 20
163.3180636597
 10
190.9687884521
 20
162.0323567505
 10
190.7545039673
 20
161.6037877808
 10
190.3259168701
 20
161.175218811
 10
190.1116323853
 20
161.175218811
 10
189.6830634155
 20
161.6037877808
 10
189.4687789307
 20
162.0323567505
  0
LINE
  5
26B
100
AcDbEntity
  8
0
100
AcDbLine
 62
7
  6
CONTINUOUS
 10
144.6626123823
 20
61.0295760364
 11
144.4687808388
 21
60.8357444929
  0
LINE
  5
26C
100
AcDbEntity
  8
0
100
AcDbLine
 62
7
  6
CONTINUOUS
 10
233.2743404932
 20
149.6413041473
 11
233.4681720367
 21
149.8351356908
  0
LWPOLYLINE
  5
26D
100
AcDbEntity
  8
0
100
AcDbPolyline
 62
7
  6
CONTINUOUS
 90
13
 70
0
 43
0.3500000006
 10
246.691763855
 20
104.8351399841
 10
245.4060569458
 20
104.8351399841
 10
244.9774879761
 20
105.049424469
 10
244.5489190063
 20
105.4779934387
 10
244.5489190063
 20
105.6922779236
 10
244.9774879761
 20
106.1208468933
 10
245.4060569458
 20
106.3351313782
 10
246.691763855
 20
106.3351313782
 10
247.1203328247
 20
106.1208468933
 10
247.5489199219
 20
105.6922779236
 10
247.5489199219
 20
105.4779934387
 10
247.1203328247
 20
105.049424469
 10
246.691763855
 20
104.8351399841
  0
LINE
  5
26E
100
AcDbEntity
  8
0
100
AcDbLine
 62
7
  6
CONTINUOUS
 10
144.6626123823
 20
148.6406953452
 11
144.4687808388
 21
148.8345268887
  0
LINE
  5
26F
100
AcDbEntity
  8
0
100
AcDbLine
 62
7
  6
CONTINUOUS
 10
233.2743404932
 20
60.0289672343
 11
233.4681720367
 21
59.8351356908
  0
LINE
  5
270
100
AcDbEntity
  8
0
100
AcDbLine
 62
7
  6
CONTINUOUS
 10
145.6632211844
 20
60.0289672343
 11
145.4693896409
 21
59.8351356908
  0
LINE
  5
271
100
AcDbEntity
  8
0
100
AcDbLine
 62
7
  6
CONTINUOUS
 10
234.2749492953
 20
148.6406953452
 11
234.4687808388
 21
148.8345268887
  0
LINE
  5
272
100
AcDbEntity
  8
0
100
AcDbLine
 62
7
  6
CONTINUOUS
 10
145.6632211844
 20
149.6413041473
 11
145.4693896409
 21
149.8351356908
  0
LINE
  5
273
100
AcDbEntity
  8
0
100
AcDbLine
 62
7
  6
CONTINUOUS
 10
234.2749492953
 20
61.0295760364
 11
234.4687808388
 21
60.8357444929
  0
LINE
  5
274
100
AcDbEntity
  8
0
100
AcDbLine
 62
250
  6
CONTINUOUS
 10
196.1687808388
 20
113.2351356908
 11
196.1687808388
 21
112.7351356908
  0
LINE
  5
275
100
AcDbEntity
  8
0
100
AcDbLine
 62
250
  6
CONTINUOUS
 10
196.1687808388
 20
96.4351356908
 11
196.1687808388
 21
96.9351356908
  0
LINE
  5
276
100
AcDbEntity
  8
0
100
AcDbLine
 62
7
  6
CONTINUOUS
 10
197.3687808388
 20
111.5351356908
 11
197.3687808388
 21
98.1351356908
  0
LINE
  5
277
100
AcDbEntity
  8
0
100
AcDbLine
 62
7
  6
CONTINUOUS
 10
197.8687808388
 20
111.5351356908
 11
197.8687808388
 21
98.1351356908
  0
LINE
  5
278
100
AcDbEntity
  8
0
100
AcDbLine
 62
250
  6
CONTINUOUS
 10
197.8687808388
 20
111.5351356908
 11
197.3687808388
 21
111.5351356908
  0
LINE
  5
279
100
AcDbEntity
  8
0
100
AcDbLine
 62
250
  6
CONTINUOUS
 10
181.0687808388
 20
111.5351356908
 11
181.5687808388
 21
111.5351356908
  0
LINE
  5
27A
100
AcDbEntity
  8
0
100
AcDbLine
 62
7
  6
CONTINUOUS
 10
182.7687808388
 20
112.7351356908
 11
196.1687808388
 21
112.7351356908
  0
LINE
  5
27B
100
AcDbEntity
  8
0
100
AcDbLine
 62
7
  6
CONTINUOUS
 10
182.7687808388
 20
113.2351356908
 11
196.1687808388
 21
113.2351356908
  0
LINE
  5
27C
100
AcDbEntity
  8
0
100
AcDbLine
 62
7
  6
CONTINUOUS
 10
232.845518249
 20
148.6064046506
 11
233.2887663087
 21
149.6258350131
  0
LINE
  5
27D
100
AcDbEntity
  8
0
100
AcDbLine
 62
7
  6
CONTINUOUS
 10
145.697511879
 20
61.4583982806
 11
144.6780815165
 21
61.0151502209
  0
LINE
  5
27E
100
AcDbEntity
  8
0
100
AcDbLine
 62
7
  6
CONTINUOUS
 10
145.697511879
 20
148.211873101
 11
144.6780815165
 21
148.6551211607
  0
LINE
  5
27F
100
AcDbEntity
  8
0
100
AcDbLine
 62
7
  6
CONTINUOUS
 10
232.845518249
 20
61.063866731
 11
233.2887663087
 21
60.0444363685
  0
LWPOLYLINE
  5
280
100
AcDbEntity
  8
0
100
AcDbPolyline
 62
7
  6
CONTINUOUS
 90
10
 70
0
 43
0.3500000006
 10
247.5489199219
 20
102.9065614929
 10
246.691763855
 20
103.7637084961
 10
245.8346259155
 20
103.977992981
 10
244.9774879761
 20
103.977992981
 10
244.5489190063
 20
103.5494240112
 10
244.5489190063
 20
102.9065614929
 10
244.9774879761
 20
102.4779925232
 10
245.8346259155
 20
102.4779925232
 10
246.2631948853
 20
102.9065614929
 10
246.2631948853
 20
103.835139679
  0
LINE
  5
281
100
AcDbEntity
  8
0
100
AcDbLine
 62
7
  6
CONTINUOUS
 10
233.2400497986
 20
61.4583982806
 11
233.2400497986
 21
148.211873101
  0
LINE
  5
282
100
AcDbEntity
  8
0
100
AcDbLine
 62
7
  6
CONTINUOUS
 10
234.2749492953
 20
61.0295760364
 11
234.2749492953
 21
148.6406953452
  0
LINE
  5
283
100
AcDbEntity
  8
0
100
AcDbLine
 62
7
  6
CONTINUOUS
 10
234.4687808388
 20
60.8357444929
 11
234.4687808388
 21
148.8345268887
  0
LINE
  5
284
100
AcDbEntity
  8
0
100
AcDbLine
 62
7
  6
CONTINUOUS
 10
232.845518249
 20
148.6064046506
 11
146.0920434286
 21
148.6064046506
  0
LINE
  5
285
100
AcDbEntity
  8
0
100
AcDbLine
 62
7
  6
CONTINUOUS
 10
233.2743404932
 20
149.6413041473
 11
145.6632211844
 21
149.6413041473
  0
LINE
  5
286
100
AcDbEntity
  8
0
100
AcDbLine
 62
7
  6
CONTINUOUS
 10
233.4681720367
 20
149.8351356908
 11
145.4693896409
 21
149.8351356908
  0
LINE
  5
287
100
AcDbEntity
  8
0
100
AcDbLine
 62
7
  6
CONTINUOUS
 10
233.2887663087
 20
60.0444363685
 11
233.2743404932
 21
60.0289672343
  0
LINE
  5
288
100
AcDbEntity
  8
0
100
AcDbLine
 62
7
  6
CONTINUOUS
 10
232.845518249
 20
61.063866731
 11
233.2400497986
 21
61.4583982806
  0
LINE
  5
289
100
AcDbEntity
  8
0
100
AcDbLine
 62
7
  6
CONTINUOUS
 10
233.2887663087
 20
60.0444363685
 11
234.2594801611
 21
61.0151502209
  0
LINE
  5
28A
100
AcDbEntity
  8
0
100
AcDbLine
 62
7
  6
CONTINUOUS
 10
234.4687808388
 20
60.8357444929
 11
233.4681720367
 21
59.8351356908
  0
LINE
  5
28B
100
AcDbEntity
  8
0
100
AcDbLine
 62
7
  6
CONTINUOUS
 10
234.2749492953
 20
61.0295760364
 11
234.2594801611
 21
61.0151502209
  0
LINE
  5
28C
100
AcDbEntity
  8
0
100
AcDbLine
 62
7
  6
CONTINUOUS
 10
234.2594801611
 20
148.6551211607
 11
234.2749492953
 21
148.6406953452
  0
LINE
  5
28D
100
AcDbEntity
  8
0
100
AcDbLine
 62
7
  6
CONTINUOUS
 10
233.2400497986
 20
148.211873101
 11
232.845518249
 21
148.6064046506
  0
LINE
  5
28E
100
AcDbEntity
  8
0
100
AcDbLine
 62
7
  6
CONTINUOUS
 10
234.2594801611
 20
148.6551211607
 11
233.2887663087
 21
149.6258350131
  0
LINE
  5
28F
100
AcDbEntity
  8
0
100
AcDbLine
 62
7
  6
CONTINUOUS
 10
233.4681720367
 20
149.8351356908
 11
234.4687808388
 21
148.8345268887
  0
LINE
  5
290
100
AcDbEntity
  8
0
100
AcDbLine
 62
7
  6
CONTINUOUS
 10
233.2743404932
 20
149.6413041473
 11
233.2887663087
 21
149.6258350131
  0
LWPOLYLINE
  5
291
100
AcDbEntity
  8
0
100
AcDbPolyline
 62
7
  6
CONTINUOUS
 90
3
 70
0
 43
0.3500000006
 10
74.5469456177
 20
171.4539494019
 10
75.404088089
 20
172.3110873413
 10
75.404088089
 20
169.3110864258
  0
LWPOLYLINE
  5
292
100
AcDbEntity
  8
0
100
AcDbPolyline
 62
7
  6
CONTINUOUS
 90
3
 70
0
 43
0.3500000006
 10
80.3326629639
 20
171.4539494019
 10
81.1898009033
 20
172.3110873413
 10
81.1898009033
 20
169.3110864258
  0
LWPOLYLINE
  5
293
100
AcDbEntity
  8
0
100
AcDbPolyline
 62
7
  6
CONTINUOUS
 90
3
 70
0
 43
0.3500000006
 10
80.2243152466
 20
162.9339794312
 10
81.0814622498
 20
163.7911173706
 10
81.0814622498
 20
160.7911164551
  0
LINE
  5
294
100
AcDbEntity
  8
0
100
AcDbLine
 62
7
  6
CONTINUOUS
 10
86.6625314476
 20
60.0289672343
 11
92.2131406206
 21
59.8351356908
  0
LINE
  5
295
100
AcDbEntity
  8
0
100
AcDbLine
 62
7
  6
CONTINUOUS
 10
86.6625314476
 20
61.0295760364
 11
92.2131406206
 21
60.8357444929
  0
LINE
  5
296
100
AcDbEntity
  8
0
100
AcDbLine
 62
7
  6
CONTINUOUS
 10
92.2131406206
 20
62.077091778
 11
92.8131406206
 21
62.0351356908
  0
LINE
  5
297
100
AcDbEntity
  8
0
100
AcDbLine
 62
7
  6
CONTINUOUS
 10
85.6631406206
 20
148.211873101
 11
86.6475930784
 21
148.6551211607
  0
LINE
  5
298
100
AcDbEntity
  8
0
100
AcDbLine
 62
250
  6
CONTINUOUS
 10
92.2131406206
 20
63.6731942584
 11
92.8131406206
 21
63.6312381712
  0
LINE
  5
299
100
AcDbEntity
  8
0
100
AcDbLine
 62
7
  6
CONTINUOUS
 10
85.6631406206
 20
61.4583982806
 11
86.6475930784
 21
61.0151502209
  0
LINE
  5
29A
100
AcDbEntity
  8
0
100
AcDbLine
 62
7
  6
CONTINUOUS
 10
85.6631406206
 20
148.6064046506
 11
86.6625314476
 21
149.6413041473
  0
LINE
  5
29B
100
AcDbEntity
  8
0
100
AcDbLine
 62
7
  6
CONTINUOUS
 10
85.6631406206
 20
61.063866731
 11
86.6625314476
 21
60.0289672343
  0
LWPOLYLINE
  5
29C
100
AcDbEntity
  8
0
100
AcDbPolyline
 62
7
  6
CONTINUOUS
 90
3
 70
0
 43
0.3500000006
 10
79.3326626587
 20
169.5968111572
 10
79.2612314758
 20
169.3825266724
 10
79.1183781738
 20
169.0968019409
  0
LWPOLYLINE
  5
29D
100
AcDbEntity
  8
0
100
AcDbPolyline
 62
7
  6
CONTINUOUS
 90
3
 70
0
 43
0.3500000006
 10
79.2243149414
 20
161.0768411865
 10
79.1528837585
 20
160.8625567017
 10
79.0100304565
 20
160.5768319702
  0
LWPOLYLINE
  5
29E
100
AcDbEntity
  8
0
100
AcDbPolyline
 62
250
  6
CONTINUOUS
 90
5
 70
0
 10
94.7723684539
 20
78.2876933548
 10
94.7527772357
 20
78.2862512202
 10
94.7325618997
 20
78.2852100594
 10
94.7116124591
 20
78.2845314664
 10
94.6899289138
 20
78.2842153226
  0
LINE
  5
29F
100
AcDbEntity
  8
0
100
AcDbLine
 62
7
  6
CONTINUOUS
 10
93.7389777716
 20
77.6850062521
 11
92.8131406206
 21
77.6833903598
  0
LINE
  5
2A0
100
AcDbEntity
  8
0
100
AcDbLine
 62
250
  6
CONTINUOUS
 10
93.7389132044
 20
77.9074564469
 11
92.8131406206
 21
77.9070382523
  0
LWPOLYLINE
  5
2A1
100
AcDbEntity
  8
0
100
AcDbPolyline
 62
7
  6
CONTINUOUS
 90
15
 70
0
 10
94.690083875
 20
78.2642216267
 10
94.7138964408
 20
78.2644776396
 10
94.7422737999
 20
78.2653985493
 10
94.770144137
 20
78.2669524411
 10
94.7973523525
 20
78.2691041776
 10
94.8239831472
 20
78.2718611373
 10
94.8499763183
 20
78.2752238599
 10
94.8750319527
 20
78.2791764507
 10
94.8991752349
 20
78.2837498971
 10
94.9225239465
 20
78.2890189659
 10
94.9451419144
 20
78.2951096469
 10
94.9675627357
 20
78.3023111519
 10
94.9896251418
 20
78.310879361
 10
95.0104858723
 20
78.3207237598
 10
95.0131667405
 20
78.3221310132
  0
LINE
  5
2A2
100
AcDbEntity
  8
0
100
AcDbLine
 62
7
  6
CONTINUOUS
 10
92.8131406206
 20
78.2627682156
 11
94.6900838086
 21
78.2642216223
  0
LINE
  5
2A3
100
AcDbEntity
  8
0
100
AcDbLine
 62
250
  6
CONTINUOUS
 10
94.6899289138
 20
78.2842153226
 11
92.8131406206
 21
78.2827521156
  0
LINE
  5
2A4
100
AcDbEntity
  8
0
100
AcDbLine
 62
7
  6
CONTINUOUS
 10
93.7632649995
 20
79.6351356908
 11
92.8131406206
 21
79.6351356908
  0
LINE
  5
2A5
100
AcDbEntity
  8
0
100
AcDbLine
 62
7
  6
CONTINUOUS
 10
92.8131406206
 20
79.7851356908
 11
92.9631406206
 21
79.7851356908
  0
LINE
  5
2A6
100
AcDbEntity
  8
0
100
AcDbLine
 62
7
  6
CONTINUOUS
 10
93.2631406206
 20
79.7851356908
 11
93.4631406206
 21
79.7851356908
  0
LINE
  5
2A7
100
AcDbEntity
  8
0
100
AcDbLine
 62
7
  6
CONTINUOUS
 10
92.8131406206
 20
79.0793158163
 11
95.6236078119
 21
78.9551490231
  0
LINE
  5
2A8
100
AcDbEntity
  8
0
100
AcDbLine
 62
7
  6
CONTINUOUS
 10
93.8627687185
 20
79.630172881
 11
95.8131406206
 21
79.4351356908
  0
LWPOLYLINE
  5
2A9
100
AcDbEntity
  8
0
100
AcDbPolyline
 62
7
  6
CONTINUOUS
 90
16
 70
0
 10
95.6600513522
 20
78.9501435959
 10
95.6761544823
 20
78.9476011661
 10
95.6919316144
 20
78.9443330301
 10
95.7072591161
 20
78.9403391881
 10
95.7219974611
 20
78.9355997176
 10
95.7360386807
 20
78.930134541
 10
95.7492986026
 20
78.9240034254
 10
95.761650486
 20
78.9171874891
 10
95.7729601974
 20
78.9097056138
 10
95.78311991
 20
78.9016742119
 10
95.7920308465
 20
78.8930346399
 10
95.7995257181
 20
78.8838455413
 10
95.8054387195
 20
78.8743992595
 10
95.8096977045
 20
78.8647932422
 10
95.8122761386
 20
78.8549300417
 10
95.8131406206
 20
78.8448096579
  0
LINE
  5
2AA
100
AcDbEntity
  8
0
100
AcDbLine
 62
7
  6
CONTINUOUS
 10
92.9631406206
 20
129.8851356908
 11
93.1131406206
 21
130.0351356908
  0
LINE
  5
2AB
100
AcDbEntity
  8
0
100
AcDbLine
 62
7
  6
CONTINUOUS
 10
93.4631406206
 20
129.8851356908
 11
93.6131406206
 21
130.0351356908
  0
LINE
  5
2AC
100
AcDbEntity
  8
0
100
AcDbLine
 62
7
  6
CONTINUOUS
 10
92.9631406206
 20
79.7851356908
 11
93.1131406206
 21
79.6351356908
  0
LINE
  5
2AD
100
AcDbEntity
  8
0
100
AcDbLine
 62
7
  6
CONTINUOUS
 10
93.4631406206
 20
79.7851356908
 11
93.6131406206
 21
79.6351356908
  0
LWPOLYLINE
  5
2AE
100
AcDbEntity
  8
0
100
AcDbPolyline
 62
7
  6
CONTINUOUS
 90
4
 70
0
 43
0.3500000006
 10
76.152882843
 20
163.148263916
 10
76.152882843
 20
163.7911173706
 10
77.6528833008
 20
163.7911173706
 10
76.7957453613
 20
160.7911164551
  0
LWPOLYLINE
  5
2AF
100
AcDbEntity
  8
0
100
AcDbPolyline
 62
7
  6
CONTINUOUS
 90
13
 70
0
 43
0.3500000006
 10
76.2612305603
 20
170.1682243652
 10
76.2612305603
 20
171.4539494019
 10
76.4755150452
 20
171.8825183716
 10
76.9040930786
 20
172.3110873413
 10
77.1183775635
 20
172.3110873413
 10
77.5469465332
 20
171.8825183716
 10
77.7612310181
 20
171.4539494019
 10
77.7612310181
 20
170.1682243652
 10
77.5469465332
 20
169.7396553955
 10
77.1183775635
 20
169.3110864258
 10
76.9040930786
 20
169.3110864258
 10
76.4755150452
 20
169.7396553955
 10
76.2612305603
 20
170.1682243652
  0
LWPOLYLINE
  5
2B0
100
AcDbEntity
  8
0
100
AcDbPolyline
 62
250
  6
CONTINUOUS
 90
9
 70
0
 10
93.8330733204
 20
77.760535666
 10
93.8403340113
 20
77.7513404599
 10
93.8473799198
 20
77.7429417137
 10
93.8541268557
 20
77.7355114132
 10
93.8604495031
 20
77.7292638923
 10
93.8662241544
 20
77.7244019078
 10
93.8713294892
 20
77.7211253696
 10
93.8756456693
 20
77.7196328486
 10
93.8790468543
 20
77.7201198947
  0
LWPOLYLINE
  5
2B1
100
AcDbEntity
  8
0
100
AcDbPolyline
 62
250
  6
CONTINUOUS
 90
19
 70
0
 10
93.7389132044
 20
131.7628149347
 10
93.7468710625
 20
131.7766300071
 10
93.7551818956
 20
131.7908279306
 10
93.7638122305
 20
131.8053155732
 10
93.7727294191
 20
131.8200049734
 10
93.7818734579
 20
131.8347516435
 10
93.7911584429
 20
131.8493616725
 10
93.8005115957
 20
131.8636754774
 10
93.8098624317
 20
131.8775473549
 10
93.8191176518
 20
131.8907932394
 10
93.8282133512
 20
131.9032703905
 10
93.837013577
 20
131.9147365466
 10
93.8453245656
 20
131.9248917431
 10
93.8530706981
 20
131.9335959137
 10
93.8601331539
 20
131.9406707855
 10
93.8663127195
 20
131.9458997042
 10
93.8715319758
 20
131.9492252122
 10
93.8757883264
 20
131.9506484581
 10
93.8790468543
 20
131.9501514869
  0
LWPOLYLINE
  5
2B2
100
AcDbEntity
  8
0
100
AcDbPolyline
 62
250
  6
CONTINUOUS
 90
14
 70
0
 10
93.7389132044
 20
77.9074564469
 10
93.7456863619
 20
77.8956630704
 10
93.7525662925
 20
77.8838477213
 10
93.759536011
 20
77.8720493149
 10
93.7665393669
 20
77.8603687641
 10
93.7735941878
 20
77.8487876709
 10
93.7807881976
 20
77.8371850424
 10
93.7881068712
 20
77.825607878
 10
93.7955019845
 20
77.8141518999
 10
93.8029972095
 20
77.8028062576
 10
93.8105538714
 20
77.7916607117
 10
93.818110945
 20
77.7808385808
 10
93.8256420402
 20
77.7704152561
 10
93.8330733204
 20
77.760535666
  0
LINE
  5
2B3
100
AcDbEntity
  8
0
100
AcDbLine
 62
7
  6
CONTINUOUS
 10
85.6631406206
 20
61.063866731
 11
85.6631406206
 21
148.6064046506
  0
LINE
  5
2B4
100
AcDbEntity
  8
0
100
AcDbLine
 62
7
  6
CONTINUOUS
 10
86.6475930784
 20
60.0444363685
 11
86.6475930784
 21
61.0151502209
  0
LINE
  5
2B5
100
AcDbEntity
  8
0
100
AcDbLine
 62
7
  6
CONTINUOUS
 10
86.6475930784
 20
148.6551211607
 11
86.6475930784
 21
149.6258350131
  0
LINE
  5
2B6
100
AcDbEntity
  8
0
100
AcDbLine
 62
7
  6
CONTINUOUS
 10
86.6625314476
 20
61.0295760364
 11
86.6625314476
 21
148.6406953452
  0
LWPOLYLINE
  5
2B7
100
AcDbEntity
  8
0
100
AcDbPolyline
 62
250
  6
CONTINUOUS
 90
3
 70
0
 10
94.6900838086
 20
78.2642216223
 10
94.6900514457
 20
78.265200215
 10
94.6900115499
 20
78.2688817355
  0
LINE
  5
2B8
100
AcDbEntity
  8
0
100
AcDbLine
 62
7
  6
CONTINUOUS
 10
92.2131406206
 20
59.8351356908
 11
92.2131406206
 21
149.8351356908
  0
LINE
  5
2B9
100
AcDbEntity
  8
0
100
AcDbLine
 62
7
  6
CONTINUOUS
 10
92.8131406206
 20
62.0351356908
 11
92.8131406206
 21
147.6351356908
  0
LINE
  5
2BA
100
AcDbEntity
  8
0
100
AcDbLine
 62
250
  6
CONTINUOUS
 10
93.7389779793
 20
77.6853579789
 11
93.7389132044
 21
77.9074564469
  0
LINE
  5
2BB
100
AcDbEntity
  8
0
100
AcDbLine
 62
250
  6
CONTINUOUS
 10
93.7389132044
 20
131.7628149347
 11
93.7389778266
 21
131.984911736
  0
LWPOLYLINE
  5
2BC
100
AcDbEntity
  8
0
100
AcDbPolyline
 62
250
  6
CONTINUOUS
 90
3
 70
0
 10
94.7731319933
 20
131.3637570097
 10
94.7731735794
 20
131.3627742184
 10
94.7731766872
 20
131.3590875098
  0
LINE
  5
2BD
100
AcDbEntity
  8
0
100
AcDbLine
 62
250
  6
CONTINUOUS
 10
94.6900115499
 20
78.2688817355
 11
94.6899289138
 21
78.2842153226
  0
LINE
  5
2BE
100
AcDbEntity
  8
0
100
AcDbLine
 62
250
  6
CONTINUOUS
 10
95.6236078119
 20
130.6513458827
 11
95.6236078119
 21
130.2161824099
  0
LINE
  5
2BF
100
AcDbEntity
  8
0
100
AcDbLine
 62
250
  6
CONTINUOUS
 10
95.6236078119
 20
79.4540889717
 11
95.6236078119
 21
78.9551490231
  0
LINE
  5
2C0
100
AcDbEntity
  8
0
100
AcDbLine
 62
7
  6
CONTINUOUS
 10
95.8131406206
 20
130.9235000312
 11
95.8131406206
 21
130.2351356908
  0
LINE
  5
2C1
100
AcDbEntity
  8
0
100
AcDbLine
 62
7
  6
CONTINUOUS
 10
95.8131406206
 20
79.4351356908
 11
95.8131406206
 21
78.7467713504
  0
LINE
  5
2C2
100
AcDbEntity
  8
0
100
AcDbLine
 62
250
  6
CONTINUOUS
 10
94.7731766872
 20
131.3590875098
 11
94.7730335365
 21
131.3437431389
  0
LWPOLYLINE
  5
2C3
100
AcDbEntity
  8
0
100
AcDbPolyline
 62
7
  6
CONTINUOUS
 90
25
 70
0
 10
95.8131406206
 20
130.7560984181
 10
95.8127373253
 20
130.7492268705
 10
95.8115407277
 20
130.74248959
 10
95.8095729238
 20
130.7358865765
 10
95.8068642034
 20
130.7294061107
 10
95.8034389072
 20
130.7230599121
 10
95.7993020758
 20
130.7168831384
 10
95.7944715271
 20
130.7108728529
 10
95.7889714248
 20
130.7050319924
 10
95.7827999108
 20
130.6994045257
 10
95.7759755453
 20
130.6939880841
 10
95.7685209291
 20
130.6887850363
 10
95.7604291935
 20
130.683846458
 10
95.751715108
 20
130.6791674402
 10
95.7424084809
 20
130.6747528918
 10
95.7325204364
 20
130.6706686154
 10
95.7220726548
 20
130.6669134791
 10
95.7111037799
 20
130.6634886148
 10
95.6996536406
 20
130.660463221
 10
95.6877537149
 20
130.657840913
 10
95.6754553413
 20
130.6556180756
 10
95.6628358358
 20
130.6538530612
 10
95.6499569522
 20
130.6525653206
 10
95.636862354
 20
130.6517354031
 10
95.6236078119
 20
130.6513633085
  0
LWPOLYLINE
  5
2C4
100
AcDbEntity
  8
0
100
AcDbPolyline
 62
7
  6
CONTINUOUS
 90
10
 70
0
 43
0.3500000006
 10
79.1528837585
 20
161.2911256714
 10
79.2243149414
 20
161.1482633057
 10
79.2243149414
 20
161.0768411865
 10
79.0814616394
 20
160.9339788208
 10
79.0100304565
 20
160.9339788208
 10
78.9385992737
 20
161.0054009399
 10
78.9385992737
 20
161.0768411865
 10
79.0100304565
 20
161.2196854248
 10
79.0814616394
 20
161.2911256714
 10
79.1528837585
 20
161.2911256714
  0
LINE
  5
2C5
100
AcDbEntity
  8
0
100
AcDbLine
 62
7
  6
CONTINUOUS
 10
93.1131406206
 20
79.6351356908
 11
93.2631406206
 21
79.7851356908
  0
LINE
  5
2C6
100
AcDbEntity
  8
0
100
AcDbLine
 62
7
  6
CONTINUOUS
 10
93.1131406206
 20
130.0351356908
 11
93.2631406206
 21
129.8851356908
  0
LWPOLYLINE
  5
2C7
100
AcDbEntity
  8
0
100
AcDbPolyline
 62
7
  6
CONTINUOUS
 90
10
 70
0
 43
0.3500000006
 10
79.2612314758
 20
169.8110956421
 10
79.3326626587
 20
169.6682332764
 10
79.3326626587
 20
169.5968111572
 10
79.189800293
 20
169.4539487915
 10
79.1183781738
 20
169.4539487915
 10
79.046946991
 20
169.5253709106
 10
79.046946991
 20
169.5968111572
 10
79.1183781738
 20
169.7396553955
 10
79.189800293
 20
169.8110956421
 10
79.2612314758
 20
169.8110956421
  0
LINE
  5
2C8
100
AcDbEntity
  8
0
100
AcDbLine
 62
250
  6
CONTINUOUS
 10
95.8131406206
 20
78.7966697263
 11
94.9192283178
 21
78.3189261985
  0
LINE
  5
2C9
100
AcDbEntity
  8
0
100
AcDbLine
 62
250
  6
CONTINUOUS
 10
93.7389132044
 20
77.9074564469
 11
94.4106102456
 21
78.2640052126
  0
LINE
  5
2CA
100
AcDbEntity
  8
0
100
AcDbLine
 62
7
  6
CONTINUOUS
 10
95.8131406206
 20
78.7467713504
 11
93.8781525824
 21
77.7196451992
  0
LWPOLYLINE
  5
2CB
100
AcDbEntity
  8
0
100
AcDbPolyline
 62
250
  6
CONTINUOUS
 90
12
 70
0
 10
94.9192283178
 20
78.3189261985
 10
94.9112416552
 20
78.3151530967
 10
94.9022133303
 20
78.3115674067
 10
94.8921433431
 20
78.3081688118
 10
94.8810624304
 20
78.3049621466
 10
94.8689398553
 20
78.3019419876
 10
94.8556834074
 20
78.299092679
 10
94.8412390805
 20
78.2963825503
 10
94.8256608808
 20
78.2938428488
 10
94.8090186157
 20
78.2915522425
 10
94.7912255675
 20
78.2894985058
 10
94.7723684539
 20
78.2876933548
  0
LWPOLYLINE
  5
2CC
100
AcDbEntity
  8
0
100
AcDbPolyline
 62
250
  6
CONTINUOUS
 90
10
 70
0
 10
95.0129998178
 20
78.3220423459
 10
95.0038685759
 20
78.3177920426
 10
94.9942913092
 20
78.3144952845
 10
94.9843184838
 20
78.3121694462
 10
94.9740026266
 20
78.3108267728
 10
94.9633981226
 20
78.3104743527
 10
94.9525609126
 20
78.3111140694
 10
94.9415481054
 20
78.3127425465
 10
94.9304176951
 20
78.3153511771
 10
94.9192283178
 20
78.3189261985
  0
LINE
  5
2CD
100
AcDbEntity
  8
0
100
AcDbLine
 62
7
  6
CONTINUOUS
 10
93.8627687185
 20
130.0400985006
 11
95.8131406206
 21
130.2351356908
  0
LINE
  5
2CE
100
AcDbEntity
  8
0
100
AcDbLine
 62
7
  6
CONTINUOUS
 10
92.8131406206
 20
130.5909555653
 11
93.8150206496
 21
130.6352187507
  0
LINE
  5
2CF
100
AcDbEntity
  8
0
100
AcDbLine
 62
7
  6
CONTINUOUS
 10
92.8131406206
 20
129.8851356908
 11
92.9631406206
 21
129.8851356908
  0
LINE
  5
2D0
100
AcDbEntity
  8
0
100
AcDbLine
 62
7
  6
CONTINUOUS
 10
93.2631406206
 20
129.8851356908
 11
93.4631406206
 21
129.8851356908
  0
LINE
  5
2D1
100
AcDbEntity
  8
0
100
AcDbLine
 62
7
  6
CONTINUOUS
 10
92.8131406206
 20
130.0351356908
 11
93.7632649995
 21
130.0351356908
  0
LINE
  5
2D2
100
AcDbEntity
  8
0
100
AcDbLine
 62
250
  6
CONTINUOUS
 10
93.7389132044
 20
131.7628149347
 11
92.8131406206
 21
131.7632331292
  0
LINE
  5
2D3
100
AcDbEntity
  8
0
100
AcDbLine
 62
7
  6
CONTINUOUS
 10
93.7389777716
 20
131.9852651295
 11
92.8131406206
 21
131.9868810218
  0
LINE
  5
2D4
100
AcDbEntity
  8
0
100
AcDbLine
 62
250
  6
CONTINUOUS
 10
92.8131406206
 20
131.3789365353
 11
94.7730335365
 21
131.3437431389
  0
LINE
  5
2D5
100
AcDbEntity
  8
0
100
AcDbLine
 62
7
  6
CONTINUOUS
 10
94.7731319885
 20
131.3637570098
 11
92.8131406206
 21
131.3989218409
  0
LWPOLYLINE
  5
2D6
100
AcDbEntity
  8
0
100
AcDbPolyline
 62
250
  6
CONTINUOUS
 90
3
 70
0
 10
94.7730335365
 20
131.3437431389
 10
94.791468176
 20
131.3432071053
 10
94.8093340467
 20
131.3424343774
  0
LINE
  5
2D7
100
AcDbEntity
  8
0
100
AcDbLine
 62
7
  6
CONTINUOUS
 10
93.8150205405
 20
130.6352187459
 11
92.8131406206
 21
130.6696065904
  0
LWPOLYLINE
  5
2D8
100
AcDbEntity
  8
0
100
AcDbPolyline
 62
250
  6
CONTINUOUS
 90
4
 70
0
 10
94.8093340467
 20
131.3424343774
 10
94.8266311484
 20
131.3414249041
 10
94.8434367812
 20
131.3401493587
 10
94.8596736451
 20
131.338636867
  0
LWPOLYLINE
  5
2D9
100
AcDbEntity
  8
0
100
AcDbPolyline
 62
250
  6
CONTINUOUS
 90
14
 70
0
 10
94.8596736451
 20
131.338636867
 10
94.8751098402
 20
131.3369750597
 10
94.8896283566
 20
131.3351821627
 10
94.9033462042
 20
131.3332397299
 10
94.9163825127
 20
131.3311804402
 10
94.9286701967
 20
131.3290405429
 10
94.9402763415
 20
131.3267835788
 10
94.9515213328
 20
131.3243331115
 10
94.9625857372
 20
131.3216808648
 10
94.9732889882
 20
131.3188346646
 10
94.9834097723
 20
131.3157420584
 10
94.9928743184
 20
131.3123852816
 10
95.0017563976
 20
131.3087813369
 10
95.01005601
 20
131.3049298043
  0
LWPOLYLINE
  5
2DA
100
AcDbEntity
  8
0
100
AcDbPolyline
 62
250
  6
CONTINUOUS
 90
10
 70
0
 10
95.1003370287
 20
131.3018688869
 10
95.0915682936
 20
131.3059505579
 10
95.0823693995
 20
131.3091176048
 10
95.0727868978
 20
131.3113540008
 10
95.0628692812
 20
131.3126484288
 10
95.0526667381
 20
131.3129943384
 10
95.042230899
 20
131.3123899795
 10
95.0316145749
 20
131.3108384106
 10
95.0208714899
 20
131.3083474836
 10
95.01005601
 20
131.3049298043
  0
LWPOLYLINE
  5
2DB
100
AcDbEntity
  8
0
100
AcDbPolyline
 62
7
  6
CONTINUOUS
 90
15
 70
0
 10
95.1002107625
 20
131.3019354918
 10
95.0913011544
 20
131.3064748366
 10
95.0702838132
 20
131.3158541136
 10
95.048136565
 20
131.3240535605
 10
95.0255676518
 20
131.3310704063
 10
95.0025888344
 20
131.3371224977
 10
94.9787544184
 20
131.3424592139
 10
94.9541423083
 20
131.3471478273
 10
94.9287062521
 20
131.3512506731
 10
94.9023868161
 20
131.3548038888
 10
94.875452839
 20
131.3577885155
 10
94.847971001
 20
131.3602053377
 10
94.819868607
 20
131.3620537311
 10
94.7912723201
 20
131.3633004526
 10
94.7731318947
 20
131.3637570087
  0
LINE
  5
2DC
100
AcDbEntity
  8
0
100
AcDbLine
 62
250
  6
CONTINUOUS
 10
94.4808124095
 20
131.3690016087
 11
93.7389132044
 21
131.7628149347
  0
LINE
  5
2DD
100
AcDbEntity
  8
0
100
AcDbLine
 62
7
  6
CONTINUOUS
 10
93.8781525824
 20
131.9506261823
 11
95.8131406206
 21
130.9235000312
  0
LINE
  5
2DE
100
AcDbEntity
  8
0
100
AcDbLine
 62
250
  6
CONTINUOUS
 10
95.01005601
 20
131.3049298043
 11
95.8131406195
 21
130.8758088618
  0
LINE
  5
2DF
100
AcDbEntity
  8
0
100
AcDbLine
 62
7
  6
CONTINUOUS
 10
86.6625314476
 20
61.0295760364
 11
86.6475930784
 21
61.0151502209
  0
LINE
  5
2E0
100
AcDbEntity
  8
0
100
AcDbLine
 62
7
  6
CONTINUOUS
 10
86.6475930784
 20
148.6551211607
 11
86.6625314476
 21
148.6406953452
  0
LINE
  5
2E1
100
AcDbEntity
  8
0
100
AcDbLine
 62
250
  6
CONTINUOUS
 10
92.2131406206
 20
145.9970771232
 11
92.8131406206
 21
146.0390332104
  0
LINE
  5
2E2
100
AcDbEntity
  8
0
100
AcDbLine
 62
7
  6
CONTINUOUS
 10
92.2131406206
 20
147.5931796036
 11
92.8131406206
 21
147.6351356908
  0
LINE
  5
2E3
100
AcDbEntity
  8
0
100
AcDbLine
 62
7
  6
CONTINUOUS
 10
86.6625314476
 20
148.6406953452
 11
92.2131406206
 21
148.8345268887
  0
LINE
  5
2E4
100
AcDbEntity
  8
0
100
AcDbLine
 62
7
  6
CONTINUOUS
 10
86.6625314476
 20
149.6413041473
 11
92.2131406206
 21
149.8351356908
  0
LWPOLYLINE
  5
2E5
100
AcDbEntity
  8
0
100
AcDbPolyline
 62
7
  6
CONTINUOUS
 90
8
 70
0
 43
0.3500000006
 10
81.9386001892
 20
160.7911164551
 10
82.7957471924
 20
160.7911164551
 10
83.2243161621
 20
161.2196854248
 10
83.2243161621
 20
162.0768414917
 10
82.7957471924
 20
162.5054104614
 10
81.9386001892
 20
162.5054104614
 10
81.9386001892
 20
163.7911173706
 10
83.2243161621
 20
163.7911173706
  0
LWPOLYLINE
  5
2E6
100
AcDbEntity
  8
0
100
AcDbPolyline
 62
7
  6
CONTINUOUS
 90
8
 70
0
 43
0.3500000006
 10
82.0469479065
 20
169.3110864258
 10
82.9040858459
 20
169.3110864258
 10
83.3326638794
 20
169.7396553955
 10
83.3326638794
 20
170.5968114624
 10
82.9040858459
 20
171.0253804321
 10
82.0469479065
 20
171.0253804321
 10
82.0469479065
 20
172.3110873413
 10
83.3326638794
 20
172.3110873413
  0
ARC
  5
2E7
100
AcDbEntity
  8
0
100
AcDbCircle
 62
7
  6
CONTINUOUS
 10
182.7687808388
 20
111.5351356908
 40
1.7
100
AcDbArc
 50
90.0
 51
180.0
  0
ARC
  5
2E8
100
AcDbEntity
  8
0
100
AcDbCircle
 62
7
  6
CONTINUOUS
 10
182.7687808388
 20
98.1351356908
 40
1.7
100
AcDbArc
 50
180.0
 51
270.0
  0
ARC
  5
2E9
100
AcDbEntity
  8
0
100
AcDbCircle
 62
7
  6
CONTINUOUS
 10
196.1687808388
 20
98.1351356908
 40
1.7
100
AcDbArc
 50
270.0
 51
360.0
  0
ARC
  5
2EA
100
AcDbEntity
  8
0
100
AcDbCircle
 62
7
  6
CONTINUOUS
 10
196.1687808388
 20
111.5351356908
 40
1.7
100
AcDbArc
 50
0.0
 51
90.0
  0
ARC
  5
2EB
100
AcDbEntity
  8
0
100
AcDbCircle
 62
7
  6
CONTINUOUS
 10
182.7687808388
 20
98.1351356908
 40
1.2
100
AcDbArc
 50
180.0
 51
270.0
  0
ARC
  5
2EC
100
AcDbEntity
  8
0
100
AcDbCircle
 62
7
  6
CONTINUOUS
 10
196.1687808388
 20
98.1351356908
 40
1.2
100
AcDbArc
 50
270.0
 51
360.0
  0
ARC
  5
2ED
100
AcDbEntity
  8
0
100
AcDbCircle
 62
7
  6
CONTINUOUS
 10
182.7687808388
 20
111.5351356908
 40
1.2
100
AcDbArc
 50
90.0
 51
180.0
  0
ARC
  5
2EE
100
AcDbEntity
  8
0
100
AcDbCircle
 62
7
  6
CONTINUOUS
 10
196.1687808388
 20
111.5351356908
 40
1.2
100
AcDbArc
 50
0.0
 51
90.0
  0
ARC
  5
2EF
100
AcDbEntity
  8
0
100
AcDbCircle
 62
7
  6
CONTINUOUS
 10
93.7632649995
 20
78.6351356908
 40
1.0
100
AcDbArc
 50
84.2894068625
 51
90.0
  0
ARC
  5
2F0
100
AcDbEntity
  8
0
100
AcDbCircle
 62
7
  6
CONTINUOUS
 10
93.7632649995
 20
131.0351356908
 40
1.0
100
AcDbArc
 50
270.0
 51
275.7105931375
  0
ARC
  5
2F1
100
AcDbEntity
  8
0
100
AcDbCircle
 62
7
  6
CONTINUOUS
 10
93.7384539455
 20
131.6851351868
 40
0.3
100
AcDbArc
 50
62.0510370175
 51
89.8999998573
  0
ARC
  5
2F2
100
AcDbEntity
  8
0
100
AcDbCircle
 62
7
  6
CONTINUOUS
 10
93.7384539455
 20
77.9851361948
 40
0.3
100
AcDbArc
 50
270.1000001427
 51
297.9489629825
  0
ELLIPSE
  5
2F3
100
AcDbEntity
  8
0
100
AcDbEllipse
 62
7
  6
CONTINUOUS
 10
95.6131406206
 20
78.7553369958
 30
0.0
 11
0.1417119467
 21
0.1422961243
 31
0.0
 40
0.9918061237
 41
0.5506956737
 42
0.7350951877
  0
ELLIPSE
  5
2F4
100
AcDbEntity
  8
0
100
AcDbEllipse
 62
7
  6
CONTINUOUS
 10
4961.5434639095
 20
104.8351356908
 30
0.0
 11
5070.6192780382
 21
20.8600030618
 31
0.0
 40
0.0041137573
 41
-2.8584753448
 42
-2.856472503
  0
ELLIPSE
  5
2F5
100
AcDbEntity
  8
0
100
AcDbEllipse
 62
7
  6
CONTINUOUS
 10
188.9619326856
 20
104.8351356908
 30
0.0
 11
530.7034459343
 21
0.0
 31
0.0
 40
0.0494155445
 41
1.7475925186
 42
1.7510554651
  0
ENDSEC
  0
SECTION
  2
OBJECTS
  0
DICTIONARY
  5
C
100
AcDbDictionary
280
0
281
1
  3
ACAD_GROUP
350
D
  3
ACAD_MLINESTYLE
350
17
  3
ACAD_LAYOUT
350
1A
  3
ACAD_PLOTSETTINGS
350
19
  3
ACAD_PLOTSTYLENAME
350
E
  0
DICTIONARY
  5
D
102
{ACAD_REACTORS
330
C
102
}
100
AcDbDictionary
280
0
281
1
  0
ACDBDICTIONARYWDFLT
  5
E
102
{ACAD_REACTORS
330
C
102
}
100
AcDbDictionary
281
1
  3
Normal
350
F
100
AcDbDictionaryWithDefault
340
F
  0
DICTIONARY
  5
17
102
{ACAD_REACTORS
330
C
102
}
100
AcDbDictionary
280
0
281
1
  3
Standard
350
18
  0
DICTIONARY
  5
19
102
{ACAD_REACTORS
330
C
102
}
100
AcDbDictionary
281
1
  0
DICTIONARY
  5
1A
102
{ACAD_REACTORS
330
C
102
}
100
AcDbDictionary
281
1
  3
Model
350
2F6
  3
Layout1
350
2F7
  0
ACDBPLACEHOLDER
  5
F
102
{ACAD_REACTORS
330
E
102
}
  0
MLINESTYLE
  5
18
102
{ACAD_REACTORS
330
17
102
}
100
AcDbMlineStyle
  2
STANDARD
 70
0
  3

 62
256
 51
90.0
 52
90.0
 71
2
 49
0.5
 62
256
  6
BYLAYER
 49
-0.5
 62
256
  6
BYLAYER
  0
LAYOUT
  5
2F6
102
{ACAD_REACTORS
330
1A
102
}
100
AcDbPlotSettings
  1

  2
none_device
  4
ISO_A4_(297.00_x_210.00_MM)
  6

 40
0.0
 41
0.0
 42
0.0
 43
0.0
 44
297.0
 45
210.0
 46
0.0
 47
0.0
 48
0.0
 49
0.0
140
0.0
141
0.0
142
1.0
143
1.0
 70
1024
 72
1
 73
0
 74
0
  7

 75
0
147
1.0
148
0.0
149
0.0
100
AcDbLayout
  1
Model
 70
0
 71
0
 10
0.0
 20
0.0
 11
297.0
 21
210.0
 12
0.0
 22
0.0
 32
0.0
 14
0.0
 24
0.0
 34
0.0
 15
0.0
 25
0.0
 35
0.0
146
0.0
 13
0.0
 23
0.0
 33
0.0
 16
1.0
 26
0.0
 36
0.0
 17
0.0
 27
1.0
 37
0.0
 76
0
330
21B
345
0
346
0
  0
LAYOUT
  5
2F7
102
{ACAD_REACTORS
330
1A
102
}
100
AcDbPlotSettings
  1

  2
none_device
  4
ISO_A4_(297.00_x_210.00_MM)
  6

 40
0.0
 41
0.0
 42
0.0
 43
0.0
 44
297.0
 45
210.0
 46
0.0
 47
0.0
 48
0.0
 49
0.0
140
0.0
141
0.0
142
1.0
143
1.0
 70
0
 72
1
 73
0
 74
0
  7

 75
0
147
1.0
148
0.0
149
0.0
100
AcDbLayout
  1
Layout1
 70
0
 71
1
 10
0.0
 20
0.0
 11
297.0
 21
210.0
 12
0.0
 22
0.0
 32
0.0
 14
0.0
 24
0.0
 34
0.0
 15
0.0
 25
0.0
 35
0.0
146
0.0
 13
0.0
 23
0.0
 33
0.0
 16
1.0
 26
0.0
 36
0.0
 17
0.0
 27
1.0
 37
0.0
 76
0
330
21C
345
0
346
0
  0
ENDSEC
  0
EOF
