  0
SECTION
  2
HEADER
  9
$ACADVER
  1
AC1024
  9
$DWGCODEPAGE
  3
ANSI_1252
  9
$EXTMAX
 10
297.0
 20
210.0
 30
0.0
  9
$EXTMIN
 10
0.0
 20
0.0
 30
0.0
  9
$LIMMIN
 10
0.0
 20
0.0
  9
$LIMMAX
 10
297.0
 20
210.0
  9
$VIEWCTR
 10
148.5
 20
105.0
  9
$VIEWSIZE
 40
210.0
  9
$CLAYER
  8
0
  9
$LTSCALE
 40
16.335
  9
$CELTYPE
  6
BYLAYER
  9
$DIMSCALE
 40
1.0
  9
$DIMASZ
 40
3.0
  9
$DIMEXO
 40
0.5
  9
$DIMDLI
 40
11.286
  9
$DIMEXE
 40
1.5
  9
$DIMCEN
 40
2.673
  9
$DIMLFAC
 40
1.0
  9
$DIMBLK
  1
_FILLED
  9
$DIMALT
 70
0
  9
$DIMALTF
 40
0.0393700787
  9
$DIMTXT
 40
3.0
  9
$DIMTOL
 70
1
  9
$DIMLIM
 70
0
  9
$DIMTFAC
 40
1.0
  9
$DIMTP
 40
0.01
  9
$DIMTM
 40
0.01
  9
$DIMGAP
 40
0.625
  9
$DIMDSEP
 70
44
  9
$AUNITS
 70
0
  9
$PDMODE
 70
3
  9
$PDSIZE
 40
3.0
  9
$HANDSEED
  5
310
  9
$TILEMODE
 70
1
  9
$MEASUREMENT
 70
1
  9
$INSUNITS
 70
4
  0
ENDSEC
  0
SECTION
  2
CLASSES
  0
CLASS
  1
ACDBDICTIONARYWDFLT
  2
AcDbDictionaryWithDefault
  3
AutoCAD 2000
 90
0
 91
1
280
0
281
0
  0
CLASS
  1
ACDBPLACEHOLDER
  2
AcDbPlaceHolder
  3
AutoCAD 2000
 90
0
 91
1
280
0
281
0
  0
CLASS
  1
LAYOUT
  2
AcDbLayout
  3
AutoCAD 2000
 90
0
 91
0
280
0
281
0
  0
ENDSEC
  0
SECTION
  2
TABLES
  0
TABLE
  2
VPORT
  5
8
100
AcDbSymbolTable
 70
2
  0
VPORT
  5
1F4
100
AcDbSymbolTableRecord
100
AcDbViewportTableRecord
  2
*ACTIVE
 70
0
 10
0.0
 20
0.0
 11
1.0
 21
1.0
 12
148.5
 22
105.0
 13
0.0
 23
0.0
 14
1.0
 24
1.0
 15
0.0
 25
0.0
 16
0.0
 26
0.0
 36
1.0
 17
0.0
 27
0.0
 37
0.0
 40
210.0
 41
1.4142857143
 42
50.0
 43
0.0
 44
0.0
 50
0.0
 51
0.0
 71
0
 72
100
 73
1
 74
1
 75
0
 76
0
 77
0
 78
0
  0
ENDTAB
  0
TABLE
  2
LTYPE
  5
5
100
AcDbSymbolTable
 70
6
  0
LTYPE
  5
14
100
AcDbSymbolTableRecord
100
AcDbLinetypeTableRecord
  2
BYBLOCK
 70
0
  3

 72
65
 73
0
 40
0.0
  0
LTYPE
  5
15
100
AcDbSymbolTableRecord
100
AcDbLinetypeTableRecord
  2
BYLAYER
 70
0
  3

 72
65
 73
0
 40
0.0
  0
LTYPE
  5
16
100
AcDbSymbolTableRecord
100
AcDbLinetypeTableRecord
  2
CONTINUOUS
 70
64
  3
Solid line
 72
65
 73
0
 40
0.0
  0
LTYPE
  5
1F5
100
AcDbSymbolTableRecord
100
AcDbLinetypeTableRecord
  2
CENTER
 70
64
  3
____ _ ____ _ ____ _ ____ _ ____ _ ____ _ ____
 72
65
 73
4
 40
0.6
 49
0.375
 74
0
 49
-0.075
 74
0
 49
0.075
 74
0
 49
-0.075
 74
0
  0
LTYPE
  5
1F6
100
AcDbSymbolTableRecord
100
AcDbLinetypeTableRecord
  2
HIDDEN
 70
64
  3
- - - - - - - - - - - - - - - - - - - -
 72
65
 73
2
 40
0.2
 49
0.1
 74
0
 49
-0.1
 74
0
  0
LTYPE
  5
1F7
100
AcDbSymbolTableRecord
100
AcDbLinetypeTableRecord
  2
PHANTOM
 70
64
  3
_____ _ _ _____ _ _ _____ _ _ _____
 72
65
 73
6
 40
0.8
 49
0.45
 74
0
 49
-0.05
 74
0
 49
0.1
 74
0
 49
-0.05
 74
0
 49
0.1
 74
0
 49
-0.05
 74
0
  0
LTYPE
  5
1F8
100
AcDbSymbolTableRecord
100
AcDbLinetypeTableRecord
  2
DOT
 70
64
  3
. . . . . . . . . . . . . . . . . . . .
 72
65
 73
2
 40
0.2
 49
0.1
 74
0
 49
-0.1
 74
0
  0
LTYPE
  5
1F9
100
AcDbSymbolTableRecord
100
AcDbLinetypeTableRecord
  2
DASHED
 70
64
  3
- - - - - - - - - - - - - - - - - - - -
 72
65
 73
2
 40
0.2
 49
0.1
 74
0
 49
-0.1
 74
0
  0
ENDTAB
  0
TABLE
  2
LAYER
  5
2
100
AcDbSymbolTable
 70
36
  0
LAYER
  5
10
100
AcDbSymbolTableRecord
100
AcDbLayerTableRecord
  2
0
 70
0
 62
7
  6
CONTINUOUS
370
-3
390
F
  0
LAYER
  5
1FA
100
AcDbSymbolTableRecord
100
AcDbLayerTableRecord
  2
DEFAULT_1
 70
0
 62
7
  6
CENTER
370
-3
390
F
  0
LAYER
  5
1FB
100
AcDbSymbolTableRecord
100
AcDbLayerTableRecord
  2
DEFAULT_2
 70
0
 62
7
  6
HIDDEN
370
-3
390
F
  0
LAYER
  5
1FC
100
AcDbSymbolTableRecord
100
AcDbLayerTableRecord
  2
DEFAULT_3
 70
0
 62
7
  6
PHANTOM
370
-3
390
F
  0
LAYER
  5
1FD
100
AcDbSymbolTableRecord
100
AcDbLayerTableRecord
  2
ASSI
 70
0
 62
7
  6
CONTINUOUS
370
-3
390
F
  0
LAYER
  5
1FE
100
AcDbSymbolTableRecord
100
AcDbLayerTableRecord
  2
COORDINATE
 70
0
 62
7
  6
CONTINUOUS
370
-3
390
F
  0
LAYER
  5
1FF
100
AcDbSymbolTableRecord
100
AcDbLayerTableRecord
  2
COORD_ORIGINE
 70
0
 62
7
  6
CONTINUOUS
370
-3
390
F
  0
LAYER
  5
200
100
AcDbSymbolTableRecord
100
AcDbLayerTableRecord
  2
COPY_PUBLISH
 70
0
 62
7
  6
CONTINUOUS
370
-3
390
F
  0
LAYER
  5
201
100
AcDbSymbolTableRecord
100
AcDbLayerTableRecord
  2
COSMETIC
 70
0
 62
7
  6
CONTINUOUS
370
-3
390
F
  0
LAYER
  5
202
100
AcDbSymbolTableRecord
100
AcDbLayerTableRecord
  2
COSMETICI
 70
0
 62
7
  6
CONTINUOUS
370
-3
390
F
  0
LAYER
  5
203
100
AcDbSymbolTableRecord
100
AcDbLayerTableRecord
  2
CURVE
 70
0
 62
7
  6
CONTINUOUS
370
-3
390
F
  0
LAYER
  5
204
100
AcDbSymbolTableRecord
100
AcDbLayerTableRecord
  2
CURVE_TASSELLI
 70
0
 62
7
  6
CONTINUOUS
370
-3
390
F
  0
LAYER
  5
205
100
AcDbSymbolTableRecord
100
AcDbLayerTableRecord
  2
DRAFT
 70
0
 62
7
  6
CONTINUOUS
370
-3
390
F
  0
LAYER
  5
206
100
AcDbSymbolTableRecord
100
AcDbLayerTableRecord
  2
IMPORT_IGES
 70
0
 62
7
  6
CONTINUOUS
370
-3
390
F
  0
LAYER
  5
207
100
AcDbSymbolTableRecord
100
AcDbLayerTableRecord
  2
INTFCLR_2
 70
0
 62
7
  6
CONTINUOUS
370
-3
390
F
  0
LAYER
  5
208
100
AcDbSymbolTableRecord
100
AcDbLayerTableRecord
  2
INTF_1
 70
0
 62
7
  6
CONTINUOUS
370
-3
390
F
  0
LAYER
  5
209
100
AcDbSymbolTableRecord
100
AcDbLayerTableRecord
  2
INTF_21
 70
0
 62
7
  6
CONTINUOUS
370
-3
390
F
  0
LAYER
  5
20A
100
AcDbSymbolTableRecord
100
AcDbLayerTableRecord
  2
INTF_7
 70
0
 62
7
  6
CONTINUOUS
370
-3
390
F
  0
LAYER
  5
20B
100
AcDbSymbolTableRecord
100
AcDbLayerTableRecord
  2
INTF_CYAN
 70
0
 62
7
  6
CONTINUOUS
370
-3
390
F
  0
LAYER
  5
20C
100
AcDbSymbolTableRecord
100
AcDbLayerTableRecord
  2
NOTE
 70
0
 62
7
  6
CONTINUOUS
370
-3
390
F
  0
LAYER
  5
20D
100
AcDbSymbolTableRecord
100
AcDbLayerTableRecord
  2
PIANI
 70
0
 62
7
  6
CONTINUOUS
370
-3
390
F
  0
LAYER
  5
20E
100
AcDbSymbolTableRecord
100
AcDbLayerTableRecord
  2
PIANI_ORIGINE
 70
0
 62
7
  6
CONTINUOUS
370
-3
390
F
  0
LAYER
  5
20F
100
AcDbSymbolTableRecord
100
AcDbLayerTableRecord
  2
PIANI_RIFERIMENTO
 70
0
 62
7
  6
CONTINUOUS
370
-3
390
F
  0
LAYER
  5
210
100
AcDbSymbolTableRecord
100
AcDbLayerTableRecord
  2
PUNTI
 70
0
 62
7
  6
CONTINUOUS
370
-3
390
F
  0
LAYER
  5
211
100
AcDbSymbolTableRecord
100
AcDbLayerTableRecord
  2
RACCORDO
 70
0
 62
7
  6
CONTINUOUS
370
-3
390
F
  0
LAYER
  5
212
100
AcDbSymbolTableRecord
100
AcDbLayerTableRecord
  2
RGB__255__255__255__
 70
0
 62
7
  6
CONTINUOUS
370
-3
390
F
  0
LAYER
  5
213
100
AcDbSymbolTableRecord
100
AcDbLayerTableRecord
  2
RGB____0____0____0__
 70
0
 62
7
  6
CONTINUOUS
370
-3
390
F
  0
LAYER
  5
214
100
AcDbSymbolTableRecord
100
AcDbLayerTableRecord
  2
SIMBOLI
 70
0
 62
7
  6
CONTINUOUS
370
-3
390
F
  0
LAYER
  5
215
100
AcDbSymbolTableRecord
100
AcDbLayerTableRecord
  2
SMUSSO
 70
0
 62
7
  6
CONTINUOUS
370
-3
390
F
  0
LAYER
  5
216
100
AcDbSymbolTableRecord
100
AcDbLayerTableRecord
  2
SUPERFICI
 70
0
 62
7
  6
CONTINUOUS
370
-3
390
F
  0
LAYER
  5
217
100
AcDbSymbolTableRecord
100
AcDbLayerTableRecord
  2
TRASH
 70
0
 62
7
  6
CONTINUOUS
370
-3
390
F
  0
LAYER
  5
218
100
AcDbSymbolTableRecord
100
AcDbLayerTableRecord
  2
XSEC_DATUMS
 70
0
 62
7
  6
CONTINUOUS
370
-3
390
F
  0
ENDTAB
  0
TABLE
  2
STYLE
  5
3
100
AcDbSymbolTable
 70
1
  0
STYLE
  5
11
100
AcDbSymbolTableRecord
100
AcDbTextStyleTableRecord
  2
STANDARD
 70
0
 40
0.0
 41
0.8
 50
0.0
 71
0
 42
0.2
  3
txt
  4

  0
STYLE
  5
219
100
AcDbSymbolTableRecord
100
AcDbTextStyleTableRecord
  2
TEXTSTYLE_1
 70
0
 40
0.0
 41
0.8
 50
0.0
 71
0
 42
0.2
  3
gdt
  4

  0
ENDTAB
  0
TABLE
  2
VIEW
  5
6
100
AcDbSymbolTable
 70
0
  0
ENDTAB
  0
TABLE
  2
UCS
  5
7
100
AcDbSymbolTable
 70
0
  0
ENDTAB
  0
TABLE
  2
APPID
  5
9
100
AcDbSymbolTable
 70
1
  0
APPID
  5
21A
100
AcDbSymbolTableRecord
100
AcDbRegAppTableRecord
  2
ACAD
 70
0
  0
ENDTAB
  0
TABLE
  2
BLOCK_RECORD
  5
1
100
AcDbSymbolTable
 70
0
  0
BLOCK_RECORD
  5
21B
100
AcDbSymbolTableRecord
100
AcDbBlockTableRecord
  2
*Model_Space
  0
BLOCK_RECORD
  5
21C
100
AcDbSymbolTableRecord
100
AcDbBlockTableRecord
  2
*Paper_Space
  0
BLOCK_RECORD
  5
21D
100
AcDbSymbolTableRecord
100
AcDbBlockTableRecord
  2
_FILLED
  0
BLOCK_RECORD
  5
21E
100
AcDbSymbolTableRecord
100
AcDbBlockTableRecord
  2
*D0
  0
BLOCK_RECORD
  5
21F
100
AcDbSymbolTableRecord
100
AcDbBlockTableRecord
  2
*D1
  0
BLOCK_RECORD
  5
220
100
AcDbSymbolTableRecord
100
AcDbBlockTableRecord
  2
*D2
  0
BLOCK_RECORD
  5
221
100
AcDbSymbolTableRecord
100
AcDbBlockTableRecord
  2
*D3
  0
ENDTAB
  0
TABLE
  2
DIMSTYLE
  5
A
100
AcDbSymbolTable
 70
1
100
AcDbDimStyleTable
 71
0
  0
DIMSTYLE
105
222
100
AcDbSymbolTableRecord
100
AcDbDimStyleTableRecord
  2
STANDARD
 70
0
  3

  4

 40
1.0
 41
3.0
 42
0.5
 43
0.38
 44
1.5
 45
0.0
 46
0.0
 47
0.01
 48
0.01
140
3.0
141
0.09
142
0.0
143
25.4
144
1.0
145
0.0
146
1.0
147
0.625
 71
1.0
 72
0.0
 73
0
 74
0
 75
0
 76
0
 77
1
 78
8
 79
2
170
0
171
1
172
0
173
0
174
0
175
0
176
0
177
0
178
0
270
2
179
2
271
2
272
2
273
2
274
2
275
0
280
0
281
0
282
0
283
1
284
8
285
0
286
0
287
3
288
0
340
11
278
44
341
21D
342
21D
343
21D
344
21D
  0
DIMSTYLE
105
223
100
AcDbSymbolTableRecord
100
AcDbDimStyleTableRecord
  2
DIMSTYLE_1
 70
0
  3

  4

 40
1.0
 41
3.0
 42
0.5
 43
0.38
 44
1.5
 45
0.0
 46
0.0
 47
0.0
 48
0.0
140
3.0
141
0.09
142
0.0
143
25.4
144
1.0
145
0.0
146
1.0
147
0.75
 71
0.0
 72
0.0
 73
0
 74
0
 75
0
 76
0
 77
1
 78
8
 79
2
170
0
171
1
172
0
173
0
174
0
175
0
176
0
177
0
178
0
270
2
179
2
271
2
272
2
273
2
274
2
275
0
280
0
281
0
282
0
283
1
284
8
285
0
286
0
287
3
288
0
340
11
278
44
341
21D
342
21D
343
21D
344
21D
  0
ENDTAB
  0
ENDSEC
  0
SECTION
  2
BLOCKS
  0
BLOCK
  5
20
100
AcDbEntity
  8
0
100
AcDbBlockBegin
  2
*Model_Space
 70
0
 10
0.0
 20
0.0
 30
0.0
  3
*Model_Space
  1

  0
ENDBLK
  5
21
100
AcDbEntity
  8
0
100
AcDbBlockEnd
  0
BLOCK
  5
1C
100
AcDbEntity
  8
0
100
AcDbBlockBegin
  2
*Paper_Space
 70
0
 10
0.0
 20
0.0
 30
0.0
  3
*Paper_Space
  1

  0
ENDBLK
  5
1D
100
AcDbEntity
  8
0
100
AcDbBlockEnd
  0
BLOCK
  5
224
100
AcDbEntity
  8
0
100
AcDbBlockBegin
  2
_FILLED
 70
64
 10
0.0
 20
0.0
  3
_FILLED
  1

  0
SOLID
  5
225
100
AcDbEntity
  8
0
  6
BYBLOCK
 62
0
100
AcDbTrace
 10
0.0
 20
0.0
 11
-1.0
 21
0.3166666667
 12
-1.0
 22
-0.3166666667
 13
-1.0
 23
-0.3166666667
  0
ENDBLK
  5
226
100
AcDbEntity
  8
0
  6
BYBLOCK
 62
0
100
AcDbBlockEnd
  0
BLOCK
  5
227
100
AcDbEntity
  8
0
100
AcDbBlockBegin
 62
7
  6
CONTINUOUS
  2
*D0
 70
65
 10
0.0
 20
0.0
  3
*D0
  1

  0
LINE
  5
228
100
AcDbEntity
  8
0
100
AcDbLine
 62
7
  6
CONTINUOUS
 10
138.2415467594
 20
152.1987866607
 11
138.2415467594
 21
164.2628019512
  0
LINE
  5
229
100
AcDbEntity
  8
0
100
AcDbLine
 62
7
  6
CONTINUOUS
 10
228.2415467594
 20
152.1987866607
 11
228.2415467594
 21
164.2628019512
  0
LINE
  5
22A
100
AcDbEntity
  8
0
100
AcDbLine
 62
7
  6
CONTINUOUS
 10
138.2415467594
 20
162.7628019512
 11
183.2415467594
 21
162.7628019512
  0
LINE
  5
22B
100
AcDbEntity
  8
0
100
AcDbLine
 62
7
  6
CONTINUOUS
 10
228.2415467594
 20
162.7628019512
 11
183.2415467594
 21
162.7628019512
  0
INSERT
  5
22C
100
AcDbEntity
  8
0
100
AcDbBlockReference
 62
7
  6
CONTINUOUS
  2
_FILLED
 10
138.2415467594
 20
162.7628019512
 41
3.0
 42
3.0
 43
3.0
 50
180.0
  0
INSERT
  5
22D
100
AcDbEntity
  8
0
100
AcDbBlockReference
 62
7
  6
CONTINUOUS
  2
_FILLED
 10
228.2415467594
 20
162.7628019512
 41
3.0
 42
3.0
 43
3.0
  0
ENDBLK
  5
22E
100
AcDbEntity
  8
0
  6
BYBLOCK
 62
0
100
AcDbBlockEnd
  0
BLOCK
  5
22F
100
AcDbEntity
  8
0
100
AcDbBlockBegin
 62
7
  6
CONTINUOUS
  2
*D1
 70
65
 10
0.0
 20
0.0
  3
*D1
  1

  0
LINE
  5
230
100
AcDbEntity
  8
0
100
AcDbLine
 62
7
  6
CONTINUOUS
 10
227.7409379572
 20
152.6993954628
 11
240.3692374766
 21
152.6993954628
  0
LINE
  5
231
100
AcDbEntity
  8
0
100
AcDbLine
 62
7
  6
CONTINUOUS
 10
227.7409379572
 20
62.6993954628
 11
240.3692374766
 21
62.6993954628
  0
LINE
  5
232
100
AcDbEntity
  8
0
100
AcDbLine
 62
7
  6
CONTINUOUS
 10
238.8692374766
 20
152.6993954628
 11
238.8692374766
 21
107.6993954628
  0
LINE
  5
233
100
AcDbEntity
  8
0
100
AcDbLine
 62
7
  6
CONTINUOUS
 10
238.8692374766
 20
62.6993954628
 11
238.8692374766
 21
107.6993954628
  0
INSERT
  5
234
100
AcDbEntity
  8
0
100
AcDbBlockReference
 62
7
  6
CONTINUOUS
  2
_FILLED
 10
238.8692374766
 20
152.6993954628
 41
3.0
 42
3.0
 43
3.0
 50
90.0
  0
INSERT
  5
235
100
AcDbEntity
  8
0
100
AcDbBlockReference
 62
7
  6
CONTINUOUS
  2
_FILLED
 10
238.8692374766
 20
62.6993954628
 41
3.0
 42
3.0
 43
3.0
 50
270.0
  0
ENDBLK
  5
236
100
AcDbEntity
  8
0
  6
BYBLOCK
 62
0
100
AcDbBlockEnd
  0
BLOCK
  5
237
100
AcDbEntity
  8
0
100
AcDbBlockBegin
 62
7
  6
CONTINUOUS
  2
*D2
 70
65
 10
0.0
 20
0.0
  3
*D2
  1

  0
LINE
  5
238
100
AcDbEntity
  8
0
100
AcDbLine
 62
7
  6
CONTINUOUS
 10
84.3706044364
 20
151.576132873
 11
84.3706044364
 21
172.101368136
  0
LINE
  5
239
100
AcDbEntity
  8
0
100
AcDbLine
 62
7
  6
CONTINUOUS
 10
94.5206044364
 20
134.1203581902
 11
94.5206044364
 21
172.101368136
  0
LINE
  5
23A
100
AcDbEntity
  8
0
100
AcDbLine
 62
7
  6
CONTINUOUS
 10
84.3706044364
 20
170.601368136
 11
89.4456044364
 21
170.601368136
  0
LINE
  5
23B
100
AcDbEntity
  8
0
100
AcDbLine
 62
7
  6
CONTINUOUS
 10
89.4456044364
 20
170.601368136
 11
73.782623838
 21
170.601368136
  0
LINE
  5
23C
100
AcDbEntity
  8
0
100
AcDbLine
 62
7
  6
CONTINUOUS
 10
94.5206044364
 20
170.601368136
 11
89.4456044364
 21
170.601368136
  0
INSERT
  5
23D
100
AcDbEntity
  8
0
100
AcDbBlockReference
 62
7
  6
CONTINUOUS
  2
_FILLED
 10
84.3706044364
 20
170.601368136
 41
3.0
 42
3.0
 43
3.0
 50
180.0
  0
INSERT
  5
23E
100
AcDbEntity
  8
0
100
AcDbBlockReference
 62
7
  6
CONTINUOUS
  2
_FILLED
 10
94.5206044364
 20
170.601368136
 41
3.0
 42
3.0
 43
3.0
  0
ENDBLK
  5
23F
100
AcDbEntity
  8
0
  6
BYBLOCK
 62
0
100
AcDbBlockEnd
  0
BLOCK
  5
240
100
AcDbEntity
  8
0
100
AcDbBlockBegin
 62
7
  6
CONTINUOUS
  2
*D3
 70
65
 10
0.0
 20
0.0
  3
*D3
  1

  0
LINE
  5
241
100
AcDbEntity
  8
0
100
AcDbLine
 62
7
  6
CONTINUOUS
 10
91.5206044364
 20
149.4032929824
 11
91.5206044364
 21
164.0459621842
  0
LINE
  5
242
100
AcDbEntity
  8
0
100
AcDbLine
 62
7
  6
CONTINUOUS
 10
84.3706044364
 20
151.576132873
 11
84.3706044364
 21
164.0459621842
  0
LINE
  5
243
100
AcDbEntity
  8
0
100
AcDbLine
 62
7
  6
CONTINUOUS
 10
91.5206044364
 20
162.5459621842
 11
87.9456044364
 21
162.5459621842
  0
LINE
  5
244
100
AcDbEntity
  8
0
100
AcDbLine
 62
7
  6
CONTINUOUS
 10
84.3706044364
 20
162.5459621842
 11
87.9456044364
 21
162.5459621842
  0
LINE
  5
245
100
AcDbEntity
  8
0
100
AcDbLine
 62
7
  6
CONTINUOUS
 10
87.9456044364
 20
162.5459621842
 11
75.3002186787
 21
162.5459621842
  0
INSERT
  5
246
100
AcDbEntity
  8
0
100
AcDbBlockReference
 62
7
  6
CONTINUOUS
  2
_FILLED
 10
91.5206044364
 20
162.5459621842
 41
3.0
 42
3.0
 43
3.0
  0
INSERT
  5
247
100
AcDbEntity
  8
0
100
AcDbBlockReference
 62
7
  6
CONTINUOUS
  2
_FILLED
 10
84.3706044364
 20
162.5459621842
 41
3.0
 42
3.0
 43
3.0
 50
180.0
  0
ENDBLK
  5
248
100
AcDbEntity
  8
0
  6
BYBLOCK
 62
0
100
AcDbBlockEnd
  0
ENDSEC
  0
SECTION
  2
ENTITIES
  0
DIMENSION
  5
249
100
AcDbEntity
  8
0
100
AcDbDimension
 62
7
  6
CONTINUOUS
  2
*D0
 10
228.2415467594
 20
162.7628019512
 11
180.8844039022
 21
162.7628019512
 70
160
 71
2
 72
2
 41
0.9
 42
90.0
  3
DIMSTYLE_1
100
AcDbAlignedDimension
 13
138.2415467594
 23
151.6987866607
 14
228.2415467594
 24
151.6987866607
100
AcDbRotatedDimension
  0
DIMENSION
  5
24A
100
AcDbEntity
  8
0
100
AcDbDimension
 62
7
  6
CONTINUOUS
  2
*D1
 10
238.8692374766
 20
62.6993954628
 11
238.8692374766
 21
105.3422526057
 70
160
 71
2
 72
2
 41
0.9
 42
90.0
  3
DIMSTYLE_1
100
AcDbAlignedDimension
 13
227.2409379572
 23
152.6993954628
 14
227.2409379572
 24
62.6993954628
 50
270.0
100
AcDbRotatedDimension
  0
DIMENSION
  5
24B
100
AcDbEntity
  8
0
100
AcDbDimension
 62
7
  6
CONTINUOUS
  2
*D2
 10
94.5206044364
 20
170.601368136
 11
73.782623838
 21
170.601368136
 70
160
 71
3
 72
2
 41
0.9
 42
10.15
  3
DIMSTYLE_1
100
AcDbAlignedDimension
 13
84.3706044364
 23
151.076132873
 14
94.5206044364
 24
133.6203581902
100
AcDbRotatedDimension
  0
DIMENSION
  5
24C
100
AcDbEntity
  8
0
100
AcDbDimension
 62
7
  6
CONTINUOUS
  2
*D3
 10
84.3706044364
 20
162.5459621842
 11
75.3002186787
 21
162.5459621842
 70
160
 71
3
 72
2
 41
0.9
 42
7.15
  3
DIMSTYLE_1
100
AcDbAlignedDimension
 13
91.5206044364
 23
148.9032929824
 14
84.3706044364
 24
151.076132873
 50
180.0
100
AcDbRotatedDimension
  0
LINE
  5
24D
100
AcDbEntity
  8
0
100
AcDbLine
 62
7
  6
CONTINUOUS
 10
139.4215612894
 20
152.4900947852
 11
139.4359871049
 21
152.5055639194
  0
LINE
  5
24E
100
AcDbEntity
  8
0
100
AcDbLine
 62
7
  6
CONTINUOUS
 10
138.2415467594
 20
151.6987866607
 11
139.2421555615
 21
152.6993954628
  0
LINE
  5
24F
100
AcDbEntity
  8
0
100
AcDbLine
 62
7
  6
CONTINUOUS
 10
139.4215612894
 20
152.4900947852
 11
138.450847437
 21
151.5193809328
  0
LINE
  5
250
100
AcDbEntity
  8
0
100
AcDbLine
 62
7
  6
CONTINUOUS
 10
139.8648093491
 20
151.4706644227
 11
139.4702777995
 21
151.076132873
  0
LINE
  5
251
100
AcDbEntity
  8
0
100
AcDbLine
 62
7
  6
CONTINUOUS
 10
138.4353783028
 20
151.5049551173
 11
138.450847437
 21
151.5193809328
  0
LINE
  5
252
100
AcDbEntity
  8
0
100
AcDbLine
 62
7
  6
CONTINUOUS
 10
138.450847437
 20
63.8794099929
 11
138.4353783028
 21
63.8938358084
  0
LINE
  5
253
100
AcDbEntity
  8
0
100
AcDbLine
 62
7
  6
CONTINUOUS
 10
139.2421555615
 20
62.6993954628
 11
138.2415467594
 21
63.700004265
  0
LINE
  5
254
100
AcDbEntity
  8
0
100
AcDbLine
 62
7
  6
CONTINUOUS
 10
138.450847437
 20
63.8794099929
 11
139.4215612894
 21
62.9086961405
  0
LINE
  5
255
100
AcDbEntity
  8
0
100
AcDbLine
 62
7
  6
CONTINUOUS
 10
139.4702777995
 20
64.3226580526
 11
139.8648093491
 21
63.928126503
  0
LINE
  5
256
100
AcDbEntity
  8
0
100
AcDbLine
 62
7
  6
CONTINUOUS
 10
139.4359871049
 20
62.8932270063
 11
139.4215612894
 21
62.9086961405
  0
LINE
  5
257
100
AcDbEntity
  8
0
100
AcDbLine
 62
7
  6
CONTINUOUS
 10
138.2415467594
 20
151.6987866607
 11
138.2415467594
 21
63.700004265
  0
LINE
  5
258
100
AcDbEntity
  8
0
100
AcDbLine
 62
7
  6
CONTINUOUS
 10
138.4353783028
 20
151.5049551173
 11
138.4353783028
 21
63.8938358084
  0
LINE
  5
259
100
AcDbEntity
  8
0
100
AcDbLine
 62
7
  6
CONTINUOUS
 10
139.4702777995
 20
151.076132873
 11
139.4702777995
 21
64.3226580526
  0
LINE
  5
25A
100
AcDbEntity
  8
0
100
AcDbLine
 62
7
  6
CONTINUOUS
 10
139.2421555615
 20
62.6993954628
 11
227.2409379572
 21
62.6993954628
  0
LINE
  5
25B
100
AcDbEntity
  8
0
100
AcDbLine
 62
7
  6
CONTINUOUS
 10
139.4359871049
 20
62.8932270063
 11
227.0471064138
 21
62.8932270063
  0
LINE
  5
25C
100
AcDbEntity
  8
0
100
AcDbLine
 62
7
  6
CONTINUOUS
 10
139.8648093491
 20
63.928126503
 11
226.6182841696
 21
63.928126503
  0
LWPOLYLINE
  5
25D
100
AcDbEntity
  8
0
100
AcDbPolyline
 62
7
  6
CONTINUOUS
 90
10
 70
0
 43
0.3500000006
 10
181.3129711304
 20
163.5128067627
 10
182.1701271973
 20
164.3699447021
 10
182.3844116821
 20
165.2270826416
 10
182.3844116821
 20
166.0842387085
 10
181.955824585
 20
166.5128076782
 10
181.3129711304
 20
166.5128076782
 10
180.8844021606
 20
166.0842387085
 10
180.8844021606
 20
165.2270826416
 10
181.3129711304
 20
164.7985136719
 10
182.2415493164
 20
164.7985136719
  0
LINE
  5
25E
100
AcDbEntity
  8
0
100
AcDbLine
 62
7
  6
CONTINUOUS
 10
139.8648093491
 20
63.928126503
 11
139.4215612894
 21
62.9086961405
  0
LINE
  5
25F
100
AcDbEntity
  8
0
100
AcDbLine
 62
7
  6
CONTINUOUS
 10
227.0128157192
 20
151.076132873
 11
228.0322460817
 21
151.5193809328
  0
LINE
  5
260
100
AcDbEntity
  8
0
100
AcDbLine
 62
7
  6
CONTINUOUS
 10
227.0128157192
 20
64.3226580526
 11
228.0322460817
 21
63.8794099929
  0
LINE
  5
261
100
AcDbEntity
  8
0
100
AcDbLine
 62
7
  6
CONTINUOUS
 10
139.8648093491
 20
151.4706644227
 11
139.4215612894
 21
152.4900947852
  0
LINE
  5
262
100
AcDbEntity
  8
0
100
AcDbLine
 62
7
  6
CONTINUOUS
 10
163.5915467594
 20
100.9993954628
 11
163.5915467594
 21
114.3993954628
  0
LINE
  5
263
100
AcDbEntity
  8
0
100
AcDbLine
 62
7
  6
CONTINUOUS
 10
164.0915467594
 20
100.9993954628
 11
164.0915467594
 21
114.3993954628
  0
LINE
  5
264
100
AcDbEntity
  8
0
100
AcDbLine
 62
250
  6
CONTINUOUS
 10
165.2915467594
 20
116.0993954628
 11
165.2915467594
 21
115.5993954628
  0
LINE
  5
265
100
AcDbEntity
  8
0
100
AcDbLine
 62
250
  6
CONTINUOUS
 10
165.2915467594
 20
99.2993954628
 11
165.2915467594
 21
99.7993954628
  0
LINE
  5
266
100
AcDbEntity
  8
0
100
AcDbLine
 62
7
  6
CONTINUOUS
 10
201.1915467594
 20
99.2993954628
 11
187.7915467594
 21
99.2993954628
  0
LINE
  5
267
100
AcDbEntity
  8
0
100
AcDbLine
 62
7
  6
CONTINUOUS
 10
178.6915467594
 20
99.2993954628
 11
165.2915467594
 21
99.2993954628
  0
LINE
  5
268
100
AcDbEntity
  8
0
100
AcDbLine
 62
250
  6
CONTINUOUS
 10
178.6915467594
 20
116.0993954628
 11
178.6915467594
 21
115.5993954628
  0
LINE
  5
269
100
AcDbEntity
  8
0
100
AcDbLine
 62
250
  6
CONTINUOUS
 10
178.6915467594
 20
99.2993954628
 11
178.6915467594
 21
99.7993954628
  0
LINE
  5
26A
100
AcDbEntity
  8
0
100
AcDbLine
 62
7
  6
CONTINUOUS
 10
201.1915467594
 20
99.7993954628
 11
187.7915467594
 21
99.7993954628
  0
LINE
  5
26B
100
AcDbEntity
  8
0
100
AcDbLine
 62
7
  6
CONTINUOUS
 10
178.6915467594
 20
99.7993954628
 11
165.2915467594
 21
99.7993954628
  0
LINE
  5
26C
100
AcDbEntity
  8
0
100
AcDbLine
 62
250
  6
CONTINUOUS
 10
202.8915467594
 20
100.9993954628
 11
202.3915467594
 21
100.9993954628
  0
LINE
  5
26D
100
AcDbEntity
  8
0
100
AcDbLine
 62
250
  6
CONTINUOUS
 10
180.3915467594
 20
100.9993954628
 11
179.8915467594
 21
100.9993954628
  0
LINE
  5
26E
100
AcDbEntity
  8
0
100
AcDbLine
 62
250
  6
CONTINUOUS
 10
163.5915467594
 20
100.9993954628
 11
164.0915467594
 21
100.9993954628
  0
LINE
  5
26F
100
AcDbEntity
  8
0
100
AcDbLine
 62
250
  6
CONTINUOUS
 10
186.0915467594
 20
100.9993954628
 11
186.5915467594
 21
100.9993954628
  0
LINE
  5
270
100
AcDbEntity
  8
0
100
AcDbLine
 62
7
  6
CONTINUOUS
 10
179.8915467594
 20
114.3993954628
 11
179.8915467594
 21
100.9993954628
  0
LINE
  5
271
100
AcDbEntity
  8
0
100
AcDbLine
 62
7
  6
CONTINUOUS
 10
180.3915467594
 20
114.3993954628
 11
180.3915467594
 21
100.9993954628
  0
LWPOLYLINE
  5
272
100
AcDbEntity
  8
0
100
AcDbPolyline
 62
7
  6
CONTINUOUS
 90
13
 70
0
 43
0.3500000006
 10
183.2415496216
 20
164.3699447021
 10
183.2415496216
 20
165.6556516113
 10
183.4558341064
 20
166.0842387085
 10
183.8844030762
 20
166.5128076782
 10
184.098687561
 20
166.5128076782
 10
184.5272565308
 20
166.0842387085
 10
184.7415410156
 20
165.6556516113
 10
184.7415410156
 20
164.3699447021
 10
184.5272565308
 20
163.9413757324
 10
184.098687561
 20
163.5128067627
 10
183.8844030762
 20
163.5128067627
 10
183.4558341064
 20
163.9413757324
 10
183.2415496216
 20
164.3699447021
  0
LINE
  5
273
100
AcDbEntity
  8
0
100
AcDbLine
 62
7
  6
CONTINUOUS
 10
138.4353783028
 20
63.8938358084
 11
138.2415467594
 21
63.700004265
  0
LINE
  5
274
100
AcDbEntity
  8
0
100
AcDbLine
 62
7
  6
CONTINUOUS
 10
227.0471064138
 20
152.5055639194
 11
227.2409379572
 21
152.6993954628
  0
LWPOLYLINE
  5
275
100
AcDbEntity
  8
0
100
AcDbPolyline
 62
7
  6
CONTINUOUS
 90
13
 70
0
 43
0.3500000006
 10
237.2620863647
 20
107.6993935547
 10
235.9763794556
 20
107.6993935547
 10
235.5478104858
 20
107.9136780396
 10
235.1192415161
 20
108.342256073
 10
235.1192415161
 20
108.5565405579
 10
235.5478104858
 20
108.9851095276
 10
235.9763794556
 20
109.1993940125
 10
237.2620863647
 20
109.1993940125
 10
237.6906734619
 20
108.9851095276
 10
238.1192424316
 20
108.5565405579
 10
238.1192424316
 20
108.342256073
 10
237.6906734619
 20
107.9136780396
 10
237.2620863647
 20
107.6993935547
  0
LINE
  5
276
100
AcDbEntity
  8
0
100
AcDbLine
 62
7
  6
CONTINUOUS
 10
138.4353783028
 20
151.5049551173
 11
138.2415467594
 21
151.6987866607
  0
LINE
  5
277
100
AcDbEntity
  8
0
100
AcDbLine
 62
7
  6
CONTINUOUS
 10
227.0471064138
 20
62.8932270063
 11
227.2409379572
 21
62.6993954628
  0
LINE
  5
278
100
AcDbEntity
  8
0
100
AcDbLine
 62
7
  6
CONTINUOUS
 10
186.0915467594
 20
100.9993954628
 11
186.0915467594
 21
114.3993954628
  0
LINE
  5
279
100
AcDbEntity
  8
0
100
AcDbLine
 62
7
  6
CONTINUOUS
 10
186.5915467594
 20
100.9993954628
 11
186.5915467594
 21
114.3993954628
  0
LINE
  5
27A
100
AcDbEntity
  8
0
100
AcDbLine
 62
250
  6
CONTINUOUS
 10
187.7915467594
 20
116.0993954628
 11
187.7915467594
 21
115.5993954628
  0
LINE
  5
27B
100
AcDbEntity
  8
0
100
AcDbLine
 62
250
  6
CONTINUOUS
 10
187.7915467594
 20
99.2993954628
 11
187.7915467594
 21
99.7993954628
  0
LINE
  5
27C
100
AcDbEntity
  8
0
100
AcDbLine
 62
7
  6
CONTINUOUS
 10
139.4359871049
 20
62.8932270063
 11
139.2421555615
 21
62.6993954628
  0
LINE
  5
27D
100
AcDbEntity
  8
0
100
AcDbLine
 62
7
  6
CONTINUOUS
 10
228.0477152159
 20
151.5049551173
 11
228.2415467594
 21
151.6987866607
  0
LINE
  5
27E
100
AcDbEntity
  8
0
100
AcDbLine
 62
7
  6
CONTINUOUS
 10
139.4359871049
 20
152.5055639194
 11
139.2421555615
 21
152.6993954628
  0
LINE
  5
27F
100
AcDbEntity
  8
0
100
AcDbLine
 62
7
  6
CONTINUOUS
 10
228.0477152159
 20
63.8938358084
 11
228.2415467594
 21
63.700004265
  0
LINE
  5
280
100
AcDbEntity
  8
0
100
AcDbLine
 62
250
  6
CONTINUOUS
 10
202.8915467594
 20
114.3993954628
 11
202.3915467594
 21
114.3993954628
  0
LINE
  5
281
100
AcDbEntity
  8
0
100
AcDbLine
 62
250
  6
CONTINUOUS
 10
180.3915467594
 20
114.3993954628
 11
179.8915467594
 21
114.3993954628
  0
LINE
  5
282
100
AcDbEntity
  8
0
100
AcDbLine
 62
250
  6
CONTINUOUS
 10
163.5915467594
 20
114.3993954628
 11
164.0915467594
 21
114.3993954628
  0
LINE
  5
283
100
AcDbEntity
  8
0
100
AcDbLine
 62
250
  6
CONTINUOUS
 10
186.0915467594
 20
114.3993954628
 11
186.5915467594
 21
114.3993954628
  0
LINE
  5
284
100
AcDbEntity
  8
0
100
AcDbLine
 62
7
  6
CONTINUOUS
 10
165.2915467594
 20
115.5993954628
 11
178.6915467594
 21
115.5993954628
  0
LINE
  5
285
100
AcDbEntity
  8
0
100
AcDbLine
 62
7
  6
CONTINUOUS
 10
187.7915467594
 20
115.5993954628
 11
201.1915467594
 21
115.5993954628
  0
LINE
  5
286
100
AcDbEntity
  8
0
100
AcDbLine
 62
7
  6
CONTINUOUS
 10
165.2915467594
 20
116.0993954628
 11
178.6915467594
 21
116.0993954628
  0
LINE
  5
287
100
AcDbEntity
  8
0
100
AcDbLine
 62
7
  6
CONTINUOUS
 10
187.7915467594
 20
116.0993954628
 11
201.1915467594
 21
116.0993954628
  0
LINE
  5
288
100
AcDbEntity
  8
0
100
AcDbLine
 62
250
  6
CONTINUOUS
 10
201.1915467594
 20
116.0993954628
 11
201.1915467594
 21
115.5993954628
  0
LINE
  5
289
100
AcDbEntity
  8
0
100
AcDbLine
 62
250
  6
CONTINUOUS
 10
201.1915467594
 20
99.2993954628
 11
201.1915467594
 21
99.7993954628
  0
LINE
  5
28A
100
AcDbEntity
  8
0
100
AcDbLine
 62
7
  6
CONTINUOUS
 10
202.3915467594
 20
114.3993954628
 11
202.3915467594
 21
100.9993954628
  0
LINE
  5
28B
100
AcDbEntity
  8
0
100
AcDbLine
 62
7
  6
CONTINUOUS
 10
202.8915467594
 20
114.3993954628
 11
202.8915467594
 21
100.9993954628
  0
LINE
  5
28C
100
AcDbEntity
  8
0
100
AcDbLine
 62
7
  6
CONTINUOUS
 10
226.6182841696
 20
151.4706644227
 11
227.0615322293
 21
152.4900947852
  0
LINE
  5
28D
100
AcDbEntity
  8
0
100
AcDbLine
 62
7
  6
CONTINUOUS
 10
139.4702777995
 20
64.3226580526
 11
138.450847437
 21
63.8794099929
  0
LINE
  5
28E
100
AcDbEntity
  8
0
100
AcDbLine
 62
7
  6
CONTINUOUS
 10
139.4702777995
 20
151.076132873
 11
138.450847437
 21
151.5193809328
  0
LINE
  5
28F
100
AcDbEntity
  8
0
100
AcDbLine
 62
7
  6
CONTINUOUS
 10
226.6182841696
 20
63.928126503
 11
227.0615322293
 21
62.9086961405
  0
LWPOLYLINE
  5
290
100
AcDbEntity
  8
0
100
AcDbPolyline
 62
7
  6
CONTINUOUS
 90
10
 70
0
 43
0.3500000006
 10
238.1192424316
 20
105.7708241272
 10
237.2620863647
 20
106.6279711304
 10
236.4049484253
 20
106.8422556152
 10
235.5478104858
 20
106.8422556152
 10
235.1192415161
 20
106.4136775818
 10
235.1192415161
 20
105.7708241272
 10
235.5478104858
 20
105.3422551575
 10
236.4049484253
 20
105.3422551575
 10
236.833517395
 20
105.7708241272
 10
236.833517395
 20
106.6993932495
  0
LINE
  5
291
100
AcDbEntity
  8
0
100
AcDbLine
 62
7
  6
CONTINUOUS
 10
227.0128157192
 20
64.3226580526
 11
227.0128157192
 21
151.076132873
  0
LINE
  5
292
100
AcDbEntity
  8
0
100
AcDbLine
 62
7
  6
CONTINUOUS
 10
228.0477152159
 20
63.8938358084
 11
228.0477152159
 21
151.5049551173
  0
LINE
  5
293
100
AcDbEntity
  8
0
100
AcDbLine
 62
7
  6
CONTINUOUS
 10
228.2415467594
 20
63.700004265
 11
228.2415467594
 21
151.6987866607
  0
LINE
  5
294
100
AcDbEntity
  8
0
100
AcDbLine
 62
7
  6
CONTINUOUS
 10
226.6182841696
 20
151.4706644227
 11
139.8648093491
 21
151.4706644227
  0
LINE
  5
295
100
AcDbEntity
  8
0
100
AcDbLine
 62
7
  6
CONTINUOUS
 10
227.0471064138
 20
152.5055639194
 11
139.4359871049
 21
152.5055639194
  0
LINE
  5
296
100
AcDbEntity
  8
0
100
AcDbLine
 62
7
  6
CONTINUOUS
 10
227.2409379572
 20
152.6993954628
 11
139.2421555615
 21
152.6993954628
  0
LINE
  5
297
100
AcDbEntity
  8
0
100
AcDbLine
 62
7
  6
CONTINUOUS
 10
227.0615322293
 20
62.9086961405
 11
227.0471064138
 21
62.8932270063
  0
LINE
  5
298
100
AcDbEntity
  8
0
100
AcDbLine
 62
7
  6
CONTINUOUS
 10
226.6182841696
 20
63.928126503
 11
227.0128157192
 21
64.3226580526
  0
LINE
  5
299
100
AcDbEntity
  8
0
100
AcDbLine
 62
7
  6
CONTINUOUS
 10
227.0615322293
 20
62.9086961405
 11
228.0322460817
 21
63.8794099929
  0
LINE
  5
29A
100
AcDbEntity
  8
0
100
AcDbLine
 62
7
  6
CONTINUOUS
 10
228.2415467594
 20
63.700004265
 11
227.2409379572
 21
62.6993954628
  0
LINE
  5
29B
100
AcDbEntity
  8
0
100
AcDbLine
 62
7
  6
CONTINUOUS
 10
228.0477152159
 20
63.8938358084
 11
228.0322460817
 21
63.8794099929
  0
LINE
  5
29C
100
AcDbEntity
  8
0
100
AcDbLine
 62
7
  6
CONTINUOUS
 10
228.0322460817
 20
151.5193809328
 11
228.0477152159
 21
151.5049551173
  0
LINE
  5
29D
100
AcDbEntity
  8
0
100
AcDbLine
 62
7
  6
CONTINUOUS
 10
227.0128157192
 20
151.076132873
 11
226.6182841696
 21
151.4706644227
  0
LINE
  5
29E
100
AcDbEntity
  8
0
100
AcDbLine
 62
7
  6
CONTINUOUS
 10
228.0322460817
 20
151.5193809328
 11
227.0615322293
 21
152.4900947852
  0
LINE
  5
29F
100
AcDbEntity
  8
0
100
AcDbLine
 62
7
  6
CONTINUOUS
 10
227.2409379572
 20
152.6993954628
 11
228.2415467594
 21
151.6987866607
  0
LINE
  5
2A0
100
AcDbEntity
  8
0
100
AcDbLine
 62
7
  6
CONTINUOUS
 10
227.0471064138
 20
152.5055639194
 11
227.0615322293
 21
152.4900947852
  0
LWPOLYLINE
  5
2A1
100
AcDbEntity
  8
0
100
AcDbPolyline
 62
7
  6
CONTINUOUS
 90
3
 70
0
 43
0.3500000006
 10
73.7826247101
 20
173.494229187
 10
74.6397671814
 20
174.3513671265
 10
74.6397671814
 20
171.3513662109
  0
LWPOLYLINE
  5
2A2
100
AcDbEntity
  8
0
100
AcDbPolyline
 62
7
  6
CONTINUOUS
 90
3
 70
0
 43
0.3500000006
 10
79.5683375244
 20
173.494229187
 10
80.4254845276
 20
174.3513671265
 10
80.4254845276
 20
171.3513662109
  0
LWPOLYLINE
  5
2A3
100
AcDbEntity
  8
0
100
AcDbPolyline
 62
7
  6
CONTINUOUS
 90
3
 70
0
 43
0.3500000006
 10
79.3716457214
 20
165.4388111572
 10
80.2287927246
 20
166.2959672241
 10
80.2287927246
 20
163.2959663086
  0
LINE
  5
2A4
100
AcDbEntity
  8
0
100
AcDbLine
 62
7
  6
CONTINUOUS
 10
85.3699952634
 20
62.8932270063
 11
90.9206044364
 21
62.6993954628
  0
LINE
  5
2A5
100
AcDbEntity
  8
0
100
AcDbLine
 62
7
  6
CONTINUOUS
 10
85.3699952634
 20
63.8938358084
 11
90.9206044364
 21
63.700004265
  0
LINE
  5
2A6
100
AcDbEntity
  8
0
100
AcDbLine
 62
7
  6
CONTINUOUS
 10
90.9206044364
 20
64.94135155
 11
91.5206044364
 21
64.8993954628
  0
LINE
  5
2A7
100
AcDbEntity
  8
0
100
AcDbLine
 62
7
  6
CONTINUOUS
 10
84.3706044364
 20
151.076132873
 11
85.3550568942
 21
151.5193809328
  0
LINE
  5
2A8
100
AcDbEntity
  8
0
100
AcDbLine
 62
250
  6
CONTINUOUS
 10
90.9206044364
 20
66.5374540304
 11
91.5206044364
 21
66.4954979433
  0
LINE
  5
2A9
100
AcDbEntity
  8
0
100
AcDbLine
 62
7
  6
CONTINUOUS
 10
84.3706044364
 20
64.3226580526
 11
85.3550568942
 21
63.8794099929
  0
LINE
  5
2AA
100
AcDbEntity
  8
0
100
AcDbLine
 62
7
  6
CONTINUOUS
 10
84.3706044364
 20
151.4706644227
 11
85.3699952634
 21
152.5055639194
  0
LINE
  5
2AB
100
AcDbEntity
  8
0
100
AcDbLine
 62
7
  6
CONTINUOUS
 10
84.3706044364
 20
63.928126503
 11
85.3699952634
 21
62.8932270063
  0
LWPOLYLINE
  5
2AC
100
AcDbEntity
  8
0
100
AcDbPolyline
 62
7
  6
CONTINUOUS
 90
3
 70
0
 43
0.3500000006
 10
78.5683372192
 20
171.6370909424
 10
78.4969060364
 20
171.4227883301
 10
78.3540527344
 20
171.1370817261
  0
LWPOLYLINE
  5
2AD
100
AcDbEntity
  8
0
100
AcDbPolyline
 62
7
  6
CONTINUOUS
 90
3
 70
0
 43
0.3500000006
 10
78.3716454163
 20
163.5816729126
 10
78.3002142334
 20
163.3673884277
 10
78.1573609314
 20
163.0816818237
  0
LWPOLYLINE
  5
2AE
100
AcDbEntity
  8
0
100
AcDbPolyline
 62
250
  6
CONTINUOUS
 90
5
 70
0
 10
93.4798322697
 20
81.1519531268
 10
93.4602410515
 20
81.1505109922
 10
93.4400257155
 20
81.1494698315
 10
93.4190762749
 20
81.1487912384
 10
93.3973927296
 20
81.1484750946
  0
LINE
  5
2AF
100
AcDbEntity
  8
0
100
AcDbLine
 62
7
  6
CONTINUOUS
 10
92.4464415874
 20
80.5492660241
 11
91.5206044364
 21
80.5476501318
  0
LINE
  5
2B0
100
AcDbEntity
  8
0
100
AcDbLine
 62
250
  6
CONTINUOUS
 10
92.4463770201
 20
80.7717162189
 11
91.5206044364
 21
80.7712980244
  0
LWPOLYLINE
  5
2B1
100
AcDbEntity
  8
0
100
AcDbPolyline
 62
7
  6
CONTINUOUS
 90
15
 70
0
 10
93.3975476908
 20
81.1284813988
 10
93.4213602566
 20
81.1287374117
 10
93.4497376157
 20
81.1296583213
 10
93.4776079528
 20
81.1312122132
 10
93.5048161683
 20
81.1333639496
 10
93.531446963
 20
81.1361209094
 10
93.5574401341
 20
81.1394836319
 10
93.5824957685
 20
81.1434362227
 10
93.6066390507
 20
81.1480096692
 10
93.6299877623
 20
81.153278738
 10
93.6526057302
 20
81.1593694189
 10
93.6750265515
 20
81.1665709239
 10
93.6970889575
 20
81.175139133
 10
93.7179496881
 20
81.1849835319
 10
93.7206305563
 20
81.1863907853
  0
LINE
  5
2B2
100
AcDbEntity
  8
0
100
AcDbLine
 62
7
  6
CONTINUOUS
 10
91.5206044364
 20
81.1270279877
 11
93.3975476244
 21
81.1284813944
  0
LINE
  5
2B3
100
AcDbEntity
  8
0
100
AcDbLine
 62
250
  6
CONTINUOUS
 10
93.3973927296
 20
81.1484750946
 11
91.5206044364
 21
81.1470118877
  0
LINE
  5
2B4
100
AcDbEntity
  8
0
100
AcDbLine
 62
7
  6
CONTINUOUS
 10
92.4707288153
 20
82.4993954628
 11
91.5206044364
 21
82.4993954628
  0
LINE
  5
2B5
100
AcDbEntity
  8
0
100
AcDbLine
 62
7
  6
CONTINUOUS
 10
91.5206044364
 20
82.6493954628
 11
91.6706044364
 21
82.6493954628
  0
LINE
  5
2B6
100
AcDbEntity
  8
0
100
AcDbLine
 62
7
  6
CONTINUOUS
 10
91.9706044364
 20
82.6493954628
 11
92.1706044364
 21
82.6493954628
  0
LINE
  5
2B7
100
AcDbEntity
  8
0
100
AcDbLine
 62
7
  6
CONTINUOUS
 10
91.5206044364
 20
81.9435755883
 11
94.3310716277
 21
81.8194087952
  0
LINE
  5
2B8
100
AcDbEntity
  8
0
100
AcDbLine
 62
7
  6
CONTINUOUS
 10
92.5702325343
 20
82.494432653
 11
94.5206044364
 21
82.2993954628
  0
LWPOLYLINE
  5
2B9
100
AcDbEntity
  8
0
100
AcDbPolyline
 62
7
  6
CONTINUOUS
 90
16
 70
0
 10
94.367515168
 20
81.8144033679
 10
94.3836182981
 20
81.8118609381
 10
94.3993954302
 20
81.8085928022
 10
94.4147229319
 20
81.8045989602
 10
94.4294612769
 20
81.7998594897
 10
94.4435024965
 20
81.794394313
 10
94.4567624183
 20
81.7882631975
 10
94.4691143017
 20
81.7814472611
 10
94.4804240132
 20
81.7739653858
 10
94.4905837258
 20
81.765933984
 10
94.4994946622
 20
81.7572944119
 10
94.5069895339
 20
81.7481053134
 10
94.5129025353
 20
81.7386590315
 10
94.5171615203
 20
81.7290530142
 10
94.5197399544
 20
81.7191898137
 10
94.5206044364
 20
81.7090694299
  0
LINE
  5
2BA
100
AcDbEntity
  8
0
100
AcDbLine
 62
7
  6
CONTINUOUS
 10
91.6706044364
 20
132.7493954628
 11
91.8206044364
 21
132.8993954628
  0
LINE
  5
2BB
100
AcDbEntity
  8
0
100
AcDbLine
 62
7
  6
CONTINUOUS
 10
92.1706044364
 20
132.7493954628
 11
92.3206044364
 21
132.8993954628
  0
LINE
  5
2BC
100
AcDbEntity
  8
0
100
AcDbLine
 62
7
  6
CONTINUOUS
 10
91.6706044364
 20
82.6493954628
 11
91.8206044364
 21
82.4993954628
  0
LINE
  5
2BD
100
AcDbEntity
  8
0
100
AcDbLine
 62
7
  6
CONTINUOUS
 10
92.1706044364
 20
82.6493954628
 11
92.3206044364
 21
82.4993954628
  0
LWPOLYLINE
  5
2BE
100
AcDbEntity
  8
0
100
AcDbPolyline
 62
7
  6
CONTINUOUS
 90
4
 70
0
 43
0.3500000006
 10
75.3002178497
 20
165.6531137695
 10
75.3002178497
 20
166.2959672241
 10
76.8002228394
 20
166.2959672241
 10
75.9430758362
 20
163.2959663086
  0
LWPOLYLINE
  5
2BF
100
AcDbEntity
  8
0
100
AcDbPolyline
 62
7
  6
CONTINUOUS
 90
13
 70
0
 43
0.3500000006
 10
75.4969096527
 20
172.2085041504
 10
75.4969096527
 20
173.494229187
 10
75.7111941376
 20
173.9227981567
 10
76.1397676392
 20
174.3513671265
 10
76.354052124
 20
174.3513671265
 10
76.7826210938
 20
173.9227981567
 10
76.9969055786
 20
173.494229187
 10
76.9969055786
 20
172.2085041504
 10
76.7826210938
 20
171.7799351807
 10
76.354052124
 20
171.3513662109
 10
76.1397676392
 20
171.3513662109
 10
75.7111941376
 20
171.7799351807
 10
75.4969096527
 20
172.2085041504
  0
LWPOLYLINE
  5
2C0
100
AcDbEntity
  8
0
100
AcDbPolyline
 62
250
  6
CONTINUOUS
 90
9
 70
0
 10
92.5405371362
 20
80.624795438
 10
92.5477978271
 20
80.615600232
 10
92.5548437356
 20
80.6072014857
 10
92.5615906715
 20
80.5997711853
 10
92.5679133189
 20
80.5935236643
 10
92.5736879701
 20
80.5886616799
 10
92.578793305
 20
80.5853851417
 10
92.5831094851
 20
80.5838926206
 10
92.5865106701
 20
80.5843796668
  0
LWPOLYLINE
  5
2C1
100
AcDbEntity
  8
0
100
AcDbPolyline
 62
250
  6
CONTINUOUS
 90
19
 70
0
 10
92.4463770201
 20
134.6270747067
 10
92.4543348783
 20
134.6408897791
 10
92.4626457114
 20
134.6550877027
 10
92.4712760463
 20
134.6695753452
 10
92.4801932349
 20
134.6842647454
 10
92.4893372736
 20
134.6990114155
 10
92.4986222587
 20
134.7136214446
 10
92.5079754115
 20
134.7279352494
 10
92.5173262475
 20
134.7418071269
 10
92.5265814676
 20
134.7550530115
 10
92.535677167
 20
134.7675301626
 10
92.5444773928
 20
134.7789963186
 10
92.5527883814
 20
134.7891515152
 10
92.5605345139
 20
134.7978556858
 10
92.5675969697
 20
134.8049305576
 10
92.5737765353
 20
134.8101594762
 10
92.5789957916
 20
134.8134849842
 10
92.5832521422
 20
134.8149082301
 10
92.5865106701
 20
134.8144112589
  0
LWPOLYLINE
  5
2C2
100
AcDbEntity
  8
0
100
AcDbPolyline
 62
250
  6
CONTINUOUS
 90
14
 70
0
 10
92.4463770201
 20
80.7717162189
 10
92.4531501777
 20
80.7599228425
 10
92.4600301083
 20
80.7481074933
 10
92.4669998268
 20
80.7363090869
 10
92.4740031827
 20
80.7246285362
 10
92.4810580036
 20
80.713047443
 10
92.4882520134
 20
80.7014448145
 10
92.4955706869
 20
80.6898676501
 10
92.5029658003
 20
80.6784116719
 10
92.5104610253
 20
80.6670660297
 10
92.5180176872
 20
80.6559204838
 10
92.5255747608
 20
80.6450983528
 10
92.533105856
 20
80.6346750282
 10
92.5405371362
 20
80.624795438
  0
LINE
  5
2C3
100
AcDbEntity
  8
0
100
AcDbLine
 62
7
  6
CONTINUOUS
 10
84.3706044364
 20
63.928126503
 11
84.3706044364
 21
151.4706644227
  0
LINE
  5
2C4
100
AcDbEntity
  8
0
100
AcDbLine
 62
7
  6
CONTINUOUS
 10
85.3550568942
 20
62.9086961405
 11
85.3550568942
 21
63.8794099929
  0
LINE
  5
2C5
100
AcDbEntity
  8
0
100
AcDbLine
 62
7
  6
CONTINUOUS
 10
85.3550568942
 20
151.5193809328
 11
85.3550568942
 21
152.4900947852
  0
LINE
  5
2C6
100
AcDbEntity
  8
0
100
AcDbLine
 62
7
  6
CONTINUOUS
 10
85.3699952634
 20
63.8938358084
 11
85.3699952634
 21
151.5049551173
  0
LWPOLYLINE
  5
2C7
100
AcDbEntity
  8
0
100
AcDbPolyline
 62
250
  6
CONTINUOUS
 90
3
 70
0
 10
93.3975476244
 20
81.1284813944
 10
93.3975152615
 20
81.129459987
 10
93.3974753657
 20
81.1331415076
  0
LINE
  5
2C8
100
AcDbEntity
  8
0
100
AcDbLine
 62
7
  6
CONTINUOUS
 10
90.9206044364
 20
62.6993954628
 11
90.9206044364
 21
152.6993954628
  0
LINE
  5
2C9
100
AcDbEntity
  8
0
100
AcDbLine
 62
7
  6
CONTINUOUS
 10
91.5206044364
 20
64.8993954628
 11
91.5206044364
 21
150.4993954628
  0
LINE
  5
2CA
100
AcDbEntity
  8
0
100
AcDbLine
 62
250
  6
CONTINUOUS
 10
92.4464417951
 20
80.5496177509
 11
92.4463770201
 21
80.7717162189
  0
LINE
  5
2CB
100
AcDbEntity
  8
0
100
AcDbLine
 62
250
  6
CONTINUOUS
 10
92.4463770201
 20
134.6270747067
 11
92.4464416424
 21
134.849171508
  0
LWPOLYLINE
  5
2CC
100
AcDbEntity
  8
0
100
AcDbPolyline
 62
250
  6
CONTINUOUS
 90
3
 70
0
 10
93.4805958091
 20
134.2280167817
 10
93.4806373952
 20
134.2270339905
 10
93.480640503
 20
134.2233472819
  0
LINE
  5
2CD
100
AcDbEntity
  8
0
100
AcDbLine
 62
250
  6
CONTINUOUS
 10
93.3974753657
 20
81.1331415076
 11
93.3973927296
 21
81.1484750946
  0
LINE
  5
2CE
100
AcDbEntity
  8
0
100
AcDbLine
 62
250
  6
CONTINUOUS
 10
94.3310716277
 20
133.5156056548
 11
94.3310716277
 21
133.080442182
  0
LINE
  5
2CF
100
AcDbEntity
  8
0
100
AcDbLine
 62
250
  6
CONTINUOUS
 10
94.3310716277
 20
82.3183487437
 11
94.3310716277
 21
81.8194087952
  0
LINE
  5
2D0
100
AcDbEntity
  8
0
100
AcDbLine
 62
7
  6
CONTINUOUS
 10
94.5206044364
 20
133.7877598032
 11
94.5206044364
 21
133.0993954628
  0
LINE
  5
2D1
100
AcDbEntity
  8
0
100
AcDbLine
 62
7
  6
CONTINUOUS
 10
94.5206044364
 20
82.2993954628
 11
94.5206044364
 21
81.6110311225
  0
LINE
  5
2D2
100
AcDbEntity
  8
0
100
AcDbLine
 62
250
  6
CONTINUOUS
 10
93.480640503
 20
134.2233472819
 11
93.4804973523
 21
134.2080029109
  0
LWPOLYLINE
  5
2D3
100
AcDbEntity
  8
0
100
AcDbPolyline
 62
7
  6
CONTINUOUS
 90
25
 70
0
 10
94.5206044364
 20
133.6203581902
 10
94.5202011411
 20
133.6134866426
 10
94.5190045434
 20
133.606749362
 10
94.5170367396
 20
133.6001463485
 10
94.5143280192
 20
133.5936658828
 10
94.510902723
 20
133.5873196841
 10
94.5067658916
 20
133.5811429105
 10
94.5019353429
 20
133.5751326249
 10
94.4964352406
 20
133.5692917644
 10
94.4902637266
 20
133.5636642978
 10
94.4834393611
 20
133.5582478561
 10
94.4759847448
 20
133.5530448084
 10
94.4678930093
 20
133.5481062301
 10
94.4591789238
 20
133.5434272122
 10
94.4498722967
 20
133.5390126638
 10
94.4399842522
 20
133.5349283874
 10
94.4295364706
 20
133.5311732511
 10
94.4185675957
 20
133.5277483868
 10
94.4071174564
 20
133.524722993
 10
94.3952175307
 20
133.5221006851
 10
94.382919157
 20
133.5198778476
 10
94.3702996516
 20
133.5181128332
 10
94.357420768
 20
133.5168250926
 10
94.3443261698
 20
133.5159951751
 10
94.3310716277
 20
133.5156230806
  0
LWPOLYLINE
  5
2D4
100
AcDbEntity
  8
0
100
AcDbPolyline
 62
7
  6
CONTINUOUS
 90
10
 70
0
 43
0.3500000006
 10
78.3002142334
 20
163.7959573975
 10
78.3716454163
 20
163.6531131592
 10
78.3716454163
 20
163.5816729126
 10
78.2287921143
 20
163.4388105469
 10
78.1573609314
 20
163.4388105469
 10
78.0859297485
 20
163.5102507935
 10
78.0859297485
 20
163.5816729126
 10
78.1573609314
 20
163.7245352783
 10
78.2287921143
 20
163.7959573975
 10
78.3002142334
 20
163.7959573975
  0
LINE
  5
2D5
100
AcDbEntity
  8
0
100
AcDbLine
 62
7
  6
CONTINUOUS
 10
91.8206044364
 20
82.4993954628
 11
91.9706044364
 21
82.6493954628
  0
LINE
  5
2D6
100
AcDbEntity
  8
0
100
AcDbLine
 62
7
  6
CONTINUOUS
 10
91.8206044364
 20
132.8993954628
 11
91.9706044364
 21
132.7493954628
  0
LWPOLYLINE
  5
2D7
100
AcDbEntity
  8
0
100
AcDbPolyline
 62
7
  6
CONTINUOUS
 90
10
 70
0
 43
0.3500000006
 10
78.4969060364
 20
171.8513754272
 10
78.5683372192
 20
171.7085130615
 10
78.5683372192
 20
171.6370909424
 10
78.4254839172
 20
171.4942285767
 10
78.3540527344
 20
171.4942285767
 10
78.2826215515
 20
171.5656506958
 10
78.2826215515
 20
171.6370909424
 10
78.3540527344
 20
171.7799351807
 10
78.4254839172
 20
171.8513754272
 10
78.4969060364
 20
171.8513754272
  0
LINE
  5
2D8
100
AcDbEntity
  8
0
100
AcDbLine
 62
250
  6
CONTINUOUS
 10
94.5206044364
 20
81.6609294984
 11
93.6266921336
 21
81.1831859706
  0
LINE
  5
2D9
100
AcDbEntity
  8
0
100
AcDbLine
 62
250
  6
CONTINUOUS
 10
92.4463770201
 20
80.7717162189
 11
93.1180740614
 21
81.1282649847
  0
LINE
  5
2DA
100
AcDbEntity
  8
0
100
AcDbLine
 62
7
  6
CONTINUOUS
 10
94.5206044364
 20
81.6110311225
 11
92.5856163982
 21
80.5839049713
  0
LWPOLYLINE
  5
2DB
100
AcDbEntity
  8
0
100
AcDbPolyline
 62
250
  6
CONTINUOUS
 90
12
 70
0
 10
93.6266921336
 20
81.1831859706
 10
93.618705471
 20
81.1794128688
 10
93.6096771461
 20
81.1758271787
 10
93.5996071589
 20
81.1724285839
 10
93.5885262461
 20
81.1692219186
 10
93.5764036711
 20
81.1662017596
 10
93.5631472232
 20
81.1633524511
 10
93.5487028963
 20
81.1606423223
 10
93.5331246966
 20
81.1581026208
 10
93.5164824315
 20
81.1558120145
 10
93.4986893833
 20
81.1537582778
 10
93.4798322697
 20
81.1519531268
  0
LWPOLYLINE
  5
2DC
100
AcDbEntity
  8
0
100
AcDbPolyline
 62
250
  6
CONTINUOUS
 90
10
 70
0
 10
93.7204636336
 20
81.186302118
 10
93.7113323917
 20
81.1820518147
 10
93.701755125
 20
81.1787550565
 10
93.6917822996
 20
81.1764292182
 10
93.6814664423
 20
81.1750865448
 10
93.6708619384
 20
81.1747341248
 10
93.6600247284
 20
81.1753738414
 10
93.6490119212
 20
81.1770023186
 10
93.6378815109
 20
81.1796109491
 10
93.6266921336
 20
81.1831859706
  0
LINE
  5
2DD
100
AcDbEntity
  8
0
100
AcDbLine
 62
7
  6
CONTINUOUS
 10
92.5702325343
 20
132.9043582726
 11
94.5206044364
 21
133.0993954628
  0
LINE
  5
2DE
100
AcDbEntity
  8
0
100
AcDbLine
 62
7
  6
CONTINUOUS
 10
91.5206044364
 20
133.4552153374
 11
92.5224844653
 21
133.4994785228
  0
LINE
  5
2DF
100
AcDbEntity
  8
0
100
AcDbLine
 62
7
  6
CONTINUOUS
 10
91.5206044364
 20
132.7493954628
 11
91.6706044364
 21
132.7493954628
  0
LINE
  5
2E0
100
AcDbEntity
  8
0
100
AcDbLine
 62
7
  6
CONTINUOUS
 10
91.9706044364
 20
132.7493954628
 11
92.1706044364
 21
132.7493954628
  0
LINE
  5
2E1
100
AcDbEntity
  8
0
100
AcDbLine
 62
7
  6
CONTINUOUS
 10
91.5206044364
 20
132.8993954628
 11
92.4707288153
 21
132.8993954628
  0
LINE
  5
2E2
100
AcDbEntity
  8
0
100
AcDbLine
 62
250
  6
CONTINUOUS
 10
92.4463770201
 20
134.6270747067
 11
91.5206044364
 21
134.6274929013
  0
LINE
  5
2E3
100
AcDbEntity
  8
0
100
AcDbLine
 62
7
  6
CONTINUOUS
 10
92.4464415874
 20
134.8495249016
 11
91.5206044364
 21
134.8511407939
  0
LINE
  5
2E4
100
AcDbEntity
  8
0
100
AcDbLine
 62
250
  6
CONTINUOUS
 10
91.5206044364
 20
134.2431963073
 11
93.4804973523
 21
134.2080029109
  0
LINE
  5
2E5
100
AcDbEntity
  8
0
100
AcDbLine
 62
7
  6
CONTINUOUS
 10
93.4805958043
 20
134.2280167818
 11
91.5206044364
 21
134.2631816129
  0
LWPOLYLINE
  5
2E6
100
AcDbEntity
  8
0
100
AcDbPolyline
 62
250
  6
CONTINUOUS
 90
3
 70
0
 10
93.4804973523
 20
134.2080029109
 10
93.4989319918
 20
134.2074668774
 10
93.5167978625
 20
134.2066941494
  0
LINE
  5
2E7
100
AcDbEntity
  8
0
100
AcDbLine
 62
7
  6
CONTINUOUS
 10
92.5224843563
 20
133.4994785179
 11
91.5206044364
 21
133.5338663625
  0
LWPOLYLINE
  5
2E8
100
AcDbEntity
  8
0
100
AcDbPolyline
 62
250
  6
CONTINUOUS
 90
4
 70
0
 10
93.5167978625
 20
134.2066941494
 10
93.5340949642
 20
134.2056846761
 10
93.550900597
 20
134.2044091308
 10
93.5671374609
 20
134.202896639
  0
LWPOLYLINE
  5
2E9
100
AcDbEntity
  8
0
100
AcDbPolyline
 62
250
  6
CONTINUOUS
 90
14
 70
0
 10
93.5671374609
 20
134.202896639
 10
93.582573656
 20
134.2012348317
 10
93.5970921724
 20
134.1994419347
 10
93.61081002
 20
134.1974995019
 10
93.6238463285
 20
134.1954402122
 10
93.6361340125
 20
134.193300315
 10
93.6477401572
 20
134.1910433508
 10
93.6589851486
 20
134.1885928835
 10
93.670049553
 20
134.1859406369
 10
93.680752804
 20
134.1830944367
 10
93.6908735881
 20
134.1800018305
 10
93.7003381342
 20
134.1766450537
 10
93.7092202134
 20
134.173041109
 10
93.7175198258
 20
134.1691895764
  0
LWPOLYLINE
  5
2EA
100
AcDbEntity
  8
0
100
AcDbPolyline
 62
250
  6
CONTINUOUS
 90
10
 70
0
 10
93.8078008445
 20
134.166128659
 10
93.7990321094
 20
134.17021033
 10
93.7898332153
 20
134.1733773769
 10
93.7802507136
 20
134.1756137729
 10
93.770333097
 20
134.1769082008
 10
93.7601305539
 20
134.1772541104
 10
93.7496947148
 20
134.1766497515
 10
93.7390783906
 20
134.1750981826
 10
93.7283353057
 20
134.1726072557
 10
93.7175198258
 20
134.1691895764
  0
LWPOLYLINE
  5
2EB
100
AcDbEntity
  8
0
100
AcDbPolyline
 62
7
  6
CONTINUOUS
 90
15
 70
0
 10
93.8076745783
 20
134.1661952638
 10
93.7987649702
 20
134.1707346086
 10
93.777747629
 20
134.1801138856
 10
93.7556003808
 20
134.1883133325
 10
93.7330314675
 20
134.1953301783
 10
93.7100526502
 20
134.2013822697
 10
93.6862182342
 20
134.2067189859
 10
93.6616061241
 20
134.2114075994
 10
93.6361700679
 20
134.2155104451
 10
93.6098506319
 20
134.2190636609
 10
93.5829166547
 20
134.2220482876
 10
93.5554348167
 20
134.2244651098
 10
93.5273324228
 20
134.2263135031
 10
93.4987361359
 20
134.2275602246
 10
93.4805957105
 20
134.2280167808
  0
LINE
  5
2EC
100
AcDbEntity
  8
0
100
AcDbLine
 62
250
  6
CONTINUOUS
 10
93.1882762253
 20
134.2332613807
 11
92.4463770201
 21
134.6270747067
  0
LINE
  5
2ED
100
AcDbEntity
  8
0
100
AcDbLine
 62
7
  6
CONTINUOUS
 10
92.5856163982
 20
134.8148859544
 11
94.5206044364
 21
133.7877598032
  0
LINE
  5
2EE
100
AcDbEntity
  8
0
100
AcDbLine
 62
250
  6
CONTINUOUS
 10
93.7175198258
 20
134.1691895764
 11
94.5206044353
 21
133.7400686338
  0
LINE
  5
2EF
100
AcDbEntity
  8
0
100
AcDbLine
 62
7
  6
CONTINUOUS
 10
85.3699952634
 20
63.8938358084
 11
85.3550568942
 21
63.8794099929
  0
LINE
  5
2F0
100
AcDbEntity
  8
0
100
AcDbLine
 62
7
  6
CONTINUOUS
 10
85.3550568942
 20
151.5193809328
 11
85.3699952634
 21
151.5049551173
  0
LINE
  5
2F1
100
AcDbEntity
  8
0
100
AcDbLine
 62
250
  6
CONTINUOUS
 10
90.9206044364
 20
148.8613368953
 11
91.5206044364
 21
148.9032929824
  0
LINE
  5
2F2
100
AcDbEntity
  8
0
100
AcDbLine
 62
7
  6
CONTINUOUS
 10
90.9206044364
 20
150.4574393757
 11
91.5206044364
 21
150.4993954628
  0
LINE
  5
2F3
100
AcDbEntity
  8
0
100
AcDbLine
 62
7
  6
CONTINUOUS
 10
85.3699952634
 20
151.5049551173
 11
90.9206044364
 21
151.6987866607
  0
LINE
  5
2F4
100
AcDbEntity
  8
0
100
AcDbLine
 62
7
  6
CONTINUOUS
 10
85.3699952634
 20
152.5055639194
 11
90.9206044364
 21
152.6993954628
  0
LWPOLYLINE
  5
2F5
100
AcDbEntity
  8
0
100
AcDbPolyline
 62
7
  6
CONTINUOUS
 90
8
 70
0
 43
0.3500000006
 10
81.0859306641
 20
163.2959663086
 10
81.9430776672
 20
163.2959663086
 10
82.371646637
 20
163.7245352783
 10
82.371646637
 20
164.5816732178
 10
81.9430776672
 20
165.0102421875
 10
81.0859306641
 20
165.0102421875
 10
81.0859306641
 20
166.2959672241
 10
82.371646637
 20
166.2959672241
  0
LWPOLYLINE
  5
2F6
100
AcDbEntity
  8
0
100
AcDbPolyline
 62
7
  6
CONTINUOUS
 90
8
 70
0
 43
0.3500000006
 10
81.282622467
 20
171.3513662109
 10
82.1397694702
 20
171.3513662109
 10
82.5683384399
 20
171.7799351807
 10
82.5683384399
 20
172.6370912476
 10
82.1397694702
 20
173.0656602173
 10
81.282622467
 20
173.0656602173
 10
81.282622467
 20
174.3513671265
 10
82.5683384399
 20
174.3513671265
  0
ARC
  5
2F7
100
AcDbEntity
  8
0
100
AcDbCircle
 62
7
  6
CONTINUOUS
 10
201.1915467594
 20
114.3993954628
 40
1.7
100
AcDbArc
 50
0.0
 51
90.0
  0
ARC
  5
2F8
100
AcDbEntity
  8
0
100
AcDbCircle
 62
7
  6
CONTINUOUS
 10
187.7915467594
 20
114.3993954628
 40
1.7
100
AcDbArc
 50
90.0
 51
180.0
  0
ARC
  5
2F9
100
AcDbEntity
  8
0
100
AcDbCircle
 62
7
  6
CONTINUOUS
 10
187.7915467594
 20
100.9993954628
 40
1.7
100
AcDbArc
 50
180.0
 51
270.0
  0
ARC
  5
2FA
100
AcDbEntity
  8
0
100
AcDbCircle
 62
7
  6
CONTINUOUS
 10
201.1915467594
 20
100.9993954628
 40
1.7
100
AcDbArc
 50
270.0
 51
360.0
  0
ARC
  5
2FB
100
AcDbEntity
  8
0
100
AcDbCircle
 62
7
  6
CONTINUOUS
 10
178.6915467594
 20
114.3993954628
 40
1.7
100
AcDbArc
 50
0.0
 51
90.0
  0
ARC
  5
2FC
100
AcDbEntity
  8
0
100
AcDbCircle
 62
7
  6
CONTINUOUS
 10
165.2915467594
 20
114.3993954628
 40
1.7
100
AcDbArc
 50
90.0
 51
180.0
  0
ARC
  5
2FD
100
AcDbEntity
  8
0
100
AcDbCircle
 62
7
  6
CONTINUOUS
 10
165.2915467594
 20
100.9993954628
 40
1.7
100
AcDbArc
 50
180.0
 51
270.0
  0
ARC
  5
2FE
100
AcDbEntity
  8
0
100
AcDbCircle
 62
7
  6
CONTINUOUS
 10
178.6915467594
 20
100.9993954628
 40
1.7
100
AcDbArc
 50
270.0
 51
360.0
  0
ARC
  5
2FF
100
AcDbEntity
  8
0
100
AcDbCircle
 62
7
  6
CONTINUOUS
 10
165.2915467594
 20
100.9993954628
 40
1.2
100
AcDbArc
 50
180.0
 51
270.0
  0
ARC
  5
300
100
AcDbEntity
  8
0
100
AcDbCircle
 62
7
  6
CONTINUOUS
 10
178.6915467594
 20
100.9993954628
 40
1.2
100
AcDbArc
 50
270.0
 51
360.0
  0
ARC
  5
301
100
AcDbEntity
  8
0
100
AcDbCircle
 62
7
  6
CONTINUOUS
 10
165.2915467594
 20
114.3993954628
 40
1.2
100
AcDbArc
 50
90.0
 51
180.0
  0
ARC
  5
302
100
AcDbEntity
  8
0
100
AcDbCircle
 62
7
  6
CONTINUOUS
 10
178.6915467594
 20
114.3993954628
 40
1.2
100
AcDbArc
 50
0.0
 51
90.0
  0
ARC
  5
303
100
AcDbEntity
  8
0
100
AcDbCircle
 62
7
  6
CONTINUOUS
 10
187.7915467594
 20
100.9993954628
 40
1.2
100
AcDbArc
 50
180.0
 51
270.0
  0
ARC
  5
304
100
AcDbEntity
  8
0
100
AcDbCircle
 62
7
  6
CONTINUOUS
 10
201.1915467594
 20
100.9993954628
 40
1.2
100
AcDbArc
 50
270.0
 51
360.0
  0
ARC
  5
305
100
AcDbEntity
  8
0
100
AcDbCircle
 62
7
  6
CONTINUOUS
 10
187.7915467594
 20
114.3993954628
 40
1.2
100
AcDbArc
 50
90.0
 51
180.0
  0
ARC
  5
306
100
AcDbEntity
  8
0
100
AcDbCircle
 62
7
  6
CONTINUOUS
 10
201.1915467594
 20
114.3993954628
 40
1.2
100
AcDbArc
 50
0.0
 51
90.0
  0
ARC
  5
307
100
AcDbEntity
  8
0
100
AcDbCircle
 62
7
  6
CONTINUOUS
 10
92.4707288153
 20
81.4993954628
 40
1.0
100
AcDbArc
 50
84.2894068625
 51
90.0
  0
ARC
  5
308
100
AcDbEntity
  8
0
100
AcDbCircle
 62
7
  6
CONTINUOUS
 10
92.4707288153
 20
133.8993954628
 40
1.0
100
AcDbArc
 50
270.0
 51
275.7105931375
  0
ARC
  5
309
100
AcDbEntity
  8
0
100
AcDbCircle
 62
7
  6
CONTINUOUS
 10
92.4459177613
 20
134.5493949588
 40
0.3
100
AcDbArc
 50
62.0510370175
 51
89.8999998573
  0
ARC
  5
30A
100
AcDbEntity
  8
0
100
AcDbCircle
 62
7
  6
CONTINUOUS
 10
92.4459177613
 20
80.8493959668
 40
0.3
100
AcDbArc
 50
270.1000001427
 51
297.9489629825
  0
ELLIPSE
  5
30B
100
AcDbEntity
  8
0
100
AcDbEllipse
 62
7
  6
CONTINUOUS
 10
94.3206044364
 20
81.6195967678
 30
0.0
 11
0.1417119467
 21
0.1422961243
 31
0.0
 40
0.9918061237
 41
0.5506956737
 42
0.7350951877
  0
ELLIPSE
  5
30C
100
AcDbEntity
  8
0
100
AcDbEllipse
 62
7
  6
CONTINUOUS
 10
4960.2509277253
 20
107.6993954628
 30
0.0
 11
5070.6192780382
 21
20.8600030618
 31
0.0
 40
0.0041137573
 41
-2.8584753448
 42
-2.856472503
  0
ELLIPSE
  5
30D
100
AcDbEntity
  8
0
100
AcDbEllipse
 62
7
  6
CONTINUOUS
 10
187.6693965014
 20
107.6993954628
 30
0.0
 11
530.7034459343
 21
0.0
 31
0.0
 40
0.0494155445
 41
1.7475925186
 42
1.7510554651
  0
ENDSEC
  0
SECTION
  2
OBJECTS
  0
DICTIONARY
  5
C
100
AcDbDictionary
280
0
281
1
  3
ACAD_GROUP
350
D
  3
ACAD_MLINESTYLE
350
17
  3
ACAD_LAYOUT
350
1A
  3
ACAD_PLOTSETTINGS
350
19
  3
ACAD_PLOTSTYLENAME
350
E
  0
DICTIONARY
  5
D
102
{ACAD_REACTORS
330
C
102
}
100
AcDbDictionary
280
0
281
1
  0
ACDBDICTIONARYWDFLT
  5
E
102
{ACAD_REACTORS
330
C
102
}
100
AcDbDictionary
281
1
  3
Normal
350
F
100
AcDbDictionaryWithDefault
340
F
  0
DICTIONARY
  5
17
102
{ACAD_REACTORS
330
C
102
}
100
AcDbDictionary
280
0
281
1
  3
Standard
350
18
  0
DICTIONARY
  5
19
102
{ACAD_REACTORS
330
C
102
}
100
AcDbDictionary
281
1
  0
DICTIONARY
  5
1A
102
{ACAD_REACTORS
330
C
102
}
100
AcDbDictionary
281
1
  3
Model
350
30E
  3
Layout1
350
30F
  0
ACDBPLACEHOLDER
  5
F
102
{ACAD_REACTORS
330
E
102
}
  0
MLINESTYLE
  5
18
102
{ACAD_REACTORS
330
17
102
}
100
AcDbMlineStyle
  2
STANDARD
 70
0
  3

 62
256
 51
90.0
 52
90.0
 71
2
 49
0.5
 62
256
  6
BYLAYER
 49
-0.5
 62
256
  6
BYLAYER
  0
LAYOUT
  5
30E
102
{ACAD_REACTORS
330
1A
102
}
100
AcDbPlotSettings
  1

  2
none_device
  4
ISO_A4_(297.00_x_210.00_MM)
  6

 40
0.0
 41
0.0
 42
0.0
 43
0.0
 44
297.0
 45
210.0
 46
0.0
 47
0.0
 48
0.0
 49
0.0
140
0.0
141
0.0
142
1.0
143
1.0
 70
1024
 72
1
 73
0
 74
0
  7

 75
0
147
1.0
148
0.0
149
0.0
100
AcDbLayout
  1
Model
 70
0
 71
0
 10
0.0
 20
0.0
 11
297.0
 21
210.0
 12
0.0
 22
0.0
 32
0.0
 14
0.0
 24
0.0
 34
0.0
 15
0.0
 25
0.0
 35
0.0
146
0.0
 13
0.0
 23
0.0
 33
0.0
 16
1.0
 26
0.0
 36
0.0
 17
0.0
 27
1.0
 37
0.0
 76
0
330
21B
345
0
346
0
  0
LAYOUT
  5
30F
102
{ACAD_REACTORS
330
1A
102
}
100
AcDbPlotSettings
  1

  2
none_device
  4
ISO_A4_(297.00_x_210.00_MM)
  6

 40
0.0
 41
0.0
 42
0.0
 43
0.0
 44
297.0
 45
210.0
 46
0.0
 47
0.0
 48
0.0
 49
0.0
140
0.0
141
0.0
142
1.0
143
1.0
 70
0
 72
1
 73
0
 74
0
  7

 75
0
147
1.0
148
0.0
149
0.0
100
AcDbLayout
  1
Layout1
 70
0
 71
1
 10
0.0
 20
0.0
 11
297.0
 21
210.0
 12
0.0
 22
0.0
 32
0.0
 14
0.0
 24
0.0
 34
0.0
 15
0.0
 25
0.0
 35
0.0
146
0.0
 13
0.0
 23
0.0
 33
0.0
 16
1.0
 26
0.0
 36
0.0
 17
0.0
 27
1.0
 37
0.0
 76
0
330
21C
345
0
346
0
  0
ENDSEC
  0
EOF
