  0
SECTION
  2
HEADER
  9
$ACADVER
  1
AC1024
  9
$DWGCODEPAGE
  3
ANSI_1252
  9
$EXTMAX
 10
297.0
 20
210.0
 30
0.0
  9
$EXTMIN
 10
0.0
 20
0.0
 30
0.0
  9
$LIMMIN
 10
0.0
 20
0.0
  9
$LIMMAX
 10
297.0
 20
210.0
  9
$VIEWCTR
 10
148.5
 20
105.0
  9
$VIEWSIZE
 40
210.0
  9
$CLAYER
  8
0
  9
$LTSCALE
 40
16.335
  9
$CELTYPE
  6
BYLAYER
  9
$DIMSCALE
 40
1.0
  9
$DIMASZ
 40
3.0
  9
$DIMEXO
 40
0.5
  9
$DIMDLI
 40
11.286
  9
$DIMEXE
 40
1.5
  9
$DIMCEN
 40
2.673
  9
$DIMLFAC
 40
1.0
  9
$DIMBLK
  1
_FILLED
  9
$DIMALT
 70
0
  9
$DIMALTF
 40
0.0393700787
  9
$DIMTXT
 40
3.0
  9
$DIMTOL
 70
1
  9
$DIMLIM
 70
0
  9
$DIMTFAC
 40
1.0
  9
$DIMTP
 40
0.01
  9
$DIMTM
 40
0.01
  9
$DIMGAP
 40
0.625
  9
$DIMDSEP
 70
44
  9
$AUNITS
 70
0
  9
$PDMODE
 70
3
  9
$PDSIZE
 40
3.0
  9
$HANDSEED
  5
45D
  9
$TILEMODE
 70
1
  9
$MEASUREMENT
 70
1
  9
$INSUNITS
 70
4
  0
ENDSEC
  0
SECTION
  2
CLASSES
  0
CLASS
  1
ACDBDICTIONARYWDFLT
  2
AcDbDictionaryWithDefault
  3
AutoCAD 2000
 90
0
 91
1
280
0
281
0
  0
CLASS
  1
ACDBPLACEHOLDER
  2
AcDbPlaceHolder
  3
AutoCAD 2000
 90
0
 91
1
280
0
281
0
  0
CLASS
  1
LAYOUT
  2
AcDbLayout
  3
AutoCAD 2000
 90
0
 91
0
280
0
281
0
  0
ENDSEC
  0
SECTION
  2
TABLES
  0
TABLE
  2
VPORT
  5
8
100
AcDbSymbolTable
 70
2
  0
VPORT
  5
1F4
100
AcDbSymbolTableRecord
100
AcDbViewportTableRecord
  2
*ACTIVE
 70
0
 10
0.0
 20
0.0
 11
1.0
 21
1.0
 12
148.5
 22
105.0
 13
0.0
 23
0.0
 14
1.0
 24
1.0
 15
0.0
 25
0.0
 16
0.0
 26
0.0
 36
1.0
 17
0.0
 27
0.0
 37
0.0
 40
210.0
 41
1.4142857143
 42
50.0
 43
0.0
 44
0.0
 50
0.0
 51
0.0
 71
0
 72
100
 73
1
 74
1
 75
0
 76
0
 77
0
 78
0
  0
ENDTAB
  0
TABLE
  2
LTYPE
  5
5
100
AcDbSymbolTable
 70
6
  0
LTYPE
  5
14
100
AcDbSymbolTableRecord
100
AcDbLinetypeTableRecord
  2
BYBLOCK
 70
0
  3

 72
65
 73
0
 40
0.0
  0
LTYPE
  5
15
100
AcDbSymbolTableRecord
100
AcDbLinetypeTableRecord
  2
BYLAYER
 70
0
  3

 72
65
 73
0
 40
0.0
  0
LTYPE
  5
16
100
AcDbSymbolTableRecord
100
AcDbLinetypeTableRecord
  2
CONTINUOUS
 70
64
  3
Solid line
 72
65
 73
0
 40
0.0
  0
LTYPE
  5
1F5
100
AcDbSymbolTableRecord
100
AcDbLinetypeTableRecord
  2
CENTER
 70
64
  3
____ _ ____ _ ____ _ ____ _ ____ _ ____ _ ____
 72
65
 73
4
 40
0.6
 49
0.375
 74
0
 49
-0.075
 74
0
 49
0.075
 74
0
 49
-0.075
 74
0
  0
LTYPE
  5
1F6
100
AcDbSymbolTableRecord
100
AcDbLinetypeTableRecord
  2
HIDDEN
 70
64
  3
- - - - - - - - - - - - - - - - - - - -
 72
65
 73
2
 40
0.2
 49
0.1
 74
0
 49
-0.1
 74
0
  0
LTYPE
  5
1F7
100
AcDbSymbolTableRecord
100
AcDbLinetypeTableRecord
  2
PHANTOM
 70
64
  3
_____ _ _ _____ _ _ _____ _ _ _____
 72
65
 73
6
 40
0.8
 49
0.45
 74
0
 49
-0.05
 74
0
 49
0.1
 74
0
 49
-0.05
 74
0
 49
0.1
 74
0
 49
-0.05
 74
0
  0
LTYPE
  5
1F8
100
AcDbSymbolTableRecord
100
AcDbLinetypeTableRecord
  2
DOT
 70
64
  3
. . . . . . . . . . . . . . . . . . . .
 72
65
 73
2
 40
0.2
 49
0.1
 74
0
 49
-0.1
 74
0
  0
LTYPE
  5
1F9
100
AcDbSymbolTableRecord
100
AcDbLinetypeTableRecord
  2
DASHED
 70
64
  3
- - - - - - - - - - - - - - - - - - - -
 72
65
 73
2
 40
0.2
 49
0.1
 74
0
 49
-0.1
 74
0
  0
ENDTAB
  0
TABLE
  2
LAYER
  5
2
100
AcDbSymbolTable
 70
36
  0
LAYER
  5
10
100
AcDbSymbolTableRecord
100
AcDbLayerTableRecord
  2
0
 70
0
 62
7
  6
CONTINUOUS
370
-3
390
F
  0
LAYER
  5
1FA
100
AcDbSymbolTableRecord
100
AcDbLayerTableRecord
  2
DEFAULT_1
 70
0
 62
7
  6
CENTER
370
-3
390
F
  0
LAYER
  5
1FB
100
AcDbSymbolTableRecord
100
AcDbLayerTableRecord
  2
DEFAULT_2
 70
0
 62
7
  6
HIDDEN
370
-3
390
F
  0
LAYER
  5
1FC
100
AcDbSymbolTableRecord
100
AcDbLayerTableRecord
  2
DEFAULT_3
 70
0
 62
7
  6
PHANTOM
370
-3
390
F
  0
LAYER
  5
1FD
100
AcDbSymbolTableRecord
100
AcDbLayerTableRecord
  2
ASSI
 70
0
 62
7
  6
CONTINUOUS
370
-3
390
F
  0
LAYER
  5
1FE
100
AcDbSymbolTableRecord
100
AcDbLayerTableRecord
  2
COORDINATE
 70
0
 62
7
  6
CONTINUOUS
370
-3
390
F
  0
LAYER
  5
1FF
100
AcDbSymbolTableRecord
100
AcDbLayerTableRecord
  2
COORD_ORIGINE
 70
0
 62
7
  6
CONTINUOUS
370
-3
390
F
  0
LAYER
  5
200
100
AcDbSymbolTableRecord
100
AcDbLayerTableRecord
  2
COPY_PUBLISH
 70
0
 62
7
  6
CONTINUOUS
370
-3
390
F
  0
LAYER
  5
201
100
AcDbSymbolTableRecord
100
AcDbLayerTableRecord
  2
COSMETIC
 70
0
 62
7
  6
CONTINUOUS
370
-3
390
F
  0
LAYER
  5
202
100
AcDbSymbolTableRecord
100
AcDbLayerTableRecord
  2
COSMETICI
 70
0
 62
7
  6
CONTINUOUS
370
-3
390
F
  0
LAYER
  5
203
100
AcDbSymbolTableRecord
100
AcDbLayerTableRecord
  2
CURVA_TASSELLO
 70
0
 62
7
  6
CONTINUOUS
370
-3
390
F
  0
LAYER
  5
204
100
AcDbSymbolTableRecord
100
AcDbLayerTableRecord
  2
CURVE
 70
0
 62
7
  6
CONTINUOUS
370
-3
390
F
  0
LAYER
  5
205
100
AcDbSymbolTableRecord
100
AcDbLayerTableRecord
  2
DRAFT
 70
0
 62
7
  6
CONTINUOUS
370
-3
390
F
  0
LAYER
  5
206
100
AcDbSymbolTableRecord
100
AcDbLayerTableRecord
  2
IMPORT_IGES
 70
0
 62
7
  6
CONTINUOUS
370
-3
390
F
  0
LAYER
  5
207
100
AcDbSymbolTableRecord
100
AcDbLayerTableRecord
  2
INTFCLR_2
 70
0
 62
7
  6
CONTINUOUS
370
-3
390
F
  0
LAYER
  5
208
100
AcDbSymbolTableRecord
100
AcDbLayerTableRecord
  2
INTF_1
 70
0
 62
7
  6
CONTINUOUS
370
-3
390
F
  0
LAYER
  5
209
100
AcDbSymbolTableRecord
100
AcDbLayerTableRecord
  2
INTF_21
 70
0
 62
7
  6
CONTINUOUS
370
-3
390
F
  0
LAYER
  5
20A
100
AcDbSymbolTableRecord
100
AcDbLayerTableRecord
  2
INTF_6
 70
0
 62
7
  6
CONTINUOUS
370
-3
390
F
  0
LAYER
  5
20B
100
AcDbSymbolTableRecord
100
AcDbLayerTableRecord
  2
INTF_7
 70
0
 62
7
  6
CONTINUOUS
370
-3
390
F
  0
LAYER
  5
20C
100
AcDbSymbolTableRecord
100
AcDbLayerTableRecord
  2
INTF_9
 70
0
 62
7
  6
CONTINUOUS
370
-3
390
F
  0
LAYER
  5
20D
100
AcDbSymbolTableRecord
100
AcDbLayerTableRecord
  2
LIVELLO_1
 70
0
 62
7
  6
CONTINUOUS
370
-3
390
F
  0
LAYER
  5
20E
100
AcDbSymbolTableRecord
100
AcDbLayerTableRecord
  2
NOTE
 70
0
 62
7
  6
CONTINUOUS
370
-3
390
F
  0
LAYER
  5
20F
100
AcDbSymbolTableRecord
100
AcDbLayerTableRecord
  2
PIANI
 70
0
 62
7
  6
CONTINUOUS
370
-3
390
F
  0
LAYER
  5
210
100
AcDbSymbolTableRecord
100
AcDbLayerTableRecord
  2
PIANI_ORIGINE
 70
0
 62
7
  6
CONTINUOUS
370
-3
390
F
  0
LAYER
  5
211
100
AcDbSymbolTableRecord
100
AcDbLayerTableRecord
  2
PIANI_RIFERIMENTO
 70
0
 62
7
  6
CONTINUOUS
370
-3
390
F
  0
LAYER
  5
212
100
AcDbSymbolTableRecord
100
AcDbLayerTableRecord
  2
PUNTI
 70
0
 62
7
  6
CONTINUOUS
370
-3
390
F
  0
LAYER
  5
213
100
AcDbSymbolTableRecord
100
AcDbLayerTableRecord
  2
RACCORDO
 70
0
 62
7
  6
CONTINUOUS
370
-3
390
F
  0
LAYER
  5
214
100
AcDbSymbolTableRecord
100
AcDbLayerTableRecord
  2
RGB__255__255__255__
 70
0
 62
7
  6
CONTINUOUS
370
-3
390
F
  0
LAYER
  5
215
100
AcDbSymbolTableRecord
100
AcDbLayerTableRecord
  2
RGB____0____0____0__
 70
0
 62
7
  6
CONTINUOUS
370
-3
390
F
  0
LAYER
  5
216
100
AcDbSymbolTableRecord
100
AcDbLayerTableRecord
  2
SIMBOLI
 70
0
 62
7
  6
CONTINUOUS
370
-3
390
F
  0
LAYER
  5
217
100
AcDbSymbolTableRecord
100
AcDbLayerTableRecord
  2
SMUSSO
 70
0
 62
7
  6
CONTINUOUS
370
-3
390
F
  0
LAYER
  5
218
100
AcDbSymbolTableRecord
100
AcDbLayerTableRecord
  2
SUPERFICI
 70
0
 62
7
  6
CONTINUOUS
370
-3
390
F
  0
LAYER
  5
219
100
AcDbSymbolTableRecord
100
AcDbLayerTableRecord
  2
TRASH
 70
0
 62
7
  6
CONTINUOUS
370
-3
390
F
  0
LAYER
  5
21A
100
AcDbSymbolTableRecord
100
AcDbLayerTableRecord
  2
WHITE
 70
0
 62
7
  6
CONTINUOUS
370
-3
390
F
  0
LAYER
  5
21B
100
AcDbSymbolTableRecord
100
AcDbLayerTableRecord
  2
XSEC_DATUMS
 70
0
 62
7
  6
CONTINUOUS
370
-3
390
F
  0
ENDTAB
  0
TABLE
  2
STYLE
  5
3
100
AcDbSymbolTable
 70
1
  0
STYLE
  5
11
100
AcDbSymbolTableRecord
100
AcDbTextStyleTableRecord
  2
STANDARD
 70
0
 40
0.0
 41
0.8
 50
0.0
 71
0
 42
0.2
  3
txt
  4

  0
STYLE
  5
21C
100
AcDbSymbolTableRecord
100
AcDbTextStyleTableRecord
  2
TEXTSTYLE_1
 70
0
 40
0.0
 41
0.8
 50
0.0
 71
0
 42
0.2
  3
gdt
  4

  0
ENDTAB
  0
TABLE
  2
VIEW
  5
6
100
AcDbSymbolTable
 70
0
  0
ENDTAB
  0
TABLE
  2
UCS
  5
7
100
AcDbSymbolTable
 70
0
  0
ENDTAB
  0
TABLE
  2
APPID
  5
9
100
AcDbSymbolTable
 70
1
  0
APPID
  5
21D
100
AcDbSymbolTableRecord
100
AcDbRegAppTableRecord
  2
ACAD
 70
0
  0
ENDTAB
  0
TABLE
  2
BLOCK_RECORD
  5
1
100
AcDbSymbolTable
 70
0
  0
BLOCK_RECORD
  5
21E
100
AcDbSymbolTableRecord
100
AcDbBlockTableRecord
  2
*Model_Space
  0
BLOCK_RECORD
  5
21F
100
AcDbSymbolTableRecord
100
AcDbBlockTableRecord
  2
*Paper_Space
  0
BLOCK_RECORD
  5
220
100
AcDbSymbolTableRecord
100
AcDbBlockTableRecord
  2
_FILLED
  0
BLOCK_RECORD
  5
221
100
AcDbSymbolTableRecord
100
AcDbBlockTableRecord
  2
*D0
  0
BLOCK_RECORD
  5
222
100
AcDbSymbolTableRecord
100
AcDbBlockTableRecord
  2
*D1
  0
BLOCK_RECORD
  5
223
100
AcDbSymbolTableRecord
100
AcDbBlockTableRecord
  2
*D2
  0
BLOCK_RECORD
  5
224
100
AcDbSymbolTableRecord
100
AcDbBlockTableRecord
  2
*D3
  0
ENDTAB
  0
TABLE
  2
DIMSTYLE
  5
A
100
AcDbSymbolTable
 70
1
100
AcDbDimStyleTable
 71
0
  0
DIMSTYLE
105
225
100
AcDbSymbolTableRecord
100
AcDbDimStyleTableRecord
  2
STANDARD
 70
0
  3

  4

 40
1.0
 41
3.0
 42
0.5
 43
0.38
 44
1.5
 45
0.0
 46
0.0
 47
0.01
 48
0.01
140
3.0
141
0.09
142
0.0
143
25.4
144
1.0
145
0.0
146
1.0
147
0.625
 71
1
 72
0
 73
0
 74
0
 75
0
 76
0
 77
1
 78
8
 79
2
170
0
171
1
172
0
173
0
174
0
175
0
176
0
177
0
178
0
270
2
179
2
271
2
272
2
273
2
274
2
275
0
280
0
281
0
282
0
283
1
284
8
285
0
286
0
287
3
288
0
340
11
278
44
341
220
342
220
343
220
344
220
  0
DIMSTYLE
105
226
100
AcDbSymbolTableRecord
100
AcDbDimStyleTableRecord
  2
DIMSTYLE_1
 70
0
  3

  4

 40
1.0
 41
3.0
 42
0.5
 43
0.38
 44
1.5
 45
0.0
 46
0.0
 47
0.0
 48
0.0
140
3.0
141
0.09
142
0.0
143
25.4
144
1.0
145
0.0
146
1.0
147
0.75
 71
0
 72
0
 73
0
 74
0
 75
0
 76
0
 77
1
 78
8
 79
2
170
0
171
1
172
0
173
0
174
0
175
0
176
0
177
0
178
0
270
2
179
2
271
2
272
2
273
2
274
2
275
0
280
0
281
0
282
0
283
1
284
8
285
0
286
0
287
3
288
0
340
11
278
44
341
220
342
220
343
220
344
220
  0
ENDTAB
  0
ENDSEC
  0
SECTION
  2
BLOCKS
  0
BLOCK
  5
20
100
AcDbEntity
  8
0
100
AcDbBlockBegin
  2
*Model_Space
 70
0
 10
0.0
 20
0.0
 30
0.0
  3
*Model_Space
  1

  0
ENDBLK
  5
21
100
AcDbEntity
  8
0
100
AcDbBlockEnd
  0
BLOCK
  5
1C
100
AcDbEntity
  8
0
100
AcDbBlockBegin
  2
*Paper_Space
 70
0
 10
0.0
 20
0.0
 30
0.0
  3
*Paper_Space
  1

  0
ENDBLK
  5
1D
100
AcDbEntity
  8
0
100
AcDbBlockEnd
  0
BLOCK
  5
227
100
AcDbEntity
  8
0
100
AcDbBlockBegin
  2
_FILLED
 70
64
 10
0.0
 20
0.0
  3
_FILLED
  1

  0
SOLID
  5
228
100
AcDbEntity
  8
0
  6
BYBLOCK
 62
0
100
AcDbTrace
 10
0.0
 20
0.0
 11
-1.0
 21
0.3166666667
 12
-1.0
 22
-0.3166666667
 13
-1.0
 23
-0.3166666667
  0
ENDBLK
  5
229
100
AcDbEntity
  8
0
  6
BYBLOCK
 62
0
100
AcDbBlockEnd
  0
BLOCK
  5
22A
100
AcDbEntity
  8
0
100
AcDbBlockBegin
 62
7
  6
CONTINUOUS
  2
*D0
 70
65
 10
0.0
 20
0.0
  3
*D0
  1

  0
MTEXT
  5
22B
100
AcDbEntity
  8
0
100
AcDbMText
 62
7
  6
CONTINUOUS
  7
STANDARD
 71
2
 72
1
 10
0.0
 20
58.2379011368
 30
0.0
 11
1.0
 21
0.0
 31
0.0
 73
2
 44
0.9
  1
{\ftxt;\W0.0001;\H0.0001;\~}{\ftxt;\W2.1428571429;\H3.0; }{\ftxt;\W0.0001;\H0.0001;\~}
 40
3.0
 41
9.6428571429
  0
LINE
  5
22C
100
AcDbEntity
  8
0
100
AcDbLine
 62
7
  6
CONTINUOUS
 10
61.0
 20
44.4993911979
 11
61.0
 21
55.9879011368
  0
LINE
  5
22D
100
AcDbEntity
  8
0
100
AcDbLine
 62
7
  6
CONTINUOUS
 10
-61.0
 20
44.4993911979
 11
-61.0
 21
55.9879011368
  0
LINE
  5
22E
100
AcDbEntity
  8
0
100
AcDbLine
 62
7
  6
CONTINUOUS
 10
61.0
 20
54.4879011368
 11
0.0
 21
54.4879011368
  0
LINE
  5
22F
100
AcDbEntity
  8
0
100
AcDbLine
 62
7
  6
CONTINUOUS
 10
-61.0
 20
54.4879011368
 11
0.0
 21
54.4879011368
  0
INSERT
  5
230
100
AcDbEntity
  8
0
100
AcDbBlockReference
 62
7
  6
CONTINUOUS
  2
_FILLED
 10
61.0
 20
54.4879011368
 41
3.0
 42
3.0
 43
3.0
  0
INSERT
  5
231
100
AcDbEntity
  8
0
100
AcDbBlockReference
 62
7
  6
CONTINUOUS
  2
_FILLED
 10
-61.0
 20
54.4879011368
 41
3.0
 42
3.0
 43
3.0
 50
180.0
  0
ENDBLK
  5
232
100
AcDbEntity
  8
0
  6
BYBLOCK
 62
0
100
AcDbBlockEnd
  0
BLOCK
  5
233
100
AcDbEntity
  8
0
100
AcDbBlockBegin
 62
7
  6
CONTINUOUS
  2
*D1
 70
65
 10
0.0
 20
0.0
  3
*D1
  1

  0
MTEXT
  5
234
100
AcDbEntity
  8
0
100
AcDbMText
 62
7
  6
CONTINUOUS
  7
STANDARD
 71
2
 72
1
 10
69.3956010772
 20
0.0
 30
0.0
 11
0.0
 21
1.0
 31
0.0
 73
2
 44
0.9
  1
{\ftxt;\W0.0001;\H0.0001;\~}{\ftxt;\W1.5714285714;\H3.0; }{\ftxt;\W0.0001;\H0.0001;\~}
 40
3.0
 41
7.0714285714
  0
LINE
  5
235
100
AcDbEntity
  8
0
100
AcDbLine
 62
7
  6
CONTINUOUS
 10
60.4993911979
 20
45.0
 11
74.6456010772
 21
45.0
  0
LINE
  5
236
100
AcDbEntity
  8
0
100
AcDbLine
 62
7
  6
CONTINUOUS
 10
60.4993911979
 20
-45.0
 11
74.6456010772
 21
-45.0
  0
LINE
  5
237
100
AcDbEntity
  8
0
100
AcDbLine
 62
7
  6
CONTINUOUS
 10
73.1456010772
 20
45.0
 11
73.1456010772
 21
0.0
  0
LINE
  5
238
100
AcDbEntity
  8
0
100
AcDbLine
 62
7
  6
CONTINUOUS
 10
73.1456010772
 20
-45.0
 11
73.1456010772
 21
0.0
  0
INSERT
  5
239
100
AcDbEntity
  8
0
100
AcDbBlockReference
 62
7
  6
CONTINUOUS
  2
_FILLED
 10
73.1456010772
 20
45.0
 41
3.0
 42
3.0
 43
3.0
 50
90.0
  0
INSERT
  5
23A
100
AcDbEntity
  8
0
100
AcDbBlockReference
 62
7
  6
CONTINUOUS
  2
_FILLED
 10
73.1456010772
 20
-45.0
 41
3.0
 42
3.0
 43
3.0
 50
270.0
  0
ENDBLK
  5
23B
100
AcDbEntity
  8
0
  6
BYBLOCK
 62
0
100
AcDbBlockEnd
  0
BLOCK
  5
23C
100
AcDbEntity
  8
0
100
AcDbBlockBegin
 62
7
  6
CONTINUOUS
  2
*D2
 70
65
 10
0.0
 20
0.0
  3
*D2
  1

  0
MTEXT
  5
23D
100
AcDbEntity
  8
0
100
AcDbMText
 62
7
  6
CONTINUOUS
  7
STANDARD
 71
3
 72
1
 10
-101.0481674537
 20
69.3744732842
 30
0.0
 11
1.0
 21
0.0
 31
0.0
 73
2
 44
0.9
  1
{\ftxt;\W0.0001;\H0.0001;\~}{\ftxt;\W3.2142857143;\H3.0; }{\ftxt;\W0.0001;\H0.0001;\~}
 40
3.0
 41
14.4642857143
  0
LINE
  5
23E
100
AcDbEntity
  8
0
100
AcDbLine
 62
7
  6
CONTINUOUS
 10
-89.1036145148
 20
26.5463167932
 11
-89.1036145148
 21
67.1244732842
  0
LINE
  5
23F
100
AcDbEntity
  8
0
100
AcDbLine
 62
7
  6
CONTINUOUS
 10
-99.2536145148
 20
43.8767374102
 11
-99.2536145148
 21
67.1244732842
  0
LINE
  5
240
100
AcDbEntity
  8
0
100
AcDbLine
 62
7
  6
CONTINUOUS
 10
-89.1036145148
 20
65.6244732842
 11
-94.1786145148
 21
65.6244732842
  0
LINE
  5
241
100
AcDbEntity
  8
0
100
AcDbLine
 62
7
  6
CONTINUOUS
 10
-99.2536145148
 20
65.6244732842
 11
-94.1786145148
 21
65.6244732842
  0
LINE
  5
242
100
AcDbEntity
  8
0
100
AcDbLine
 62
7
  6
CONTINUOUS
 10
-94.1786145148
 20
65.6244732842
 11
-110.6910245966
 21
65.6244732842
  0
INSERT
  5
243
100
AcDbEntity
  8
0
100
AcDbBlockReference
 62
7
  6
CONTINUOUS
  2
_FILLED
 10
-89.1036145148
 20
65.6244732842
 41
3.0
 42
3.0
 43
3.0
  0
INSERT
  5
244
100
AcDbEntity
  8
0
100
AcDbBlockReference
 62
7
  6
CONTINUOUS
  2
_FILLED
 10
-99.2536145148
 20
65.6244732842
 41
3.0
 42
3.0
 43
3.0
 50
180.0
  0
ENDBLK
  5
245
100
AcDbEntity
  8
0
  6
BYBLOCK
 62
0
100
AcDbBlockEnd
  0
BLOCK
  5
246
100
AcDbEntity
  8
0
100
AcDbBlockBegin
 62
7
  6
CONTINUOUS
  2
*D3
 70
65
 10
0.0
 20
0.0
  3
*D3
  1

  0
MTEXT
  5
247
100
AcDbEntity
  8
0
100
AcDbMText
 62
7
  6
CONTINUOUS
  7
STANDARD
 71
3
 72
1
 10
-101.3830896147
 20
59.0962200258
 30
0.0
 11
1.0
 21
0.0
 31
0.0
 73
2
 44
0.9
  1
{\ftxt;\W0.0001;\H0.0001;\~}{\ftxt;\W2.6428571429;\H3.0; }{\ftxt;\W0.0001;\H0.0001;\~}
 40
3.0
 41
11.8928571429
  0
LINE
  5
248
100
AcDbEntity
  8
0
100
AcDbLine
 62
7
  6
CONTINUOUS
 10
-92.1036145148
 20
41.7038975196
 11
-92.1036145148
 21
56.8462200258
  0
LINE
  5
249
100
AcDbEntity
  8
0
100
AcDbLine
 62
7
  6
CONTINUOUS
 10
-99.2536145148
 20
43.8767374102
 11
-99.2536145148
 21
56.8462200258
  0
LINE
  5
24A
100
AcDbEntity
  8
0
100
AcDbLine
 62
7
  6
CONTINUOUS
 10
-92.1036145148
 20
55.3462200258
 11
-95.6786145148
 21
55.3462200258
  0
LINE
  5
24B
100
AcDbEntity
  8
0
100
AcDbLine
 62
7
  6
CONTINUOUS
 10
-99.2536145148
 20
55.3462200258
 11
-95.6786145148
 21
55.3462200258
  0
LINE
  5
24C
100
AcDbEntity
  8
0
100
AcDbLine
 62
7
  6
CONTINUOUS
 10
-95.6786145148
 20
55.3462200258
 11
-109.3116610432
 21
55.3462200258
  0
INSERT
  5
24D
100
AcDbEntity
  8
0
100
AcDbBlockReference
 62
7
  6
CONTINUOUS
  2
_FILLED
 10
-92.1036145148
 20
55.3462200258
 41
3.0
 42
3.0
 43
3.0
  0
INSERT
  5
24E
100
AcDbEntity
  8
0
100
AcDbBlockReference
 62
7
  6
CONTINUOUS
  2
_FILLED
 10
-99.2536145148
 20
55.3462200258
 41
3.0
 42
3.0
 43
3.0
 50
180.0
  0
ENDBLK
  5
24F
100
AcDbEntity
  8
0
  6
BYBLOCK
 62
0
100
AcDbBlockEnd
  0
ENDSEC
  0
SECTION
  2
ENTITIES
  0
DIMENSION
  5
250
100
AcDbEntity
  8
0
100
AcDbDimension
 62
7
  6
CONTINUOUS
  2
*D0
 10
-61.0
 20
54.4879011368
 11
-0.4285714481
 21
54.4879011368
 70
160
 71
2
 72
2
 41
0.9
 42
122.0
  1
{\ftxt;\W0.0001;\H0.0001;\~}{\ftxt;\W2.1428571429;\H3.0; }{\ftxt;\W0.0001;\H0.0001;\~}
  3
DIMSTYLE_1
100
AcDbAlignedDimension
 13
61.0
 23
43.9993911979
 14
-61.0
 24
43.9993911979
 50
180.0
100
AcDbRotatedDimension
  0
DIMENSION
  5
251
100
AcDbEntity
  8
0
100
AcDbDimension
 62
7
  6
CONTINUOUS
  2
*D1
 10
73.1456010772
 20
-45.0
 11
73.1456010772
 21
-0.4285709759
 70
160
 71
2
 72
2
 41
0.9
 42
90.0
  1
{\ftxt;\W0.0001;\H0.0001;\~}{\ftxt;\W1.5714285714;\H3.0; }{\ftxt;\W0.0001;\H0.0001;\~}
  3
DIMSTYLE_1
100
AcDbAlignedDimension
 13
59.9993911979
 23
45.0
 14
59.9993911979
 24
-45.0
 50
270.0
100
AcDbRotatedDimension
  0
DIMENSION
  5
252
100
AcDbEntity
  8
0
100
AcDbDimension
 62
7
  6
CONTINUOUS
  2
*D2
 10
-99.2536145148
 20
65.6244732842
 11
-106.2981653137
 21
65.6244732842
 70
160
 71
3
 72
2
 41
0.9
 42
10.15
  1
{\ftxt;\W0.0001;\H0.0001;\~}{\ftxt;\W3.2142857143;\H3.0; }{\ftxt;\W0.0001;\H0.0001;\~}
  3
DIMSTYLE_1
100
AcDbAlignedDimension
 13
-89.1036145148
 23
26.0463167932
 14
-99.2536145148
 24
43.3767374102
 50
180.0
100
AcDbRotatedDimension
  0
DIMENSION
  5
253
100
AcDbEntity
  8
0
100
AcDbDimension
 62
7
  6
CONTINUOUS
  2
*D3
 10
-99.2536145148
 20
55.3462200258
 11
-105.7759454498
 21
55.3462200258
 70
160
 71
3
 72
2
 41
0.9
 42
7.15
  1
{\ftxt;\W0.0001;\H0.0001;\~}{\ftxt;\W2.6428571429;\H3.0; }{\ftxt;\W0.0001;\H0.0001;\~}
  3
DIMSTYLE_1
100
AcDbAlignedDimension
 13
-92.1036145148
 23
41.2038975196
 14
-99.2536145148
 24
43.3767374102
 50
180.0
100
AcDbRotatedDimension
  0
LINE
  5
254
100
AcDbEntity
  8
0
100
AcDbLine
 62
7
  6
CONTINUOUS
 10
-59.8199854699
 20
44.7906993223
 11
-59.8055596544
 21
44.8061684565
  0
LINE
  5
255
100
AcDbEntity
  8
0
100
AcDbLine
 62
7
  6
CONTINUOUS
 10
-61.0
 20
43.9993911979
 11
-59.9993911979
 21
45.0
  0
LINE
  5
256
100
AcDbEntity
  8
0
100
AcDbLine
 62
7
  6
CONTINUOUS
 10
-59.8199854699
 20
44.7906993223
 11
-60.7906993223
 21
43.8199854699
  0
LINE
  5
257
100
AcDbEntity
  8
0
100
AcDbLine
 62
7
  6
CONTINUOUS
 10
-59.3767374102
 20
43.7712689598
 11
-59.7712689598
 21
43.3767374102
  0
LINE
  5
258
100
AcDbEntity
  8
0
100
AcDbLine
 62
7
  6
CONTINUOUS
 10
-60.8061684565
 20
43.8055596544
 11
-60.7906993223
 21
43.8199854699
  0
LINE
  5
259
100
AcDbEntity
  8
0
100
AcDbLine
 62
7
  6
CONTINUOUS
 10
-60.7906993223
 20
-43.8199854699
 11
-60.8061684565
 21
-43.8055596544
  0
LINE
  5
25A
100
AcDbEntity
  8
0
100
AcDbLine
 62
7
  6
CONTINUOUS
 10
-59.9993911979
 20
-45.0
 11
-61.0
 21
-43.9993911979
  0
LINE
  5
25B
100
AcDbEntity
  8
0
100
AcDbLine
 62
7
  6
CONTINUOUS
 10
-60.7906993223
 20
-43.8199854699
 11
-59.8199854699
 21
-44.7906993223
  0
LINE
  5
25C
100
AcDbEntity
  8
0
100
AcDbLine
 62
7
  6
CONTINUOUS
 10
-59.7712689598
 20
-43.3767374102
 11
-59.3767374102
 21
-43.7712689598
  0
LINE
  5
25D
100
AcDbEntity
  8
0
100
AcDbLine
 62
7
  6
CONTINUOUS
 10
-59.8055596544
 20
-44.8061684565
 11
-59.8199854699
 21
-44.7906993223
  0
LINE
  5
25E
100
AcDbEntity
  8
0
100
AcDbLine
 62
7
  6
CONTINUOUS
 10
-61.0
 20
43.9993911979
 11
-61.0
 21
-43.9993911979
  0
LINE
  5
25F
100
AcDbEntity
  8
0
100
AcDbLine
 62
7
  6
CONTINUOUS
 10
-60.8061684565
 20
43.8055596544
 11
-60.8061684565
 21
-43.8055596544
  0
LINE
  5
260
100
AcDbEntity
  8
0
100
AcDbLine
 62
7
  6
CONTINUOUS
 10
-59.7712689598
 20
43.3767374102
 11
-59.7712689598
 21
-43.3767374102
  0
LINE
  5
261
100
AcDbEntity
  8
0
100
AcDbLine
 62
7
  6
CONTINUOUS
 10
-59.9993911979
 20
-45.0
 11
59.9993911979
 21
-45.0
  0
LINE
  5
262
100
AcDbEntity
  8
0
100
AcDbLine
 62
7
  6
CONTINUOUS
 10
-59.8055596544
 20
-44.8061684565
 11
59.8055596544
 21
-44.8061684565
  0
LWPOLYLINE
  5
263
100
AcDbEntity
  8
0
100
AcDbPolyline
 62
7
  6
CONTINUOUS
 90
3
 70
0
 43
0.3500000006
 10
-3.2142856836
 20
57.380761322
 10
-2.3571427875
 20
58.2378992615
 10
-2.3571427875
 20
55.2379028778
  0
LINE
  5
264
100
AcDbEntity
  8
0
100
AcDbLine
 62
7
  6
CONTINUOUS
 10
-59.3767374102
 20
-43.7712689598
 11
59.3767374102
 21
-43.7712689598
  0
LINE
  5
265
100
AcDbEntity
  8
0
100
AcDbLine
 62
7
  6
CONTINUOUS
 10
-59.3767374102
 20
-43.7712689598
 11
-59.8199854699
 21
-44.7906993223
  0
LINE
  5
266
100
AcDbEntity
  8
CURVE
100
AcDbLine
 62
250
  6
CONTINUOUS
 10
60.8592581977
 20
-36.257398
 11
60.946502926
 21
-36.257398
  0
LINE
  5
267
100
AcDbEntity
  8
CURVE
100
AcDbLine
 62
250
  6
CONTINUOUS
 10
60.946502926
 20
-35.735605
 11
60.8592581977
 21
-35.735605
  0
LINE
  5
268
100
AcDbEntity
  8
0
100
AcDbLine
 62
7
  6
CONTINUOUS
 10
-59.3767374102
 20
43.7712689598
 11
-59.8199854699
 21
44.7906993223
  0
LWPOLYLINE
  5
269
100
AcDbEntity
  8
CURVE
100
AcDbPolyline
 62
250
  6
CONTINUOUS
 90
21
 70
0
 10
60.8845174928
 20
-29.4226356449
 10
60.884896273
 20
-29.4226069612
 10
60.8852779823
 20
-29.4228544869
 10
60.8856620979
 20
-29.4233783442
 10
60.8860480971
 20
-29.4241786553
 10
60.8864354569
 20
-29.4252555424
 10
60.8868236547
 20
-29.4266091279
 10
60.8872121676
 20
-29.4282395339
 10
60.8876004729
 20
-29.4301468827
 10
60.8879880477
 20
-29.4323312964
 10
60.8883743693
 20
-29.4347928975
 10
60.8887589149
 20
-29.437531808
 10
60.8891411617
 20
-29.4405481502
 10
60.8895205869
 20
-29.4438420464
 10
60.8898966677
 20
-29.4474136188
 10
60.8902688813
 20
-29.4512629897
 10
60.890636705
 20
-29.4553902812
 10
60.8909996159
 20
-29.4597956156
 10
60.8913570913
 20
-29.4644791152
 10
60.8917086084
 20
-29.4694409021
 10
60.8920536443
 20
-29.4746810987
  0
LINE
  5
26A
100
AcDbEntity
  8
CURVE
100
AcDbLine
 62
250
  6
CONTINUOUS
 10
60.8602826601
 20
-30.6285551388
 11
60.9465029266
 21
-30.6285551388
  0
LINE
  5
26B
100
AcDbEntity
  8
CURVE
100
AcDbLine
 62
250
  6
CONTINUOUS
 10
60.8980744759
 20
-30.126163664
 11
60.8741255285
 21
-30.126163664
  0
LINE
  5
26C
100
AcDbEntity
  8
CURVE
100
AcDbLine
 62
250
  6
CONTINUOUS
 10
60.9465029266
 20
-30.1088617972
 11
60.9123622001
 21
-30.1088617972
  0
LINE
  5
26D
100
AcDbEntity
  8
CURVE
100
AcDbLine
 62
250
  6
CONTINUOUS
 10
60.9057802956
 20
-29.2870512436
 11
60.9052647862
 21
-29.2870512436
  0
LINE
  5
26E
100
AcDbEntity
  8
0
100
AcDbLine
 62
7
  6
CONTINUOUS
 10
59.7712689598
 20
43.3767374102
 11
60.7906993223
 21
43.8199854699
  0
LINE
  5
26F
100
AcDbEntity
  8
0
100
AcDbLine
 62
7
  6
CONTINUOUS
 10
59.7712689598
 20
-43.3767374102
 11
60.7906993223
 21
-43.8199854699
  0
LINE
  5
270
100
AcDbEntity
  8
0
100
AcDbLine
 62
7
  6
CONTINUOUS
 10
-60.8061684565
 20
-43.8055596544
 11
-61.0
 21
-43.9993911979
  0
LINE
  5
271
100
AcDbEntity
  8
0
100
AcDbLine
 62
7
  6
CONTINUOUS
 10
-59.8055596544
 20
-44.8061684565
 11
-59.9993911979
 21
-45.0
  0
LINE
  5
272
100
AcDbEntity
  8
0
100
AcDbLine
 62
7
  6
CONTINUOUS
 10
-60.8061684565
 20
43.8055596544
 11
-61.0
 21
43.9993911979
  0
LINE
  5
273
100
AcDbEntity
  8
0
100
AcDbLine
 62
7
  6
CONTINUOUS
 10
-59.8055596544
 20
44.8061684565
 11
-59.9993911979
 21
45.0
  0
LWPOLYLINE
  5
274
100
AcDbEntity
  8
0
100
AcDbPolyline
 62
7
  6
CONTINUOUS
 90
13
 70
0
 43
0.3500000006
 10
71.5384565277
 20
-0.0000003204
 10
70.2527450867
 20
-0.0000003204
 10
69.8241715851
 20
0.2142864304
 10
69.3956026154
 20
0.642857666
 10
69.3956026154
 20
0.8571421509
 10
69.8241715851
 20
1.2857133865
 10
70.2527450867
 20
1.5000001373
 10
71.5384565277
 20
1.5000001373
 10
71.9670300293
 20
1.2857133865
 10
72.395598999
 20
0.8571421509
 10
72.395598999
 20
0.642857666
 10
71.9670300293
 20
0.2142864304
 10
71.5384565277
 20
-0.0000003204
  0
LINE
  5
275
100
AcDbEntity
  8
0
100
AcDbLine
 62
7
  6
CONTINUOUS
 10
59.8055596544
 20
44.8061684565
 11
59.9993911979
 21
45.0
  0
LINE
  5
276
100
AcDbEntity
  8
0
100
AcDbLine
 62
7
  6
CONTINUOUS
 10
59.8055596544
 20
-44.8061684565
 11
59.9993911979
 21
-45.0
  0
LINE
  5
277
100
AcDbEntity
  8
0
100
AcDbLine
 62
7
  6
CONTINUOUS
 10
60.8061684565
 20
43.8055596544
 11
61.0
 21
43.9993911979
  0
LINE
  5
278
100
AcDbEntity
  8
0
100
AcDbLine
 62
7
  6
CONTINUOUS
 10
60.8061684565
 20
-43.8055596544
 11
61.0
 21
-43.9993911979
  0
LINE
  5
279
100
AcDbEntity
  8
0
100
AcDbLine
 62
7
  6
CONTINUOUS
 10
-59.7712689598
 20
-43.3767374102
 11
-60.7906993223
 21
-43.8199854699
  0
LINE
  5
27A
100
AcDbEntity
  8
0
100
AcDbLine
 62
7
  6
CONTINUOUS
 10
-59.7712689598
 20
43.3767374102
 11
-60.7906993223
 21
43.8199854699
  0
LINE
  5
27B
100
AcDbEntity
  8
0
100
AcDbLine
 62
7
  6
CONTINUOUS
 10
59.3767374102
 20
43.7712689598
 11
59.8199854699
 21
44.7906993223
  0
LINE
  5
27C
100
AcDbEntity
  8
CURVE
100
AcDbLine
 62
250
  6
CONTINUOUS
 10
60.8895371756
 20
-34.842919
 11
60.946502926
 21
-34.955522
  0
LINE
  5
27D
100
AcDbEntity
  8
0
100
AcDbLine
 62
7
  6
CONTINUOUS
 10
59.3767374102
 20
-43.7712689598
 11
59.8199854699
 21
-44.7906993223
  0
LINE
  5
27E
100
AcDbEntity
  8
0
100
AcDbLine
 62
7
  6
CONTINUOUS
 10
59.3767374102
 20
43.7712689598
 11
-59.3767374102
 21
43.7712689598
  0
LINE
  5
27F
100
AcDbEntity
  8
0
100
AcDbLine
 62
7
  6
CONTINUOUS
 10
59.8055596544
 20
44.8061684565
 11
-59.8055596544
 21
44.8061684565
  0
LINE
  5
280
100
AcDbEntity
  8
0
100
AcDbLine
 62
7
  6
CONTINUOUS
 10
59.9993911979
 20
45.0
 11
-59.9993911979
 21
45.0
  0
LINE
  5
281
100
AcDbEntity
  8
CURVE
100
AcDbLine
 62
250
  6
CONTINUOUS
 10
60.946502926
 20
-35.454708
 11
60.8592633977
 21
-35.228996
  0
LWPOLYLINE
  5
282
100
AcDbEntity
  8
0
100
AcDbPolyline
 62
7
  6
CONTINUOUS
 90
10
 70
0
 43
0.3500000006
 10
72.395598999
 20
-1.9285708809
 10
71.5384565277
 20
-1.0714295425
 10
70.6813140564
 20
-0.8571427917
 10
69.8241715851
 20
-0.8571427917
 10
69.3956026154
 20
-1.2857140274
 10
69.3956026154
 20
-1.9285708809
 10
69.8241715851
 20
-2.3571432495
 10
70.6813140564
 20
-2.3571432495
 10
71.109887558
 20
-1.9285708809
 10
71.109887558
 20
-1.0000006256
  0
LWPOLYLINE
  5
283
100
AcDbEntity
  8
0
100
AcDbPolyline
 62
7
  6
CONTINUOUS
 90
7
 70
0
 43
0.3500000006
 10
2.3571427875
 20
55.2379028778
 10
0.8571428254
 20
55.2379028778
 10
2.3571427875
 20
57.380761322
 10
2.3571427875
 20
57.8093302917
 10
1.9285714102
 20
58.2378992615
 10
1.2857142735
 20
58.2378992615
 10
0.8571428254
 20
57.5950458069
  0
LWPOLYLINE
  5
284
100
AcDbEntity
  8
0
100
AcDbPolyline
 62
7
  6
CONTINUOUS
 90
7
 70
0
 43
0.3500000006
 10
0.0
 20
55.2379028778
 10
-1.5000000329
 20
55.2379028778
 10
0.0
 20
57.380761322
 10
0.0
 20
57.8093302917
 10
-0.4285714127
 20
58.2378992615
 10
-1.0714285848
 20
58.2378992615
 10
-1.5000000329
 20
57.5950458069
  0
LINE
  5
285
100
AcDbEntity
  8
CURVE
100
AcDbLine
 62
250
  6
CONTINUOUS
 10
60.9193130771
 20
-37.463524
 11
60.8592633977
 21
-36.972473
  0
LINE
  5
286
100
AcDbEntity
  8
CURVE
100
AcDbLine
 62
250
  6
CONTINUOUS
 10
60.8592633977
 20
-36.451037
 11
60.946502926
 21
-37.254552
  0
LINE
  5
287
100
AcDbEntity
  8
CURVE
100
AcDbLine
 62
250
  6
CONTINUOUS
 10
60.9076990481
 20
-34.191353
 11
60.8592633977
 21
-33.66956
  0
LINE
  5
288
100
AcDbEntity
  8
CURVE
100
AcDbLine
 62
250
  6
CONTINUOUS
 10
60.8897746317
 20
-33.5372
 11
60.946502926
 21
-34.157611
  0
LWPOLYLINE
  5
289
100
AcDbEntity
  8
CURVE
100
AcDbPolyline
 62
250
  6
CONTINUOUS
 90
36
 70
0
 10
60.897523526
 20
-29.0431637119
 10
60.8968134424
 20
-29.0307616174
 10
60.8960861961
 20
-29.0190725279
 10
60.8953435656
 20
-29.0081075538
 10
60.8945873297
 20
-28.9978778051
 10
60.893819267
 20
-28.9883943921
 10
60.8930411561
 20
-28.9796684252
 10
60.8922547755
 20
-28.9717110143
 10
60.8914624027
 20
-28.964535883
 10
60.8906640079
 20
-28.9581290207
 10
60.8898600482
 20
-28.9524804372
 10
60.8890509808
 20
-28.9475801423
 10
60.888237263
 20
-28.9434181457
 10
60.887419352
 20
-28.9399844572
 10
60.8864798547
 20
-28.9369382549
 10
60.8855366677
 20
-28.9348146158
 10
60.884590984
 20
-28.9335973367
 10
60.8836439965
 20
-28.9332702142
 10
60.8826968981
 20
-28.933817045
 10
60.8817508817
 20
-28.9352216257
 10
60.8808306428
 20
-28.937409052
 10
60.8799136845
 20
-28.9404260832
 10
60.8790011244
 20
-28.9443022316
 10
60.8780940802
 20
-28.9490670099
 10
60.8771936695
 20
-28.9547499304
 10
60.8763908956
 20
-28.9606636642
 10
60.8755953605
 20
-28.9673488373
 10
60.8748080398
 20
-28.9748111535
 10
60.8740299091
 20
-28.9830563168
 10
60.8732619439
 20
-28.9920900312
 10
60.8724386414
 20
-29.0028224101
 10
60.8716299118
 20
-29.0144733362
 10
60.8708371246
 20
-29.0270200968
 10
60.8700616496
 20
-29.0404399787
 10
60.8693048562
 20
-29.0547102691
 10
60.8678527933
 20
-29.0857112234
  0
LINE
  5
28A
100
AcDbEntity
  8
CURVE
100
AcDbLine
 62
250
  6
CONTINUOUS
 10
60.8920536443
 20
-29.4746810987
 11
60.8927221817
 21
-29.4859972096
  0
LINE
  5
28B
100
AcDbEntity
  8
CURVE
100
AcDbLine
 62
250
  6
CONTINUOUS
 10
60.8927221817
 20
-29.4859972096
 11
60.8933585211
 21
-29.4984284259
  0
LINE
  5
28C
100
AcDbEntity
  8
CURVE
100
AcDbLine
 62
250
  6
CONTINUOUS
 10
60.8988850906
 20
-29.0700624751
 11
60.897523526
 21
-29.0431637119
  0
LINE
  5
28D
100
AcDbEntity
  8
CURVE
100
AcDbLine
 62
250
  6
CONTINUOUS
 10
60.8933585211
 20
-29.4984284259
 11
60.8939584802
 21
-29.5119757254
  0
LINE
  5
28E
100
AcDbEntity
  8
CURVE
100
AcDbLine
 62
250
  6
CONTINUOUS
 10
60.9001119843
 20
-29.0985328302
 11
60.8988850906
 21
-29.0700624751
  0
LINE
  5
28F
100
AcDbEntity
  8
CURVE
100
AcDbLine
 62
250
  6
CONTINUOUS
 10
60.8939584802
 20
-29.5119757254
 11
60.8945178768
 21
-29.5266400861
  0
LINE
  5
290
100
AcDbEntity
  8
CURVE
100
AcDbLine
 62
250
  6
CONTINUOUS
 10
60.9012178028
 20
-29.1281541054
 11
60.9001119843
 21
-29.0985328302
  0
LINE
  5
291
100
AcDbEntity
  8
CURVE
100
AcDbLine
 62
250
  6
CONTINUOUS
 10
60.8945178768
 20
-29.5266400861
 11
60.8950325284
 21
-29.5424224857
  0
LINE
  5
292
100
AcDbEntity
  8
CURVE
100
AcDbLine
 62
250
  6
CONTINUOUS
 10
60.9032931675
 20
-29.1932845632
 11
60.9012178028
 21
-29.1281541054
  0
LINE
  5
293
100
AcDbEntity
  8
CURVE
100
AcDbLine
 62
250
  6
CONTINUOUS
 10
60.9043855839
 20
-29.2319764062
 11
60.9032931675
 21
-29.1932845632
  0
LINE
  5
294
100
AcDbEntity
  8
CURVE
100
AcDbLine
 62
250
  6
CONTINUOUS
 10
60.8950325284
 20
-29.5424224857
 11
60.8957065248
 21
-29.5677730826
  0
LINE
  5
295
100
AcDbEntity
  8
CURVE
100
AcDbLine
 62
250
  6
CONTINUOUS
 10
60.9047337083
 20
-29.2467745197
 11
60.9043855839
 21
-29.2319764062
  0
LINE
  5
296
100
AcDbEntity
  8
CURVE
100
AcDbLine
 62
250
  6
CONTINUOUS
 10
60.8957065248
 20
-29.5677730826
 11
60.8962802294
 21
-29.5952280979
  0
LINE
  5
297
100
AcDbEntity
  8
CURVE
100
AcDbLine
 62
250
  6
CONTINUOUS
 10
60.905017198
 20
-29.2622389999
 11
60.9047337083
 21
-29.2467745197
  0
LINE
  5
298
100
AcDbEntity
  8
CURVE
100
AcDbLine
 62
250
  6
CONTINUOUS
 10
60.8962802294
 20
-29.5952280979
 11
60.896901006
 21
-29.6345101002
  0
LINE
  5
299
100
AcDbEntity
  8
CURVE
100
AcDbLine
 62
250
  6
CONTINUOUS
 10
60.896901006
 20
-29.6345101002
 11
60.8974681326
 21
-29.6867584987
  0
LWPOLYLINE
  5
29A
100
AcDbEntity
  8
CURVE
100
AcDbPolyline
 62
250
  6
CONTINUOUS
 90
3
 70
0
 10
60.9052647862
 20
-29.2870512436
 10
60.9052102444
 20
-29.2785372004
 10
60.905017198
 20
-29.2622389999
  0
LINE
  5
29B
100
AcDbEntity
  8
CURVE
100
AcDbLine
 62
250
  6
CONTINUOUS
 10
60.8974681326
 20
-29.6867584987
 11
60.89792913
 21
-29.762907118
  0
LINE
  5
29C
100
AcDbEntity
  8
CURVE
100
AcDbLine
 62
250
  6
CONTINUOUS
 10
60.8741255285
 20
-30.126163664
 11
60.8733576756
 21
-29.9368105752
  0
LINE
  5
29D
100
AcDbEntity
  8
CURVE
100
AcDbLine
 62
250
  6
CONTINUOUS
 10
60.8582578266
 20
-30.0056752715
 11
60.8602826601
 21
-30.6285551388
  0
LINE
  5
29E
100
AcDbEntity
  8
0
100
AcDbLine
 62
7
  6
CONTINUOUS
 10
59.7712689598
 20
-43.3767374102
 11
59.7712689598
 21
43.3767374102
  0
LINE
  5
29F
100
AcDbEntity
  8
0
100
AcDbLine
 62
7
  6
CONTINUOUS
 10
60.8061684565
 20
-43.8055596544
 11
60.8061684565
 21
43.8055596544
  0
LINE
  5
2A0
100
AcDbEntity
  8
CURVE
100
AcDbLine
 62
250
  6
CONTINUOUS
 10
60.8592581977
 20
-35.735605
 11
60.8592581977
 21
-36.257398
  0
LINE
  5
2A1
100
AcDbEntity
  8
CURVE
100
AcDbLine
 62
250
  6
CONTINUOUS
 10
60.8592633977
 20
-38.506847
 11
60.8592633977
 21
-37.940019
  0
LINE
  5
2A2
100
AcDbEntity
  8
CURVE
100
AcDbLine
 62
250
  6
CONTINUOUS
 10
60.8592633977
 20
-36.972473
 11
60.8592633977
 21
-36.451037
  0
LINE
  5
2A3
100
AcDbEntity
  8
CURVE
100
AcDbLine
 62
250
  6
CONTINUOUS
 10
60.8592633977
 20
-35.228996
 11
60.8592633977
 21
-34.707635
  0
LINE
  5
2A4
100
AcDbEntity
  8
CURVE
100
AcDbLine
 62
250
  6
CONTINUOUS
 10
60.8592633977
 20
-33.66956
 11
60.8592633977
 21
-33.153297
  0
LINE
  5
2A5
100
AcDbEntity
  8
CURVE
100
AcDbLine
 62
250
  6
CONTINUOUS
 10
60.8592633977
 20
-32.053532
 11
60.8592633977
 21
-31.54876
  0
LINE
  5
2A6
100
AcDbEntity
  8
CURVE
100
AcDbLine
 62
250
  6
CONTINUOUS
 10
60.89792913
 20
-29.762907118
 11
60.8980744759
 21
-30.126163664
  0
LINE
  5
2A7
100
AcDbEntity
  8
CURVE
100
AcDbLine
 62
250
  6
CONTINUOUS
 10
60.9156103103
 20
-32.070759
 11
60.9156103103
 21
-31.571179
  0
LINE
  5
2A8
100
AcDbEntity
  8
CURVE
100
AcDbLine
 62
250
  6
CONTINUOUS
 10
60.9290868208
 20
-31.466899
 11
60.9290868208
 21
-32.177494
  0
LINE
  5
2A9
100
AcDbEntity
  8
CURVE
100
AcDbLine
 62
250
  6
CONTINUOUS
 10
60.946502926
 20
-36.257398
 11
60.946502926
 21
-35.735605
  0
LINE
  5
2AA
100
AcDbEntity
  8
CURVE
100
AcDbLine
 62
250
  6
CONTINUOUS
 10
60.9465029266
 20
-30.6285551388
 11
60.9465029266
 21
-30.1088617972
  0
LINE
  5
2AB
100
AcDbEntity
  8
CURVE
100
AcDbLine
 62
250
  6
CONTINUOUS
 10
60.9465029266
 20
-29.3098079785
 11
60.9465029266
 21
-28.8079038802
  0
LINE
  5
2AC
100
AcDbEntity
  8
CURVE
100
AcDbLine
 62
250
  6
CONTINUOUS
 10
60.946502926
 20
-30.781779
 11
60.946502926
 21
-31.331727
  0
LINE
  5
2AD
100
AcDbEntity
  8
CURVE
100
AcDbLine
 62
250
  6
CONTINUOUS
 10
60.946502926
 20
-32.321477
 11
60.946502926
 21
-32.837608
  0
LINE
  5
2AE
100
AcDbEntity
  8
CURVE
100
AcDbLine
 62
250
  6
CONTINUOUS
 10
60.946502926
 20
-32.919544
 11
60.946502926
 21
-33.429996
  0
LINE
  5
2AF
100
AcDbEntity
  8
CURVE
100
AcDbLine
 62
250
  6
CONTINUOUS
 10
60.946502926
 20
-34.157611
 11
60.946502926
 21
-34.230793
  0
LINE
  5
2B0
100
AcDbEntity
  8
CURVE
100
AcDbLine
 62
250
  6
CONTINUOUS
 10
60.946502926
 20
-34.955522
 11
60.946502926
 21
-35.454708
  0
LINE
  5
2B1
100
AcDbEntity
  8
CURVE
100
AcDbLine
 62
250
  6
CONTINUOUS
 10
60.946502926
 20
-37.254552
 11
60.946502926
 21
-37.714382
  0
LINE
  5
2B2
100
AcDbEntity
  8
0
100
AcDbLine
 62
7
  6
CONTINUOUS
 10
61.0
 20
-43.9993911979
 11
61.0
 21
43.9993911979
  0
LINE
  5
2B3
100
AcDbEntity
  8
CURVE
100
AcDbLine
 62
250
  6
CONTINUOUS
 10
60.8733576756
 20
-29.9368105752
 11
60.8734723146
 21
-29.7570847614
  0
LINE
  5
2B4
100
AcDbEntity
  8
CURVE
100
AcDbLine
 62
250
  6
CONTINUOUS
 10
60.8587953295
 20
-29.6528718452
 11
60.8582578266
 21
-30.0056752715
  0
LINE
  5
2B5
100
AcDbEntity
  8
CURVE
100
AcDbLine
 62
250
  6
CONTINUOUS
 10
60.9123622001
 20
-30.1088617972
 11
60.9124521689
 21
-29.7888585064
  0
LINE
  5
2B6
100
AcDbEntity
  8
CURVE
100
AcDbLine
 62
250
  6
CONTINUOUS
 10
60.8734723146
 20
-29.7570847614
 11
60.8738390175
 21
-29.6791714829
  0
LINE
  5
2B7
100
AcDbEntity
  8
CURVE
100
AcDbLine
 62
250
  6
CONTINUOUS
 10
60.8599310868
 20
-29.4633058676
 11
60.8587953295
 21
-29.6528718452
  0
LINE
  5
2B8
100
AcDbEntity
  8
CURVE
100
AcDbLine
 62
250
  6
CONTINUOUS
 10
60.9124521689
 20
-29.7888585064
 11
60.9127269291
 21
-29.7490983469
  0
LINE
  5
2B9
100
AcDbEntity
  8
CURVE
100
AcDbLine
 62
250
  6
CONTINUOUS
 10
60.8612011567
 20
-29.3408501143
 11
60.8599310868
 21
-29.4633058676
  0
LINE
  5
2BA
100
AcDbEntity
  8
CURVE
100
AcDbLine
 62
250
  6
CONTINUOUS
 10
60.8738390175
 20
-29.6791714829
 11
60.874323895
 21
-29.6321786947
  0
LINE
  5
2BB
100
AcDbEntity
  8
CURVE
100
AcDbLine
 62
250
  6
CONTINUOUS
 10
60.9127269291
 20
-29.7490983469
 11
60.9130846798
 21
-29.7183233816
  0
LINE
  5
2BC
100
AcDbEntity
  8
CURVE
100
AcDbLine
 62
250
  6
CONTINUOUS
 10
60.874323895
 20
-29.6321786947
 11
60.8745797541
 21
-29.6138931453
  0
LINE
  5
2BD
100
AcDbEntity
  8
CURVE
100
AcDbLine
 62
250
  6
CONTINUOUS
 10
60.8616729065
 20
-29.3079410752
 11
60.8612011567
 21
-29.3408501143
  0
LINE
  5
2BE
100
AcDbEntity
  8
CURVE
100
AcDbLine
 62
250
  6
CONTINUOUS
 10
60.8832346056
 20
-31.81095
 11
60.9156103103
 21
-32.070759
  0
LINE
  5
2BF
100
AcDbEntity
  8
CURVE
100
AcDbLine
 62
250
  6
CONTINUOUS
 10
60.9290868208
 20
-32.177494
 11
60.946502926
 21
-32.321477
  0
LINE
  5
2C0
100
AcDbEntity
  8
CURVE
100
AcDbLine
 62
250
  6
CONTINUOUS
 10
60.946502926
 20
-32.837608
 11
60.8592633977
 21
-32.053532
  0
LINE
  5
2C1
100
AcDbEntity
  8
CURVE
100
AcDbLine
 62
250
  6
CONTINUOUS
 10
60.9062662216
 20
-29.2572974849
 11
60.9057802956
 21
-29.2870512436
  0
LINE
  5
2C2
100
AcDbEntity
  8
CURVE
100
AcDbLine
 62
250
  6
CONTINUOUS
 10
60.9130846798
 20
-29.7183233816
 11
60.9135725292
 21
-29.6888582855
  0
LINE
  5
2C3
100
AcDbEntity
  8
CURVE
100
AcDbLine
 62
250
  6
CONTINUOUS
 10
60.8745797541
 20
-29.6138931453
 11
60.8751964846
 21
-29.57866248
  0
LINE
  5
2C4
100
AcDbEntity
  8
CURVE
100
AcDbLine
 62
250
  6
CONTINUOUS
 10
60.8625460015
 20
-29.2606620192
 11
60.8616729065
 21
-29.3079410752
  0
LINE
  5
2C5
100
AcDbEntity
  8
CURVE
100
AcDbLine
 62
250
  6
CONTINUOUS
 10
60.9068624603
 20
-29.2294140183
 11
60.9062662216
 21
-29.2572974849
  0
LINE
  5
2C6
100
AcDbEntity
  8
CURVE
100
AcDbLine
 62
250
  6
CONTINUOUS
 10
60.9135725292
 20
-29.6888582855
 11
60.9140308091
 21
-29.6676188901
  0
LINE
  5
2C7
100
AcDbEntity
  8
CURVE
100
AcDbLine
 62
250
  6
CONTINUOUS
 10
60.8751964846
 20
-29.57866248
 11
60.8757501193
 21
-29.5537441581
  0
LINE
  5
2C8
100
AcDbEntity
  8
CURVE
100
AcDbLine
 62
250
  6
CONTINUOUS
 10
60.8637087566
 20
-29.2104866096
 11
60.8625460015
 21
-29.2606620192
  0
LINE
  5
2C9
100
AcDbEntity
  8
CURVE
100
AcDbLine
 62
250
  6
CONTINUOUS
 10
60.9140308091
 20
-29.6676188901
 11
60.9145561587
 21
-29.6475591288
  0
LINE
  5
2CA
100
AcDbEntity
  8
CURVE
100
AcDbLine
 62
250
  6
CONTINUOUS
 10
60.9075587766
 20
-29.2033392364
 11
60.9068624603
 21
-29.2294140183
  0
LINE
  5
2CB
100
AcDbEntity
  8
CURVE
100
AcDbLine
 62
250
  6
CONTINUOUS
 10
60.8757501193
 20
-29.5537441581
 11
60.8763810677
 21
-29.5304315573
  0
LINE
  5
2CC
100
AcDbEntity
  8
CURVE
100
AcDbLine
 62
250
  6
CONTINUOUS
 10
60.8653308302
 20
-29.1537045158
 11
60.8637087566
 21
-29.2104866096
  0
LINE
  5
2CD
100
AcDbEntity
  8
CURVE
100
AcDbLine
 62
250
  6
CONTINUOUS
 10
60.9145561587
 20
-29.6475591288
 11
60.9151414505
 21
-29.6287258722
  0
LINE
  5
2CE
100
AcDbEntity
  8
CURVE
100
AcDbLine
 62
250
  6
CONTINUOUS
 10
60.8763810677
 20
-29.5304315573
 11
60.8768443138
 21
-29.5159223342
  0
LINE
  5
2CF
100
AcDbEntity
  8
CURVE
100
AcDbLine
 62
250
  6
CONTINUOUS
 10
60.9083449355
 20
-29.1790115317
 11
60.9075587766
 21
-29.2033392364
  0
LINE
  5
2D0
100
AcDbEntity
  8
CURVE
100
AcDbLine
 62
250
  6
CONTINUOUS
 10
60.8665282389
 20
-29.1188524083
 11
60.8653308302
 21
-29.1537045158
  0
LINE
  5
2D1
100
AcDbEntity
  8
CURVE
100
AcDbLine
 62
250
  6
CONTINUOUS
 10
60.8768443138
 20
-29.5159223342
 11
60.8773399678
 21
-29.5023714982
  0
LINE
  5
2D2
100
AcDbEntity
  8
CURVE
100
AcDbLine
 62
250
  6
CONTINUOUS
 10
60.9151414505
 20
-29.6287258722
 11
60.915779557
 21
-29.6111659912
  0
LINE
  5
2D3
100
AcDbEntity
  8
CURVE
100
AcDbLine
 62
250
  6
CONTINUOUS
 10
60.909210702
 20
-29.1563692967
 11
60.9083449355
 21
-29.1790115317
  0
LINE
  5
2D4
100
AcDbEntity
  8
CURVE
100
AcDbLine
 62
250
  6
CONTINUOUS
 10
60.8678527933
 20
-29.0857112234
 11
60.8665282389
 21
-29.1188524083
  0
LINE
  5
2D5
100
AcDbEntity
  8
CURVE
100
AcDbLine
 62
250
  6
CONTINUOUS
 10
60.8773399678
 20
-29.5023714982
 11
60.877866079
 21
-29.4898254949
  0
LINE
  5
2D6
100
AcDbEntity
  8
CURVE
100
AcDbLine
 62
250
  6
CONTINUOUS
 10
60.915779557
 20
-29.6111659912
 11
60.9164633507
 21
-29.5949263565
  0
LINE
  5
2D7
100
AcDbEntity
  8
CURVE
100
AcDbLine
 62
250
  6
CONTINUOUS
 10
60.9101458411
 20
-29.1353509241
 11
60.909210702
 21
-29.1563692967
  0
LINE
  5
2D8
100
AcDbEntity
  8
CURVE
100
AcDbLine
 62
250
  6
CONTINUOUS
 10
60.9164633507
 20
-29.5949263565
 11
60.9169410752
 21
-29.5848565495
  0
LINE
  5
2D9
100
AcDbEntity
  8
CURVE
100
AcDbLine
 62
250
  6
CONTINUOUS
 10
60.877866079
 20
-29.4898254949
 11
60.8784208491
 21
-29.4782718679
  0
LINE
  5
2DA
100
AcDbEntity
  8
CURVE
100
AcDbLine
 62
250
  6
CONTINUOUS
 10
60.9108027531
 20
-29.122210398
 11
60.9101458411
 21
-29.1353509241
  0
LINE
  5
2DB
100
AcDbEntity
  8
CURVE
100
AcDbLine
 62
250
  6
CONTINUOUS
 10
60.9169410752
 20
-29.5848565495
 11
60.9174338254
 21
-29.5754082378
  0
LINE
  5
2DC
100
AcDbEntity
  8
CURVE
100
AcDbLine
 62
250
  6
CONTINUOUS
 10
60.9114829159
 20
-29.1097459533
 11
60.9108027531
 21
-29.122210398
  0
LWPOLYLINE
  5
2DD
100
AcDbEntity
  8
CURVE
100
AcDbPolyline
 62
250
  6
CONTINUOUS
 90
19
 70
0
 10
60.8784208491
 20
-29.4782718679
 10
60.8790011239
 20
-29.467734826
 10
60.8792998399
 20
-29.4628550899
 10
60.8796037493
 20
-29.4582385786
 10
60.8799124578
 20
-29.453888318
 10
60.8802255711
 20
-29.4498073345
 10
60.880542695
 20
-29.4459986541
 10
60.8808634352
 20
-29.4424653029
 10
60.8811873975
 20
-29.4392103071
 10
60.8815141875
 20
-29.4362366929
 10
60.881843411
 20
-29.4335474862
 10
60.8821746737
 20
-29.4311457134
 10
60.8825075814
 20
-29.4290344005
 10
60.8828417398
 20
-29.4272165737
 10
60.8831767546
 20
-29.425695259
 10
60.8835122316
 20
-29.4244734827
 10
60.8838477765
 20
-29.4235542708
 10
60.884182995
 20
-29.4229406495
 10
60.8845174928
 20
-29.4226356449
  0
LINE
  5
2DE
100
AcDbEntity
  8
CURVE
100
AcDbLine
 62
250
  6
CONTINUOUS
 10
60.9174338254
 20
-29.5754082378
 11
60.9179394896
 21
-29.566595309
  0
LINE
  5
2DF
100
AcDbEntity
  8
CURVE
100
AcDbLine
 62
250
  6
CONTINUOUS
 10
60.9121832968
 20
-29.097939336
 11
60.9114829159
 21
-29.1097459533
  0
LINE
  5
2E0
100
AcDbEntity
  8
CURVE
100
AcDbLine
 62
250
  6
CONTINUOUS
 10
60.9179394896
 20
-29.566595309
 11
60.9184559558
 21
-29.5584316506
  0
LINE
  5
2E1
100
AcDbEntity
  8
CURVE
100
AcDbLine
 62
250
  6
CONTINUOUS
 10
60.9129008632
 20
-29.086772292
 11
60.9121832968
 21
-29.097939336
  0
LINE
  5
2E2
100
AcDbEntity
  8
CURVE
100
AcDbLine
 62
250
  6
CONTINUOUS
 10
60.9136325825
 20
-29.0762265673
 11
60.9129008632
 21
-29.086772292
  0
LINE
  5
2E3
100
AcDbEntity
  8
CURVE
100
AcDbLine
 62
250
  6
CONTINUOUS
 10
60.9184559558
 20
-29.5584316506
 11
60.9189811122
 21
-29.5509311504
  0
LINE
  5
2E4
100
AcDbEntity
  8
CURVE
100
AcDbLine
 62
250
  6
CONTINUOUS
 10
60.9143754222
 20
-29.0662839077
 11
60.9136325825
 21
-29.0762265673
  0
LWPOLYLINE
  5
2E5
100
AcDbEntity
  8
CURVE
100
AcDbPolyline
 62
250
  6
CONTINUOUS
 90
4
 70
0
 10
60.9189811122
 20
-29.5509311504
 10
60.9195128469
 20
-29.544107696
 10
60.9197805212
 20
-29.5409542008
 10
60.9200490481
 20
-29.5379751749
  0
LINE
  5
2E6
100
AcDbEntity
  8
CURVE
100
AcDbLine
 62
250
  6
CONTINUOUS
 10
60.9151263496
 20
-29.0569260593
 11
60.9143754222
 21
-29.0662839077
  0
LINE
  5
2E7
100
AcDbEntity
  8
CURVE
100
AcDbLine
 62
250
  6
CONTINUOUS
 10
60.9158823321
 20
-29.0481347679
 11
60.9151263496
 21
-29.0569260593
  0
LINE
  5
2E8
100
AcDbEntity
  8
CURVE
100
AcDbLine
 62
250
  6
CONTINUOUS
 10
60.946502926
 20
-34.230793
 11
60.8895371756
 21
-34.842919
  0
LINE
  5
2E9
100
AcDbEntity
  8
CURVE
100
AcDbLine
 62
250
  6
CONTINUOUS
 10
60.9166403371
 20
-29.0398917796
 11
60.9158823321
 21
-29.0481347679
  0
LINE
  5
2EA
100
AcDbEntity
  8
CURVE
100
AcDbLine
 62
250
  6
CONTINUOUS
 10
60.8592633977
 20
-34.707635
 11
60.9076990481
 21
-34.191353
  0
LINE
  5
2EB
100
AcDbEntity
  8
CURVE
100
AcDbLine
 62
250
  6
CONTINUOUS
 10
60.9200490481
 20
-29.5379751749
 11
60.9212563239
 21
-29.5252922476
  0
LINE
  5
2EC
100
AcDbEntity
  8
CURVE
100
AcDbLine
 62
250
  6
CONTINUOUS
 10
60.917397332
 20
-29.0321788401
 11
60.9166403371
 21
-29.0398917796
  0
LINE
  5
2ED
100
AcDbEntity
  8
CURVE
100
AcDbLine
 62
250
  6
CONTINUOUS
 10
60.9212563239
 20
-29.5252922476
 11
60.9236888402
 21
-29.5014211183
  0
LINE
  5
2EE
100
AcDbEntity
  8
CURVE
100
AcDbLine
 62
250
  6
CONTINUOUS
 10
60.946502926
 20
-37.714382
 11
60.8592633977
 21
-38.506847
  0
LINE
  5
2EF
100
AcDbEntity
  8
CURVE
100
AcDbLine
 62
250
  6
CONTINUOUS
 10
60.9236888402
 20
-29.5014211183
 11
60.9261407286
 21
-29.4791682086
  0
LINE
  5
2F0
100
AcDbEntity
  8
CURVE
100
AcDbLine
 62
250
  6
CONTINUOUS
 10
60.8592633977
 20
-31.54876
 11
60.946502926
 21
-30.781779
  0
LWPOLYLINE
  5
2F1
100
AcDbEntity
  8
CURVE
100
AcDbPolyline
 62
250
  6
CONTINUOUS
 90
4
 70
0
 10
60.9195133302
 20
-29.0129778129
 10
60.9188340699
 20
-29.0188084012
 10
60.9181502842
 20
-29.0249776956
 10
60.917397332
 20
-29.0321788401
  0
LINE
  5
2F2
100
AcDbEntity
  8
CURVE
100
AcDbLine
 62
250
  6
CONTINUOUS
 10
60.9261407286
 20
-29.4791682086
 11
60.9286064921
 21
-29.4580838213
  0
LINE
  5
2F3
100
AcDbEntity
  8
CURVE
100
AcDbLine
 62
250
  6
CONTINUOUS
 10
60.9286064921
 20
-29.4580838213
 11
60.9465029266
 21
-29.3098079785
  0
LINE
  5
2F4
100
AcDbEntity
  8
CURVE
100
AcDbLine
 62
250
  6
CONTINUOUS
 10
60.9208638907
 20
-29.0020331232
 11
60.9195133302
 21
-29.0129778129
  0
LINE
  5
2F5
100
AcDbEntity
  8
CURVE
100
AcDbLine
 62
250
  6
CONTINUOUS
 10
60.8592633977
 20
-37.940019
 11
60.9193130771
 21
-37.463524
  0
LINE
  5
2F6
100
AcDbEntity
  8
CURVE
100
AcDbLine
 62
250
  6
CONTINUOUS
 10
60.946502926
 20
-31.331727
 11
60.9290868208
 21
-31.466899
  0
LINE
  5
2F7
100
AcDbEntity
  8
CURVE
100
AcDbLine
 62
250
  6
CONTINUOUS
 10
60.9323534545
 20
-28.9141482465
 11
60.9208638907
 21
-29.0020331232
  0
LINE
  5
2F8
100
AcDbEntity
  8
CURVE
100
AcDbLine
 62
250
  6
CONTINUOUS
 10
60.9465029266
 20
-28.8079038802
 11
60.9323534545
 21
-28.9141482465
  0
LINE
  5
2F9
100
AcDbEntity
  8
CURVE
100
AcDbLine
 62
250
  6
CONTINUOUS
 10
60.9156103103
 20
-31.571179
 11
60.8832346056
 21
-31.81095
  0
LINE
  5
2FA
100
AcDbEntity
  8
CURVE
100
AcDbLine
 62
7
  6
CONTINUOUS
 10
60.9437764244
 20
-28.8286213783
 11
60.9465029266
 21
-28.825894876
  0
LINE
  5
2FB
100
AcDbEntity
  8
CURVE
100
AcDbLine
 62
7
  6
CONTINUOUS
 10
60.8666727591
 20
-29.1157357576
 11
60.8994575325
 21
-29.0829509841
  0
LINE
  5
2FC
100
AcDbEntity
  8
CURVE
100
AcDbLine
 62
7
  6
CONTINUOUS
 10
60.9142457338
 20
-29.0681627828
 11
60.9465029266
 21
-29.03590559
  0
LINE
  5
2FD
100
AcDbEntity
  8
CURVE
100
AcDbLine
 62
7
  6
CONTINUOUS
 10
60.8613536097
 20
-29.331065621
 11
60.9465029266
 21
-29.2459163041
  0
LINE
  5
2FE
100
AcDbEntity
  8
CURVE
100
AcDbLine
 62
7
  6
CONTINUOUS
 10
60.859366391
 20
-29.5430635537
 11
60.8765307707
 21
-29.5258991739
  0
LINE
  5
2FF
100
AcDbEntity
  8
CURVE
100
AcDbLine
 62
7
  6
CONTINUOUS
 10
60.8937940834
 20
-29.5086358613
 11
60.9265468627
 21
-29.4758830819
  0
LINE
  5
300
100
AcDbEntity
  8
CURVE
100
AcDbLine
 62
7
  6
CONTINUOUS
 10
60.8585013444
 20
-29.7539393143
 11
60.8735419943
 21
-29.7388986643
  0
LINE
  5
301
100
AcDbEntity
  8
CURVE
100
AcDbLine
 62
7
  6
CONTINUOUS
 10
60.897672089
 20
-29.7147685697
 11
60.9133902338
 21
-29.6990504249
  0
LINE
  5
302
100
AcDbEntity
  8
CURVE
100
AcDbLine
 62
7
  6
CONTINUOUS
 10
60.8582723297
 20
-29.964179043
 11
60.8733856957
 21
-29.949065677
  0
LINE
  5
303
100
AcDbEntity
  8
CURVE
100
AcDbLine
 62
7
  6
CONTINUOUS
 10
60.8980744759
 20
-29.9243768968
 11
60.9123622001
 21
-29.9100891726
  0
LINE
  5
304
100
AcDbEntity
  8
CURVE
100
AcDbLine
 62
7
  6
CONTINUOUS
 10
60.8585075223
 20
-30.1739545644
 11
60.9236002895
 21
-30.1088617972
  0
LINE
  5
305
100
AcDbEntity
  8
CURVE
100
AcDbLine
 62
7
  6
CONTINUOUS
 10
60.8591792101
 20
-30.3832935907
 11
60.9465029266
 21
-30.2959698741
  0
LINE
  5
306
100
AcDbEntity
  8
CURVE
100
AcDbLine
 62
7
  6
CONTINUOUS
 10
60.8601085038
 20
-30.5923750109
 11
60.9465029266
 21
-30.5059805881
  0
LINE
  5
307
100
AcDbEntity
  8
CURVE
100
AcDbLine
 62
7
  6
CONTINUOUS
 10
60.9279930241
 20
-30.9445119186
 11
60.946502926
 21
-30.9260020167
  0
LINE
  5
308
100
AcDbEntity
  8
CURVE
100
AcDbLine
 62
7
  6
CONTINUOUS
 10
60.9010397833
 20
-31.1814758735
 11
60.946502926
 21
-31.1360127307
  0
LINE
  5
309
100
AcDbEntity
  8
CURVE
100
AcDbLine
 62
7
  6
CONTINUOUS
 10
60.8740865424
 20
-31.4184398284
 11
60.9443884808
 21
-31.34813789
  0
LINE
  5
30A
100
AcDbEntity
  8
CURVE
100
AcDbLine
 62
7
  6
CONTINUOUS
 10
60.8592633977
 20
-31.6432736871
 11
60.9131519841
 21
-31.5893851007
  0
LINE
  5
30B
100
AcDbEntity
  8
CURVE
100
AcDbLine
 62
7
  6
CONTINUOUS
 10
60.9156103103
 20
-31.5869267745
 11
60.9290868208
 21
-31.573450264
  0
LINE
  5
30C
100
AcDbEntity
  8
CURVE
100
AcDbLine
 62
7
  6
CONTINUOUS
 10
60.8592633977
 20
-31.8532844011
 11
60.8852693505
 21
-31.8272784483
  0
LINE
  5
30D
100
AcDbEntity
  8
CURVE
100
AcDbLine
 62
7
  6
CONTINUOUS
 10
60.9156103103
 20
-31.7969374885
 11
60.9290868208
 21
-31.783460978
  0
LINE
  5
30E
100
AcDbEntity
  8
CURVE
100
AcDbLine
 62
7
  6
CONTINUOUS
 10
60.8602409191
 20
-32.0623175937
 11
60.9085397159
 21
-32.0140187969
  0
LINE
  5
30F
100
AcDbEntity
  8
CURVE
100
AcDbLine
 62
7
  6
CONTINUOUS
 10
60.9156103103
 20
-32.0069482025
 11
60.9290868208
 21
-31.993471692
  0
LINE
  5
310
100
AcDbEntity
  8
CURVE
100
AcDbLine
 62
7
  6
CONTINUOUS
 10
60.8812680155
 20
-32.2513012113
 11
60.9318911537
 21
-32.2006780732
  0
LINE
  5
311
100
AcDbEntity
  8
CURVE
100
AcDbLine
 62
7
  6
CONTINUOUS
 10
60.902295112
 20
-32.4402848289
 11
60.946502926
 21
-32.3960770148
  0
LINE
  5
312
100
AcDbEntity
  8
CURVE
100
AcDbLine
 62
7
  6
CONTINUOUS
 10
60.9233222084
 20
-32.6292684465
 11
60.946502926
 21
-32.6060877288
  0
LINE
  5
313
100
AcDbEntity
  8
CURVE
100
AcDbLine
 62
7
  6
CONTINUOUS
 10
60.9443493048
 20
-32.8182520641
 11
60.946502926
 21
-32.8160984428
  0
LINE
  5
314
100
AcDbEntity
  8
CURVE
100
AcDbLine
 62
250
  6
CONTINUOUS
 10
60.8592633977
 20
-33.153297
 11
60.946502926
 21
-32.919544
  0
LINE
  5
315
100
AcDbEntity
  8
CURVE
100
AcDbLine
 62
250
  6
CONTINUOUS
 10
60.946502926
 20
-33.429996
 11
60.8897746317
 21
-33.5372
  0
LINE
  5
316
100
AcDbEntity
  8
0
100
AcDbLine
 62
7
  6
CONTINUOUS
 10
59.8199854699
 20
-44.7906993223
 11
59.8055596544
 21
-44.8061684565
  0
LINE
  5
317
100
AcDbEntity
  8
CURVE
100
AcDbLine
 62
7
  6
CONTINUOUS
 10
60.8830500987
 20
-33.0895619841
 11
60.946502926
 21
-33.0261091569
  0
LINE
  5
318
100
AcDbEntity
  8
CURVE
100
AcDbLine
 62
7
  6
CONTINUOUS
 10
60.8592633977
 20
-33.3233593992
 11
60.946502926
 21
-33.2361198709
  0
LINE
  5
319
100
AcDbEntity
  8
CURVE
100
AcDbLine
 62
7
  6
CONTINUOUS
 10
60.8592633977
 20
-33.5333701132
 11
60.928369698
 21
-33.4642638129
  0
LINE
  5
31A
100
AcDbEntity
  8
CURVE
100
AcDbLine
 62
7
  6
CONTINUOUS
 10
60.8655337943
 20
-33.7371104306
 11
60.9044915983
 21
-33.6981526266
  0
LINE
  5
31B
100
AcDbEntity
  8
CURVE
100
AcDbLine
 62
7
  6
CONTINUOUS
 10
60.8833722623
 20
-33.9292826766
 11
60.9220855405
 21
-33.8905693984
  0
LINE
  5
31C
100
AcDbEntity
  8
CURVE
100
AcDbLine
 62
7
  6
CONTINUOUS
 10
60.9012107303
 20
-34.1214549227
 11
60.9396794827
 21
-34.0829861703
  0
LINE
  5
31D
100
AcDbEntity
  8
CURVE
100
AcDbLine
 62
7
  6
CONTINUOUS
 10
60.8938650601
 20
-34.3388113068
 11
60.9408202634
 21
-34.2918561035
  0
LINE
  5
31E
100
AcDbEntity
  8
CURVE
100
AcDbLine
 62
7
  6
CONTINUOUS
 10
60.8721228673
 20
-34.5705642136
 11
60.9192707776
 21
-34.5234163034
  0
LINE
  5
31F
100
AcDbEntity
  8
CURVE
100
AcDbLine
 62
7
  6
CONTINUOUS
 10
60.8592633977
 20
-34.7934343972
 11
60.8977212918
 21
-34.7549765032
  0
LINE
  5
320
100
AcDbEntity
  8
CURVE
100
AcDbLine
 62
7
  6
CONTINUOUS
 10
60.8592633977
 20
-35.0034451113
 11
60.9332947777
 21
-34.9294137313
  0
LINE
  5
321
100
AcDbEntity
  8
CURVE
100
AcDbLine
 62
7
  6
CONTINUOUS
 10
60.8592633977
 20
-35.2134558253
 11
60.946502926
 21
-35.126216297
  0
LINE
  5
322
100
AcDbEntity
  8
CURVE
100
AcDbLine
 62
7
  6
CONTINUOUS
 10
60.9134747263
 20
-35.3692552108
 11
60.946502926
 21
-35.336227011
  0
LINE
  5
323
100
AcDbEntity
  8
CURVE
100
AcDbLine
 62
7
  6
CONTINUOUS
 10
60.8592581977
 20
-35.8434931673
 11
60.946502926
 21
-35.756248439
  0
LINE
  5
324
100
AcDbEntity
  8
CURVE
100
AcDbLine
 62
7
  6
CONTINUOUS
 10
60.8592581977
 20
-36.0535038813
 11
60.946502926
 21
-35.966259153
  0
LINE
  5
325
100
AcDbEntity
  8
CURVE
100
AcDbLine
 62
7
  6
CONTINUOUS
 10
60.8653747931
 20
-36.257398
 11
60.946502926
 21
-36.176269867
  0
LINE
  5
326
100
AcDbEntity
  8
CURVE
100
AcDbLine
 62
7
  6
CONTINUOUS
 10
60.8592633977
 20
-36.4735201093
 11
60.861465369
 21
-36.4713181381
  0
LINE
  5
327
100
AcDbEntity
  8
CURVE
100
AcDbLine
 62
7
  6
CONTINUOUS
 10
60.8592633977
 20
-36.6835308234
 11
60.8820335896
 21
-36.6607606315
  0
LINE
  5
328
100
AcDbEntity
  8
CURVE
100
AcDbLine
 62
7
  6
CONTINUOUS
 10
60.8592633977
 20
-36.8935415374
 11
60.9026018102
 21
-36.850203125
  0
LINE
  5
329
100
AcDbEntity
  8
CURVE
100
AcDbLine
 62
7
  6
CONTINUOUS
 10
60.8735462091
 20
-37.0892694401
 11
60.9231700307
 21
-37.0396456184
  0
LINE
  5
32A
100
AcDbEntity
  8
CURVE
100
AcDbLine
 62
7
  6
CONTINUOUS
 10
60.8964296431
 20
-37.27639672
 11
60.9437382513
 21
-37.2290881118
  0
LINE
  5
32B
100
AcDbEntity
  8
CURVE
100
AcDbLine
 62
7
  6
CONTINUOUS
 10
60.9193130771
 20
-37.463524
 11
60.946502926
 21
-37.4363341511
  0
LINE
  5
32C
100
AcDbEntity
  8
CURVE
100
AcDbLine
 62
7
  6
CONTINUOUS
 10
60.8890304075
 20
-37.7038173836
 11
60.946502926
 21
-37.6463448651
  0
LINE
  5
32D
100
AcDbEntity
  8
CURVE
100
AcDbLine
 62
7
  6
CONTINUOUS
 10
60.8592633977
 20
-37.9435951074
 11
60.9289401627
 21
-37.8739183425
  0
LINE
  5
32E
100
AcDbEntity
  8
CURVE
100
AcDbLine
 62
7
  6
CONTINUOUS
 10
60.8592633977
 20
-38.1536058214
 11
60.902960903
 21
-38.1099083161
  0
LINE
  5
32F
100
AcDbEntity
  8
CURVE
100
AcDbLine
 62
7
  6
CONTINUOUS
 10
60.8592633977
 20
-38.3636165355
 11
60.8769816434
 21
-38.3458982898
  0
LINE
  5
330
100
AcDbEntity
  8
0
100
AcDbLine
 62
7
  6
CONTINUOUS
 10
59.3767374102
 20
-43.7712689598
 11
59.7712689598
 21
-43.3767374102
  0
LINE
  5
331
100
AcDbEntity
  8
0
100
AcDbLine
 62
7
  6
CONTINUOUS
 10
59.8199854699
 20
-44.7906993223
 11
60.7906993223
 21
-43.8199854699
  0
LINE
  5
332
100
AcDbEntity
  8
0
100
AcDbLine
 62
7
  6
CONTINUOUS
 10
61.0
 20
-43.9993911979
 11
59.9993911979
 21
-45.0
  0
LINE
  5
333
100
AcDbEntity
  8
0
100
AcDbLine
 62
7
  6
CONTINUOUS
 10
60.8061684565
 20
-43.8055596544
 11
60.7906993223
 21
-43.8199854699
  0
LINE
  5
334
100
AcDbEntity
  8
0
100
AcDbLine
 62
7
  6
CONTINUOUS
 10
60.7906993223
 20
43.8199854699
 11
60.8061684565
 21
43.8055596544
  0
LINE
  5
335
100
AcDbEntity
  8
0
100
AcDbLine
 62
7
  6
CONTINUOUS
 10
59.7712689598
 20
43.3767374102
 11
59.3767374102
 21
43.7712689598
  0
LINE
  5
336
100
AcDbEntity
  8
0
100
AcDbLine
 62
7
  6
CONTINUOUS
 10
60.7906993223
 20
43.8199854699
 11
59.8199854699
 21
44.7906993223
  0
LINE
  5
337
100
AcDbEntity
  8
0
100
AcDbLine
 62
7
  6
CONTINUOUS
 10
59.9993911979
 20
45.0
 11
61.0
 21
43.9993911979
  0
LINE
  5
338
100
AcDbEntity
  8
0
100
AcDbLine
 62
7
  6
CONTINUOUS
 10
59.8055596544
 20
44.8061684565
 11
59.8199854699
 21
44.7906993223
  0
LWPOLYLINE
  5
339
100
AcDbEntity
  8
0
100
AcDbPolyline
 62
7
  6
CONTINUOUS
 90
3
 70
0
 43
0.3500000006
 10
-110.6910244446
 20
68.5173277588
 10
-109.8338774414
 20
69.374474762
 10
-109.8338774414
 20
66.3744738464
  0
LWPOLYLINE
  5
33A
100
AcDbEntity
  8
0
100
AcDbPolyline
 62
7
  6
CONTINUOUS
 90
3
 70
0
 43
0.3500000006
 10
-104.9053070984
 20
68.5173277588
 10
-104.0481691589
 20
69.374474762
 10
-104.0481691589
 20
66.3744738464
  0
LWPOLYLINE
  5
33B
100
AcDbEntity
  8
0
100
AcDbPolyline
 62
7
  6
CONTINUOUS
 90
3
 70
0
 43
0.3500000006
 10
-105.2402297058
 20
58.2390775452
 10
-104.3830917664
 20
59.0962245483
 10
-104.3830917664
 20
56.0962236328
  0
LINE
  5
33C
100
AcDbEntity
  8
0
100
AcDbLine
 62
7
  6
CONTINUOUS
 10
-98.2542236878
 20
-44.8061684565
 11
-92.7036145148
 21
-45.0
  0
LINE
  5
33D
100
AcDbEntity
  8
0
100
AcDbLine
 62
7
  6
CONTINUOUS
 10
-98.2542236878
 20
-43.8055596544
 11
-92.7036145148
 21
-43.9993911979
  0
LINE
  5
33E
100
AcDbEntity
  8
0
100
AcDbLine
 62
7
  6
CONTINUOUS
 10
-92.7036145148
 20
-42.7580439128
 11
-92.1036145148
 21
-42.8
  0
LINE
  5
33F
100
AcDbEntity
  8
0
100
AcDbLine
 62
7
  6
CONTINUOUS
 10
-99.2536145148
 20
43.3767374102
 11
-98.269162057
 21
43.8199854699
  0
LINE
  5
340
100
AcDbEntity
  8
0
100
AcDbLine
 62
250
  6
CONTINUOUS
 10
-92.7036145148
 20
-41.1619414324
 11
-92.1036145148
 21
-41.2038975196
  0
LINE
  5
341
100
AcDbEntity
  8
0
100
AcDbLine
 62
7
  6
CONTINUOUS
 10
-99.2536145148
 20
-43.3767374102
 11
-98.269162057
 21
-43.8199854699
  0
LINE
  5
342
100
AcDbEntity
  8
CURVE
100
AcDbLine
 62
250
  6
CONTINUOUS
 10
-96.7337835033
 20
-37.940019
 11
-95.0141856744
 21
-37.463524
  0
LINE
  5
343
100
AcDbEntity
  8
CURVE
100
AcDbLine
 62
250
  6
CONTINUOUS
 10
-96.7339324126
 20
-36.257398
 11
-94.235570275
 21
-36.257398
  0
LINE
  5
344
100
AcDbEntity
  8
CURVE
100
AcDbLine
 62
250
  6
CONTINUOUS
 10
-95.0141856744
 20
-37.463524
 11
-96.7337835033
 21
-36.972473
  0
LINE
  5
345
100
AcDbEntity
  8
0
100
AcDbLine
 62
7
  6
CONTINUOUS
 10
-98.2542236878
 20
44.8061684565
 11
-99.2536145148
 21
43.7712689598
  0
LINE
  5
346
100
AcDbEntity
  8
CURVE
100
AcDbLine
 62
250
  6
CONTINUOUS
 10
-94.235570275
 20
-33.429996
 11
-95.8600560789
 21
-33.5372
  0
LINE
  5
347
100
AcDbEntity
  8
CURVE
100
AcDbLine
 62
250
  6
CONTINUOUS
 10
-94.235570275
 20
-35.735605
 11
-96.7339324126
 21
-35.735605
  0
LINE
  5
348
100
AcDbEntity
  8
CURVE
100
AcDbLine
 62
250
  6
CONTINUOUS
 10
-95.8668559341
 20
-34.842919
 11
-94.235570275
 21
-34.955522
  0
LINE
  5
349
100
AcDbEntity
  8
CURVE
100
AcDbLine
 62
250
  6
CONTINUOUS
 10
-94.235570275
 20
-35.454708
 11
-96.7337835033
 21
-35.228996
  0
LINE
  5
34A
100
AcDbEntity
  8
CURVE
100
AcDbLine
 62
250
  6
CONTINUOUS
 10
-96.7337835033
 20
-36.451037
 11
-94.235570275
 21
-37.254552
  0
LINE
  5
34B
100
AcDbEntity
  8
0
100
AcDbLine
 62
7
  6
CONTINUOUS
 10
-99.2536145148
 20
-43.7712689598
 11
-98.2542236878
 21
-44.8061684565
  0
LWPOLYLINE
  5
34C
100
AcDbEntity
  8
0
100
AcDbPolyline
 62
7
  6
CONTINUOUS
 90
3
 70
0
 43
0.3500000006
 10
-105.9053074036
 20
66.6601895142
 10
-105.9767385864
 20
66.4459050293
 10
-106.1195918884
 20
66.1601893616
  0
LINE
  5
34D
100
AcDbEntity
  8
CURVE
100
AcDbLine
 62
250
  6
CONTINUOUS
 10
-94.235570275
 20
-31.331727
 11
-94.7343022757
 21
-31.466899
  0
LINE
  5
34E
100
AcDbEntity
  8
CURVE
100
AcDbLine
 62
250
  6
CONTINUOUS
 10
-95.1202190423
 20
-31.571179
 11
-96.0473379223
 21
-31.81095
  0
LINE
  5
34F
100
AcDbEntity
  8
CURVE
100
AcDbLine
 62
250
  6
CONTINUOUS
 10
-96.7337835033
 20
-33.153297
 11
-94.235570275
 21
-32.919544
  0
LINE
  5
350
100
AcDbEntity
  8
CURVE
100
AcDbLine
 62
250
  6
CONTINUOUS
 10
-96.7045956472
 20
-30.6285551388
 11
-94.2355702585
 21
-30.6285551388
  0
LINE
  5
351
100
AcDbEntity
  8
CURVE
100
AcDbLine
 62
250
  6
CONTINUOUS
 10
-95.6223796401
 20
-30.126163664
 11
-96.308187762
 21
-30.126163664
  0
LINE
  5
352
100
AcDbEntity
  8
CURVE
100
AcDbLine
 62
250
  6
CONTINUOUS
 10
-94.2355702585
 20
-30.1088617972
 11
-95.2132327492
 21
-30.1088617972
  0
LINE
  5
353
100
AcDbEntity
  8
CURVE
100
AcDbLine
 62
250
  6
CONTINUOUS
 10
-96.0473379223
 20
-31.81095
 11
-95.1202190423
 21
-32.070759
  0
LINE
  5
354
100
AcDbEntity
  8
CURVE
100
AcDbLine
 62
250
  6
CONTINUOUS
 10
-94.7343022757
 20
-32.177494
 11
-94.235570275
 21
-32.321477
  0
LINE
  5
355
100
AcDbEntity
  8
CURVE
100
AcDbLine
 62
250
  6
CONTINUOUS
 10
-94.235570275
 20
-32.837608
 11
-96.7337835033
 21
-32.053532
  0
LINE
  5
356
100
AcDbEntity
  8
CURVE
100
AcDbLine
 62
250
  6
CONTINUOUS
 10
-95.3467679508
 20
-34.191353
 11
-96.7337835033
 21
-33.66956
  0
LINE
  5
357
100
AcDbEntity
  8
CURVE
100
AcDbLine
 62
250
  6
CONTINUOUS
 10
-95.8600560789
 20
-33.5372
 11
-94.235570275
 21
-34.157611
  0
LWPOLYLINE
  5
358
100
AcDbEntity
  8
0
100
AcDbPolyline
 62
7
  6
CONTINUOUS
 90
3
 70
0
 43
0.3500000006
 10
-106.240230011
 20
56.3819302368
 10
-106.3116611938
 20
56.167645752
 10
-106.4545144958
 20
55.8819300842
  0
LWPOLYLINE
  5
359
100
AcDbEntity
  8
CURVE
100
AcDbPolyline
 62
250
  6
CONTINUOUS
 90
4
 70
0
 10
-94.6772069466
 20
-29.4377182594
 10
-94.6062743012
 20
-29.4176218259
 10
-94.5708262325
 20
-29.407534002
 10
-94.2355702585
 20
-29.3098079785
  0
LWPOLYLINE
  5
35A
100
AcDbEntity
  8
CURVE
100
AcDbPolyline
 62
250
  6
CONTINUOUS
 90
45
 70
0
 10
-94.9697761841
 20
-29.0020331232
 10
-94.9890890917
 20
-29.0074110228
 10
-95.0084511768
 20
-29.0129778129
 10
-95.0279026463
 20
-29.0188084012
 10
-95.047483707
 20
-29.0249776956
 10
-95.0582446737
 20
-29.0285154344
 10
-95.0690454377
 20
-29.0321788401
 10
-95.0798751435
 20
-29.0359701946
 10
-95.090722936
 20
-29.0398917796
 10
-95.1015779598
 20
-29.0439458767
 10
-95.1124293595
 20
-29.0481347679
 10
-95.12326628
 20
-29.0524607348
 10
-95.1340778659
 20
-29.0569260593
 10
-95.1448532619
 20
-29.061533023
 10
-95.1555816127
 20
-29.0662839077
 10
-95.1662520629
 20
-29.0711809952
 10
-95.1768537574
 20
-29.0762265673
 10
-95.1873758408
 20
-29.0814229056
 10
-95.1978074578
 20
-29.086772292
 10
-95.2081377531
 20
-29.0922770082
 10
-95.2183558715
 20
-29.097939336
 10
-95.2284509575
 20
-29.1037615571
 10
-95.2384121559
 20
-29.1097459533
 10
-95.2482286114
 20
-29.1158948064
 10
-95.2578894688
 20
-29.122210398
 10
-95.2673838726
 20
-29.12869501
 10
-95.2767009676
 20
-29.1353509241
 10
-95.2858298986
 20
-29.1421804221
 10
-95.2947598101
 20
-29.1491857857
 10
-95.303479847
 20
-29.1563692967
 10
-95.3119791539
 20
-29.1637332369
 10
-95.3202468755
 20
-29.171279888
 10
-95.3282721565
 20
-29.1790115317
 10
-95.3360441415
 20
-29.1869304498
 10
-95.3435519754
 20
-29.1950389241
 10
-95.3507848029
 20
-29.2033392364
 10
-95.3577317685
 20
-29.2118336683
 10
-95.364382017
 20
-29.2205245017
 10
-95.3707246931
 20
-29.2294140183
 10
-95.3767489416
 20
-29.2385044999
 10
-95.382443907
 20
-29.2477982281
 10
-95.3877987342
 20
-29.2572974849
 10
-95.3928025678
 20
-29.2670045519
 10
-95.3974445525
 20
-29.2769217109
 10
-95.4017138329
 20
-29.2870512436
  0
LINE
  5
35B
100
AcDbEntity
  8
CURVE
100
AcDbLine
 62
250
  6
CONTINUOUS
 10
-94.8214933876
 20
-28.9619131419
 11
-94.9697761841
 21
-29.0020331232
  0
LINE
  5
35C
100
AcDbEntity
  8
CURVE
100
AcDbLine
 62
250
  6
CONTINUOUS
 10
-94.2355702585
 20
-28.8079038802
 11
-94.3247609852
 21
-28.8317103572
  0
LINE
  5
35D
100
AcDbEntity
  8
CURVE
100
AcDbLine
 62
250
  6
CONTINUOUS
 10
-94.6407581242
 20
-28.9141482465
 11
-94.8214933876
 21
-28.9619131419
  0
LINE
  5
35E
100
AcDbEntity
  8
CURVE
100
AcDbLine
 62
250
  6
CONTINUOUS
 10
-94.3247609852
 20
-28.8317103572
 11
-94.6407581242
 21
-28.9141482465
  0
LWPOLYLINE
  5
35F
100
AcDbEntity
  8
CURVE
100
AcDbPolyline
 62
250
  6
CONTINUOUS
 90
59
 70
0
 10
-96.0106008407
 20
-29.4226356449
 10
-95.9997539944
 20
-29.4226069612
 10
-95.98882327
 20
-29.4228544869
 10
-95.9778236381
 20
-29.4233783442
 10
-95.9667700695
 20
-29.4241786553
 10
-95.955677535
 20
-29.4252555424
 10
-95.9445610052
 20
-29.4266091279
 10
-95.933435451
 20
-29.4282395339
 10
-95.9223158429
 20
-29.4301468827
 10
-95.9112171518
 20
-29.4323312964
 10
-95.9001543484
 20
-29.4347928975
 10
-95.8891424034
 20
-29.437531808
 10
-95.8781962876
 20
-29.4405481502
 10
-95.8673309716
 20
-29.4438420464
 10
-95.8565614262
 20
-29.4474136188
 10
-95.8459026221
 20
-29.4512629897
 10
-95.8353695301
 20
-29.4553902812
 10
-95.8249771209
 20
-29.4597956156
 10
-95.8147403652
 20
-29.4644791152
 10
-95.8046742338
 20
-29.4694409021
 10
-95.7947936974
 20
-29.4746810987
 10
-95.7851137266
 20
-29.4801998271
 10
-95.7756492923
 20
-29.4859972096
 10
-95.7664153652
 20
-29.4920733685
 10
-95.7574269159
 20
-29.4984284259
 10
-95.7486989153
 20
-29.5050625042
 10
-95.740246334
 20
-29.5119757254
 10
-95.7320841429
 20
-29.519168212
 10
-95.7242273125
 20
-29.5266400861
 10
-95.7166908137
 20
-29.5343914699
 10
-95.7094896172
 20
-29.5424224857
 10
-95.7027248162
 20
-29.5506174953
 10
-95.6962936626
 20
-29.5590719673
 10
-95.6901888871
 20
-29.5677730826
 10
-95.6844032202
 20
-29.5767080222
 10
-95.6789293928
 20
-29.585863967
 10
-95.6737601355
 20
-29.5952280979
 10
-95.668888179
 20
-29.6047875957
 10
-95.6643062541
 20
-29.6145296415
 10
-95.6600070913
 20
-29.624441416
 10
-95.6559834214
 20
-29.6345101002
 10
-95.6522279751
 20
-29.6447228751
 10
-95.6487334831
 20
-29.6550669214
 10
-95.6454926761
 20
-29.6655294202
 10
-95.6424982847
 20
-29.6760975523
 10
-95.6397430397
 20
-29.6867584987
 10
-95.6372196718
 20
-29.6974994402
 10
-95.6349209116
 20
-29.7083075577
 10
-95.6328394899
 20
-29.7191700322
 10
-95.6309681373
 20
-29.7300740446
 10
-95.6292995846
 20
-29.7410067757
 10
-95.6278265623
 20
-29.7519554065
 10
-95.6265418014
 20
-29.762907118
 10
-95.6254380323
 20
-29.7738490909
 10
-95.6245079858
 20
-29.7847685061
 10
-95.6237443927
 20
-29.7956525448
 10
-95.6231399836
 20
-29.8064883876
 10
-95.6226874891
 20
-29.8172632155
 10
-95.6223796401
 20
-29.8279642095
  0
LINE
  5
360
100
AcDbEntity
  8
0
100
AcDbLine
 62
7
  6
CONTINUOUS
 10
-91.1036145148
 20
-27.15
 11
-92.1036145148
 21
-27.151745331
  0
LINE
  5
361
100
AcDbEntity
  8
0
100
AcDbLine
 62
250
  6
CONTINUOUS
 10
-91.1778419311
 20
-26.9276792439
 11
-92.1036145148
 21
-26.9280974384
  0
LINE
  5
362
100
AcDbEntity
  8
CURVE
100
AcDbLine
 62
250
  6
CONTINUOUS
 10
-95.4017138329
 20
-29.2870512436
 11
-95.4164760926
 21
-29.2870512436
  0
LINE
  5
363
100
AcDbEntity
  8
0
100
AcDbLine
 62
7
  6
CONTINUOUS
 10
-89.6535652826
 20
-26.3415638603
 11
-92.1036145148
 21
-26.3558178298
  0
LINE
  5
364
100
AcDbEntity
  8
0
100
AcDbLine
 62
250
  6
CONTINUOUS
 10
-89.6535652826
 20
-26.2536973817
 11
-92.1036145148
 21
-26.2679513512
  0
LINE
  5
365
100
AcDbEntity
  8
0
100
AcDbLine
 62
7
  6
CONTINUOUS
 10
-89.1036145148
 20
-26.1523612067
 11
-89.2241772819
 21
-26.1523612067
  0
LINE
  5
366
100
AcDbEntity
  8
0
100
AcDbLine
 62
7
  6
CONTINUOUS
 10
-91.1534901359
 20
-25.2
 11
-92.1036145148
 21
-25.2
  0
LINE
  5
367
100
AcDbEntity
  8
0
100
AcDbLine
 62
7
  6
CONTINUOUS
 10
-92.1036145148
 20
-25.05
 11
-91.9536145148
 21
-25.05
  0
LINE
  5
368
100
AcDbEntity
  8
0
100
AcDbLine
 62
7
  6
CONTINUOUS
 10
-91.6536145148
 20
-25.05
 11
-91.4536145148
 21
-25.05
  0
LINE
  5
369
100
AcDbEntity
  8
0
100
AcDbLine
 62
7
  6
CONTINUOUS
 10
-89.1036145148
 20
-25.3523612067
 11
-89.6255511691
 21
-25.3478063346
  0
LINE
  5
36A
100
AcDbEntity
  8
0
100
AcDbLine
 62
7
  6
CONTINUOUS
 10
-92.1036145148
 20
-25.7558198745
 11
-89.2931473236
 21
-25.8799866677
  0
LINE
  5
36B
100
AcDbEntity
  8
0
100
AcDbLine
 62
7
  6
CONTINUOUS
 10
-89.1036145148
 20
-25.4
 11
-91.0539864169
 21
-25.2049628098
  0
LWPOLYLINE
  5
36C
100
AcDbEntity
  8
0
100
AcDbPolyline
 62
250
  6
CONTINUOUS
 90
4
 70
0
 10
-89.6138043491
 20
26.2860223324
 10
-89.626902274
 20
26.2765535679
 10
-89.6401803759
 20
26.2657606882
 10
-89.6535652826
 20
26.2536973817
  0
LWPOLYLINE
  5
36D
100
AcDbEntity
  8
0
100
AcDbPolyline
 62
250
  6
CONTINUOUS
 90
4
 70
0
 10
-89.6139344277
 20
-26.2859342015
 10
-89.6270127681
 20
-26.2764686549
 10
-89.6402474726
 20
-26.2657031614
 10
-89.6535652826
 20
-26.2536973817
  0
LWPOLYLINE
  5
36E
100
AcDbEntity
  8
0
100
AcDbPolyline
 62
7
  6
CONTINUOUS
 90
4
 70
0
 43
0.3500000006
 10
-109.3116621094
 20
58.45336203
 10
-109.3116621094
 20
59.0962245483
 10
-107.8116616516
 20
59.0962245483
 10
-108.6687995911
 20
56.0962236328
  0
LWPOLYLINE
  5
36F
100
AcDbEntity
  8
0
100
AcDbPolyline
 62
7
  6
CONTINUOUS
 90
13
 70
0
 43
0.3500000006
 10
-108.976739502
 20
67.2316117859
 10
-108.976739502
 20
68.5173277588
 10
-108.7624550171
 20
68.9459057922
 10
-108.3338860474
 20
69.374474762
 10
-108.1195924988
 20
69.374474762
 10
-107.6910235291
 20
68.9459057922
 10
-107.4767390442
 20
68.5173277588
 10
-107.4767390442
 20
67.2316117859
 10
-107.6910235291
 20
66.8030428162
 10
-108.1195924988
 20
66.3744738464
 10
-108.3338860474
 20
66.3744738464
 10
-108.7624550171
 20
66.8030428162
 10
-108.976739502
 20
67.2316117859
  0
LINE
  5
370
100
AcDbEntity
  8
0
100
AcDbLine
 62
7
  6
CONTINUOUS
 10
-91.9536145148
 20
25.05
 11
-91.8036145148
 21
25.2
  0
LINE
  5
371
100
AcDbEntity
  8
0
100
AcDbLine
 62
7
  6
CONTINUOUS
 10
-91.4536145148
 20
25.05
 11
-91.3036145148
 21
25.2
  0
LINE
  5
372
100
AcDbEntity
  8
0
100
AcDbLine
 62
7
  6
CONTINUOUS
 10
-91.9536145148
 20
-25.05
 11
-91.8036145148
 21
-25.2
  0
LINE
  5
373
100
AcDbEntity
  8
0
100
AcDbLine
 62
7
  6
CONTINUOUS
 10
-91.4536145148
 20
-25.05
 11
-91.3036145148
 21
-25.2
  0
LWPOLYLINE
  5
374
100
AcDbEntity
  8
0
100
AcDbPolyline
 62
250
  6
CONTINUOUS
 90
9
 70
0
 10
-91.0838919646
 20
-27.0743267514
 10
-91.076560977
 20
-27.0836229322
 10
-91.0694466361
 20
-27.0921118435
 10
-91.0626257905
 20
-27.0996269012
 10
-91.0562389341
 20
-27.1059331739
 10
-91.0504422061
 20
-27.1108002478
 10
-91.0453546996
 20
-27.1140462739
 10
-91.0410727841
 20
-27.1155077333
 10
-91.0377082811
 20
-27.1150157961
  0
LWPOLYLINE
  5
375
100
AcDbEntity
  8
0
100
AcDbPolyline
 62
250
  6
CONTINUOUS
 90
19
 70
0
 10
-91.1778419311
 20
26.9276792439
 10
-91.1693519371
 20
26.9424141352
 10
-91.1607753859
 20
26.9570463224
 10
-91.1521446339
 20
26.9715084868
 10
-91.1435504245
 20
26.9856439647
 10
-91.1349723013
 20
26.9994715641
 10
-91.1262877699
 20
27.0131521113
 10
-91.1175460908
 20
27.0265716626
 10
-91.1088120708
 20
27.039602394
 10
-91.1000192349
 20
27.0522984804
 10
-91.0912222172
 20
27.064518718
 10
-91.0825694766
 20
27.0759886095
 10
-91.0741696629
 20
27.0864914288
 10
-91.0661019706
 20
27.0958342017
 10
-91.0585743521
 20
27.1036780954
 10
-91.0518592467
 20
27.1096689366
 10
-91.046096687
 20
27.1136317019
 10
-91.0413460929
 20
27.1154586947
 10
-91.0377082811
 20
27.1150157961
  0
LWPOLYLINE
  5
376
100
AcDbEntity
  8
0
100
AcDbPolyline
 62
7
  6
CONTINUOUS
 90
7
 70
0
 10
-89.1314734298
 20
-25.9765617175
 10
-89.1232021412
 20
-25.9906158523
 10
-89.1162905536
 20
-26.0036986716
 10
-89.110815015
 20
-26.0158101753
 10
-89.1068419996
 20
-26.0269503635
 10
-89.1044271731
 20
-26.0371192361
 10
-89.1036145148
 20
-26.0463167932
  0
LWPOLYLINE
  5
377
100
AcDbEntity
  8
0
100
AcDbPolyline
 62
250
  6
CONTINUOUS
 90
14
 70
0
 10
-91.1778419311
 20
-26.9276792439
 10
-91.1711827192
 20
-26.9392749534
 10
-91.1643961571
 20
-26.9509335974
 10
-91.1574987679
 20
-26.9626156844
 10
-91.1505435918
 20
-26.9742239841
 10
-91.1435158152
 20
-26.9857702456
 10
-91.1363364926
 20
-26.9973599347
 10
-91.1290216543
 20
-27.0089427835
 10
-91.1216185337
 20
-27.0204237062
 10
-91.1141081298
 20
-27.031805567
 10
-91.1065347646
 20
-27.0429896661
 10
-91.0989544583
 20
-27.0538596229
 10
-91.091383524
 20
-27.064352934
 10
-91.0838919646
 20
-27.0743267514
  0
LWPOLYLINE
  5
378
100
AcDbEntity
  8
CURVE
100
AcDbPolyline
 62
250
  6
CONTINUOUS
 90
73
 70
0
 10
-95.4164760926
 20
-29.2870512436
 10
-95.4180379661
 20
-29.2785372004
 10
-95.4204320929
 20
-29.2702734255
 10
-95.423566091
 20
-29.2622389999
 10
-95.4273475781
 20
-29.2544130044
 10
-95.431684172
 20
-29.2467745197
 10
-95.4364834905
 20
-29.2393026267
 10
-95.4416531514
 20
-29.2319764062
 10
-95.4471007725
 20
-29.2247749391
 10
-95.4527339715
 20
-29.2176773061
 10
-95.4584603664
 20
-29.210662588
 10
-95.4729358641
 20
-29.1932845632
 10
-95.4874903755
 20
-29.1763222047
 10
-95.5021977547
 20
-29.1597980104
 10
-95.5171318559
 20
-29.143734478
 10
-95.5323665331
 20
-29.1281541054
 10
-95.5479756403
 20
-29.1130793902
 10
-95.5640330318
 20
-29.0985328302
 10
-95.5806125617
 20
-29.0845369234
 10
-95.5991666702
 20
-29.0700624751
 10
-95.6183650538
 20
-29.0562677012
 10
-95.6381567794
 20
-29.0431637119
 10
-95.6584909139
 20
-29.0307616174
 10
-95.6793165242
 20
-29.0190725279
 10
-95.7005826771
 20
-29.0081075538
 10
-95.7222384396
 20
-28.9978778051
 10
-95.7442328785
 20
-28.9883943921
 10
-95.7665150608
 20
-28.9796684252
 10
-95.7890340533
 20
-28.9717110143
 10
-95.8117246413
 20
-28.964535883
 10
-95.8345876784
 20
-28.9581290207
 10
-95.8576100719
 20
-28.9524804372
 10
-95.8807787292
 20
-28.9475801423
 10
-95.9040805578
 20
-28.9434181457
 10
-95.9275024649
 20
-28.9399844572
 10
-95.9544061478
 20
-28.9369382549
 10
-95.9814154891
 20
-28.9348146158
 10
-96.0084963277
 20
-28.9335973367
 10
-96.0356145025
 20
-28.9332702142
 10
-96.0627358523
 20
-28.933817045
 10
-96.0898262162
 20
-28.9352216257
 10
-96.116178411
 20
-28.937409052
 10
-96.1424366623
 20
-28.9404260832
 10
-96.1685689646
 20
-28.9443022316
 10
-96.1945433123
 20
-28.9490670099
 10
-96.2203276999
 20
-28.9547499304
 10
-96.2433161365
 20
-28.9606636642
 10
-96.2660972808
 20
-28.9673488373
 10
-96.288643196
 20
-28.9748111535
 10
-96.3109259451
 20
-28.9830563168
 10
-96.3329175911
 20
-28.9920900312
 10
-96.3564938882
 20
-29.0028224101
 10
-96.3796528743
 20
-29.0144733362
 10
-96.4023553282
 20
-29.0270200968
 10
-96.4245620286
 20
-29.0404399787
 10
-96.4462337544
 20
-29.0547102691
 10
-96.4673312843
 20
-29.069808255
 10
-96.487815397
 20
-29.0857112234
 10
-96.5076468714
 20
-29.1023964613
 10
-96.5257456713
 20
-29.1188524083
 10
-96.5432131062
 20
-29.1359627953
 10
-96.5600349706
 20
-29.1537045158
 10
-96.5761970585
 20
-29.1720544628
 10
-96.5916851643
 20
-29.1909895296
 10
-96.6064850823
 20
-29.2104866096
 10
-96.6205826067
 20
-29.2305225958
 10
-96.6303995829
 20
-29.2454548683
 10
-96.6397820294
 20
-29.2606620192
 10
-96.6486761472
 20
-29.2761448819
 10
-96.657028137
 20
-29.2919042894
 10
-96.6647841997
 20
-29.3079410752
 10
-96.6718905361
 20
-29.3242560724
 10
-96.6782933471
 20
-29.3408501143
  0
LWPOLYLINE
  5
379
100
AcDbEntity
  8
CURVE
100
AcDbPolyline
 62
250
  6
CONTINUOUS
 90
22
 70
0
 10
-96.308187762
 20
-30.126163664
 10
-96.3112318589
 20
-30.107944195
 10
-96.3141380921
 20
-30.0897025706
 10
-96.3168831732
 20
-30.0714356261
 10
-96.3194438138
 20
-30.0531401966
 10
-96.3217967253
 20
-30.0348131175
 10
-96.3239186193
 20
-30.016451224
 10
-96.3259276237
 20
-29.9965919368
 10
-96.3276402853
 20
-29.9766946025
 10
-96.3290565075
 20
-29.9567654168
 10
-96.3301761941
 20
-29.9368105752
 10
-96.3309992486
 20
-29.9168362733
 10
-96.3315255745
 20
-29.8968487068
 10
-96.3317550756
 20
-29.8768540712
 10
-96.3316876555
 20
-29.8568585621
 10
-96.3313232176
 20
-29.8368683753
 10
-96.3306616656
 20
-29.8168897061
 10
-96.3297029031
 20
-29.7969287504
 10
-96.3284468337
 20
-29.7769917036
 10
-96.326893361
 20
-29.7570847614
 10
-96.3250423887
 20
-29.7372141194
 10
-96.3228938202
 20
-29.7173859732
  0
LINE
  5
37A
100
AcDbEntity
  8
0
100
AcDbLine
 62
7
  6
CONTINUOUS
 10
-99.2536145148
 20
-43.7712689598
 11
-99.2536145148
 21
43.7712689598
  0
LINE
  5
37B
100
AcDbEntity
  8
0
100
AcDbLine
 62
7
  6
CONTINUOUS
 10
-98.269162057
 20
-44.7906993223
 11
-98.269162057
 21
-43.8199854699
  0
LINE
  5
37C
100
AcDbEntity
  8
0
100
AcDbLine
 62
7
  6
CONTINUOUS
 10
-98.269162057
 20
43.8199854699
 11
-98.269162057
 21
44.7906993223
  0
LINE
  5
37D
100
AcDbEntity
  8
0
100
AcDbLine
 62
7
  6
CONTINUOUS
 10
-98.2542236878
 20
-43.8055596544
 11
-98.2542236878
 21
43.8055596544
  0
LINE
  5
37E
100
AcDbEntity
  8
0
100
AcDbLine
 62
250
  6
CONTINUOUS
 10
-91.8536145148
 20
-2.6214065094
 11
-92.1036145148
 21
-2.6214065094
  0
LINE
  5
37F
100
AcDbEntity
  8
CURVE
100
AcDbLine
 62
250
  6
CONTINUOUS
 10
-96.7339324126
 20
-35.735605
 11
-96.7339324126
 21
-36.257398
  0
LINE
  5
380
100
AcDbEntity
  8
CURVE
100
AcDbLine
 62
250
  6
CONTINUOUS
 10
-96.7337835033
 20
-38.506847
 11
-96.7337835033
 21
-37.940019
  0
LINE
  5
381
100
AcDbEntity
  8
CURVE
100
AcDbLine
 62
250
  6
CONTINUOUS
 10
-96.7337835033
 20
-36.972473
 11
-96.7337835033
 21
-36.451037
  0
LINE
  5
382
100
AcDbEntity
  8
CURVE
100
AcDbLine
 62
250
  6
CONTINUOUS
 10
-96.7337835033
 20
-35.228996
 11
-96.7337835033
 21
-34.707635
  0
LINE
  5
383
100
AcDbEntity
  8
CURVE
100
AcDbLine
 62
250
  6
CONTINUOUS
 10
-96.7337835033
 20
-33.66956
 11
-96.7337835033
 21
-33.153297
  0
LINE
  5
384
100
AcDbEntity
  8
CURVE
100
AcDbLine
 62
250
  6
CONTINUOUS
 10
-96.7337835033
 20
-32.053532
 11
-96.7337835033
 21
-31.54876
  0
LINE
  5
385
100
AcDbEntity
  8
CURVE
100
AcDbLine
 62
250
  6
CONTINUOUS
 10
-95.6223796401
 20
-29.8279642095
 11
-95.6223796401
 21
-30.126163664
  0
LINE
  5
386
100
AcDbEntity
  8
CURVE
100
AcDbLine
 62
250
  6
CONTINUOUS
 10
-95.2132327492
 20
-30.1088617972
 11
-95.2132327492
 21
-29.8290889245
  0
LINE
  5
387
100
AcDbEntity
  8
CURVE
100
AcDbLine
 62
250
  6
CONTINUOUS
 10
-95.1202190423
 20
-32.070759
 11
-95.1202190423
 21
-31.571179
  0
LINE
  5
388
100
AcDbEntity
  8
CURVE
100
AcDbLine
 62
250
  6
CONTINUOUS
 10
-94.7343022757
 20
-31.466899
 11
-94.7343022757
 21
-32.177494
  0
LINE
  5
389
100
AcDbEntity
  8
CURVE
100
AcDbLine
 62
250
  6
CONTINUOUS
 10
-94.235570275
 20
-36.257398
 11
-94.235570275
 21
-35.735605
  0
LINE
  5
38A
100
AcDbEntity
  8
CURVE
100
AcDbLine
 62
250
  6
CONTINUOUS
 10
-94.235570275
 20
-30.781779
 11
-94.235570275
 21
-31.331727
  0
LINE
  5
38B
100
AcDbEntity
  8
CURVE
100
AcDbLine
 62
250
  6
CONTINUOUS
 10
-94.235570275
 20
-32.321477
 11
-94.235570275
 21
-32.837608
  0
LINE
  5
38C
100
AcDbEntity
  8
CURVE
100
AcDbLine
 62
250
  6
CONTINUOUS
 10
-94.235570275
 20
-32.919544
 11
-94.235570275
 21
-33.429996
  0
LINE
  5
38D
100
AcDbEntity
  8
CURVE
100
AcDbLine
 62
250
  6
CONTINUOUS
 10
-94.235570275
 20
-34.157611
 11
-94.235570275
 21
-34.230793
  0
LINE
  5
38E
100
AcDbEntity
  8
CURVE
100
AcDbLine
 62
250
  6
CONTINUOUS
 10
-94.235570275
 20
-34.955522
 11
-94.235570275
 21
-35.454708
  0
LINE
  5
38F
100
AcDbEntity
  8
CURVE
100
AcDbLine
 62
250
  6
CONTINUOUS
 10
-94.235570275
 20
-37.254552
 11
-94.235570275
 21
-37.714382
  0
LINE
  5
390
100
AcDbEntity
  8
CURVE
100
AcDbLine
 62
250
  6
CONTINUOUS
 10
-94.2355702585
 20
-30.6285551388
 11
-94.2355702585
 21
-30.1088617972
  0
LINE
  5
391
100
AcDbEntity
  8
CURVE
100
AcDbLine
 62
250
  6
CONTINUOUS
 10
-94.2355702585
 20
-29.3098079785
 11
-94.2355702585
 21
-28.8079038802
  0
LWPOLYLINE
  5
392
100
AcDbEntity
  8
CURVE
100
AcDbPolyline
 62
250
  6
CONTINUOUS
 90
48
 70
0
 10
-95.2132327492
 20
-29.8290889245
 10
-95.2131308064
 20
-29.8210548328
 10
-95.2128238661
 20
-29.8130064764
 10
-95.2123102603
 20
-29.804952124
 10
-95.2115883211
 20
-29.7969000444
 10
-95.2106563805
 20
-29.7888585064
 10
-95.2095127706
 20
-29.7808357788
 10
-95.2081558233
 20
-29.7728401303
 10
-95.2065838708
 20
-29.7648798296
 10
-95.204795245
 20
-29.7569631455
 10
-95.202788278
 20
-29.7490983469
 10
-95.2005613019
 20
-29.7412937024
 10
-95.1981126487
 20
-29.7335574809
 10
-95.1954406504
 20
-29.725897951
 10
-95.1925436391
 20
-29.7183233816
 10
-95.1894199468
 20
-29.7108420414
 10
-95.1860679056
 20
-29.7034621992
 10
-95.1824858474
 20
-29.6961921237
 10
-95.1785734581
 20
-29.6888582855
 10
-95.1744249874
 20
-29.6816503098
 10
-95.170047995
 20
-29.6745699327
 10
-95.1654500401
 20
-29.6676188901
 10
-95.1606386824
 20
-29.660798918
 10
-95.1556214812
 20
-29.6541117522
 10
-95.150405996
 20
-29.6475591288
 10
-95.1449997863
 20
-29.6411427837
 10
-95.1394104115
 20
-29.6348644528
 10
-95.1336454312
 20
-29.6287258722
 10
-95.1277124047
 20
-29.6227287778
 10
-95.1216188915
 20
-29.6168749054
 10
-95.1153724512
 20
-29.6111659912
 10
-95.1089806431
 20
-29.605603771
 10
-95.1024510267
 20
-29.6001899807
 10
-95.0957911615
 20
-29.5949263565
 10
-95.089008607
 20
-29.5898146341
 10
-95.0821109226
 20
-29.5848565495
 10
-95.0751056677
 20
-29.5800538388
 10
-95.0680004019
 20
-29.5754082378
 10
-95.0608026846
 20
-29.5709214826
 10
-95.0535200753
 20
-29.566595309
 10
-95.0461601334
 20
-29.562431453
 10
-95.0387304184
 20
-29.5584316506
 10
-95.0312384898
 20
-29.5545976378
 10
-95.023691907
 20
-29.5509311504
 10
-95.0160982294
 20
-29.5474339245
 10
-95.0084650166
 20
-29.544107696
 10
-95.0007998281
 20
-29.5409542008
 10
-94.9931102231
 20
-29.5379751749
  0
LINE
  5
393
100
AcDbEntity
  8
0
100
AcDbLine
 62
7
  6
CONTINUOUS
 10
-92.7036145148
 20
-45.0
 11
-92.7036145148
 21
45.0
  0
LINE
  5
394
100
AcDbEntity
  8
0
100
AcDbLine
 62
7
  6
CONTINUOUS
 10
-92.1036145148
 20
-42.8
 11
-92.1036145148
 21
42.8
  0
LINE
  5
395
100
AcDbEntity
  8
0
100
AcDbLine
 62
7
  6
CONTINUOUS
 10
-91.8536145148
 20
2.6214065094
 11
-91.8536145148
 21
-2.6214065094
  0
LINE
  5
396
100
AcDbEntity
  8
0
100
AcDbLine
 62
250
  6
CONTINUOUS
 10
-91.1777771841
 20
-27.1497777049
 11
-91.1778419311
 21
-26.9276792439
  0
LINE
  5
397
100
AcDbEntity
  8
0
100
AcDbLine
 62
250
  6
CONTINUOUS
 10
-91.1778419311
 20
26.9276792439
 11
-91.177777316
 21
27.1497758474
  0
LWPOLYLINE
  5
398
100
AcDbEntity
  8
0
100
AcDbPolyline
 62
7
  6
CONTINUOUS
 90
7
 70
0
 10
-89.1036145148
 20
26.0463167932
 10
-89.1044270319
 20
26.0371202412
 10
-89.1068415508
 20
26.0269519716
 10
-89.1108142646
 20
26.0158119844
 10
-89.1162896749
 20
26.0037002797
 10
-89.1232014646
 20
25.9906168574
 10
-89.1314734298
 20
25.9765617175
  0
LWPOLYLINE
  5
399
100
AcDbEntity
  8
CURVE
100
AcDbPolyline
 62
250
  6
CONTINUOUS
 90
49
 70
0
 10
-96.3228938202
 20
-29.7173859732
 10
-96.3216552452
 20
-29.7078227954
 10
-96.3201583268
 20
-29.6982589655
 10
-96.3184037914
 20
-29.6887050169
 10
-96.3163923651
 20
-29.6791714829
 10
-96.3141247742
 20
-29.6696688966
 10
-96.3116017451
 20
-29.6602077914
 10
-96.3088240039
 20
-29.6507987005
 10
-96.3057922769
 20
-29.6414521572
 10
-96.3025072904
 20
-29.6321786947
 10
-96.2989697707
 20
-29.6229888463
 10
-96.295180444
 20
-29.6138931453
 10
-96.2911400365
 20
-29.6049021249
 10
-96.2868492746
 20
-29.5960263183
 10
-96.2823088846
 20
-29.587276259
 10
-96.2775195926
 20
-29.57866248
 10
-96.2724821249
 20
-29.5701955147
 10
-96.2671972078
 20
-29.5618858963
 10
-96.2616655677
 20
-29.5537441581
 10
-96.2558879306
 20
-29.5457808334
 10
-96.249865023
 20
-29.5380064553
 10
-96.243597571
 20
-29.5304315573
 10
-96.237086301
 20
-29.5230666725
 10
-96.2303319391
 20
-29.5159223342
 10
-96.2233352117
 20
-29.5090090756
 10
-96.2161382659
 20
-29.5023714982
 10
-96.2087135688
 20
-29.4959759626
 10
-96.2010724107
 20
-29.4898254949
 10
-96.1932260822
 20
-29.4839231213
 10
-96.1851858734
 20
-29.4782718679
 10
-96.1769630748
 20
-29.4728747607
 10
-96.1685689767
 20
-29.467734826
 10
-96.1600148694
 20
-29.4628550899
 10
-96.1513120434
 20
-29.4582385786
 10
-96.1424717889
 20
-29.453888318
 10
-96.1335053964
 20
-29.4498073345
 10
-96.1244241562
 20
-29.4459986541
 10
-96.1152393586
 20
-29.4424653029
 10
-96.105962294
 20
-29.4392103071
 10
-96.0966042527
 20
-29.4362366929
 10
-96.0871765252
 20
-29.4335474862
 10
-96.0776904017
 20
-29.4311457134
 10
-96.0681571726
 20
-29.4290344005
 10
-96.0585881283
 20
-29.4272165737
 10
-96.0489945591
 20
-29.425695259
 10
-96.0393877554
 20
-29.4244734827
 10
-96.0297790075
 20
-29.4235542708
 10
-96.0201796058
 20
-29.4229406495
 10
-96.0106008407
 20
-29.4226356449
  0
LINE
  5
39A
100
AcDbEntity
  8
0
100
AcDbLine
 62
250
  6
CONTINUOUS
 10
-91.8536145148
 20
2.6214065094
 11
-92.1036145148
 21
2.6214065094
  0
LWPOLYLINE
  5
39B
100
AcDbEntity
  8
0
100
AcDbPolyline
 62
250
  6
CONTINUOUS
 90
3
 70
0
 10
-89.6534662621
 20
26.3370052859
 10
-89.6535089162
 20
26.3404218694
 10
-89.6535652826
 20
26.3415638603
  0
LINE
  5
39C
100
AcDbEntity
  8
0
100
AcDbLine
 62
250
  6
CONTINUOUS
 10
-89.6534232836
 20
26.3234690471
 11
-89.6534662621
 21
26.3370052859
  0
LINE
  5
39D
100
AcDbEntity
  8
0
100
AcDbLine
 62
250
  6
CONTINUOUS
 10
-89.6534232836
 20
-26.3234690471
 11
-89.6535652826
 21
-26.2536973817
  0
LINE
  5
39E
100
AcDbEntity
  8
0
100
AcDbLine
 62
250
  6
CONTINUOUS
 10
-89.3879137279
 20
25.3715700787
 11
-89.3879137279
 21
25.3498801651
  0
LINE
  5
39F
100
AcDbEntity
  8
0
100
AcDbLine
 62
250
  6
CONTINUOUS
 10
-89.3879137279
 20
-25.3498801651
 11
-89.3879137279
 21
-25.3715700787
  0
LINE
  5
3A0
100
AcDbEntity
  8
0
100
AcDbLine
 62
250
  6
CONTINUOUS
 10
-89.2931473236
 20
25.8799866677
 11
-89.2931473236
 21
25.3810467191
  0
LINE
  5
3A1
100
AcDbEntity
  8
0
100
AcDbLine
 62
250
  6
CONTINUOUS
 10
-89.2931473236
 20
-25.3810467191
 11
-89.2931473236
 21
-25.8799866677
  0
LINE
  5
3A2
100
AcDbEntity
  8
0
100
AcDbLine
 62
7
  6
CONTINUOUS
 10
-89.1036145148
 20
26.1523612067
 11
-89.1036145148
 21
25.3523612067
  0
LINE
  5
3A3
100
AcDbEntity
  8
0
100
AcDbLine
 62
7
  6
CONTINUOUS
 10
-89.1036145148
 20
-25.3523612067
 11
-89.1036145148
 21
-26.1523612067
  0
LINE
  5
3A4
100
AcDbEntity
  8
0
100
AcDbLine
 62
250
  6
CONTINUOUS
 10
-89.6535652826
 20
26.2536973817
 11
-89.6534232836
 21
26.3234690471
  0
LWPOLYLINE
  5
3A5
100
AcDbEntity
  8
0
100
AcDbPolyline
 62
250
  6
CONTINUOUS
 90
4
 70
0
 10
-89.6535652826
 20
-26.3415638603
 10
-89.6535089162
 20
-26.3404218694
 10
-89.6534662621
 20
-26.3370052859
 10
-89.6534232836
 20
-26.3234690471
  0
LWPOLYLINE
  5
3A6
100
AcDbEntity
  8
CURVE
100
AcDbPolyline
 62
250
  6
CONTINUOUS
 90
32
 70
0
 10
-96.6782933471
 20
-29.3408501143
 10
-96.688682413
 20
-29.3710546827
 10
-96.698178221
 20
-29.4015492389
 10
-96.7068241028
 20
-29.4323081711
 10
-96.7146633904
 20
-29.4633058676
 10
-96.7217394156
 20
-29.4945167169
 10
-96.7280955104
 20
-29.5259151072
 10
-96.7337750066
 20
-29.5574754269
 10
-96.7388212361
 20
-29.5891720642
 10
-96.7432775308
 20
-29.6209794075
 10
-96.7471872226
 20
-29.6528718452
 10
-96.7505936434
 20
-29.6848237655
 10
-96.753540125
 20
-29.7168095567
 10
-96.7571825755
 20
-29.7649371944
 10
-96.7599203718
 20
-29.8130783618
 10
-96.7617912279
 20
-29.861227906
 10
-96.7628328577
 20
-29.9093806743
 10
-96.7630829753
 20
-29.9575315137
 10
-96.7625792945
 20
-30.0056752715
 10
-96.7613595294
 20
-30.0538067947
 10
-96.7594613938
 20
-30.1019209305
 10
-96.7569226018
 20
-30.1500125261
 10
-96.7537808673
 20
-30.1980764285
 10
-96.7500739043
 20
-30.246107485
 10
-96.7458394267
 20
-30.2941005426
 10
-96.7411151484
 20
-30.3420504485
 10
-96.7359387835
 20
-30.3899520499
 10
-96.7303480458
 20
-30.4378001939
 10
-96.7243806494
 20
-30.4855897277
 10
-96.7180743082
 20
-30.5333154983
 10
-96.7114667361
 20
-30.580972353
 10
-96.7045956472
 20
-30.6285551388
  0
LWPOLYLINE
  5
3A7
100
AcDbEntity
  8
0
100
AcDbPolyline
 62
7
  6
CONTINUOUS
 90
10
 70
0
 43
0.3500000006
 10
-106.3116611938
 20
56.5962237854
 10
-106.240230011
 20
56.4533614197
 10
-106.240230011
 20
56.3819302368
 10
-106.3830923767
 20
56.2390769348
 10
-106.4545144958
 20
56.2390769348
 10
-106.5259456787
 20
56.3105081177
 10
-106.5259456787
 20
56.3819302368
 10
-106.4545144958
 20
56.5247926025
 10
-106.3830923767
 20
56.5962237854
 10
-106.3116611938
 20
56.5962237854
  0
LINE
  5
3A8
100
AcDbEntity
  8
CURVE
100
AcDbLine
 62
7
  6
CONTINUOUS
 10
-96.7254565295
 20
-29.5143020106
 11
-96.1531563252
 21
-28.9420018063
  0
LINE
  5
3A9
100
AcDbEntity
  8
CURVE
100
AcDbLine
 62
7
  6
CONTINUOUS
 10
-96.7556366516
 20
-29.7544928467
 11
-95.9401322833
 21
-28.9389884784
  0
LINE
  5
3AA
100
AcDbEntity
  8
CURVE
100
AcDbLine
 62
7
  6
CONTINUOUS
 10
-96.762174287
 20
-29.9710411961
 11
-95.7700835787
 21
-28.9789504878
  0
LINE
  5
3AB
100
AcDbEntity
  8
0
100
AcDbLine
 62
7
  6
CONTINUOUS
 10
-91.8036145148
 20
-25.2
 11
-91.6536145148
 21
-25.05
  0
LINE
  5
3AC
100
AcDbEntity
  8
CURVE
100
AcDbLine
 62
7
  6
CONTINUOUS
 10
-96.7554051785
 20
-30.1742828016
 11
-96.3253990198
 21
-29.7442766429
  0
LINE
  5
3AD
100
AcDbEntity
  8
CURVE
100
AcDbLine
 62
7
  6
CONTINUOUS
 10
-96.0039096379
 20
-29.422787261
 11
-95.6297929732
 21
-29.0486705963
  0
LINE
  5
3AE
100
AcDbEntity
  8
CURVE
100
AcDbLine
 62
7
  6
CONTINUOUS
 10
-96.7380641863
 20
-30.3669525234
 11
-96.3289630267
 21
-29.9578513638
  0
LINE
  5
3AF
100
AcDbEntity
  8
CURVE
100
AcDbLine
 62
7
  6
CONTINUOUS
 10
-95.8293814109
 20
-29.458269748
 11
-95.5163622281
 21
-29.1452505652
  0
LINE
  5
3B0
100
AcDbEntity
  8
CURVE
100
AcDbLine
 62
7
  6
CONTINUOUS
 10
-96.7149002315
 20
-30.5537992826
 11
-96.2872646129
 21
-30.126163664
  0
LINE
  5
3B1
100
AcDbEntity
  8
CURVE
100
AcDbLine
 62
7
  6
CONTINUOUS
 10
-95.7069172036
 20
-29.5458162547
 11
-95.4237237025
 21
-29.2626227537
  0
LINE
  5
3B2
100
AcDbEntity
  8
CURVE
100
AcDbLine
 62
7
  6
CONTINUOUS
 10
-96.5796453737
 20
-30.6285551388
 11
-96.0772538989
 21
-30.126163664
  0
LINE
  5
3B3
100
AcDbEntity
  8
CURVE
100
AcDbLine
 62
7
  6
CONTINUOUS
 10
-95.6394846597
 20
-29.6883944248
 11
-94.9468948281
 21
-28.9958045932
  0
LINE
  5
3B4
100
AcDbEntity
  8
CURVE
100
AcDbLine
 62
7
  6
CONTINUOUS
 10
-96.3696346597
 20
-30.6285551388
 11
-95.8672431849
 21
-30.126163664
  0
LINE
  5
3B5
100
AcDbEntity
  8
CURVE
100
AcDbLine
 62
7
  6
CONTINUOUS
 10
-95.6223796401
 20
-29.8813001192
 11
-94.6604771661
 21
-28.9193976453
  0
LINE
  5
3B6
100
AcDbEntity
  8
CURVE
100
AcDbLine
 62
7
  6
CONTINUOUS
 10
-96.1596239457
 20
-30.6285551388
 11
-95.6572324709
 21
-30.126163664
  0
LINE
  5
3B7
100
AcDbEntity
  8
CURVE
100
AcDbLine
 62
7
  6
CONTINUOUS
 10
-95.6223796401
 20
-30.0913108332
 11
-94.3762766122
 21
-28.8452078053
  0
LINE
  5
3B8
100
AcDbEntity
  8
CURVE
100
AcDbLine
 62
7
  6
CONTINUOUS
 10
-95.9496132316
 20
-30.6285551388
 11
-95.2132327492
 21
-29.8921746563
  0
LINE
  5
3B9
100
AcDbEntity
  8
CURVE
100
AcDbLine
 62
7
  6
CONTINUOUS
 10
-94.7923619812
 20
-29.4713038884
 11
-94.2355702585
 21
-28.9145121656
  0
LINE
  5
3BA
100
AcDbEntity
  8
CURVE
100
AcDbLine
 62
7
  6
CONTINUOUS
 10
-96.7337835033
 20
-31.6227361245
 11
-96.6270340276
 21
-31.5159866487
  0
LINE
  5
3BB
100
AcDbEntity
  8
CURVE
100
AcDbLine
 62
7
  6
CONTINUOUS
 10
-95.7396025176
 20
-30.6285551388
 11
-95.2132327492
 21
-30.1021853703
  0
LINE
  5
3BC
100
AcDbEntity
  8
CURVE
100
AcDbLine
 62
7
  6
CONTINUOUS
 10
-94.4971336128
 20
-29.386086234
 11
-94.2355702585
 21
-29.1245228797
  0
LINE
  5
3BD
100
AcDbEntity
  8
CURVE
100
AcDbLine
 62
7
  6
CONTINUOUS
 10
-96.7337835033
 20
-31.8327468385
 11
-96.3239830935
 21
-31.4229464287
  0
LINE
  5
3BE
100
AcDbEntity
  8
CURVE
100
AcDbLine
 62
7
  6
CONTINUOUS
 10
-95.5295918036
 20
-30.6285551388
 11
-95.0098984621
 21
-30.1088617972
  0
LINE
  5
3BF
100
AcDbEntity
  8
CURVE
100
AcDbLine
 62
7
  6
CONTINUOUS
 10
-96.7337835033
 20
-32.0427575525
 11
-96.0209321595
 21
-31.3299062087
  0
LINE
  5
3C0
100
AcDbEntity
  8
CURVE
100
AcDbLine
 62
7
  6
CONTINUOUS
 10
-95.3195810896
 20
-30.6285551388
 11
-94.799887748
 21
-30.1088617972
  0
LINE
  5
3C1
100
AcDbEntity
  8
CURVE
100
AcDbLine
 62
7
  6
CONTINUOUS
 10
-96.582140963
 20
-32.1011257262
 11
-95.7178812254
 21
-31.2368659887
  0
LINE
  5
3C2
100
AcDbEntity
  8
CURVE
100
AcDbLine
 62
7
  6
CONTINUOUS
 10
-95.1095703756
 20
-30.6285551388
 11
-94.589877034
 21
-30.1088617972
  0
LINE
  5
3C3
100
AcDbEntity
  8
CURVE
100
AcDbLine
 62
7
  6
CONTINUOUS
 10
-96.4222977843
 20
-32.1512932615
 11
-95.4148302914
 21
-31.1438257686
  0
LINE
  5
3C4
100
AcDbEntity
  8
CURVE
100
AcDbLine
 62
7
  6
CONTINUOUS
 10
-94.8995596616
 20
-30.6285551388
 11
-94.37986632
 21
-30.1088617972
  0
LINE
  5
3C5
100
AcDbEntity
  8
CURVE
100
AcDbLine
 62
7
  6
CONTINUOUS
 10
-96.2624546055
 20
-32.2014607967
 11
-95.9103361745
 21
-31.8493423657
  0
LINE
  5
3C6
100
AcDbEntity
  8
CURVE
100
AcDbLine
 62
7
  6
CONTINUOUS
 10
-95.8107602026
 20
-31.7497663938
 11
-95.1117793574
 21
-31.0507855486
  0
LINE
  5
3C7
100
AcDbEntity
  8
CURVE
100
AcDbLine
 62
7
  6
CONTINUOUS
 10
-94.6895489476
 20
-30.6285551388
 11
-94.2355702585
 21
-30.1745764497
  0
LINE
  5
3C8
100
AcDbEntity
  8
CURVE
100
AcDbLine
 62
7
  6
CONTINUOUS
 10
-96.1026114268
 20
-32.251628332
 11
-95.7462951226
 21
-31.8953120278
  0
LINE
  5
3C9
100
AcDbEntity
  8
CURVE
100
AcDbLine
 62
7
  6
CONTINUOUS
 10
-95.5274904004
 20
-31.6765073057
 11
-94.8087284233
 21
-30.9577453286
  0
LINE
  5
3CA
100
AcDbEntity
  8
CURVE
100
AcDbLine
 62
7
  6
CONTINUOUS
 10
-94.4795382336
 20
-30.6285551388
 11
-94.2355702585
 21
-30.3845871637
  0
LINE
  5
3CB
100
AcDbEntity
  8
0
100
AcDbLine
 62
7
  6
CONTINUOUS
 10
-91.8036145148
 20
25.2
 11
-91.6536145148
 21
25.05
  0
LWPOLYLINE
  5
3CC
100
AcDbEntity
  8
0
100
AcDbPolyline
 62
7
  6
CONTINUOUS
 90
10
 70
0
 43
0.3500000006
 10
-105.9767385864
 20
66.874473999
 10
-105.9053074036
 20
66.7316116333
 10
-105.9053074036
 20
66.6601895142
 10
-106.0481697693
 20
66.5173271484
 10
-106.1195918884
 20
66.5173271484
 10
-106.1910230713
 20
66.5887583313
 10
-106.1910230713
 20
66.6601895142
 10
-106.1195918884
 20
66.8030428162
 10
-106.0481697693
 20
66.874473999
 10
-105.9767385864
 20
66.874473999
  0
LINE
  5
3CD
100
AcDbEntity
  8
CURVE
100
AcDbLine
 62
7
  6
CONTINUOUS
 10
-95.942768248
 20
-32.3017958673
 11
-95.5822540707
 21
-31.9412816899
  0
LINE
  5
3CE
100
AcDbEntity
  8
CURVE
100
AcDbLine
 62
7
  6
CONTINUOUS
 10
-95.2442205983
 20
-31.6032482176
 11
-94.5056774893
 21
-30.8647051085
  0
LINE
  5
3CF
100
AcDbEntity
  8
CURVE
100
AcDbLine
 62
7
  6
CONTINUOUS
 10
-94.2695275195
 20
-30.6285551388
 11
-94.2355702585
 21
-30.5945978777
  0
LINE
  5
3D0
100
AcDbEntity
  8
CURVE
100
AcDbLine
 62
7
  6
CONTINUOUS
 10
-96.7337835033
 20
-33.3028218366
 11
-96.5688236952
 21
-33.1378620285
  0
LINE
  5
3D1
100
AcDbEntity
  8
CURVE
100
AcDbLine
 62
7
  6
CONTINUOUS
 10
-95.7829250693
 20
-32.3519634025
 11
-95.4182130188
 21
-31.9872513521
  0
LINE
  5
3D2
100
AcDbEntity
  8
CURVE
100
AcDbLine
 62
7
  6
CONTINUOUS
 10
-95.1202190423
 20
-31.6892573756
 11
-94.235570275
 21
-30.8046086082
  0
LINE
  5
3D3
100
AcDbEntity
  8
CURVE
100
AcDbLine
 62
7
  6
CONTINUOUS
 10
-96.7337835033
 20
-33.5128325506
 11
-96.3371342457
 21
-33.1161832929
  0
LINE
  5
3D4
100
AcDbEntity
  8
CURVE
100
AcDbLine
 62
7
  6
CONTINUOUS
 10
-95.6230818905
 20
-32.4021309378
 11
-95.2541719669
 21
-32.0332210142
  0
LINE
  5
3D5
100
AcDbEntity
  8
CURVE
100
AcDbLine
 62
7
  6
CONTINUOUS
 10
-95.1202190423
 20
-31.8992680896
 11
-94.7343022757
 21
-31.513351323
  0
LINE
  5
3D6
100
AcDbEntity
  8
CURVE
100
AcDbLine
 62
7
  6
CONTINUOUS
 10
-94.670578929
 20
-31.4496279763
 11
-94.235570275
 21
-31.0146193222
  0
LINE
  5
3D7
100
AcDbEntity
  8
CURVE
100
AcDbLine
 62
7
  6
CONTINUOUS
 10
-96.6950657825
 20
-33.6841255438
 11
-96.1054447961
 21
-33.0945045574
  0
LINE
  5
3D8
100
AcDbEntity
  8
CURVE
100
AcDbLine
 62
7
  6
CONTINUOUS
 10
-95.4632387118
 20
-32.452298473
 11
-94.7343022757
 21
-31.723362037
  0
LINE
  5
3D9
100
AcDbEntity
  8
CURVE
100
AcDbLine
 62
7
  6
CONTINUOUS
 10
-94.3824860052
 20
-31.3715457665
 11
-94.235570275
 21
-31.2246300363
  0
LINE
  5
3DA
100
AcDbEntity
  8
CURVE
100
AcDbLine
 62
7
  6
CONTINUOUS
 10
-96.5424637176
 20
-33.7415341929
 11
-95.8737553466
 21
-33.0728258219
  0
LINE
  5
3DB
100
AcDbEntity
  8
CURVE
100
AcDbLine
 62
7
  6
CONTINUOUS
 10
-95.303395533
 20
-32.5024660083
 11
-94.7343022757
 21
-31.933372751
  0
LINE
  5
3DC
100
AcDbEntity
  8
CURVE
100
AcDbLine
 62
7
  6
CONTINUOUS
 10
-96.3898616527
 20
-33.7989428421
 11
-95.642065897
 21
-33.0511470863
  0
LINE
  5
3DD
100
AcDbEntity
  8
CURVE
100
AcDbLine
 62
7
  6
CONTINUOUS
 10
-95.1435523542
 20
-32.5526335436
 11
-94.7343022757
 21
-32.143383465
  0
LINE
  5
3DE
100
AcDbEntity
  8
CURVE
100
AcDbLine
 62
7
  6
CONTINUOUS
 10
-96.2372595879
 20
-33.8563514912
 11
-95.4103764474
 21
-33.0294683508
  0
LINE
  5
3DF
100
AcDbEntity
  8
CURVE
100
AcDbLine
 62
7
  6
CONTINUOUS
 10
-94.9837091755
 20
-32.6028010788
 11
-94.5978077982
 21
-32.2168997015
  0
LINE
  5
3E0
100
AcDbEntity
  8
CURVE
100
AcDbLine
 62
7
  6
CONTINUOUS
 10
-96.084657523
 20
-33.9137601404
 11
-95.7500934542
 21
-33.5791960715
  0
LINE
  5
3E1
100
AcDbEntity
  8
CURVE
100
AcDbLine
 62
7
  6
CONTINUOUS
 10
-95.6973606955
 20
-33.5264633128
 11
-95.1786869979
 21
-33.0077896152
  0
LINE
  5
3E2
100
AcDbEntity
  8
CURVE
100
AcDbLine
 62
7
  6
CONTINUOUS
 10
-94.8238659967
 20
-32.6529686141
 11
-94.4348443331
 21
-32.2639469505
  0
LINE
  5
3E3
100
AcDbEntity
  8
CURVE
100
AcDbLine
 62
7
  6
CONTINUOUS
 10
-96.7337835033
 20
-34.7728968347
 11
-96.6298261223
 21
-34.6689394537
  0
LINE
  5
3E4
100
AcDbEntity
  8
CURVE
100
AcDbLine
 62
7
  6
CONTINUOUS
 10
-95.9320554582
 20
-33.9711687895
 11
-95.59812236
 21
-33.6372356913
  0
LINE
  5
3E5
100
AcDbEntity
  8
CURVE
100
AcDbLine
 62
7
  6
CONTINUOUS
 10
-95.4725116116
 20
-33.511624943
 11
-94.9469975483
 21
-32.9861108797
  0
LINE
  5
3E6
100
AcDbEntity
  8
CURVE
100
AcDbLine
 62
7
  6
CONTINUOUS
 10
-94.664022818
 20
-32.7031361494
 11
-94.271880868
 21
-32.3109941994
  0
LINE
  5
3E7
100
AcDbEntity
  8
CURVE
100
AcDbLine
 62
7
  6
CONTINUOUS
 10
-96.7337835033
 20
-34.9829075487
 11
-96.2952942489
 21
-34.5444182943
  0
LINE
  5
3E8
100
AcDbEntity
  8
CURVE
100
AcDbLine
 62
7
  6
CONTINUOUS
 10
-95.7794533933
 20
-34.0285774387
 11
-95.4461512658
 21
-33.6952753112
  0
LINE
  5
3E9
100
AcDbEntity
  8
CURVE
100
AcDbLine
 62
7
  6
CONTINUOUS
 10
-95.2476625277
 20
-33.4967865731
 11
-94.7153080988
 21
-32.9644321442
  0
LINE
  5
3EA
100
AcDbEntity
  8
CURVE
100
AcDbLine
 62
7
  6
CONTINUOUS
 10
-94.5041796392
 20
-32.7533036846
 11
-94.235570275
 21
-32.4846943203
  0
LINE
  5
3EB
100
AcDbEntity
  8
CURVE
100
AcDbLine
 62
7
  6
CONTINUOUS
 10
-96.7337835033
 20
-35.1929182627
 11
-95.9607623756
 21
-34.419897135
  0
LINE
  5
3EC
100
AcDbEntity
  8
CURVE
100
AcDbLine
 62
7
  6
CONTINUOUS
 10
-95.6268513285
 20
-34.0859860878
 11
-95.2941801717
 21
-33.753314931
  0
LINE
  5
3ED
100
AcDbEntity
  8
CURVE
100
AcDbLine
 62
7
  6
CONTINUOUS
 10
-95.0228134439
 20
-33.4819482033
 11
-94.4836186492
 21
-32.9427534086
  0
LINE
  5
3EE
100
AcDbEntity
  8
CURVE
100
AcDbLine
 62
7
  6
CONTINUOUS
 10
-94.3443364605
 20
-32.8034712199
 11
-94.235570275
 21
-32.6947050343
  0
LINE
  5
3EF
100
AcDbEntity
  8
CURVE
100
AcDbLine
 62
7
  6
CONTINUOUS
 10
-96.5742630955
 20
-35.2434085689
 11
-95.6262305022
 21
-34.2953759756
  0
LINE
  5
3F0
100
AcDbEntity
  8
CURVE
100
AcDbLine
 62
7
  6
CONTINUOUS
 10
-95.4742492636
 20
-34.143394737
 11
-95.1422090775
 21
-33.8113545509
  0
LINE
  5
3F1
100
AcDbEntity
  8
CURVE
100
AcDbLine
 62
7
  6
CONTINUOUS
 10
-94.79796436
 20
-33.4671098334
 11
-94.2519291997
 21
-32.9210746731
  0
LINE
  5
3F2
100
AcDbEntity
  8
CURVE
100
AcDbLine
 62
7
  6
CONTINUOUS
 10
-96.3816544518
 20
-35.2608106392
 11
-94.9902379833
 21
-33.8693941707
  0
LINE
  5
3F3
100
AcDbEntity
  8
CURVE
100
AcDbLine
 62
7
  6
CONTINUOUS
 10
-94.5731152761
 20
-33.4522714635
 11
-94.235570275
 21
-33.1147264624
  0
LINE
  5
3F4
100
AcDbEntity
  8
CURVE
100
AcDbLine
 62
7
  6
CONTINUOUS
 10
-96.7339324126
 20
-35.823099314
 11
-96.6464380986
 21
-35.735605
  0
LINE
  5
3F5
100
AcDbEntity
  8
CURVE
100
AcDbLine
 62
7
  6
CONTINUOUS
 10
-96.1890458081
 20
-35.2782127095
 11
-95.7610552203
 21
-34.8502221217
  0
LINE
  5
3F6
100
AcDbEntity
  8
CURVE
100
AcDbLine
 62
7
  6
CONTINUOUS
 10
-95.6858198587
 20
-34.7749867601
 11
-94.8382668892
 21
-33.9274337906
  0
LINE
  5
3F7
100
AcDbEntity
  8
CURVE
100
AcDbLine
 62
7
  6
CONTINUOUS
 10
-94.3482661923
 20
-33.4374330937
 11
-94.235570275
 21
-33.3247371764
  0
LINE
  5
3F8
100
AcDbEntity
  8
CURVE
100
AcDbLine
 62
7
  6
CONTINUOUS
 10
-96.7339324126
 20
-36.033110028
 11
-96.4364273846
 21
-35.735605
  0
LINE
  5
3F9
100
AcDbEntity
  8
CURVE
100
AcDbLine
 62
7
  6
CONTINUOUS
 10
-95.9964371643
 20
-35.2956147798
 11
-95.5646049113
 21
-34.8637825267
  0
LINE
  5
3FA
100
AcDbEntity
  8
CURVE
100
AcDbLine
 62
7
  6
CONTINUOUS
 10
-95.3496728547
 20
-34.6488504701
 11
-94.686295795
 21
-33.9854734104
  0
LINE
  5
3FB
100
AcDbEntity
  8
CURVE
100
AcDbLine
 62
7
  6
CONTINUOUS
 10
-96.7339324126
 20
-36.243120742
 11
-96.2264166706
 21
-35.735605
  0
LINE
  5
3FC
100
AcDbEntity
  8
CURVE
100
AcDbLine
 62
7
  6
CONTINUOUS
 10
-95.8038285206
 20
-35.3130168501
 11
-95.3681546022
 21
-34.8773429317
  0
LINE
  5
3FD
100
AcDbEntity
  8
CURVE
100
AcDbLine
 62
7
  6
CONTINUOUS
 10
-95.0135258507
 20
-34.5227141801
 11
-94.5343247008
 21
-34.0435130303
  0
LINE
  5
3FE
100
AcDbEntity
  8
CURVE
100
AcDbLine
 62
7
  6
CONTINUOUS
 10
-96.7337835033
 20
-36.4529825468
 11
-96.7323114286
 21
-36.451510472
  0
LINE
  5
3FF
100
AcDbEntity
  8
CURVE
100
AcDbLine
 62
7
  6
CONTINUOUS
 10
-96.5381989565
 20
-36.257398
 11
-96.0164059565
 21
-35.735605
  0
LINE
  5
400
100
AcDbEntity
  8
CURVE
100
AcDbLine
 62
7
  6
CONTINUOUS
 10
-95.6112198769
 20
-35.3304189203
 11
-95.1717042932
 21
-34.8909033366
  0
LINE
  5
401
100
AcDbEntity
  8
CURVE
100
AcDbLine
 62
7
  6
CONTINUOUS
 10
-94.6773788467
 20
-34.3965778901
 11
-94.3823536066
 21
-34.1015526501
  0
LINE
  5
402
100
AcDbEntity
  8
CURVE
100
AcDbLine
 62
7
  6
CONTINUOUS
 10
-96.7337835033
 20
-36.6629932608
 11
-96.5734093302
 21
-36.5026190877
  0
LINE
  5
403
100
AcDbEntity
  8
CURVE
100
AcDbLine
 62
7
  6
CONTINUOUS
 10
-96.3281882425
 20
-36.257398
 11
-95.8063952425
 21
-35.735605
  0
LINE
  5
404
100
AcDbEntity
  8
CURVE
100
AcDbLine
 62
7
  6
CONTINUOUS
 10
-95.4186112332
 20
-35.3478209906
 11
-94.9752539841
 21
-34.9044637416
  0
LINE
  5
405
100
AcDbEntity
  8
CURVE
100
AcDbLine
 62
7
  6
CONTINUOUS
 10
-94.3412318427
 20
-34.2704416001
 11
-94.235570275
 21
-34.1647800324
  0
LINE
  5
406
100
AcDbEntity
  8
CURVE
100
AcDbLine
 62
7
  6
CONTINUOUS
 10
-96.7337835033
 20
-36.8730039748
 11
-96.4145072318
 21
-36.5537277033
  0
LINE
  5
407
100
AcDbEntity
  8
CURVE
100
AcDbLine
 62
7
  6
CONTINUOUS
 10
-96.1181775285
 20
-36.257398
 11
-95.5963845285
 21
-35.735605
  0
LINE
  5
408
100
AcDbEntity
  8
CURVE
100
AcDbLine
 62
7
  6
CONTINUOUS
 10
-95.2260025894
 20
-35.3652230609
 11
-94.7788036751
 21
-34.9180241466
  0
LINE
  5
409
100
AcDbEntity
  8
CURVE
100
AcDbLine
 62
7
  6
CONTINUOUS
 10
-96.6477964186
 20
-36.9970276041
 11
-96.2556051334
 21
-36.6048363189
  0
LINE
  5
40A
100
AcDbEntity
  8
CURVE
100
AcDbLine
 62
7
  6
CONTINUOUS
 10
-95.9081668145
 20
-36.257398
 11
-95.3863738145
 21
-35.735605
  0
LINE
  5
40B
100
AcDbEntity
  8
CURVE
100
AcDbLine
 62
7
  6
CONTINUOUS
 10
-95.0333939457
 20
-35.3826251312
 11
-94.582353366
 21
-34.9315845515
  0
LINE
  5
40C
100
AcDbEntity
  8
CURVE
100
AcDbLine
 62
7
  6
CONTINUOUS
 10
-96.4844353442
 20
-37.0436772437
 11
-96.096703035
 21
-36.6559449345
  0
LINE
  5
40D
100
AcDbEntity
  8
CURVE
100
AcDbLine
 62
7
  6
CONTINUOUS
 10
-95.6981561005
 20
-36.257398
 11
-95.1763631005
 21
-35.735605
  0
LINE
  5
40E
100
AcDbEntity
  8
CURVE
100
AcDbLine
 62
7
  6
CONTINUOUS
 10
-94.840785302
 20
-35.4000272015
 11
-94.385903057
 21
-34.9451449565
  0
LINE
  5
40F
100
AcDbEntity
  8
CURVE
100
AcDbLine
 62
7
  6
CONTINUOUS
 10
-96.3210742698
 20
-37.0903268833
 11
-95.9378009366
 21
-36.7070535501
  0
LINE
  5
410
100
AcDbEntity
  8
CURVE
100
AcDbLine
 62
7
  6
CONTINUOUS
 10
-95.4881453865
 20
-36.257398
 11
-94.9663523865
 21
-35.735605
  0
LINE
  5
411
100
AcDbEntity
  8
CURVE
100
AcDbLine
 62
7
  6
CONTINUOUS
 10
-94.6481766583
 20
-35.4174292718
 11
-94.235570275
 21
-35.0048228885
  0
LINE
  5
412
100
AcDbEntity
  8
CURVE
100
AcDbLine
 62
7
  6
CONTINUOUS
 10
-96.1577131954
 20
-37.1369765229
 11
-95.7788988382
 21
-36.7581621657
  0
LINE
  5
413
100
AcDbEntity
  8
CURVE
100
AcDbLine
 62
7
  6
CONTINUOUS
 10
-95.2781346725
 20
-36.257398
 11
-94.7563416725
 21
-35.735605
  0
LINE
  5
414
100
AcDbEntity
  8
CURVE
100
AcDbLine
 62
7
  6
CONTINUOUS
 10
-94.4555680145
 20
-35.4348313421
 11
-94.235570275
 21
-35.2148336025
  0
LINE
  5
415
100
AcDbEntity
  8
CURVE
100
AcDbLine
 62
7
  6
CONTINUOUS
 10
-95.9943521209
 20
-37.1836261625
 11
-95.6199967398
 21
-36.8092707813
  0
LINE
  5
416
100
AcDbEntity
  8
CURVE
100
AcDbLine
 62
7
  6
CONTINUOUS
 10
-95.0681239585
 20
-36.257398
 11
-94.5463309585
 21
-35.735605
  0
LINE
  5
417
100
AcDbEntity
  8
CURVE
100
AcDbLine
 62
7
  6
CONTINUOUS
 10
-94.2629593708
 20
-35.4522334124
 11
-94.235570275
 21
-35.4248443165
  0
LINE
  5
418
100
AcDbEntity
  8
CURVE
100
AcDbLine
 62
7
  6
CONTINUOUS
 10
-96.7337835033
 20
-38.1330682589
 11
-96.4667363382
 21
-37.8660210937
  0
LINE
  5
419
100
AcDbEntity
  8
CURVE
100
AcDbLine
 62
7
  6
CONTINUOUS
 10
-95.8309910465
 20
-37.2302758021
 11
-95.4610946414
 21
-36.8603793969
  0
LINE
  5
41A
100
AcDbEntity
  8
CURVE
100
AcDbLine
 62
7
  6
CONTINUOUS
 10
-94.8581132444
 20
-36.257398
 11
-94.3363202444
 21
-35.735605
  0
LINE
  5
41B
100
AcDbEntity
  8
CURVE
100
AcDbLine
 62
7
  6
CONTINUOUS
 10
-96.7337835033
 20
-38.3430789729
 11
-96.1762262054
 21
-37.785521675
  0
LINE
  5
41C
100
AcDbEntity
  8
CURVE
100
AcDbLine
 62
7
  6
CONTINUOUS
 10
-95.6676299721
 20
-37.2769254416
 11
-95.302192543
 21
-36.9114880125
  0
LINE
  5
41D
100
AcDbEntity
  8
CURVE
100
AcDbLine
 62
7
  6
CONTINUOUS
 10
-94.6481025304
 20
-36.257398
 11
-94.235570275
 21
-35.8448657445
  0
LINE
  5
41E
100
AcDbEntity
  8
CURVE
100
AcDbLine
 62
7
  6
CONTINUOUS
 10
-96.6660571588
 20
-38.4853633424
 11
-95.8857160727
 21
-37.7050222562
  0
LINE
  5
41F
100
AcDbEntity
  8
CURVE
100
AcDbLine
 62
7
  6
CONTINUOUS
 10
-95.5042688977
 20
-37.3235750812
 11
-95.1432904446
 21
-36.9625966281
  0
LINE
  5
420
100
AcDbEntity
  8
CURVE
100
AcDbLine
 62
7
  6
CONTINUOUS
 10
-94.4380918164
 20
-36.257398
 11
-94.235570275
 21
-36.0548764585
  0
LINE
  5
421
100
AcDbEntity
  8
CURVE
100
AcDbLine
 62
7
  6
CONTINUOUS
 10
-96.3584786222
 20
-38.3877955198
 11
-95.5952059399
 21
-37.6245228375
  0
LINE
  5
422
100
AcDbEntity
  8
CURVE
100
AcDbLine
 62
7
  6
CONTINUOUS
 10
-95.3409078232
 20
-37.3702247208
 11
-94.9843883462
 21
-37.0137052437
  0
LINE
  5
423
100
AcDbEntity
  8
CURVE
100
AcDbLine
 62
7
  6
CONTINUOUS
 10
-96.0509000857
 20
-38.2902276973
 11
-95.3046958071
 21
-37.5440234187
  0
LINE
  5
424
100
AcDbEntity
  8
CURVE
100
AcDbLine
 62
7
  6
CONTINUOUS
 10
-95.1775467488
 20
-37.4168743604
 11
-94.8254862478
 21
-37.0648138594
  0
LINE
  5
425
100
AcDbEntity
  8
CURVE
100
AcDbLine
 62
7
  6
CONTINUOUS
 10
-95.7433215491
 20
-38.1926598747
 11
-94.6665841493
 21
-37.115922475
  0
LINE
  5
426
100
AcDbEntity
  8
CURVE
100
AcDbLine
 62
7
  6
CONTINUOUS
 10
-95.4357430125
 20
-38.0950920522
 11
-94.5076820509
 21
-37.1670310906
  0
LINE
  5
427
100
AcDbEntity
  8
CURVE
100
AcDbLine
 62
7
  6
CONTINUOUS
 10
-95.128164476
 20
-37.9975242296
 11
-94.3487799525
 21
-37.2181397062
  0
LINE
  5
428
100
AcDbEntity
  8
CURVE
100
AcDbLine
 62
7
  6
CONTINUOUS
 10
-94.8205859394
 20
-37.899956407
 11
-94.235570275
 21
-37.3149407426
  0
LINE
  5
429
100
AcDbEntity
  8
CURVE
100
AcDbLine
 62
7
  6
CONTINUOUS
 10
-94.5130074028
 20
-37.8023885845
 11
-94.235570275
 21
-37.5249514566
  0
LINE
  5
42A
100
AcDbEntity
  8
0
100
AcDbLine
 62
250
  6
CONTINUOUS
 10
-91.1778419311
 20
-26.9276792439
 11
-90.0783230712
 21
-26.3440350289
  0
LINE
  5
42B
100
AcDbEntity
  8
0
100
AcDbLine
 62
250
  6
CONTINUOUS
 10
-89.6535652826
 20
-26.2536973817
 11
-89.1314734298
 21
-25.9765617175
  0
LINE
  5
42C
100
AcDbEntity
  8
0
100
AcDbLine
 62
7
  6
CONTINUOUS
 10
-89.1036145148
 20
-26.0883643404
 11
-91.1036145193
 21
-27.1500000024
  0
LWPOLYLINE
  5
42D
100
AcDbEntity
  8
0
100
AcDbPolyline
 62
250
  6
CONTINUOUS
 90
10
 70
0
 10
-89.5146533536
 20
-26.3065510847
 10
-89.5233036572
 20
-26.3102018793
 10
-89.5326811916
 20
-26.3123636456
 10
-89.5427331344
 20
-26.3130263407
 10
-89.5533999571
 20
-26.3121886807
 10
-89.5646247185
 20
-26.3098576224
 10
-89.5763549053
 20
-26.3060441026
 10
-89.5885315933
 20
-26.3007647907
 10
-89.601083009
 20
-26.2940484058
 10
-89.6139344277
 20
-26.2859342015
  0
LWPOLYLINE
  5
42E
100
AcDbEntity
  8
CURVE
100
AcDbPolyline
 62
250
  6
CONTINUOUS
 90
8
 70
0
 10
-94.9931102231
 20
-29.5379751749
 10
-94.9585383684
 20
-29.5252922476
 10
-94.9237884738
 20
-29.5131262995
 10
-94.888880216
 20
-29.5014211183
 10
-94.853833272
 20
-29.4901204921
 10
-94.8186673186
 20
-29.4791682086
 10
-94.7834020325
 20
-29.4685080557
 10
-94.7480570906
 20
-29.4580838213
  0
LINE
  5
42F
100
AcDbEntity
  8
0
100
AcDbLine
 62
7
  6
CONTINUOUS
 10
-89.1036145148
 20
25.4
 11
-91.0539864169
 21
25.2049628098
  0
LINE
  5
430
100
AcDbEntity
  8
0
100
AcDbLine
 62
7
  6
CONTINUOUS
 10
-92.1036145148
 20
25.7558198745
 11
-89.2931473236
 21
25.8799866677
  0
LINE
  5
431
100
AcDbEntity
  8
0
100
AcDbLine
 62
7
  6
CONTINUOUS
 10
-89.1036145148
 20
25.3523612067
 11
-89.6255511691
 21
25.3478063346
  0
LINE
  5
432
100
AcDbEntity
  8
0
100
AcDbLine
 62
7
  6
CONTINUOUS
 10
-92.1036145148
 20
25.05
 11
-91.9536145148
 21
25.05
  0
LINE
  5
433
100
AcDbEntity
  8
0
100
AcDbLine
 62
7
  6
CONTINUOUS
 10
-91.6536145148
 20
25.05
 11
-91.4536145148
 21
25.05
  0
LINE
  5
434
100
AcDbEntity
  8
0
100
AcDbLine
 62
7
  6
CONTINUOUS
 10
-92.1036145148
 20
25.2
 11
-91.1534901359
 21
25.2
  0
LINE
  5
435
100
AcDbEntity
  8
0
100
AcDbLine
 62
7
  6
CONTINUOUS
 10
-89.1036145148
 20
26.1523612067
 11
-89.2241772819
 21
26.1523612067
  0
LINE
  5
436
100
AcDbEntity
  8
0
100
AcDbLine
 62
250
  6
CONTINUOUS
 10
-91.1778419311
 20
26.9276792439
 11
-92.1036145148
 21
26.9280974384
  0
LINE
  5
437
100
AcDbEntity
  8
0
100
AcDbLine
 62
7
  6
CONTINUOUS
 10
-91.1036145148
 20
27.15
 11
-92.1036145148
 21
27.151745331
  0
LINE
  5
438
100
AcDbEntity
  8
0
100
AcDbLine
 62
250
  6
CONTINUOUS
 10
-89.6535652826
 20
26.2536973817
 11
-92.1036145148
 21
26.2679513512
  0
LINE
  5
439
100
AcDbEntity
  8
0
100
AcDbLine
 62
7
  6
CONTINUOUS
 10
-89.6535652826
 20
26.3415638603
 11
-92.1036145148
 21
26.3558178298
  0
LWPOLYLINE
  5
43A
100
AcDbEntity
  8
0
100
AcDbPolyline
 62
250
  6
CONTINUOUS
 90
10
 70
0
 10
-89.5146533536
 20
26.3065510847
 10
-89.5233329566
 20
26.3102113158
 10
-89.5327287005
 20
26.3123705312
 10
-89.5427840818
 20
26.3130258898
 10
-89.553428785
 20
26.3121845023
 10
-89.5646101646
 20
26.3098615168
 10
-89.576298814
 20
26.3060654198
 10
-89.588440644
 20
26.3008088747
 10
-89.6009617431
 20
26.2941191473
 10
-89.6138043491
 20
26.2860223324
  0
LINE
  5
43B
100
AcDbEntity
  8
0
100
AcDbLine
 62
250
  6
CONTINUOUS
 10
-90.0783230712
 20
26.3440350289
 11
-91.1778419311
 21
26.9276792439
  0
LINE
  5
43C
100
AcDbEntity
  8
0
100
AcDbLine
 62
250
  6
CONTINUOUS
 10
-89.1314734298
 20
25.9765617175
 11
-89.6535652826
 21
26.2536973817
  0
LINE
  5
43D
100
AcDbEntity
  8
0
100
AcDbLine
 62
7
  6
CONTINUOUS
 10
-89.1036145148
 20
26.0883643404
 11
-91.1036145184
 21
27.1500000019
  0
LINE
  5
43E
100
AcDbEntity
  8
0
100
AcDbLine
 62
7
  6
CONTINUOUS
 10
-98.2542236878
 20
-43.8055596544
 11
-98.269162057
 21
-43.8199854699
  0
LINE
  5
43F
100
AcDbEntity
  8
CURVE
100
AcDbLine
 62
250
  6
CONTINUOUS
 10
-96.7337835033
 20
-31.54876
 11
-94.235570275
 21
-30.781779
  0
LINE
  5
440
100
AcDbEntity
  8
CURVE
100
AcDbLine
 62
250
  6
CONTINUOUS
 10
-94.7480570906
 20
-29.4580838213
 11
-94.6772069466
 21
-29.4377182594
  0
LINE
  5
441
100
AcDbEntity
  8
0
100
AcDbLine
 62
7
  6
CONTINUOUS
 10
-98.269162057
 20
43.8199854699
 11
-98.2542236878
 21
43.8055596544
  0
LINE
  5
442
100
AcDbEntity
  8
CURVE
100
AcDbLine
 62
250
  6
CONTINUOUS
 10
-94.235570275
 20
-34.230793
 11
-95.8668559341
 21
-34.842919
  0
LINE
  5
443
100
AcDbEntity
  8
CURVE
100
AcDbLine
 62
250
  6
CONTINUOUS
 10
-96.7337835033
 20
-34.707635
 11
-95.3467679508
 21
-34.191353
  0
LINE
  5
444
100
AcDbEntity
  8
CURVE
100
AcDbLine
 62
250
  6
CONTINUOUS
 10
-94.235570275
 20
-37.714382
 11
-96.7337835033
 21
-38.506847
  0
LINE
  5
445
100
AcDbEntity
  8
0
100
AcDbLine
 62
250
  6
CONTINUOUS
 10
-92.7036145148
 20
41.1619414324
 11
-92.1036145148
 21
41.2038975196
  0
LINE
  5
446
100
AcDbEntity
  8
0
100
AcDbLine
 62
7
  6
CONTINUOUS
 10
-92.7036145148
 20
42.7580439128
 11
-92.1036145148
 21
42.8
  0
LINE
  5
447
100
AcDbEntity
  8
0
100
AcDbLine
 62
7
  6
CONTINUOUS
 10
-98.2542236878
 20
43.8055596544
 11
-92.7036145148
 21
43.9993911979
  0
LINE
  5
448
100
AcDbEntity
  8
0
100
AcDbLine
 62
7
  6
CONTINUOUS
 10
-98.2542236878
 20
44.8061684565
 11
-92.7036145148
 21
45.0
  0
LWPOLYLINE
  5
449
100
AcDbEntity
  8
0
100
AcDbPolyline
 62
7
  6
CONTINUOUS
 90
8
 70
0
 43
0.3500000006
 10
-103.5259447632
 20
56.0962236328
 10
-102.6688068237
 20
56.0962236328
 10
-102.2402287903
 20
56.5247926025
 10
-102.2402287903
 20
57.381930542
 10
-102.6688068237
 20
57.8105085754
 10
-103.5259447632
 20
57.8105085754
 10
-103.5259447632
 20
59.0962245483
 10
-102.2402287903
 20
59.0962245483
  0
LWPOLYLINE
  5
44A
100
AcDbEntity
  8
0
100
AcDbPolyline
 62
7
  6
CONTINUOUS
 90
8
 70
0
 43
0.3500000006
 10
-103.1910221558
 20
66.3744738464
 10
-102.3338842163
 20
66.3744738464
 10
-101.9053061829
 20
66.8030428162
 10
-101.9053061829
 20
67.6601898193
 10
-102.3338842163
 20
68.0887587891
 10
-103.1910221558
 20
68.0887587891
 10
-103.1910221558
 20
69.374474762
 10
-101.9053061829
 20
69.374474762
  0
CIRCLE
  5
44B
100
AcDbEntity
  8
0
100
AcDbCircle
 62
7
  6
CONTINUOUS
 10
-22.5
 20
0.0
 40
4.85
  0
CIRCLE
  5
44C
100
AcDbEntity
  8
0
100
AcDbCircle
 62
7
  6
CONTINUOUS
 10
0.0
 20
0.0
 40
4.85
  0
CIRCLE
  5
44D
100
AcDbEntity
  8
0
100
AcDbCircle
 62
7
  6
CONTINUOUS
 10
22.5
 20
0.0
 40
4.85
  0
CIRCLE
  5
44E
100
AcDbEntity
  8
0
100
AcDbCircle
 62
7
  6
CONTINUOUS
 10
22.5
 20
0.0
 40
4.35
  0
CIRCLE
  5
44F
100
AcDbEntity
  8
0
100
AcDbCircle
 62
7
  6
CONTINUOUS
 10
0.0
 20
0.0
 40
4.35
  0
CIRCLE
  5
450
100
AcDbEntity
  8
0
100
AcDbCircle
 62
7
  6
CONTINUOUS
 10
-22.5
 20
0.0
 40
4.35
  0
ARC
  5
451
100
AcDbEntity
  8
0
100
AcDbCircle
 62
7
  6
CONTINUOUS
 10
-91.1534901359
 20
-26.2
 40
1.0
100
AcDbArc
 50
84.2894068625
 51
90.0
  0
ARC
  5
452
100
AcDbEntity
  8
0
100
AcDbCircle
 62
7
  6
CONTINUOUS
 10
-91.1534901359
 20
26.2
 40
1.0
100
AcDbArc
 50
270.0
 51
275.7105931375
  0
ARC
  5
453
100
AcDbEntity
  8
0
100
AcDbCircle
 62
7
  6
CONTINUOUS
 10
-91.1783011899
 20
26.849999496
 40
0.3
100
AcDbArc
 50
62.0510313858
 51
89.8999998573
  0
ARC
  5
454
100
AcDbEntity
  8
0
100
AcDbCircle
 62
7
  6
CONTINUOUS
 10
-91.1783011899
 20
-26.849999496
 40
0.3
100
AcDbArc
 50
270.1000001427
 51
297.9489686142
  0
ARC
  5
455
100
AcDbEntity
  8
0
100
AcDbCircle
 62
7
  6
CONTINUOUS
 10
-92.1536145148
 20
2.6214065094
 40
0.3
100
AcDbArc
 50
0.0
 51
80.4010886587
  0
ARC
  5
456
100
AcDbEntity
  8
0
100
AcDbCircle
 62
7
  6
CONTINUOUS
 10
-92.1536145148
 20
-2.6214065094
 40
0.3
100
AcDbArc
 50
279.5989113413
 51
360.0
  0
ARC
  5
457
100
AcDbEntity
  8
0
100
AcDbCircle
 62
7
  6
CONTINUOUS
 10
-89.655310602
 20
-26.0415689373
 40
0.3
100
AcDbArc
 50
270.3333333333
 51
297.9601595787
  0
ARC
  5
458
100
AcDbEntity
  8
0
100
AcDbCircle
 62
7
  6
CONTINUOUS
 10
-89.655310602
 20
26.0415689373
 40
0.3
100
AcDbArc
 50
62.0398404207
 51
89.6666666667
  0
ELLIPSE
  5
459
100
AcDbEntity
  8
0
100
AcDbEllipse
 62
7
  6
CONTINUOUS
 10
-89.3036145148
 20
26.079798695
 30
0.0
 11
-0.1417119467
 21
0.1422961243
 31
0.0
 40
0.9918061237
 41
-3.8766878413
 42
-2.8923940429
  0
ELLIPSE
  5
45A
100
AcDbEntity
  8
0
100
AcDbEllipse
 62
7
  6
CONTINUOUS
 10
-89.3036145148
 20
-26.079798695
 30
0.0
 11
0.1417119467
 21
0.1422961243
 31
0.0
 40
0.9918061237
 41
-0.2491986107
 42
0.7350951877
  0
ENDSEC
  0
SECTION
  2
OBJECTS
  0
DICTIONARY
  5
C
100
AcDbDictionary
280
0
281
1
  3
ACAD_GROUP
350
D
  3
ACAD_MLINESTYLE
350
17
  3
ACAD_LAYOUT
350
1A
  3
ACAD_PLOTSETTINGS
350
19
  3
ACAD_PLOTSTYLENAME
350
E
  0
DICTIONARY
  5
D
102
{ACAD_REACTORS
330
C
102
}
100
AcDbDictionary
280
0
281
1
  0
ACDBDICTIONARYWDFLT
  5
E
102
{ACAD_REACTORS
330
C
102
}
100
AcDbDictionary
281
1
  3
Normal
350
F
100
AcDbDictionaryWithDefault
340
F
  0
DICTIONARY
  5
17
102
{ACAD_REACTORS
330
C
102
}
100
AcDbDictionary
280
0
281
1
  3
Standard
350
18
  0
DICTIONARY
  5
19
102
{ACAD_REACTORS
330
C
102
}
100
AcDbDictionary
281
1
  0
DICTIONARY
  5
1A
102
{ACAD_REACTORS
330
C
102
}
100
AcDbDictionary
281
1
  3
Model
350
45B
  3
Layout1
350
45C
  0
ACDBPLACEHOLDER
  5
F
102
{ACAD_REACTORS
330
E
102
}
  0
MLINESTYLE
  5
18
102
{ACAD_REACTORS
330
17
102
}
100
AcDbMlineStyle
  2
STANDARD
 70
0
  3

 62
256
 51
90.0
 52
90.0
 71
2
 49
0.5
 62
256
  6
BYLAYER
 49
-0.5
 62
256
  6
BYLAYER
  0
LAYOUT
  5
45B
102
{ACAD_REACTORS
330
1A
102
}
100
AcDbPlotSettings
  1

  2
none_device
  4
ISO_A4_(297.00_x_210.00_MM)
  6

 40
0.0
 41
0.0
 42
0.0
 43
0.0
 44
297.0
 45
210.0
 46
0.0
 47
0.0
 48
0.0
 49
0.0
140
0.0
141
0.0
142
1.0
143
1.0
 70
1024
 72
1
 73
0
 74
0
  7

 75
0
147
1.0
148
0.0
149
0.0
100
AcDbLayout
  1
Model
 70
0
 71
0
 10
0.0
 20
0.0
 11
297.0
 21
210.0
 12
0.0
 22
0.0
 32
0.0
 14
0.0
 24
0.0
 34
0.0
 15
0.0
 25
0.0
 35
0.0
146
0.0
 13
0.0
 23
0.0
 33
0.0
 16
1.0
 26
0.0
 36
0.0
 17
0.0
 27
1.0
 37
0.0
 76
0
330
21E
345
0
346
0
  0
LAYOUT
  5
45C
102
{ACAD_REACTORS
330
1A
102
}
100
AcDbPlotSettings
  1

  2
none_device
  4
ISO_A4_(297.00_x_210.00_MM)
  6

 40
0.0
 41
0.0
 42
0.0
 43
0.0
 44
297.0
 45
210.0
 46
0.0
 47
0.0
 48
0.0
 49
0.0
140
0.0
141
0.0
142
1.0
143
1.0
 70
0
 72
1
 73
0
 74
0
  7

 75
0
147
1.0
148
0.0
149
0.0
100
AcDbLayout
  1
Layout1
 70
0
 71
1
 10
0.0
 20
0.0
 11
297.0
 21
210.0
 12
0.0
 22
0.0
 32
0.0
 14
0.0
 24
0.0
 34
0.0
 15
0.0
 25
0.0
 35
0.0
146
0.0
 13
0.0
 23
0.0
 33
0.0
 16
1.0
 26
0.0
 36
0.0
 17
0.0
 27
1.0
 37
0.0
 76
0
330
21F
345
0
346
0
  0
ENDSEC
  0
EOF
