  0
SECTION
  2
HEADER
  9
$ACADVER
  1
AC1024
  9
$DWGCODEPAGE
  3
ANSI_1252
  9
$EXTMAX
 10
297.0
 20
210.0
 30
0.0
  9
$EXTMIN
 10
0.0
 20
0.0
 30
0.0
  9
$LIMMIN
 10
0.0
 20
0.0
  9
$LIMMAX
 10
297.0
 20
210.0
  9
$VIEWCTR
 10
148.5
 20
105.0
  9
$VIEWSIZE
 40
210.0
  9
$CLAYER
  8
0
  9
$LTSCALE
 40
16.335
  9
$CELTYPE
  6
BYLAYER
  9
$DIMSCALE
 40
1.0
  9
$DIMASZ
 40
3.0
  9
$DIMEXO
 40
0.5
  9
$DIMDLI
 40
11.286
  9
$DIMEXE
 40
1.5
  9
$DIMCEN
 40
2.673
  9
$DIMLFAC
 40
1.0
  9
$DIMBLK
  1
_FILLED
  9
$DIMALT
 70
0
  9
$DIMALTF
 40
0.0393700787
  9
$DIMTXT
 40
3.0
  9
$DIMTOL
 70
1
  9
$DIMLIM
 70
0
  9
$DIMTFAC
 40
1.0
  9
$DIMTP
 40
0.01
  9
$DIMTM
 40
0.01
  9
$DIMGAP
 40
0.625
  9
$DIMDSEP
 70
44
  9
$AUNITS
 70
0
  9
$PDMODE
 70
3
  9
$PDSIZE
 40
3.0
  9
$HANDSEED
  5
4D8
  9
$TILEMODE
 70
1
  9
$MEASUREMENT
 70
1
  9
$INSUNITS
 70
4
  0
ENDSEC
  0
SECTION
  2
CLASSES
  0
CLASS
  1
ACDBDICTIONARYWDFLT
  2
AcDbDictionaryWithDefault
  3
AutoCAD 2000
 90
0
 91
1
280
0
281
0
  0
CLASS
  1
ACDBPLACEHOLDER
  2
AcDbPlaceHolder
  3
AutoCAD 2000
 90
0
 91
1
280
0
281
0
  0
CLASS
  1
LAYOUT
  2
AcDbLayout
  3
AutoCAD 2000
 90
0
 91
0
280
0
281
0
  0
ENDSEC
  0
SECTION
  2
TABLES
  0
TABLE
  2
VPORT
  5
8
100
AcDbSymbolTable
 70
2
  0
VPORT
  5
1F4
100
AcDbSymbolTableRecord
100
AcDbViewportTableRecord
  2
*ACTIVE
 70
0
 10
0.0
 20
0.0
 11
1.0
 21
1.0
 12
148.5
 22
105.0
 13
0.0
 23
0.0
 14
1.0
 24
1.0
 15
0.0
 25
0.0
 16
0.0
 26
0.0
 36
1.0
 17
0.0
 27
0.0
 37
0.0
 40
210.0
 41
1.4142857143
 42
50.0
 43
0.0
 44
0.0
 50
0.0
 51
0.0
 71
0
 72
100
 73
1
 74
1
 75
0
 76
0
 77
0
 78
0
  0
ENDTAB
  0
TABLE
  2
LTYPE
  5
5
100
AcDbSymbolTable
 70
6
  0
LTYPE
  5
14
100
AcDbSymbolTableRecord
100
AcDbLinetypeTableRecord
  2
BYBLOCK
 70
0
  3

 72
65
 73
0
 40
0.0
  0
LTYPE
  5
15
100
AcDbSymbolTableRecord
100
AcDbLinetypeTableRecord
  2
BYLAYER
 70
0
  3

 72
65
 73
0
 40
0.0
  0
LTYPE
  5
16
100
AcDbSymbolTableRecord
100
AcDbLinetypeTableRecord
  2
CONTINUOUS
 70
64
  3
Solid line
 72
65
 73
0
 40
0.0
  0
LTYPE
  5
1F5
100
AcDbSymbolTableRecord
100
AcDbLinetypeTableRecord
  2
CENTER
 70
64
  3
____ _ ____ _ ____ _ ____ _ ____ _ ____ _ ____
 72
65
 73
4
 40
0.6
 49
0.375
 74
0
 49
-0.075
 74
0
 49
0.075
 74
0
 49
-0.075
 74
0
  0
LTYPE
  5
1F6
100
AcDbSymbolTableRecord
100
AcDbLinetypeTableRecord
  2
HIDDEN
 70
64
  3
- - - - - - - - - - - - - - - - - - - -
 72
65
 73
2
 40
0.2
 49
0.1
 74
0
 49
-0.1
 74
0
  0
LTYPE
  5
1F7
100
AcDbSymbolTableRecord
100
AcDbLinetypeTableRecord
  2
PHANTOM
 70
64
  3
_____ _ _ _____ _ _ _____ _ _ _____
 72
65
 73
6
 40
0.8
 49
0.45
 74
0
 49
-0.05
 74
0
 49
0.1
 74
0
 49
-0.05
 74
0
 49
0.1
 74
0
 49
-0.05
 74
0
  0
LTYPE
  5
1F8
100
AcDbSymbolTableRecord
100
AcDbLinetypeTableRecord
  2
DOT
 70
64
  3
. . . . . . . . . . . . . . . . . . . .
 72
65
 73
2
 40
0.2
 49
0.1
 74
0
 49
-0.1
 74
0
  0
LTYPE
  5
1F9
100
AcDbSymbolTableRecord
100
AcDbLinetypeTableRecord
  2
DASHED
 70
64
  3
- - - - - - - - - - - - - - - - - - - -
 72
65
 73
2
 40
0.2
 49
0.1
 74
0
 49
-0.1
 74
0
  0
ENDTAB
  0
TABLE
  2
LAYER
  5
2
100
AcDbSymbolTable
 70
36
  0
LAYER
  5
10
100
AcDbSymbolTableRecord
100
AcDbLayerTableRecord
  2
0
 70
0
 62
7
  6
CONTINUOUS
370
-3
390
F
  0
LAYER
  5
1FA
100
AcDbSymbolTableRecord
100
AcDbLayerTableRecord
  2
DEFAULT_1
 70
0
 62
7
  6
CENTER
370
-3
390
F
  0
LAYER
  5
1FB
100
AcDbSymbolTableRecord
100
AcDbLayerTableRecord
  2
DEFAULT_2
 70
0
 62
7
  6
HIDDEN
370
-3
390
F
  0
LAYER
  5
1FC
100
AcDbSymbolTableRecord
100
AcDbLayerTableRecord
  2
DEFAULT_3
 70
0
 62
7
  6
PHANTOM
370
-3
390
F
  0
LAYER
  5
1FD
100
AcDbSymbolTableRecord
100
AcDbLayerTableRecord
  2
ASSI
 70
0
 62
7
  6
CONTINUOUS
370
-3
390
F
  0
LAYER
  5
1FE
100
AcDbSymbolTableRecord
100
AcDbLayerTableRecord
  2
COORDINATE
 70
0
 62
7
  6
CONTINUOUS
370
-3
390
F
  0
LAYER
  5
1FF
100
AcDbSymbolTableRecord
100
AcDbLayerTableRecord
  2
COORD_ORIGINE
 70
0
 62
7
  6
CONTINUOUS
370
-3
390
F
  0
LAYER
  5
200
100
AcDbSymbolTableRecord
100
AcDbLayerTableRecord
  2
COPY_PUBLISH
 70
0
 62
7
  6
CONTINUOUS
370
-3
390
F
  0
LAYER
  5
201
100
AcDbSymbolTableRecord
100
AcDbLayerTableRecord
  2
COSMETIC
 70
0
 62
7
  6
CONTINUOUS
370
-3
390
F
  0
LAYER
  5
202
100
AcDbSymbolTableRecord
100
AcDbLayerTableRecord
  2
COSMETICI
 70
0
 62
7
  6
CONTINUOUS
370
-3
390
F
  0
LAYER
  5
203
100
AcDbSymbolTableRecord
100
AcDbLayerTableRecord
  2
CURVA_TASSELLO
 70
0
 62
7
  6
CONTINUOUS
370
-3
390
F
  0
LAYER
  5
204
100
AcDbSymbolTableRecord
100
AcDbLayerTableRecord
  2
CURVE
 70
0
 62
7
  6
CONTINUOUS
370
-3
390
F
  0
LAYER
  5
205
100
AcDbSymbolTableRecord
100
AcDbLayerTableRecord
  2
DRAFT
 70
0
 62
7
  6
CONTINUOUS
370
-3
390
F
  0
LAYER
  5
206
100
AcDbSymbolTableRecord
100
AcDbLayerTableRecord
  2
IMPORT_IGES
 70
0
 62
7
  6
CONTINUOUS
370
-3
390
F
  0
LAYER
  5
207
100
AcDbSymbolTableRecord
100
AcDbLayerTableRecord
  2
INTFCLR_2
 70
0
 62
7
  6
CONTINUOUS
370
-3
390
F
  0
LAYER
  5
208
100
AcDbSymbolTableRecord
100
AcDbLayerTableRecord
  2
INTF_1
 70
0
 62
7
  6
CONTINUOUS
370
-3
390
F
  0
LAYER
  5
209
100
AcDbSymbolTableRecord
100
AcDbLayerTableRecord
  2
INTF_21
 70
0
 62
7
  6
CONTINUOUS
370
-3
390
F
  0
LAYER
  5
20A
100
AcDbSymbolTableRecord
100
AcDbLayerTableRecord
  2
INTF_6
 70
0
 62
7
  6
CONTINUOUS
370
-3
390
F
  0
LAYER
  5
20B
100
AcDbSymbolTableRecord
100
AcDbLayerTableRecord
  2
INTF_7
 70
0
 62
7
  6
CONTINUOUS
370
-3
390
F
  0
LAYER
  5
20C
100
AcDbSymbolTableRecord
100
AcDbLayerTableRecord
  2
INTF_9
 70
0
 62
7
  6
CONTINUOUS
370
-3
390
F
  0
LAYER
  5
20D
100
AcDbSymbolTableRecord
100
AcDbLayerTableRecord
  2
LIVELLO_1
 70
0
 62
7
  6
CONTINUOUS
370
-3
390
F
  0
LAYER
  5
20E
100
AcDbSymbolTableRecord
100
AcDbLayerTableRecord
  2
NOTE
 70
0
 62
7
  6
CONTINUOUS
370
-3
390
F
  0
LAYER
  5
20F
100
AcDbSymbolTableRecord
100
AcDbLayerTableRecord
  2
PIANI
 70
0
 62
7
  6
CONTINUOUS
370
-3
390
F
  0
LAYER
  5
210
100
AcDbSymbolTableRecord
100
AcDbLayerTableRecord
  2
PIANI_ORIGINE
 70
0
 62
7
  6
CONTINUOUS
370
-3
390
F
  0
LAYER
  5
211
100
AcDbSymbolTableRecord
100
AcDbLayerTableRecord
  2
PIANI_RIFERIMENTO
 70
0
 62
7
  6
CONTINUOUS
370
-3
390
F
  0
LAYER
  5
212
100
AcDbSymbolTableRecord
100
AcDbLayerTableRecord
  2
PUNTI
 70
0
 62
7
  6
CONTINUOUS
370
-3
390
F
  0
LAYER
  5
213
100
AcDbSymbolTableRecord
100
AcDbLayerTableRecord
  2
RACCORDO
 70
0
 62
7
  6
CONTINUOUS
370
-3
390
F
  0
LAYER
  5
214
100
AcDbSymbolTableRecord
100
AcDbLayerTableRecord
  2
RGB__255__255__255__
 70
0
 62
7
  6
CONTINUOUS
370
-3
390
F
  0
LAYER
  5
215
100
AcDbSymbolTableRecord
100
AcDbLayerTableRecord
  2
RGB____0____0____0__
 70
0
 62
7
  6
CONTINUOUS
370
-3
390
F
  0
LAYER
  5
216
100
AcDbSymbolTableRecord
100
AcDbLayerTableRecord
  2
SIMBOLI
 70
0
 62
7
  6
CONTINUOUS
370
-3
390
F
  0
LAYER
  5
217
100
AcDbSymbolTableRecord
100
AcDbLayerTableRecord
  2
SMUSSO
 70
0
 62
7
  6
CONTINUOUS
370
-3
390
F
  0
LAYER
  5
218
100
AcDbSymbolTableRecord
100
AcDbLayerTableRecord
  2
SUPERFICI
 70
0
 62
7
  6
CONTINUOUS
370
-3
390
F
  0
LAYER
  5
219
100
AcDbSymbolTableRecord
100
AcDbLayerTableRecord
  2
TRASH
 70
0
 62
7
  6
CONTINUOUS
370
-3
390
F
  0
LAYER
  5
21A
100
AcDbSymbolTableRecord
100
AcDbLayerTableRecord
  2
WHITE
 70
0
 62
7
  6
CONTINUOUS
370
-3
390
F
  0
LAYER
  5
21B
100
AcDbSymbolTableRecord
100
AcDbLayerTableRecord
  2
XSEC_DATUMS
 70
0
 62
7
  6
CONTINUOUS
370
-3
390
F
  0
ENDTAB
  0
TABLE
  2
STYLE
  5
3
100
AcDbSymbolTable
 70
1
  0
STYLE
  5
11
100
AcDbSymbolTableRecord
100
AcDbTextStyleTableRecord
  2
STANDARD
 70
0
 40
0.0
 41
0.8
 50
0.0
 71
0
 42
0.2
  3
txt
  4

  0
STYLE
  5
21C
100
AcDbSymbolTableRecord
100
AcDbTextStyleTableRecord
  2
TEXTSTYLE_1
 70
0
 40
0.0
 41
0.8
 50
0.0
 71
0
 42
0.2
  3
gdt
  4

  0
ENDTAB
  0
TABLE
  2
VIEW
  5
6
100
AcDbSymbolTable
 70
0
  0
ENDTAB
  0
TABLE
  2
UCS
  5
7
100
AcDbSymbolTable
 70
0
  0
ENDTAB
  0
TABLE
  2
APPID
  5
9
100
AcDbSymbolTable
 70
1
  0
APPID
  5
21D
100
AcDbSymbolTableRecord
100
AcDbRegAppTableRecord
  2
ACAD
 70
0
  0
ENDTAB
  0
TABLE
  2
BLOCK_RECORD
  5
1
100
AcDbSymbolTable
 70
0
  0
BLOCK_RECORD
  5
21E
100
AcDbSymbolTableRecord
100
AcDbBlockTableRecord
  2
*Model_Space
  0
BLOCK_RECORD
  5
21F
100
AcDbSymbolTableRecord
100
AcDbBlockTableRecord
  2
*Paper_Space
  0
BLOCK_RECORD
  5
220
100
AcDbSymbolTableRecord
100
AcDbBlockTableRecord
  2
_FILLED
  0
BLOCK_RECORD
  5
221
100
AcDbSymbolTableRecord
100
AcDbBlockTableRecord
  2
*D0
  0
BLOCK_RECORD
  5
222
100
AcDbSymbolTableRecord
100
AcDbBlockTableRecord
  2
*D1
  0
BLOCK_RECORD
  5
223
100
AcDbSymbolTableRecord
100
AcDbBlockTableRecord
  2
*D2
  0
BLOCK_RECORD
  5
224
100
AcDbSymbolTableRecord
100
AcDbBlockTableRecord
  2
*D3
  0
ENDTAB
  0
TABLE
  2
DIMSTYLE
  5
A
100
AcDbSymbolTable
 70
1
100
AcDbDimStyleTable
 71
0
  0
DIMSTYLE
105
225
100
AcDbSymbolTableRecord
100
AcDbDimStyleTableRecord
  2
STANDARD
 70
0
  3

  4

 40
1.0
 41
3.0
 42
0.5
 43
0.38
 44
1.5
 45
0.0
 46
0.0
 47
0.01
 48
0.01
140
3.0
141
0.09
142
0.0
143
25.4
144
1.0
145
0.0
146
1.0
147
0.625
 71
1
 72
0
 73
0
 74
0
 75
0
 76
0
 77
1
 78
8
 79
2
170
0
171
1
172
0
173
0
174
0
175
0
176
0
177
0
178
0
270
2
179
2
271
2
272
2
273
2
274
2
275
0
280
0
281
0
282
0
283
1
284
8
285
0
286
0
287
3
288
0
340
11
278
44
341
220
342
220
343
220
344
220
  0
DIMSTYLE
105
226
100
AcDbSymbolTableRecord
100
AcDbDimStyleTableRecord
  2
DIMSTYLE_1
 70
0
  3

  4

 40
1.0
 41
3.0
 42
0.5
 43
0.38
 44
1.5
 45
0.0
 46
0.0
 47
0.0
 48
0.0
140
3.0
141
0.09
142
0.0
143
25.4
144
1.0
145
0.0
146
1.0
147
0.75
 71
0
 72
0
 73
0
 74
0
 75
0
 76
0
 77
1
 78
8
 79
2
170
0
171
1
172
0
173
0
174
0
175
0
176
0
177
0
178
0
270
2
179
2
271
2
272
2
273
2
274
2
275
0
280
0
281
0
282
0
283
1
284
8
285
0
286
0
287
3
288
0
340
11
278
44
341
220
342
220
343
220
344
220
  0
ENDTAB
  0
ENDSEC
  0
SECTION
  2
BLOCKS
  0
BLOCK
  5
20
100
AcDbEntity
  8
0
100
AcDbBlockBegin
  2
*Model_Space
 70
0
 10
0.0
 20
0.0
 30
0.0
  3
*Model_Space
  1

  0
ENDBLK
  5
21
100
AcDbEntity
  8
0
100
AcDbBlockEnd
  0
BLOCK
  5
1C
100
AcDbEntity
  8
0
100
AcDbBlockBegin
  2
*Paper_Space
 70
0
 10
0.0
 20
0.0
 30
0.0
  3
*Paper_Space
  1

  0
ENDBLK
  5
1D
100
AcDbEntity
  8
0
100
AcDbBlockEnd
  0
BLOCK
  5
227
100
AcDbEntity
  8
0
100
AcDbBlockBegin
  2
_FILLED
 70
64
 10
0.0
 20
0.0
  3
_FILLED
  1

  0
SOLID
  5
228
100
AcDbEntity
  8
0
  6
BYBLOCK
 62
0
100
AcDbTrace
 10
0.0
 20
0.0
 11
-1.0
 21
0.1333333333
 12
-1.0
 22
-0.1333333333
 13
-1.0
 23
-0.1333333333
  0
ENDBLK
  5
229
100
AcDbEntity
  8
0
  6
BYBLOCK
 62
0
100
AcDbBlockEnd
  0
BLOCK
  5
22A
100
AcDbEntity
  8
0
100
AcDbBlockBegin
 62
7
  6
CONTINUOUS
  2
*D0
 70
65
 10
0.0
 20
0.0
  3
*D0
  1

  0
MTEXT
  5
22B
100
AcDbEntity
  8
0
100
AcDbMText
 62
7
  6
CONTINUOUS
  7
STANDARD
 71
2
 72
1
 10
0.0
 20
60.5858973736
 30
0.0
 11
1.0
 21
0.0
 31
0.0
 73
2
 44
0.9
  1
{\ftxt;\W0.0001;\H0.0001;\~}{\ftxt;\W2.1428571429;\H3.0; }{\ftxt;\W0.0001;\H0.0001;\~}
 40
3.0
 41
9.6428571429
  0
LINE
  5
22C
100
AcDbEntity
  8
0
100
AcDbLine
 62
7
  6
CONTINUOUS
 10
-61.0
 20
44.4993911979
 11
-61.0
 21
58.3358973736
  0
LINE
  5
22D
100
AcDbEntity
  8
0
100
AcDbLine
 62
7
  6
CONTINUOUS
 10
61.0
 20
44.4993911979
 11
61.0
 21
58.3358973736
  0
LINE
  5
22E
100
AcDbEntity
  8
0
100
AcDbLine
 62
7
  6
CONTINUOUS
 10
-61.0
 20
56.8358973736
 11
0.0
 21
56.8358973736
  0
LINE
  5
22F
100
AcDbEntity
  8
0
100
AcDbLine
 62
7
  6
CONTINUOUS
 10
61.0
 20
56.8358973736
 11
0.0
 21
56.8358973736
  0
INSERT
  5
230
100
AcDbEntity
  8
0
100
AcDbBlockReference
 62
7
  6
CONTINUOUS
  2
_FILLED
 10
-61.0
 20
56.8358973736
 41
3.0
 42
3.0
 43
3.0
 50
180.0
  0
INSERT
  5
231
100
AcDbEntity
  8
0
100
AcDbBlockReference
 62
7
  6
CONTINUOUS
  2
_FILLED
 10
61.0
 20
56.8358973736
 41
3.0
 42
3.0
 43
3.0
  0
ENDBLK
  5
232
100
AcDbEntity
  8
0
  6
BYBLOCK
 62
0
100
AcDbBlockEnd
  0
BLOCK
  5
233
100
AcDbEntity
  8
0
100
AcDbBlockBegin
 62
7
  6
CONTINUOUS
  2
*D1
 70
65
 10
0.0
 20
0.0
  3
*D1
  1

  0
MTEXT
  5
234
100
AcDbEntity
  8
0
100
AcDbMText
 62
7
  6
CONTINUOUS
  7
STANDARD
 71
2
 72
1
 10
68.9911799931
 20
0.0
 30
0.0
 11
0.0
 21
1.0
 31
0.0
 73
2
 44
0.9
  1
{\ftxt;\W0.0001;\H0.0001;\~}{\ftxt;\W1.5714285714;\H3.0; }{\ftxt;\W0.0001;\H0.0001;\~}
 40
3.0
 41
7.0714285714
  0
LINE
  5
235
100
AcDbEntity
  8
0
100
AcDbLine
 62
7
  6
CONTINUOUS
 10
60.4993911979
 20
45.0
 11
74.2411799931
 21
45.0
  0
LINE
  5
236
100
AcDbEntity
  8
0
100
AcDbLine
 62
7
  6
CONTINUOUS
 10
60.4993911979
 20
-45.0
 11
74.2411799931
 21
-45.0
  0
LINE
  5
237
100
AcDbEntity
  8
0
100
AcDbLine
 62
7
  6
CONTINUOUS
 10
72.7411799931
 20
45.0
 11
72.7411799931
 21
0.0
  0
LINE
  5
238
100
AcDbEntity
  8
0
100
AcDbLine
 62
7
  6
CONTINUOUS
 10
72.7411799931
 20
-45.0
 11
72.7411799931
 21
0.0
  0
INSERT
  5
239
100
AcDbEntity
  8
0
100
AcDbBlockReference
 62
7
  6
CONTINUOUS
  2
_FILLED
 10
72.7411799931
 20
45.0
 41
3.0
 42
3.0
 43
3.0
 50
90.0
  0
INSERT
  5
23A
100
AcDbEntity
  8
0
100
AcDbBlockReference
 62
7
  6
CONTINUOUS
  2
_FILLED
 10
72.7411799931
 20
-45.0
 41
3.0
 42
3.0
 43
3.0
 50
270.0
  0
ENDBLK
  5
23B
100
AcDbEntity
  8
0
  6
BYBLOCK
 62
0
100
AcDbBlockEnd
  0
BLOCK
  5
23C
100
AcDbEntity
  8
0
100
AcDbBlockBegin
 62
7
  6
CONTINUOUS
  2
*D2
 70
65
 10
0.0
 20
0.0
  3
*D2
  1

  0
MTEXT
  5
23D
100
AcDbEntity
  8
0
100
AcDbMText
 62
7
  6
CONTINUOUS
  7
STANDARD
 71
3
 72
1
 10
-96.7617757602
 20
60.1175142141
 30
0.0
 11
1.0
 21
0.0
 31
0.0
 73
2
 44
0.9
  1
{\ftxt;\W0.0001;\H0.0001;\~}{\ftxt;\W2.6428571429;\H3.0; }{\ftxt;\W0.0001;\H0.0001;\~}
 40
3.0
 41
11.8928571429
  0
LINE
  5
23E
100
AcDbEntity
  8
0
100
AcDbLine
 62
7
  6
CONTINUOUS
 10
-93.5528720512
 20
43.8767374102
 11
-93.5528720512
 21
57.8675142141
  0
LINE
  5
23F
100
AcDbEntity
  8
0
100
AcDbLine
 62
7
  6
CONTINUOUS
 10
-86.4028720512
 20
41.7038975196
 11
-86.4028720512
 21
57.8675142141
  0
LINE
  5
240
100
AcDbEntity
  8
0
100
AcDbLine
 62
7
  6
CONTINUOUS
 10
-93.5528720512
 20
56.3675142141
 11
-89.9778720512
 21
56.3675142141
  0
LINE
  5
241
100
AcDbEntity
  8
0
100
AcDbLine
 62
7
  6
CONTINUOUS
 10
-89.9778720512
 20
56.3675142141
 11
-104.6903471887
 21
56.3675142141
  0
LINE
  5
242
100
AcDbEntity
  8
0
100
AcDbLine
 62
7
  6
CONTINUOUS
 10
-86.4028720512
 20
56.3675142141
 11
-89.9778720512
 21
56.3675142141
  0
INSERT
  5
243
100
AcDbEntity
  8
0
100
AcDbBlockReference
 62
7
  6
CONTINUOUS
  2
_FILLED
 10
-93.5528720512
 20
56.3675142141
 41
3.0
 42
3.0
 43
3.0
 50
180.0
  0
INSERT
  5
244
100
AcDbEntity
  8
0
100
AcDbBlockReference
 62
7
  6
CONTINUOUS
  2
_FILLED
 10
-86.4028720512
 20
56.3675142141
 41
3.0
 42
3.0
 43
3.0
  0
ENDBLK
  5
245
100
AcDbEntity
  8
0
  6
BYBLOCK
 62
0
100
AcDbBlockEnd
  0
BLOCK
  5
246
100
AcDbEntity
  8
0
100
AcDbBlockBegin
 62
7
  6
CONTINUOUS
  2
*D3
 70
65
 10
0.0
 20
0.0
  3
*D3
  1

  0
MTEXT
  5
247
100
AcDbEntity
  8
0
100
AcDbMText
 62
7
  6
CONTINUOUS
  7
STANDARD
 71
3
 72
1
 10
-95.0691294816
 20
68.3131309782
 30
0.0
 11
1.0
 21
0.0
 31
0.0
 73
2
 44
0.9
  1
{\ftxt;\W0.0001;\H0.0001;\~}{\ftxt;\W3.2142857143;\H3.0; }{\ftxt;\W0.0001;\H0.0001;\~}
 40
3.0
 41
14.4642857143
  0
LINE
  5
248
100
AcDbEntity
  8
0
100
AcDbLine
 62
7
  6
CONTINUOUS
 10
-83.4028720512
 20
26.5463167932
 11
-83.4028720512
 21
66.0631309782
  0
LINE
  5
249
100
AcDbEntity
  8
0
100
AcDbLine
 62
7
  6
CONTINUOUS
 10
-93.5528720512
 20
43.8767374102
 11
-93.5528720512
 21
66.0631309782
  0
LINE
  5
24A
100
AcDbEntity
  8
0
100
AcDbLine
 62
7
  6
CONTINUOUS
 10
-83.4028720512
 20
64.5631309782
 11
-88.4778720512
 21
64.5631309782
  0
LINE
  5
24B
100
AcDbEntity
  8
0
100
AcDbLine
 62
7
  6
CONTINUOUS
 10
-93.5528720512
 20
64.5631309782
 11
-88.4778720512
 21
64.5631309782
  0
LINE
  5
24C
100
AcDbEntity
  8
0
100
AcDbLine
 62
7
  6
CONTINUOUS
 10
-88.4778720512
 20
64.5631309782
 11
-104.7119866244
 21
64.5631309782
  0
INSERT
  5
24D
100
AcDbEntity
  8
0
100
AcDbBlockReference
 62
7
  6
CONTINUOUS
  2
_FILLED
 10
-83.4028720512
 20
64.5631309782
 41
3.0
 42
3.0
 43
3.0
  0
INSERT
  5
24E
100
AcDbEntity
  8
0
100
AcDbBlockReference
 62
7
  6
CONTINUOUS
  2
_FILLED
 10
-93.5528720512
 20
64.5631309782
 41
3.0
 42
3.0
 43
3.0
 50
180.0
  0
ENDBLK
  5
24F
100
AcDbEntity
  8
0
  6
BYBLOCK
 62
0
100
AcDbBlockEnd
  0
ENDSEC
  0
SECTION
  2
ENTITIES
  0
DIMENSION
  5
250
100
AcDbEntity
  8
0
100
AcDbDimension
 62
7
  6
CONTINUOUS
  2
*D0
 10
61.0
 20
56.8358973736
 11
-0.4285714481
 21
56.8358973736
 70
160
 71
2
 72
2
 41
0.9
 42
122.0
  1
{\ftxt;\W0.0001;\H0.0001;\~}{\ftxt;\W2.1428571429;\H3.0; }{\ftxt;\W0.0001;\H0.0001;\~}
  3
DIMSTYLE_1
100
AcDbAlignedDimension
 13
-61.0
 23
43.9993911979
 14
61.0
 24
43.9993911979
100
AcDbRotatedDimension
  0
DIMENSION
  5
251
100
AcDbEntity
  8
0
100
AcDbDimension
 62
7
  6
CONTINUOUS
  2
*D1
 10
72.7411799931
 20
-45.0
 11
72.7411799931
 21
-0.4285708437
 70
160
 71
2
 72
2
 41
0.9
 42
90.0
  1
{\ftxt;\W0.0001;\H0.0001;\~}{\ftxt;\W1.5714285714;\H3.0; }{\ftxt;\W0.0001;\H0.0001;\~}
  3
DIMSTYLE_1
100
AcDbAlignedDimension
 13
59.9993911979
 23
45.0
 14
59.9993911979
 24
-45.0
 50
270.0
100
AcDbRotatedDimension
  0
DIMENSION
  5
252
100
AcDbEntity
  8
0
100
AcDbDimension
 62
7
  6
CONTINUOUS
  2
*D2
 10
-86.4028720512
 20
56.3675142141
 11
-101.1546307068
 21
56.3675142141
 70
160
 71
3
 72
2
 41
0.9
 42
7.15
  1
{\ftxt;\W0.0001;\H0.0001;\~}{\ftxt;\W2.6428571429;\H3.0; }{\ftxt;\W0.0001;\H0.0001;\~}
  3
DIMSTYLE_1
100
AcDbAlignedDimension
 13
-93.5528720512
 23
43.3767374102
 14
-86.4028720512
 24
41.2038975196
100
AcDbRotatedDimension
  0
DIMENSION
  5
253
100
AcDbEntity
  8
0
100
AcDbDimension
 62
7
  6
CONTINUOUS
  2
*D3
 10
-93.5528720512
 20
64.5631309782
 11
-100.3191278687
 21
64.5631309782
 70
160
 71
3
 72
2
 41
0.9
 42
10.15
  1
{\ftxt;\W0.0001;\H0.0001;\~}{\ftxt;\W3.2142857143;\H3.0; }{\ftxt;\W0.0001;\H0.0001;\~}
  3
DIMSTYLE_1
100
AcDbAlignedDimension
 13
-83.4028720512
 23
26.0463167932
 14
-93.5528720512
 24
43.3767374102
 50
180.0
100
AcDbRotatedDimension
  0
LINE
  5
254
100
AcDbEntity
  8
0
100
AcDbLine
 62
7
  6
CONTINUOUS
 10
-59.8199854699
 20
44.7906993223
 11
-59.8055596544
 21
44.8061684565
  0
LINE
  5
255
100
AcDbEntity
  8
ASSI
100
AcDbLine
 62
7
  6
CONTINUOUS
 10
-59.8199854699
 20
44.7906993223
 11
-59.8055596544
 21
44.8061684565
  0
LINE
  5
256
100
AcDbEntity
  8
0
100
AcDbLine
 62
7
  6
CONTINUOUS
 10
-61.0
 20
43.9993911979
 11
-59.9993911979
 21
45.0
  0
LINE
  5
257
100
AcDbEntity
  8
ASSI
100
AcDbLine
 62
7
  6
CONTINUOUS
 10
-61.0
 20
43.9993911979
 11
-59.9993911979
 21
45.0
  0
LINE
  5
258
100
AcDbEntity
  8
0
100
AcDbLine
 62
7
  6
CONTINUOUS
 10
-59.8199854699
 20
44.7906993223
 11
-60.7906993223
 21
43.8199854699
  0
LINE
  5
259
100
AcDbEntity
  8
ASSI
100
AcDbLine
 62
7
  6
CONTINUOUS
 10
-59.8199854699
 20
44.7906993223
 11
-60.7906993223
 21
43.8199854699
  0
LINE
  5
25A
100
AcDbEntity
  8
0
100
AcDbLine
 62
7
  6
CONTINUOUS
 10
-59.3767374102
 20
43.7712689598
 11
-59.7712689598
 21
43.3767374102
  0
LINE
  5
25B
100
AcDbEntity
  8
ASSI
100
AcDbLine
 62
7
  6
CONTINUOUS
 10
-59.3767374102
 20
43.7712689598
 11
-59.7712689598
 21
43.3767374102
  0
LINE
  5
25C
100
AcDbEntity
  8
0
100
AcDbLine
 62
7
  6
CONTINUOUS
 10
-60.8061684565
 20
43.8055596544
 11
-60.7906993223
 21
43.8199854699
  0
LINE
  5
25D
100
AcDbEntity
  8
ASSI
100
AcDbLine
 62
7
  6
CONTINUOUS
 10
-60.8061684565
 20
43.8055596544
 11
-60.7906993223
 21
43.8199854699
  0
LINE
  5
25E
100
AcDbEntity
  8
0
100
AcDbLine
 62
7
  6
CONTINUOUS
 10
-60.7906993223
 20
-43.8199854699
 11
-60.8061684565
 21
-43.8055596544
  0
LINE
  5
25F
100
AcDbEntity
  8
ASSI
100
AcDbLine
 62
7
  6
CONTINUOUS
 10
-60.7906993223
 20
-43.8199854699
 11
-60.8061684565
 21
-43.8055596544
  0
LINE
  5
260
100
AcDbEntity
  8
0
100
AcDbLine
 62
7
  6
CONTINUOUS
 10
-59.9993911979
 20
-45.0
 11
-61.0
 21
-43.9993911979
  0
LINE
  5
261
100
AcDbEntity
  8
ASSI
100
AcDbLine
 62
7
  6
CONTINUOUS
 10
-59.9993911979
 20
-45.0
 11
-61.0
 21
-43.9993911979
  0
LINE
  5
262
100
AcDbEntity
  8
0
100
AcDbLine
 62
7
  6
CONTINUOUS
 10
-60.7906993223
 20
-43.8199854699
 11
-59.8199854699
 21
-44.7906993223
  0
LINE
  5
263
100
AcDbEntity
  8
ASSI
100
AcDbLine
 62
7
  6
CONTINUOUS
 10
-60.7906993223
 20
-43.8199854699
 11
-59.8199854699
 21
-44.7906993223
  0
LINE
  5
264
100
AcDbEntity
  8
0
100
AcDbLine
 62
7
  6
CONTINUOUS
 10
-59.7712689598
 20
-43.3767374102
 11
-59.3767374102
 21
-43.7712689598
  0
LINE
  5
265
100
AcDbEntity
  8
ASSI
100
AcDbLine
 62
7
  6
CONTINUOUS
 10
-59.7712689598
 20
-43.3767374102
 11
-59.3767374102
 21
-43.7712689598
  0
LINE
  5
266
100
AcDbEntity
  8
0
100
AcDbLine
 62
7
  6
CONTINUOUS
 10
-59.8055596544
 20
-44.8061684565
 11
-59.8199854699
 21
-44.7906993223
  0
LINE
  5
267
100
AcDbEntity
  8
ASSI
100
AcDbLine
 62
7
  6
CONTINUOUS
 10
-59.8055596544
 20
-44.8061684565
 11
-59.8199854699
 21
-44.7906993223
  0
LINE
  5
268
100
AcDbEntity
  8
0
100
AcDbLine
 62
7
  6
CONTINUOUS
 10
-61.0
 20
43.9993911979
 11
-61.0
 21
-43.9993911979
  0
LINE
  5
269
100
AcDbEntity
  8
ASSI
100
AcDbLine
 62
7
  6
CONTINUOUS
 10
-61.0
 20
43.9993911979
 11
-61.0
 21
-43.9993911979
  0
LINE
  5
26A
100
AcDbEntity
  8
0
100
AcDbLine
 62
7
  6
CONTINUOUS
 10
-60.8061684565
 20
43.8055596544
 11
-60.8061684565
 21
-43.8055596544
  0
LINE
  5
26B
100
AcDbEntity
  8
ASSI
100
AcDbLine
 62
7
  6
CONTINUOUS
 10
-60.8061684565
 20
43.8055596544
 11
-60.8061684565
 21
-43.8055596544
  0
LINE
  5
26C
100
AcDbEntity
  8
0
100
AcDbLine
 62
7
  6
CONTINUOUS
 10
-59.7712689598
 20
43.3767374102
 11
-59.7712689598
 21
-43.3767374102
  0
LINE
  5
26D
100
AcDbEntity
  8
ASSI
100
AcDbLine
 62
7
  6
CONTINUOUS
 10
-59.7712689598
 20
43.3767374102
 11
-59.7712689598
 21
-43.3767374102
  0
LINE
  5
26E
100
AcDbEntity
  8
0
100
AcDbLine
 62
7
  6
CONTINUOUS
 10
-59.9993911979
 20
-45.0
 11
59.9993911979
 21
-45.0
  0
LINE
  5
26F
100
AcDbEntity
  8
ASSI
100
AcDbLine
 62
7
  6
CONTINUOUS
 10
-59.9993911979
 20
-45.0
 11
59.9993911979
 21
-45.0
  0
LINE
  5
270
100
AcDbEntity
  8
0
100
AcDbLine
 62
7
  6
CONTINUOUS
 10
-59.8055596544
 20
-44.8061684565
 11
59.8055596544
 21
-44.8061684565
  0
LINE
  5
271
100
AcDbEntity
  8
ASSI
100
AcDbLine
 62
7
  6
CONTINUOUS
 10
-59.8055596544
 20
-44.8061684565
 11
59.8055596544
 21
-44.8061684565
  0
LWPOLYLINE
  5
272
100
AcDbEntity
  8
0
100
AcDbPolyline
 62
7
  6
CONTINUOUS
 90
3
 70
0
 43
0.3500000006
 10
-3.2142856836
 20
59.728754425
 10
-2.3571427875
 20
60.5859014282
 10
-2.3571427875
 20
57.5859005127
  0
LINE
  5
273
100
AcDbEntity
  8
0
100
AcDbLine
 62
7
  6
CONTINUOUS
 10
-59.3767374102
 20
-43.7712689598
 11
59.3767374102
 21
-43.7712689598
  0
LINE
  5
274
100
AcDbEntity
  8
ASSI
100
AcDbLine
 62
7
  6
CONTINUOUS
 10
-59.3767374102
 20
-43.7712689598
 11
59.3767374102
 21
-43.7712689598
  0
LINE
  5
275
100
AcDbEntity
  8
0
100
AcDbLine
 62
7
  6
CONTINUOUS
 10
-59.3767374102
 20
-43.7712689598
 11
-59.8199854699
 21
-44.7906993223
  0
LINE
  5
276
100
AcDbEntity
  8
ASSI
100
AcDbLine
 62
7
  6
CONTINUOUS
 10
-59.3767374102
 20
-43.7712689598
 11
-59.8199854699
 21
-44.7906993223
  0
LINE
  5
277
100
AcDbEntity
  8
CURVE
100
AcDbLine
 62
250
  6
CONTINUOUS
 10
60.860131217
 20
-36.257398
 11
60.9473759453
 21
-36.257398
  0
LINE
  5
278
100
AcDbEntity
  8
CURVE
100
AcDbLine
 62
250
  6
CONTINUOUS
 10
60.9473759453
 20
-35.735605
 11
60.860131217
 21
-35.735605
  0
LINE
  5
279
100
AcDbEntity
  8
0
100
AcDbLine
 62
7
  6
CONTINUOUS
 10
-59.3767374102
 20
43.7712689598
 11
-59.8199854699
 21
44.7906993223
  0
LINE
  5
27A
100
AcDbEntity
  8
ASSI
100
AcDbLine
 62
7
  6
CONTINUOUS
 10
-59.3767374102
 20
43.7712689598
 11
-59.8199854699
 21
44.7906993223
  0
LINE
  5
27B
100
AcDbEntity
  8
0
100
AcDbLine
 62
7
  6
CONTINUOUS
 10
-30.9
 20
-6.7
 11
-30.9
 21
6.7
  0
LINE
  5
27C
100
AcDbEntity
  8
ASSI
100
AcDbLine
 62
7
  6
CONTINUOUS
 10
-30.9
 20
-6.7
 11
-30.9
 21
6.7
  0
LINE
  5
27D
100
AcDbEntity
  8
0
100
AcDbLine
 62
7
  6
CONTINUOUS
 10
-30.4
 20
-6.7
 11
-30.4
 21
6.7
  0
LINE
  5
27E
100
AcDbEntity
  8
ASSI
100
AcDbLine
 62
7
  6
CONTINUOUS
 10
-30.4
 20
-6.7
 11
-30.4
 21
6.7
  0
LINE
  5
27F
100
AcDbEntity
  8
CURVE
100
AcDbLine
 62
250
  6
CONTINUOUS
 10
60.8611556794
 20
-30.6285551388
 11
60.9473759458
 21
-30.6285551388
  0
LINE
  5
280
100
AcDbEntity
  8
CURVE
100
AcDbLine
 62
250
  6
CONTINUOUS
 10
60.8989474951
 20
-30.126163664
 11
60.8749985478
 21
-30.126163664
  0
LINE
  5
281
100
AcDbEntity
  8
CURVE
100
AcDbLine
 62
250
  6
CONTINUOUS
 10
60.9473759458
 20
-30.1088617972
 11
60.9132352194
 21
-30.1088617972
  0
LINE
  5
282
100
AcDbEntity
  8
0
100
AcDbLine
 62
250
  6
CONTINUOUS
 10
-29.2
 20
8.4
 11
-29.2
 21
7.9
  0
LINE
  5
283
100
AcDbEntity
  8
ASSI
100
AcDbLine
 62
250
  6
CONTINUOUS
 10
-29.2
 20
8.4
 11
-29.2
 21
7.9
  0
LINE
  5
284
100
AcDbEntity
  8
0
100
AcDbLine
 62
250
  6
CONTINUOUS
 10
-29.2
 20
-8.4
 11
-29.2
 21
-7.9
  0
LINE
  5
285
100
AcDbEntity
  8
ASSI
100
AcDbLine
 62
250
  6
CONTINUOUS
 10
-29.2
 20
-8.4
 11
-29.2
 21
-7.9
  0
LINE
  5
286
100
AcDbEntity
  8
CURVE
100
AcDbLine
 62
250
  6
CONTINUOUS
 10
60.9066533149
 20
-29.2870512436
 11
60.9061378054
 21
-29.2870512436
  0
LINE
  5
287
100
AcDbEntity
  8
0
100
AcDbLine
 62
250
  6
CONTINUOUS
 10
-15.8
 20
8.4
 11
-15.8
 21
7.9
  0
LINE
  5
288
100
AcDbEntity
  8
ASSI
100
AcDbLine
 62
250
  6
CONTINUOUS
 10
-15.8
 20
8.4
 11
-15.8
 21
7.9
  0
LINE
  5
289
100
AcDbEntity
  8
0
100
AcDbLine
 62
250
  6
CONTINUOUS
 10
-15.8
 20
-8.4
 11
-15.8
 21
-7.9
  0
LINE
  5
28A
100
AcDbEntity
  8
ASSI
100
AcDbLine
 62
250
  6
CONTINUOUS
 10
-15.8
 20
-8.4
 11
-15.8
 21
-7.9
  0
LINE
  5
28B
100
AcDbEntity
  8
0
100
AcDbLine
 62
7
  6
CONTINUOUS
 10
-14.6
 20
6.7
 11
-14.6
 21
-6.7
  0
LINE
  5
28C
100
AcDbEntity
  8
ASSI
100
AcDbLine
 62
7
  6
CONTINUOUS
 10
-14.6
 20
6.7
 11
-14.6
 21
-6.7
  0
LINE
  5
28D
100
AcDbEntity
  8
0
100
AcDbLine
 62
7
  6
CONTINUOUS
 10
59.7712689598
 20
43.3767374102
 11
60.7906993223
 21
43.8199854699
  0
LINE
  5
28E
100
AcDbEntity
  8
ASSI
100
AcDbLine
 62
7
  6
CONTINUOUS
 10
59.7712689598
 20
43.3767374102
 11
60.7906993223
 21
43.8199854699
  0
LINE
  5
28F
100
AcDbEntity
  8
0
100
AcDbLine
 62
7
  6
CONTINUOUS
 10
59.7712689598
 20
-43.3767374102
 11
60.7906993223
 21
-43.8199854699
  0
LINE
  5
290
100
AcDbEntity
  8
ASSI
100
AcDbLine
 62
7
  6
CONTINUOUS
 10
59.7712689598
 20
-43.3767374102
 11
60.7906993223
 21
-43.8199854699
  0
LINE
  5
291
100
AcDbEntity
  8
0
100
AcDbLine
 62
7
  6
CONTINUOUS
 10
-14.1
 20
6.7
 11
-14.1
 21
-6.7
  0
LINE
  5
292
100
AcDbEntity
  8
ASSI
100
AcDbLine
 62
7
  6
CONTINUOUS
 10
-14.1
 20
6.7
 11
-14.1
 21
-6.7
  0
LINE
  5
293
100
AcDbEntity
  8
0
100
AcDbLine
 62
7
  6
CONTINUOUS
 10
-60.8061684565
 20
-43.8055596544
 11
-61.0
 21
-43.9993911979
  0
LINE
  5
294
100
AcDbEntity
  8
ASSI
100
AcDbLine
 62
7
  6
CONTINUOUS
 10
-60.8061684565
 20
-43.8055596544
 11
-61.0
 21
-43.9993911979
  0
LINE
  5
295
100
AcDbEntity
  8
0
100
AcDbLine
 62
7
  6
CONTINUOUS
 10
-59.8055596544
 20
-44.8061684565
 11
-59.9993911979
 21
-45.0
  0
LINE
  5
296
100
AcDbEntity
  8
ASSI
100
AcDbLine
 62
7
  6
CONTINUOUS
 10
-59.8055596544
 20
-44.8061684565
 11
-59.9993911979
 21
-45.0
  0
LINE
  5
297
100
AcDbEntity
  8
0
100
AcDbLine
 62
7
  6
CONTINUOUS
 10
-60.8061684565
 20
43.8055596544
 11
-61.0
 21
43.9993911979
  0
LINE
  5
298
100
AcDbEntity
  8
ASSI
100
AcDbLine
 62
7
  6
CONTINUOUS
 10
-60.8061684565
 20
43.8055596544
 11
-61.0
 21
43.9993911979
  0
LINE
  5
299
100
AcDbEntity
  8
0
100
AcDbLine
 62
7
  6
CONTINUOUS
 10
-59.8055596544
 20
44.8061684565
 11
-59.9993911979
 21
45.0
  0
LINE
  5
29A
100
AcDbEntity
  8
ASSI
100
AcDbLine
 62
7
  6
CONTINUOUS
 10
-59.8055596544
 20
44.8061684565
 11
-59.9993911979
 21
45.0
  0
LINE
  5
29B
100
AcDbEntity
  8
0
100
AcDbLine
 62
7
  6
CONTINUOUS
 10
-8.4
 20
-6.7
 11
-8.4
 21
6.7
  0
LINE
  5
29C
100
AcDbEntity
  8
ASSI
100
AcDbLine
 62
7
  6
CONTINUOUS
 10
-8.4
 20
-6.7
 11
-8.4
 21
6.7
  0
LINE
  5
29D
100
AcDbEntity
  8
0
100
AcDbLine
 62
7
  6
CONTINUOUS
 10
-7.9
 20
-6.7
 11
-7.9
 21
6.7
  0
LINE
  5
29E
100
AcDbEntity
  8
ASSI
100
AcDbLine
 62
7
  6
CONTINUOUS
 10
-7.9
 20
-6.7
 11
-7.9
 21
6.7
  0
LINE
  5
29F
100
AcDbEntity
  8
0
100
AcDbLine
 62
250
  6
CONTINUOUS
 10
-6.7
 20
8.4
 11
-6.7
 21
7.9
  0
LINE
  5
2A0
100
AcDbEntity
  8
ASSI
100
AcDbLine
 62
250
  6
CONTINUOUS
 10
-6.7
 20
8.4
 11
-6.7
 21
7.9
  0
LINE
  5
2A1
100
AcDbEntity
  8
0
100
AcDbLine
 62
250
  6
CONTINUOUS
 10
-6.7
 20
-8.4
 11
-6.7
 21
-7.9
  0
LINE
  5
2A2
100
AcDbEntity
  8
ASSI
100
AcDbLine
 62
250
  6
CONTINUOUS
 10
-6.7
 20
-8.4
 11
-6.7
 21
-7.9
  0
LINE
  5
2A3
100
AcDbEntity
  8
0
100
AcDbLine
 62
7
  6
CONTINUOUS
 10
29.2
 20
-8.4
 11
15.8
 21
-8.4
  0
LINE
  5
2A4
100
AcDbEntity
  8
ASSI
100
AcDbLine
 62
7
  6
CONTINUOUS
 10
29.2
 20
-8.4
 11
15.8
 21
-8.4
  0
LINE
  5
2A5
100
AcDbEntity
  8
0
100
AcDbLine
 62
7
  6
CONTINUOUS
 10
6.7
 20
-8.4
 11
-6.7
 21
-8.4
  0
LINE
  5
2A6
100
AcDbEntity
  8
ASSI
100
AcDbLine
 62
7
  6
CONTINUOUS
 10
6.7
 20
-8.4
 11
-6.7
 21
-8.4
  0
LINE
  5
2A7
100
AcDbEntity
  8
0
100
AcDbLine
 62
7
  6
CONTINUOUS
 10
-15.8
 20
-8.4
 11
-29.2
 21
-8.4
  0
LINE
  5
2A8
100
AcDbEntity
  8
ASSI
100
AcDbLine
 62
7
  6
CONTINUOUS
 10
-15.8
 20
-8.4
 11
-29.2
 21
-8.4
  0
LINE
  5
2A9
100
AcDbEntity
  8
0
100
AcDbLine
 62
7
  6
CONTINUOUS
 10
29.2
 20
-7.9
 11
15.8
 21
-7.9
  0
LINE
  5
2AA
100
AcDbEntity
  8
ASSI
100
AcDbLine
 62
7
  6
CONTINUOUS
 10
29.2
 20
-7.9
 11
15.8
 21
-7.9
  0
LINE
  5
2AB
100
AcDbEntity
  8
0
100
AcDbLine
 62
7
  6
CONTINUOUS
 10
6.7
 20
-7.9
 11
-6.7
 21
-7.9
  0
LINE
  5
2AC
100
AcDbEntity
  8
ASSI
100
AcDbLine
 62
7
  6
CONTINUOUS
 10
6.7
 20
-7.9
 11
-6.7
 21
-7.9
  0
LINE
  5
2AD
100
AcDbEntity
  8
0
100
AcDbLine
 62
7
  6
CONTINUOUS
 10
-15.8
 20
-7.9
 11
-29.2
 21
-7.9
  0
LINE
  5
2AE
100
AcDbEntity
  8
ASSI
100
AcDbLine
 62
7
  6
CONTINUOUS
 10
-15.8
 20
-7.9
 11
-29.2
 21
-7.9
  0
LINE
  5
2AF
100
AcDbEntity
  8
0
100
AcDbLine
 62
250
  6
CONTINUOUS
 10
-30.9
 20
-6.7
 11
-30.4
 21
-6.7
  0
LINE
  5
2B0
100
AcDbEntity
  8
ASSI
100
AcDbLine
 62
250
  6
CONTINUOUS
 10
-30.9
 20
-6.7
 11
-30.4
 21
-6.7
  0
LINE
  5
2B1
100
AcDbEntity
  8
0
100
AcDbLine
 62
250
  6
CONTINUOUS
 10
30.9
 20
-6.7
 11
30.4
 21
-6.7
  0
LINE
  5
2B2
100
AcDbEntity
  8
ASSI
100
AcDbLine
 62
250
  6
CONTINUOUS
 10
30.9
 20
-6.7
 11
30.4
 21
-6.7
  0
LINE
  5
2B3
100
AcDbEntity
  8
0
100
AcDbLine
 62
250
  6
CONTINUOUS
 10
-8.4
 20
-6.7
 11
-7.9
 21
-6.7
  0
LINE
  5
2B4
100
AcDbEntity
  8
ASSI
100
AcDbLine
 62
250
  6
CONTINUOUS
 10
-8.4
 20
-6.7
 11
-7.9
 21
-6.7
  0
LINE
  5
2B5
100
AcDbEntity
  8
0
100
AcDbLine
 62
250
  6
CONTINUOUS
 10
8.4
 20
-6.7
 11
7.9
 21
-6.7
  0
LINE
  5
2B6
100
AcDbEntity
  8
ASSI
100
AcDbLine
 62
250
  6
CONTINUOUS
 10
8.4
 20
-6.7
 11
7.9
 21
-6.7
  0
LINE
  5
2B7
100
AcDbEntity
  8
0
100
AcDbLine
 62
250
  6
CONTINUOUS
 10
14.1
 20
-6.7
 11
14.6
 21
-6.7
  0
LINE
  5
2B8
100
AcDbEntity
  8
ASSI
100
AcDbLine
 62
250
  6
CONTINUOUS
 10
14.1
 20
-6.7
 11
14.6
 21
-6.7
  0
LINE
  5
2B9
100
AcDbEntity
  8
0
100
AcDbLine
 62
250
  6
CONTINUOUS
 10
-14.1
 20
-6.7
 11
-14.6
 21
-6.7
  0
LINE
  5
2BA
100
AcDbEntity
  8
ASSI
100
AcDbLine
 62
250
  6
CONTINUOUS
 10
-14.1
 20
-6.7
 11
-14.6
 21
-6.7
  0
LWPOLYLINE
  5
2BB
100
AcDbEntity
  8
0
100
AcDbPolyline
 62
7
  6
CONTINUOUS
 90
13
 70
0
 43
0.3500000006
 10
71.1340378418
 20
-0.0000003204
 10
69.8483218689
 20
-0.0000003204
 10
69.4197528992
 20
0.2142864304
 10
68.9911793976
 20
0.642857666
 10
68.9911793976
 20
0.8571421509
 10
69.4197528992
 20
1.2857133865
 10
69.8483218689
 20
1.5000001373
 10
71.1340378418
 20
1.5000001373
 10
71.5626068115
 20
1.2857133865
 10
71.9911803131
 20
0.8571421509
 10
71.9911803131
 20
0.642857666
 10
71.5626068115
 20
0.2142864304
 10
71.1340378418
 20
-0.0000003204
  0
LINE
  5
2BC
100
AcDbEntity
  8
0
100
AcDbLine
 62
250
  6
CONTINUOUS
 10
6.7
 20
8.4
 11
6.7
 21
7.9
  0
LINE
  5
2BD
100
AcDbEntity
  8
ASSI
100
AcDbLine
 62
250
  6
CONTINUOUS
 10
6.7
 20
8.4
 11
6.7
 21
7.9
  0
LINE
  5
2BE
100
AcDbEntity
  8
0
100
AcDbLine
 62
250
  6
CONTINUOUS
 10
6.7
 20
-8.4
 11
6.7
 21
-7.9
  0
LINE
  5
2BF
100
AcDbEntity
  8
ASSI
100
AcDbLine
 62
250
  6
CONTINUOUS
 10
6.7
 20
-8.4
 11
6.7
 21
-7.9
  0
LINE
  5
2C0
100
AcDbEntity
  8
0
100
AcDbLine
 62
7
  6
CONTINUOUS
 10
7.9
 20
6.7
 11
7.9
 21
-6.7
  0
LINE
  5
2C1
100
AcDbEntity
  8
ASSI
100
AcDbLine
 62
7
  6
CONTINUOUS
 10
7.9
 20
6.7
 11
7.9
 21
-6.7
  0
LINE
  5
2C2
100
AcDbEntity
  8
0
100
AcDbLine
 62
7
  6
CONTINUOUS
 10
8.4
 20
6.7
 11
8.4
 21
-6.7
  0
LINE
  5
2C3
100
AcDbEntity
  8
ASSI
100
AcDbLine
 62
7
  6
CONTINUOUS
 10
8.4
 20
6.7
 11
8.4
 21
-6.7
  0
LINE
  5
2C4
100
AcDbEntity
  8
0
100
AcDbLine
 62
7
  6
CONTINUOUS
 10
59.8055596544
 20
44.8061684565
 11
59.9993911979
 21
45.0
  0
LINE
  5
2C5
100
AcDbEntity
  8
ASSI
100
AcDbLine
 62
7
  6
CONTINUOUS
 10
59.8055596544
 20
44.8061684565
 11
59.9993911979
 21
45.0
  0
LINE
  5
2C6
100
AcDbEntity
  8
0
100
AcDbLine
 62
250
  6
CONTINUOUS
 10
-30.9
 20
6.7
 11
-30.4
 21
6.7
  0
LINE
  5
2C7
100
AcDbEntity
  8
ASSI
100
AcDbLine
 62
250
  6
CONTINUOUS
 10
-30.9
 20
6.7
 11
-30.4
 21
6.7
  0
LINE
  5
2C8
100
AcDbEntity
  8
0
100
AcDbLine
 62
250
  6
CONTINUOUS
 10
30.9
 20
6.7
 11
30.4
 21
6.7
  0
LINE
  5
2C9
100
AcDbEntity
  8
ASSI
100
AcDbLine
 62
250
  6
CONTINUOUS
 10
30.9
 20
6.7
 11
30.4
 21
6.7
  0
LINE
  5
2CA
100
AcDbEntity
  8
0
100
AcDbLine
 62
250
  6
CONTINUOUS
 10
-8.4
 20
6.7
 11
-7.9
 21
6.7
  0
LINE
  5
2CB
100
AcDbEntity
  8
ASSI
100
AcDbLine
 62
250
  6
CONTINUOUS
 10
-8.4
 20
6.7
 11
-7.9
 21
6.7
  0
LINE
  5
2CC
100
AcDbEntity
  8
0
100
AcDbLine
 62
250
  6
CONTINUOUS
 10
8.4
 20
6.7
 11
7.9
 21
6.7
  0
LINE
  5
2CD
100
AcDbEntity
  8
ASSI
100
AcDbLine
 62
250
  6
CONTINUOUS
 10
8.4
 20
6.7
 11
7.9
 21
6.7
  0
LINE
  5
2CE
100
AcDbEntity
  8
0
100
AcDbLine
 62
250
  6
CONTINUOUS
 10
14.1
 20
6.7
 11
14.6
 21
6.7
  0
LINE
  5
2CF
100
AcDbEntity
  8
ASSI
100
AcDbLine
 62
250
  6
CONTINUOUS
 10
14.1
 20
6.7
 11
14.6
 21
6.7
  0
LINE
  5
2D0
100
AcDbEntity
  8
0
100
AcDbLine
 62
250
  6
CONTINUOUS
 10
-14.1
 20
6.7
 11
-14.6
 21
6.7
  0
LINE
  5
2D1
100
AcDbEntity
  8
ASSI
100
AcDbLine
 62
250
  6
CONTINUOUS
 10
-14.1
 20
6.7
 11
-14.6
 21
6.7
  0
LINE
  5
2D2
100
AcDbEntity
  8
0
100
AcDbLine
 62
7
  6
CONTINUOUS
 10
-29.2
 20
7.9
 11
-15.8
 21
7.9
  0
LINE
  5
2D3
100
AcDbEntity
  8
ASSI
100
AcDbLine
 62
7
  6
CONTINUOUS
 10
-29.2
 20
7.9
 11
-15.8
 21
7.9
  0
LINE
  5
2D4
100
AcDbEntity
  8
0
100
AcDbLine
 62
7
  6
CONTINUOUS
 10
-6.7
 20
7.9
 11
6.7
 21
7.9
  0
LINE
  5
2D5
100
AcDbEntity
  8
ASSI
100
AcDbLine
 62
7
  6
CONTINUOUS
 10
-6.7
 20
7.9
 11
6.7
 21
7.9
  0
LINE
  5
2D6
100
AcDbEntity
  8
0
100
AcDbLine
 62
7
  6
CONTINUOUS
 10
15.8
 20
7.9
 11
29.2
 21
7.9
  0
LINE
  5
2D7
100
AcDbEntity
  8
ASSI
100
AcDbLine
 62
7
  6
CONTINUOUS
 10
15.8
 20
7.9
 11
29.2
 21
7.9
  0
LINE
  5
2D8
100
AcDbEntity
  8
0
100
AcDbLine
 62
7
  6
CONTINUOUS
 10
-29.2
 20
8.4
 11
-15.8
 21
8.4
  0
LINE
  5
2D9
100
AcDbEntity
  8
ASSI
100
AcDbLine
 62
7
  6
CONTINUOUS
 10
-29.2
 20
8.4
 11
-15.8
 21
8.4
  0
LINE
  5
2DA
100
AcDbEntity
  8
0
100
AcDbLine
 62
7
  6
CONTINUOUS
 10
-6.7
 20
8.4
 11
6.7
 21
8.4
  0
LINE
  5
2DB
100
AcDbEntity
  8
ASSI
100
AcDbLine
 62
7
  6
CONTINUOUS
 10
-6.7
 20
8.4
 11
6.7
 21
8.4
  0
LINE
  5
2DC
100
AcDbEntity
  8
0
100
AcDbLine
 62
7
  6
CONTINUOUS
 10
15.8
 20
8.4
 11
29.2
 21
8.4
  0
LINE
  5
2DD
100
AcDbEntity
  8
ASSI
100
AcDbLine
 62
7
  6
CONTINUOUS
 10
15.8
 20
8.4
 11
29.2
 21
8.4
  0
LINE
  5
2DE
100
AcDbEntity
  8
0
100
AcDbLine
 62
7
  6
CONTINUOUS
 10
59.8055596544
 20
-44.8061684565
 11
59.9993911979
 21
-45.0
  0
LINE
  5
2DF
100
AcDbEntity
  8
ASSI
100
AcDbLine
 62
7
  6
CONTINUOUS
 10
59.8055596544
 20
-44.8061684565
 11
59.9993911979
 21
-45.0
  0
LINE
  5
2E0
100
AcDbEntity
  8
0
100
AcDbLine
 62
7
  6
CONTINUOUS
 10
14.1
 20
-6.7
 11
14.1
 21
6.7
  0
LINE
  5
2E1
100
AcDbEntity
  8
ASSI
100
AcDbLine
 62
7
  6
CONTINUOUS
 10
14.1
 20
-6.7
 11
14.1
 21
6.7
  0
LINE
  5
2E2
100
AcDbEntity
  8
0
100
AcDbLine
 62
7
  6
CONTINUOUS
 10
14.6
 20
-6.7
 11
14.6
 21
6.7
  0
LINE
  5
2E3
100
AcDbEntity
  8
ASSI
100
AcDbLine
 62
7
  6
CONTINUOUS
 10
14.6
 20
-6.7
 11
14.6
 21
6.7
  0
LINE
  5
2E4
100
AcDbEntity
  8
0
100
AcDbLine
 62
250
  6
CONTINUOUS
 10
15.8
 20
8.4
 11
15.8
 21
7.9
  0
LINE
  5
2E5
100
AcDbEntity
  8
ASSI
100
AcDbLine
 62
250
  6
CONTINUOUS
 10
15.8
 20
8.4
 11
15.8
 21
7.9
  0
LINE
  5
2E6
100
AcDbEntity
  8
0
100
AcDbLine
 62
250
  6
CONTINUOUS
 10
15.8
 20
-8.4
 11
15.8
 21
-7.9
  0
LINE
  5
2E7
100
AcDbEntity
  8
ASSI
100
AcDbLine
 62
250
  6
CONTINUOUS
 10
15.8
 20
-8.4
 11
15.8
 21
-7.9
  0
LINE
  5
2E8
100
AcDbEntity
  8
0
100
AcDbLine
 62
7
  6
CONTINUOUS
 10
60.8061684565
 20
43.8055596544
 11
61.0
 21
43.9993911979
  0
LINE
  5
2E9
100
AcDbEntity
  8
ASSI
100
AcDbLine
 62
7
  6
CONTINUOUS
 10
60.8061684565
 20
43.8055596544
 11
61.0
 21
43.9993911979
  0
LINE
  5
2EA
100
AcDbEntity
  8
0
100
AcDbLine
 62
7
  6
CONTINUOUS
 10
60.8061684565
 20
-43.8055596544
 11
61.0
 21
-43.9993911979
  0
LINE
  5
2EB
100
AcDbEntity
  8
ASSI
100
AcDbLine
 62
7
  6
CONTINUOUS
 10
60.8061684565
 20
-43.8055596544
 11
61.0
 21
-43.9993911979
  0
LINE
  5
2EC
100
AcDbEntity
  8
0
100
AcDbLine
 62
7
  6
CONTINUOUS
 10
-59.7712689598
 20
-43.3767374102
 11
-60.7906993223
 21
-43.8199854699
  0
LINE
  5
2ED
100
AcDbEntity
  8
ASSI
100
AcDbLine
 62
7
  6
CONTINUOUS
 10
-59.7712689598
 20
-43.3767374102
 11
-60.7906993223
 21
-43.8199854699
  0
LINE
  5
2EE
100
AcDbEntity
  8
0
100
AcDbLine
 62
7
  6
CONTINUOUS
 10
-59.7712689598
 20
43.3767374102
 11
-60.7906993223
 21
43.8199854699
  0
LINE
  5
2EF
100
AcDbEntity
  8
ASSI
100
AcDbLine
 62
7
  6
CONTINUOUS
 10
-59.7712689598
 20
43.3767374102
 11
-60.7906993223
 21
43.8199854699
  0
LINE
  5
2F0
100
AcDbEntity
  8
0
100
AcDbLine
 62
250
  6
CONTINUOUS
 10
29.2
 20
8.4
 11
29.2
 21
7.9
  0
LINE
  5
2F1
100
AcDbEntity
  8
ASSI
100
AcDbLine
 62
250
  6
CONTINUOUS
 10
29.2
 20
8.4
 11
29.2
 21
7.9
  0
LINE
  5
2F2
100
AcDbEntity
  8
0
100
AcDbLine
 62
250
  6
CONTINUOUS
 10
29.2
 20
-8.4
 11
29.2
 21
-7.9
  0
LINE
  5
2F3
100
AcDbEntity
  8
ASSI
100
AcDbLine
 62
250
  6
CONTINUOUS
 10
29.2
 20
-8.4
 11
29.2
 21
-7.9
  0
LINE
  5
2F4
100
AcDbEntity
  8
0
100
AcDbLine
 62
7
  6
CONTINUOUS
 10
30.4
 20
6.7
 11
30.4
 21
-6.7
  0
LINE
  5
2F5
100
AcDbEntity
  8
ASSI
100
AcDbLine
 62
7
  6
CONTINUOUS
 10
30.4
 20
6.7
 11
30.4
 21
-6.7
  0
LINE
  5
2F6
100
AcDbEntity
  8
0
100
AcDbLine
 62
7
  6
CONTINUOUS
 10
30.9
 20
6.7
 11
30.9
 21
-6.7
  0
LINE
  5
2F7
100
AcDbEntity
  8
ASSI
100
AcDbLine
 62
7
  6
CONTINUOUS
 10
30.9
 20
6.7
 11
30.9
 21
-6.7
  0
LINE
  5
2F8
100
AcDbEntity
  8
0
100
AcDbLine
 62
7
  6
CONTINUOUS
 10
59.3767374102
 20
43.7712689598
 11
59.8199854699
 21
44.7906993223
  0
LINE
  5
2F9
100
AcDbEntity
  8
ASSI
100
AcDbLine
 62
7
  6
CONTINUOUS
 10
59.3767374102
 20
43.7712689598
 11
59.8199854699
 21
44.7906993223
  0
LINE
  5
2FA
100
AcDbEntity
  8
CURVE
100
AcDbLine
 62
250
  6
CONTINUOUS
 10
60.8904101948
 20
-34.842919
 11
60.9473759453
 21
-34.955522
  0
LINE
  5
2FB
100
AcDbEntity
  8
0
100
AcDbLine
 62
7
  6
CONTINUOUS
 10
59.3767374102
 20
-43.7712689598
 11
59.8199854699
 21
-44.7906993223
  0
LINE
  5
2FC
100
AcDbEntity
  8
ASSI
100
AcDbLine
 62
7
  6
CONTINUOUS
 10
59.3767374102
 20
-43.7712689598
 11
59.8199854699
 21
-44.7906993223
  0
LINE
  5
2FD
100
AcDbEntity
  8
0
100
AcDbLine
 62
7
  6
CONTINUOUS
 10
59.3767374102
 20
43.7712689598
 11
-59.3767374102
 21
43.7712689598
  0
LINE
  5
2FE
100
AcDbEntity
  8
ASSI
100
AcDbLine
 62
7
  6
CONTINUOUS
 10
59.3767374102
 20
43.7712689598
 11
-59.3767374102
 21
43.7712689598
  0
LINE
  5
2FF
100
AcDbEntity
  8
0
100
AcDbLine
 62
7
  6
CONTINUOUS
 10
59.8055596544
 20
44.8061684565
 11
-59.8055596544
 21
44.8061684565
  0
LINE
  5
300
100
AcDbEntity
  8
ASSI
100
AcDbLine
 62
7
  6
CONTINUOUS
 10
59.8055596544
 20
44.8061684565
 11
-59.8055596544
 21
44.8061684565
  0
LINE
  5
301
100
AcDbEntity
  8
0
100
AcDbLine
 62
7
  6
CONTINUOUS
 10
59.9993911979
 20
45.0
 11
-59.9993911979
 21
45.0
  0
LINE
  5
302
100
AcDbEntity
  8
ASSI
100
AcDbLine
 62
7
  6
CONTINUOUS
 10
59.9993911979
 20
45.0
 11
-59.9993911979
 21
45.0
  0
LINE
  5
303
100
AcDbEntity
  8
CURVE
100
AcDbLine
 62
250
  6
CONTINUOUS
 10
60.9473759453
 20
-35.454708
 11
60.860136417
 21
-35.228996
  0
LWPOLYLINE
  5
304
100
AcDbEntity
  8
0
100
AcDbPolyline
 62
7
  6
CONTINUOUS
 90
10
 70
0
 43
0.3500000006
 10
71.9911803131
 20
-1.9285708809
 10
71.1340378418
 20
-1.0714295425
 10
70.2768953705
 20
-0.8571427917
 10
69.4197528992
 20
-0.8571427917
 10
68.9911793976
 20
-1.2857140274
 10
68.9911793976
 20
-1.9285708809
 10
69.4197528992
 20
-2.3571432495
 10
70.2768953705
 20
-2.3571432495
 10
70.7054643402
 20
-1.9285708809
 10
70.7054643402
 20
-1.0000006256
  0
LINE
  5
305
100
AcDbEntity
  8
CURVE
100
AcDbLine
 62
250
  6
CONTINUOUS
 10
60.9201860964
 20
-37.463524
 11
60.860136417
 21
-36.972473
  0
LINE
  5
306
100
AcDbEntity
  8
CURVE
100
AcDbLine
 62
250
  6
CONTINUOUS
 10
60.860136417
 20
-36.451037
 11
60.9473759453
 21
-37.254552
  0
LINE
  5
307
100
AcDbEntity
  8
CURVE
100
AcDbLine
 62
250
  6
CONTINUOUS
 10
60.9085720674
 20
-34.191353
 11
60.860136417
 21
-33.66956
  0
LINE
  5
308
100
AcDbEntity
  8
CURVE
100
AcDbLine
 62
250
  6
CONTINUOUS
 10
60.890647651
 20
-33.5372
 11
60.9473759453
 21
-34.157611
  0
LINE
  5
309
100
AcDbEntity
  8
0
100
AcDbLine
 62
7
  6
CONTINUOUS
 10
59.7712689598
 20
-43.3767374102
 11
59.7712689598
 21
43.3767374102
  0
LINE
  5
30A
100
AcDbEntity
  8
ASSI
100
AcDbLine
 62
7
  6
CONTINUOUS
 10
59.7712689598
 20
-43.3767374102
 11
59.7712689598
 21
43.3767374102
  0
LINE
  5
30B
100
AcDbEntity
  8
0
100
AcDbLine
 62
7
  6
CONTINUOUS
 10
60.8061684565
 20
-43.8055596544
 11
60.8061684565
 21
43.8055596544
  0
LINE
  5
30C
100
AcDbEntity
  8
ASSI
100
AcDbLine
 62
7
  6
CONTINUOUS
 10
60.8061684565
 20
-43.8055596544
 11
60.8061684565
 21
43.8055596544
  0
LINE
  5
30D
100
AcDbEntity
  8
CURVE
100
AcDbLine
 62
250
  6
CONTINUOUS
 10
60.860131217
 20
-35.735605
 11
60.860131217
 21
-36.257398
  0
LINE
  5
30E
100
AcDbEntity
  8
CURVE
100
AcDbLine
 62
250
  6
CONTINUOUS
 10
60.860136417
 20
-38.506847
 11
60.860136417
 21
-37.940019
  0
LINE
  5
30F
100
AcDbEntity
  8
CURVE
100
AcDbLine
 62
250
  6
CONTINUOUS
 10
60.860136417
 20
-36.972473
 11
60.860136417
 21
-36.451037
  0
LINE
  5
310
100
AcDbEntity
  8
CURVE
100
AcDbLine
 62
250
  6
CONTINUOUS
 10
60.860136417
 20
-35.228996
 11
60.860136417
 21
-34.707635
  0
LINE
  5
311
100
AcDbEntity
  8
CURVE
100
AcDbLine
 62
250
  6
CONTINUOUS
 10
60.860136417
 20
-33.66956
 11
60.860136417
 21
-33.153297
  0
LINE
  5
312
100
AcDbEntity
  8
CURVE
100
AcDbLine
 62
250
  6
CONTINUOUS
 10
60.860136417
 20
-32.053532
 11
60.860136417
 21
-31.54876
  0
LINE
  5
313
100
AcDbEntity
  8
CURVE
100
AcDbLine
 62
250
  6
CONTINUOUS
 10
60.8989474951
 20
-29.8279642095
 11
60.8989474951
 21
-30.126163664
  0
LINE
  5
314
100
AcDbEntity
  8
CURVE
100
AcDbLine
 62
250
  6
CONTINUOUS
 10
60.9132352194
 20
-30.1088617972
 11
60.9132352194
 21
-29.8290889245
  0
LINE
  5
315
100
AcDbEntity
  8
CURVE
100
AcDbLine
 62
250
  6
CONTINUOUS
 10
60.9164833296
 20
-32.070759
 11
60.9164833296
 21
-31.571179
  0
LINE
  5
316
100
AcDbEntity
  8
CURVE
100
AcDbLine
 62
250
  6
CONTINUOUS
 10
60.92995984
 20
-31.466899
 11
60.92995984
 21
-32.177494
  0
LINE
  5
317
100
AcDbEntity
  8
CURVE
100
AcDbLine
 62
250
  6
CONTINUOUS
 10
60.9473759453
 20
-36.257398
 11
60.9473759453
 21
-35.735605
  0
LINE
  5
318
100
AcDbEntity
  8
CURVE
100
AcDbLine
 62
250
  6
CONTINUOUS
 10
60.9473759458
 20
-30.6285551388
 11
60.9473759458
 21
-30.1088617972
  0
LINE
  5
319
100
AcDbEntity
  8
CURVE
100
AcDbLine
 62
250
  6
CONTINUOUS
 10
60.9473759458
 20
-29.3098079785
 11
60.9473759458
 21
-28.8079038802
  0
LINE
  5
31A
100
AcDbEntity
  8
CURVE
100
AcDbLine
 62
250
  6
CONTINUOUS
 10
60.9473759453
 20
-30.781779
 11
60.9473759453
 21
-31.331727
  0
LINE
  5
31B
100
AcDbEntity
  8
CURVE
100
AcDbLine
 62
250
  6
CONTINUOUS
 10
60.9473759453
 20
-32.321477
 11
60.9473759453
 21
-32.837608
  0
LINE
  5
31C
100
AcDbEntity
  8
CURVE
100
AcDbLine
 62
250
  6
CONTINUOUS
 10
60.9473759453
 20
-32.919544
 11
60.9473759453
 21
-33.429996
  0
LINE
  5
31D
100
AcDbEntity
  8
CURVE
100
AcDbLine
 62
250
  6
CONTINUOUS
 10
60.9473759453
 20
-34.157611
 11
60.9473759453
 21
-34.230793
  0
LINE
  5
31E
100
AcDbEntity
  8
CURVE
100
AcDbLine
 62
250
  6
CONTINUOUS
 10
60.9473759453
 20
-34.955522
 11
60.9473759453
 21
-35.454708
  0
LINE
  5
31F
100
AcDbEntity
  8
CURVE
100
AcDbLine
 62
250
  6
CONTINUOUS
 10
60.9473759453
 20
-37.254552
 11
60.9473759453
 21
-37.714382
  0
LINE
  5
320
100
AcDbEntity
  8
0
100
AcDbLine
 62
7
  6
CONTINUOUS
 10
61.0
 20
-43.9993911979
 11
61.0
 21
43.9993911979
  0
LINE
  5
321
100
AcDbEntity
  8
ASSI
100
AcDbLine
 62
7
  6
CONTINUOUS
 10
61.0
 20
-43.9993911979
 11
61.0
 21
43.9993911979
  0
LWPOLYLINE
  5
322
100
AcDbEntity
  8
0
100
AcDbPolyline
 62
7
  6
CONTINUOUS
 90
7
 70
0
 43
0.3500000006
 10
2.3571427875
 20
57.5859005127
 10
0.8571428254
 20
57.5859005127
 10
2.3571427875
 20
59.728754425
 10
2.3571427875
 20
60.1573233948
 10
1.9285714102
 20
60.5859014282
 10
1.2857142735
 20
60.5859014282
 10
0.8571428254
 20
59.9430389099
  0
LWPOLYLINE
  5
323
100
AcDbEntity
  8
0
100
AcDbPolyline
 62
7
  6
CONTINUOUS
 90
7
 70
0
 43
0.3500000006
 10
0.0
 20
57.5859005127
 10
-1.5000000329
 20
57.5859005127
 10
0.0
 20
59.728754425
 10
0.0
 20
60.1573233948
 10
-0.4285714127
 20
60.5859014282
 10
-1.0714285848
 20
60.5859014282
 10
-1.5000000329
 20
59.9430389099
  0
LINE
  5
324
100
AcDbEntity
  8
CURVE
100
AcDbLine
 62
250
  6
CONTINUOUS
 10
60.8841076249
 20
-31.81095
 11
60.9164833296
 21
-32.070759
  0
LINE
  5
325
100
AcDbEntity
  8
CURVE
100
AcDbLine
 62
250
  6
CONTINUOUS
 10
60.92995984
 20
-32.177494
 11
60.9473759453
 21
-32.321477
  0
LINE
  5
326
100
AcDbEntity
  8
CURVE
100
AcDbLine
 62
250
  6
CONTINUOUS
 10
60.9473759453
 20
-32.837608
 11
60.860136417
 21
-32.053532
  0
LINE
  5
327
100
AcDbEntity
  8
CURVE
100
AcDbLine
 62
250
  6
CONTINUOUS
 10
60.9473759453
 20
-34.230793
 11
60.8904101948
 21
-34.842919
  0
LINE
  5
328
100
AcDbEntity
  8
CURVE
100
AcDbLine
 62
250
  6
CONTINUOUS
 10
60.860136417
 20
-34.707635
 11
60.9085720674
 21
-34.191353
  0
LINE
  5
329
100
AcDbEntity
  8
CURVE
100
AcDbLine
 62
250
  6
CONTINUOUS
 10
60.9473759453
 20
-37.714382
 11
60.860136417
 21
-38.506847
  0
LINE
  5
32A
100
AcDbEntity
  8
CURVE
100
AcDbLine
 62
250
  6
CONTINUOUS
 10
60.860136417
 20
-31.54876
 11
60.9473759453
 21
-30.781779
  0
LINE
  5
32B
100
AcDbEntity
  8
CURVE
100
AcDbLine
 62
250
  6
CONTINUOUS
 10
60.860136417
 20
-37.940019
 11
60.9201860964
 21
-37.463524
  0
LINE
  5
32C
100
AcDbEntity
  8
CURVE
100
AcDbLine
 62
250
  6
CONTINUOUS
 10
60.9473759453
 20
-31.331727
 11
60.92995984
 21
-31.466899
  0
LINE
  5
32D
100
AcDbEntity
  8
CURVE
100
AcDbLine
 62
250
  6
CONTINUOUS
 10
60.9164833296
 20
-31.571179
 11
60.8841076249
 21
-31.81095
  0
LINE
  5
32E
100
AcDbEntity
  8
CURVE
100
AcDbLine
 62
7
  6
CONTINUOUS
 10
60.9228082895
 20
-28.9936929969
 11
60.9473759458
 21
-28.9691253406
  0
LINE
  5
32F
100
AcDbEntity
  8
CURVE
100
AcDbLine
 62
7
  6
CONTINUOUS
 10
60.8706962262
 20
-29.0458050602
 11
60.8969851359
 21
-29.0195161505
  0
LINE
  5
330
100
AcDbEntity
  8
CURVE
100
AcDbLine
 62
7
  6
CONTINUOUS
 10
60.9080271706
 20
-29.2184848298
 11
60.9473759458
 21
-29.1791360546
  0
LINE
  5
331
100
AcDbEntity
  8
CURVE
100
AcDbLine
 62
7
  6
CONTINUOUS
 10
60.8634011359
 20
-29.2631108645
 11
60.9049744896
 21
-29.2215375109
  0
LINE
  5
332
100
AcDbEntity
  8
CURVE
100
AcDbLine
 62
7
  6
CONTINUOUS
 10
60.8905817644
 20
-29.44594095
 11
60.9365793037
 21
-29.3999434107
  0
LINE
  5
333
100
AcDbEntity
  8
CURVE
100
AcDbLine
 62
7
  6
CONTINUOUS
 10
60.8607328125
 20
-29.4757899019
 11
60.8806589442
 21
-29.4558637702
  0
LINE
  5
334
100
AcDbEntity
  8
CURVE
100
AcDbLine
 62
7
  6
CONTINUOUS
 10
60.8979403484
 20
-29.64859308
 11
60.9159613968
 21
-29.6305720316
  0
LINE
  5
335
100
AcDbEntity
  8
CURVE
100
AcDbLine
 62
7
  6
CONTINUOUS
 10
60.859558072
 20
-29.6869753564
 11
60.8747831186
 21
-29.6717503099
  0
LINE
  5
336
100
AcDbEntity
  8
CURVE
100
AcDbLine
 62
7
  6
CONTINUOUS
 10
60.8989474951
 20
-29.8575966474
 11
60.9132352194
 21
-29.8433089231
  0
LINE
  5
337
100
AcDbEntity
  8
CURVE
100
AcDbLine
 62
7
  6
CONTINUOUS
 10
60.8591488518
 20
-29.8973952907
 11
60.8741852805
 21
-29.882358862
  0
LINE
  5
338
100
AcDbEntity
  8
CURVE
100
AcDbLine
 62
7
  6
CONTINUOUS
 10
60.8989474951
 20
-30.0676073614
 11
60.9132352194
 21
-30.0533196371
  0
LINE
  5
339
100
AcDbEntity
  8
CURVE
100
AcDbLine
 62
7
  6
CONTINUOUS
 10
60.8592762091
 20
-30.1072786474
 11
60.8748075934
 21
-30.0917472631
  0
LINE
  5
33A
100
AcDbEntity
  8
CURVE
100
AcDbLine
 62
7
  6
CONTINUOUS
 10
60.8597964764
 20
-30.3167690941
 11
60.9473759458
 21
-30.2291896247
  0
LINE
  5
33B
100
AcDbEntity
  8
CURVE
100
AcDbLine
 62
7
  6
CONTINUOUS
 10
60.8606616103
 20
-30.5259146742
 11
60.9473759458
 21
-30.4392003387
  0
LINE
  5
33C
100
AcDbEntity
  8
CURVE
100
AcDbLine
 62
7
  6
CONTINUOUS
 10
60.9374367687
 20
-30.8691609438
 11
60.9473759453
 21
-30.8592217673
  0
LINE
  5
33D
100
AcDbEntity
  8
CURVE
100
AcDbLine
 62
7
  6
CONTINUOUS
 10
60.9104835278
 20
-31.1061248987
 11
60.9473759453
 21
-31.0692324813
  0
LINE
  5
33E
100
AcDbEntity
  8
CURVE
100
AcDbLine
 62
7
  6
CONTINUOUS
 10
60.883530287
 20
-31.3430888536
 11
60.9473759453
 21
-31.2792431953
  0
LINE
  5
33F
100
AcDbEntity
  8
CURVE
100
AcDbLine
 62
7
  6
CONTINUOUS
 10
60.860136417
 20
-31.5764934376
 11
60.92995984
 21
-31.5066700145
  0
LINE
  5
340
100
AcDbEntity
  8
CURVE
100
AcDbLine
 62
7
  6
CONTINUOUS
 10
60.9164833296
 20
-31.730157239
 11
60.92995984
 21
-31.7166807286
  0
LINE
  5
341
100
AcDbEntity
  8
CURVE
100
AcDbLine
 62
7
  6
CONTINUOUS
 10
60.860136417
 20
-31.7865041516
 11
60.8916658306
 21
-31.7549747379
  0
LINE
  5
342
100
AcDbEntity
  8
CURVE
100
AcDbLine
 62
7
  6
CONTINUOUS
 10
60.9164833296
 20
-31.940167953
 11
60.92995984
 21
-31.9266914426
  0
LINE
  5
343
100
AcDbEntity
  8
CURVE
100
AcDbLine
 62
7
  6
CONTINUOUS
 10
60.860136417
 20
-31.9965148656
 11
60.9020131088
 21
-31.9546381738
  0
LINE
  5
344
100
AcDbEntity
  8
CURVE
100
AcDbLine
 62
7
  6
CONTINUOUS
 10
60.8754547343
 20
-32.1912072623
 11
60.92995984
 21
-32.1367021566
  0
LINE
  5
345
100
AcDbEntity
  8
CURVE
100
AcDbLine
 62
7
  6
CONTINUOUS
 10
60.8964818307
 20
-32.3801908799
 11
60.9473759453
 21
-32.3292967654
  0
LINE
  5
346
100
AcDbEntity
  8
CURVE
100
AcDbLine
 62
7
  6
CONTINUOUS
 10
60.9175089271
 20
-32.5691744975
 11
60.9473759453
 21
-32.5393074794
  0
LINE
  5
347
100
AcDbEntity
  8
CURVE
100
AcDbLine
 62
7
  6
CONTINUOUS
 10
60.9385360235
 20
-32.7581581151
 11
60.9473759453
 21
-32.7493181934
  0
LINE
  5
348
100
AcDbEntity
  8
CURVE
100
AcDbLine
 62
250
  6
CONTINUOUS
 10
60.860136417
 20
-33.153297
 11
60.9473759453
 21
-32.919544
  0
LINE
  5
349
100
AcDbEntity
  8
CURVE
100
AcDbLine
 62
250
  6
CONTINUOUS
 10
60.9473759453
 20
-33.429996
 11
60.890647651
 21
-33.5372
  0
LINE
  5
34A
100
AcDbEntity
  8
0
100
AcDbLine
 62
7
  6
CONTINUOUS
 10
59.8199854699
 20
-44.7906993223
 11
59.8055596544
 21
-44.8061684565
  0
LINE
  5
34B
100
AcDbEntity
  8
ASSI
100
AcDbLine
 62
7
  6
CONTINUOUS
 10
59.8199854699
 20
-44.7906993223
 11
59.8055596544
 21
-44.8061684565
  0
LINE
  5
34C
100
AcDbEntity
  8
CURVE
100
AcDbLine
 62
7
  6
CONTINUOUS
 10
60.9236865431
 20
-32.9830183096
 11
60.9473759453
 21
-32.9593289074
  0
LINE
  5
34D
100
AcDbEntity
  8
CURVE
100
AcDbLine
 62
7
  6
CONTINUOUS
 10
60.860136417
 20
-33.2565791497
 11
60.9473759453
 21
-33.1693396214
  0
LINE
  5
34E
100
AcDbEntity
  8
CURVE
100
AcDbLine
 62
7
  6
CONTINUOUS
 10
60.860136417
 20
-33.4665898637
 11
60.9473759453
 21
-33.3793503354
  0
LINE
  5
34F
100
AcDbEntity
  8
CURVE
100
AcDbLine
 62
7
  6
CONTINUOUS
 10
60.8607344489
 20
-33.6760025457
 11
60.8997700085
 21
-33.6369669862
  0
LINE
  5
350
100
AcDbEntity
  8
CURVE
100
AcDbLine
 62
7
  6
CONTINUOUS
 10
60.8785729169
 20
-33.8681747918
 11
60.9173639507
 21
-33.829383758
  0
LINE
  5
351
100
AcDbEntity
  8
CURVE
100
AcDbLine
 62
7
  6
CONTINUOUS
 10
60.8964113849
 20
-34.0603470378
 11
60.9349578928
 21
-34.0218005299
  0
LINE
  5
352
100
AcDbEntity
  8
CURVE
100
AcDbLine
 62
7
  6
CONTINUOUS
 10
60.9016517698
 20
-34.265117367
 11
60.9473759453
 21
-34.2193931915
  0
LINE
  5
353
100
AcDbEntity
  8
CURVE
100
AcDbLine
 62
7
  6
CONTINUOUS
 10
60.879909577
 20
-34.4968702738
 11
60.9269962093
 21
-34.4497836414
  0
LINE
  5
354
100
AcDbEntity
  8
CURVE
100
AcDbLine
 62
7
  6
CONTINUOUS
 10
60.860136417
 20
-34.7266541478
 11
60.9054467235
 21
-34.6813438412
  0
LINE
  5
355
100
AcDbEntity
  8
CURVE
100
AcDbLine
 62
7
  6
CONTINUOUS
 10
60.860136417
 20
-34.9366648618
 11
60.9117333153
 21
-34.8850679635
  0
LINE
  5
356
100
AcDbEntity
  8
CURVE
100
AcDbLine
 62
7
  6
CONTINUOUS
 10
60.860136417
 20
-35.1466755758
 11
60.9473759453
 21
-35.0594360475
  0
LINE
  5
357
100
AcDbEntity
  8
CURVE
100
AcDbLine
 62
7
  6
CONTINUOUS
 10
60.8957318356
 20
-35.3210908712
 11
60.9473759453
 21
-35.2694467615
  0
LINE
  5
358
100
AcDbEntity
  8
CURVE
100
AcDbLine
 62
7
  6
CONTINUOUS
 10
60.860131217
 20
-35.7767129179
 11
60.9012391348
 21
-35.735605
  0
LINE
  5
359
100
AcDbEntity
  8
CURVE
100
AcDbLine
 62
7
  6
CONTINUOUS
 10
60.860131217
 20
-35.9867236319
 11
60.9473759453
 21
-35.8994789036
  0
LINE
  5
35A
100
AcDbEntity
  8
CURVE
100
AcDbLine
 62
7
  6
CONTINUOUS
 10
60.860131217
 20
-36.1967343459
 11
60.9473759453
 21
-36.1094896176
  0
LINE
  5
35B
100
AcDbEntity
  8
CURVE
100
AcDbLine
 62
7
  6
CONTINUOUS
 10
60.860136417
 20
-36.6167505739
 11
60.8763662239
 21
-36.600520767
  0
LINE
  5
35C
100
AcDbEntity
  8
CURVE
100
AcDbLine
 62
7
  6
CONTINUOUS
 10
60.860136417
 20
-36.8267612879
 11
60.8969344445
 21
-36.7899632604
  0
LINE
  5
35D
100
AcDbEntity
  8
CURVE
100
AcDbLine
 62
7
  6
CONTINUOUS
 10
60.8671426403
 20
-37.0297657786
 11
60.9175026651
 21
-36.9794057538
  0
LINE
  5
35E
100
AcDbEntity
  8
CURVE
100
AcDbLine
 62
7
  6
CONTINUOUS
 10
60.8900260744
 20
-37.2168930585
 11
60.9380708857
 21
-37.1688482472
  0
LINE
  5
35F
100
AcDbEntity
  8
CURVE
100
AcDbLine
 62
7
  6
CONTINUOUS
 10
60.9129095084
 20
-37.4040203385
 11
60.9473759453
 21
-37.3695539016
  0
LINE
  5
360
100
AcDbEntity
  8
CURVE
100
AcDbLine
 62
7
  6
CONTINUOUS
 10
60.8995328604
 20
-37.6274077005
 11
60.9473759453
 21
-37.5795646157
  0
LINE
  5
361
100
AcDbEntity
  8
CURVE
100
AcDbLine
 62
7
  6
CONTINUOUS
 10
60.8692501908
 20
-37.8677010841
 11
60.9380741959
 21
-37.7988770791
  0
LINE
  5
362
100
AcDbEntity
  8
CURVE
100
AcDbLine
 62
7
  6
CONTINUOUS
 10
60.860136417
 20
-38.086825572
 11
60.9120949362
 21
-38.0348670527
  0
LINE
  5
363
100
AcDbEntity
  8
CURVE
100
AcDbLine
 62
7
  6
CONTINUOUS
 10
60.860136417
 20
-38.296836286
 11
60.8861156766
 21
-38.2708570264
  0
LINE
  5
364
100
AcDbEntity
  8
0
100
AcDbLine
 62
7
  6
CONTINUOUS
 10
59.3767374102
 20
-43.7712689598
 11
59.7712689598
 21
-43.3767374102
  0
LINE
  5
365
100
AcDbEntity
  8
ASSI
100
AcDbLine
 62
7
  6
CONTINUOUS
 10
59.3767374102
 20
-43.7712689598
 11
59.7712689598
 21
-43.3767374102
  0
LINE
  5
366
100
AcDbEntity
  8
0
100
AcDbLine
 62
7
  6
CONTINUOUS
 10
59.8199854699
 20
-44.7906993223
 11
60.7906993223
 21
-43.8199854699
  0
LINE
  5
367
100
AcDbEntity
  8
ASSI
100
AcDbLine
 62
7
  6
CONTINUOUS
 10
59.8199854699
 20
-44.7906993223
 11
60.7906993223
 21
-43.8199854699
  0
LINE
  5
368
100
AcDbEntity
  8
0
100
AcDbLine
 62
7
  6
CONTINUOUS
 10
61.0
 20
-43.9993911979
 11
59.9993911979
 21
-45.0
  0
LINE
  5
369
100
AcDbEntity
  8
ASSI
100
AcDbLine
 62
7
  6
CONTINUOUS
 10
61.0
 20
-43.9993911979
 11
59.9993911979
 21
-45.0
  0
LINE
  5
36A
100
AcDbEntity
  8
0
100
AcDbLine
 62
7
  6
CONTINUOUS
 10
60.8061684565
 20
-43.8055596544
 11
60.7906993223
 21
-43.8199854699
  0
LINE
  5
36B
100
AcDbEntity
  8
ASSI
100
AcDbLine
 62
7
  6
CONTINUOUS
 10
60.8061684565
 20
-43.8055596544
 11
60.7906993223
 21
-43.8199854699
  0
LINE
  5
36C
100
AcDbEntity
  8
0
100
AcDbLine
 62
7
  6
CONTINUOUS
 10
60.7906993223
 20
43.8199854699
 11
60.8061684565
 21
43.8055596544
  0
LINE
  5
36D
100
AcDbEntity
  8
ASSI
100
AcDbLine
 62
7
  6
CONTINUOUS
 10
60.7906993223
 20
43.8199854699
 11
60.8061684565
 21
43.8055596544
  0
LINE
  5
36E
100
AcDbEntity
  8
0
100
AcDbLine
 62
7
  6
CONTINUOUS
 10
59.7712689598
 20
43.3767374102
 11
59.3767374102
 21
43.7712689598
  0
LINE
  5
36F
100
AcDbEntity
  8
ASSI
100
AcDbLine
 62
7
  6
CONTINUOUS
 10
59.7712689598
 20
43.3767374102
 11
59.3767374102
 21
43.7712689598
  0
LINE
  5
370
100
AcDbEntity
  8
0
100
AcDbLine
 62
7
  6
CONTINUOUS
 10
60.7906993223
 20
43.8199854699
 11
59.8199854699
 21
44.7906993223
  0
LINE
  5
371
100
AcDbEntity
  8
ASSI
100
AcDbLine
 62
7
  6
CONTINUOUS
 10
60.7906993223
 20
43.8199854699
 11
59.8199854699
 21
44.7906993223
  0
LINE
  5
372
100
AcDbEntity
  8
0
100
AcDbLine
 62
7
  6
CONTINUOUS
 10
59.9993911979
 20
45.0
 11
61.0
 21
43.9993911979
  0
LINE
  5
373
100
AcDbEntity
  8
ASSI
100
AcDbLine
 62
7
  6
CONTINUOUS
 10
59.9993911979
 20
45.0
 11
61.0
 21
43.9993911979
  0
LINE
  5
374
100
AcDbEntity
  8
0
100
AcDbLine
 62
7
  6
CONTINUOUS
 10
59.8055596544
 20
44.8061684565
 11
59.8199854699
 21
44.7906993223
  0
LINE
  5
375
100
AcDbEntity
  8
ASSI
100
AcDbLine
 62
7
  6
CONTINUOUS
 10
59.8055596544
 20
44.8061684565
 11
59.8199854699
 21
44.7906993223
  0
LWPOLYLINE
  5
376
100
AcDbEntity
  8
0
100
AcDbPolyline
 62
7
  6
CONTINUOUS
 90
3
 70
0
 43
0.3500000006
 10
-104.7119869995
 20
67.4559841919
 10
-103.8548399963
 20
68.3131311951
 10
-103.8548399963
 20
65.3131302795
  0
LWPOLYLINE
  5
377
100
AcDbEntity
  8
0
100
AcDbPolyline
 62
7
  6
CONTINUOUS
 90
3
 70
0
 43
0.3500000006
 10
-98.9262696533
 20
67.4559841919
 10
-98.0691317139
 20
68.3131311951
 10
-98.0691317139
 20
65.3131302795
  0
LWPOLYLINE
  5
378
100
AcDbEntity
  8
0
100
AcDbPolyline
 62
7
  6
CONTINUOUS
 90
3
 70
0
 43
0.3500000006
 10
-100.6189194946
 20
59.2603685303
 10
-99.7617724915
 20
60.1175155334
 10
-99.7617724915
 20
57.1175146179
  0
LINE
  5
379
100
AcDbEntity
  8
0
100
AcDbLine
 62
7
  6
CONTINUOUS
 10
-92.5534812242
 20
-44.8061684565
 11
-87.0028720512
 21
-45.0
  0
LINE
  5
37A
100
AcDbEntity
  8
ASSI
100
AcDbLine
 62
7
  6
CONTINUOUS
 10
-92.5534812242
 20
-44.8061684565
 11
-87.0028720512
 21
-45.0
  0
LINE
  5
37B
100
AcDbEntity
  8
0
100
AcDbLine
 62
7
  6
CONTINUOUS
 10
-92.5534812242
 20
-43.8055596544
 11
-87.0028720512
 21
-43.9993911979
  0
LINE
  5
37C
100
AcDbEntity
  8
ASSI
100
AcDbLine
 62
7
  6
CONTINUOUS
 10
-92.5534812242
 20
-43.8055596544
 11
-87.0028720512
 21
-43.9993911979
  0
LINE
  5
37D
100
AcDbEntity
  8
0
100
AcDbLine
 62
7
  6
CONTINUOUS
 10
-87.0028720512
 20
-42.7580439128
 11
-86.4028720512
 21
-42.8
  0
LINE
  5
37E
100
AcDbEntity
  8
0
100
AcDbLine
 62
7
  6
CONTINUOUS
 10
-93.5528720512
 20
43.3767374102
 11
-92.5684195934
 21
43.8199854699
  0
LINE
  5
37F
100
AcDbEntity
  8
ASSI
100
AcDbLine
 62
7
  6
CONTINUOUS
 10
-93.5528720512
 20
43.3767374102
 11
-92.5684195934
 21
43.8199854699
  0
LINE
  5
380
100
AcDbEntity
  8
0
100
AcDbLine
 62
250
  6
CONTINUOUS
 10
-87.0028720512
 20
-41.1619414324
 11
-86.4028720512
 21
-41.2038975196
  0
LINE
  5
381
100
AcDbEntity
  8
0
100
AcDbLine
 62
7
  6
CONTINUOUS
 10
-93.5528720512
 20
-43.3767374102
 11
-92.5684195934
 21
-43.8199854699
  0
LINE
  5
382
100
AcDbEntity
  8
ASSI
100
AcDbLine
 62
7
  6
CONTINUOUS
 10
-93.5528720512
 20
-43.3767374102
 11
-92.5684195934
 21
-43.8199854699
  0
LINE
  5
383
100
AcDbEntity
  8
CURVE
100
AcDbLine
 62
250
  6
CONTINUOUS
 10
-91.0080410397
 20
-37.940019
 11
-89.2884432108
 21
-37.463524
  0
LINE
  5
384
100
AcDbEntity
  8
CURVE
100
AcDbLine
 62
250
  6
CONTINUOUS
 10
-91.0081899489
 20
-36.257398
 11
-88.5098278113
 21
-36.257398
  0
LINE
  5
385
100
AcDbEntity
  8
CURVE
100
AcDbLine
 62
250
  6
CONTINUOUS
 10
-89.2884432108
 20
-37.463524
 11
-91.0080410397
 21
-36.972473
  0
LINE
  5
386
100
AcDbEntity
  8
0
100
AcDbLine
 62
7
  6
CONTINUOUS
 10
-92.5534812242
 20
44.8061684565
 11
-93.5528720512
 21
43.7712689598
  0
LINE
  5
387
100
AcDbEntity
  8
ASSI
100
AcDbLine
 62
7
  6
CONTINUOUS
 10
-92.5534812242
 20
44.8061684565
 11
-93.5528720512
 21
43.7712689598
  0
LINE
  5
388
100
AcDbEntity
  8
CURVE
100
AcDbLine
 62
250
  6
CONTINUOUS
 10
-88.5098278113
 20
-33.429996
 11
-90.1343136153
 21
-33.5372
  0
LINE
  5
389
100
AcDbEntity
  8
CURVE
100
AcDbLine
 62
250
  6
CONTINUOUS
 10
-88.5098278113
 20
-35.735605
 11
-91.0081899489
 21
-35.735605
  0
LINE
  5
38A
100
AcDbEntity
  8
CURVE
100
AcDbLine
 62
250
  6
CONTINUOUS
 10
-90.1411134705
 20
-34.842919
 11
-88.5098278113
 21
-34.955522
  0
LINE
  5
38B
100
AcDbEntity
  8
CURVE
100
AcDbLine
 62
250
  6
CONTINUOUS
 10
-88.5098278113
 20
-35.454708
 11
-91.0080410397
 21
-35.228996
  0
LINE
  5
38C
100
AcDbEntity
  8
CURVE
100
AcDbLine
 62
250
  6
CONTINUOUS
 10
-91.0080410397
 20
-36.451037
 11
-88.5098278113
 21
-37.254552
  0
LINE
  5
38D
100
AcDbEntity
  8
0
100
AcDbLine
 62
7
  6
CONTINUOUS
 10
-93.5528720512
 20
-43.7712689598
 11
-92.5534812242
 21
-44.8061684565
  0
LINE
  5
38E
100
AcDbEntity
  8
ASSI
100
AcDbLine
 62
7
  6
CONTINUOUS
 10
-93.5528720512
 20
-43.7712689598
 11
-92.5534812242
 21
-44.8061684565
  0
LWPOLYLINE
  5
38F
100
AcDbEntity
  8
0
100
AcDbPolyline
 62
7
  6
CONTINUOUS
 90
3
 70
0
 43
0.3500000006
 10
-99.9262699585
 20
65.5988459473
 10
-99.9977011414
 20
65.3845614624
 10
-100.1405544434
 20
65.0988457947
  0
LWPOLYLINE
  5
390
100
AcDbEntity
  8
0
100
AcDbPolyline
 62
7
  6
CONTINUOUS
 90
3
 70
0
 43
0.3500000006
 10
-101.6189197998
 20
57.4032302856
 10
-101.6903509827
 20
57.1889458008
 10
-101.8332042847
 20
56.9032301331
  0
LINE
  5
391
100
AcDbEntity
  8
CURVE
100
AcDbLine
 62
250
  6
CONTINUOUS
 10
-88.5098278113
 20
-31.331727
 11
-89.0085598121
 21
-31.466899
  0
LINE
  5
392
100
AcDbEntity
  8
CURVE
100
AcDbLine
 62
250
  6
CONTINUOUS
 10
-89.3944765787
 20
-31.571179
 11
-90.3215954587
 21
-31.81095
  0
LINE
  5
393
100
AcDbEntity
  8
CURVE
100
AcDbLine
 62
250
  6
CONTINUOUS
 10
-91.0080410397
 20
-33.153297
 11
-88.5098278113
 21
-32.919544
  0
LINE
  5
394
100
AcDbEntity
  8
CURVE
100
AcDbLine
 62
250
  6
CONTINUOUS
 10
-90.9788531836
 20
-30.6285551388
 11
-88.5098277949
 21
-30.6285551388
  0
LINE
  5
395
100
AcDbEntity
  8
CURVE
100
AcDbLine
 62
250
  6
CONTINUOUS
 10
-89.8966371765
 20
-30.126163664
 11
-90.5824452984
 21
-30.126163664
  0
LINE
  5
396
100
AcDbEntity
  8
CURVE
100
AcDbLine
 62
250
  6
CONTINUOUS
 10
-88.5098277949
 20
-30.1088617972
 11
-89.4874902856
 21
-30.1088617972
  0
LINE
  5
397
100
AcDbEntity
  8
CURVE
100
AcDbLine
 62
250
  6
CONTINUOUS
 10
-90.3215954587
 20
-31.81095
 11
-89.3944765787
 21
-32.070759
  0
LINE
  5
398
100
AcDbEntity
  8
CURVE
100
AcDbLine
 62
250
  6
CONTINUOUS
 10
-89.0085598121
 20
-32.177494
 11
-88.5098278113
 21
-32.321477
  0
LINE
  5
399
100
AcDbEntity
  8
CURVE
100
AcDbLine
 62
250
  6
CONTINUOUS
 10
-88.5098278113
 20
-32.837608
 11
-91.0080410397
 21
-32.053532
  0
LINE
  5
39A
100
AcDbEntity
  8
CURVE
100
AcDbLine
 62
250
  6
CONTINUOUS
 10
-89.6210254871
 20
-34.191353
 11
-91.0080410397
 21
-33.66956
  0
LINE
  5
39B
100
AcDbEntity
  8
CURVE
100
AcDbLine
 62
250
  6
CONTINUOUS
 10
-90.1343136153
 20
-33.5372
 11
-88.5098278113
 21
-34.157611
  0
LINE
  5
39C
100
AcDbEntity
  8
0
100
AcDbLine
 62
7
  6
CONTINUOUS
 10
-85.4028720512
 20
-27.15
 11
-86.4028720512
 21
-27.151745331
  0
LINE
  5
39D
100
AcDbEntity
  8
0
100
AcDbLine
 62
250
  6
CONTINUOUS
 10
-85.4770994675
 20
-26.9276792439
 11
-86.4028720512
 21
-26.9280974384
  0
LINE
  5
39E
100
AcDbEntity
  8
CURVE
100
AcDbLine
 62
250
  6
CONTINUOUS
 10
-89.6759713693
 20
-29.2870512436
 11
-89.690733629
 21
-29.2870512436
  0
LINE
  5
39F
100
AcDbEntity
  8
0
100
AcDbLine
 62
7
  6
CONTINUOUS
 10
-83.952822819
 20
-26.3415638603
 11
-86.4028720512
 21
-26.3558178298
  0
LINE
  5
3A0
100
AcDbEntity
  8
0
100
AcDbLine
 62
250
  6
CONTINUOUS
 10
-83.952822819
 20
-26.2536973817
 11
-86.4028720512
 21
-26.2679513512
  0
LINE
  5
3A1
100
AcDbEntity
  8
0
100
AcDbLine
 62
7
  6
CONTINUOUS
 10
-83.4028720512
 20
-26.1523612067
 11
-83.5234348182
 21
-26.1523612067
  0
LINE
  5
3A2
100
AcDbEntity
  8
0
100
AcDbLine
 62
7
  6
CONTINUOUS
 10
-85.4527476723
 20
-25.2
 11
-86.4028720512
 21
-25.2
  0
LINE
  5
3A3
100
AcDbEntity
  8
0
100
AcDbLine
 62
7
  6
CONTINUOUS
 10
-86.4028720512
 20
-25.05
 11
-86.2528720512
 21
-25.05
  0
LINE
  5
3A4
100
AcDbEntity
  8
0
100
AcDbLine
 62
7
  6
CONTINUOUS
 10
-85.9528720512
 20
-25.05
 11
-85.7528720512
 21
-25.05
  0
LINE
  5
3A5
100
AcDbEntity
  8
0
100
AcDbLine
 62
7
  6
CONTINUOUS
 10
-83.4028720512
 20
-25.3523612067
 11
-83.9248087055
 21
-25.3478063346
  0
LINE
  5
3A6
100
AcDbEntity
  8
0
100
AcDbLine
 62
7
  6
CONTINUOUS
 10
-86.4028720512
 20
-25.7558198745
 11
-83.5924048599
 21
-25.8799866677
  0
LINE
  5
3A7
100
AcDbEntity
  8
0
100
AcDbLine
 62
7
  6
CONTINUOUS
 10
-83.4028720512
 20
-25.4
 11
-85.3532439533
 21
-25.2049628098
  0
LWPOLYLINE
  5
3A8
100
AcDbEntity
  8
0
100
AcDbPolyline
 62
7
  6
CONTINUOUS
 90
4
 70
0
 43
0.3500000006
 10
-104.6903428345
 20
59.4746530151
 10
-104.6903428345
 20
60.1175155334
 10
-103.1903514404
 20
60.1175155334
 10
-104.0474893799
 20
57.1175146179
  0
LINE
  5
3A9
100
AcDbEntity
  8
0
100
AcDbLine
 62
7
  6
CONTINUOUS
 10
-86.2528720512
 20
25.05
 11
-86.1028720512
 21
25.2
  0
LINE
  5
3AA
100
AcDbEntity
  8
0
100
AcDbLine
 62
7
  6
CONTINUOUS
 10
-85.7528720512
 20
25.05
 11
-85.6028720512
 21
25.2
  0
LINE
  5
3AB
100
AcDbEntity
  8
0
100
AcDbLine
 62
7
  6
CONTINUOUS
 10
-86.2528720512
 20
-25.05
 11
-86.1028720512
 21
-25.2
  0
LINE
  5
3AC
100
AcDbEntity
  8
0
100
AcDbLine
 62
7
  6
CONTINUOUS
 10
-85.7528720512
 20
-25.05
 11
-85.6028720512
 21
-25.2
  0
LWPOLYLINE
  5
3AD
100
AcDbEntity
  8
0
100
AcDbPolyline
 62
7
  6
CONTINUOUS
 90
13
 70
0
 43
0.3500000006
 10
-102.9977020569
 20
66.1702772827
 10
-102.9977020569
 20
67.4559841919
 10
-102.783417572
 20
67.8845622253
 10
-102.3548395386
 20
68.3131311951
 10
-102.1405550537
 20
68.3131311951
 10
-101.711986084
 20
67.8845622253
 10
-101.4977015991
 20
67.4559841919
 10
-101.4977015991
 20
66.1702772827
 10
-101.711986084
 20
65.7416992493
 10
-102.1405550537
 20
65.3131302795
 10
-102.3548395386
 20
65.3131302795
 10
-102.783417572
 20
65.7416992493
 10
-102.9977020569
 20
66.1702772827
  0
LINE
  5
3AE
100
AcDbEntity
  8
0
100
AcDbLine
 62
7
  6
CONTINUOUS
 10
-93.5528720512
 20
-43.7712689598
 11
-93.5528720512
 21
43.7712689598
  0
LINE
  5
3AF
100
AcDbEntity
  8
ASSI
100
AcDbLine
 62
7
  6
CONTINUOUS
 10
-93.5528720512
 20
-43.7712689598
 11
-93.5528720512
 21
43.7712689598
  0
LINE
  5
3B0
100
AcDbEntity
  8
0
100
AcDbLine
 62
7
  6
CONTINUOUS
 10
-92.5684195934
 20
-44.7906993223
 11
-92.5684195934
 21
-43.8199854699
  0
LINE
  5
3B1
100
AcDbEntity
  8
ASSI
100
AcDbLine
 62
7
  6
CONTINUOUS
 10
-92.5684195934
 20
-44.7906993223
 11
-92.5684195934
 21
-43.8199854699
  0
LINE
  5
3B2
100
AcDbEntity
  8
0
100
AcDbLine
 62
7
  6
CONTINUOUS
 10
-92.5684195934
 20
43.8199854699
 11
-92.5684195934
 21
44.7906993223
  0
LINE
  5
3B3
100
AcDbEntity
  8
ASSI
100
AcDbLine
 62
7
  6
CONTINUOUS
 10
-92.5684195934
 20
43.8199854699
 11
-92.5684195934
 21
44.7906993223
  0
LINE
  5
3B4
100
AcDbEntity
  8
0
100
AcDbLine
 62
7
  6
CONTINUOUS
 10
-92.5534812242
 20
-43.8055596544
 11
-92.5534812242
 21
43.8055596544
  0
LINE
  5
3B5
100
AcDbEntity
  8
ASSI
100
AcDbLine
 62
7
  6
CONTINUOUS
 10
-92.5534812242
 20
-43.8055596544
 11
-92.5534812242
 21
43.8055596544
  0
LINE
  5
3B6
100
AcDbEntity
  8
0
100
AcDbLine
 62
250
  6
CONTINUOUS
 10
-86.1528720512
 20
-2.6214065094
 11
-86.4028720512
 21
-2.6214065094
  0
LINE
  5
3B7
100
AcDbEntity
  8
CURVE
100
AcDbLine
 62
250
  6
CONTINUOUS
 10
-91.0081899489
 20
-35.735605
 11
-91.0081899489
 21
-36.257398
  0
LINE
  5
3B8
100
AcDbEntity
  8
CURVE
100
AcDbLine
 62
250
  6
CONTINUOUS
 10
-91.0080410397
 20
-38.506847
 11
-91.0080410397
 21
-37.940019
  0
LINE
  5
3B9
100
AcDbEntity
  8
CURVE
100
AcDbLine
 62
250
  6
CONTINUOUS
 10
-91.0080410397
 20
-36.972473
 11
-91.0080410397
 21
-36.451037
  0
LINE
  5
3BA
100
AcDbEntity
  8
CURVE
100
AcDbLine
 62
250
  6
CONTINUOUS
 10
-91.0080410397
 20
-35.228996
 11
-91.0080410397
 21
-34.707635
  0
LINE
  5
3BB
100
AcDbEntity
  8
CURVE
100
AcDbLine
 62
250
  6
CONTINUOUS
 10
-91.0080410397
 20
-33.66956
 11
-91.0080410397
 21
-33.153297
  0
LINE
  5
3BC
100
AcDbEntity
  8
CURVE
100
AcDbLine
 62
250
  6
CONTINUOUS
 10
-91.0080410397
 20
-32.053532
 11
-91.0080410397
 21
-31.54876
  0
LINE
  5
3BD
100
AcDbEntity
  8
CURVE
100
AcDbLine
 62
250
  6
CONTINUOUS
 10
-89.8966371765
 20
-29.8279642095
 11
-89.8966371765
 21
-30.126163664
  0
LINE
  5
3BE
100
AcDbEntity
  8
CURVE
100
AcDbLine
 62
250
  6
CONTINUOUS
 10
-89.4874902856
 20
-30.1088617972
 11
-89.4874902856
 21
-29.8290889245
  0
LINE
  5
3BF
100
AcDbEntity
  8
CURVE
100
AcDbLine
 62
250
  6
CONTINUOUS
 10
-89.3944765787
 20
-32.070759
 11
-89.3944765787
 21
-31.571179
  0
LINE
  5
3C0
100
AcDbEntity
  8
CURVE
100
AcDbLine
 62
250
  6
CONTINUOUS
 10
-89.0085598121
 20
-31.466899
 11
-89.0085598121
 21
-32.177494
  0
LINE
  5
3C1
100
AcDbEntity
  8
CURVE
100
AcDbLine
 62
250
  6
CONTINUOUS
 10
-88.5098278113
 20
-36.257398
 11
-88.5098278113
 21
-35.735605
  0
LINE
  5
3C2
100
AcDbEntity
  8
CURVE
100
AcDbLine
 62
250
  6
CONTINUOUS
 10
-88.5098278113
 20
-30.781779
 11
-88.5098278113
 21
-31.331727
  0
LINE
  5
3C3
100
AcDbEntity
  8
CURVE
100
AcDbLine
 62
250
  6
CONTINUOUS
 10
-88.5098278113
 20
-32.321477
 11
-88.5098278113
 21
-32.837608
  0
LINE
  5
3C4
100
AcDbEntity
  8
CURVE
100
AcDbLine
 62
250
  6
CONTINUOUS
 10
-88.5098278113
 20
-32.919544
 11
-88.5098278113
 21
-33.429996
  0
LINE
  5
3C5
100
AcDbEntity
  8
CURVE
100
AcDbLine
 62
250
  6
CONTINUOUS
 10
-88.5098278113
 20
-34.157611
 11
-88.5098278113
 21
-34.230793
  0
LINE
  5
3C6
100
AcDbEntity
  8
CURVE
100
AcDbLine
 62
250
  6
CONTINUOUS
 10
-88.5098278113
 20
-34.955522
 11
-88.5098278113
 21
-35.454708
  0
LINE
  5
3C7
100
AcDbEntity
  8
CURVE
100
AcDbLine
 62
250
  6
CONTINUOUS
 10
-88.5098278113
 20
-37.254552
 11
-88.5098278113
 21
-37.714382
  0
LINE
  5
3C8
100
AcDbEntity
  8
CURVE
100
AcDbLine
 62
250
  6
CONTINUOUS
 10
-88.5098277949
 20
-30.6285551388
 11
-88.5098277949
 21
-30.1088617972
  0
LINE
  5
3C9
100
AcDbEntity
  8
CURVE
100
AcDbLine
 62
250
  6
CONTINUOUS
 10
-88.5098277949
 20
-29.3098079785
 11
-88.5098277949
 21
-28.8079038802
  0
LINE
  5
3CA
100
AcDbEntity
  8
0
100
AcDbLine
 62
250
  6
CONTINUOUS
 10
-85.4770349967
 20
-27.1500750675
 11
-85.4770994675
 21
-26.9276792439
  0
LINE
  5
3CB
100
AcDbEntity
  8
0
100
AcDbLine
 62
7
  6
CONTINUOUS
 10
-87.0028720512
 20
-45.0
 11
-87.0028720512
 21
45.0
  0
LINE
  5
3CC
100
AcDbEntity
  8
ASSI
100
AcDbLine
 62
7
  6
CONTINUOUS
 10
-87.0028720512
 20
-45.0
 11
-87.0028720512
 21
45.0
  0
LINE
  5
3CD
100
AcDbEntity
  8
0
100
AcDbLine
 62
7
  6
CONTINUOUS
 10
-86.4028720512
 20
-42.8
 11
-86.4028720512
 21
42.8
  0
LINE
  5
3CE
100
AcDbEntity
  8
0
100
AcDbLine
 62
7
  6
CONTINUOUS
 10
-86.1528720512
 20
2.6214065094
 11
-86.1528720512
 21
-2.6214065094
  0
LINE
  5
3CF
100
AcDbEntity
  8
0
100
AcDbLine
 62
250
  6
CONTINUOUS
 10
-85.4770994675
 20
26.9276792439
 11
-85.4770350244
 21
27.1501232425
  0
LINE
  5
3D0
100
AcDbEntity
  8
0
100
AcDbLine
 62
250
  6
CONTINUOUS
 10
-86.1528720512
 20
2.6214065094
 11
-86.4028720512
 21
2.6214065094
  0
LINE
  5
3D1
100
AcDbEntity
  8
0
100
AcDbLine
 62
250
  6
CONTINUOUS
 10
-83.6871712643
 20
25.3715700787
 11
-83.6871712643
 21
25.3498801651
  0
LINE
  5
3D2
100
AcDbEntity
  8
0
100
AcDbLine
 62
250
  6
CONTINUOUS
 10
-83.6871712643
 20
-25.3498801651
 11
-83.6871712643
 21
-25.3715700787
  0
LINE
  5
3D3
100
AcDbEntity
  8
0
100
AcDbLine
 62
250
  6
CONTINUOUS
 10
-83.5924048599
 20
25.8799866677
 11
-83.5924048599
 21
25.3810467191
  0
LINE
  5
3D4
100
AcDbEntity
  8
0
100
AcDbLine
 62
250
  6
CONTINUOUS
 10
-83.5924048599
 20
-25.3810467191
 11
-83.5924048599
 21
-25.8799866677
  0
LINE
  5
3D5
100
AcDbEntity
  8
0
100
AcDbLine
 62
7
  6
CONTINUOUS
 10
-83.4028720512
 20
26.1523612067
 11
-83.4028720512
 21
25.3523612067
  0
LINE
  5
3D6
100
AcDbEntity
  8
0
100
AcDbLine
 62
7
  6
CONTINUOUS
 10
-83.4028720512
 20
-25.3523612067
 11
-83.4028720512
 21
-26.1523612067
  0
LWPOLYLINE
  5
3D7
100
AcDbEntity
  8
0
100
AcDbPolyline
 62
7
  6
CONTINUOUS
 90
10
 70
0
 43
0.3500000006
 10
-101.6903509827
 20
57.6175147705
 10
-101.6189197998
 20
57.4746614685
 10
-101.6189197998
 20
57.4032302856
 10
-101.7617731018
 20
57.2603679199
 10
-101.8332042847
 20
57.2603679199
 10
-101.9046354675
 20
57.3317991028
 10
-101.9046354675
 20
57.4032302856
 10
-101.8332042847
 20
57.5460835876
 10
-101.7617731018
 20
57.6175147705
 10
-101.6903509827
 20
57.6175147705
  0
LINE
  5
3D8
100
AcDbEntity
  8
CURVE
100
AcDbLine
 62
7
  6
CONTINUOUS
 10
-90.9861156716
 20
-29.4544609293
 11
-90.4844507053
 21
-28.9527959631
  0
LINE
  5
3D9
100
AcDbEntity
  8
CURVE
100
AcDbLine
 62
7
  6
CONTINUOUS
 10
-91.0265196371
 20
-29.7048756088
 11
-90.2572523934
 21
-28.9356083652
  0
LINE
  5
3DA
100
AcDbEntity
  8
CURVE
100
AcDbLine
 62
7
  6
CONTINUOUS
 10
-91.0363622614
 20
-29.9247289472
 11
-90.0789525658
 21
-28.9673192515
  0
LINE
  5
3DB
100
AcDbEntity
  8
0
100
AcDbLine
 62
7
  6
CONTINUOUS
 10
-86.1028720512
 20
-25.2
 11
-85.9528720512
 21
-25.05
  0
LINE
  5
3DC
100
AcDbEntity
  8
CURVE
100
AcDbLine
 62
7
  6
CONTINUOUS
 10
-91.0316546113
 20
-30.1300320111
 11
-90.593094483
 21
-29.6914718828
  0
LINE
  5
3DD
100
AcDbEntity
  8
CURVE
100
AcDbLine
 62
7
  6
CONTINUOUS
 10
-90.3284418307
 20
-29.4268192305
 11
-89.9329945843
 21
-29.0313719841
  0
LINE
  5
3DE
100
AcDbEntity
  8
CURVE
100
AcDbLine
 62
7
  6
CONTINUOUS
 10
-91.0170522546
 20
-30.3254403684
 11
-90.6050975307
 21
-29.9134856445
  0
LINE
  5
3DF
100
AcDbEntity
  8
CURVE
100
AcDbLine
 62
7
  6
CONTINUOUS
 10
-90.1372158894
 20
-29.4456040032
 11
-89.8133137637
 21
-29.1217018775
  0
LINE
  5
3E0
100
AcDbEntity
  8
CURVE
100
AcDbLine
 62
7
  6
CONTINUOUS
 10
-90.9947598041
 20
-30.5131586319
 11
-90.5859166295
 21
-30.1043154574
  0
LINE
  5
3E1
100
AcDbEntity
  8
CURVE
100
AcDbLine
 62
7
  6
CONTINUOUS
 10
-90.0035956234
 20
-29.5219944512
 11
-89.7150835283
 21
-29.2334823561
  0
LINE
  5
3E2
100
AcDbEntity
  8
CURVE
100
AcDbLine
 62
7
  6
CONTINUOUS
 10
-90.900145597
 20
-30.6285551388
 11
-90.3977541222
 21
-30.126163664
  0
LINE
  5
3E3
100
AcDbEntity
  8
CURVE
100
AcDbLine
 62
7
  6
CONTINUOUS
 10
-89.9240872518
 20
-29.6524967937
 11
-89.2855149357
 21
-29.0139244775
  0
LINE
  5
3E4
100
AcDbEntity
  8
CURVE
100
AcDbLine
 62
7
  6
CONTINUOUS
 10
-90.690134883
 20
-30.6285551388
 11
-90.1877434082
 21
-30.126163664
  0
LINE
  5
3E5
100
AcDbEntity
  8
CURVE
100
AcDbLine
 62
7
  6
CONTINUOUS
 10
-89.8966371765
 20
-29.8350574323
 11
-88.9977536361
 21
-28.936173892
  0
LINE
  5
3E6
100
AcDbEntity
  8
CURVE
100
AcDbLine
 62
7
  6
CONTINUOUS
 10
-90.480124169
 20
-30.6285551388
 11
-89.9777326942
 21
-30.126163664
  0
LINE
  5
3E7
100
AcDbEntity
  8
CURVE
100
AcDbLine
 62
7
  6
CONTINUOUS
 10
-89.8966371765
 20
-30.0450681463
 11
-88.713080271
 21
-28.8615112408
  0
LINE
  5
3E8
100
AcDbEntity
  8
CURVE
100
AcDbLine
 62
7
  6
CONTINUOUS
 10
-90.2701134549
 20
-30.6285551388
 11
-89.4874902856
 21
-29.8459319694
  0
LINE
  5
3E9
100
AcDbEntity
  8
CURVE
100
AcDbLine
 62
7
  6
CONTINUOUS
 10
-89.1338363093
 20
-29.4922779932
 11
-88.5098277949
 21
-28.8682694787
  0
LINE
  5
3EA
100
AcDbEntity
  8
CURVE
100
AcDbLine
 62
7
  6
CONTINUOUS
 10
-91.0080410397
 20
-31.5764934376
 11
-90.9680209664
 21
-31.5364733643
  0
LINE
  5
3EB
100
AcDbEntity
  8
CURVE
100
AcDbLine
 62
7
  6
CONTINUOUS
 10
-90.0601027409
 20
-30.6285551388
 11
-89.4874902856
 21
-30.0559426834
  0
LINE
  5
3EC
100
AcDbEntity
  8
CURVE
100
AcDbLine
 62
7
  6
CONTINUOUS
 10
-88.8366175711
 20
-29.405069969
 11
-88.5098277949
 21
-29.0782801927
  0
LINE
  5
3ED
100
AcDbEntity
  8
CURVE
100
AcDbLine
 62
7
  6
CONTINUOUS
 10
-91.0080410397
 20
-31.7865041516
 11
-90.6649700324
 21
-31.4434331443
  0
LINE
  5
3EE
100
AcDbEntity
  8
CURVE
100
AcDbLine
 62
7
  6
CONTINUOUS
 10
-89.8500920269
 20
-30.6285551388
 11
-89.3303986854
 21
-30.1088617972
  0
LINE
  5
3EF
100
AcDbEntity
  8
CURVE
100
AcDbLine
 62
7
  6
CONTINUOUS
 10
-88.5402169965
 20
-29.3186801083
 11
-88.5098277949
 21
-29.2882909068
  0
LINE
  5
3F0
100
AcDbEntity
  8
CURVE
100
AcDbLine
 62
7
  6
CONTINUOUS
 10
-91.0080410397
 20
-31.9965148656
 11
-90.3619190984
 21
-31.3503929243
  0
LINE
  5
3F1
100
AcDbEntity
  8
CURVE
100
AcDbLine
 62
7
  6
CONTINUOUS
 10
-89.6400813129
 20
-30.6285551388
 11
-89.1203879713
 21
-30.1088617972
  0
LINE
  5
3F2
100
AcDbEntity
  8
CURVE
100
AcDbLine
 62
7
  6
CONTINUOUS
 10
-90.8915946945
 20
-32.0900792344
 11
-90.0588681643
 21
-31.2573527042
  0
LINE
  5
3F3
100
AcDbEntity
  8
CURVE
100
AcDbLine
 62
7
  6
CONTINUOUS
 10
-89.4300705989
 20
-30.6285551388
 11
-88.9103772573
 21
-30.1088617972
  0
LINE
  5
3F4
100
AcDbEntity
  8
CURVE
100
AcDbLine
 62
7
  6
CONTINUOUS
 10
-90.7317515158
 20
-32.1402467697
 11
-89.7558172303
 21
-31.1643124842
  0
LINE
  5
3F5
100
AcDbEntity
  8
CURVE
100
AcDbLine
 62
7
  6
CONTINUOUS
 10
-89.2200598849
 20
-30.6285551388
 11
-88.7003665433
 21
-30.1088617972
  0
LINE
  5
3F6
100
AcDbEntity
  8
CURVE
100
AcDbLine
 62
7
  6
CONTINUOUS
 10
-90.571908337
 20
-32.190414305
 11
-90.2207142442
 21
-31.8392202122
  0
LINE
  5
3F7
100
AcDbEntity
  8
CURVE
100
AcDbLine
 62
7
  6
CONTINUOUS
 10
-90.1473914937
 20
-31.7658974617
 11
-89.4527662962
 21
-31.0712722642
  0
LINE
  5
3F8
100
AcDbEntity
  8
CURVE
100
AcDbLine
 62
7
  6
CONTINUOUS
 10
-89.0100491709
 20
-30.6285551388
 11
-88.5098277949
 21
-30.1283337628
  0
LINE
  5
3F9
100
AcDbEntity
  8
CURVE
100
AcDbLine
 62
7
  6
CONTINUOUS
 10
-90.4120651583
 20
-32.2405818402
 11
-90.0566731923
 21
-31.8851898743
  0
LINE
  5
3FA
100
AcDbEntity
  8
CURVE
100
AcDbLine
 62
7
  6
CONTINUOUS
 10
-89.8641216916
 20
-31.6926383735
 11
-89.1497153622
 21
-30.9782320441
  0
LINE
  5
3FB
100
AcDbEntity
  8
CURVE
100
AcDbLine
 62
7
  6
CONTINUOUS
 10
-88.8000384569
 20
-30.6285551388
 11
-88.5098277949
 21
-30.3383444768
  0
LINE
  5
3FC
100
AcDbEntity
  8
0
100
AcDbLine
 62
7
  6
CONTINUOUS
 10
-86.1028720512
 20
25.2
 11
-85.9528720512
 21
25.05
  0
LWPOLYLINE
  5
3FD
100
AcDbEntity
  8
0
100
AcDbPolyline
 62
7
  6
CONTINUOUS
 90
10
 70
0
 43
0.3500000006
 10
-99.9977011414
 20
65.8131304321
 10
-99.9262699585
 20
65.6702771301
 10
-99.9262699585
 20
65.5988459473
 10
-100.0691323242
 20
65.4559926453
 10
-100.1405544434
 20
65.4559926453
 10
-100.2119856262
 20
65.5274147644
 10
-100.2119856262
 20
65.5988459473
 10
-100.1405544434
 20
65.7416992493
 10
-100.0691323242
 20
65.8131304321
 10
-99.9977011414
 20
65.8131304321
  0
LINE
  5
3FE
100
AcDbEntity
  8
CURVE
100
AcDbLine
 62
7
  6
CONTINUOUS
 10
-90.2522219795
 20
-32.2907493755
 11
-89.8926321404
 21
-31.9311595364
  0
LINE
  5
3FF
100
AcDbEntity
  8
CURVE
100
AcDbLine
 62
7
  6
CONTINUOUS
 10
-89.5808518895
 20
-31.6193792854
 11
-88.8466644282
 21
-30.8851918241
  0
LINE
  5
400
100
AcDbEntity
  8
CURVE
100
AcDbLine
 62
7
  6
CONTINUOUS
 10
-88.5900277428
 20
-30.6285551388
 11
-88.5098277949
 21
-30.5483551908
  0
LINE
  5
401
100
AcDbEntity
  8
CURVE
100
AcDbLine
 62
7
  6
CONTINUOUS
 10
-91.0080410397
 20
-33.2565791497
 11
-90.8940974034
 21
-33.1426355134
  0
LINE
  5
402
100
AcDbEntity
  8
CURVE
100
AcDbLine
 62
7
  6
CONTINUOUS
 10
-90.0923788008
 20
-32.3409169107
 11
-89.7285910885
 21
-31.9771291985
  0
LINE
  5
403
100
AcDbEntity
  8
CURVE
100
AcDbLine
 62
7
  6
CONTINUOUS
 10
-89.3944765787
 20
-31.6430146887
 11
-88.5436134941
 21
-30.7921516041
  0
LINE
  5
404
100
AcDbEntity
  8
CURVE
100
AcDbLine
 62
7
  6
CONTINUOUS
 10
-91.0080410397
 20
-33.4665898637
 11
-90.6624079539
 21
-33.1209567779
  0
LINE
  5
405
100
AcDbEntity
  8
CURVE
100
AcDbLine
 62
7
  6
CONTINUOUS
 10
-89.932535622
 20
-32.391084446
 11
-89.5645500366
 21
-32.0230988606
  0
LINE
  5
406
100
AcDbEntity
  8
CURVE
100
AcDbLine
 62
7
  6
CONTINUOUS
 10
-89.3944765787
 20
-31.8530254027
 11
-88.5098278113
 21
-30.9683766353
  0
LINE
  5
407
100
AcDbEntity
  8
CURVE
100
AcDbLine
 62
7
  6
CONTINUOUS
 10
-91.0029250784
 20
-33.6714846164
 11
-90.4307185043
 21
-33.0992780423
  0
LINE
  5
408
100
AcDbEntity
  8
CURVE
100
AcDbLine
 62
7
  6
CONTINUOUS
 10
-89.7726924433
 20
-32.4412519813
 11
-89.4005089848
 21
-32.0690685227
  0
LINE
  5
409
100
AcDbEntity
  8
CURVE
100
AcDbLine
 62
7
  6
CONTINUOUS
 10
-89.3944765787
 20
-32.0630361167
 11
-89.0085598121
 21
-31.6771193501
  0
LINE
  5
40A
100
AcDbEntity
  8
CURVE
100
AcDbLine
 62
7
  6
CONTINUOUS
 10
-88.7201793093
 20
-31.3887388473
 11
-88.5098278113
 21
-31.1783873493
  0
LINE
  5
40B
100
AcDbEntity
  8
CURVE
100
AcDbLine
 62
7
  6
CONTINUOUS
 10
-90.8503230135
 20
-33.7288932655
 11
-90.1990290548
 21
-33.0775993068
  0
LINE
  5
40C
100
AcDbEntity
  8
CURVE
100
AcDbLine
 62
7
  6
CONTINUOUS
 10
-89.6128492645
 20
-32.4914195165
 11
-89.0085598121
 21
-31.8871300641
  0
LINE
  5
40D
100
AcDbEntity
  8
CURVE
100
AcDbLine
 62
7
  6
CONTINUOUS
 10
-90.6977209486
 20
-33.7863019147
 11
-89.9673396052
 21
-33.0559205713
  0
LINE
  5
40E
100
AcDbEntity
  8
CURVE
100
AcDbLine
 62
7
  6
CONTINUOUS
 10
-89.4530060858
 20
-32.5415870518
 11
-89.0085598121
 21
-32.0971407781
  0
LINE
  5
40F
100
AcDbEntity
  8
CURVE
100
AcDbLine
 62
7
  6
CONTINUOUS
 10
-90.5451188838
 20
-33.8437105638
 11
-89.7356501557
 21
-33.0342418357
  0
LINE
  5
410
100
AcDbEntity
  8
CURVE
100
AcDbLine
 62
7
  6
CONTINUOUS
 10
-89.293162907
 20
-32.5917545871
 11
-88.9079485919
 21
-32.2065402719
  0
LINE
  5
411
100
AcDbEntity
  8
CURVE
100
AcDbLine
 62
7
  6
CONTINUOUS
 10
-90.3925168189
 20
-33.901119213
 11
-90.0578138153
 21
-33.5664162094
  0
LINE
  5
412
100
AcDbEntity
  8
CURVE
100
AcDbLine
 62
7
  6
CONTINUOUS
 10
-90.0211282097
 20
-33.5297306037
 11
-89.5039607061
 21
-33.0125631002
  0
LINE
  5
413
100
AcDbEntity
  8
CURVE
100
AcDbLine
 62
7
  6
CONTINUOUS
 10
-89.1333197283
 20
-32.6419221223
 11
-88.7449851268
 21
-32.2535875209
  0
LINE
  5
414
100
AcDbEntity
  8
CURVE
100
AcDbLine
 62
7
  6
CONTINUOUS
 10
-91.0080410397
 20
-34.7266541478
 11
-90.9777449133
 21
-34.6963580214
  0
LINE
  5
415
100
AcDbEntity
  8
CURVE
100
AcDbLine
 62
7
  6
CONTINUOUS
 10
-90.2399147541
 20
-33.9585278621
 11
-89.9058427212
 21
-33.6244558292
  0
LINE
  5
416
100
AcDbEntity
  8
CURVE
100
AcDbLine
 62
7
  6
CONTINUOUS
 10
-89.7962791258
 20
-33.5148922339
 11
-89.2722712566
 21
-32.9908843646
  0
LINE
  5
417
100
AcDbEntity
  8
CURVE
100
AcDbLine
 62
7
  6
CONTINUOUS
 10
-88.9734765495
 20
-32.6920896576
 11
-88.5820216617
 21
-32.3006347698
  0
LINE
  5
418
100
AcDbEntity
  8
CURVE
100
AcDbLine
 62
7
  6
CONTINUOUS
 10
-91.0080410397
 20
-34.9366648618
 11
-90.64321304
 21
-34.571836862
  0
LINE
  5
419
100
AcDbEntity
  8
CURVE
100
AcDbLine
 62
7
  6
CONTINUOUS
 10
-90.0873126892
 20
-34.0159365113
 11
-89.753871627
 21
-33.6824954491
  0
LINE
  5
41A
100
AcDbEntity
  8
CURVE
100
AcDbLine
 62
7
  6
CONTINUOUS
 10
-89.5714300419
 20
-33.500053864
 11
-89.040581807
 21
-32.9692056291
  0
LINE
  5
41B
100
AcDbEntity
  8
CURVE
100
AcDbLine
 62
7
  6
CONTINUOUS
 10
-88.8136333708
 20
-32.7422571928
 11
-88.5098278113
 21
-32.4384516334
  0
LINE
  5
41C
100
AcDbEntity
  8
CURVE
100
AcDbLine
 62
7
  6
CONTINUOUS
 10
-91.0080410397
 20
-35.1466755758
 11
-90.3086811666
 21
-34.4473157027
  0
LINE
  5
41D
100
AcDbEntity
  8
CURVE
100
AcDbLine
 62
7
  6
CONTINUOUS
 10
-89.9347106244
 20
-34.0733451604
 11
-89.6019005328
 21
-33.7405350689
  0
LINE
  5
41E
100
AcDbEntity
  8
CURVE
100
AcDbLine
 62
7
  6
CONTINUOUS
 10
-89.3465809581
 20
-33.4852154941
 11
-88.8088923575
 21
-32.9475268936
  0
LINE
  5
41F
100
AcDbEntity
  8
CURVE
100
AcDbLine
 62
7
  6
CONTINUOUS
 10
-88.653790192
 20
-32.7924247281
 11
-88.5098278113
 21
-32.6484623474
  0
LINE
  5
420
100
AcDbEntity
  8
CURVE
100
AcDbLine
 62
7
  6
CONTINUOUS
 10
-90.8909315215
 20
-35.2395767716
 11
-89.9741492932
 21
-34.3227945433
  0
LINE
  5
421
100
AcDbEntity
  8
CURVE
100
AcDbLine
 62
7
  6
CONTINUOUS
 10
-89.7821085595
 20
-34.1307538096
 11
-89.4499294387
 21
-33.7985746888
  0
LINE
  5
422
100
AcDbEntity
  8
CURVE
100
AcDbLine
 62
7
  6
CONTINUOUS
 10
-89.1217318742
 20
-33.4703771243
 11
-88.5772029079
 21
-32.925848158
  0
LINE
  5
423
100
AcDbEntity
  8
CURVE
100
AcDbLine
 62
7
  6
CONTINUOUS
 10
-90.6983228778
 20
-35.2569788419
 11
-89.6396174199
 21
-34.198273384
  0
LINE
  5
424
100
AcDbEntity
  8
CURVE
100
AcDbLine
 62
7
  6
CONTINUOUS
 10
-89.6295064946
 20
-34.1881624587
 11
-89.2979583445
 21
-33.8566143086
  0
LINE
  5
425
100
AcDbEntity
  8
CURVE
100
AcDbLine
 62
7
  6
CONTINUOUS
 10
-88.8968827903
 20
-33.4555387544
 11
-88.5098278113
 21
-33.0684837755
  0
LINE
  5
426
100
AcDbEntity
  8
CURVE
100
AcDbLine
 62
7
  6
CONTINUOUS
 10
-91.0081899489
 20
-35.7768566271
 11
-90.9669383219
 21
-35.735605
  0
LINE
  5
427
100
AcDbEntity
  8
CURVE
100
AcDbLine
 62
7
  6
CONTINUOUS
 10
-90.5057142341
 20
-35.2743809122
 11
-90.0785695504
 21
-34.8472362286
  0
LINE
  5
428
100
AcDbEntity
  8
CURVE
100
AcDbLine
 62
7
  6
CONTINUOUS
 10
-90.0340942887
 20
-34.8027609668
 11
-89.1459872503
 21
-33.9146539285
  0
LINE
  5
429
100
AcDbEntity
  8
CURVE
100
AcDbLine
 62
7
  6
CONTINUOUS
 10
-88.6720337065
 20
-33.4407003846
 11
-88.5098278113
 21
-33.2784944895
  0
LINE
  5
42A
100
AcDbEntity
  8
CURVE
100
AcDbLine
 62
7
  6
CONTINUOUS
 10
-91.0081899489
 20
-35.9868673411
 11
-90.7569276079
 21
-35.735605
  0
LINE
  5
42B
100
AcDbEntity
  8
CURVE
100
AcDbLine
 62
7
  6
CONTINUOUS
 10
-90.3131055903
 20
-35.2917829825
 11
-89.8821192414
 21
-34.8607966335
  0
LINE
  5
42C
100
AcDbEntity
  8
CURVE
100
AcDbLine
 62
7
  6
CONTINUOUS
 10
-89.6979472846
 20
-34.6766246768
 11
-88.9940161562
 21
-33.9726935483
  0
LINE
  5
42D
100
AcDbEntity
  8
CURVE
100
AcDbLine
 62
7
  6
CONTINUOUS
 10
-91.0081899489
 20
-36.1968780551
 11
-90.5469168939
 21
-35.735605
  0
LINE
  5
42E
100
AcDbEntity
  8
CURVE
100
AcDbLine
 62
7
  6
CONTINUOUS
 10
-90.1204969466
 20
-35.3091850527
 11
-89.6856689323
 21
-34.8743570385
  0
LINE
  5
42F
100
AcDbEntity
  8
CURVE
100
AcDbLine
 62
7
  6
CONTINUOUS
 10
-89.3618002806
 20
-34.5504883868
 11
-88.842045062
 21
-34.0307331681
  0
LINE
  5
430
100
AcDbEntity
  8
CURVE
100
AcDbLine
 62
7
  6
CONTINUOUS
 10
-90.8586991798
 20
-36.257398
 11
-90.3369061798
 21
-35.735605
  0
LINE
  5
431
100
AcDbEntity
  8
CURVE
100
AcDbLine
 62
7
  6
CONTINUOUS
 10
-89.9278883029
 20
-35.326587123
 11
-89.4892186233
 21
-34.8879174434
  0
LINE
  5
432
100
AcDbEntity
  8
CURVE
100
AcDbLine
 62
7
  6
CONTINUOUS
 10
-89.0256532766
 20
-34.4243520968
 11
-88.6900739678
 21
-34.088772788
  0
LINE
  5
433
100
AcDbEntity
  8
CURVE
100
AcDbLine
 62
7
  6
CONTINUOUS
 10
-91.0080410397
 20
-36.6167505739
 11
-90.8826558433
 21
-36.4913653775
  0
LINE
  5
434
100
AcDbEntity
  8
CURVE
100
AcDbLine
 62
7
  6
CONTINUOUS
 10
-90.6486884658
 20
-36.257398
 11
-90.1268954658
 21
-35.735605
  0
LINE
  5
435
100
AcDbEntity
  8
CURVE
100
AcDbLine
 62
7
  6
CONTINUOUS
 10
-89.7352796592
 20
-35.3439891933
 11
-89.2927683142
 21
-34.9014778484
  0
LINE
  5
436
100
AcDbEntity
  8
CURVE
100
AcDbLine
 62
7
  6
CONTINUOUS
 10
-88.6895062726
 20
-34.2982158068
 11
-88.5381028737
 21
-34.1468124078
  0
LINE
  5
437
100
AcDbEntity
  8
CURVE
100
AcDbLine
 62
7
  6
CONTINUOUS
 10
-91.0080410397
 20
-36.8267612879
 11
-90.7237537449
 21
-36.5424739931
  0
LINE
  5
438
100
AcDbEntity
  8
CURVE
100
AcDbLine
 62
7
  6
CONTINUOUS
 10
-90.4386777518
 20
-36.257398
 11
-89.9168847518
 21
-35.735605
  0
LINE
  5
439
100
AcDbEntity
  8
CURVE
100
AcDbLine
 62
7
  6
CONTINUOUS
 10
-89.5426710154
 20
-35.3613912636
 11
-89.0963180052
 21
-34.9150382534
  0
LINE
  5
43A
100
AcDbEntity
  8
CURVE
100
AcDbLine
 62
7
  6
CONTINUOUS
 10
-90.9580247628
 20
-36.986755725
 11
-90.5648516465
 21
-36.5935826087
  0
LINE
  5
43B
100
AcDbEntity
  8
CURVE
100
AcDbLine
 62
7
  6
CONTINUOUS
 10
-90.2286670378
 20
-36.257398
 11
-89.7068740378
 21
-35.735605
  0
LINE
  5
43C
100
AcDbEntity
  8
CURVE
100
AcDbLine
 62
7
  6
CONTINUOUS
 10
-89.3500623717
 20
-35.3787933339
 11
-88.8998676961
 21
-34.9285986583
  0
LINE
  5
43D
100
AcDbEntity
  8
CURVE
100
AcDbLine
 62
7
  6
CONTINUOUS
 10
-90.7946636883
 20
-37.0334053645
 11
-90.4059495481
 21
-36.6446912243
  0
LINE
  5
43E
100
AcDbEntity
  8
CURVE
100
AcDbLine
 62
7
  6
CONTINUOUS
 10
-90.0186563238
 20
-36.257398
 11
-89.4968633238
 21
-35.735605
  0
LINE
  5
43F
100
AcDbEntity
  8
CURVE
100
AcDbLine
 62
7
  6
CONTINUOUS
 10
-89.157453728
 20
-35.3961954042
 11
-88.7034173871
 21
-34.9421590633
  0
LINE
  5
440
100
AcDbEntity
  8
CURVE
100
AcDbLine
 62
7
  6
CONTINUOUS
 10
-90.6313026139
 20
-37.0800550041
 11
-90.2470474497
 21
-36.6957998399
  0
LINE
  5
441
100
AcDbEntity
  8
CURVE
100
AcDbLine
 62
7
  6
CONTINUOUS
 10
-89.8086456098
 20
-36.257398
 11
-89.2868526098
 21
-35.735605
  0
LINE
  5
442
100
AcDbEntity
  8
CURVE
100
AcDbLine
 62
7
  6
CONTINUOUS
 10
-88.9648450842
 20
-35.4135974745
 11
-88.5098278113
 21
-34.9585802016
  0
LINE
  5
443
100
AcDbEntity
  8
CURVE
100
AcDbLine
 62
7
  6
CONTINUOUS
 10
-90.4679415395
 20
-37.1267046437
 11
-90.0881453513
 21
-36.7469084555
  0
LINE
  5
444
100
AcDbEntity
  8
CURVE
100
AcDbLine
 62
7
  6
CONTINUOUS
 10
-89.5986348958
 20
-36.257398
 11
-89.0768418958
 21
-35.735605
  0
LINE
  5
445
100
AcDbEntity
  8
CURVE
100
AcDbLine
 62
7
  6
CONTINUOUS
 10
-88.7722364405
 20
-35.4309995448
 11
-88.5098278113
 21
-35.1685909156
  0
LINE
  5
446
100
AcDbEntity
  8
CURVE
100
AcDbLine
 62
7
  6
CONTINUOUS
 10
-90.3045804651
 20
-37.1733542833
 11
-89.9292432529
 21
-36.7980170711
  0
LINE
  5
447
100
AcDbEntity
  8
CURVE
100
AcDbLine
 62
7
  6
CONTINUOUS
 10
-89.3886241818
 20
-36.257398
 11
-88.8668311818
 21
-35.735605
  0
LINE
  5
448
100
AcDbEntity
  8
CURVE
100
AcDbLine
 62
7
  6
CONTINUOUS
 10
-88.5796277968
 20
-35.448401615
 11
-88.5098278113
 21
-35.3786016296
  0
LINE
  5
449
100
AcDbEntity
  8
CURVE
100
AcDbLine
 62
7
  6
CONTINUOUS
 10
-91.0080410397
 20
-38.086825572
 11
-90.8049618925
 21
-37.8837464247
  0
LINE
  5
44A
100
AcDbEntity
  8
CURVE
100
AcDbLine
 62
7
  6
CONTINUOUS
 10
-90.1412193906
 20
-37.2200039229
 11
-89.7703411545
 21
-36.8491256867
  0
LINE
  5
44B
100
AcDbEntity
  8
CURVE
100
AcDbLine
 62
7
  6
CONTINUOUS
 10
-89.1786134677
 20
-36.257398
 11
-88.6568204677
 21
-35.735605
  0
LINE
  5
44C
100
AcDbEntity
  8
CURVE
100
AcDbLine
 62
7
  6
CONTINUOUS
 10
-91.0080410397
 20
-38.296836286
 11
-90.5144517597
 21
-37.803247006
  0
LINE
  5
44D
100
AcDbEntity
  8
CURVE
100
AcDbLine
 62
7
  6
CONTINUOUS
 10
-89.9778583162
 20
-37.2666535625
 11
-89.6114390561
 21
-36.9002343024
  0
LINE
  5
44E
100
AcDbEntity
  8
CURVE
100
AcDbLine
 62
7
  6
CONTINUOUS
 10
-88.9686027537
 20
-36.257398
 11
-88.5098278113
 21
-35.7986230576
  0
LINE
  5
44F
100
AcDbEntity
  8
CURVE
100
AcDbLine
 62
7
  6
CONTINUOUS
 10
-91.0080410397
 20
-38.506847
 11
-90.2239416269
 21
-37.7227475872
  0
LINE
  5
450
100
AcDbEntity
  8
CURVE
100
AcDbLine
 62
7
  6
CONTINUOUS
 10
-89.8144972418
 20
-37.3133032021
 11
-89.4525369577
 21
-36.951342918
  0
LINE
  5
451
100
AcDbEntity
  8
CURVE
100
AcDbLine
 62
7
  6
CONTINUOUS
 10
-88.7585920397
 20
-36.257398
 11
-88.5098278113
 21
-36.0086337716
  0
LINE
  5
452
100
AcDbEntity
  8
CURVE
100
AcDbLine
 62
7
  6
CONTINUOUS
 10
-90.7004625031
 20
-38.4092791774
 11
-89.9334314942
 21
-37.6422481685
  0
LINE
  5
453
100
AcDbEntity
  8
CURVE
100
AcDbLine
 62
7
  6
CONTINUOUS
 10
-89.6511361674
 20
-37.3599528417
 11
-89.2936348593
 21
-37.0024515336
  0
LINE
  5
454
100
AcDbEntity
  8
CURVE
100
AcDbLine
 62
7
  6
CONTINUOUS
 10
-88.5485813257
 20
-36.257398
 11
-88.5098278113
 21
-36.2186444856
  0
LINE
  5
455
100
AcDbEntity
  8
CURVE
100
AcDbLine
 62
7
  6
CONTINUOUS
 10
-90.3928839666
 20
-38.3117113549
 11
-89.6429213614
 21
-37.5617487497
  0
LINE
  5
456
100
AcDbEntity
  8
CURVE
100
AcDbLine
 62
7
  6
CONTINUOUS
 10
-89.4877750929
 20
-37.4066024812
 11
-89.1347327609
 21
-37.0535601492
  0
LINE
  5
457
100
AcDbEntity
  8
CURVE
100
AcDbLine
 62
7
  6
CONTINUOUS
 10
-90.08530543
 20
-38.2141435323
 11
-89.3524112287
 21
-37.481249331
  0
LINE
  5
458
100
AcDbEntity
  8
CURVE
100
AcDbLine
 62
7
  6
CONTINUOUS
 10
-89.3244140185
 20
-37.4532521208
 11
-88.9758306625
 21
-37.1046687648
  0
LINE
  5
459
100
AcDbEntity
  8
CURVE
100
AcDbLine
 62
7
  6
CONTINUOUS
 10
-89.7777268934
 20
-38.1165757098
 11
-88.8169285641
 21
-37.1557773804
  0
LINE
  5
45A
100
AcDbEntity
  8
CURVE
100
AcDbLine
 62
7
  6
CONTINUOUS
 10
-89.4701483568
 20
-38.0190078872
 11
-88.6580264657
 21
-37.206885996
  0
LINE
  5
45B
100
AcDbEntity
  8
CURVE
100
AcDbLine
 62
7
  6
CONTINUOUS
 10
-89.1625698203
 20
-37.9214400646
 11
-88.5098278113
 21
-37.2686980557
  0
LINE
  5
45C
100
AcDbEntity
  8
CURVE
100
AcDbLine
 62
7
  6
CONTINUOUS
 10
-88.8549912837
 20
-37.8238722421
 11
-88.5098278113
 21
-37.4787087697
  0
LINE
  5
45D
100
AcDbEntity
  8
CURVE
100
AcDbLine
 62
7
  6
CONTINUOUS
 10
-88.5474127471
 20
-37.7263044195
 11
-88.5098278113
 21
-37.6887194837
  0
LINE
  5
45E
100
AcDbEntity
  8
0
100
AcDbLine
 62
250
  6
CONTINUOUS
 10
-85.4770994675
 20
-26.9276792439
 11
-84.3775806076
 21
-26.3440350289
  0
LINE
  5
45F
100
AcDbEntity
  8
0
100
AcDbLine
 62
250
  6
CONTINUOUS
 10
-83.952822819
 20
-26.2536973817
 11
-83.4307309662
 21
-25.9765617175
  0
LINE
  5
460
100
AcDbEntity
  8
0
100
AcDbLine
 62
7
  6
CONTINUOUS
 10
-83.4028720512
 20
-26.0883643404
 11
-85.4028720557
 21
-27.1500000024
  0
LINE
  5
461
100
AcDbEntity
  8
0
100
AcDbLine
 62
7
  6
CONTINUOUS
 10
-83.4028720512
 20
25.4
 11
-85.3532439533
 21
25.2049628098
  0
LINE
  5
462
100
AcDbEntity
  8
0
100
AcDbLine
 62
7
  6
CONTINUOUS
 10
-86.4028720512
 20
25.7558198745
 11
-83.5924048599
 21
25.8799866677
  0
LINE
  5
463
100
AcDbEntity
  8
0
100
AcDbLine
 62
7
  6
CONTINUOUS
 10
-83.4028720512
 20
25.3523612067
 11
-83.9248087055
 21
25.3478063346
  0
LINE
  5
464
100
AcDbEntity
  8
0
100
AcDbLine
 62
7
  6
CONTINUOUS
 10
-86.4028720512
 20
25.05
 11
-86.2528720512
 21
25.05
  0
LINE
  5
465
100
AcDbEntity
  8
0
100
AcDbLine
 62
7
  6
CONTINUOUS
 10
-85.9528720512
 20
25.05
 11
-85.7528720512
 21
25.05
  0
LINE
  5
466
100
AcDbEntity
  8
0
100
AcDbLine
 62
7
  6
CONTINUOUS
 10
-86.4028720512
 20
25.2
 11
-85.4527476723
 21
25.2
  0
LINE
  5
467
100
AcDbEntity
  8
0
100
AcDbLine
 62
7
  6
CONTINUOUS
 10
-83.4028720512
 20
26.1523612067
 11
-83.5234348182
 21
26.1523612067
  0
LINE
  5
468
100
AcDbEntity
  8
0
100
AcDbLine
 62
250
  6
CONTINUOUS
 10
-85.4770994675
 20
26.9276792439
 11
-86.4028720512
 21
26.9280974384
  0
LINE
  5
469
100
AcDbEntity
  8
0
100
AcDbLine
 62
7
  6
CONTINUOUS
 10
-85.4028720512
 20
27.15
 11
-86.4028720512
 21
27.151745331
  0
LINE
  5
46A
100
AcDbEntity
  8
0
100
AcDbLine
 62
250
  6
CONTINUOUS
 10
-83.952822819
 20
26.2536973817
 11
-86.4028720512
 21
26.2679513512
  0
LINE
  5
46B
100
AcDbEntity
  8
0
100
AcDbLine
 62
7
  6
CONTINUOUS
 10
-83.952822819
 20
26.3415638603
 11
-86.4028720512
 21
26.3558178298
  0
LINE
  5
46C
100
AcDbEntity
  8
0
100
AcDbLine
 62
250
  6
CONTINUOUS
 10
-84.3775806076
 20
26.3440350289
 11
-85.4770994675
 21
26.9276792439
  0
LINE
  5
46D
100
AcDbEntity
  8
0
100
AcDbLine
 62
250
  6
CONTINUOUS
 10
-83.4307309662
 20
25.9765617175
 11
-83.952822819
 21
26.2536973817
  0
LINE
  5
46E
100
AcDbEntity
  8
0
100
AcDbLine
 62
7
  6
CONTINUOUS
 10
-83.4028720512
 20
26.0883643404
 11
-85.4028720548
 21
27.1500000019
  0
LINE
  5
46F
100
AcDbEntity
  8
0
100
AcDbLine
 62
7
  6
CONTINUOUS
 10
-92.5534812242
 20
-43.8055596544
 11
-92.5684195934
 21
-43.8199854699
  0
LINE
  5
470
100
AcDbEntity
  8
ASSI
100
AcDbLine
 62
7
  6
CONTINUOUS
 10
-92.5534812242
 20
-43.8055596544
 11
-92.5684195934
 21
-43.8199854699
  0
LINE
  5
471
100
AcDbEntity
  8
CURVE
100
AcDbLine
 62
250
  6
CONTINUOUS
 10
-91.0080410397
 20
-31.54876
 11
-88.5098278113
 21
-30.781779
  0
LINE
  5
472
100
AcDbEntity
  8
0
100
AcDbLine
 62
7
  6
CONTINUOUS
 10
-92.5684195934
 20
43.8199854699
 11
-92.5534812242
 21
43.8055596544
  0
LINE
  5
473
100
AcDbEntity
  8
ASSI
100
AcDbLine
 62
7
  6
CONTINUOUS
 10
-92.5684195934
 20
43.8199854699
 11
-92.5534812242
 21
43.8055596544
  0
LINE
  5
474
100
AcDbEntity
  8
CURVE
100
AcDbLine
 62
250
  6
CONTINUOUS
 10
-88.5098278113
 20
-34.230793
 11
-90.1411134705
 21
-34.842919
  0
LINE
  5
475
100
AcDbEntity
  8
CURVE
100
AcDbLine
 62
250
  6
CONTINUOUS
 10
-91.0080410397
 20
-34.707635
 11
-89.6210254871
 21
-34.191353
  0
LINE
  5
476
100
AcDbEntity
  8
CURVE
100
AcDbLine
 62
250
  6
CONTINUOUS
 10
-88.5098278113
 20
-37.714382
 11
-91.0080410397
 21
-38.506847
  0
LINE
  5
477
100
AcDbEntity
  8
0
100
AcDbLine
 62
250
  6
CONTINUOUS
 10
-87.0028720512
 20
41.1619414324
 11
-86.4028720512
 21
41.2038975196
  0
LINE
  5
478
100
AcDbEntity
  8
0
100
AcDbLine
 62
7
  6
CONTINUOUS
 10
-87.0028720512
 20
42.7580439128
 11
-86.4028720512
 21
42.8
  0
LINE
  5
479
100
AcDbEntity
  8
0
100
AcDbLine
 62
7
  6
CONTINUOUS
 10
-92.5534812242
 20
43.8055596544
 11
-87.0028720512
 21
43.9993911979
  0
LINE
  5
47A
100
AcDbEntity
  8
ASSI
100
AcDbLine
 62
7
  6
CONTINUOUS
 10
-92.5534812242
 20
43.8055596544
 11
-87.0028720512
 21
43.9993911979
  0
LINE
  5
47B
100
AcDbEntity
  8
0
100
AcDbLine
 62
7
  6
CONTINUOUS
 10
-92.5534812242
 20
44.8061684565
 11
-87.0028720512
 21
45.0
  0
LINE
  5
47C
100
AcDbEntity
  8
ASSI
100
AcDbLine
 62
7
  6
CONTINUOUS
 10
-92.5534812242
 20
44.8061684565
 11
-87.0028720512
 21
45.0
  0
LWPOLYLINE
  5
47D
100
AcDbEntity
  8
0
100
AcDbPolyline
 62
7
  6
CONTINUOUS
 90
8
 70
0
 43
0.3500000006
 10
-98.904634552
 20
57.1175146179
 10
-98.0474875488
 20
57.1175146179
 10
-97.6189185791
 20
57.5460835876
 10
-97.6189185791
 20
58.4032305908
 10
-98.0474875488
 20
58.8317995605
 10
-98.904634552
 20
58.8317995605
 10
-98.904634552
 20
60.1175155334
 10
-97.6189185791
 20
60.1175155334
  0
LWPOLYLINE
  5
47E
100
AcDbEntity
  8
0
100
AcDbPolyline
 62
7
  6
CONTINUOUS
 90
8
 70
0
 43
0.3500000006
 10
-97.2119847107
 20
65.3131302795
 10
-96.3548467712
 20
65.3131302795
 10
-95.9262687378
 20
65.7416992493
 10
-95.9262687378
 20
66.5988462524
 10
-96.3548467712
 20
67.0274152222
 10
-97.2119847107
 20
67.0274152222
 10
-97.2119847107
 20
68.3131311951
 10
-95.9262687378
 20
68.3131311951
  0
ARC
  5
47F
100
AcDbEntity
  8
0
100
AcDbCircle
 62
7
  6
CONTINUOUS
 10
-6.7
 20
-6.7
 40
1.7
100
AcDbArc
 50
180.0
 51
270.0
  0
ARC
  5
480
100
AcDbEntity
  8
0
100
AcDbCircle
 62
7
  6
CONTINUOUS
 10
-29.2
 20
-6.7
 40
1.7
100
AcDbArc
 50
180.0
 51
270.0
  0
ARC
  5
481
100
AcDbEntity
  8
0
100
AcDbCircle
 62
7
  6
CONTINUOUS
 10
-15.8
 20
-6.7
 40
1.7
100
AcDbArc
 50
270.0
 51
360.0
  0
ARC
  5
482
100
AcDbEntity
  8
ASSI
100
AcDbCircle
 62
7
  6
CONTINUOUS
 10
-29.2
 20
-6.7
 40
1.7
100
AcDbArc
 50
180.0
 51
270.0
  0
ARC
  5
483
100
AcDbEntity
  8
ASSI
100
AcDbCircle
 62
7
  6
CONTINUOUS
 10
-15.8
 20
-6.7
 40
1.7
100
AcDbArc
 50
270.0
 51
360.0
  0
ARC
  5
484
100
AcDbEntity
  8
ASSI
100
AcDbCircle
 62
7
  6
CONTINUOUS
 10
-6.7
 20
-6.7
 40
1.7
100
AcDbArc
 50
180.0
 51
270.0
  0
ARC
  5
485
100
AcDbEntity
  8
0
100
AcDbCircle
 62
7
  6
CONTINUOUS
 10
-15.8
 20
-6.7
 40
1.2
100
AcDbArc
 50
270.0
 51
360.0
  0
ARC
  5
486
100
AcDbEntity
  8
0
100
AcDbCircle
 62
7
  6
CONTINUOUS
 10
-29.2
 20
-6.7
 40
1.2
100
AcDbArc
 50
180.0
 51
270.0
  0
ARC
  5
487
100
AcDbEntity
  8
0
100
AcDbCircle
 62
7
  6
CONTINUOUS
 10
-6.7
 20
-6.7
 40
1.2
100
AcDbArc
 50
180.0
 51
270.0
  0
ARC
  5
488
100
AcDbEntity
  8
ASSI
100
AcDbCircle
 62
7
  6
CONTINUOUS
 10
-15.8
 20
-6.7
 40
1.2
100
AcDbArc
 50
270.0
 51
360.0
  0
ARC
  5
489
100
AcDbEntity
  8
ASSI
100
AcDbCircle
 62
7
  6
CONTINUOUS
 10
-29.2
 20
-6.7
 40
1.2
100
AcDbArc
 50
180.0
 51
270.0
  0
ARC
  5
48A
100
AcDbEntity
  8
ASSI
100
AcDbCircle
 62
7
  6
CONTINUOUS
 10
-6.7
 20
-6.7
 40
1.2
100
AcDbArc
 50
180.0
 51
270.0
  0
ARC
  5
48B
100
AcDbEntity
  8
0
100
AcDbCircle
 62
7
  6
CONTINUOUS
 10
-15.8
 20
6.7
 40
1.7
100
AcDbArc
 50
0.0
 51
90.0
  0
ARC
  5
48C
100
AcDbEntity
  8
0
100
AcDbCircle
 62
7
  6
CONTINUOUS
 10
-29.2
 20
6.7
 40
1.7
100
AcDbArc
 50
90.0
 51
180.0
  0
ARC
  5
48D
100
AcDbEntity
  8
0
100
AcDbCircle
 62
7
  6
CONTINUOUS
 10
-6.7
 20
6.7
 40
1.7
100
AcDbArc
 50
90.0
 51
180.0
  0
ARC
  5
48E
100
AcDbEntity
  8
ASSI
100
AcDbCircle
 62
7
  6
CONTINUOUS
 10
-15.8
 20
6.7
 40
1.7
100
AcDbArc
 50
0.0
 51
90.0
  0
ARC
  5
48F
100
AcDbEntity
  8
ASSI
100
AcDbCircle
 62
7
  6
CONTINUOUS
 10
-29.2
 20
6.7
 40
1.7
100
AcDbArc
 50
90.0
 51
180.0
  0
ARC
  5
490
100
AcDbEntity
  8
ASSI
100
AcDbCircle
 62
7
  6
CONTINUOUS
 10
-6.7
 20
6.7
 40
1.7
100
AcDbArc
 50
90.0
 51
180.0
  0
ARC
  5
491
100
AcDbEntity
  8
0
100
AcDbCircle
 62
7
  6
CONTINUOUS
 10
-15.8
 20
6.7
 40
1.2
100
AcDbArc
 50
0.0
 51
90.0
  0
ARC
  5
492
100
AcDbEntity
  8
0
100
AcDbCircle
 62
7
  6
CONTINUOUS
 10
-29.2
 20
6.7
 40
1.2
100
AcDbArc
 50
90.0
 51
180.0
  0
ARC
  5
493
100
AcDbEntity
  8
0
100
AcDbCircle
 62
7
  6
CONTINUOUS
 10
-6.7
 20
6.7
 40
1.2
100
AcDbArc
 50
90.0
 51
180.0
  0
ARC
  5
494
100
AcDbEntity
  8
ASSI
100
AcDbCircle
 62
7
  6
CONTINUOUS
 10
-15.8
 20
6.7
 40
1.2
100
AcDbArc
 50
0.0
 51
90.0
  0
ARC
  5
495
100
AcDbEntity
  8
ASSI
100
AcDbCircle
 62
7
  6
CONTINUOUS
 10
-29.2
 20
6.7
 40
1.2
100
AcDbArc
 50
90.0
 51
180.0
  0
ARC
  5
496
100
AcDbEntity
  8
ASSI
100
AcDbCircle
 62
7
  6
CONTINUOUS
 10
-6.7
 20
6.7
 40
1.2
100
AcDbArc
 50
90.0
 51
180.0
  0
ARC
  5
497
100
AcDbEntity
  8
0
100
AcDbCircle
 62
7
  6
CONTINUOUS
 10
6.7
 20
-6.7
 40
1.7
100
AcDbArc
 50
270.0
 51
360.0
  0
ARC
  5
498
100
AcDbEntity
  8
0
100
AcDbCircle
 62
7
  6
CONTINUOUS
 10
15.8
 20
-6.7
 40
1.7
100
AcDbArc
 50
180.0
 51
270.0
  0
ARC
  5
499
100
AcDbEntity
  8
0
100
AcDbCircle
 62
7
  6
CONTINUOUS
 10
29.2
 20
-6.7
 40
1.7
100
AcDbArc
 50
270.0
 51
360.0
  0
ARC
  5
49A
100
AcDbEntity
  8
ASSI
100
AcDbCircle
 62
7
  6
CONTINUOUS
 10
6.7
 20
-6.7
 40
1.7
100
AcDbArc
 50
270.0
 51
360.0
  0
ARC
  5
49B
100
AcDbEntity
  8
ASSI
100
AcDbCircle
 62
7
  6
CONTINUOUS
 10
15.8
 20
-6.7
 40
1.7
100
AcDbArc
 50
180.0
 51
270.0
  0
ARC
  5
49C
100
AcDbEntity
  8
ASSI
100
AcDbCircle
 62
7
  6
CONTINUOUS
 10
29.2
 20
-6.7
 40
1.7
100
AcDbArc
 50
270.0
 51
360.0
  0
ARC
  5
49D
100
AcDbEntity
  8
0
100
AcDbCircle
 62
7
  6
CONTINUOUS
 10
6.7
 20
-6.7
 40
1.2
100
AcDbArc
 50
270.0
 51
360.0
  0
ARC
  5
49E
100
AcDbEntity
  8
0
100
AcDbCircle
 62
7
  6
CONTINUOUS
 10
29.2
 20
-6.7
 40
1.2
100
AcDbArc
 50
270.0
 51
360.0
  0
ARC
  5
49F
100
AcDbEntity
  8
0
100
AcDbCircle
 62
7
  6
CONTINUOUS
 10
15.8
 20
-6.7
 40
1.2
100
AcDbArc
 50
180.0
 51
270.0
  0
ARC
  5
4A0
100
AcDbEntity
  8
ASSI
100
AcDbCircle
 62
7
  6
CONTINUOUS
 10
6.7
 20
-6.7
 40
1.2
100
AcDbArc
 50
270.0
 51
360.0
  0
ARC
  5
4A1
100
AcDbEntity
  8
ASSI
100
AcDbCircle
 62
7
  6
CONTINUOUS
 10
29.2
 20
-6.7
 40
1.2
100
AcDbArc
 50
270.0
 51
360.0
  0
ARC
  5
4A2
100
AcDbEntity
  8
ASSI
100
AcDbCircle
 62
7
  6
CONTINUOUS
 10
15.8
 20
-6.7
 40
1.2
100
AcDbArc
 50
180.0
 51
270.0
  0
ARC
  5
4A3
100
AcDbEntity
  8
0
100
AcDbCircle
 62
7
  6
CONTINUOUS
 10
29.2
 20
6.7
 40
1.7
100
AcDbArc
 50
0.0
 51
90.0
  0
ARC
  5
4A4
100
AcDbEntity
  8
0
100
AcDbCircle
 62
7
  6
CONTINUOUS
 10
15.8
 20
6.7
 40
1.7
100
AcDbArc
 50
90.0
 51
180.0
  0
ARC
  5
4A5
100
AcDbEntity
  8
0
100
AcDbCircle
 62
7
  6
CONTINUOUS
 10
6.7
 20
6.7
 40
1.7
100
AcDbArc
 50
0.0
 51
90.0
  0
ARC
  5
4A6
100
AcDbEntity
  8
ASSI
100
AcDbCircle
 62
7
  6
CONTINUOUS
 10
29.2
 20
6.7
 40
1.7
100
AcDbArc
 50
0.0
 51
90.0
  0
ARC
  5
4A7
100
AcDbEntity
  8
ASSI
100
AcDbCircle
 62
7
  6
CONTINUOUS
 10
15.8
 20
6.7
 40
1.7
100
AcDbArc
 50
90.0
 51
180.0
  0
ARC
  5
4A8
100
AcDbEntity
  8
ASSI
100
AcDbCircle
 62
7
  6
CONTINUOUS
 10
6.7
 20
6.7
 40
1.7
100
AcDbArc
 50
0.0
 51
90.0
  0
ARC
  5
4A9
100
AcDbEntity
  8
0
100
AcDbCircle
 62
7
  6
CONTINUOUS
 10
6.7
 20
6.7
 40
1.2
100
AcDbArc
 50
0.0
 51
90.0
  0
ARC
  5
4AA
100
AcDbEntity
  8
0
100
AcDbCircle
 62
7
  6
CONTINUOUS
 10
29.2
 20
6.7
 40
1.2
100
AcDbArc
 50
0.0
 51
90.0
  0
ARC
  5
4AB
100
AcDbEntity
  8
0
100
AcDbCircle
 62
7
  6
CONTINUOUS
 10
15.8
 20
6.7
 40
1.2
100
AcDbArc
 50
90.0
 51
180.0
  0
ARC
  5
4AC
100
AcDbEntity
  8
ASSI
100
AcDbCircle
 62
7
  6
CONTINUOUS
 10
6.7
 20
6.7
 40
1.2
100
AcDbArc
 50
0.0
 51
90.0
  0
ARC
  5
4AD
100
AcDbEntity
  8
ASSI
100
AcDbCircle
 62
7
  6
CONTINUOUS
 10
29.2
 20
6.7
 40
1.2
100
AcDbArc
 50
0.0
 51
90.0
  0
ARC
  5
4AE
100
AcDbEntity
  8
ASSI
100
AcDbCircle
 62
7
  6
CONTINUOUS
 10
15.8
 20
6.7
 40
1.2
100
AcDbArc
 50
90.0
 51
180.0
  0
ARC
  5
4AF
100
AcDbEntity
  8
CURVE
100
AcDbCircle
 62
250
  6
CONTINUOUS
 10
100.7422937963
 20
-29.8716892664
 40
39.8681074
100
AcDbArc
 50
179.7782450657
 51
180.3657160807
  0
ARC
  5
4B0
100
AcDbEntity
  8
0
100
AcDbCircle
 62
7
  6
CONTINUOUS
 10
-85.4527476723
 20
-26.2
 40
1.0
100
AcDbArc
 50
84.2894068625
 51
90.0
  0
ARC
  5
4B1
100
AcDbEntity
  8
0
100
AcDbCircle
 62
7
  6
CONTINUOUS
 10
-85.4527476723
 20
26.2
 40
1.0
100
AcDbArc
 50
270.0
 51
275.7105931375
  0
ARC
  5
4B2
100
AcDbEntity
  8
0
100
AcDbCircle
 62
7
  6
CONTINUOUS
 10
-85.4775587263
 20
26.849999496
 40
0.3
100
AcDbArc
 50
62.0510313858
 51
89.9000000064
  0
ARC
  5
4B3
100
AcDbEntity
  8
0
100
AcDbCircle
 62
7
  6
CONTINUOUS
 10
-85.4775587263
 20
-26.849999496
 40
0.3
100
AcDbArc
 50
270.0999999936
 51
297.9489686142
  0
ARC
  5
4B4
100
AcDbEntity
  8
0
100
AcDbCircle
 62
7
  6
CONTINUOUS
 10
-86.4528720512
 20
2.6214065094
 40
0.3
100
AcDbArc
 50
0.0
 51
80.4010886587
  0
ARC
  5
4B5
100
AcDbEntity
  8
0
100
AcDbCircle
 62
7
  6
CONTINUOUS
 10
-86.4528720512
 20
-2.6214065094
 40
0.3
100
AcDbArc
 50
279.5989113413
 51
360.0
  0
ARC
  5
4B6
100
AcDbEntity
  8
0
100
AcDbCircle
 62
7
  6
CONTINUOUS
 10
-83.9545681384
 20
-26.0415689373
 40
0.3
100
AcDbArc
 50
270.3333333333
 51
297.9601595787
  0
ARC
  5
4B7
100
AcDbEntity
  8
0
100
AcDbCircle
 62
7
  6
CONTINUOUS
 10
-83.9545681384
 20
26.0415689373
 40
0.3
100
AcDbArc
 50
62.0398404207
 51
89.6666666667
  0
SPLINE
  5
4B8
100
AcDbEntity
  8
CURVE
100
AcDbSpline
 62
250
  6
CONTINUOUS
 70
0
 71
3
 72
9
 73
5
 74
0
 42
0.0000001
 43
0.0000001
 44
0.0000000001
 40
0.0
 40
0.0
 40
0.0
 40
0.0
 40
0.5206208722
 40
1.0
 40
1.0
 40
1.0
 40
1.0
 10
60.885390512
 20
-29.4226356449
 30
0.0
 10
60.8891619261
 20
-29.4209681689
 30
0.0
 10
60.8974005432
 20
-29.4973108459
 30
0.0
 10
60.8988699409
 20
-29.728472706
 30
0.0
 10
60.8989474951
 20
-29.8279642095
 30
0.0
  0
SPLINE
  5
4B9
100
AcDbEntity
  8
CURVE
100
AcDbSpline
 62
250
  6
CONTINUOUS
 70
0
 71
3
 72
9
 73
5
 74
0
 42
0.0000001
 43
0.0000001
 44
0.0000000001
 40
0.0
 40
0.0
 40
0.0
 40
0.0
 40
0.5013510385
 40
1.0
 40
1.0
 40
1.0
 40
1.0
 10
60.8744850009
 20
-29.7173859732
 30
0.0
 10
60.874794863
 20
-29.6409112471
 30
0.0
 10
60.8771452432
 20
-29.4862321801
 30
0.0
 10
60.8827184632
 20
-29.423833145
 30
0.0
 10
60.885390512
 20
-29.4226356449
 30
0.0
  0
SPLINE
  5
4BA
100
AcDbEntity
  8
CURVE
100
AcDbSpline
 62
250
  6
CONTINUOUS
 70
0
 71
3
 72
9
 73
5
 74
0
 42
0.0000001
 43
0.0000001
 44
0.0000000001
 40
0.0
 40
0.0
 40
0.0
 40
0.0
 40
0.2957417834
 40
1.0
 40
1.0
 40
1.0
 40
1.0
 10
60.8620741759
 20
-29.3408501143
 30
0.0
 10
60.8605585951
 20
-29.4610542637
 30
0.0
 10
60.8580881081
 20
-29.8931154132
 30
0.0
 10
60.8596096759
 20
-30.3274429247
 30
0.0
 10
60.8611556794
 20
-30.6285551388
 30
0.0
  0
SPLINE
  5
4BB
100
AcDbEntity
  8
CURVE
100
AcDbSpline
 62
250
  6
CONTINUOUS
 70
0
 71
3
 72
17
 73
13
 74
0
 42
0.0000001
 43
0.0000001
 44
0.0000000001
 40
0.0
 40
0.0
 40
0.0
 40
0.0
 40
0.0559780952
 40
0.1687540387
 40
0.321006234
 40
0.4122750837
 40
0.516613223
 40
0.6013931059
 40
0.6776022439
 40
0.8103422694
 40
0.9200404832
 40
1.0
 40
1.0
 40
1.0
 40
1.0
 10
60.9061378054
 20
-29.2870512436
 30
0.0
 10
60.9060080221
 20
-29.2582307418
 30
0.0
 10
60.9039944413
 20
-29.184972753
 30
0.0
 10
60.9001559947
 20
-29.0634829078
 30
0.0
 10
60.894247302
 20
-28.9740276278
 30
0.0
 10
60.8880831982
 20
-28.9341773505
 30
0.0
 10
60.8829671207
 20
-28.9304334968
 30
0.0
 10
60.8781887457
 20
-28.9501640226
 30
0.0
 10
60.8731113496
 20
-28.9979840427
 30
0.0
 10
60.8681353908
 20
-29.0877998266
 30
0.0
 10
60.8642440602
 20
-29.2146127248
 30
0.0
 10
60.862565765
 20
-29.301804483
 30
0.0
 10
60.8620741759
 20
-29.3408501143
 30
0.0
  0
SPLINE
  5
4BC
100
AcDbEntity
  8
CURVE
100
AcDbSpline
 62
250
  6
CONTINUOUS
 70
0
 71
3
 72
9
 73
5
 74
0
 42
0.0000001
 43
0.0000001
 44
0.0000000001
 40
0.0
 40
0.0
 40
0.0
 40
0.0
 40
0.2426586216
 40
1.0
 40
1.0
 40
1.0
 40
1.0
 10
60.9237639114
 20
-28.9862836897
 30
0.0
 10
60.9221786227
 20
-28.9986586641
 30
0.0
 10
60.9157768408
 20
-29.0459291565
 30
0.0
 10
60.9085526835
 20
-29.1505648409
 30
0.0
 10
60.9066533149
 20
-29.2870512436
 30
0.0
  0
LINE
  5
4BD
100
AcDbEntity
  8
CURVE
100
AcDbLine
 62
250
  6
CONTINUOUS
 10
60.9473759458
 20
-28.8079038802
 11
60.9237639114
 21
-28.9862836897
  0
SPLINE
  5
4BE
100
AcDbEntity
  8
CURVE
100
AcDbSpline
 62
250
  6
CONTINUOUS
 70
0
 71
3
 72
9
 73
5
 74
0
 42
0.0000001
 43
0.0000001
 44
0.0000000001
 40
0.0
 40
0.0
 40
0.0
 40
0.0
 40
0.5586214172
 40
1.0
 40
1.0
 40
1.0
 40
1.0
 10
60.9209220674
 20
-29.5379751749
 30
0.0
 10
60.9257378197
 20
-29.486134558
 30
0.0
 10
60.9346552336
 20
-29.4179595379
 30
0.0
 10
60.9434695024
 20
-29.3419894791
 30
0.0
 10
60.9473759458
 20
-29.3098079785
 30
0.0
  0
SPLINE
  5
4BF
100
AcDbEntity
  8
CURVE
100
AcDbSpline
 62
250
  6
CONTINUOUS
 70
0
 71
3
 72
9
 73
5
 74
0
 42
0.0000001
 43
0.0000001
 44
0.0000000001
 40
0.0
 40
0.0
 40
0.0
 40
0.0
 40
0.3559141631
 40
1.0
 40
1.0
 40
1.0
 40
1.0
 10
60.9132352194
 20
-29.8290889245
 30
0.0
 10
60.9132352194
 20
-29.7836184402
 30
0.0
 10
60.9141961358
 20
-29.6528120506
 30
0.0
 10
60.9182334149
 20
-29.5668873007
 30
0.0
 10
60.9209220674
 20
-29.5379751749
 30
0.0
  0
SPLINE
  5
4C0
100
AcDbEntity
  8
CURVE
100
AcDbSpline
 62
250
  6
CONTINUOUS
 70
0
 71
3
 72
9
 73
5
 74
0
 42
0.0000001
 43
0.0000001
 44
0.0000000001
 40
0.0
 40
0.0
 40
0.0
 40
0.0
 40
0.5206208722
 40
1.0
 40
1.0
 40
1.0
 40
1.0
 10
-90.2848583771
 20
-29.4226356449
 30
0.0
 10
-90.1768592074
 20
-29.4209681689
 30
0.0
 10
-89.9409360839
 20
-29.4973108459
 30
0.0
 10
-89.898858038
 20
-29.728472706
 30
0.0
 10
-89.8966371765
 20
-29.8279642095
 30
0.0
  0
SPLINE
  5
4C1
100
AcDbEntity
  8
CURVE
100
AcDbSpline
 62
250
  6
CONTINUOUS
 70
0
 71
3
 72
9
 73
5
 74
0
 42
0.0000001
 43
0.0000001
 44
0.0000000001
 40
0.0
 40
0.0
 40
0.0
 40
0.0
 40
0.5013510385
 40
1.0
 40
1.0
 40
1.0
 40
1.0
 10
-90.5971513565
 20
-29.7173859732
 30
0.0
 10
-90.5882780668
 20
-29.6409112471
 30
0.0
 10
-90.5209719847
 20
-29.4862321801
 30
0.0
 10
-90.3613758444
 20
-29.423833145
 30
0.0
 10
-90.2848583771
 20
-29.4226356449
 30
0.0
  0
SPLINE
  5
4C2
100
AcDbEntity
  8
CURVE
100
AcDbSpline
 62
250
  6
CONTINUOUS
 70
0
 71
3
 72
9
 73
5
 74
0
 42
0.0000001
 43
0.0000001
 44
0.0000000001
 40
0.0
 40
0.0
 40
0.0
 40
0.0
 40
0.2703953699
 40
1.0
 40
1.0
 40
1.0
 40
1.0
 10
-90.5824452984
 20
-30.126163664
 30
0.0
 10
-90.5886558302
 20
-30.0897447717
 30
0.0
 10
-90.6090817741
 20
-29.9546358143
 30
0.0
 10
-90.60863835
 20
-29.8164101388
 30
0.0
 10
-90.5971513565
 20
-29.7173859732
 30
0.0
  0
SPLINE
  5
4C3
100
AcDbEntity
  8
CURVE
100
AcDbSpline
 62
250
  6
CONTINUOUS
 70
0
 71
3
 72
9
 73
5
 74
0
 42
0.0000001
 43
0.0000001
 44
0.0000000001
 40
0.0
 40
0.0
 40
0.0
 40
0.0
 40
0.2957417834
 40
1.0
 40
1.0
 40
1.0
 40
1.0
 10
-90.9525508835
 20
-29.3408501143
 30
0.0
 10
-90.9959514391
 20
-29.4610542637
 30
0.0
 10
-91.0666969317
 20
-29.8931154132
 30
0.0
 10
-91.023124932
 20
-30.3274429247
 30
0.0
 10
-90.9788531836
 20
-30.6285551388
 30
0.0
  0
SPLINE
  5
4C4
100
AcDbEntity
  8
CURVE
100
AcDbSpline
 62
250
  6
CONTINUOUS
 70
0
 71
3
 72
17
 73
13
 74
0
 42
0.0000001
 43
0.0000001
 44
0.0000000001
 40
0.0
 40
0.0
 40
0.0
 40
0.0
 40
0.0559780952
 40
0.1687540387
 40
0.321006234
 40
0.4122750837
 40
0.516613223
 40
0.6013931059
 40
0.6776022439
 40
0.8103422694
 40
0.9200404832
 40
1.0
 40
1.0
 40
1.0
 40
1.0
 10
-89.690733629
 20
-29.2870512436
 30
0.0
 10
-89.694450138
 20
-29.2582307418
 30
0.0
 10
-89.7521115462
 20
-29.184972753
 30
0.0
 10
-89.8620302762
 20
-29.0634829078
 30
0.0
 10
-90.0312330954
 20
-28.9740276278
 30
0.0
 10
-90.2077499347
 20
-28.9341773505
 30
0.0
 10
-90.3542552267
 20
-28.9304334968
 30
0.0
 10
-90.4910899809
 20
-28.9501640226
 30
0.0
 10
-90.6364875817
 20
-28.9979840427
 30
0.0
 10
-90.7789804003
 20
-29.0877998266
 30
0.0
 10
-90.8904135276
 20
-29.2146127248
 30
0.0
 10
-90.9384736147
 20
-29.301804483
 30
0.0
 10
-90.9525508835
 20
-29.3408501143
 30
0.0
  0
SPLINE
  5
4C5
100
AcDbEntity
  8
CURVE
100
AcDbSpline
 62
250
  6
CONTINUOUS
 70
0
 71
3
 72
9
 73
5
 74
0
 42
0.0000001
 43
0.0000001
 44
0.0000000001
 40
0.0
 40
0.0
 40
0.0
 40
0.0
 40
0.2426586216
 40
1.0
 40
1.0
 40
1.0
 40
1.0
 10
-89.1859879933
 20
-28.9862836897
 30
0.0
 10
-89.2313847213
 20
-28.9986586641
 30
0.0
 10
-89.4147077716
 20
-29.0459291565
 30
0.0
 10
-89.6215805698
 20
-29.1505648409
 30
0.0
 10
-89.6759713693
 20
-29.2870512436
 30
0.0
  0
SPLINE
  5
4C6
100
AcDbEntity
  8
CURVE
100
AcDbSpline
 62
250
  6
CONTINUOUS
 70
0
 71
3
 72
9
 73
5
 74
0
 42
0.0000001
 43
0.0000001
 44
0.0000000001
 40
0.0
 40
0.0
 40
0.0
 40
0.0
 40
0.1980141723
 40
1.0
 40
1.0
 40
1.0
 40
1.0
 10
-88.5098277949
 20
-28.8079038802
 30
0.0
 10
-88.5543691103
 20
-28.8200085492
 30
0.0
 10
-88.7798147543
 20
-28.8792554798
 30
0.0
 10
-89.0056279918
 20
-28.9371156095
 30
0.0
 10
-89.1859879933
 20
-28.9862836897
 30
0.0
  0
SPLINE
  5
4C7
100
AcDbEntity
  8
CURVE
100
AcDbSpline
 62
250
  6
CONTINUOUS
 70
0
 71
3
 72
9
 73
5
 74
0
 42
0.0000001
 43
0.0000001
 44
0.0000000001
 40
0.0
 40
0.0
 40
0.0
 40
0.0
 40
0.5586214172
 40
1.0
 40
1.0
 40
1.0
 40
1.0
 10
-89.2673677595
 20
-29.5379751749
 30
0.0
 10
-89.1294626562
 20
-29.486134558
 30
0.0
 10
-88.8741013318
 20
-29.4179595379
 30
0.0
 10
-88.6216936984
 20
-29.3419894791
 30
0.0
 10
-88.5098277949
 20
-29.3098079785
 30
0.0
  0
SPLINE
  5
4C8
100
AcDbEntity
  8
CURVE
100
AcDbSpline
 62
250
  6
CONTINUOUS
 70
0
 71
3
 72
9
 73
5
 74
0
 42
0.0000001
 43
0.0000001
 44
0.0000000001
 40
0.0
 40
0.0
 40
0.0
 40
0.0
 40
0.3559141631
 40
1.0
 40
1.0
 40
1.0
 40
1.0
 10
-89.4874902856
 20
-29.8290889245
 30
0.0
 10
-89.4874902856
 20
-29.7836184402
 30
0.0
 10
-89.4599732377
 20
-29.6528120506
 30
0.0
 10
-89.344360692
 20
-29.5668873007
 30
0.0
 10
-89.2673677595
 20
-29.5379751749
 30
0.0
  0
SPLINE
  5
4C9
100
AcDbEntity
  8
0
100
AcDbSpline
 62
7
  6
CONTINUOUS
 70
0
 71
3
 72
9
 73
5
 74
0
 42
0.0000001
 43
0.0000001
 44
0.0000000001
 40
0.0
 40
0.0
 40
0.0
 40
0.0
 40
0.4298638943
 40
1.0
 40
1.0
 40
1.0
 40
1.0
 10
-83.4028720512
 20
26.0463167932
 30
0.0
 10
-83.4028720512
 20
26.0354717441
 30
0.0
 10
-83.4107814708
 20
26.0106368792
 30
0.0
 10
-83.4233815543
 20
25.9889263869
 30
0.0
 10
-83.4307309662
 20
25.9765617175
 30
0.0
  0
SPLINE
  5
4CA
100
AcDbEntity
  8
0
100
AcDbSpline
 62
250
  6
CONTINUOUS
 70
0
 71
3
 72
17
 73
13
 74
0
 42
0.0000001
 43
0.0000001
 44
0.0000000001
 40
0.0
 40
0.0
 40
0.0
 40
0.0
 40
0.0041509426
 40
0.0165131528
 40
0.0370394731
 40
0.0656738303
 40
0.147033967
 40
0.259883893
 40
0.4031301725
 40
0.5755840394
 40
0.7753335906
 40
1.0
 40
1.0
 40
1.0
 40
1.0
 10
-83.952822819
 20
-26.3415638603
 30
0.0
 10
-83.9527012415
 20
-26.341563153
 30
0.0
 10
-83.9529183619
 20
-26.3407901078
 30
0.0
 10
-83.9526646194
 20
-26.3399838662
 30
0.0
 10
-83.9527718418
 20
-26.3380251079
 30
0.0
 10
-83.9526647188
 20
-26.3342971317
 30
0.0
 10
-83.9527027848
 20
-26.3277000543
 30
0.0
 10
-83.9526683457
 20
-26.3178494928
 30
0.0
 10
-83.9526897176
 20
-26.3052846155
 30
0.0
 10
-83.9527141874
 20
-26.2901918491
 30
0.0
 10
-83.9527611403
 20
-26.2727082659
 30
0.0
 10
-83.9528003935
 20
-26.2602777389
 30
0.0
 10
-83.952822819
 20
-26.2536973817
 30
0.0
  0
SPLINE
  5
4CB
100
AcDbEntity
  8
0
100
AcDbSpline
 62
250
  6
CONTINUOUS
 70
0
 71
3
 72
17
 73
13
 74
0
 42
0.0000001
 43
0.0000001
 44
0.0000000001
 40
0.0
 40
0.0
 40
0.0
 40
0.0
 40
0.2246664094
 40
0.4244159606
 40
0.5968698275
 40
0.740116107
 40
0.852966033
 40
0.9343261697
 40
0.9629605269
 40
0.9834868471
 40
0.9958490574
 40
1.0
 40
1.0
 40
1.0
 40
1.0
 10
-83.952822819
 20
26.2536973817
 30
0.0
 10
-83.9528003935
 20
26.2602777389
 30
0.0
 10
-83.9527611403
 20
26.2727082659
 30
0.0
 10
-83.9527141874
 20
26.2901918491
 30
0.0
 10
-83.9526897176
 20
26.3052846155
 30
0.0
 10
-83.9526683457
 20
26.3178494928
 30
0.0
 10
-83.9527027848
 20
26.3277000543
 30
0.0
 10
-83.9526647188
 20
26.3342971317
 30
0.0
 10
-83.9527718418
 20
26.3380251079
 30
0.0
 10
-83.9526646194
 20
26.3399838662
 30
0.0
 10
-83.9529183619
 20
26.3407901078
 30
0.0
 10
-83.9527012415
 20
26.341563153
 30
0.0
 10
-83.952822819
 20
26.3415638603
 30
0.0
  0
SPLINE
  5
4CC
100
AcDbEntity
  8
0
100
AcDbSpline
 62
250
  6
CONTINUOUS
 70
0
 71
3
 72
11
 73
7
 74
0
 42
0.0000001
 43
0.0000001
 44
0.0000000001
 40
0.0
 40
0.0
 40
0.0
 40
0.0
 40
0.2014869372
 40
0.4267120375
 40
0.6907287438
 40
1.0
 40
1.0
 40
1.0
 40
1.0
 10
-83.8139108899
 20
26.3065510847
 30
0.0
 10
-83.8201915618
 20
26.3098849773
 30
0.0
 10
-83.8351077255
 20
26.3141379225
 30
0.0
 10
-83.859766071
 20
26.3120310176
 30
0.0
 10
-83.8864924371
 20
26.3024350922
 30
0.0
 10
-83.9040245875
 20
26.2921422438
 30
0.0
 10
-83.9130618855
 20
26.2860223324
 30
0.0
  0
SPLINE
  5
4CD
100
AcDbEntity
  8
0
100
AcDbSpline
 62
250
  6
CONTINUOUS
 70
0
 71
3
 72
9
 73
5
 74
0
 42
0.0000001
 43
0.0000001
 44
0.0000000001
 40
0.0
 40
0.0
 40
0.0
 40
0.0
 40
0.2353085205
 40
1.0
 40
1.0
 40
1.0
 40
1.0
 10
-83.9130618855
 20
26.2860223324
 30
0.0
 10
-83.9163919975
 20
26.2837672347
 30
0.0
 10
-83.9303084198
 20
26.2738364073
 30
0.0
 10
-83.9433244992
 20
26.2626753654
 30
0.0
 10
-83.952822819
 20
26.2536973817
 30
0.0
  0
SPLINE
  5
4CE
100
AcDbEntity
  8
0
100
AcDbSpline
 62
250
  6
CONTINUOUS
 70
0
 71
3
 72
11
 73
7
 74
0
 42
0.0000001
 43
0.0000001
 44
0.0000000001
 40
0.0
 40
0.0
 40
0.0
 40
0.0
 40
0.2014188606
 40
0.4266171679
 40
0.6906614828
 40
1.0
 40
1.0
 40
1.0
 40
1.0
 10
-83.8139108899
 20
-26.3065510847
 30
0.0
 10
-83.8201987074
 20
-26.3098887703
 30
0.0
 10
-83.8351355106
 20
-26.3141436354
 30
0.0
 10
-83.8598270703
 20
-26.3120194008
 30
0.0
 10
-83.8865889849
 20
-26.3023913255
 30
0.0
 10
-83.9041432349
 20
-26.2920702004
 30
0.0
 10
-83.9131919641
 20
-26.2859342015
 30
0.0
  0
SPLINE
  5
4CF
100
AcDbEntity
  8
0
100
AcDbSpline
 62
250
  6
CONTINUOUS
 70
0
 71
3
 72
9
 73
5
 74
0
 42
0.0000001
 43
0.0000001
 44
0.0000000001
 40
0.0
 40
0.0
 40
0.0
 40
0.0
 40
0.2353653072
 40
1.0
 40
1.0
 40
1.0
 40
1.0
 10
-83.9131919641
 20
-26.2859342015
 30
0.0
 10
-83.9165112667
 20
-26.2836833619
 30
0.0
 10
-83.9303799461
 20
-26.273775763
 30
0.0
 10
-83.9433542623
 20
-26.2626472328
 30
0.0
 10
-83.952822819
 20
-26.2536973817
 30
0.0
  0
SPLINE
  5
4D0
100
AcDbEntity
  8
0
100
AcDbSpline
 62
7
  6
CONTINUOUS
 70
0
 71
3
 72
9
 73
5
 74
0
 42
0.0000001
 43
0.0000001
 44
0.0000000001
 40
0.0
 40
0.0
 40
0.0
 40
0.0
 40
0.5701360006
 40
1.0
 40
1.0
 40
1.0
 40
1.0
 10
-83.4307309662
 20
-25.9765617175
 30
0.0
 10
-83.4233815557
 20
-25.9889263846
 30
0.0
 10
-83.4107814728
 20
-26.010636877
 30
0.0
 10
-83.4028720512
 20
-26.0354717415
 30
0.0
 10
-83.4028720512
 20
-26.0463167932
 30
0.0
  0
SPLINE
  5
4D1
100
AcDbEntity
  8
0
100
AcDbSpline
 62
250
  6
CONTINUOUS
 70
0
 71
3
 72
13
 73
9
 74
0
 42
0.0000001
 43
0.0000001
 44
0.0000000001
 40
0.0
 40
0.0
 40
0.0
 40
0.0
 40
0.3880534077
 40
0.7025003818
 40
0.821361185
 40
0.9105296552
 40
0.9687604122
 40
1.0
 40
1.0
 40
1.0
 40
1.0
 10
-85.4770994675
 20
26.9276792439
 30
0.0
 10
-85.4619028382
 20
26.9543867309
 30
0.0
 10
-85.4333924075
 20
27.0021433125
 30
0.0
 10
-85.3971810419
 20
27.056332828
 30
0.0
 10
-85.3718934955
 20
27.0889703426
 30
0.0
 10
-85.3572624687
 20
27.104507635
 30
0.0
 10
-85.3470731686
 20
27.1136619808
 30
0.0
 10
-85.3391486849
 20
27.1161795935
 30
0.0
 10
-85.3369658175
 20
27.1150157961
 30
0.0
  0
SPLINE
  5
4D2
100
AcDbEntity
  8
0
100
AcDbSpline
 62
250
  6
CONTINUOUS
 70
0
 71
3
 72
9
 73
5
 74
0
 42
0.0000001
 43
0.0000001
 44
0.0000000001
 40
0.0
 40
0.0
 40
0.0
 40
0.0
 40
0.559122687
 40
1.0
 40
1.0
 40
1.0
 40
1.0
 10
-85.4770994675
 20
-26.9276792439
 30
0.0
 10
-85.4609212741
 20
-26.9561244351
 30
0.0
 10
-85.4308566352
 20
-27.0063479877
 30
0.0
 10
-85.3981106469
 20
-27.0549662668
 30
0.0
 10
-85.3823345137
 20
-27.0753851549
 30
0.0
  0
SPLINE
  5
4D3
100
AcDbEntity
  8
0
100
AcDbSpline
 62
250
  6
CONTINUOUS
 70
0
 71
3
 72
10
 73
6
 74
0
 42
0.0000001
 43
0.0000001
 44
0.0000000001
 40
0.0
 40
0.0
 40
0.0
 40
0.0
 40
0.6950559039
 40
0.8909350205
 40
1.0
 40
1.0
 40
1.0
 40
1.0
 10
-85.3823345137
 20
-27.0753851549
 30
0.0
 10
-85.3735542695
 20
-27.0867493353
 30
0.0
 10
-85.3614955647
 20
-27.1011840157
 30
0.0
 10
-85.3460105038
 20
-27.1142275128
 30
0.0
 10
-85.3389583601
 20
-27.1160683359
 30
0.0
 10
-85.3369658175
 20
-27.1150157961
 30
0.0
  0
ELLIPSE
  5
4D4
100
AcDbEntity
  8
0
100
AcDbEllipse
 62
7
  6
CONTINUOUS
 10
-83.6028720512
 20
26.079798695
 30
0.0
 11
-0.1417119467
 21
0.1422961243
 31
0.0
 40
0.9918061237
 41
-3.8766878413
 42
-2.8923940429
  0
ELLIPSE
  5
4D5
100
AcDbEntity
  8
0
100
AcDbEllipse
 62
7
  6
CONTINUOUS
 10
-83.6028720512
 20
-26.079798695
 30
0.0
 11
0.1417119467
 21
0.1422961243
 31
0.0
 40
0.9918061237
 41
-0.2491986107
 42
0.7350951877
  0
ENDSEC
  0
SECTION
  2
OBJECTS
  0
DICTIONARY
  5
C
100
AcDbDictionary
280
0
281
1
  3
ACAD_GROUP
350
D
  3
ACAD_MLINESTYLE
350
17
  3
ACAD_LAYOUT
350
1A
  3
ACAD_PLOTSETTINGS
350
19
  3
ACAD_PLOTSTYLENAME
350
E
  0
DICTIONARY
  5
D
102
{ACAD_REACTORS
330
C
102
}
100
AcDbDictionary
280
0
281
1
  0
ACDBDICTIONARYWDFLT
  5
E
102
{ACAD_REACTORS
330
C
102
}
100
AcDbDictionary
281
1
  3
Normal
350
F
100
AcDbDictionaryWithDefault
340
F
  0
DICTIONARY
  5
17
102
{ACAD_REACTORS
330
C
102
}
100
AcDbDictionary
280
0
281
1
  3
Standard
350
18
  0
DICTIONARY
  5
19
102
{ACAD_REACTORS
330
C
102
}
100
AcDbDictionary
281
1
  0
DICTIONARY
  5
1A
102
{ACAD_REACTORS
330
C
102
}
100
AcDbDictionary
281
1
  3
Model
350
4D6
  3
Layout1
350
4D7
  0
ACDBPLACEHOLDER
  5
F
102
{ACAD_REACTORS
330
E
102
}
  0
MLINESTYLE
  5
18
102
{ACAD_REACTORS
330
17
102
}
100
AcDbMlineStyle
  2
STANDARD
 70
0
  3

 62
256
 51
90.0
 52
90.0
 71
2
 49
0.5
 62
256
  6
BYLAYER
 49
-0.5
 62
256
  6
BYLAYER
  0
LAYOUT
  5
4D6
102
{ACAD_REACTORS
330
1A
102
}
100
AcDbPlotSettings
  1

  2
none_device
  4
ISO_A4_(297.00_x_210.00_MM)
  6

 40
0.0
 41
0.0
 42
0.0
 43
0.0
 44
297.0
 45
210.0
 46
0.0
 47
0.0
 48
0.0
 49
0.0
140
0.0
141
0.0
142
1.0
143
1.0
 70
1024
 72
1
 73
0
 74
0
  7

 75
0
147
1.0
148
0.0
149
0.0
100
AcDbLayout
  1
Model
 70
0
 71
0
 10
0.0
 20
0.0
 11
297.0
 21
210.0
 12
0.0
 22
0.0
 32
0.0
 14
0.0
 24
0.0
 34
0.0
 15
0.0
 25
0.0
 35
0.0
146
0.0
 13
0.0
 23
0.0
 33
0.0
 16
1.0
 26
0.0
 36
0.0
 17
0.0
 27
1.0
 37
0.0
 76
0
330
21E
345
0
346
0
  0
LAYOUT
  5
4D7
102
{ACAD_REACTORS
330
1A
102
}
100
AcDbPlotSettings
  1

  2
none_device
  4
ISO_A4_(297.00_x_210.00_MM)
  6

 40
0.0
 41
0.0
 42
0.0
 43
0.0
 44
297.0
 45
210.0
 46
0.0
 47
0.0
 48
0.0
 49
0.0
140
0.0
141
0.0
142
1.0
143
1.0
 70
0
 72
1
 73
0
 74
0
  7

 75
0
147
1.0
148
0.0
149
0.0
100
AcDbLayout
  1
Layout1
 70
0
 71
1
 10
0.0
 20
0.0
 11
297.0
 21
210.0
 12
0.0
 22
0.0
 32
0.0
 14
0.0
 24
0.0
 34
0.0
 15
0.0
 25
0.0
 35
0.0
146
0.0
 13
0.0
 23
0.0
 33
0.0
 16
1.0
 26
0.0
 36
0.0
 17
0.0
 27
1.0
 37
0.0
 76
0
330
21F
345
0
346
0
  0
ENDSEC
  0
EOF
