  0
SECTION
  2
HEADER
  9
$ACADVER
  1
AC1024
  9
$DWGCODEPAGE
  3
ANSI_1252
  9
$EXTMAX
 10
297.0
 20
210.0
 30
0.0
  9
$EXTMIN
 10
0.0
 20
0.0
 30
0.0
  9
$LIMMIN
 10
0.0
 20
0.0
  9
$LIMMAX
 10
297.0
 20
210.0
  9
$VIEWCTR
 10
148.5
 20
105.0
  9
$VIEWSIZE
 40
210.0
  9
$CLAYER
  8
0
  9
$LTSCALE
 40
16.335
  9
$CELTYPE
  6
BYLAYER
  9
$DIMSCALE
 40
1.0
  9
$DIMASZ
 40
3.0
  9
$DIMEXO
 40
0.5
  9
$DIMDLI
 40
11.286
  9
$DIMEXE
 40
1.5
  9
$DIMCEN
 40
2.673
  9
$DIMLFAC
 40
1.0
  9
$DIMBLK
  1
_FILLED
  9
$DIMALT
 70
0
  9
$DIMALTF
 40
0.0393700787
  9
$DIMTXT
 40
3.0
  9
$DIMTOL
 70
1
  9
$DIMLIM
 70
0
  9
$DIMTFAC
 40
1.0
  9
$DIMTP
 40
0.01
  9
$DIMTM
 40
0.01
  9
$DIMGAP
 40
0.625
  9
$DIMDSEP
 70
44
  9
$AUNITS
 70
0
  9
$PDMODE
 70
3
  9
$PDSIZE
 40
3.0
  9
$HANDSEED
  5
421
  9
$TILEMODE
 70
1
  9
$MEASUREMENT
 70
1
  9
$INSUNITS
 70
4
  0
ENDSEC
  0
SECTION
  2
CLASSES
  0
CLASS
  1
ACDBDICTIONARYWDFLT
  2
AcDbDictionaryWithDefault
  3
AutoCAD 2000
 90
0
 91
1
280
0
281
0
  0
CLASS
  1
ACDBPLACEHOLDER
  2
AcDbPlaceHolder
  3
AutoCAD 2000
 90
0
 91
1
280
0
281
0
  0
CLASS
  1
LAYOUT
  2
AcDbLayout
  3
AutoCAD 2000
 90
0
 91
0
280
0
281
0
  0
ENDSEC
  0
SECTION
  2
TABLES
  0
TABLE
  2
VPORT
  5
8
100
AcDbSymbolTable
 70
2
  0
VPORT
  5
1F4
100
AcDbSymbolTableRecord
100
AcDbViewportTableRecord
  2
*ACTIVE
 70
0
 10
0.0
 20
0.0
 11
1.0
 21
1.0
 12
148.5
 22
105.0
 13
0.0
 23
0.0
 14
1.0
 24
1.0
 15
0.0
 25
0.0
 16
0.0
 26
0.0
 36
1.0
 17
0.0
 27
0.0
 37
0.0
 40
210.0
 41
1.4142857143
 42
50.0
 43
0.0
 44
0.0
 50
0.0
 51
0.0
 71
0
 72
100
 73
1
 74
1
 75
0
 76
0
 77
0
 78
0
  0
ENDTAB
  0
TABLE
  2
LTYPE
  5
5
100
AcDbSymbolTable
 70
6
  0
LTYPE
  5
14
100
AcDbSymbolTableRecord
100
AcDbLinetypeTableRecord
  2
BYBLOCK
 70
0
  3

 72
65
 73
0
 40
0.0
  0
LTYPE
  5
15
100
AcDbSymbolTableRecord
100
AcDbLinetypeTableRecord
  2
BYLAYER
 70
0
  3

 72
65
 73
0
 40
0.0
  0
LTYPE
  5
16
100
AcDbSymbolTableRecord
100
AcDbLinetypeTableRecord
  2
CONTINUOUS
 70
64
  3
Solid line
 72
65
 73
0
 40
0.0
  0
LTYPE
  5
1F5
100
AcDbSymbolTableRecord
100
AcDbLinetypeTableRecord
  2
CENTER
 70
64
  3
____ _ ____ _ ____ _ ____ _ ____ _ ____ _ ____
 72
65
 73
4
 40
0.6
 49
0.375
 74
0
 49
-0.075
 74
0
 49
0.075
 74
0
 49
-0.075
 74
0
  0
LTYPE
  5
1F6
100
AcDbSymbolTableRecord
100
AcDbLinetypeTableRecord
  2
HIDDEN
 70
64
  3
- - - - - - - - - - - - - - - - - - - -
 72
65
 73
2
 40
0.2
 49
0.1
 74
0
 49
-0.1
 74
0
  0
LTYPE
  5
1F7
100
AcDbSymbolTableRecord
100
AcDbLinetypeTableRecord
  2
PHANTOM
 70
64
  3
_____ _ _ _____ _ _ _____ _ _ _____
 72
65
 73
6
 40
0.8
 49
0.45
 74
0
 49
-0.05
 74
0
 49
0.1
 74
0
 49
-0.05
 74
0
 49
0.1
 74
0
 49
-0.05
 74
0
  0
LTYPE
  5
1F8
100
AcDbSymbolTableRecord
100
AcDbLinetypeTableRecord
  2
DOT
 70
64
  3
. . . . . . . . . . . . . . . . . . . .
 72
65
 73
2
 40
0.2
 49
0.1
 74
0
 49
-0.1
 74
0
  0
LTYPE
  5
1F9
100
AcDbSymbolTableRecord
100
AcDbLinetypeTableRecord
  2
DASHED
 70
64
  3
- - - - - - - - - - - - - - - - - - - -
 72
65
 73
2
 40
0.2
 49
0.1
 74
0
 49
-0.1
 74
0
  0
ENDTAB
  0
TABLE
  2
LAYER
  5
2
100
AcDbSymbolTable
 70
36
  0
LAYER
  5
10
100
AcDbSymbolTableRecord
100
AcDbLayerTableRecord
  2
0
 70
0
 62
7
  6
CONTINUOUS
370
-3
390
F
  0
LAYER
  5
1FA
100
AcDbSymbolTableRecord
100
AcDbLayerTableRecord
  2
DEFAULT_1
 70
0
 62
7
  6
CENTER
370
-3
390
F
  0
LAYER
  5
1FB
100
AcDbSymbolTableRecord
100
AcDbLayerTableRecord
  2
DEFAULT_2
 70
0
 62
7
  6
HIDDEN
370
-3
390
F
  0
LAYER
  5
1FC
100
AcDbSymbolTableRecord
100
AcDbLayerTableRecord
  2
DEFAULT_3
 70
0
 62
7
  6
PHANTOM
370
-3
390
F
  0
LAYER
  5
1FD
100
AcDbSymbolTableRecord
100
AcDbLayerTableRecord
  2
ASSI
 70
0
 62
7
  6
CONTINUOUS
370
-3
390
F
  0
LAYER
  5
1FE
100
AcDbSymbolTableRecord
100
AcDbLayerTableRecord
  2
COORDINATE
 70
0
 62
7
  6
CONTINUOUS
370
-3
390
F
  0
LAYER
  5
1FF
100
AcDbSymbolTableRecord
100
AcDbLayerTableRecord
  2
COORD_ORIGINE
 70
0
 62
7
  6
CONTINUOUS
370
-3
390
F
  0
LAYER
  5
200
100
AcDbSymbolTableRecord
100
AcDbLayerTableRecord
  2
COPY_PUBLISH
 70
0
 62
7
  6
CONTINUOUS
370
-3
390
F
  0
LAYER
  5
201
100
AcDbSymbolTableRecord
100
AcDbLayerTableRecord
  2
COSMETIC
 70
0
 62
7
  6
CONTINUOUS
370
-3
390
F
  0
LAYER
  5
202
100
AcDbSymbolTableRecord
100
AcDbLayerTableRecord
  2
COSMETICI
 70
0
 62
7
  6
CONTINUOUS
370
-3
390
F
  0
LAYER
  5
203
100
AcDbSymbolTableRecord
100
AcDbLayerTableRecord
  2
CURVA_TASSELLO
 70
0
 62
7
  6
CONTINUOUS
370
-3
390
F
  0
LAYER
  5
204
100
AcDbSymbolTableRecord
100
AcDbLayerTableRecord
  2
CURVE
 70
0
 62
7
  6
CONTINUOUS
370
-3
390
F
  0
LAYER
  5
205
100
AcDbSymbolTableRecord
100
AcDbLayerTableRecord
  2
DRAFT
 70
0
 62
7
  6
CONTINUOUS
370
-3
390
F
  0
LAYER
  5
206
100
AcDbSymbolTableRecord
100
AcDbLayerTableRecord
  2
IMPORT_IGES
 70
0
 62
7
  6
CONTINUOUS
370
-3
390
F
  0
LAYER
  5
207
100
AcDbSymbolTableRecord
100
AcDbLayerTableRecord
  2
INTFCLR_2
 70
0
 62
7
  6
CONTINUOUS
370
-3
390
F
  0
LAYER
  5
208
100
AcDbSymbolTableRecord
100
AcDbLayerTableRecord
  2
INTF_1
 70
0
 62
7
  6
CONTINUOUS
370
-3
390
F
  0
LAYER
  5
209
100
AcDbSymbolTableRecord
100
AcDbLayerTableRecord
  2
INTF_21
 70
0
 62
7
  6
CONTINUOUS
370
-3
390
F
  0
LAYER
  5
20A
100
AcDbSymbolTableRecord
100
AcDbLayerTableRecord
  2
INTF_6
 70
0
 62
7
  6
CONTINUOUS
370
-3
390
F
  0
LAYER
  5
20B
100
AcDbSymbolTableRecord
100
AcDbLayerTableRecord
  2
INTF_7
 70
0
 62
7
  6
CONTINUOUS
370
-3
390
F
  0
LAYER
  5
20C
100
AcDbSymbolTableRecord
100
AcDbLayerTableRecord
  2
INTF_9
 70
0
 62
7
  6
CONTINUOUS
370
-3
390
F
  0
LAYER
  5
20D
100
AcDbSymbolTableRecord
100
AcDbLayerTableRecord
  2
LIVELLO_1
 70
0
 62
7
  6
CONTINUOUS
370
-3
390
F
  0
LAYER
  5
20E
100
AcDbSymbolTableRecord
100
AcDbLayerTableRecord
  2
NOTE
 70
0
 62
7
  6
CONTINUOUS
370
-3
390
F
  0
LAYER
  5
20F
100
AcDbSymbolTableRecord
100
AcDbLayerTableRecord
  2
PIANI
 70
0
 62
7
  6
CONTINUOUS
370
-3
390
F
  0
LAYER
  5
210
100
AcDbSymbolTableRecord
100
AcDbLayerTableRecord
  2
PIANI_ORIGINE
 70
0
 62
7
  6
CONTINUOUS
370
-3
390
F
  0
LAYER
  5
211
100
AcDbSymbolTableRecord
100
AcDbLayerTableRecord
  2
PIANI_RIFERIMENTO
 70
0
 62
7
  6
CONTINUOUS
370
-3
390
F
  0
LAYER
  5
212
100
AcDbSymbolTableRecord
100
AcDbLayerTableRecord
  2
PUNTI
 70
0
 62
7
  6
CONTINUOUS
370
-3
390
F
  0
LAYER
  5
213
100
AcDbSymbolTableRecord
100
AcDbLayerTableRecord
  2
RACCORDO
 70
0
 62
7
  6
CONTINUOUS
370
-3
390
F
  0
LAYER
  5
214
100
AcDbSymbolTableRecord
100
AcDbLayerTableRecord
  2
RGB__255__255__255__
 70
0
 62
7
  6
CONTINUOUS
370
-3
390
F
  0
LAYER
  5
215
100
AcDbSymbolTableRecord
100
AcDbLayerTableRecord
  2
RGB____0____0____0__
 70
0
 62
7
  6
CONTINUOUS
370
-3
390
F
  0
LAYER
  5
216
100
AcDbSymbolTableRecord
100
AcDbLayerTableRecord
  2
SIMBOLI
 70
0
 62
7
  6
CONTINUOUS
370
-3
390
F
  0
LAYER
  5
217
100
AcDbSymbolTableRecord
100
AcDbLayerTableRecord
  2
SMUSSO
 70
0
 62
7
  6
CONTINUOUS
370
-3
390
F
  0
LAYER
  5
218
100
AcDbSymbolTableRecord
100
AcDbLayerTableRecord
  2
SUPERFICI
 70
0
 62
7
  6
CONTINUOUS
370
-3
390
F
  0
LAYER
  5
219
100
AcDbSymbolTableRecord
100
AcDbLayerTableRecord
  2
TRASH
 70
0
 62
7
  6
CONTINUOUS
370
-3
390
F
  0
LAYER
  5
21A
100
AcDbSymbolTableRecord
100
AcDbLayerTableRecord
  2
WHITE
 70
0
 62
7
  6
CONTINUOUS
370
-3
390
F
  0
LAYER
  5
21B
100
AcDbSymbolTableRecord
100
AcDbLayerTableRecord
  2
XSEC_DATUMS
 70
0
 62
7
  6
CONTINUOUS
370
-3
390
F
  0
ENDTAB
  0
TABLE
  2
STYLE
  5
3
100
AcDbSymbolTable
 70
1
  0
STYLE
  5
11
100
AcDbSymbolTableRecord
100
AcDbTextStyleTableRecord
  2
STANDARD
 70
0
 40
0.0
 41
0.8
 50
0.0
 71
0
 42
0.2
  3
txt
  4

  0
STYLE
  5
21C
100
AcDbSymbolTableRecord
100
AcDbTextStyleTableRecord
  2
TEXTSTYLE_1
 70
0
 40
0.0
 41
0.8
 50
0.0
 71
0
 42
0.2
  3
gdt
  4

  0
ENDTAB
  0
TABLE
  2
VIEW
  5
6
100
AcDbSymbolTable
 70
0
  0
ENDTAB
  0
TABLE
  2
UCS
  5
7
100
AcDbSymbolTable
 70
0
  0
ENDTAB
  0
TABLE
  2
APPID
  5
9
100
AcDbSymbolTable
 70
1
  0
APPID
  5
21D
100
AcDbSymbolTableRecord
100
AcDbRegAppTableRecord
  2
ACAD
 70
0
  0
ENDTAB
  0
TABLE
  2
BLOCK_RECORD
  5
1
100
AcDbSymbolTable
 70
0
  0
BLOCK_RECORD
  5
21E
100
AcDbSymbolTableRecord
100
AcDbBlockTableRecord
  2
*Model_Space
  0
BLOCK_RECORD
  5
21F
100
AcDbSymbolTableRecord
100
AcDbBlockTableRecord
  2
*Paper_Space
  0
BLOCK_RECORD
  5
220
100
AcDbSymbolTableRecord
100
AcDbBlockTableRecord
  2
_FILLED
  0
BLOCK_RECORD
  5
221
100
AcDbSymbolTableRecord
100
AcDbBlockTableRecord
  2
*D0
  0
BLOCK_RECORD
  5
222
100
AcDbSymbolTableRecord
100
AcDbBlockTableRecord
  2
*D1
  0
BLOCK_RECORD
  5
223
100
AcDbSymbolTableRecord
100
AcDbBlockTableRecord
  2
*D2
  0
BLOCK_RECORD
  5
224
100
AcDbSymbolTableRecord
100
AcDbBlockTableRecord
  2
*D3
  0
ENDTAB
  0
TABLE
  2
DIMSTYLE
  5
A
100
AcDbSymbolTable
 70
1
100
AcDbDimStyleTable
 71
0
  0
DIMSTYLE
105
225
100
AcDbSymbolTableRecord
100
AcDbDimStyleTableRecord
  2
STANDARD
 70
0
  3

  4

 40
1.0
 41
3.0
 42
0.5
 43
0.38
 44
1.5
 45
0.0
 46
0.0
 47
0.01
 48
0.01
140
3.0
141
0.09
142
0.0
143
25.4
144
1.0
145
0.0
146
1.0
147
0.625
 71
1
 72
0
 73
0
 74
0
 75
0
 76
0
 77
1
 78
8
 79
2
170
0
171
1
172
0
173
0
174
0
175
0
176
0
177
0
178
0
270
2
179
2
271
2
272
2
273
2
274
2
275
0
280
0
281
0
282
0
283
1
284
8
285
0
286
0
287
3
288
0
340
11
278
44
341
220
342
220
343
220
344
220
  0
DIMSTYLE
105
226
100
AcDbSymbolTableRecord
100
AcDbDimStyleTableRecord
  2
DIMSTYLE_1
 70
0
  3

  4

 40
1.0
 41
3.0
 42
0.5
 43
0.38
 44
1.5
 45
0.0
 46
0.0
 47
0.0
 48
0.0
140
3.0
141
0.09
142
0.0
143
25.4
144
1.0
145
0.0
146
1.0
147
0.75
 71
0
 72
0
 73
0
 74
0
 75
0
 76
0
 77
1
 78
8
 79
2
170
0
171
1
172
0
173
0
174
0
175
0
176
0
177
0
178
0
270
2
179
2
271
2
272
2
273
2
274
2
275
0
280
0
281
0
282
0
283
1
284
8
285
0
286
0
287
3
288
0
340
11
278
44
341
220
342
220
343
220
344
220
  0
ENDTAB
  0
ENDSEC
  0
SECTION
  2
BLOCKS
  0
BLOCK
  5
20
100
AcDbEntity
  8
0
100
AcDbBlockBegin
  2
*Model_Space
 70
0
 10
0.0
 20
0.0
 30
0.0
  3
*Model_Space
  1

  0
ENDBLK
  5
21
100
AcDbEntity
  8
0
100
AcDbBlockEnd
  0
BLOCK
  5
1C
100
AcDbEntity
  8
0
100
AcDbBlockBegin
  2
*Paper_Space
 70
0
 10
0.0
 20
0.0
 30
0.0
  3
*Paper_Space
  1

  0
ENDBLK
  5
1D
100
AcDbEntity
  8
0
100
AcDbBlockEnd
  0
BLOCK
  5
227
100
AcDbEntity
  8
0
100
AcDbBlockBegin
  2
_FILLED
 70
64
 10
0.0
 20
0.0
  3
_FILLED
  1

  0
SOLID
  5
228
100
AcDbEntity
  8
0
  6
BYBLOCK
 62
0
100
AcDbTrace
 10
0.0
 20
0.0
 11
-1.0
 21
0.3166666667
 12
-1.0
 22
-0.3166666667
 13
-1.0
 23
-0.3166666667
  0
ENDBLK
  5
229
100
AcDbEntity
  8
0
  6
BYBLOCK
 62
0
100
AcDbBlockEnd
  0
BLOCK
  5
22A
100
AcDbEntity
  8
0
100
AcDbBlockBegin
 62
7
  6
CONTINUOUS
  2
*D0
 70
65
 10
0.0
 20
0.0
  3
*D0
  1

  0
MTEXT
  5
22B
100
AcDbEntity
  8
0
100
AcDbMText
 62
7
  6
CONTINUOUS
  7
STANDARD
 71
2
 72
1
 10
0.0
 20
58.2379011368
 30
0.0
 11
1.0
 21
0.0
 31
0.0
 73
2
 44
0.9
  1
{\ftxt;\W0.0001;\H0.0001;\~}{\ftxt;\W2.1428571429;\H3.0; }{\ftxt;\W0.0001;\H0.0001;\~}
 40
3.0
 41
9.6428571429
  0
LINE
  5
22C
100
AcDbEntity
  8
0
100
AcDbLine
 62
7
  6
CONTINUOUS
 10
61.0
 20
44.4993911979
 11
61.0
 21
55.9879011368
  0
LINE
  5
22D
100
AcDbEntity
  8
0
100
AcDbLine
 62
7
  6
CONTINUOUS
 10
-61.0
 20
44.4993911979
 11
-61.0
 21
55.9879011368
  0
LINE
  5
22E
100
AcDbEntity
  8
0
100
AcDbLine
 62
7
  6
CONTINUOUS
 10
61.0
 20
54.4879011368
 11
0.0
 21
54.4879011368
  0
LINE
  5
22F
100
AcDbEntity
  8
0
100
AcDbLine
 62
7
  6
CONTINUOUS
 10
-61.0
 20
54.4879011368
 11
0.0
 21
54.4879011368
  0
INSERT
  5
230
100
AcDbEntity
  8
0
100
AcDbBlockReference
 62
7
  6
CONTINUOUS
  2
_FILLED
 10
61.0
 20
54.4879011368
 41
3.0
 42
3.0
 43
3.0
  0
INSERT
  5
231
100
AcDbEntity
  8
0
100
AcDbBlockReference
 62
7
  6
CONTINUOUS
  2
_FILLED
 10
-61.0
 20
54.4879011368
 41
3.0
 42
3.0
 43
3.0
 50
180.0
  0
ENDBLK
  5
232
100
AcDbEntity
  8
0
  6
BYBLOCK
 62
0
100
AcDbBlockEnd
  0
BLOCK
  5
233
100
AcDbEntity
  8
0
100
AcDbBlockBegin
 62
7
  6
CONTINUOUS
  2
*D1
 70
65
 10
0.0
 20
0.0
  3
*D1
  1

  0
MTEXT
  5
234
100
AcDbEntity
  8
0
100
AcDbMText
 62
7
  6
CONTINUOUS
  7
STANDARD
 71
2
 72
1
 10
69.3956010772
 20
0.0
 30
0.0
 11
0.0
 21
1.0
 31
0.0
 73
2
 44
0.9
  1
{\ftxt;\W0.0001;\H0.0001;\~}{\ftxt;\W1.5714285714;\H3.0; }{\ftxt;\W0.0001;\H0.0001;\~}
 40
3.0
 41
7.0714285714
  0
LINE
  5
235
100
AcDbEntity
  8
0
100
AcDbLine
 62
7
  6
CONTINUOUS
 10
60.4993911979
 20
45.0
 11
74.6456010772
 21
45.0
  0
LINE
  5
236
100
AcDbEntity
  8
0
100
AcDbLine
 62
7
  6
CONTINUOUS
 10
60.4993911979
 20
-45.0
 11
74.6456010772
 21
-45.0
  0
LINE
  5
237
100
AcDbEntity
  8
0
100
AcDbLine
 62
7
  6
CONTINUOUS
 10
73.1456010772
 20
45.0
 11
73.1456010772
 21
0.0
  0
LINE
  5
238
100
AcDbEntity
  8
0
100
AcDbLine
 62
7
  6
CONTINUOUS
 10
73.1456010772
 20
-45.0
 11
73.1456010772
 21
0.0
  0
INSERT
  5
239
100
AcDbEntity
  8
0
100
AcDbBlockReference
 62
7
  6
CONTINUOUS
  2
_FILLED
 10
73.1456010772
 20
45.0
 41
3.0
 42
3.0
 43
3.0
 50
90.0
  0
INSERT
  5
23A
100
AcDbEntity
  8
0
100
AcDbBlockReference
 62
7
  6
CONTINUOUS
  2
_FILLED
 10
73.1456010772
 20
-45.0
 41
3.0
 42
3.0
 43
3.0
 50
270.0
  0
ENDBLK
  5
23B
100
AcDbEntity
  8
0
  6
BYBLOCK
 62
0
100
AcDbBlockEnd
  0
BLOCK
  5
23C
100
AcDbEntity
  8
0
100
AcDbBlockBegin
 62
7
  6
CONTINUOUS
  2
*D2
 70
65
 10
0.0
 20
0.0
  3
*D2
  1

  0
MTEXT
  5
23D
100
AcDbEntity
  8
0
100
AcDbMText
 62
7
  6
CONTINUOUS
  7
STANDARD
 71
3
 72
1
 10
-101.0481674537
 20
69.3744732842
 30
0.0
 11
1.0
 21
0.0
 31
0.0
 73
2
 44
0.9
  1
{\ftxt;\W0.0001;\H0.0001;\~}{\ftxt;\W3.2142857143;\H3.0; }{\ftxt;\W0.0001;\H0.0001;\~}
 40
3.0
 41
14.4642857143
  0
LINE
  5
23E
100
AcDbEntity
  8
0
100
AcDbLine
 62
7
  6
CONTINUOUS
 10
-89.1036145148
 20
26.5463167932
 11
-89.1036145148
 21
67.1244732842
  0
LINE
  5
23F
100
AcDbEntity
  8
0
100
AcDbLine
 62
7
  6
CONTINUOUS
 10
-99.2536145148
 20
43.8767374102
 11
-99.2536145148
 21
67.1244732842
  0
LINE
  5
240
100
AcDbEntity
  8
0
100
AcDbLine
 62
7
  6
CONTINUOUS
 10
-89.1036145148
 20
65.6244732842
 11
-94.1786145148
 21
65.6244732842
  0
LINE
  5
241
100
AcDbEntity
  8
0
100
AcDbLine
 62
7
  6
CONTINUOUS
 10
-99.2536145148
 20
65.6244732842
 11
-94.1786145148
 21
65.6244732842
  0
LINE
  5
242
100
AcDbEntity
  8
0
100
AcDbLine
 62
7
  6
CONTINUOUS
 10
-94.1786145148
 20
65.6244732842
 11
-110.6910245966
 21
65.6244732842
  0
INSERT
  5
243
100
AcDbEntity
  8
0
100
AcDbBlockReference
 62
7
  6
CONTINUOUS
  2
_FILLED
 10
-89.1036145148
 20
65.6244732842
 41
3.0
 42
3.0
 43
3.0
  0
INSERT
  5
244
100
AcDbEntity
  8
0
100
AcDbBlockReference
 62
7
  6
CONTINUOUS
  2
_FILLED
 10
-99.2536145148
 20
65.6244732842
 41
3.0
 42
3.0
 43
3.0
 50
180.0
  0
ENDBLK
  5
245
100
AcDbEntity
  8
0
  6
BYBLOCK
 62
0
100
AcDbBlockEnd
  0
BLOCK
  5
246
100
AcDbEntity
  8
0
100
AcDbBlockBegin
 62
7
  6
CONTINUOUS
  2
*D3
 70
65
 10
0.0
 20
0.0
  3
*D3
  1

  0
MTEXT
  5
247
100
AcDbEntity
  8
0
100
AcDbMText
 62
7
  6
CONTINUOUS
  7
STANDARD
 71
3
 72
1
 10
-101.3830896147
 20
59.0962200258
 30
0.0
 11
1.0
 21
0.0
 31
0.0
 73
2
 44
0.9
  1
{\ftxt;\W0.0001;\H0.0001;\~}{\ftxt;\W2.6428571429;\H3.0; }{\ftxt;\W0.0001;\H0.0001;\~}
 40
3.0
 41
11.8928571429
  0
LINE
  5
248
100
AcDbEntity
  8
0
100
AcDbLine
 62
7
  6
CONTINUOUS
 10
-92.1036145148
 20
41.7038975196
 11
-92.1036145148
 21
56.8462200258
  0
LINE
  5
249
100
AcDbEntity
  8
0
100
AcDbLine
 62
7
  6
CONTINUOUS
 10
-99.2536145148
 20
43.8767374102
 11
-99.2536145148
 21
56.8462200258
  0
LINE
  5
24A
100
AcDbEntity
  8
0
100
AcDbLine
 62
7
  6
CONTINUOUS
 10
-92.1036145148
 20
55.3462200258
 11
-95.6786145148
 21
55.3462200258
  0
LINE
  5
24B
100
AcDbEntity
  8
0
100
AcDbLine
 62
7
  6
CONTINUOUS
 10
-99.2536145148
 20
55.3462200258
 11
-95.6786145148
 21
55.3462200258
  0
LINE
  5
24C
100
AcDbEntity
  8
0
100
AcDbLine
 62
7
  6
CONTINUOUS
 10
-95.6786145148
 20
55.3462200258
 11
-109.3116610432
 21
55.3462200258
  0
INSERT
  5
24D
100
AcDbEntity
  8
0
100
AcDbBlockReference
 62
7
  6
CONTINUOUS
  2
_FILLED
 10
-92.1036145148
 20
55.3462200258
 41
3.0
 42
3.0
 43
3.0
  0
INSERT
  5
24E
100
AcDbEntity
  8
0
100
AcDbBlockReference
 62
7
  6
CONTINUOUS
  2
_FILLED
 10
-99.2536145148
 20
55.3462200258
 41
3.0
 42
3.0
 43
3.0
 50
180.0
  0
ENDBLK
  5
24F
100
AcDbEntity
  8
0
  6
BYBLOCK
 62
0
100
AcDbBlockEnd
  0
ENDSEC
  0
SECTION
  2
ENTITIES
  0
DIMENSION
  5
250
100
AcDbEntity
  8
0
100
AcDbDimension
 62
7
  6
CONTINUOUS
  2
*D0
 10
-61.0
 20
54.4879011368
 11
-0.4285714481
 21
54.4879011368
 70
160
 71
2
 72
2
 41
0.9
 42
122.0
  1
{\ftxt;\W0.0001;\H0.0001;\~}{\ftxt;\W2.1428571429;\H3.0; }{\ftxt;\W0.0001;\H0.0001;\~}
  3
DIMSTYLE_1
100
AcDbAlignedDimension
 13
61.0
 23
43.9993911979
 14
-61.0
 24
43.9993911979
 50
180.0
100
AcDbRotatedDimension
  0
DIMENSION
  5
251
100
AcDbEntity
  8
0
100
AcDbDimension
 62
7
  6
CONTINUOUS
  2
*D1
 10
73.1456010772
 20
-45.0
 11
73.1456010772
 21
-0.4285709759
 70
160
 71
2
 72
2
 41
0.9
 42
90.0
  1
{\ftxt;\W0.0001;\H0.0001;\~}{\ftxt;\W1.5714285714;\H3.0; }{\ftxt;\W0.0001;\H0.0001;\~}
  3
DIMSTYLE_1
100
AcDbAlignedDimension
 13
59.9993911979
 23
45.0
 14
59.9993911979
 24
-45.0
 50
270.0
100
AcDbRotatedDimension
  0
DIMENSION
  5
252
100
AcDbEntity
  8
0
100
AcDbDimension
 62
7
  6
CONTINUOUS
  2
*D2
 10
-99.2536145148
 20
65.6244732842
 11
-106.2981653137
 21
65.6244732842
 70
160
 71
3
 72
2
 41
0.9
 42
10.15
  1
{\ftxt;\W0.0001;\H0.0001;\~}{\ftxt;\W3.2142857143;\H3.0; }{\ftxt;\W0.0001;\H0.0001;\~}
  3
DIMSTYLE_1
100
AcDbAlignedDimension
 13
-89.1036145148
 23
26.0463167932
 14
-99.2536145148
 24
43.3767374102
 50
180.0
100
AcDbRotatedDimension
  0
DIMENSION
  5
253
100
AcDbEntity
  8
0
100
AcDbDimension
 62
7
  6
CONTINUOUS
  2
*D3
 10
-99.2536145148
 20
55.3462200258
 11
-105.7759454498
 21
55.3462200258
 70
160
 71
3
 72
2
 41
0.9
 42
7.15
  1
{\ftxt;\W0.0001;\H0.0001;\~}{\ftxt;\W2.6428571429;\H3.0; }{\ftxt;\W0.0001;\H0.0001;\~}
  3
DIMSTYLE_1
100
AcDbAlignedDimension
 13
-92.1036145148
 23
41.2038975196
 14
-99.2536145148
 24
43.3767374102
 50
180.0
100
AcDbRotatedDimension
  0
LINE
  5
254
100
AcDbEntity
  8
0
100
AcDbLine
 62
7
  6
CONTINUOUS
 10
-59.8199854699
 20
44.7906993223
 11
-59.8055596544
 21
44.8061684565
  0
LINE
  5
255
100
AcDbEntity
  8
0
100
AcDbLine
 62
7
  6
CONTINUOUS
 10
-61.0
 20
43.9993911979
 11
-59.9993911979
 21
45.0
  0
LINE
  5
256
100
AcDbEntity
  8
0
100
AcDbLine
 62
7
  6
CONTINUOUS
 10
-59.8199854699
 20
44.7906993223
 11
-60.7906993223
 21
43.8199854699
  0
LINE
  5
257
100
AcDbEntity
  8
0
100
AcDbLine
 62
7
  6
CONTINUOUS
 10
-59.3767374102
 20
43.7712689598
 11
-59.7712689598
 21
43.3767374102
  0
LINE
  5
258
100
AcDbEntity
  8
0
100
AcDbLine
 62
7
  6
CONTINUOUS
 10
-60.8061684565
 20
43.8055596544
 11
-60.7906993223
 21
43.8199854699
  0
LINE
  5
259
100
AcDbEntity
  8
0
100
AcDbLine
 62
7
  6
CONTINUOUS
 10
-60.7906993223
 20
-43.8199854699
 11
-60.8061684565
 21
-43.8055596544
  0
LINE
  5
25A
100
AcDbEntity
  8
0
100
AcDbLine
 62
7
  6
CONTINUOUS
 10
-59.9993911979
 20
-45.0
 11
-61.0
 21
-43.9993911979
  0
LINE
  5
25B
100
AcDbEntity
  8
0
100
AcDbLine
 62
7
  6
CONTINUOUS
 10
-60.7906993223
 20
-43.8199854699
 11
-59.8199854699
 21
-44.7906993223
  0
LINE
  5
25C
100
AcDbEntity
  8
0
100
AcDbLine
 62
7
  6
CONTINUOUS
 10
-59.7712689598
 20
-43.3767374102
 11
-59.3767374102
 21
-43.7712689598
  0
LINE
  5
25D
100
AcDbEntity
  8
0
100
AcDbLine
 62
7
  6
CONTINUOUS
 10
-59.8055596544
 20
-44.8061684565
 11
-59.8199854699
 21
-44.7906993223
  0
LINE
  5
25E
100
AcDbEntity
  8
0
100
AcDbLine
 62
7
  6
CONTINUOUS
 10
-61.0
 20
43.9993911979
 11
-61.0
 21
-43.9993911979
  0
LINE
  5
25F
100
AcDbEntity
  8
0
100
AcDbLine
 62
7
  6
CONTINUOUS
 10
-60.8061684565
 20
43.8055596544
 11
-60.8061684565
 21
-43.8055596544
  0
LINE
  5
260
100
AcDbEntity
  8
0
100
AcDbLine
 62
7
  6
CONTINUOUS
 10
-59.7712689598
 20
43.3767374102
 11
-59.7712689598
 21
-43.3767374102
  0
LINE
  5
261
100
AcDbEntity
  8
0
100
AcDbLine
 62
7
  6
CONTINUOUS
 10
-59.9993911979
 20
-45.0
 11
59.9993911979
 21
-45.0
  0
LINE
  5
262
100
AcDbEntity
  8
0
100
AcDbLine
 62
7
  6
CONTINUOUS
 10
-59.8055596544
 20
-44.8061684565
 11
59.8055596544
 21
-44.8061684565
  0
LWPOLYLINE
  5
263
100
AcDbEntity
  8
0
100
AcDbPolyline
 62
7
  6
CONTINUOUS
 90
3
 70
0
 43
0.3500000006
 10
-3.2142856836
 20
57.380761322
 10
-2.3571427875
 20
58.2378992615
 10
-2.3571427875
 20
55.2379028778
  0
LINE
  5
264
100
AcDbEntity
  8
0
100
AcDbLine
 62
7
  6
CONTINUOUS
 10
-59.3767374102
 20
-43.7712689598
 11
59.3767374102
 21
-43.7712689598
  0
LINE
  5
265
100
AcDbEntity
  8
0
100
AcDbLine
 62
7
  6
CONTINUOUS
 10
-59.3767374102
 20
-43.7712689598
 11
-59.8199854699
 21
-44.7906993223
  0
LINE
  5
266
100
AcDbEntity
  8
CURVE
100
AcDbLine
 62
250
  6
CONTINUOUS
 10
60.860131217
 20
-36.257398
 11
60.9473759453
 21
-36.257398
  0
LINE
  5
267
100
AcDbEntity
  8
CURVE
100
AcDbLine
 62
250
  6
CONTINUOUS
 10
60.9473759453
 20
-35.735605
 11
60.860131217
 21
-35.735605
  0
LINE
  5
268
100
AcDbEntity
  8
0
100
AcDbLine
 62
7
  6
CONTINUOUS
 10
-59.3767374102
 20
43.7712689598
 11
-59.8199854699
 21
44.7906993223
  0
LINE
  5
269
100
AcDbEntity
  8
CURVE
100
AcDbLine
 62
250
  6
CONTINUOUS
 10
60.8611556794
 20
-30.6285551388
 11
60.9473759458
 21
-30.6285551388
  0
LINE
  5
26A
100
AcDbEntity
  8
CURVE
100
AcDbLine
 62
250
  6
CONTINUOUS
 10
60.8989474951
 20
-30.126163664
 11
60.8749985478
 21
-30.126163664
  0
LINE
  5
26B
100
AcDbEntity
  8
CURVE
100
AcDbLine
 62
250
  6
CONTINUOUS
 10
60.9473759458
 20
-30.1088617972
 11
60.9132352194
 21
-30.1088617972
  0
LINE
  5
26C
100
AcDbEntity
  8
CURVE
100
AcDbLine
 62
250
  6
CONTINUOUS
 10
60.9066533149
 20
-29.2870512436
 11
60.9061378054
 21
-29.2870512436
  0
LINE
  5
26D
100
AcDbEntity
  8
0
100
AcDbLine
 62
7
  6
CONTINUOUS
 10
59.7712689598
 20
43.3767374102
 11
60.7906993223
 21
43.8199854699
  0
LINE
  5
26E
100
AcDbEntity
  8
0
100
AcDbLine
 62
7
  6
CONTINUOUS
 10
59.7712689598
 20
-43.3767374102
 11
60.7906993223
 21
-43.8199854699
  0
LINE
  5
26F
100
AcDbEntity
  8
0
100
AcDbLine
 62
7
  6
CONTINUOUS
 10
-60.8061684565
 20
-43.8055596544
 11
-61.0
 21
-43.9993911979
  0
LINE
  5
270
100
AcDbEntity
  8
0
100
AcDbLine
 62
7
  6
CONTINUOUS
 10
-59.8055596544
 20
-44.8061684565
 11
-59.9993911979
 21
-45.0
  0
LINE
  5
271
100
AcDbEntity
  8
0
100
AcDbLine
 62
7
  6
CONTINUOUS
 10
-60.8061684565
 20
43.8055596544
 11
-61.0
 21
43.9993911979
  0
LINE
  5
272
100
AcDbEntity
  8
0
100
AcDbLine
 62
7
  6
CONTINUOUS
 10
-59.8055596544
 20
44.8061684565
 11
-59.9993911979
 21
45.0
  0
LINE
  5
273
100
AcDbEntity
  8
0
100
AcDbLine
 62
7
  6
CONTINUOUS
 10
-8.4
 20
-6.7
 11
-8.4
 21
6.7
  0
LINE
  5
274
100
AcDbEntity
  8
0
100
AcDbLine
 62
7
  6
CONTINUOUS
 10
-7.9
 20
-6.7
 11
-7.9
 21
6.7
  0
LINE
  5
275
100
AcDbEntity
  8
0
100
AcDbLine
 62
250
  6
CONTINUOUS
 10
-6.7
 20
8.4
 11
-6.7
 21
7.9
  0
LINE
  5
276
100
AcDbEntity
  8
0
100
AcDbLine
 62
250
  6
CONTINUOUS
 10
-6.7
 20
-8.4
 11
-6.7
 21
-7.9
  0
LINE
  5
277
100
AcDbEntity
  8
0
100
AcDbLine
 62
7
  6
CONTINUOUS
 10
6.7
 20
-8.4
 11
-6.7
 21
-8.4
  0
LINE
  5
278
100
AcDbEntity
  8
0
100
AcDbLine
 62
7
  6
CONTINUOUS
 10
6.7
 20
-7.9
 11
-6.7
 21
-7.9
  0
LINE
  5
279
100
AcDbEntity
  8
0
100
AcDbLine
 62
250
  6
CONTINUOUS
 10
-8.4
 20
-6.7
 11
-7.9
 21
-6.7
  0
LINE
  5
27A
100
AcDbEntity
  8
0
100
AcDbLine
 62
250
  6
CONTINUOUS
 10
8.4
 20
-6.7
 11
7.9
 21
-6.7
  0
LWPOLYLINE
  5
27B
100
AcDbEntity
  8
0
100
AcDbPolyline
 62
7
  6
CONTINUOUS
 90
13
 70
0
 43
0.3500000006
 10
71.5384565277
 20
-0.0000003204
 10
70.2527450867
 20
-0.0000003204
 10
69.8241715851
 20
0.2142864304
 10
69.3956026154
 20
0.642857666
 10
69.3956026154
 20
0.8571421509
 10
69.8241715851
 20
1.2857133865
 10
70.2527450867
 20
1.5000001373
 10
71.5384565277
 20
1.5000001373
 10
71.9670300293
 20
1.2857133865
 10
72.395598999
 20
0.8571421509
 10
72.395598999
 20
0.642857666
 10
71.9670300293
 20
0.2142864304
 10
71.5384565277
 20
-0.0000003204
  0
LINE
  5
27C
100
AcDbEntity
  8
0
100
AcDbLine
 62
250
  6
CONTINUOUS
 10
6.7
 20
8.4
 11
6.7
 21
7.9
  0
LINE
  5
27D
100
AcDbEntity
  8
0
100
AcDbLine
 62
250
  6
CONTINUOUS
 10
6.7
 20
-8.4
 11
6.7
 21
-7.9
  0
LINE
  5
27E
100
AcDbEntity
  8
0
100
AcDbLine
 62
7
  6
CONTINUOUS
 10
7.9
 20
6.7
 11
7.9
 21
-6.7
  0
LINE
  5
27F
100
AcDbEntity
  8
0
100
AcDbLine
 62
7
  6
CONTINUOUS
 10
8.4
 20
6.7
 11
8.4
 21
-6.7
  0
LINE
  5
280
100
AcDbEntity
  8
0
100
AcDbLine
 62
7
  6
CONTINUOUS
 10
59.8055596544
 20
44.8061684565
 11
59.9993911979
 21
45.0
  0
LINE
  5
281
100
AcDbEntity
  8
0
100
AcDbLine
 62
250
  6
CONTINUOUS
 10
-8.4
 20
6.7
 11
-7.9
 21
6.7
  0
LINE
  5
282
100
AcDbEntity
  8
0
100
AcDbLine
 62
250
  6
CONTINUOUS
 10
8.4
 20
6.7
 11
7.9
 21
6.7
  0
LINE
  5
283
100
AcDbEntity
  8
0
100
AcDbLine
 62
7
  6
CONTINUOUS
 10
-6.7
 20
7.9
 11
6.7
 21
7.9
  0
LINE
  5
284
100
AcDbEntity
  8
0
100
AcDbLine
 62
7
  6
CONTINUOUS
 10
-6.7
 20
8.4
 11
6.7
 21
8.4
  0
LINE
  5
285
100
AcDbEntity
  8
0
100
AcDbLine
 62
7
  6
CONTINUOUS
 10
59.8055596544
 20
-44.8061684565
 11
59.9993911979
 21
-45.0
  0
LINE
  5
286
100
AcDbEntity
  8
0
100
AcDbLine
 62
7
  6
CONTINUOUS
 10
60.8061684565
 20
43.8055596544
 11
61.0
 21
43.9993911979
  0
LINE
  5
287
100
AcDbEntity
  8
0
100
AcDbLine
 62
7
  6
CONTINUOUS
 10
60.8061684565
 20
-43.8055596544
 11
61.0
 21
-43.9993911979
  0
LINE
  5
288
100
AcDbEntity
  8
0
100
AcDbLine
 62
7
  6
CONTINUOUS
 10
-59.7712689598
 20
-43.3767374102
 11
-60.7906993223
 21
-43.8199854699
  0
LINE
  5
289
100
AcDbEntity
  8
0
100
AcDbLine
 62
7
  6
CONTINUOUS
 10
-59.7712689598
 20
43.3767374102
 11
-60.7906993223
 21
43.8199854699
  0
LINE
  5
28A
100
AcDbEntity
  8
0
100
AcDbLine
 62
7
  6
CONTINUOUS
 10
59.3767374102
 20
43.7712689598
 11
59.8199854699
 21
44.7906993223
  0
LINE
  5
28B
100
AcDbEntity
  8
CURVE
100
AcDbLine
 62
250
  6
CONTINUOUS
 10
60.8904101948
 20
-34.842919
 11
60.9473759453
 21
-34.955522
  0
LINE
  5
28C
100
AcDbEntity
  8
0
100
AcDbLine
 62
7
  6
CONTINUOUS
 10
59.3767374102
 20
-43.7712689598
 11
59.8199854699
 21
-44.7906993223
  0
LINE
  5
28D
100
AcDbEntity
  8
0
100
AcDbLine
 62
7
  6
CONTINUOUS
 10
59.3767374102
 20
43.7712689598
 11
-59.3767374102
 21
43.7712689598
  0
LINE
  5
28E
100
AcDbEntity
  8
0
100
AcDbLine
 62
7
  6
CONTINUOUS
 10
59.8055596544
 20
44.8061684565
 11
-59.8055596544
 21
44.8061684565
  0
LINE
  5
28F
100
AcDbEntity
  8
0
100
AcDbLine
 62
7
  6
CONTINUOUS
 10
59.9993911979
 20
45.0
 11
-59.9993911979
 21
45.0
  0
LINE
  5
290
100
AcDbEntity
  8
CURVE
100
AcDbLine
 62
250
  6
CONTINUOUS
 10
60.9473759453
 20
-35.454708
 11
60.860136417
 21
-35.228996
  0
LWPOLYLINE
  5
291
100
AcDbEntity
  8
0
100
AcDbPolyline
 62
7
  6
CONTINUOUS
 90
10
 70
0
 43
0.3500000006
 10
72.395598999
 20
-1.9285708809
 10
71.5384565277
 20
-1.0714295425
 10
70.6813140564
 20
-0.8571427917
 10
69.8241715851
 20
-0.8571427917
 10
69.3956026154
 20
-1.2857140274
 10
69.3956026154
 20
-1.9285708809
 10
69.8241715851
 20
-2.3571432495
 10
70.6813140564
 20
-2.3571432495
 10
71.109887558
 20
-1.9285708809
 10
71.109887558
 20
-1.0000006256
  0
LWPOLYLINE
  5
292
100
AcDbEntity
  8
0
100
AcDbPolyline
 62
7
  6
CONTINUOUS
 90
7
 70
0
 43
0.3500000006
 10
2.3571427875
 20
55.2379028778
 10
0.8571428254
 20
55.2379028778
 10
2.3571427875
 20
57.380761322
 10
2.3571427875
 20
57.8093302917
 10
1.9285714102
 20
58.2378992615
 10
1.2857142735
 20
58.2378992615
 10
0.8571428254
 20
57.5950458069
  0
LWPOLYLINE
  5
293
100
AcDbEntity
  8
0
100
AcDbPolyline
 62
7
  6
CONTINUOUS
 90
7
 70
0
 43
0.3500000006
 10
0.0
 20
55.2379028778
 10
-1.5000000329
 20
55.2379028778
 10
0.0
 20
57.380761322
 10
0.0
 20
57.8093302917
 10
-0.4285714127
 20
58.2378992615
 10
-1.0714285848
 20
58.2378992615
 10
-1.5000000329
 20
57.5950458069
  0
LINE
  5
294
100
AcDbEntity
  8
CURVE
100
AcDbLine
 62
250
  6
CONTINUOUS
 10
60.9201860964
 20
-37.463524
 11
60.860136417
 21
-36.972473
  0
LINE
  5
295
100
AcDbEntity
  8
CURVE
100
AcDbLine
 62
250
  6
CONTINUOUS
 10
60.860136417
 20
-36.451037
 11
60.9473759453
 21
-37.254552
  0
LINE
  5
296
100
AcDbEntity
  8
CURVE
100
AcDbLine
 62
250
  6
CONTINUOUS
 10
60.9085720674
 20
-34.191353
 11
60.860136417
 21
-33.66956
  0
LINE
  5
297
100
AcDbEntity
  8
CURVE
100
AcDbLine
 62
250
  6
CONTINUOUS
 10
60.890647651
 20
-33.5372
 11
60.9473759453
 21
-34.157611
  0
LINE
  5
298
100
AcDbEntity
  8
0
100
AcDbLine
 62
7
  6
CONTINUOUS
 10
59.7712689598
 20
-43.3767374102
 11
59.7712689598
 21
43.3767374102
  0
LINE
  5
299
100
AcDbEntity
  8
0
100
AcDbLine
 62
7
  6
CONTINUOUS
 10
60.8061684565
 20
-43.8055596544
 11
60.8061684565
 21
43.8055596544
  0
LINE
  5
29A
100
AcDbEntity
  8
CURVE
100
AcDbLine
 62
250
  6
CONTINUOUS
 10
60.860131217
 20
-35.735605
 11
60.860131217
 21
-36.257398
  0
LINE
  5
29B
100
AcDbEntity
  8
CURVE
100
AcDbLine
 62
250
  6
CONTINUOUS
 10
60.860136417
 20
-38.506847
 11
60.860136417
 21
-37.940019
  0
LINE
  5
29C
100
AcDbEntity
  8
CURVE
100
AcDbLine
 62
250
  6
CONTINUOUS
 10
60.860136417
 20
-36.972473
 11
60.860136417
 21
-36.451037
  0
LINE
  5
29D
100
AcDbEntity
  8
CURVE
100
AcDbLine
 62
250
  6
CONTINUOUS
 10
60.860136417
 20
-35.228996
 11
60.860136417
 21
-34.707635
  0
LINE
  5
29E
100
AcDbEntity
  8
CURVE
100
AcDbLine
 62
250
  6
CONTINUOUS
 10
60.860136417
 20
-33.66956
 11
60.860136417
 21
-33.153297
  0
LINE
  5
29F
100
AcDbEntity
  8
CURVE
100
AcDbLine
 62
250
  6
CONTINUOUS
 10
60.860136417
 20
-32.053532
 11
60.860136417
 21
-31.54876
  0
LINE
  5
2A0
100
AcDbEntity
  8
CURVE
100
AcDbLine
 62
250
  6
CONTINUOUS
 10
60.8989474951
 20
-29.8279642095
 11
60.8989474951
 21
-30.126163664
  0
LINE
  5
2A1
100
AcDbEntity
  8
CURVE
100
AcDbLine
 62
250
  6
CONTINUOUS
 10
60.9132352194
 20
-30.1088617972
 11
60.9132352194
 21
-29.8290889245
  0
LINE
  5
2A2
100
AcDbEntity
  8
CURVE
100
AcDbLine
 62
250
  6
CONTINUOUS
 10
60.9164833296
 20
-32.070759
 11
60.9164833296
 21
-31.571179
  0
LINE
  5
2A3
100
AcDbEntity
  8
CURVE
100
AcDbLine
 62
250
  6
CONTINUOUS
 10
60.92995984
 20
-31.466899
 11
60.92995984
 21
-32.177494
  0
LINE
  5
2A4
100
AcDbEntity
  8
CURVE
100
AcDbLine
 62
250
  6
CONTINUOUS
 10
60.9473759453
 20
-36.257398
 11
60.9473759453
 21
-35.735605
  0
LINE
  5
2A5
100
AcDbEntity
  8
CURVE
100
AcDbLine
 62
250
  6
CONTINUOUS
 10
60.9473759458
 20
-30.6285551388
 11
60.9473759458
 21
-30.1088617972
  0
LINE
  5
2A6
100
AcDbEntity
  8
CURVE
100
AcDbLine
 62
250
  6
CONTINUOUS
 10
60.9473759458
 20
-29.3098079785
 11
60.9473759458
 21
-28.8079038802
  0
LINE
  5
2A7
100
AcDbEntity
  8
CURVE
100
AcDbLine
 62
250
  6
CONTINUOUS
 10
60.9473759453
 20
-30.781779
 11
60.9473759453
 21
-31.331727
  0
LINE
  5
2A8
100
AcDbEntity
  8
CURVE
100
AcDbLine
 62
250
  6
CONTINUOUS
 10
60.9473759453
 20
-32.321477
 11
60.9473759453
 21
-32.837608
  0
LINE
  5
2A9
100
AcDbEntity
  8
CURVE
100
AcDbLine
 62
250
  6
CONTINUOUS
 10
60.9473759453
 20
-32.919544
 11
60.9473759453
 21
-33.429996
  0
LINE
  5
2AA
100
AcDbEntity
  8
CURVE
100
AcDbLine
 62
250
  6
CONTINUOUS
 10
60.9473759453
 20
-34.157611
 11
60.9473759453
 21
-34.230793
  0
LINE
  5
2AB
100
AcDbEntity
  8
CURVE
100
AcDbLine
 62
250
  6
CONTINUOUS
 10
60.9473759453
 20
-34.955522
 11
60.9473759453
 21
-35.454708
  0
LINE
  5
2AC
100
AcDbEntity
  8
CURVE
100
AcDbLine
 62
250
  6
CONTINUOUS
 10
60.9473759453
 20
-37.254552
 11
60.9473759453
 21
-37.714382
  0
LINE
  5
2AD
100
AcDbEntity
  8
0
100
AcDbLine
 62
7
  6
CONTINUOUS
 10
61.0
 20
-43.9993911979
 11
61.0
 21
43.9993911979
  0
LINE
  5
2AE
100
AcDbEntity
  8
CURVE
100
AcDbLine
 62
250
  6
CONTINUOUS
 10
60.8841076249
 20
-31.81095
 11
60.9164833296
 21
-32.070759
  0
LINE
  5
2AF
100
AcDbEntity
  8
CURVE
100
AcDbLine
 62
250
  6
CONTINUOUS
 10
60.92995984
 20
-32.177494
 11
60.9473759453
 21
-32.321477
  0
LINE
  5
2B0
100
AcDbEntity
  8
CURVE
100
AcDbLine
 62
250
  6
CONTINUOUS
 10
60.9473759453
 20
-32.837608
 11
60.860136417
 21
-32.053532
  0
LINE
  5
2B1
100
AcDbEntity
  8
CURVE
100
AcDbLine
 62
250
  6
CONTINUOUS
 10
60.9473759453
 20
-34.230793
 11
60.8904101948
 21
-34.842919
  0
LINE
  5
2B2
100
AcDbEntity
  8
CURVE
100
AcDbLine
 62
250
  6
CONTINUOUS
 10
60.860136417
 20
-34.707635
 11
60.9085720674
 21
-34.191353
  0
LINE
  5
2B3
100
AcDbEntity
  8
CURVE
100
AcDbLine
 62
250
  6
CONTINUOUS
 10
60.9473759453
 20
-37.714382
 11
60.860136417
 21
-38.506847
  0
LINE
  5
2B4
100
AcDbEntity
  8
CURVE
100
AcDbLine
 62
250
  6
CONTINUOUS
 10
60.860136417
 20
-31.54876
 11
60.9473759453
 21
-30.781779
  0
LINE
  5
2B5
100
AcDbEntity
  8
CURVE
100
AcDbLine
 62
250
  6
CONTINUOUS
 10
60.860136417
 20
-37.940019
 11
60.9201860964
 21
-37.463524
  0
LINE
  5
2B6
100
AcDbEntity
  8
CURVE
100
AcDbLine
 62
250
  6
CONTINUOUS
 10
60.9473759453
 20
-31.331727
 11
60.92995984
 21
-31.466899
  0
LINE
  5
2B7
100
AcDbEntity
  8
CURVE
100
AcDbLine
 62
250
  6
CONTINUOUS
 10
60.9164833296
 20
-31.571179
 11
60.8841076249
 21
-31.81095
  0
LINE
  5
2B8
100
AcDbEntity
  8
CURVE
100
AcDbLine
 62
7
  6
CONTINUOUS
 10
60.9403230847
 20
-28.8611763
 11
60.9473759458
 21
-28.8541234389
  0
LINE
  5
2B9
100
AcDbEntity
  8
CURVE
100
AcDbLine
 62
7
  6
CONTINUOUS
 10
60.9130351519
 20
-29.0984749469
 11
60.9473759458
 21
-29.0641341529
  0
LINE
  5
2BA
100
AcDbEntity
  8
CURVE
100
AcDbLine
 62
7
  6
CONTINUOUS
 10
60.8664942614
 20
-29.1450158374
 11
60.9014044164
 21
-29.1101056824
  0
LINE
  5
2BB
100
AcDbEntity
  8
CURVE
100
AcDbLine
 62
7
  6
CONTINUOUS
 10
60.8618693599
 20
-29.3596514529
 11
60.9473759458
 21
-29.274144867
  0
LINE
  5
2BC
100
AcDbEntity
  8
CURVE
100
AcDbLine
 62
7
  6
CONTINUOUS
 10
60.8600810983
 20
-29.5714504285
 11
60.876596684
 21
-29.5549348428
  0
LINE
  5
2BD
100
AcDbEntity
  8
CURVE
100
AcDbLine
 62
7
  6
CONTINUOUS
 10
60.8956825097
 20
-29.5358490171
 11
60.9239482785
 21
-29.5075832483
  0
LINE
  5
2BE
100
AcDbEntity
  8
CURVE
100
AcDbLine
 62
7
  6
CONTINUOUS
 10
60.8987066428
 20
-29.742835598
 11
60.9138426981
 21
-29.7276995427
  0
LINE
  5
2BF
100
AcDbEntity
  8
CURVE
100
AcDbLine
 62
7
  6
CONTINUOUS
 10
60.8593194135
 20
-29.7822228273
 11
60.8743228778
 21
-29.7672193631
  0
LINE
  5
2C0
100
AcDbEntity
  8
CURVE
100
AcDbLine
 62
7
  6
CONTINUOUS
 10
60.8591438682
 20
-29.9924090866
 11
60.8743312878
 21
-29.977221667
  0
LINE
  5
2C1
100
AcDbEntity
  8
CURVE
100
AcDbLine
 62
7
  6
CONTINUOUS
 10
60.8989474951
 20
-29.9526054597
 11
60.9132352194
 21
-29.9383177355
  0
LINE
  5
2C2
100
AcDbEntity
  8
CURVE
100
AcDbLine
 62
7
  6
CONTINUOUS
 10
60.8594624149
 20
-30.202101254
 11
60.9473759458
 21
-30.114187723
  0
LINE
  5
2C3
100
AcDbEntity
  8
CURVE
100
AcDbLine
 62
7
  6
CONTINUOUS
 10
60.8601645785
 20
-30.4114098043
 11
60.9473759458
 21
-30.324198437
  0
LINE
  5
2C4
100
AcDbEntity
  8
CURVE
100
AcDbLine
 62
7
  6
CONTINUOUS
 10
60.8611167529
 20
-30.620468344
 11
60.9473759458
 21
-30.534209151
  0
LINE
  5
2C5
100
AcDbEntity
  8
CURVE
100
AcDbLine
 62
7
  6
CONTINUOUS
 10
60.925243127
 20
-30.9763633979
 11
60.9473759453
 21
-30.9542305796
  0
LINE
  5
2C6
100
AcDbEntity
  8
CURVE
100
AcDbLine
 62
7
  6
CONTINUOUS
 10
60.8982898861
 20
-31.2133273528
 11
60.9473759453
 21
-31.1642412936
  0
LINE
  5
2C7
100
AcDbEntity
  8
CURVE
100
AcDbLine
 62
7
  6
CONTINUOUS
 10
60.8713366452
 20
-31.4502913077
 11
60.9410864936
 21
-31.3805414593
  0
LINE
  5
2C8
100
AcDbEntity
  8
CURVE
100
AcDbLine
 62
7
  6
CONTINUOUS
 10
60.9164833296
 20
-31.6151553374
 11
60.92995984
 21
-31.6016788269
  0
LINE
  5
2C9
100
AcDbEntity
  8
CURVE
100
AcDbLine
 62
7
  6
CONTINUOUS
 10
60.860136417
 20
-31.67150225
 11
60.9096183479
 21
-31.6220203191
  0
LINE
  5
2CA
100
AcDbEntity
  8
CURVE
100
AcDbLine
 62
7
  6
CONTINUOUS
 10
60.9164833296
 20
-31.8251660514
 11
60.92995984
 21
-31.8116895409
  0
LINE
  5
2CB
100
AcDbEntity
  8
CURVE
100
AcDbLine
 62
7
  6
CONTINUOUS
 10
60.860136417
 20
-31.881512964
 11
60.8892702529
 21
-31.8523791281
  0
LINE
  5
2CC
100
AcDbEntity
  8
CURVE
100
AcDbLine
 62
7
  6
CONTINUOUS
 10
60.9164833296
 20
-32.0351767654
 11
60.92995984
 21
-32.0217002549
  0
LINE
  5
2CD
100
AcDbEntity
  8
CURVE
100
AcDbLine
 62
7
  6
CONTINUOUS
 10
60.8639402928
 20
-32.0877198022
 11
60.9125406183
 21
-32.0391194766
  0
LINE
  5
2CE
100
AcDbEntity
  8
CURVE
100
AcDbLine
 62
7
  6
CONTINUOUS
 10
60.8849673892
 20
-32.2767034198
 11
60.9358102345
 21
-32.2258605744
  0
LINE
  5
2CF
100
AcDbEntity
  8
CURVE
100
AcDbLine
 62
7
  6
CONTINUOUS
 10
60.9059944856
 20
-32.4656870373
 11
60.9473759453
 21
-32.4243055777
  0
LINE
  5
2D0
100
AcDbEntity
  8
CURVE
100
AcDbLine
 62
7
  6
CONTINUOUS
 10
60.9270215821
 20
-32.6546706549
 11
60.9473759453
 21
-32.6343162917
  0
LINE
  5
2D1
100
AcDbEntity
  8
CURVE
100
AcDbLine
 62
250
  6
CONTINUOUS
 10
60.860136417
 20
-33.153297
 11
60.9473759453
 21
-32.919544
  0
LINE
  5
2D2
100
AcDbEntity
  8
CURVE
100
AcDbLine
 62
250
  6
CONTINUOUS
 10
60.9473759453
 20
-33.429996
 11
60.890647651
 21
-33.5372
  0
LINE
  5
2D3
100
AcDbEntity
  8
0
100
AcDbLine
 62
7
  6
CONTINUOUS
 10
59.8199854699
 20
-44.7906993223
 11
59.8055596544
 21
-44.8061684565
  0
LINE
  5
2D4
100
AcDbEntity
  8
CURVE
100
AcDbLine
 62
7
  6
CONTINUOUS
 10
60.8671147898
 20
-33.1345988752
 11
60.9473759453
 21
-33.0543377198
  0
LINE
  5
2D5
100
AcDbEntity
  8
CURVE
100
AcDbLine
 62
7
  6
CONTINUOUS
 10
60.860136417
 20
-33.3515879621
 11
60.9473759453
 21
-33.2643484338
  0
LINE
  5
2D6
100
AcDbEntity
  8
CURVE
100
AcDbLine
 62
7
  6
CONTINUOUS
 10
60.860136417
 20
-33.5615986761
 11
60.8975173912
 21
-33.5242177019
  0
LINE
  5
2D7
100
AcDbEntity
  8
CURVE
100
AcDbLine
 62
7
  6
CONTINUOUS
 10
60.8688045689
 20
-33.7629412381
 11
60.907729505
 21
-33.724016302
  0
LINE
  5
2D8
100
AcDbEntity
  8
CURVE
100
AcDbLine
 62
7
  6
CONTINUOUS
 10
60.8866430369
 20
-33.9551134842
 11
60.9253234472
 21
-33.9164330739
  0
LINE
  5
2D9
100
AcDbEntity
  8
CURVE
100
AcDbLine
 62
7
  6
CONTINUOUS
 10
60.9044815049
 20
-34.1472857302
 11
60.9429173894
 21
-34.1088498457
  0
LINE
  5
2DA
100
AcDbEntity
  8
CURVE
100
AcDbLine
 62
7
  6
CONTINUOUS
 10
60.8918156053
 20
-34.3699623438
 11
60.9387967113
 21
-34.3229812378
  0
LINE
  5
2DB
100
AcDbEntity
  8
CURVE
100
AcDbLine
 62
7
  6
CONTINUOUS
 10
60.8700734126
 20
-34.6017152505
 11
60.9172472255
 21
-34.5545414376
  0
LINE
  5
2DC
100
AcDbEntity
  8
CURVE
100
AcDbLine
 62
7
  6
CONTINUOUS
 10
60.860136417
 20
-34.8216629601
 11
60.8956977397
 21
-34.7861016374
  0
LINE
  5
2DD
100
AcDbEntity
  8
CURVE
100
AcDbLine
 62
7
  6
CONTINUOUS
 10
60.860136417
 20
-35.0316736742
 11
60.9436510376
 21
-34.9481590535
  0
LINE
  5
2DE
100
AcDbEntity
  8
CURVE
100
AcDbLine
 62
7
  6
CONTINUOUS
 10
60.8636734791
 20
-35.238147326
 11
60.9473759453
 21
-35.1544448599
  0
LINE
  5
2DF
100
AcDbEntity
  8
CURVE
100
AcDbLine
 62
7
  6
CONTINUOUS
 10
60.9222168444
 20
-35.3896146748
 11
60.9473759453
 21
-35.3644555739
  0
LINE
  5
2E0
100
AcDbEntity
  8
CURVE
100
AcDbLine
 62
7
  6
CONTINUOUS
 10
60.860131217
 20
-35.8717217302
 11
60.9473759453
 21
-35.7844770019
  0
LINE
  5
2E1
100
AcDbEntity
  8
CURVE
100
AcDbLine
 62
7
  6
CONTINUOUS
 10
60.860131217
 20
-36.0817324442
 11
60.9473759453
 21
-35.9944877159
  0
LINE
  5
2E2
100
AcDbEntity
  8
CURVE
100
AcDbLine
 62
7
  6
CONTINUOUS
 10
60.8944763752
 20
-36.257398
 11
60.9473759453
 21
-36.2044984299
  0
LINE
  5
2E3
100
AcDbEntity
  8
CURVE
100
AcDbLine
 62
7
  6
CONTINUOUS
 10
60.860136417
 20
-36.5017486722
 11
60.8651030629
 21
-36.4967820263
  0
LINE
  5
2E4
100
AcDbEntity
  8
CURVE
100
AcDbLine
 62
7
  6
CONTINUOUS
 10
60.860136417
 20
-36.7117593863
 11
60.8856712835
 21
-36.6862245197
  0
LINE
  5
2E5
100
AcDbEntity
  8
CURVE
100
AcDbLine
 62
7
  6
CONTINUOUS
 10
60.860136417
 20
-36.9217701003
 11
60.9062395041
 21
-36.8756670131
  0
LINE
  5
2E6
100
AcDbEntity
  8
CURVE
100
AcDbLine
 62
7
  6
CONTINUOUS
 10
60.8774951021
 20
-37.1144221291
 11
60.9268077247
 21
-37.0651095066
  0
LINE
  5
2E7
100
AcDbEntity
  8
CURVE
100
AcDbLine
 62
7
  6
CONTINUOUS
 10
60.9003785362
 20
-37.3015494091
 11
60.9473759453
 21
-37.254552
  0
LINE
  5
2E8
100
AcDbEntity
  8
CURVE
100
AcDbLine
 62
7
  6
CONTINUOUS
 10
60.9161156553
 20
-37.495823004
 11
60.9473759453
 21
-37.464562714
  0
LINE
  5
2E9
100
AcDbEntity
  8
CURVE
100
AcDbLine
 62
7
  6
CONTINUOUS
 10
60.8858329857
 20
-37.7361163876
 11
60.9473759453
 21
-37.674573428
  0
LINE
  5
2EA
100
AcDbEntity
  8
CURVE
100
AcDbLine
 62
7
  6
CONTINUOUS
 10
60.860136417
 20
-37.9718236703
 11
60.9263211831
 21
-37.9056389042
  0
LINE
  5
2EB
100
AcDbEntity
  8
CURVE
100
AcDbLine
 62
7
  6
CONTINUOUS
 10
60.860136417
 20
-38.1818343843
 11
60.9003419235
 21
-38.1416288779
  0
LINE
  5
2EC
100
AcDbEntity
  8
CURVE
100
AcDbLine
 62
7
  6
CONTINUOUS
 10
60.860136417
 20
-38.3918450984
 11
60.8743626638
 21
-38.3776188515
  0
LINE
  5
2ED
100
AcDbEntity
  8
0
100
AcDbLine
 62
7
  6
CONTINUOUS
 10
59.3767374102
 20
-43.7712689598
 11
59.7712689598
 21
-43.3767374102
  0
LINE
  5
2EE
100
AcDbEntity
  8
0
100
AcDbLine
 62
7
  6
CONTINUOUS
 10
59.8199854699
 20
-44.7906993223
 11
60.7906993223
 21
-43.8199854699
  0
LINE
  5
2EF
100
AcDbEntity
  8
0
100
AcDbLine
 62
7
  6
CONTINUOUS
 10
61.0
 20
-43.9993911979
 11
59.9993911979
 21
-45.0
  0
LINE
  5
2F0
100
AcDbEntity
  8
0
100
AcDbLine
 62
7
  6
CONTINUOUS
 10
60.8061684565
 20
-43.8055596544
 11
60.7906993223
 21
-43.8199854699
  0
LINE
  5
2F1
100
AcDbEntity
  8
0
100
AcDbLine
 62
7
  6
CONTINUOUS
 10
60.7906993223
 20
43.8199854699
 11
60.8061684565
 21
43.8055596544
  0
LINE
  5
2F2
100
AcDbEntity
  8
0
100
AcDbLine
 62
7
  6
CONTINUOUS
 10
59.7712689598
 20
43.3767374102
 11
59.3767374102
 21
43.7712689598
  0
LINE
  5
2F3
100
AcDbEntity
  8
0
100
AcDbLine
 62
7
  6
CONTINUOUS
 10
60.7906993223
 20
43.8199854699
 11
59.8199854699
 21
44.7906993223
  0
LINE
  5
2F4
100
AcDbEntity
  8
0
100
AcDbLine
 62
7
  6
CONTINUOUS
 10
59.9993911979
 20
45.0
 11
61.0
 21
43.9993911979
  0
LINE
  5
2F5
100
AcDbEntity
  8
0
100
AcDbLine
 62
7
  6
CONTINUOUS
 10
59.8055596544
 20
44.8061684565
 11
59.8199854699
 21
44.7906993223
  0
LWPOLYLINE
  5
2F6
100
AcDbEntity
  8
0
100
AcDbPolyline
 62
7
  6
CONTINUOUS
 90
3
 70
0
 43
0.3500000006
 10
-110.6910244446
 20
68.5173277588
 10
-109.8338774414
 20
69.374474762
 10
-109.8338774414
 20
66.3744738464
  0
LWPOLYLINE
  5
2F7
100
AcDbEntity
  8
0
100
AcDbPolyline
 62
7
  6
CONTINUOUS
 90
3
 70
0
 43
0.3500000006
 10
-104.9053070984
 20
68.5173277588
 10
-104.0481691589
 20
69.374474762
 10
-104.0481691589
 20
66.3744738464
  0
LWPOLYLINE
  5
2F8
100
AcDbEntity
  8
0
100
AcDbPolyline
 62
7
  6
CONTINUOUS
 90
3
 70
0
 43
0.3500000006
 10
-105.2402297058
 20
58.2390775452
 10
-104.3830917664
 20
59.0962245483
 10
-104.3830917664
 20
56.0962236328
  0
LINE
  5
2F9
100
AcDbEntity
  8
0
100
AcDbLine
 62
7
  6
CONTINUOUS
 10
-98.2542236878
 20
-44.8061684565
 11
-92.7036145148
 21
-45.0
  0
LINE
  5
2FA
100
AcDbEntity
  8
0
100
AcDbLine
 62
7
  6
CONTINUOUS
 10
-98.2542236878
 20
-43.8055596544
 11
-92.7036145148
 21
-43.9993911979
  0
LINE
  5
2FB
100
AcDbEntity
  8
0
100
AcDbLine
 62
7
  6
CONTINUOUS
 10
-92.7036145148
 20
-42.7580439128
 11
-92.1036145148
 21
-42.8
  0
LINE
  5
2FC
100
AcDbEntity
  8
0
100
AcDbLine
 62
7
  6
CONTINUOUS
 10
-99.2536145148
 20
43.3767374102
 11
-98.269162057
 21
43.8199854699
  0
LINE
  5
2FD
100
AcDbEntity
  8
0
100
AcDbLine
 62
250
  6
CONTINUOUS
 10
-92.7036145148
 20
-41.1619414324
 11
-92.1036145148
 21
-41.2038975196
  0
LINE
  5
2FE
100
AcDbEntity
  8
0
100
AcDbLine
 62
7
  6
CONTINUOUS
 10
-99.2536145148
 20
-43.3767374102
 11
-98.269162057
 21
-43.8199854699
  0
LINE
  5
2FF
100
AcDbEntity
  8
CURVE
100
AcDbLine
 62
250
  6
CONTINUOUS
 10
-96.7087835033
 20
-37.940019
 11
-94.9891856744
 21
-37.463524
  0
LINE
  5
300
100
AcDbEntity
  8
CURVE
100
AcDbLine
 62
250
  6
CONTINUOUS
 10
-96.7089324126
 20
-36.257398
 11
-94.210570275
 21
-36.257398
  0
LINE
  5
301
100
AcDbEntity
  8
CURVE
100
AcDbLine
 62
250
  6
CONTINUOUS
 10
-94.9891856744
 20
-37.463524
 11
-96.7087835033
 21
-36.972473
  0
LINE
  5
302
100
AcDbEntity
  8
0
100
AcDbLine
 62
7
  6
CONTINUOUS
 10
-98.2542236878
 20
44.8061684565
 11
-99.2536145148
 21
43.7712689598
  0
LINE
  5
303
100
AcDbEntity
  8
CURVE
100
AcDbLine
 62
250
  6
CONTINUOUS
 10
-94.210570275
 20
-33.429996
 11
-95.8350560789
 21
-33.5372
  0
LINE
  5
304
100
AcDbEntity
  8
CURVE
100
AcDbLine
 62
250
  6
CONTINUOUS
 10
-94.210570275
 20
-35.735605
 11
-96.7089324126
 21
-35.735605
  0
LINE
  5
305
100
AcDbEntity
  8
CURVE
100
AcDbLine
 62
250
  6
CONTINUOUS
 10
-95.8418559341
 20
-34.842919
 11
-94.210570275
 21
-34.955522
  0
LINE
  5
306
100
AcDbEntity
  8
CURVE
100
AcDbLine
 62
250
  6
CONTINUOUS
 10
-94.210570275
 20
-35.454708
 11
-96.7087835033
 21
-35.228996
  0
LINE
  5
307
100
AcDbEntity
  8
CURVE
100
AcDbLine
 62
250
  6
CONTINUOUS
 10
-96.7087835033
 20
-36.451037
 11
-94.210570275
 21
-37.254552
  0
LINE
  5
308
100
AcDbEntity
  8
0
100
AcDbLine
 62
7
  6
CONTINUOUS
 10
-99.2536145148
 20
-43.7712689598
 11
-98.2542236878
 21
-44.8061684565
  0
LWPOLYLINE
  5
309
100
AcDbEntity
  8
0
100
AcDbPolyline
 62
7
  6
CONTINUOUS
 90
3
 70
0
 43
0.3500000006
 10
-105.9053074036
 20
66.6601895142
 10
-105.9767385864
 20
66.4459050293
 10
-106.1195918884
 20
66.1601893616
  0
LINE
  5
30A
100
AcDbEntity
  8
CURVE
100
AcDbLine
 62
250
  6
CONTINUOUS
 10
-94.210570275
 20
-31.331727
 11
-94.7093022757
 21
-31.466899
  0
LINE
  5
30B
100
AcDbEntity
  8
CURVE
100
AcDbLine
 62
250
  6
CONTINUOUS
 10
-95.0952190423
 20
-31.571179
 11
-96.0223379223
 21
-31.81095
  0
LINE
  5
30C
100
AcDbEntity
  8
CURVE
100
AcDbLine
 62
250
  6
CONTINUOUS
 10
-96.7087835033
 20
-33.153297
 11
-94.210570275
 21
-32.919544
  0
LINE
  5
30D
100
AcDbEntity
  8
CURVE
100
AcDbLine
 62
250
  6
CONTINUOUS
 10
-96.6795956472
 20
-30.6285551388
 11
-94.2105702585
 21
-30.6285551388
  0
LINE
  5
30E
100
AcDbEntity
  8
CURVE
100
AcDbLine
 62
250
  6
CONTINUOUS
 10
-95.5973796401
 20
-30.126163664
 11
-96.283187762
 21
-30.126163664
  0
LINE
  5
30F
100
AcDbEntity
  8
CURVE
100
AcDbLine
 62
250
  6
CONTINUOUS
 10
-94.2105702585
 20
-30.1088617972
 11
-95.1882327492
 21
-30.1088617972
  0
LINE
  5
310
100
AcDbEntity
  8
CURVE
100
AcDbLine
 62
250
  6
CONTINUOUS
 10
-96.0223379223
 20
-31.81095
 11
-95.0952190423
 21
-32.070759
  0
LINE
  5
311
100
AcDbEntity
  8
CURVE
100
AcDbLine
 62
250
  6
CONTINUOUS
 10
-94.7093022757
 20
-32.177494
 11
-94.210570275
 21
-32.321477
  0
LINE
  5
312
100
AcDbEntity
  8
CURVE
100
AcDbLine
 62
250
  6
CONTINUOUS
 10
-94.210570275
 20
-32.837608
 11
-96.7087835033
 21
-32.053532
  0
LINE
  5
313
100
AcDbEntity
  8
CURVE
100
AcDbLine
 62
250
  6
CONTINUOUS
 10
-95.3217679508
 20
-34.191353
 11
-96.7087835033
 21
-33.66956
  0
LINE
  5
314
100
AcDbEntity
  8
CURVE
100
AcDbLine
 62
250
  6
CONTINUOUS
 10
-95.8350560789
 20
-33.5372
 11
-94.210570275
 21
-34.157611
  0
LWPOLYLINE
  5
315
100
AcDbEntity
  8
0
100
AcDbPolyline
 62
7
  6
CONTINUOUS
 90
3
 70
0
 43
0.3500000006
 10
-106.240230011
 20
56.3819302368
 10
-106.3116611938
 20
56.167645752
 10
-106.4545144958
 20
55.8819300842
  0
LINE
  5
316
100
AcDbEntity
  8
0
100
AcDbLine
 62
7
  6
CONTINUOUS
 10
-91.1036145148
 20
-27.15
 11
-92.1036145148
 21
-27.151745331
  0
LINE
  5
317
100
AcDbEntity
  8
0
100
AcDbLine
 62
250
  6
CONTINUOUS
 10
-91.1778419311
 20
-26.9276792439
 11
-92.1036145148
 21
-26.9280974384
  0
LINE
  5
318
100
AcDbEntity
  8
CURVE
100
AcDbLine
 62
250
  6
CONTINUOUS
 10
-95.3767138329
 20
-29.2870512436
 11
-95.3914760926
 21
-29.2870512436
  0
LINE
  5
319
100
AcDbEntity
  8
0
100
AcDbLine
 62
7
  6
CONTINUOUS
 10
-89.6535652826
 20
-26.3415638603
 11
-92.1036145148
 21
-26.3558178298
  0
LINE
  5
31A
100
AcDbEntity
  8
0
100
AcDbLine
 62
250
  6
CONTINUOUS
 10
-89.6535652826
 20
-26.2536973817
 11
-92.1036145148
 21
-26.2679513512
  0
LINE
  5
31B
100
AcDbEntity
  8
0
100
AcDbLine
 62
7
  6
CONTINUOUS
 10
-89.1036145148
 20
-26.1523612067
 11
-89.2241772819
 21
-26.1523612067
  0
LINE
  5
31C
100
AcDbEntity
  8
0
100
AcDbLine
 62
7
  6
CONTINUOUS
 10
-91.1534901359
 20
-25.2
 11
-92.1036145148
 21
-25.2
  0
LINE
  5
31D
100
AcDbEntity
  8
0
100
AcDbLine
 62
7
  6
CONTINUOUS
 10
-92.1036145148
 20
-25.05
 11
-91.9536145148
 21
-25.05
  0
LINE
  5
31E
100
AcDbEntity
  8
0
100
AcDbLine
 62
7
  6
CONTINUOUS
 10
-91.6536145148
 20
-25.05
 11
-91.4536145148
 21
-25.05
  0
LINE
  5
31F
100
AcDbEntity
  8
0
100
AcDbLine
 62
7
  6
CONTINUOUS
 10
-89.1036145148
 20
-25.3523612067
 11
-89.6255511691
 21
-25.3478063346
  0
LINE
  5
320
100
AcDbEntity
  8
0
100
AcDbLine
 62
7
  6
CONTINUOUS
 10
-92.1036145148
 20
-25.7558198745
 11
-89.2931473236
 21
-25.8799866677
  0
LINE
  5
321
100
AcDbEntity
  8
0
100
AcDbLine
 62
7
  6
CONTINUOUS
 10
-89.1036145148
 20
-25.4
 11
-91.0539864169
 21
-25.2049628098
  0
LWPOLYLINE
  5
322
100
AcDbEntity
  8
0
100
AcDbPolyline
 62
7
  6
CONTINUOUS
 90
4
 70
0
 43
0.3500000006
 10
-109.3116621094
 20
58.45336203
 10
-109.3116621094
 20
59.0962245483
 10
-107.8116616516
 20
59.0962245483
 10
-108.6687995911
 20
56.0962236328
  0
LWPOLYLINE
  5
323
100
AcDbEntity
  8
0
100
AcDbPolyline
 62
7
  6
CONTINUOUS
 90
13
 70
0
 43
0.3500000006
 10
-108.976739502
 20
67.2316117859
 10
-108.976739502
 20
68.5173277588
 10
-108.7624550171
 20
68.9459057922
 10
-108.3338860474
 20
69.374474762
 10
-108.1195924988
 20
69.374474762
 10
-107.6910235291
 20
68.9459057922
 10
-107.4767390442
 20
68.5173277588
 10
-107.4767390442
 20
67.2316117859
 10
-107.6910235291
 20
66.8030428162
 10
-108.1195924988
 20
66.3744738464
 10
-108.3338860474
 20
66.3744738464
 10
-108.7624550171
 20
66.8030428162
 10
-108.976739502
 20
67.2316117859
  0
LINE
  5
324
100
AcDbEntity
  8
0
100
AcDbLine
 62
7
  6
CONTINUOUS
 10
-91.9536145148
 20
25.05
 11
-91.8036145148
 21
25.2
  0
LINE
  5
325
100
AcDbEntity
  8
0
100
AcDbLine
 62
7
  6
CONTINUOUS
 10
-91.4536145148
 20
25.05
 11
-91.3036145148
 21
25.2
  0
LINE
  5
326
100
AcDbEntity
  8
0
100
AcDbLine
 62
7
  6
CONTINUOUS
 10
-91.9536145148
 20
-25.05
 11
-91.8036145148
 21
-25.2
  0
LINE
  5
327
100
AcDbEntity
  8
0
100
AcDbLine
 62
7
  6
CONTINUOUS
 10
-91.4536145148
 20
-25.05
 11
-91.3036145148
 21
-25.2
  0
LINE
  5
328
100
AcDbEntity
  8
0
100
AcDbLine
 62
7
  6
CONTINUOUS
 10
-99.2536145148
 20
-43.7712689598
 11
-99.2536145148
 21
43.7712689598
  0
LINE
  5
329
100
AcDbEntity
  8
0
100
AcDbLine
 62
7
  6
CONTINUOUS
 10
-98.269162057
 20
-44.7906993223
 11
-98.269162057
 21
-43.8199854699
  0
LINE
  5
32A
100
AcDbEntity
  8
0
100
AcDbLine
 62
7
  6
CONTINUOUS
 10
-98.269162057
 20
43.8199854699
 11
-98.269162057
 21
44.7906993223
  0
LINE
  5
32B
100
AcDbEntity
  8
0
100
AcDbLine
 62
7
  6
CONTINUOUS
 10
-98.2542236878
 20
-43.8055596544
 11
-98.2542236878
 21
43.8055596544
  0
LINE
  5
32C
100
AcDbEntity
  8
0
100
AcDbLine
 62
250
  6
CONTINUOUS
 10
-91.8536145148
 20
-2.6214065094
 11
-92.1036145148
 21
-2.6214065094
  0
LINE
  5
32D
100
AcDbEntity
  8
CURVE
100
AcDbLine
 62
250
  6
CONTINUOUS
 10
-96.7089324126
 20
-35.735605
 11
-96.7089324126
 21
-36.257398
  0
LINE
  5
32E
100
AcDbEntity
  8
CURVE
100
AcDbLine
 62
250
  6
CONTINUOUS
 10
-96.7087835033
 20
-38.506847
 11
-96.7087835033
 21
-37.940019
  0
LINE
  5
32F
100
AcDbEntity
  8
CURVE
100
AcDbLine
 62
250
  6
CONTINUOUS
 10
-96.7087835033
 20
-36.972473
 11
-96.7087835033
 21
-36.451037
  0
LINE
  5
330
100
AcDbEntity
  8
CURVE
100
AcDbLine
 62
250
  6
CONTINUOUS
 10
-96.7087835033
 20
-35.228996
 11
-96.7087835033
 21
-34.707635
  0
LINE
  5
331
100
AcDbEntity
  8
CURVE
100
AcDbLine
 62
250
  6
CONTINUOUS
 10
-96.7087835033
 20
-33.66956
 11
-96.7087835033
 21
-33.153297
  0
LINE
  5
332
100
AcDbEntity
  8
CURVE
100
AcDbLine
 62
250
  6
CONTINUOUS
 10
-96.7087835033
 20
-32.053532
 11
-96.7087835033
 21
-31.54876
  0
LINE
  5
333
100
AcDbEntity
  8
CURVE
100
AcDbLine
 62
250
  6
CONTINUOUS
 10
-95.5973796401
 20
-29.8279642095
 11
-95.5973796401
 21
-30.126163664
  0
LINE
  5
334
100
AcDbEntity
  8
CURVE
100
AcDbLine
 62
250
  6
CONTINUOUS
 10
-95.1882327492
 20
-30.1088617972
 11
-95.1882327492
 21
-29.8290889245
  0
LINE
  5
335
100
AcDbEntity
  8
CURVE
100
AcDbLine
 62
250
  6
CONTINUOUS
 10
-95.0952190423
 20
-32.070759
 11
-95.0952190423
 21
-31.571179
  0
LINE
  5
336
100
AcDbEntity
  8
CURVE
100
AcDbLine
 62
250
  6
CONTINUOUS
 10
-94.7093022757
 20
-31.466899
 11
-94.7093022757
 21
-32.177494
  0
LINE
  5
337
100
AcDbEntity
  8
CURVE
100
AcDbLine
 62
250
  6
CONTINUOUS
 10
-94.210570275
 20
-36.257398
 11
-94.210570275
 21
-35.735605
  0
LINE
  5
338
100
AcDbEntity
  8
CURVE
100
AcDbLine
 62
250
  6
CONTINUOUS
 10
-94.210570275
 20
-30.781779
 11
-94.210570275
 21
-31.331727
  0
LINE
  5
339
100
AcDbEntity
  8
CURVE
100
AcDbLine
 62
250
  6
CONTINUOUS
 10
-94.210570275
 20
-32.321477
 11
-94.210570275
 21
-32.837608
  0
LINE
  5
33A
100
AcDbEntity
  8
CURVE
100
AcDbLine
 62
250
  6
CONTINUOUS
 10
-94.210570275
 20
-32.919544
 11
-94.210570275
 21
-33.429996
  0
LINE
  5
33B
100
AcDbEntity
  8
CURVE
100
AcDbLine
 62
250
  6
CONTINUOUS
 10
-94.210570275
 20
-34.157611
 11
-94.210570275
 21
-34.230793
  0
LINE
  5
33C
100
AcDbEntity
  8
CURVE
100
AcDbLine
 62
250
  6
CONTINUOUS
 10
-94.210570275
 20
-34.955522
 11
-94.210570275
 21
-35.454708
  0
LINE
  5
33D
100
AcDbEntity
  8
CURVE
100
AcDbLine
 62
250
  6
CONTINUOUS
 10
-94.210570275
 20
-37.254552
 11
-94.210570275
 21
-37.714382
  0
LINE
  5
33E
100
AcDbEntity
  8
CURVE
100
AcDbLine
 62
250
  6
CONTINUOUS
 10
-94.2105702585
 20
-30.6285551388
 11
-94.2105702585
 21
-30.1088617972
  0
LINE
  5
33F
100
AcDbEntity
  8
CURVE
100
AcDbLine
 62
250
  6
CONTINUOUS
 10
-94.2105702585
 20
-29.3098079785
 11
-94.2105702585
 21
-28.8079038802
  0
LINE
  5
340
100
AcDbEntity
  8
0
100
AcDbLine
 62
250
  6
CONTINUOUS
 10
-91.1777774603
 20
-27.1500750675
 11
-91.1778419311
 21
-26.9276792439
  0
LINE
  5
341
100
AcDbEntity
  8
0
100
AcDbLine
 62
7
  6
CONTINUOUS
 10
-92.7036145148
 20
-45.0
 11
-92.7036145148
 21
45.0
  0
LINE
  5
342
100
AcDbEntity
  8
0
100
AcDbLine
 62
7
  6
CONTINUOUS
 10
-92.1036145148
 20
-42.8
 11
-92.1036145148
 21
42.8
  0
LINE
  5
343
100
AcDbEntity
  8
0
100
AcDbLine
 62
7
  6
CONTINUOUS
 10
-91.8536145148
 20
2.6214065094
 11
-91.8536145148
 21
-2.6214065094
  0
LINE
  5
344
100
AcDbEntity
  8
0
100
AcDbLine
 62
250
  6
CONTINUOUS
 10
-91.1778419311
 20
26.9276792439
 11
-91.177777488
 21
27.1501232425
  0
LINE
  5
345
100
AcDbEntity
  8
0
100
AcDbLine
 62
250
  6
CONTINUOUS
 10
-91.8536145148
 20
2.6214065094
 11
-92.1036145148
 21
2.6214065094
  0
LINE
  5
346
100
AcDbEntity
  8
0
100
AcDbLine
 62
250
  6
CONTINUOUS
 10
-89.3879137279
 20
25.3715700787
 11
-89.3879137279
 21
25.3498801651
  0
LINE
  5
347
100
AcDbEntity
  8
0
100
AcDbLine
 62
250
  6
CONTINUOUS
 10
-89.3879137279
 20
-25.3498801651
 11
-89.3879137279
 21
-25.3715700787
  0
LINE
  5
348
100
AcDbEntity
  8
0
100
AcDbLine
 62
250
  6
CONTINUOUS
 10
-89.2931473236
 20
25.8799866677
 11
-89.2931473236
 21
25.3810467191
  0
LINE
  5
349
100
AcDbEntity
  8
0
100
AcDbLine
 62
250
  6
CONTINUOUS
 10
-89.2931473236
 20
-25.3810467191
 11
-89.2931473236
 21
-25.8799866677
  0
LINE
  5
34A
100
AcDbEntity
  8
0
100
AcDbLine
 62
7
  6
CONTINUOUS
 10
-89.1036145148
 20
26.1523612067
 11
-89.1036145148
 21
25.3523612067
  0
LINE
  5
34B
100
AcDbEntity
  8
0
100
AcDbLine
 62
7
  6
CONTINUOUS
 10
-89.1036145148
 20
-25.3523612067
 11
-89.1036145148
 21
-26.1523612067
  0
LWPOLYLINE
  5
34C
100
AcDbEntity
  8
0
100
AcDbPolyline
 62
7
  6
CONTINUOUS
 90
10
 70
0
 43
0.3500000006
 10
-106.3116611938
 20
56.5962237854
 10
-106.240230011
 20
56.4533614197
 10
-106.240230011
 20
56.3819302368
 10
-106.3830923767
 20
56.2390769348
 10
-106.4545144958
 20
56.2390769348
 10
-106.5259456787
 20
56.3105081177
 10
-106.5259456787
 20
56.3819302368
 10
-106.4545144958
 20
56.5247926025
 10
-106.3830923767
 20
56.5962237854
 10
-106.3116611938
 20
56.5962237854
  0
LINE
  5
34D
100
AcDbEntity
  8
CURVE
100
AcDbLine
 62
7
  6
CONTINUOUS
 10
-96.6826982635
 20
-29.4361550019
 11
-96.2036642149
 21
-28.9571209534
  0
LINE
  5
34E
100
AcDbEntity
  8
CURVE
100
AcDbLine
 62
7
  6
CONTINUOUS
 10
-96.7255654853
 20
-29.6890329377
 11
-95.9711069056
 21
-28.934574358
  0
LINE
  5
34F
100
AcDbEntity
  8
CURVE
100
AcDbLine
 62
7
  6
CONTINUOUS
 10
-96.7370834454
 20
-29.9105616119
 11
-95.7907429486
 21
-28.9642211151
  0
LINE
  5
350
100
AcDbEntity
  8
CURVE
100
AcDbLine
 62
7
  6
CONTINUOUS
 10
-96.7330037621
 20
-30.1164926426
 11
-96.2897002904
 21
-29.6731891708
  0
LINE
  5
351
100
AcDbEntity
  8
CURVE
100
AcDbLine
 62
7
  6
CONTINUOUS
 10
-96.0463552046
 20
-29.4298440851
 11
-95.6425913019
 21
-29.0260801824
  0
LINE
  5
352
100
AcDbEntity
  8
0
100
AcDbLine
 62
7
  6
CONTINUOUS
 10
-91.8036145148
 20
-25.2
 11
-91.6536145148
 21
-25.05
  0
LINE
  5
353
100
AcDbEntity
  8
CURVE
100
AcDbLine
 62
7
  6
CONTINUOUS
 10
-96.7188839923
 20
-30.3123835868
 11
-96.3063998584
 21
-29.8998994529
  0
LINE
  5
354
100
AcDbEntity
  8
CURVE
100
AcDbLine
 62
7
  6
CONTINUOUS
 10
-95.8485801589
 20
-29.4420797533
 11
-95.5215238162
 21
-29.1150234107
  0
LINE
  5
355
100
AcDbEntity
  8
CURVE
100
AcDbLine
 62
7
  6
CONTINUOUS
 10
-96.6972159812
 20
-30.5007262896
 11
-96.28859853
 21
-30.0921088385
  0
LINE
  5
356
100
AcDbEntity
  8
CURVE
100
AcDbLine
 62
7
  6
CONTINUOUS
 10
-95.7117992211
 20
-29.5153095296
 11
-95.4217893225
 21
-29.225299631
  0
LINE
  5
357
100
AcDbEntity
  8
CURVE
100
AcDbLine
 62
7
  6
CONTINUOUS
 10
-96.6150341163
 20
-30.6285551388
 11
-96.1126426415
 21
-30.126163664
  0
LINE
  5
358
100
AcDbEntity
  8
CURVE
100
AcDbLine
 62
7
  6
CONTINUOUS
 10
-95.6285457622
 20
-29.6420667847
 11
-95.0066148276
 21
-29.0201358501
  0
LINE
  5
359
100
AcDbEntity
  8
CURVE
100
AcDbLine
 62
7
  6
CONTINUOUS
 10
-96.4050234023
 20
-30.6285551388
 11
-95.9026319275
 21
-30.126163664
  0
LINE
  5
35A
100
AcDbEntity
  8
CURVE
100
AcDbLine
 62
7
  6
CONTINUOUS
 10
-95.5976704652
 20
-29.8212022018
 11
-94.7177741609
 21
-28.9413058974
  0
LINE
  5
35B
100
AcDbEntity
  8
CURVE
100
AcDbLine
 62
7
  6
CONTINUOUS
 10
-96.1950126883
 20
-30.6285551388
 11
-95.6926212135
 21
-30.126163664
  0
LINE
  5
35C
100
AcDbEntity
  8
CURVE
100
AcDbLine
 62
7
  6
CONTINUOUS
 10
-95.5973796401
 20
-30.0309220906
 11
-94.4329561585
 21
-28.866498609
  0
LINE
  5
35D
100
AcDbEntity
  8
CURVE
100
AcDbLine
 62
7
  6
CONTINUOUS
 10
-95.9850019743
 20
-30.6285551388
 11
-95.1882327492
 21
-29.8317859137
  0
LINE
  5
35E
100
AcDbEntity
  8
CURVE
100
AcDbLine
 62
7
  6
CONTINUOUS
 10
-94.8551409968
 20
-29.4986941614
 11
-94.2105702585
 21
-28.854123423
  0
LINE
  5
35F
100
AcDbEntity
  8
CURVE
100
AcDbLine
 62
7
  6
CONTINUOUS
 10
-96.7087835033
 20
-31.5623473819
 11
-96.6891765571
 21
-31.5427404357
  0
LINE
  5
360
100
AcDbEntity
  8
CURVE
100
AcDbLine
 62
7
  6
CONTINUOUS
 10
-95.7749912602
 20
-30.6285551388
 11
-95.1882327492
 21
-30.0417966277
  0
LINE
  5
361
100
AcDbEntity
  8
CURVE
100
AcDbLine
 62
7
  6
CONTINUOUS
 10
-94.5571962222
 20
-29.4107601008
 11
-94.2105702585
 21
-29.064134137
  0
LINE
  5
362
100
AcDbEntity
  8
CURVE
100
AcDbLine
 62
7
  6
CONTINUOUS
 10
-96.7087835033
 20
-31.7723580959
 11
-96.3861256231
 21
-31.4497002157
  0
LINE
  5
363
100
AcDbEntity
  8
CURVE
100
AcDbLine
 62
7
  6
CONTINUOUS
 10
-95.5649805462
 20
-30.6285551388
 11
-95.0452872047
 21
-30.1088617972
  0
LINE
  5
364
100
AcDbEntity
  8
CURVE
100
AcDbLine
 62
7
  6
CONTINUOUS
 10
-94.2609383561
 20
-29.3245129487
 11
-94.2105702585
 21
-29.274144851
  0
LINE
  5
365
100
AcDbEntity
  8
CURVE
100
AcDbLine
 62
7
  6
CONTINUOUS
 10
-96.7087835033
 20
-31.9823688099
 11
-96.083074689
 21
-31.3566599956
  0
LINE
  5
366
100
AcDbEntity
  8
CURVE
100
AcDbLine
 62
7
  6
CONTINUOUS
 10
-95.3549698322
 20
-30.6285551388
 11
-94.8352764907
 21
-30.1088617972
  0
LINE
  5
367
100
AcDbEntity
  8
CURVE
100
AcDbLine
 62
7
  6
CONTINUOUS
 10
-96.6031039922
 20
-32.0867000128
 11
-95.780023755
 21
-31.2636197756
  0
LINE
  5
368
100
AcDbEntity
  8
CURVE
100
AcDbLine
 62
7
  6
CONTINUOUS
 10
-95.1449591182
 20
-30.6285551388
 11
-94.6252657766
 21
-30.1088617972
  0
LINE
  5
369
100
AcDbEntity
  8
CURVE
100
AcDbLine
 62
7
  6
CONTINUOUS
 10
-96.4432608135
 20
-32.1368675481
 11
-95.476972821
 21
-31.1705795556
  0
LINE
  5
36A
100
AcDbEntity
  8
CURVE
100
AcDbLine
 62
7
  6
CONTINUOUS
 10
-94.9349484042
 20
-30.6285551388
 11
-94.4152550626
 21
-30.1088617972
  0
LINE
  5
36B
100
AcDbEntity
  8
CURVE
100
AcDbLine
 62
7
  6
CONTINUOUS
 10
-96.2834176347
 20
-32.1870350833
 11
-95.9325063053
 21
-31.836123754
  0
LINE
  5
36C
100
AcDbEntity
  8
CURVE
100
AcDbLine
 62
7
  6
CONTINUOUS
 10
-95.8672146524
 20
-31.770832101
 11
-95.1739218869
 21
-31.0775393356
  0
LINE
  5
36D
100
AcDbEntity
  8
CURVE
100
AcDbLine
 62
7
  6
CONTINUOUS
 10
-94.7249376902
 20
-30.6285551388
 11
-94.2105702585
 21
-30.1141877071
  0
LINE
  5
36E
100
AcDbEntity
  8
CURVE
100
AcDbLine
 62
7
  6
CONTINUOUS
 10
-96.123574456
 20
-32.2372026186
 11
-95.7684652534
 21
-31.8820934161
  0
LINE
  5
36F
100
AcDbEntity
  8
CURVE
100
AcDbLine
 62
7
  6
CONTINUOUS
 10
-95.5839448503
 20
-31.6975730129
 11
-94.8708709529
 21
-30.9844991155
  0
LINE
  5
370
100
AcDbEntity
  8
CURVE
100
AcDbLine
 62
7
  6
CONTINUOUS
 10
-94.5149269762
 20
-30.6285551388
 11
-94.2105702585
 21
-30.3241984211
  0
LINE
  5
371
100
AcDbEntity
  8
0
100
AcDbLine
 62
7
  6
CONTINUOUS
 10
-91.8036145148
 20
25.2
 11
-91.6536145148
 21
25.05
  0
LWPOLYLINE
  5
372
100
AcDbEntity
  8
0
100
AcDbPolyline
 62
7
  6
CONTINUOUS
 90
10
 70
0
 43
0.3500000006
 10
-105.9767385864
 20
66.874473999
 10
-105.9053074036
 20
66.7316116333
 10
-105.9053074036
 20
66.6601895142
 10
-106.0481697693
 20
66.5173271484
 10
-106.1195918884
 20
66.5173271484
 10
-106.1910230713
 20
66.5887583313
 10
-106.1910230713
 20
66.6601895142
 10
-106.1195918884
 20
66.8030428162
 10
-106.0481697693
 20
66.874473999
 10
-105.9767385864
 20
66.874473999
  0
LINE
  5
373
100
AcDbEntity
  8
CURVE
100
AcDbLine
 62
7
  6
CONTINUOUS
 10
-95.9637312772
 20
-32.2873701539
 11
-95.6044242015
 21
-31.9280630782
  0
LINE
  5
374
100
AcDbEntity
  8
CURVE
100
AcDbLine
 62
7
  6
CONTINUOUS
 10
-95.3006750482
 20
-31.6243139248
 11
-94.5678200189
 21
-30.8914588955
  0
LINE
  5
375
100
AcDbEntity
  8
CURVE
100
AcDbLine
 62
7
  6
CONTINUOUS
 10
-94.3049162622
 20
-30.6285551388
 11
-94.2105702585
 21
-30.5342091351
  0
LINE
  5
376
100
AcDbEntity
  8
CURVE
100
AcDbLine
 62
7
  6
CONTINUOUS
 10
-96.7087835033
 20
-33.242433094
 11
-96.6104461749
 21
-33.1440957656
  0
LINE
  5
377
100
AcDbEntity
  8
CURVE
100
AcDbLine
 62
7
  6
CONTINUOUS
 10
-95.8038880985
 20
-32.3375376891
 11
-95.4403831496
 21
-31.9740327403
  0
LINE
  5
378
100
AcDbEntity
  8
CURVE
100
AcDbLine
 62
7
  6
CONTINUOUS
 10
-95.0952190423
 20
-31.628868633
 11
-94.2647690848
 21
-30.7984186755
  0
LINE
  5
379
100
AcDbEntity
  8
CURVE
100
AcDbLine
 62
7
  6
CONTINUOUS
 10
-96.7087835033
 20
-33.452443808
 11
-96.3787567254
 21
-33.12241703
  0
LINE
  5
37A
100
AcDbEntity
  8
CURVE
100
AcDbLine
 62
7
  6
CONTINUOUS
 10
-95.6440449197
 20
-32.3877052244
 11
-95.2763420977
 21
-32.0200024024
  0
LINE
  5
37B
100
AcDbEntity
  8
CURVE
100
AcDbLine
 62
7
  6
CONTINUOUS
 10
-95.0952190423
 20
-31.838879347
 11
-94.210570275
 21
-30.9542305796
  0
LINE
  5
37C
100
AcDbEntity
  8
CURVE
100
AcDbLine
 62
7
  6
CONTINUOUS
 10
-96.7087835033
 20
-33.662454522
 11
-96.1470672758
 21
-33.1007382945
  0
LINE
  5
37D
100
AcDbEntity
  8
CURVE
100
AcDbLine
 62
7
  6
CONTINUOUS
 10
-95.484201741
 20
-32.4378727596
 11
-95.1123010459
 21
-32.0659720645
  0
LINE
  5
37E
100
AcDbEntity
  8
CURVE
100
AcDbLine
 62
7
  6
CONTINUOUS
 10
-95.0952190423
 20
-32.048890061
 11
-94.7093022757
 21
-31.6629732944
  0
LINE
  5
37F
100
AcDbEntity
  8
CURVE
100
AcDbLine
 62
7
  6
CONTINUOUS
 10
-94.4403273474
 20
-31.3939983661
 11
-94.210570275
 21
-31.1642412936
  0
LINE
  5
380
100
AcDbEntity
  8
CURVE
100
AcDbLine
 62
7
  6
CONTINUOUS
 10
-96.5613445589
 20
-33.7250262916
 11
-95.9153778263
 21
-33.079059559
  0
LINE
  5
381
100
AcDbEntity
  8
CURVE
100
AcDbLine
 62
7
  6
CONTINUOUS
 10
-95.3243585622
 20
-32.4880402949
 11
-94.7093022757
 21
-31.8729840084
  0
LINE
  5
382
100
AcDbEntity
  8
CURVE
100
AcDbLine
 62
7
  6
CONTINUOUS
 10
-96.4087424941
 20
-33.7824349408
 11
-95.6836883767
 21
-33.0573808234
  0
LINE
  5
383
100
AcDbEntity
  8
CURVE
100
AcDbLine
 62
7
  6
CONTINUOUS
 10
-95.1645153834
 20
-32.5382078302
 11
-94.7093022757
 21
-32.0829947224
  0
LINE
  5
384
100
AcDbEntity
  8
CURVE
100
AcDbLine
 62
7
  6
CONTINUOUS
 10
-96.2561404292
 20
-33.8398435899
 11
-95.4519989272
 21
-33.0357020879
  0
LINE
  5
385
100
AcDbEntity
  8
CURVE
100
AcDbLine
 62
7
  6
CONTINUOUS
 10
-95.0046722047
 20
-32.5883753654
 11
-94.6196680681
 21
-32.2033712288
  0
LINE
  5
386
100
AcDbEntity
  8
CURVE
100
AcDbLine
 62
7
  6
CONTINUOUS
 10
-96.1035383643
 20
-33.8972522391
 11
-95.7687928594
 21
-33.5625067341
  0
LINE
  5
387
100
AcDbEntity
  8
CURVE
100
AcDbLine
 62
7
  6
CONTINUOUS
 10
-95.7370162228
 20
-33.5307300975
 11
-95.2203094776
 21
-33.0140233523
  0
LINE
  5
388
100
AcDbEntity
  8
CURVE
100
AcDbLine
 62
7
  6
CONTINUOUS
 10
-94.8448290259
 20
-32.6385429007
 11
-94.456704603
 21
-32.2504184778
  0
LINE
  5
389
100
AcDbEntity
  8
CURVE
100
AcDbLine
 62
7
  6
CONTINUOUS
 10
-96.7087835033
 20
-34.7125080921
 11
-96.7010210202
 21
-34.704745609
  0
LINE
  5
38A
100
AcDbEntity
  8
CURVE
100
AcDbLine
 62
7
  6
CONTINUOUS
 10
-95.9509362995
 20
-33.9546608882
 11
-95.6168217652
 21
-33.6205463539
  0
LINE
  5
38B
100
AcDbEntity
  8
CURVE
100
AcDbLine
 62
7
  6
CONTINUOUS
 10
-95.5121671389
 20
-33.5158917277
 11
-94.9886200281
 21
-32.9923446168
  0
LINE
  5
38C
100
AcDbEntity
  8
CURVE
100
AcDbLine
 62
7
  6
CONTINUOUS
 10
-94.6849858472
 20
-32.6887104359
 11
-94.293741138
 21
-32.2974657267
  0
LINE
  5
38D
100
AcDbEntity
  8
CURVE
100
AcDbLine
 62
7
  6
CONTINUOUS
 10
-96.7087835033
 20
-34.9225188061
 11
-96.3664891469
 21
-34.5802244496
  0
LINE
  5
38E
100
AcDbEntity
  8
CURVE
100
AcDbLine
 62
7
  6
CONTINUOUS
 10
-95.7983342346
 20
-34.0120695374
 11
-95.464850671
 21
-33.6785859738
  0
LINE
  5
38F
100
AcDbEntity
  8
CURVE
100
AcDbLine
 62
7
  6
CONTINUOUS
 10
-95.287318055
 20
-33.5010533578
 11
-94.7569305785
 21
-32.9706658813
  0
LINE
  5
390
100
AcDbEntity
  8
CURVE
100
AcDbLine
 62
7
  6
CONTINUOUS
 10
-94.5251426684
 20
-32.7388779712
 11
-94.210570275
 21
-32.4243055777
  0
LINE
  5
391
100
AcDbEntity
  8
CURVE
100
AcDbLine
 62
7
  6
CONTINUOUS
 10
-96.7087835033
 20
-35.1325295201
 11
-96.0319572735
 21
-34.4557032903
  0
LINE
  5
392
100
AcDbEntity
  8
CURVE
100
AcDbLine
 62
7
  6
CONTINUOUS
 10
-95.6457321698
 20
-34.0694781865
 11
-95.3128795769
 21
-33.7366255936
  0
LINE
  5
393
100
AcDbEntity
  8
CURVE
100
AcDbLine
 62
7
  6
CONTINUOUS
 10
-95.0624689712
 20
-33.4862149879
 11
-94.525241129
 21
-32.9489871457
  0
LINE
  5
394
100
AcDbEntity
  8
CURVE
100
AcDbLine
 62
7
  6
CONTINUOUS
 10
-94.3652994897
 20
-32.7890455065
 11
-94.210570275
 21
-32.6343162917
  0
LINE
  5
395
100
AcDbEntity
  8
CURVE
100
AcDbLine
 62
7
  6
CONTINUOUS
 10
-96.6046478594
 20
-35.2384045902
 11
-95.6974254001
 21
-34.3311821309
  0
LINE
  5
396
100
AcDbEntity
  8
CURVE
100
AcDbLine
 62
7
  6
CONTINUOUS
 10
-95.4931301049
 20
-34.1268868357
 11
-95.1609084827
 21
-33.7946652135
  0
LINE
  5
397
100
AcDbEntity
  8
CURVE
100
AcDbLine
 62
7
  6
CONTINUOUS
 10
-94.8376198873
 20
-33.4713766181
 11
-94.2935516794
 21
-32.9273084102
  0
LINE
  5
398
100
AcDbEntity
  8
CURVE
100
AcDbLine
 62
7
  6
CONTINUOUS
 10
-96.4120392157
 20
-35.2558066605
 11
-95.3628935268
 21
-34.2066609716
  0
LINE
  5
399
100
AcDbEntity
  8
CURVE
100
AcDbLine
 62
7
  6
CONTINUOUS
 10
-95.3405280401
 20
-34.1842954848
 11
-95.0089373885
 21
-33.8527048333
  0
LINE
  5
39A
100
AcDbEntity
  8
CURVE
100
AcDbLine
 62
7
  6
CONTINUOUS
 10
-94.6127708034
 20
-33.4565382482
 11
-94.210570275
 21
-33.0543377198
  0
LINE
  5
39B
100
AcDbEntity
  8
CURVE
100
AcDbLine
 62
7
  6
CONTINUOUS
 10
-96.7089324126
 20
-35.7627105714
 11
-96.6818268412
 21
-35.735605
  0
LINE
  5
39C
100
AcDbEntity
  8
CURVE
100
AcDbLine
 62
7
  6
CONTINUOUS
 10
-96.219430572
 20
-35.2732087308
 11
-95.792544658
 21
-34.8463228169
  0
LINE
  5
39D
100
AcDbEntity
  8
CURVE
100
AcDbLine
 62
7
  6
CONTINUOUS
 10
-95.7574791887
 20
-34.8112573475
 11
-94.8569662944
 21
-33.9107444532
  0
LINE
  5
39E
100
AcDbEntity
  8
CURVE
100
AcDbLine
 62
7
  6
CONTINUOUS
 10
-94.3879217196
 20
-33.4416998784
 11
-94.210570275
 21
-33.2643484338
  0
LINE
  5
39F
100
AcDbEntity
  8
CURVE
100
AcDbLine
 62
7
  6
CONTINUOUS
 10
-96.7089324126
 20
-35.9727212854
 11
-96.4718161272
 21
-35.735605
  0
LINE
  5
3A0
100
AcDbEntity
  8
CURVE
100
AcDbLine
 62
7
  6
CONTINUOUS
 10
-96.0268219282
 20
-35.290610801
 11
-95.596094349
 21
-34.8598832218
  0
LINE
  5
3A1
100
AcDbEntity
  8
CURVE
100
AcDbLine
 62
7
  6
CONTINUOUS
 10
-95.4213321847
 20
-34.6851210575
 11
-94.7049952002
 21
-33.968784073
  0
LINE
  5
3A2
100
AcDbEntity
  8
CURVE
100
AcDbLine
 62
7
  6
CONTINUOUS
 10
-96.7089324126
 20
-36.1827319994
 11
-96.2618054132
 21
-35.735605
  0
LINE
  5
3A3
100
AcDbEntity
  8
CURVE
100
AcDbLine
 62
7
  6
CONTINUOUS
 10
-95.8342132845
 20
-35.3080128713
 11
-95.3996440399
 21
-34.8734436268
  0
LINE
  5
3A4
100
AcDbEntity
  8
CURVE
100
AcDbLine
 62
7
  6
CONTINUOUS
 10
-95.0851851807
 20
-34.5589847675
 11
-94.553024106
 21
-34.0268236929
  0
LINE
  5
3A5
100
AcDbEntity
  8
CURVE
100
AcDbLine
 62
7
  6
CONTINUOUS
 10
-96.5735876992
 20
-36.257398
 11
-96.0517946992
 21
-35.735605
  0
LINE
  5
3A6
100
AcDbEntity
  8
CURVE
100
AcDbLine
 62
7
  6
CONTINUOUS
 10
-95.6416046408
 20
-35.3254149416
 11
-95.2031937309
 21
-34.8870040317
  0
LINE
  5
3A7
100
AcDbEntity
  8
CURVE
100
AcDbLine
 62
7
  6
CONTINUOUS
 10
-94.7490381767
 20
-34.4328484775
 11
-94.4010530119
 21
-34.0848633127
  0
LINE
  5
3A8
100
AcDbEntity
  8
CURVE
100
AcDbLine
 62
7
  6
CONTINUOUS
 10
-96.7087835033
 20
-36.6026045182
 11
-96.594101751
 21
-36.4879227659
  0
LINE
  5
3A9
100
AcDbEntity
  8
CURVE
100
AcDbLine
 62
7
  6
CONTINUOUS
 10
-96.3635769851
 20
-36.257398
 11
-95.8417839851
 21
-35.735605
  0
LINE
  5
3AA
100
AcDbEntity
  8
CURVE
100
AcDbLine
 62
7
  6
CONTINUOUS
 10
-95.4489959971
 20
-35.3428170119
 11
-95.0067434219
 21
-34.9005644367
  0
LINE
  5
3AB
100
AcDbEntity
  8
CURVE
100
AcDbLine
 62
7
  6
CONTINUOUS
 10
-94.4128911726
 20
-34.3067121875
 11
-94.2490819177
 21
-34.1429029325
  0
LINE
  5
3AC
100
AcDbEntity
  8
CURVE
100
AcDbLine
 62
7
  6
CONTINUOUS
 10
-96.7087835033
 20
-36.8126152322
 11
-96.4351996526
 21
-36.5390313815
  0
LINE
  5
3AD
100
AcDbEntity
  8
CURVE
100
AcDbLine
 62
7
  6
CONTINUOUS
 10
-96.1535662711
 20
-36.257398
 11
-95.6317732711
 21
-35.735605
  0
LINE
  5
3AE
100
AcDbEntity
  8
CURVE
100
AcDbLine
 62
7
  6
CONTINUOUS
 10
-95.2563873533
 20
-35.3602190822
 11
-94.8102931128
 21
-34.9141248417
  0
LINE
  5
3AF
100
AcDbEntity
  8
CURVE
100
AcDbLine
 62
7
  6
CONTINUOUS
 10
-96.6697710214
 20
-36.9836134643
 11
-96.2762975542
 21
-36.5901399971
  0
LINE
  5
3B0
100
AcDbEntity
  8
CURVE
100
AcDbLine
 62
7
  6
CONTINUOUS
 10
-95.9435555571
 20
-36.257398
 11
-95.4217625571
 21
-35.735605
  0
LINE
  5
3B1
100
AcDbEntity
  8
CURVE
100
AcDbLine
 62
7
  6
CONTINUOUS
 10
-95.0637787096
 20
-35.3776211525
 11
-94.6138428038
 21
-34.9276852466
  0
LINE
  5
3B2
100
AcDbEntity
  8
CURVE
100
AcDbLine
 62
7
  6
CONTINUOUS
 10
-96.506409947
 20
-37.0302631039
 11
-96.1173954558
 21
-36.6412486127
  0
LINE
  5
3B3
100
AcDbEntity
  8
CURVE
100
AcDbLine
 62
7
  6
CONTINUOUS
 10
-95.7335448431
 20
-36.257398
 11
-95.2117518431
 21
-35.735605
  0
LINE
  5
3B4
100
AcDbEntity
  8
CURVE
100
AcDbLine
 62
7
  6
CONTINUOUS
 10
-94.8711700659
 20
-35.3950232228
 11
-94.4173924947
 21
-34.9412456516
  0
LINE
  5
3B5
100
AcDbEntity
  8
CURVE
100
AcDbLine
 62
7
  6
CONTINUOUS
 10
-96.3430488726
 20
-37.0769127435
 11
-95.9584933574
 21
-36.6923572283
  0
LINE
  5
3B6
100
AcDbEntity
  8
CURVE
100
AcDbLine
 62
7
  6
CONTINUOUS
 10
-95.5235341291
 20
-36.257398
 11
-95.0017411291
 21
-35.735605
  0
LINE
  5
3B7
100
AcDbEntity
  8
CURVE
100
AcDbLine
 62
7
  6
CONTINUOUS
 10
-94.6785614222
 20
-35.4124252931
 11
-94.2209421857
 21
-34.9548060566
  0
LINE
  5
3B8
100
AcDbEntity
  8
CURVE
100
AcDbLine
 62
7
  6
CONTINUOUS
 10
-96.1796877982
 20
-37.1235623831
 11
-95.799591259
 21
-36.7434658439
  0
LINE
  5
3B9
100
AcDbEntity
  8
CURVE
100
AcDbLine
 62
7
  6
CONTINUOUS
 10
-95.3135234151
 20
-36.257398
 11
-94.7917304151
 21
-35.735605
  0
LINE
  5
3BA
100
AcDbEntity
  8
CURVE
100
AcDbLine
 62
7
  6
CONTINUOUS
 10
-94.4859527784
 20
-35.4298273633
 11
-94.210570275
 21
-35.1544448599
  0
LINE
  5
3BB
100
AcDbEntity
  8
CURVE
100
AcDbLine
 62
7
  6
CONTINUOUS
 10
-96.0163267237
 20
-37.1702120227
 11
-95.6406891606
 21
-36.7945744595
  0
LINE
  5
3BC
100
AcDbEntity
  8
CURVE
100
AcDbLine
 62
7
  6
CONTINUOUS
 10
-95.1035127011
 20
-36.257398
 11
-94.5817197011
 21
-35.735605
  0
LINE
  5
3BD
100
AcDbEntity
  8
CURVE
100
AcDbLine
 62
7
  6
CONTINUOUS
 10
-94.2933441347
 20
-35.4472294336
 11
-94.210570275
 21
-35.3644555739
  0
LINE
  5
3BE
100
AcDbEntity
  8
CURVE
100
AcDbLine
 62
7
  6
CONTINUOUS
 10
-96.7087835033
 20
-38.0726795163
 11
-96.5252727507
 21
-37.8891687636
  0
LINE
  5
3BF
100
AcDbEntity
  8
CURVE
100
AcDbLine
 62
7
  6
CONTINUOUS
 10
-95.8529656493
 20
-37.2168616623
 11
-95.4817870622
 21
-36.8456830751
  0
LINE
  5
3C0
100
AcDbEntity
  8
CURVE
100
AcDbLine
 62
7
  6
CONTINUOUS
 10
-94.8935019871
 20
-36.257398
 11
-94.3717089871
 21
-35.735605
  0
LINE
  5
3C1
100
AcDbEntity
  8
CURVE
100
AcDbLine
 62
7
  6
CONTINUOUS
 10
-96.7087835033
 20
-38.2826902303
 11
-96.2347626179
 21
-37.8086693449
  0
LINE
  5
3C2
100
AcDbEntity
  8
CURVE
100
AcDbLine
 62
7
  6
CONTINUOUS
 10
-95.6896045749
 20
-37.2635113018
 11
-95.3228849638
 21
-36.8967916907
  0
LINE
  5
3C3
100
AcDbEntity
  8
CURVE
100
AcDbLine
 62
7
  6
CONTINUOUS
 10
-94.683491273
 20
-36.257398
 11
-94.210570275
 21
-35.7844770019
  0
LINE
  5
3C4
100
AcDbEntity
  8
CURVE
100
AcDbLine
 62
7
  6
CONTINUOUS
 10
-96.7087835033
 20
-38.4927009443
 11
-95.9442524852
 21
-37.7281699261
  0
LINE
  5
3C5
100
AcDbEntity
  8
CURVE
100
AcDbLine
 62
7
  6
CONTINUOUS
 10
-95.5262435005
 20
-37.3101609414
 11
-95.1639828654
 21
-36.9479003063
  0
LINE
  5
3C6
100
AcDbEntity
  8
CURVE
100
AcDbLine
 62
7
  6
CONTINUOUS
 10
-94.473480559
 20
-36.257398
 11
-94.210570275
 21
-35.9944877159
  0
LINE
  5
3C7
100
AcDbEntity
  8
CURVE
100
AcDbLine
 62
7
  6
CONTINUOUS
 10
-96.4219230674
 20
-38.4158512224
 11
-95.6537423524
 21
-37.6476705074
  0
LINE
  5
3C8
100
AcDbEntity
  8
CURVE
100
AcDbLine
 62
7
  6
CONTINUOUS
 10
-95.362882426
 20
-37.356810581
 11
-95.005080767
 21
-36.999008922
  0
LINE
  5
3C9
100
AcDbEntity
  8
CURVE
100
AcDbLine
 62
7
  6
CONTINUOUS
 10
-94.263469845
 20
-36.257398
 11
-94.210570275
 21
-36.2044984299
  0
LINE
  5
3CA
100
AcDbEntity
  8
CURVE
100
AcDbLine
 62
7
  6
CONTINUOUS
 10
-96.1143445308
 20
-38.3182833998
 11
-95.3632322196
 21
-37.5671710886
  0
LINE
  5
3CB
100
AcDbEntity
  8
CURVE
100
AcDbLine
 62
7
  6
CONTINUOUS
 10
-95.1995213516
 20
-37.4034602206
 11
-94.8461786686
 21
-37.0501175376
  0
LINE
  5
3CC
100
AcDbEntity
  8
CURVE
100
AcDbLine
 62
7
  6
CONTINUOUS
 10
-95.8067659943
 20
-38.2207155773
 11
-95.0727220869
 21
-37.4866716699
  0
LINE
  5
3CD
100
AcDbEntity
  8
CURVE
100
AcDbLine
 62
7
  6
CONTINUOUS
 10
-95.0361602772
 20
-37.4501098602
 11
-94.6872765702
 21
-37.1012261532
  0
LINE
  5
3CE
100
AcDbEntity
  8
CURVE
100
AcDbLine
 62
7
  6
CONTINUOUS
 10
-95.4991874577
 20
-38.1231477547
 11
-94.5283744718
 21
-37.1523347688
  0
LINE
  5
3CF
100
AcDbEntity
  8
CURVE
100
AcDbLine
 62
7
  6
CONTINUOUS
 10
-95.1916089211
 20
-38.0255799321
 11
-94.3694723734
 21
-37.2034433844
  0
LINE
  5
3D0
100
AcDbEntity
  8
CURVE
100
AcDbLine
 62
7
  6
CONTINUOUS
 10
-94.8840303845
 20
-37.9280121096
 11
-94.210570275
 21
-37.254552
  0
LINE
  5
3D1
100
AcDbEntity
  8
CURVE
100
AcDbLine
 62
7
  6
CONTINUOUS
 10
-94.576451848
 20
-37.830444287
 11
-94.210570275
 21
-37.464562714
  0
LINE
  5
3D2
100
AcDbEntity
  8
CURVE
100
AcDbLine
 62
7
  6
CONTINUOUS
 10
-94.2688733114
 20
-37.7328764645
 11
-94.210570275
 21
-37.674573428
  0
LINE
  5
3D3
100
AcDbEntity
  8
0
100
AcDbLine
 62
250
  6
CONTINUOUS
 10
-91.1778419311
 20
-26.9276792439
 11
-90.0783230712
 21
-26.3440350289
  0
LINE
  5
3D4
100
AcDbEntity
  8
0
100
AcDbLine
 62
250
  6
CONTINUOUS
 10
-89.6535652826
 20
-26.2536973817
 11
-89.1314734298
 21
-25.9765617175
  0
LINE
  5
3D5
100
AcDbEntity
  8
0
100
AcDbLine
 62
7
  6
CONTINUOUS
 10
-89.1036145148
 20
-26.0883643404
 11
-91.1036145193
 21
-27.1500000024
  0
LINE
  5
3D6
100
AcDbEntity
  8
0
100
AcDbLine
 62
7
  6
CONTINUOUS
 10
-89.1036145148
 20
25.4
 11
-91.0539864169
 21
25.2049628098
  0
LINE
  5
3D7
100
AcDbEntity
  8
0
100
AcDbLine
 62
7
  6
CONTINUOUS
 10
-92.1036145148
 20
25.7558198745
 11
-89.2931473236
 21
25.8799866677
  0
LINE
  5
3D8
100
AcDbEntity
  8
0
100
AcDbLine
 62
7
  6
CONTINUOUS
 10
-89.1036145148
 20
25.3523612067
 11
-89.6255511691
 21
25.3478063346
  0
LINE
  5
3D9
100
AcDbEntity
  8
0
100
AcDbLine
 62
7
  6
CONTINUOUS
 10
-92.1036145148
 20
25.05
 11
-91.9536145148
 21
25.05
  0
LINE
  5
3DA
100
AcDbEntity
  8
0
100
AcDbLine
 62
7
  6
CONTINUOUS
 10
-91.6536145148
 20
25.05
 11
-91.4536145148
 21
25.05
  0
LINE
  5
3DB
100
AcDbEntity
  8
0
100
AcDbLine
 62
7
  6
CONTINUOUS
 10
-92.1036145148
 20
25.2
 11
-91.1534901359
 21
25.2
  0
LINE
  5
3DC
100
AcDbEntity
  8
0
100
AcDbLine
 62
7
  6
CONTINUOUS
 10
-89.1036145148
 20
26.1523612067
 11
-89.2241772819
 21
26.1523612067
  0
LINE
  5
3DD
100
AcDbEntity
  8
0
100
AcDbLine
 62
250
  6
CONTINUOUS
 10
-91.1778419311
 20
26.9276792439
 11
-92.1036145148
 21
26.9280974384
  0
LINE
  5
3DE
100
AcDbEntity
  8
0
100
AcDbLine
 62
7
  6
CONTINUOUS
 10
-91.1036145148
 20
27.15
 11
-92.1036145148
 21
27.151745331
  0
LINE
  5
3DF
100
AcDbEntity
  8
0
100
AcDbLine
 62
250
  6
CONTINUOUS
 10
-89.6535652826
 20
26.2536973817
 11
-92.1036145148
 21
26.2679513512
  0
LINE
  5
3E0
100
AcDbEntity
  8
0
100
AcDbLine
 62
7
  6
CONTINUOUS
 10
-89.6535652826
 20
26.3415638603
 11
-92.1036145148
 21
26.3558178298
  0
LINE
  5
3E1
100
AcDbEntity
  8
0
100
AcDbLine
 62
250
  6
CONTINUOUS
 10
-90.0783230712
 20
26.3440350289
 11
-91.1778419311
 21
26.9276792439
  0
LINE
  5
3E2
100
AcDbEntity
  8
0
100
AcDbLine
 62
250
  6
CONTINUOUS
 10
-89.1314734298
 20
25.9765617175
 11
-89.6535652826
 21
26.2536973817
  0
LINE
  5
3E3
100
AcDbEntity
  8
0
100
AcDbLine
 62
7
  6
CONTINUOUS
 10
-89.1036145148
 20
26.0883643404
 11
-91.1036145184
 21
27.1500000019
  0
LINE
  5
3E4
100
AcDbEntity
  8
0
100
AcDbLine
 62
7
  6
CONTINUOUS
 10
-98.2542236878
 20
-43.8055596544
 11
-98.269162057
 21
-43.8199854699
  0
LINE
  5
3E5
100
AcDbEntity
  8
CURVE
100
AcDbLine
 62
250
  6
CONTINUOUS
 10
-96.7087835033
 20
-31.54876
 11
-94.210570275
 21
-30.781779
  0
LINE
  5
3E6
100
AcDbEntity
  8
0
100
AcDbLine
 62
7
  6
CONTINUOUS
 10
-98.269162057
 20
43.8199854699
 11
-98.2542236878
 21
43.8055596544
  0
LINE
  5
3E7
100
AcDbEntity
  8
CURVE
100
AcDbLine
 62
250
  6
CONTINUOUS
 10
-94.210570275
 20
-34.230793
 11
-95.8418559341
 21
-34.842919
  0
LINE
  5
3E8
100
AcDbEntity
  8
CURVE
100
AcDbLine
 62
250
  6
CONTINUOUS
 10
-96.7087835033
 20
-34.707635
 11
-95.3217679508
 21
-34.191353
  0
LINE
  5
3E9
100
AcDbEntity
  8
CURVE
100
AcDbLine
 62
250
  6
CONTINUOUS
 10
-94.210570275
 20
-37.714382
 11
-96.7087835033
 21
-38.506847
  0
LINE
  5
3EA
100
AcDbEntity
  8
0
100
AcDbLine
 62
250
  6
CONTINUOUS
 10
-92.7036145148
 20
41.1619414324
 11
-92.1036145148
 21
41.2038975196
  0
LINE
  5
3EB
100
AcDbEntity
  8
0
100
AcDbLine
 62
7
  6
CONTINUOUS
 10
-92.7036145148
 20
42.7580439128
 11
-92.1036145148
 21
42.8
  0
LINE
  5
3EC
100
AcDbEntity
  8
0
100
AcDbLine
 62
7
  6
CONTINUOUS
 10
-98.2542236878
 20
43.8055596544
 11
-92.7036145148
 21
43.9993911979
  0
LINE
  5
3ED
100
AcDbEntity
  8
0
100
AcDbLine
 62
7
  6
CONTINUOUS
 10
-98.2542236878
 20
44.8061684565
 11
-92.7036145148
 21
45.0
  0
LWPOLYLINE
  5
3EE
100
AcDbEntity
  8
0
100
AcDbPolyline
 62
7
  6
CONTINUOUS
 90
8
 70
0
 43
0.3500000006
 10
-103.5259447632
 20
56.0962236328
 10
-102.6688068237
 20
56.0962236328
 10
-102.2402287903
 20
56.5247926025
 10
-102.2402287903
 20
57.381930542
 10
-102.6688068237
 20
57.8105085754
 10
-103.5259447632
 20
57.8105085754
 10
-103.5259447632
 20
59.0962245483
 10
-102.2402287903
 20
59.0962245483
  0
LWPOLYLINE
  5
3EF
100
AcDbEntity
  8
0
100
AcDbPolyline
 62
7
  6
CONTINUOUS
 90
8
 70
0
 43
0.3500000006
 10
-103.1910221558
 20
66.3744738464
 10
-102.3338842163
 20
66.3744738464
 10
-101.9053061829
 20
66.8030428162
 10
-101.9053061829
 20
67.6601898193
 10
-102.3338842163
 20
68.0887587891
 10
-103.1910221558
 20
68.0887587891
 10
-103.1910221558
 20
69.374474762
 10
-101.9053061829
 20
69.374474762
  0
ARC
  5
3F0
100
AcDbEntity
  8
CURVE
100
AcDbCircle
 62
250
  6
CONTINUOUS
 10
100.7422937963
 20
-29.8716892664
 40
39.8681074
100
AcDbArc
 50
179.7782450657
 51
180.3657160807
  0
ARC
  5
3F1
100
AcDbEntity
  8
0
100
AcDbCircle
 62
7
  6
CONTINUOUS
 10
-6.7
 20
-6.7
 40
1.7
100
AcDbArc
 50
180.0
 51
270.0
  0
ARC
  5
3F2
100
AcDbEntity
  8
0
100
AcDbCircle
 62
7
  6
CONTINUOUS
 10
6.7
 20
-6.7
 40
1.7
100
AcDbArc
 50
270.0
 51
360.0
  0
ARC
  5
3F3
100
AcDbEntity
  8
0
100
AcDbCircle
 62
7
  6
CONTINUOUS
 10
6.7
 20
6.7
 40
1.7
100
AcDbArc
 50
0.0
 51
90.0
  0
ARC
  5
3F4
100
AcDbEntity
  8
0
100
AcDbCircle
 62
7
  6
CONTINUOUS
 10
-6.7
 20
6.7
 40
1.7
100
AcDbArc
 50
90.0
 51
180.0
  0
ARC
  5
3F5
100
AcDbEntity
  8
0
100
AcDbCircle
 62
7
  6
CONTINUOUS
 10
6.7
 20
6.7
 40
1.2
100
AcDbArc
 50
0.0
 51
90.0
  0
ARC
  5
3F6
100
AcDbEntity
  8
0
100
AcDbCircle
 62
7
  6
CONTINUOUS
 10
6.7
 20
-6.7
 40
1.2
100
AcDbArc
 50
270.0
 51
360.0
  0
ARC
  5
3F7
100
AcDbEntity
  8
0
100
AcDbCircle
 62
7
  6
CONTINUOUS
 10
-6.7
 20
-6.7
 40
1.2
100
AcDbArc
 50
180.0
 51
270.0
  0
ARC
  5
3F8
100
AcDbEntity
  8
0
100
AcDbCircle
 62
7
  6
CONTINUOUS
 10
-6.7
 20
6.7
 40
1.2
100
AcDbArc
 50
90.0
 51
180.0
  0
ARC
  5
3F9
100
AcDbEntity
  8
0
100
AcDbCircle
 62
7
  6
CONTINUOUS
 10
-91.1534901359
 20
-26.2
 40
1.0
100
AcDbArc
 50
84.2894068625
 51
90.0
  0
ARC
  5
3FA
100
AcDbEntity
  8
0
100
AcDbCircle
 62
7
  6
CONTINUOUS
 10
-91.1534901359
 20
26.2
 40
1.0
100
AcDbArc
 50
270.0
 51
275.7105931375
  0
ARC
  5
3FB
100
AcDbEntity
  8
0
100
AcDbCircle
 62
7
  6
CONTINUOUS
 10
-91.1783011899
 20
26.849999496
 40
0.3
100
AcDbArc
 50
62.0510313858
 51
89.9000000064
  0
ARC
  5
3FC
100
AcDbEntity
  8
0
100
AcDbCircle
 62
7
  6
CONTINUOUS
 10
-91.1783011899
 20
-26.849999496
 40
0.3
100
AcDbArc
 50
270.0999999936
 51
297.9489686142
  0
ARC
  5
3FD
100
AcDbEntity
  8
0
100
AcDbCircle
 62
7
  6
CONTINUOUS
 10
-92.1536145148
 20
2.6214065094
 40
0.3
100
AcDbArc
 50
0.0
 51
80.4010886587
  0
ARC
  5
3FE
100
AcDbEntity
  8
0
100
AcDbCircle
 62
7
  6
CONTINUOUS
 10
-92.1536145148
 20
-2.6214065094
 40
0.3
100
AcDbArc
 50
279.5989113413
 51
360.0
  0
ARC
  5
3FF
100
AcDbEntity
  8
0
100
AcDbCircle
 62
7
  6
CONTINUOUS
 10
-89.655310602
 20
-26.0415689373
 40
0.3
100
AcDbArc
 50
270.3333333333
 51
297.9601595787
  0
ARC
  5
400
100
AcDbEntity
  8
0
100
AcDbCircle
 62
7
  6
CONTINUOUS
 10
-89.655310602
 20
26.0415689373
 40
0.3
100
AcDbArc
 50
62.0398404207
 51
89.6666666667
  0
SPLINE
  5
401
100
AcDbEntity
  8
CURVE
100
AcDbSpline
 62
250
  6
CONTINUOUS
 70
0
 71
3
 72
17
 73
13
 74
0
 42
0.0000001
 43
0.0000001
 44
0.0000000001
 40
0.0
 40
0.0
 40
0.0
 40
0.0
 40
0.0559780952
 40
0.1687540387
 40
0.321006234
 40
0.4122750837
 40
0.516613223
 40
0.6013931059
 40
0.6776022439
 40
0.8103422694
 40
0.9200404832
 40
1.0
 40
1.0
 40
1.0
 40
1.0
 10
60.9061378054
 20
-29.2870512436
 30
0.0
 10
60.9060080221
 20
-29.2582307418
 30
0.0
 10
60.9039944413
 20
-29.184972753
 30
0.0
 10
60.9001559947
 20
-29.0634829078
 30
0.0
 10
60.894247302
 20
-28.9740276278
 30
0.0
 10
60.8880831982
 20
-28.9341773505
 30
0.0
 10
60.8829671207
 20
-28.9304334968
 30
0.0
 10
60.8781887457
 20
-28.9501640226
 30
0.0
 10
60.8731113496
 20
-28.9979840427
 30
0.0
 10
60.8681353908
 20
-29.0877998266
 30
0.0
 10
60.8642440602
 20
-29.2146127248
 30
0.0
 10
60.862565765
 20
-29.301804483
 30
0.0
 10
60.8620741759
 20
-29.3408501143
 30
0.0
  0
SPLINE
  5
402
100
AcDbEntity
  8
CURVE
100
AcDbSpline
 62
250
  6
CONTINUOUS
 70
0
 71
3
 72
9
 73
5
 74
0
 42
0.0000001
 43
0.0000001
 44
0.0000000001
 40
0.0
 40
0.0
 40
0.0
 40
0.0
 40
0.2426586216
 40
1.0
 40
1.0
 40
1.0
 40
1.0
 10
60.9237639114
 20
-28.9862836897
 30
0.0
 10
60.9221786227
 20
-28.9986586641
 30
0.0
 10
60.9157768408
 20
-29.0459291565
 30
0.0
 10
60.9085526835
 20
-29.1505648409
 30
0.0
 10
60.9066533149
 20
-29.2870512436
 30
0.0
  0
LINE
  5
403
100
AcDbEntity
  8
CURVE
100
AcDbLine
 62
250
  6
CONTINUOUS
 10
60.9473759458
 20
-28.8079038802
 11
60.9237639114
 21
-28.9862836897
  0
SPLINE
  5
404
100
AcDbEntity
  8
CURVE
100
AcDbSpline
 62
250
  6
CONTINUOUS
 70
0
 71
3
 72
9
 73
5
 74
0
 42
0.0000001
 43
0.0000001
 44
0.0000000001
 40
0.0
 40
0.0
 40
0.0
 40
0.0
 40
0.5586214172
 40
1.0
 40
1.0
 40
1.0
 40
1.0
 10
60.9209220674
 20
-29.5379751749
 30
0.0
 10
60.9257378197
 20
-29.486134558
 30
0.0
 10
60.9346552336
 20
-29.4179595379
 30
0.0
 10
60.9434695024
 20
-29.3419894791
 30
0.0
 10
60.9473759458
 20
-29.3098079785
 30
0.0
  0
SPLINE
  5
405
100
AcDbEntity
  8
CURVE
100
AcDbSpline
 62
250
  6
CONTINUOUS
 70
0
 71
3
 72
9
 73
5
 74
0
 42
0.0000001
 43
0.0000001
 44
0.0000000001
 40
0.0
 40
0.0
 40
0.0
 40
0.0
 40
0.3559141631
 40
1.0
 40
1.0
 40
1.0
 40
1.0
 10
60.9132352194
 20
-29.8290889245
 30
0.0
 10
60.9132352194
 20
-29.7836184402
 30
0.0
 10
60.9141961358
 20
-29.6528120506
 30
0.0
 10
60.9182334149
 20
-29.5668873007
 30
0.0
 10
60.9209220674
 20
-29.5379751749
 30
0.0
  0
SPLINE
  5
406
100
AcDbEntity
  8
CURVE
100
AcDbSpline
 62
250
  6
CONTINUOUS
 70
0
 71
3
 72
9
 73
5
 74
0
 42
0.0000001
 43
0.0000001
 44
0.0000000001
 40
0.0
 40
0.0
 40
0.0
 40
0.0
 40
0.2957417834
 40
1.0
 40
1.0
 40
1.0
 40
1.0
 10
60.8620741759
 20
-29.3408501143
 30
0.0
 10
60.8605585951
 20
-29.4610542637
 30
0.0
 10
60.8580881081
 20
-29.8931154132
 30
0.0
 10
60.8596096759
 20
-30.3274429247
 30
0.0
 10
60.8611556794
 20
-30.6285551388
 30
0.0
  0
SPLINE
  5
407
100
AcDbEntity
  8
CURVE
100
AcDbSpline
 62
250
  6
CONTINUOUS
 70
0
 71
3
 72
9
 73
5
 74
0
 42
0.0000001
 43
0.0000001
 44
0.0000000001
 40
0.0
 40
0.0
 40
0.0
 40
0.0
 40
0.5206208722
 40
1.0
 40
1.0
 40
1.0
 40
1.0
 10
60.885390512
 20
-29.4226356449
 30
0.0
 10
60.8891619261
 20
-29.4209681689
 30
0.0
 10
60.8974005432
 20
-29.4973108459
 30
0.0
 10
60.8988699409
 20
-29.728472706
 30
0.0
 10
60.8989474951
 20
-29.8279642095
 30
0.0
  0
SPLINE
  5
408
100
AcDbEntity
  8
CURVE
100
AcDbSpline
 62
250
  6
CONTINUOUS
 70
0
 71
3
 72
9
 73
5
 74
0
 42
0.0000001
 43
0.0000001
 44
0.0000000001
 40
0.0
 40
0.0
 40
0.0
 40
0.0
 40
0.5013510385
 40
1.0
 40
1.0
 40
1.0
 40
1.0
 10
60.8744850009
 20
-29.7173859732
 30
0.0
 10
60.874794863
 20
-29.6409112471
 30
0.0
 10
60.8771452432
 20
-29.4862321801
 30
0.0
 10
60.8827184632
 20
-29.423833145
 30
0.0
 10
60.885390512
 20
-29.4226356449
 30
0.0
  0
SPLINE
  5
409
100
AcDbEntity
  8
CURVE
100
AcDbSpline
 62
250
  6
CONTINUOUS
 70
0
 71
3
 72
17
 73
13
 74
0
 42
0.0000001
 43
0.0000001
 44
0.0000000001
 40
0.0
 40
0.0
 40
0.0
 40
0.0
 40
0.0559780952
 40
0.1687540387
 40
0.321006234
 40
0.4122750837
 40
0.516613223
 40
0.6013931059
 40
0.6776022439
 40
0.8103422694
 40
0.9200404832
 40
1.0
 40
1.0
 40
1.0
 40
1.0
 10
-95.3914760926
 20
-29.2870512436
 30
0.0
 10
-95.3951926016
 20
-29.2582307418
 30
0.0
 10
-95.4528540098
 20
-29.184972753
 30
0.0
 10
-95.5627727398
 20
-29.0634829078
 30
0.0
 10
-95.731975559
 20
-28.9740276278
 30
0.0
 10
-95.9084923984
 20
-28.9341773505
 30
0.0
 10
-96.0549976903
 20
-28.9304334968
 30
0.0
 10
-96.1918324445
 20
-28.9501640226
 30
0.0
 10
-96.3372300454
 20
-28.9979840427
 30
0.0
 10
-96.4797228639
 20
-29.0877998266
 30
0.0
 10
-96.5911559912
 20
-29.2146127248
 30
0.0
 10
-96.6392160784
 20
-29.301804483
 30
0.0
 10
-96.6532933471
 20
-29.3408501143
 30
0.0
  0
SPLINE
  5
40A
100
AcDbEntity
  8
CURVE
100
AcDbSpline
 62
250
  6
CONTINUOUS
 70
0
 71
3
 72
9
 73
5
 74
0
 42
0.0000001
 43
0.0000001
 44
0.0000000001
 40
0.0
 40
0.0
 40
0.0
 40
0.0
 40
0.2426586216
 40
1.0
 40
1.0
 40
1.0
 40
1.0
 10
-94.8867304569
 20
-28.9862836897
 30
0.0
 10
-94.9321271849
 20
-28.9986586641
 30
0.0
 10
-95.1154502352
 20
-29.0459291565
 30
0.0
 10
-95.3223230334
 20
-29.1505648409
 30
0.0
 10
-95.3767138329
 20
-29.2870512436
 30
0.0
  0
SPLINE
  5
40B
100
AcDbEntity
  8
CURVE
100
AcDbSpline
 62
250
  6
CONTINUOUS
 70
0
 71
3
 72
9
 73
5
 74
0
 42
0.0000001
 43
0.0000001
 44
0.0000000001
 40
0.0
 40
0.0
 40
0.0
 40
0.0
 40
0.1980141723
 40
1.0
 40
1.0
 40
1.0
 40
1.0
 10
-94.2105702585
 20
-28.8079038802
 30
0.0
 10
-94.2551115739
 20
-28.8200085492
 30
0.0
 10
-94.4805572179
 20
-28.8792554798
 30
0.0
 10
-94.7063704555
 20
-28.9371156095
 30
0.0
 10
-94.8867304569
 20
-28.9862836897
 30
0.0
  0
SPLINE
  5
40C
100
AcDbEntity
  8
CURVE
100
AcDbSpline
 62
250
  6
CONTINUOUS
 70
0
 71
3
 72
9
 73
5
 74
0
 42
0.0000001
 43
0.0000001
 44
0.0000000001
 40
0.0
 40
0.0
 40
0.0
 40
0.0
 40
0.5586214172
 40
1.0
 40
1.0
 40
1.0
 40
1.0
 10
-94.9681102231
 20
-29.5379751749
 30
0.0
 10
-94.8302051198
 20
-29.486134558
 30
0.0
 10
-94.5748437954
 20
-29.4179595379
 30
0.0
 10
-94.322436162
 20
-29.3419894791
 30
0.0
 10
-94.2105702585
 20
-29.3098079785
 30
0.0
  0
SPLINE
  5
40D
100
AcDbEntity
  8
CURVE
100
AcDbSpline
 62
250
  6
CONTINUOUS
 70
0
 71
3
 72
9
 73
5
 74
0
 42
0.0000001
 43
0.0000001
 44
0.0000000001
 40
0.0
 40
0.0
 40
0.0
 40
0.0
 40
0.3559141631
 40
1.0
 40
1.0
 40
1.0
 40
1.0
 10
-95.1882327492
 20
-29.8290889245
 30
0.0
 10
-95.1882327492
 20
-29.7836184402
 30
0.0
 10
-95.1607157013
 20
-29.6528120506
 30
0.0
 10
-95.0451031556
 20
-29.5668873007
 30
0.0
 10
-94.9681102231
 20
-29.5379751749
 30
0.0
  0
SPLINE
  5
40E
100
AcDbEntity
  8
CURVE
100
AcDbSpline
 62
250
  6
CONTINUOUS
 70
0
 71
3
 72
9
 73
5
 74
0
 42
0.0000001
 43
0.0000001
 44
0.0000000001
 40
0.0
 40
0.0
 40
0.0
 40
0.0
 40
0.2957417834
 40
1.0
 40
1.0
 40
1.0
 40
1.0
 10
-96.6532933471
 20
-29.3408501143
 30
0.0
 10
-96.6966939027
 20
-29.4610542637
 30
0.0
 10
-96.7674393953
 20
-29.8931154132
 30
0.0
 10
-96.7238673956
 20
-30.3274429247
 30
0.0
 10
-96.6795956472
 20
-30.6285551388
 30
0.0
  0
SPLINE
  5
40F
100
AcDbEntity
  8
CURVE
100
AcDbSpline
 62
250
  6
CONTINUOUS
 70
0
 71
3
 72
9
 73
5
 74
0
 42
0.0000001
 43
0.0000001
 44
0.0000000001
 40
0.0
 40
0.0
 40
0.0
 40
0.0
 40
0.5206208722
 40
1.0
 40
1.0
 40
1.0
 40
1.0
 10
-95.9856008407
 20
-29.4226356449
 30
0.0
 10
-95.877601671
 20
-29.4209681689
 30
0.0
 10
-95.6416785475
 20
-29.4973108459
 30
0.0
 10
-95.5996005016
 20
-29.728472706
 30
0.0
 10
-95.5973796401
 20
-29.8279642095
 30
0.0
  0
SPLINE
  5
410
100
AcDbEntity
  8
CURVE
100
AcDbSpline
 62
250
  6
CONTINUOUS
 70
0
 71
3
 72
9
 73
5
 74
0
 42
0.0000001
 43
0.0000001
 44
0.0000000001
 40
0.0
 40
0.0
 40
0.0
 40
0.0
 40
0.5013510385
 40
1.0
 40
1.0
 40
1.0
 40
1.0
 10
-96.2978938202
 20
-29.7173859732
 30
0.0
 10
-96.2890205305
 20
-29.6409112471
 30
0.0
 10
-96.2217144484
 20
-29.4862321801
 30
0.0
 10
-96.062118308
 20
-29.423833145
 30
0.0
 10
-95.9856008407
 20
-29.4226356449
 30
0.0
  0
SPLINE
  5
411
100
AcDbEntity
  8
CURVE
100
AcDbSpline
 62
250
  6
CONTINUOUS
 70
0
 71
3
 72
9
 73
5
 74
0
 42
0.0000001
 43
0.0000001
 44
0.0000000001
 40
0.0
 40
0.0
 40
0.0
 40
0.0
 40
0.2703953699
 40
1.0
 40
1.0
 40
1.0
 40
1.0
 10
-96.283187762
 20
-30.126163664
 30
0.0
 10
-96.2893982938
 20
-30.0897447717
 30
0.0
 10
-96.3098242377
 20
-29.9546358143
 30
0.0
 10
-96.3093808136
 20
-29.8164101388
 30
0.0
 10
-96.2978938202
 20
-29.7173859732
 30
0.0
  0
SPLINE
  5
412
100
AcDbEntity
  8
0
100
AcDbSpline
 62
7
  6
CONTINUOUS
 70
0
 71
3
 72
9
 73
5
 74
0
 42
0.0000001
 43
0.0000001
 44
0.0000000001
 40
0.0
 40
0.0
 40
0.0
 40
0.0
 40
0.4298638943
 40
1.0
 40
1.0
 40
1.0
 40
1.0
 10
-89.1036145148
 20
26.0463167932
 30
0.0
 10
-89.1036145148
 20
26.0354717441
 30
0.0
 10
-89.1115239344
 20
26.0106368792
 30
0.0
 10
-89.1241240179
 20
25.9889263869
 30
0.0
 10
-89.1314734298
 20
25.9765617175
 30
0.0
  0
SPLINE
  5
413
100
AcDbEntity
  8
0
100
AcDbSpline
 62
250
  6
CONTINUOUS
 70
0
 71
3
 72
17
 73
13
 74
0
 42
0.0000001
 43
0.0000001
 44
0.0000000001
 40
0.0
 40
0.0
 40
0.0
 40
0.0
 40
0.0041509426
 40
0.0165131528
 40
0.0370394731
 40
0.0656738303
 40
0.147033967
 40
0.259883893
 40
0.4031301725
 40
0.5755840394
 40
0.7753335906
 40
1.0
 40
1.0
 40
1.0
 40
1.0
 10
-89.6535652826
 20
-26.3415638603
 30
0.0
 10
-89.6534437051
 20
-26.341563153
 30
0.0
 10
-89.6536608255
 20
-26.3407901078
 30
0.0
 10
-89.653407083
 20
-26.3399838662
 30
0.0
 10
-89.6535143054
 20
-26.3380251079
 30
0.0
 10
-89.6534071824
 20
-26.3342971317
 30
0.0
 10
-89.6534452484
 20
-26.3277000543
 30
0.0
 10
-89.6534108093
 20
-26.3178494928
 30
0.0
 10
-89.6534321812
 20
-26.3052846155
 30
0.0
 10
-89.653456651
 20
-26.2901918491
 30
0.0
 10
-89.6535036039
 20
-26.2727082659
 30
0.0
 10
-89.6535428571
 20
-26.2602777389
 30
0.0
 10
-89.6535652826
 20
-26.2536973817
 30
0.0
  0
SPLINE
  5
414
100
AcDbEntity
  8
0
100
AcDbSpline
 62
250
  6
CONTINUOUS
 70
0
 71
3
 72
17
 73
13
 74
0
 42
0.0000001
 43
0.0000001
 44
0.0000000001
 40
0.0
 40
0.0
 40
0.0
 40
0.0
 40
0.2246664094
 40
0.4244159606
 40
0.5968698275
 40
0.740116107
 40
0.852966033
 40
0.9343261697
 40
0.9629605269
 40
0.9834868471
 40
0.9958490574
 40
1.0
 40
1.0
 40
1.0
 40
1.0
 10
-89.6535652826
 20
26.2536973817
 30
0.0
 10
-89.6535428571
 20
26.2602777389
 30
0.0
 10
-89.6535036039
 20
26.2727082659
 30
0.0
 10
-89.653456651
 20
26.2901918491
 30
0.0
 10
-89.6534321812
 20
26.3052846155
 30
0.0
 10
-89.6534108093
 20
26.3178494928
 30
0.0
 10
-89.6534452484
 20
26.3277000543
 30
0.0
 10
-89.6534071824
 20
26.3342971317
 30
0.0
 10
-89.6535143054
 20
26.3380251079
 30
0.0
 10
-89.653407083
 20
26.3399838662
 30
0.0
 10
-89.6536608255
 20
26.3407901078
 30
0.0
 10
-89.6534437051
 20
26.341563153
 30
0.0
 10
-89.6535652826
 20
26.3415638603
 30
0.0
  0
SPLINE
  5
415
100
AcDbEntity
  8
0
100
AcDbSpline
 62
250
  6
CONTINUOUS
 70
0
 71
3
 72
11
 73
7
 74
0
 42
0.0000001
 43
0.0000001
 44
0.0000000001
 40
0.0
 40
0.0
 40
0.0
 40
0.0
 40
0.2014869372
 40
0.4267120375
 40
0.6907287438
 40
1.0
 40
1.0
 40
1.0
 40
1.0
 10
-89.5146533536
 20
26.3065510847
 30
0.0
 10
-89.5209340254
 20
26.3098849773
 30
0.0
 10
-89.5358501891
 20
26.3141379225
 30
0.0
 10
-89.5605085346
 20
26.3120310176
 30
0.0
 10
-89.5872349007
 20
26.3024350922
 30
0.0
 10
-89.6047670512
 20
26.2921422438
 30
0.0
 10
-89.6138043491
 20
26.2860223324
 30
0.0
  0
SPLINE
  5
416
100
AcDbEntity
  8
0
100
AcDbSpline
 62
250
  6
CONTINUOUS
 70
0
 71
3
 72
9
 73
5
 74
0
 42
0.0000001
 43
0.0000001
 44
0.0000000001
 40
0.0
 40
0.0
 40
0.0
 40
0.0
 40
0.2353085205
 40
1.0
 40
1.0
 40
1.0
 40
1.0
 10
-89.6138043491
 20
26.2860223324
 30
0.0
 10
-89.6171344611
 20
26.2837672347
 30
0.0
 10
-89.6310508834
 20
26.2738364073
 30
0.0
 10
-89.6440669628
 20
26.2626753654
 30
0.0
 10
-89.6535652826
 20
26.2536973817
 30
0.0
  0
SPLINE
  5
417
100
AcDbEntity
  8
0
100
AcDbSpline
 62
250
  6
CONTINUOUS
 70
0
 71
3
 72
11
 73
7
 74
0
 42
0.0000001
 43
0.0000001
 44
0.0000000001
 40
0.0
 40
0.0
 40
0.0
 40
0.0
 40
0.2014188606
 40
0.4266171679
 40
0.6906614828
 40
1.0
 40
1.0
 40
1.0
 40
1.0
 10
-89.5146533536
 20
-26.3065510847
 30
0.0
 10
-89.520941171
 20
-26.3098887703
 30
0.0
 10
-89.5358779742
 20
-26.3141436354
 30
0.0
 10
-89.560569534
 20
-26.3120194008
 30
0.0
 10
-89.5873314485
 20
-26.3023913255
 30
0.0
 10
-89.6048856985
 20
-26.2920702004
 30
0.0
 10
-89.6139344277
 20
-26.2859342015
 30
0.0
  0
SPLINE
  5
418
100
AcDbEntity
  8
0
100
AcDbSpline
 62
250
  6
CONTINUOUS
 70
0
 71
3
 72
9
 73
5
 74
0
 42
0.0000001
 43
0.0000001
 44
0.0000000001
 40
0.0
 40
0.0
 40
0.0
 40
0.0
 40
0.2353653072
 40
1.0
 40
1.0
 40
1.0
 40
1.0
 10
-89.6139344277
 20
-26.2859342015
 30
0.0
 10
-89.6172537304
 20
-26.2836833619
 30
0.0
 10
-89.6311224098
 20
-26.273775763
 30
0.0
 10
-89.6440967259
 20
-26.2626472328
 30
0.0
 10
-89.6535652826
 20
-26.2536973817
 30
0.0
  0
SPLINE
  5
419
100
AcDbEntity
  8
0
100
AcDbSpline
 62
7
  6
CONTINUOUS
 70
0
 71
3
 72
9
 73
5
 74
0
 42
0.0000001
 43
0.0000001
 44
0.0000000001
 40
0.0
 40
0.0
 40
0.0
 40
0.0
 40
0.5701360006
 40
1.0
 40
1.0
 40
1.0
 40
1.0
 10
-89.1314734298
 20
-25.9765617175
 30
0.0
 10
-89.1241240193
 20
-25.9889263846
 30
0.0
 10
-89.1115239364
 20
-26.010636877
 30
0.0
 10
-89.1036145148
 20
-26.0354717415
 30
0.0
 10
-89.1036145148
 20
-26.0463167932
 30
0.0
  0
SPLINE
  5
41A
100
AcDbEntity
  8
0
100
AcDbSpline
 62
250
  6
CONTINUOUS
 70
0
 71
3
 72
13
 73
9
 74
0
 42
0.0000001
 43
0.0000001
 44
0.0000000001
 40
0.0
 40
0.0
 40
0.0
 40
0.0
 40
0.3880534077
 40
0.7025003818
 40
0.821361185
 40
0.9105296552
 40
0.9687604122
 40
1.0
 40
1.0
 40
1.0
 40
1.0
 10
-91.1778419311
 20
26.9276792439
 30
0.0
 10
-91.1626453018
 20
26.9543867309
 30
0.0
 10
-91.1341348711
 20
27.0021433125
 30
0.0
 10
-91.0979235056
 20
27.056332828
 30
0.0
 10
-91.0726359591
 20
27.0889703426
 30
0.0
 10
-91.0580049324
 20
27.104507635
 30
0.0
 10
-91.0478156322
 20
27.1136619808
 30
0.0
 10
-91.0398911485
 20
27.1161795935
 30
0.0
 10
-91.0377082811
 20
27.1150157961
 30
0.0
  0
SPLINE
  5
41B
100
AcDbEntity
  8
0
100
AcDbSpline
 62
250
  6
CONTINUOUS
 70
0
 71
3
 72
9
 73
5
 74
0
 42
0.0000001
 43
0.0000001
 44
0.0000000001
 40
0.0
 40
0.0
 40
0.0
 40
0.0
 40
0.559122687
 40
1.0
 40
1.0
 40
1.0
 40
1.0
 10
-91.1778419311
 20
-26.9276792439
 30
0.0
 10
-91.1616637377
 20
-26.9561244351
 30
0.0
 10
-91.1315990988
 20
-27.0063479877
 30
0.0
 10
-91.0988531105
 20
-27.0549662668
 30
0.0
 10
-91.0830769773
 20
-27.0753851549
 30
0.0
  0
SPLINE
  5
41C
100
AcDbEntity
  8
0
100
AcDbSpline
 62
250
  6
CONTINUOUS
 70
0
 71
3
 72
10
 73
6
 74
0
 42
0.0000001
 43
0.0000001
 44
0.0000000001
 40
0.0
 40
0.0
 40
0.0
 40
0.0
 40
0.6950559039
 40
0.8909350205
 40
1.0
 40
1.0
 40
1.0
 40
1.0
 10
-91.0830769773
 20
-27.0753851549
 30
0.0
 10
-91.0742967331
 20
-27.0867493353
 30
0.0
 10
-91.0622380283
 20
-27.1011840157
 30
0.0
 10
-91.0467529674
 20
-27.1142275128
 30
0.0
 10
-91.0397008237
 20
-27.1160683359
 30
0.0
 10
-91.0377082811
 20
-27.1150157961
 30
0.0
  0
ELLIPSE
  5
41D
100
AcDbEntity
  8
0
100
AcDbEllipse
 62
7
  6
CONTINUOUS
 10
-89.3036145148
 20
26.079798695
 30
0.0
 11
-0.1417119467
 21
0.1422961243
 31
0.0
 40
0.9918061237
 41
-3.8766878413
 42
-2.8923940429
  0
ELLIPSE
  5
41E
100
AcDbEntity
  8
0
100
AcDbEllipse
 62
7
  6
CONTINUOUS
 10
-89.3036145148
 20
-26.079798695
 30
0.0
 11
0.1417119467
 21
0.1422961243
 31
0.0
 40
0.9918061237
 41
-0.2491986107
 42
0.7350951877
  0
ENDSEC
  0
SECTION
  2
OBJECTS
  0
DICTIONARY
  5
C
100
AcDbDictionary
280
0
281
1
  3
ACAD_GROUP
350
D
  3
ACAD_MLINESTYLE
350
17
  3
ACAD_LAYOUT
350
1A
  3
ACAD_PLOTSETTINGS
350
19
  3
ACAD_PLOTSTYLENAME
350
E
  0
DICTIONARY
  5
D
102
{ACAD_REACTORS
330
C
102
}
100
AcDbDictionary
280
0
281
1
  0
ACDBDICTIONARYWDFLT
  5
E
102
{ACAD_REACTORS
330
C
102
}
100
AcDbDictionary
281
1
  3
Normal
350
F
100
AcDbDictionaryWithDefault
340
F
  0
DICTIONARY
  5
17
102
{ACAD_REACTORS
330
C
102
}
100
AcDbDictionary
280
0
281
1
  3
Standard
350
18
  0
DICTIONARY
  5
19
102
{ACAD_REACTORS
330
C
102
}
100
AcDbDictionary
281
1
  0
DICTIONARY
  5
1A
102
{ACAD_REACTORS
330
C
102
}
100
AcDbDictionary
281
1
  3
Model
350
41F
  3
Layout1
350
420
  0
ACDBPLACEHOLDER
  5
F
102
{ACAD_REACTORS
330
E
102
}
  0
MLINESTYLE
  5
18
102
{ACAD_REACTORS
330
17
102
}
100
AcDbMlineStyle
  2
STANDARD
 70
0
  3

 62
256
 51
90.0
 52
90.0
 71
2
 49
0.5
 62
256
  6
BYLAYER
 49
-0.5
 62
256
  6
BYLAYER
  0
LAYOUT
  5
41F
102
{ACAD_REACTORS
330
1A
102
}
100
AcDbPlotSettings
  1

  2
none_device
  4
ISO_A4_(297.00_x_210.00_MM)
  6

 40
0.0
 41
0.0
 42
0.0
 43
0.0
 44
297.0
 45
210.0
 46
0.0
 47
0.0
 48
0.0
 49
0.0
140
0.0
141
0.0
142
1.0
143
1.0
 70
1024
 72
1
 73
0
 74
0
  7

 75
0
147
1.0
148
0.0
149
0.0
100
AcDbLayout
  1
Model
 70
0
 71
0
 10
0.0
 20
0.0
 11
297.0
 21
210.0
 12
0.0
 22
0.0
 32
0.0
 14
0.0
 24
0.0
 34
0.0
 15
0.0
 25
0.0
 35
0.0
146
0.0
 13
0.0
 23
0.0
 33
0.0
 16
1.0
 26
0.0
 36
0.0
 17
0.0
 27
1.0
 37
0.0
 76
0
330
21E
345
0
346
0
  0
LAYOUT
  5
420
102
{ACAD_REACTORS
330
1A
102
}
100
AcDbPlotSettings
  1

  2
none_device
  4
ISO_A4_(297.00_x_210.00_MM)
  6

 40
0.0
 41
0.0
 42
0.0
 43
0.0
 44
297.0
 45
210.0
 46
0.0
 47
0.0
 48
0.0
 49
0.0
140
0.0
141
0.0
142
1.0
143
1.0
 70
0
 72
1
 73
0
 74
0
  7

 75
0
147
1.0
148
0.0
149
0.0
100
AcDbLayout
  1
Layout1
 70
0
 71
1
 10
0.0
 20
0.0
 11
297.0
 21
210.0
 12
0.0
 22
0.0
 32
0.0
 14
0.0
 24
0.0
 34
0.0
 15
0.0
 25
0.0
 35
0.0
146
0.0
 13
0.0
 23
0.0
 33
0.0
 16
1.0
 26
0.0
 36
0.0
 17
0.0
 27
1.0
 37
0.0
 76
0
330
21F
345
0
346
0
  0
ENDSEC
  0
EOF
