  0
SECTION
  2
HEADER
  9
$ACADVER
  1
AC1024
  9
$DWGCODEPAGE
  3
ANSI_1252
  9
$EXTMAX
 10
297.0
 20
210.0
 30
0.0
  9
$EXTMIN
 10
0.0
 20
0.0
 30
0.0
  9
$LIMMIN
 10
0.0
 20
0.0
  9
$LIMMAX
 10
297.0
 20
210.0
  9
$VIEWCTR
 10
148.5
 20
105.0
  9
$VIEWSIZE
 40
210.0
  9
$CLAYER
  8
0
  9
$LTSCALE
 40
16.335
  9
$CELTYPE
  6
BYLAYER
  9
$DIMSCALE
 40
1.0
  9
$DIMASZ
 40
3.0
  9
$DIMEXO
 40
0.5
  9
$DIMDLI
 40
11.286
  9
$DIMEXE
 40
1.5
  9
$DIMCEN
 40
2.673
  9
$DIMLFAC
 40
1.0
  9
$DIMBLK
  1
_FILLED
  9
$DIMALT
 70
0
  9
$DIMALTF
 40
0.0393700787
  9
$DIMTXT
 40
3.0
  9
$DIMTOL
 70
1
  9
$DIMLIM
 70
0
  9
$DIMTFAC
 40
1.0
  9
$DIMTP
 40
0.01
  9
$DIMTM
 40
0.01
  9
$DIMGAP
 40
0.625
  9
$DIMDSEP
 70
44
  9
$AUNITS
 70
0
  9
$PDMODE
 70
3
  9
$PDSIZE
 40
3.0
  9
$HANDSEED
  5
50D
  9
$TILEMODE
 70
1
  9
$MEASUREMENT
 70
1
  9
$INSUNITS
 70
4
  0
ENDSEC
  0
SECTION
  2
CLASSES
  0
CLASS
  1
ACDBDICTIONARYWDFLT
  2
AcDbDictionaryWithDefault
  3
AutoCAD 2000
 90
0
 91
1
280
0
281
0
  0
CLASS
  1
ACDBPLACEHOLDER
  2
AcDbPlaceHolder
  3
AutoCAD 2000
 90
0
 91
1
280
0
281
0
  0
CLASS
  1
LAYOUT
  2
AcDbLayout
  3
AutoCAD 2000
 90
0
 91
0
280
0
281
0
  0
ENDSEC
  0
SECTION
  2
TABLES
  0
TABLE
  2
VPORT
  5
8
100
AcDbSymbolTable
 70
2
  0
VPORT
  5
1F4
100
AcDbSymbolTableRecord
100
AcDbViewportTableRecord
  2
*ACTIVE
 70
0
 10
0.0
 20
0.0
 11
1.0
 21
1.0
 12
148.5
 22
105.0
 13
0.0
 23
0.0
 14
1.0
 24
1.0
 15
0.0
 25
0.0
 16
0.0
 26
0.0
 36
1.0
 17
0.0
 27
0.0
 37
0.0
 40
210.0
 41
1.4142857143
 42
50.0
 43
0.0
 44
0.0
 50
0.0
 51
0.0
 71
0
 72
100
 73
1
 74
1
 75
0
 76
0
 77
0
 78
0
  0
ENDTAB
  0
TABLE
  2
LTYPE
  5
5
100
AcDbSymbolTable
 70
6
  0
LTYPE
  5
14
100
AcDbSymbolTableRecord
100
AcDbLinetypeTableRecord
  2
BYBLOCK
 70
0
  3

 72
65
 73
0
 40
0.0
  0
LTYPE
  5
15
100
AcDbSymbolTableRecord
100
AcDbLinetypeTableRecord
  2
BYLAYER
 70
0
  3

 72
65
 73
0
 40
0.0
  0
LTYPE
  5
16
100
AcDbSymbolTableRecord
100
AcDbLinetypeTableRecord
  2
CONTINUOUS
 70
64
  3
Solid line
 72
65
 73
0
 40
0.0
  0
LTYPE
  5
1F5
100
AcDbSymbolTableRecord
100
AcDbLinetypeTableRecord
  2
CENTER
 70
64
  3
____ _ ____ _ ____ _ ____ _ ____ _ ____ _ ____
 72
65
 73
4
 40
0.6
 49
0.375
 74
0
 49
-0.075
 74
0
 49
0.075
 74
0
 49
-0.075
 74
0
  0
LTYPE
  5
1F6
100
AcDbSymbolTableRecord
100
AcDbLinetypeTableRecord
  2
HIDDEN
 70
64
  3
- - - - - - - - - - - - - - - - - - - -
 72
65
 73
2
 40
0.2
 49
0.1
 74
0
 49
-0.1
 74
0
  0
LTYPE
  5
1F7
100
AcDbSymbolTableRecord
100
AcDbLinetypeTableRecord
  2
PHANTOM
 70
64
  3
_____ _ _ _____ _ _ _____ _ _ _____
 72
65
 73
6
 40
0.8
 49
0.45
 74
0
 49
-0.05
 74
0
 49
0.1
 74
0
 49
-0.05
 74
0
 49
0.1
 74
0
 49
-0.05
 74
0
  0
LTYPE
  5
1F8
100
AcDbSymbolTableRecord
100
AcDbLinetypeTableRecord
  2
DOT
 70
64
  3
. . . . . . . . . . . . . . . . . . . .
 72
65
 73
2
 40
0.2
 49
0.1
 74
0
 49
-0.1
 74
0
  0
LTYPE
  5
1F9
100
AcDbSymbolTableRecord
100
AcDbLinetypeTableRecord
  2
DASHED
 70
64
  3
- - - - - - - - - - - - - - - - - - - -
 72
65
 73
2
 40
0.2
 49
0.1
 74
0
 49
-0.1
 74
0
  0
ENDTAB
  0
TABLE
  2
LAYER
  5
2
100
AcDbSymbolTable
 70
36
  0
LAYER
  5
10
100
AcDbSymbolTableRecord
100
AcDbLayerTableRecord
  2
0
 70
0
 62
7
  6
CONTINUOUS
370
-3
390
F
  0
LAYER
  5
1FA
100
AcDbSymbolTableRecord
100
AcDbLayerTableRecord
  2
DEFAULT_1
 70
0
 62
7
  6
CENTER
370
-3
390
F
  0
LAYER
  5
1FB
100
AcDbSymbolTableRecord
100
AcDbLayerTableRecord
  2
DEFAULT_2
 70
0
 62
7
  6
HIDDEN
370
-3
390
F
  0
LAYER
  5
1FC
100
AcDbSymbolTableRecord
100
AcDbLayerTableRecord
  2
DEFAULT_3
 70
0
 62
7
  6
PHANTOM
370
-3
390
F
  0
LAYER
  5
1FD
100
AcDbSymbolTableRecord
100
AcDbLayerTableRecord
  2
ASSI
 70
0
 62
7
  6
CONTINUOUS
370
-3
390
F
  0
LAYER
  5
1FE
100
AcDbSymbolTableRecord
100
AcDbLayerTableRecord
  2
COORDINATE
 70
0
 62
7
  6
CONTINUOUS
370
-3
390
F
  0
LAYER
  5
1FF
100
AcDbSymbolTableRecord
100
AcDbLayerTableRecord
  2
COORD_ORIGINE
 70
0
 62
7
  6
CONTINUOUS
370
-3
390
F
  0
LAYER
  5
200
100
AcDbSymbolTableRecord
100
AcDbLayerTableRecord
  2
COPY_PUBLISH
 70
0
 62
7
  6
CONTINUOUS
370
-3
390
F
  0
LAYER
  5
201
100
AcDbSymbolTableRecord
100
AcDbLayerTableRecord
  2
COSMETIC
 70
0
 62
7
  6
CONTINUOUS
370
-3
390
F
  0
LAYER
  5
202
100
AcDbSymbolTableRecord
100
AcDbLayerTableRecord
  2
COSMETICI
 70
0
 62
7
  6
CONTINUOUS
370
-3
390
F
  0
LAYER
  5
203
100
AcDbSymbolTableRecord
100
AcDbLayerTableRecord
  2
CURVA_TASSELLO
 70
0
 62
7
  6
CONTINUOUS
370
-3
390
F
  0
LAYER
  5
204
100
AcDbSymbolTableRecord
100
AcDbLayerTableRecord
  2
CURVE
 70
0
 62
7
  6
CONTINUOUS
370
-3
390
F
  0
LAYER
  5
205
100
AcDbSymbolTableRecord
100
AcDbLayerTableRecord
  2
DRAFT
 70
0
 62
7
  6
CONTINUOUS
370
-3
390
F
  0
LAYER
  5
206
100
AcDbSymbolTableRecord
100
AcDbLayerTableRecord
  2
IMPORT_IGES
 70
0
 62
7
  6
CONTINUOUS
370
-3
390
F
  0
LAYER
  5
207
100
AcDbSymbolTableRecord
100
AcDbLayerTableRecord
  2
INTFCLR_2
 70
0
 62
7
  6
CONTINUOUS
370
-3
390
F
  0
LAYER
  5
208
100
AcDbSymbolTableRecord
100
AcDbLayerTableRecord
  2
INTF_1
 70
0
 62
7
  6
CONTINUOUS
370
-3
390
F
  0
LAYER
  5
209
100
AcDbSymbolTableRecord
100
AcDbLayerTableRecord
  2
INTF_6
 70
0
 62
7
  6
CONTINUOUS
370
-3
390
F
  0
LAYER
  5
20A
100
AcDbSymbolTableRecord
100
AcDbLayerTableRecord
  2
INTF_7
 70
0
 62
7
  6
CONTINUOUS
370
-3
390
F
  0
LAYER
  5
20B
100
AcDbSymbolTableRecord
100
AcDbLayerTableRecord
  2
LINEA_CHIUSURA
 70
0
 62
7
  6
CONTINUOUS
370
-3
390
F
  0
LAYER
  5
20C
100
AcDbSymbolTableRecord
100
AcDbLayerTableRecord
  2
LIVELLO_1
 70
0
 62
7
  6
CONTINUOUS
370
-3
390
F
  0
LAYER
  5
20D
100
AcDbSymbolTableRecord
100
AcDbLayerTableRecord
  2
NOTE
 70
0
 62
7
  6
CONTINUOUS
370
-3
390
F
  0
LAYER
  5
20E
100
AcDbSymbolTableRecord
100
AcDbLayerTableRecord
  2
PIANI
 70
0
 62
7
  6
CONTINUOUS
370
-3
390
F
  0
LAYER
  5
20F
100
AcDbSymbolTableRecord
100
AcDbLayerTableRecord
  2
PIANI_ORIGINE
 70
0
 62
7
  6
CONTINUOUS
370
-3
390
F
  0
LAYER
  5
210
100
AcDbSymbolTableRecord
100
AcDbLayerTableRecord
  2
PIANI_RIFERIMENTO
 70
0
 62
7
  6
CONTINUOUS
370
-3
390
F
  0
LAYER
  5
211
100
AcDbSymbolTableRecord
100
AcDbLayerTableRecord
  2
PUNTI
 70
0
 62
7
  6
CONTINUOUS
370
-3
390
F
  0
LAYER
  5
212
100
AcDbSymbolTableRecord
100
AcDbLayerTableRecord
  2
RACCORDO
 70
0
 62
7
  6
CONTINUOUS
370
-3
390
F
  0
LAYER
  5
213
100
AcDbSymbolTableRecord
100
AcDbLayerTableRecord
  2
RGB__255__255__255__
 70
0
 62
7
  6
CONTINUOUS
370
-3
390
F
  0
LAYER
  5
214
100
AcDbSymbolTableRecord
100
AcDbLayerTableRecord
  2
RGB____0____0____0__
 70
0
 62
7
  6
CONTINUOUS
370
-3
390
F
  0
LAYER
  5
215
100
AcDbSymbolTableRecord
100
AcDbLayerTableRecord
  2
SIMBOLI
 70
0
 62
7
  6
CONTINUOUS
370
-3
390
F
  0
LAYER
  5
216
100
AcDbSymbolTableRecord
100
AcDbLayerTableRecord
  2
SMUSSO
 70
0
 62
7
  6
CONTINUOUS
370
-3
390
F
  0
LAYER
  5
217
100
AcDbSymbolTableRecord
100
AcDbLayerTableRecord
  2
SNAPLINE
 70
0
 62
7
  6
CONTINUOUS
370
-3
390
F
  0
LAYER
  5
218
100
AcDbSymbolTableRecord
100
AcDbLayerTableRecord
  2
SUPERFICI
 70
0
 62
7
  6
CONTINUOUS
370
-3
390
F
  0
LAYER
  5
219
100
AcDbSymbolTableRecord
100
AcDbLayerTableRecord
  2
TRASH
 70
0
 62
7
  6
CONTINUOUS
370
-3
390
F
  0
LAYER
  5
21A
100
AcDbSymbolTableRecord
100
AcDbLayerTableRecord
  2
WHITE
 70
0
 62
7
  6
CONTINUOUS
370
-3
390
F
  0
LAYER
  5
21B
100
AcDbSymbolTableRecord
100
AcDbLayerTableRecord
  2
XSEC_DATUMS
 70
0
 62
7
  6
CONTINUOUS
370
-3
390
F
  0
ENDTAB
  0
TABLE
  2
STYLE
  5
3
100
AcDbSymbolTable
 70
1
  0
STYLE
  5
11
100
AcDbSymbolTableRecord
100
AcDbTextStyleTableRecord
  2
STANDARD
 70
0
 40
0.0
 41
0.8
 50
0.0
 71
0
 42
0.2
  3
txt
  4

  0
STYLE
  5
21C
100
AcDbSymbolTableRecord
100
AcDbTextStyleTableRecord
  2
TEXTSTYLE_1
 70
0
 40
0.0
 41
0.8
 50
0.0
 71
0
 42
0.2
  3
gdt
  4

  0
ENDTAB
  0
TABLE
  2
VIEW
  5
6
100
AcDbSymbolTable
 70
0
  0
ENDTAB
  0
TABLE
  2
UCS
  5
7
100
AcDbSymbolTable
 70
0
  0
ENDTAB
  0
TABLE
  2
APPID
  5
9
100
AcDbSymbolTable
 70
1
  0
APPID
  5
21D
100
AcDbSymbolTableRecord
100
AcDbRegAppTableRecord
  2
ACAD
 70
0
  0
ENDTAB
  0
TABLE
  2
BLOCK_RECORD
  5
1
100
AcDbSymbolTable
 70
0
  0
BLOCK_RECORD
  5
21E
100
AcDbSymbolTableRecord
100
AcDbBlockTableRecord
  2
*Model_Space
  0
BLOCK_RECORD
  5
21F
100
AcDbSymbolTableRecord
100
AcDbBlockTableRecord
  2
*Paper_Space
  0
BLOCK_RECORD
  5
220
100
AcDbSymbolTableRecord
100
AcDbBlockTableRecord
  2
_FILLED
  0
BLOCK_RECORD
  5
221
100
AcDbSymbolTableRecord
100
AcDbBlockTableRecord
  2
*D0
  0
BLOCK_RECORD
  5
222
100
AcDbSymbolTableRecord
100
AcDbBlockTableRecord
  2
*D1
  0
BLOCK_RECORD
  5
223
100
AcDbSymbolTableRecord
100
AcDbBlockTableRecord
  2
*D2
  0
BLOCK_RECORD
  5
224
100
AcDbSymbolTableRecord
100
AcDbBlockTableRecord
  2
*D3
  0
ENDTAB
  0
TABLE
  2
DIMSTYLE
  5
A
100
AcDbSymbolTable
 70
1
100
AcDbDimStyleTable
 71
0
  0
DIMSTYLE
105
225
100
AcDbSymbolTableRecord
100
AcDbDimStyleTableRecord
  2
STANDARD
 70
0
  3

  4

 40
1.0
 41
3.0
 42
0.5
 43
0.38
 44
1.5
 45
0.0
 46
0.0
 47
0.01
 48
0.01
140
3.0
141
0.09
142
0.0
143
25.4
144
1.0
145
0.0
146
1.0
147
0.625
 71
1
 72
0
 73
0
 74
0
 75
0
 76
0
 77
1
 78
8
 79
2
170
0
171
1
172
0
173
0
174
0
175
0
176
0
177
0
178
0
270
2
179
2
271
2
272
2
273
2
274
2
275
0
280
0
281
0
282
0
283
1
284
8
285
0
286
0
287
3
288
0
340
11
278
44
341
220
342
220
343
220
344
220
  0
DIMSTYLE
105
226
100
AcDbSymbolTableRecord
100
AcDbDimStyleTableRecord
  2
DIMSTYLE_1
 70
0
  3

  4

 40
1.0
 41
3.0
 42
0.5
 43
0.38
 44
1.5
 45
0.0
 46
0.0
 47
0.0
 48
0.0
140
3.0
141
0.09
142
0.0
143
25.4
144
1.0
145
0.0
146
1.0
147
0.75
 71
0
 72
0
 73
0
 74
0
 75
0
 76
0
 77
1
 78
8
 79
2
170
0
171
1
172
0
173
0
174
0
175
0
176
0
177
0
178
0
270
2
179
2
271
2
272
2
273
2
274
2
275
0
280
0
281
0
282
0
283
1
284
8
285
0
286
0
287
3
288
0
340
11
278
44
341
220
342
220
343
220
344
220
  0
ENDTAB
  0
ENDSEC
  0
SECTION
  2
BLOCKS
  0
BLOCK
  5
20
100
AcDbEntity
  8
0
100
AcDbBlockBegin
  2
*Model_Space
 70
0
 10
0.0
 20
0.0
 30
0.0
  3
*Model_Space
  1

  0
ENDBLK
  5
21
100
AcDbEntity
  8
0
100
AcDbBlockEnd
  0
BLOCK
  5
1C
100
AcDbEntity
  8
0
100
AcDbBlockBegin
  2
*Paper_Space
 70
0
 10
0.0
 20
0.0
 30
0.0
  3
*Paper_Space
  1

  0
ENDBLK
  5
1D
100
AcDbEntity
  8
0
100
AcDbBlockEnd
  0
BLOCK
  5
227
100
AcDbEntity
  8
0
100
AcDbBlockBegin
  2
_FILLED
 70
64
 10
0.0
 20
0.0
  3
_FILLED
  1

  0
SOLID
  5
228
100
AcDbEntity
  8
0
  6
BYBLOCK
 62
0
100
AcDbTrace
 10
0.0
 20
0.0
 11
-1.0
 21
0.3166666667
 12
-1.0
 22
-0.3166666667
 13
-1.0
 23
-0.3166666667
  0
ENDBLK
  5
229
100
AcDbEntity
  8
0
  6
BYBLOCK
 62
0
100
AcDbBlockEnd
  0
BLOCK
  5
22A
100
AcDbEntity
  8
0
100
AcDbBlockBegin
 62
7
  6
CONTINUOUS
  2
*D0
 70
65
 10
0.0
 20
0.0
  3
*D0
  1

  0
MTEXT
  5
22B
100
AcDbEntity
  8
0
100
AcDbMText
 62
7
  6
CONTINUOUS
  7
STANDARD
 71
2
 72
1
 10
0.0
 20
58.75
 30
0.0
 11
1.0
 21
0.0
 31
0.0
 73
2
 44
0.9
  1
{\ftxt;\W0.0001;\H0.0001;\~}{\ftxt;\W3.4285714286;\H3.0; }{\ftxt;\W0.0001;\H0.0001;\~}
 40
3.0
 41
15.4285714286
  0
LINE
  5
22C
100
AcDbEntity
  8
0
100
AcDbLine
 62
7
  6
CONTINUOUS
 10
-72.25
 20
44.4993911979
 11
-72.25
 21
56.5
  0
LINE
  5
22D
100
AcDbEntity
  8
0
100
AcDbLine
 62
7
  6
CONTINUOUS
 10
72.25
 20
44.4993911979
 11
72.25
 21
56.5
  0
LINE
  5
22E
100
AcDbEntity
  8
0
100
AcDbLine
 62
7
  6
CONTINUOUS
 10
-72.25
 20
55.0
 11
0.0
 21
55.0
  0
LINE
  5
22F
100
AcDbEntity
  8
0
100
AcDbLine
 62
7
  6
CONTINUOUS
 10
72.25
 20
55.0
 11
0.0
 21
55.0
  0
INSERT
  5
230
100
AcDbEntity
  8
0
100
AcDbBlockReference
 62
7
  6
CONTINUOUS
  2
_FILLED
 10
-72.25
 20
55.0
 41
3.0
 42
3.0
 43
3.0
 50
180.0
  0
INSERT
  5
231
100
AcDbEntity
  8
0
100
AcDbBlockReference
 62
7
  6
CONTINUOUS
  2
_FILLED
 10
72.25
 20
55.0
 41
3.0
 42
3.0
 43
3.0
 50
0.0
  0
ENDBLK
  5
232
100
AcDbEntity
  8
0
  6
BYBLOCK
 62
0
100
AcDbBlockEnd
  0
BLOCK
  5
233
100
AcDbEntity
  8
0
100
AcDbBlockBegin
 62
7
  6
CONTINUOUS
  2
*D1
 70
65
 10
0.0
 20
0.0
  3
*D1
  1

  0
MTEXT
  5
234
100
AcDbEntity
  8
0
100
AcDbMText
 62
7
  6
CONTINUOUS
  7
STANDARD
 71
2
 72
1
 10
78.5
 20
0.0
 30
0.0
 11
0.0
 21
1.0
 31
0.0
 73
2
 44
0.9
  1
{\ftxt;\W0.0001;\H0.0001;\~}{\ftxt;\W1.5714285714;\H3.0; }{\ftxt;\W0.0001;\H0.0001;\~}
 40
3.0
 41
7.0714285714
  0
LINE
  5
235
100
AcDbEntity
  8
0
100
AcDbLine
 62
7
  6
CONTINUOUS
 10
71.7493911979
 20
45.0
 11
83.75
 21
45.0
  0
LINE
  5
236
100
AcDbEntity
  8
0
100
AcDbLine
 62
7
  6
CONTINUOUS
 10
71.7493911979
 20
-45.0
 11
83.75
 21
-45.0
  0
LINE
  5
237
100
AcDbEntity
  8
0
100
AcDbLine
 62
7
  6
CONTINUOUS
 10
82.25
 20
45.0
 11
82.25
 21
0.0
  0
LINE
  5
238
100
AcDbEntity
  8
0
100
AcDbLine
 62
7
  6
CONTINUOUS
 10
82.25
 20
-45.0
 11
82.25
 21
0.0
  0
INSERT
  5
239
100
AcDbEntity
  8
0
100
AcDbBlockReference
 62
7
  6
CONTINUOUS
  2
_FILLED
 10
82.25
 20
45.0
 41
3.0
 42
3.0
 43
3.0
 50
90.0
  0
INSERT
  5
23A
100
AcDbEntity
  8
0
100
AcDbBlockReference
 62
7
  6
CONTINUOUS
  2
_FILLED
 10
82.25
 20
-45.0
 41
3.0
 42
3.0
 43
3.0
 50
270.0
  0
ENDBLK
  5
23B
100
AcDbEntity
  8
0
  6
BYBLOCK
 62
0
100
AcDbBlockEnd
  0
BLOCK
  5
23C
100
AcDbEntity
  8
0
100
AcDbBlockBegin
 62
7
  6
CONTINUOUS
  2
*D2
 70
65
 10
0.0
 20
0.0
  3
*D2
  1

  0
MTEXT
  5
23D
100
AcDbEntity
  8
0
100
AcDbMText
 62
7
  6
CONTINUOUS
  7
STANDARD
 71
3
 72
1
 10
-116.0140037276
 20
58.75
 30
0.0
 11
1.0
 21
0.0
 31
0.0
 73
2
 44
0.9
  1
{\ftxt;\W0.0001;\H0.0001;\~}{\ftxt;\W2.6428571429;\H3.0; }{\ftxt;\W0.0001;\H0.0001;\~}
 40
3.0
 41
11.8928571429
  0
LINE
  5
23E
100
AcDbEntity
  8
0
100
AcDbLine
 62
7
  6
CONTINUOUS
 10
-107.3933255518
 20
41.7038975196
 11
-107.3933255518
 21
56.5
  0
LINE
  5
23F
100
AcDbEntity
  8
0
100
AcDbLine
 62
7
  6
CONTINUOUS
 10
-114.5433255518
 20
43.8767374102
 11
-114.5433255518
 21
56.5
  0
LINE
  5
240
100
AcDbEntity
  8
0
100
AcDbLine
 62
7
  6
CONTINUOUS
 10
-107.3933255518
 20
55.0
 11
-110.9683255518
 21
55.0
  0
LINE
  5
241
100
AcDbEntity
  8
0
100
AcDbLine
 62
7
  6
CONTINUOUS
 10
-114.5433255518
 20
55.0
 11
-110.9683255518
 21
55.0
  0
LINE
  5
242
100
AcDbEntity
  8
0
100
AcDbLine
 62
7
  6
CONTINUOUS
 10
-110.9683255518
 20
55.0
 11
-123.9425751562
 21
55.0
  0
INSERT
  5
243
100
AcDbEntity
  8
0
100
AcDbBlockReference
 62
7
  6
CONTINUOUS
  2
_FILLED
 10
-107.3933255518
 20
55.0
 41
3.0
 42
3.0
 43
3.0
  0
INSERT
  5
244
100
AcDbEntity
  8
0
100
AcDbBlockReference
 62
7
  6
CONTINUOUS
  2
_FILLED
 10
-114.5433255518
 20
55.0
 41
3.0
 42
3.0
 43
3.0
 50
180.0
  0
ENDBLK
  5
245
100
AcDbEntity
  8
0
  6
BYBLOCK
 62
0
100
AcDbBlockEnd
  0
BLOCK
  5
246
100
AcDbEntity
  8
0
100
AcDbBlockBegin
 62
7
  6
CONTINUOUS
  2
*D3
 70
65
 10
0.0
 20
0.0
  3
*D3
  1

  0
MTEXT
  5
247
100
AcDbEntity
  8
0
100
AcDbMText
 62
7
  6
CONTINUOUS
  7
STANDARD
 71
3
 72
1
 10
-116.7897840303
 20
66.75
 30
0.0
 11
1.0
 21
0.0
 31
0.0
 73
2
 44
0.9
  1
{\ftxt;\W0.0001;\H0.0001;\~}{\ftxt;\W3.2142857143;\H3.0; }{\ftxt;\W0.0001;\H0.0001;\~}
 40
3.0
 41
14.4642857143
  0
LINE
  5
248
100
AcDbEntity
  8
0
100
AcDbLine
 62
7
  6
CONTINUOUS
 10
-114.5433255518
 20
43.8767374102
 11
-114.5433255518
 21
64.5
  0
LINE
  5
249
100
AcDbEntity
  8
0
100
AcDbLine
 62
7
  6
CONTINUOUS
 10
-104.3933255518
 20
26.5463167932
 11
-104.3933255518
 21
64.5
  0
LINE
  5
24A
100
AcDbEntity
  8
0
100
AcDbLine
 62
7
  6
CONTINUOUS
 10
-114.5433255518
 20
63.0
 11
-109.4683255518
 21
63.0
  0
LINE
  5
24B
100
AcDbEntity
  8
0
100
AcDbLine
 62
7
  6
CONTINUOUS
 10
-109.4683255518
 20
63.0
 11
-126.4326411732
 21
63.0
  0
LINE
  5
24C
100
AcDbEntity
  8
0
100
AcDbLine
 62
7
  6
CONTINUOUS
 10
-104.3933255518
 20
63.0
 11
-109.4683255518
 21
63.0
  0
INSERT
  5
24D
100
AcDbEntity
  8
0
100
AcDbBlockReference
 62
7
  6
CONTINUOUS
  2
_FILLED
 10
-114.5433255518
 20
63.0
 41
3.0
 42
3.0
 43
3.0
 50
180.0
  0
INSERT
  5
24E
100
AcDbEntity
  8
0
100
AcDbBlockReference
 62
7
  6
CONTINUOUS
  2
_FILLED
 10
-104.3933255518
 20
63.0
 41
3.0
 42
3.0
 43
3.0
  0
ENDBLK
  5
24F
100
AcDbEntity
  8
0
  6
BYBLOCK
 62
0
100
AcDbBlockEnd
  0
ENDSEC
  0
SECTION
  2
ENTITIES
  0
DIMENSION
  5
250
100
AcDbEntity
  8
0
100
AcDbDimension
 62
7
  6
CONTINUOUS
  2
*D0
 10
72.25
 20
55.0
 11
-0.4285713773
 21
55.0
 70
160
 71
2
 72
2
 41
0.9
 42
144.5
  1
{\ftxt;\W0.0001;\H0.0001;\~}{\ftxt;\W3.4285714286;\H3.0; }{\ftxt;\W0.0001;\H0.0001;\~}
  3
DIMSTYLE_1
100
AcDbAlignedDimension
 13
-72.25
 23
43.9993911979
 14
72.25
 24
43.9993911979
100
AcDbRotatedDimension
  0
DIMENSION
  5
251
100
AcDbEntity
  8
0
100
AcDbDimension
 62
7
  6
CONTINUOUS
  2
*D1
 10
82.25
 20
-45.0
 11
82.25
 21
-0.4285712171
 70
160
 71
2
 72
2
 41
0.9
 42
90.0
  1
{\ftxt;\W0.0001;\H0.0001;\~}{\ftxt;\W1.5714285714;\H3.0; }{\ftxt;\W0.0001;\H0.0001;\~}
  3
DIMSTYLE_1
100
AcDbAlignedDimension
 13
71.2493911979
 23
45.0
 14
71.2493911979
 24
-45.0
 50
270.0
100
AcDbRotatedDimension
  0
DIMENSION
  5
252
100
AcDbEntity
  8
0
100
AcDbDimension
 62
7
  6
CONTINUOUS
  2
*D2
 10
-114.5433255518
 20
55.0
 11
-120.4068617249
 21
55.0
 70
160
 71
3
 72
2
 41
0.9
 42
7.15
  1
{\ftxt;\W0.0001;\H0.0001;\~}{\ftxt;\W2.6428571429;\H3.0; }{\ftxt;\W0.0001;\H0.0001;\~}
  3
DIMSTYLE_1
100
AcDbAlignedDimension
 13
-107.3933255518
 23
41.2038975196
 14
-114.5433255518
 24
43.3767374102
 50
180.0
100
AcDbRotatedDimension
  0
DIMENSION
  5
253
100
AcDbEntity
  8
0
100
AcDbDimension
 62
7
  6
CONTINUOUS
  2
*D3
 10
-104.3933255518
 20
63.0
 11
-122.0397816467
 21
63.0
 70
160
 71
3
 72
2
 41
0.9
 42
10.15
  1
{\ftxt;\W0.0001;\H0.0001;\~}{\ftxt;\W3.2142857143;\H3.0; }{\ftxt;\W0.0001;\H0.0001;\~}
  3
DIMSTYLE_1
100
AcDbAlignedDimension
 13
-114.5433255518
 23
43.3767374102
 14
-104.3933255518
 24
26.0463167932
100
AcDbRotatedDimension
  0
LINE
  5
254
100
AcDbEntity
  8
0
100
AcDbLine
 62
7
  6
CONTINUOUS
 10
-71.0699854699
 20
44.7906993223
 11
-71.0555596544
 21
44.8061684565
  0
LINE
  5
255
100
AcDbEntity
  8
ASSI
100
AcDbLine
 62
7
  6
CONTINUOUS
 10
-71.0699854699
 20
44.7906993223
 11
-71.0555596544
 21
44.8061684565
  0
LINE
  5
256
100
AcDbEntity
  8
0
100
AcDbLine
 62
7
  6
CONTINUOUS
 10
-72.25
 20
43.9993911979
 11
-71.2493911979
 21
45.0
  0
LINE
  5
257
100
AcDbEntity
  8
ASSI
100
AcDbLine
 62
7
  6
CONTINUOUS
 10
-72.25
 20
43.9993911979
 11
-71.2493911979
 21
45.0
  0
LINE
  5
258
100
AcDbEntity
  8
0
100
AcDbLine
 62
7
  6
CONTINUOUS
 10
-71.0699854699
 20
44.7906993223
 11
-72.0406993223
 21
43.8199854699
  0
LINE
  5
259
100
AcDbEntity
  8
ASSI
100
AcDbLine
 62
7
  6
CONTINUOUS
 10
-71.0699854699
 20
44.7906993223
 11
-72.0406993223
 21
43.8199854699
  0
LINE
  5
25A
100
AcDbEntity
  8
0
100
AcDbLine
 62
7
  6
CONTINUOUS
 10
-70.6267374102
 20
43.7712689598
 11
-71.0212689598
 21
43.3767374102
  0
LINE
  5
25B
100
AcDbEntity
  8
ASSI
100
AcDbLine
 62
7
  6
CONTINUOUS
 10
-70.6267374102
 20
43.7712689598
 11
-71.0212689598
 21
43.3767374102
  0
LINE
  5
25C
100
AcDbEntity
  8
0
100
AcDbLine
 62
7
  6
CONTINUOUS
 10
-72.0561684565
 20
43.8055596544
 11
-72.0406993223
 21
43.8199854699
  0
LINE
  5
25D
100
AcDbEntity
  8
ASSI
100
AcDbLine
 62
7
  6
CONTINUOUS
 10
-72.0561684565
 20
43.8055596544
 11
-72.0406993223
 21
43.8199854699
  0
LINE
  5
25E
100
AcDbEntity
  8
0
100
AcDbLine
 62
7
  6
CONTINUOUS
 10
-72.0406993223
 20
-43.8199854699
 11
-72.0561684565
 21
-43.8055596544
  0
LINE
  5
25F
100
AcDbEntity
  8
ASSI
100
AcDbLine
 62
7
  6
CONTINUOUS
 10
-72.0406993223
 20
-43.8199854699
 11
-72.0561684565
 21
-43.8055596544
  0
LINE
  5
260
100
AcDbEntity
  8
0
100
AcDbLine
 62
7
  6
CONTINUOUS
 10
-71.2493911979
 20
-45.0
 11
-72.25
 21
-43.9993911979
  0
LINE
  5
261
100
AcDbEntity
  8
ASSI
100
AcDbLine
 62
7
  6
CONTINUOUS
 10
-71.2493911979
 20
-45.0
 11
-72.25
 21
-43.9993911979
  0
LINE
  5
262
100
AcDbEntity
  8
0
100
AcDbLine
 62
7
  6
CONTINUOUS
 10
-72.0406993223
 20
-43.8199854699
 11
-71.0699854699
 21
-44.7906993223
  0
LINE
  5
263
100
AcDbEntity
  8
ASSI
100
AcDbLine
 62
7
  6
CONTINUOUS
 10
-72.0406993223
 20
-43.8199854699
 11
-71.0699854699
 21
-44.7906993223
  0
LINE
  5
264
100
AcDbEntity
  8
0
100
AcDbLine
 62
7
  6
CONTINUOUS
 10
-71.0212689598
 20
-43.3767374102
 11
-70.6267374102
 21
-43.7712689598
  0
LINE
  5
265
100
AcDbEntity
  8
ASSI
100
AcDbLine
 62
7
  6
CONTINUOUS
 10
-71.0212689598
 20
-43.3767374102
 11
-70.6267374102
 21
-43.7712689598
  0
LINE
  5
266
100
AcDbEntity
  8
0
100
AcDbLine
 62
7
  6
CONTINUOUS
 10
-71.0555596544
 20
-44.8061684565
 11
-71.0699854699
 21
-44.7906993223
  0
LINE
  5
267
100
AcDbEntity
  8
ASSI
100
AcDbLine
 62
7
  6
CONTINUOUS
 10
-71.0555596544
 20
-44.8061684565
 11
-71.0699854699
 21
-44.7906993223
  0
LINE
  5
268
100
AcDbEntity
  8
0
100
AcDbLine
 62
7
  6
CONTINUOUS
 10
-72.25
 20
43.9993911979
 11
-72.25
 21
-43.9993911979
  0
LINE
  5
269
100
AcDbEntity
  8
ASSI
100
AcDbLine
 62
7
  6
CONTINUOUS
 10
-72.25
 20
43.9993911979
 11
-72.25
 21
-43.9993911979
  0
LINE
  5
26A
100
AcDbEntity
  8
0
100
AcDbLine
 62
7
  6
CONTINUOUS
 10
-72.0561684565
 20
43.8055596544
 11
-72.0561684565
 21
-43.8055596544
  0
LINE
  5
26B
100
AcDbEntity
  8
ASSI
100
AcDbLine
 62
7
  6
CONTINUOUS
 10
-72.0561684565
 20
43.8055596544
 11
-72.0561684565
 21
-43.8055596544
  0
LINE
  5
26C
100
AcDbEntity
  8
0
100
AcDbLine
 62
7
  6
CONTINUOUS
 10
-71.0212689598
 20
43.3767374102
 11
-71.0212689598
 21
-43.3767374102
  0
LINE
  5
26D
100
AcDbEntity
  8
ASSI
100
AcDbLine
 62
7
  6
CONTINUOUS
 10
-71.0212689598
 20
43.3767374102
 11
-71.0212689598
 21
-43.3767374102
  0
LINE
  5
26E
100
AcDbEntity
  8
0
100
AcDbLine
 62
7
  6
CONTINUOUS
 10
-70.6267374102
 20
-43.7712689598
 11
-71.0699854699
 21
-44.7906993223
  0
LINE
  5
26F
100
AcDbEntity
  8
ASSI
100
AcDbLine
 62
7
  6
CONTINUOUS
 10
-70.6267374102
 20
-43.7712689598
 11
-71.0699854699
 21
-44.7906993223
  0
LINE
  5
270
100
AcDbEntity
  8
0
100
AcDbLine
 62
7
  6
CONTINUOUS
 10
-71.2493911979
 20
-45.0
 11
71.2493911979
 21
-45.0
  0
LINE
  5
271
100
AcDbEntity
  8
ASSI
100
AcDbLine
 62
7
  6
CONTINUOUS
 10
-71.2493911979
 20
-45.0
 11
71.2493911979
 21
-45.0
  0
LINE
  5
272
100
AcDbEntity
  8
0
100
AcDbLine
 62
7
  6
CONTINUOUS
 10
-71.0555596544
 20
-44.8061684565
 11
71.0555596544
 21
-44.8061684565
  0
LINE
  5
273
100
AcDbEntity
  8
ASSI
100
AcDbLine
 62
7
  6
CONTINUOUS
 10
-71.0555596544
 20
-44.8061684565
 11
71.0555596544
 21
-44.8061684565
  0
LINE
  5
274
100
AcDbEntity
  8
0
100
AcDbLine
 62
7
  6
CONTINUOUS
 10
-70.6267374102
 20
43.7712689598
 11
-71.0699854699
 21
44.7906993223
  0
LINE
  5
275
100
AcDbEntity
  8
ASSI
100
AcDbLine
 62
7
  6
CONTINUOUS
 10
-70.6267374102
 20
43.7712689598
 11
-71.0699854699
 21
44.7906993223
  0
LINE
  5
276
100
AcDbEntity
  8
0
100
AcDbLine
 62
7
  6
CONTINUOUS
 10
-42.15
 20
-6.7
 11
-42.15
 21
6.7
  0
LINE
  5
277
100
AcDbEntity
  8
ASSI
100
AcDbLine
 62
7
  6
CONTINUOUS
 10
-42.15
 20
-6.7
 11
-42.15
 21
6.7
  0
LINE
  5
278
100
AcDbEntity
  8
0
100
AcDbLine
 62
7
  6
CONTINUOUS
 10
-41.65
 20
-6.7
 11
-41.65
 21
6.7
  0
LINE
  5
279
100
AcDbEntity
  8
ASSI
100
AcDbLine
 62
7
  6
CONTINUOUS
 10
-41.65
 20
-6.7
 11
-41.65
 21
6.7
  0
LINE
  5
27A
100
AcDbEntity
  8
0
100
AcDbLine
 62
250
  6
CONTINUOUS
 10
-40.45
 20
8.4
 11
-40.45
 21
7.9
  0
LINE
  5
27B
100
AcDbEntity
  8
ASSI
100
AcDbLine
 62
250
  6
CONTINUOUS
 10
-40.45
 20
8.4
 11
-40.45
 21
7.9
  0
LINE
  5
27C
100
AcDbEntity
  8
0
100
AcDbLine
 62
250
  6
CONTINUOUS
 10
-40.45
 20
-8.4
 11
-40.45
 21
-7.9
  0
LINE
  5
27D
100
AcDbEntity
  8
ASSI
100
AcDbLine
 62
250
  6
CONTINUOUS
 10
-40.45
 20
-8.4
 11
-40.45
 21
-7.9
  0
LWPOLYLINE
  5
27E
100
AcDbEntity
  8
0
100
AcDbPolyline
 62
7
  6
CONTINUOUS
 90
3
 70
0
 43
0.3500000006
 10
-5.1428570938
 20
57.8928615417
 10
-4.2857143393
 20
58.7499994812
 10
-4.2857143393
 20
55.7499985657
  0
LINE
  5
27F
100
AcDbEntity
  8
0
100
AcDbLine
 62
7
  6
CONTINUOUS
 10
-70.6267374102
 20
-43.7712689598
 11
70.6267374102
 21
-43.7712689598
  0
LINE
  5
280
100
AcDbEntity
  8
ASSI
100
AcDbLine
 62
7
  6
CONTINUOUS
 10
-70.6267374102
 20
-43.7712689598
 11
70.6267374102
 21
-43.7712689598
  0
LINE
  5
281
100
AcDbEntity
  8
CURVE
100
AcDbLine
 62
250
  6
CONTINUOUS
 10
72.110131217
 20
-36.257398
 11
72.1973759453
 21
-36.257398
  0
LINE
  5
282
100
AcDbEntity
  8
CURVE
100
AcDbLine
 62
250
  6
CONTINUOUS
 10
72.1973759453
 20
-35.735605
 11
72.110131217
 21
-35.735605
  0
LINE
  5
283
100
AcDbEntity
  8
CURVE
100
AcDbLine
 62
250
  6
CONTINUOUS
 10
72.1111556794
 20
-30.6285551388
 11
72.1973759458
 21
-30.6285551388
  0
LINE
  5
284
100
AcDbEntity
  8
CURVE
100
AcDbLine
 62
250
  6
CONTINUOUS
 10
72.1489474951
 20
-30.126163664
 11
72.1249985478
 21
-30.126163664
  0
LINE
  5
285
100
AcDbEntity
  8
CURVE
100
AcDbLine
 62
250
  6
CONTINUOUS
 10
72.1973759458
 20
-30.1088617972
 11
72.1632352194
 21
-30.1088617972
  0
LINE
  5
286
100
AcDbEntity
  8
CURVE
100
AcDbLine
 62
250
  6
CONTINUOUS
 10
72.1566533149
 20
-29.2870512436
 11
72.1561378054
 21
-29.2870512436
  0
LINE
  5
287
100
AcDbEntity
  8
0
100
AcDbLine
 62
250
  6
CONTINUOUS
 10
-27.05
 20
8.4
 11
-27.05
 21
7.9
  0
LINE
  5
288
100
AcDbEntity
  8
ASSI
100
AcDbLine
 62
250
  6
CONTINUOUS
 10
-27.05
 20
8.4
 11
-27.05
 21
7.9
  0
LINE
  5
289
100
AcDbEntity
  8
0
100
AcDbLine
 62
250
  6
CONTINUOUS
 10
-27.05
 20
-8.4
 11
-27.05
 21
-7.9
  0
LINE
  5
28A
100
AcDbEntity
  8
ASSI
100
AcDbLine
 62
250
  6
CONTINUOUS
 10
-27.05
 20
-8.4
 11
-27.05
 21
-7.9
  0
LINE
  5
28B
100
AcDbEntity
  8
0
100
AcDbLine
 62
7
  6
CONTINUOUS
 10
-25.85
 20
6.7
 11
-25.85
 21
-6.7
  0
LINE
  5
28C
100
AcDbEntity
  8
ASSI
100
AcDbLine
 62
7
  6
CONTINUOUS
 10
-25.85
 20
6.7
 11
-25.85
 21
-6.7
  0
LINE
  5
28D
100
AcDbEntity
  8
0
100
AcDbLine
 62
7
  6
CONTINUOUS
 10
-25.35
 20
6.7
 11
-25.35
 21
-6.7
  0
LINE
  5
28E
100
AcDbEntity
  8
ASSI
100
AcDbLine
 62
7
  6
CONTINUOUS
 10
-25.35
 20
6.7
 11
-25.35
 21
-6.7
  0
LINE
  5
28F
100
AcDbEntity
  8
0
100
AcDbLine
 62
7
  6
CONTINUOUS
 10
-19.65
 20
-6.7
 11
-19.65
 21
6.7
  0
LINE
  5
290
100
AcDbEntity
  8
ASSI
100
AcDbLine
 62
7
  6
CONTINUOUS
 10
-19.65
 20
-6.7
 11
-19.65
 21
6.7
  0
LINE
  5
291
100
AcDbEntity
  8
0
100
AcDbLine
 62
7
  6
CONTINUOUS
 10
-19.15
 20
-6.7
 11
-19.15
 21
6.7
  0
LINE
  5
292
100
AcDbEntity
  8
ASSI
100
AcDbLine
 62
7
  6
CONTINUOUS
 10
-19.15
 20
-6.7
 11
-19.15
 21
6.7
  0
LINE
  5
293
100
AcDbEntity
  8
0
100
AcDbLine
 62
250
  6
CONTINUOUS
 10
-17.95
 20
8.4
 11
-17.95
 21
7.9
  0
LINE
  5
294
100
AcDbEntity
  8
ASSI
100
AcDbLine
 62
250
  6
CONTINUOUS
 10
-17.95
 20
8.4
 11
-17.95
 21
7.9
  0
LINE
  5
295
100
AcDbEntity
  8
0
100
AcDbLine
 62
250
  6
CONTINUOUS
 10
-17.95
 20
-8.4
 11
-17.95
 21
-7.9
  0
LINE
  5
296
100
AcDbEntity
  8
ASSI
100
AcDbLine
 62
250
  6
CONTINUOUS
 10
-17.95
 20
-8.4
 11
-17.95
 21
-7.9
  0
LINE
  5
297
100
AcDbEntity
  8
0
100
AcDbLine
 62
7
  6
CONTINUOUS
 10
-72.0561684565
 20
-43.8055596544
 11
-72.25
 21
-43.9993911979
  0
LINE
  5
298
100
AcDbEntity
  8
ASSI
100
AcDbLine
 62
7
  6
CONTINUOUS
 10
-72.0561684565
 20
-43.8055596544
 11
-72.25
 21
-43.9993911979
  0
LINE
  5
299
100
AcDbEntity
  8
0
100
AcDbLine
 62
7
  6
CONTINUOUS
 10
-71.0555596544
 20
-44.8061684565
 11
-71.2493911979
 21
-45.0
  0
LINE
  5
29A
100
AcDbEntity
  8
ASSI
100
AcDbLine
 62
7
  6
CONTINUOUS
 10
-71.0555596544
 20
-44.8061684565
 11
-71.2493911979
 21
-45.0
  0
LINE
  5
29B
100
AcDbEntity
  8
0
100
AcDbLine
 62
7
  6
CONTINUOUS
 10
-72.0561684565
 20
43.8055596544
 11
-72.25
 21
43.9993911979
  0
LINE
  5
29C
100
AcDbEntity
  8
ASSI
100
AcDbLine
 62
7
  6
CONTINUOUS
 10
-72.0561684565
 20
43.8055596544
 11
-72.25
 21
43.9993911979
  0
LINE
  5
29D
100
AcDbEntity
  8
0
100
AcDbLine
 62
7
  6
CONTINUOUS
 10
-71.0555596544
 20
44.8061684565
 11
-71.2493911979
 21
45.0
  0
LINE
  5
29E
100
AcDbEntity
  8
ASSI
100
AcDbLine
 62
7
  6
CONTINUOUS
 10
-71.0555596544
 20
44.8061684565
 11
-71.2493911979
 21
45.0
  0
LWPOLYLINE
  5
29F
100
AcDbEntity
  8
0
100
AcDbPolyline
 62
7
  6
CONTINUOUS
 90
3
 70
0
 43
0.3500000006
 10
2.0000000439
 20
56.0357142334
 10
1.9285714102
 20
55.8214297485
 10
1.7857142844
 20
55.5357140808
  0
LINE
  5
2A0
100
AcDbEntity
  8
0
100
AcDbLine
 62
7
  6
CONTINUOUS
 10
71.0212689598
 20
43.3767374102
 11
72.0406993223
 21
43.8199854699
  0
LINE
  5
2A1
100
AcDbEntity
  8
ASSI
100
AcDbLine
 62
7
  6
CONTINUOUS
 10
71.0212689598
 20
43.3767374102
 11
72.0406993223
 21
43.8199854699
  0
LINE
  5
2A2
100
AcDbEntity
  8
0
100
AcDbLine
 62
7
  6
CONTINUOUS
 10
71.0212689598
 20
-43.3767374102
 11
72.0406993223
 21
-43.8199854699
  0
LINE
  5
2A3
100
AcDbEntity
  8
ASSI
100
AcDbLine
 62
7
  6
CONTINUOUS
 10
71.0212689598
 20
-43.3767374102
 11
72.0406993223
 21
-43.8199854699
  0
LINE
  5
2A4
100
AcDbEntity
  8
0
100
AcDbLine
 62
7
  6
CONTINUOUS
 10
40.45
 20
-8.4
 11
27.05
 21
-8.4
  0
LINE
  5
2A5
100
AcDbEntity
  8
ASSI
100
AcDbLine
 62
7
  6
CONTINUOUS
 10
40.45
 20
-8.4
 11
27.05
 21
-8.4
  0
LINE
  5
2A6
100
AcDbEntity
  8
0
100
AcDbLine
 62
7
  6
CONTINUOUS
 10
17.95
 20
-8.4
 11
4.55
 21
-8.4
  0
LINE
  5
2A7
100
AcDbEntity
  8
ASSI
100
AcDbLine
 62
7
  6
CONTINUOUS
 10
17.95
 20
-8.4
 11
4.55
 21
-8.4
  0
LINE
  5
2A8
100
AcDbEntity
  8
0
100
AcDbLine
 62
7
  6
CONTINUOUS
 10
-4.55
 20
-8.4
 11
-17.95
 21
-8.4
  0
LINE
  5
2A9
100
AcDbEntity
  8
ASSI
100
AcDbLine
 62
7
  6
CONTINUOUS
 10
-4.55
 20
-8.4
 11
-17.95
 21
-8.4
  0
LINE
  5
2AA
100
AcDbEntity
  8
0
100
AcDbLine
 62
7
  6
CONTINUOUS
 10
-27.05
 20
-8.4
 11
-40.45
 21
-8.4
  0
LINE
  5
2AB
100
AcDbEntity
  8
ASSI
100
AcDbLine
 62
7
  6
CONTINUOUS
 10
-27.05
 20
-8.4
 11
-40.45
 21
-8.4
  0
LINE
  5
2AC
100
AcDbEntity
  8
0
100
AcDbLine
 62
7
  6
CONTINUOUS
 10
40.45
 20
-7.9
 11
27.05
 21
-7.9
  0
LINE
  5
2AD
100
AcDbEntity
  8
ASSI
100
AcDbLine
 62
7
  6
CONTINUOUS
 10
40.45
 20
-7.9
 11
27.05
 21
-7.9
  0
LINE
  5
2AE
100
AcDbEntity
  8
0
100
AcDbLine
 62
7
  6
CONTINUOUS
 10
17.95
 20
-7.9
 11
4.55
 21
-7.9
  0
LINE
  5
2AF
100
AcDbEntity
  8
ASSI
100
AcDbLine
 62
7
  6
CONTINUOUS
 10
17.95
 20
-7.9
 11
4.55
 21
-7.9
  0
LINE
  5
2B0
100
AcDbEntity
  8
0
100
AcDbLine
 62
7
  6
CONTINUOUS
 10
-4.55
 20
-7.9
 11
-17.95
 21
-7.9
  0
LINE
  5
2B1
100
AcDbEntity
  8
ASSI
100
AcDbLine
 62
7
  6
CONTINUOUS
 10
-4.55
 20
-7.9
 11
-17.95
 21
-7.9
  0
LINE
  5
2B2
100
AcDbEntity
  8
0
100
AcDbLine
 62
7
  6
CONTINUOUS
 10
-27.05
 20
-7.9
 11
-40.45
 21
-7.9
  0
LINE
  5
2B3
100
AcDbEntity
  8
ASSI
100
AcDbLine
 62
7
  6
CONTINUOUS
 10
-27.05
 20
-7.9
 11
-40.45
 21
-7.9
  0
LINE
  5
2B4
100
AcDbEntity
  8
0
100
AcDbLine
 62
250
  6
CONTINUOUS
 10
-42.15
 20
-6.7
 11
-41.65
 21
-6.7
  0
LINE
  5
2B5
100
AcDbEntity
  8
ASSI
100
AcDbLine
 62
250
  6
CONTINUOUS
 10
-42.15
 20
-6.7
 11
-41.65
 21
-6.7
  0
LINE
  5
2B6
100
AcDbEntity
  8
0
100
AcDbLine
 62
250
  6
CONTINUOUS
 10
42.15
 20
-6.7
 11
41.65
 21
-6.7
  0
LINE
  5
2B7
100
AcDbEntity
  8
ASSI
100
AcDbLine
 62
250
  6
CONTINUOUS
 10
42.15
 20
-6.7
 11
41.65
 21
-6.7
  0
LINE
  5
2B8
100
AcDbEntity
  8
0
100
AcDbLine
 62
250
  6
CONTINUOUS
 10
-19.65
 20
-6.7
 11
-19.15
 21
-6.7
  0
LINE
  5
2B9
100
AcDbEntity
  8
ASSI
100
AcDbLine
 62
250
  6
CONTINUOUS
 10
-19.65
 20
-6.7
 11
-19.15
 21
-6.7
  0
LINE
  5
2BA
100
AcDbEntity
  8
0
100
AcDbLine
 62
250
  6
CONTINUOUS
 10
19.65
 20
-6.7
 11
19.15
 21
-6.7
  0
LINE
  5
2BB
100
AcDbEntity
  8
ASSI
100
AcDbLine
 62
250
  6
CONTINUOUS
 10
19.65
 20
-6.7
 11
19.15
 21
-6.7
  0
LINE
  5
2BC
100
AcDbEntity
  8
0
100
AcDbLine
 62
250
  6
CONTINUOUS
 10
2.85
 20
-6.7
 11
3.35
 21
-6.7
  0
LINE
  5
2BD
100
AcDbEntity
  8
ASSI
100
AcDbLine
 62
250
  6
CONTINUOUS
 10
2.85
 20
-6.7
 11
3.35
 21
-6.7
  0
LINE
  5
2BE
100
AcDbEntity
  8
0
100
AcDbLine
 62
250
  6
CONTINUOUS
 10
-2.85
 20
-6.7
 11
-3.35
 21
-6.7
  0
LINE
  5
2BF
100
AcDbEntity
  8
ASSI
100
AcDbLine
 62
250
  6
CONTINUOUS
 10
-2.85
 20
-6.7
 11
-3.35
 21
-6.7
  0
LINE
  5
2C0
100
AcDbEntity
  8
0
100
AcDbLine
 62
250
  6
CONTINUOUS
 10
25.35
 20
-6.7
 11
25.85
 21
-6.7
  0
LINE
  5
2C1
100
AcDbEntity
  8
ASSI
100
AcDbLine
 62
250
  6
CONTINUOUS
 10
25.35
 20
-6.7
 11
25.85
 21
-6.7
  0
LINE
  5
2C2
100
AcDbEntity
  8
0
100
AcDbLine
 62
250
  6
CONTINUOUS
 10
-25.35
 20
-6.7
 11
-25.85
 21
-6.7
  0
LINE
  5
2C3
100
AcDbEntity
  8
ASSI
100
AcDbLine
 62
250
  6
CONTINUOUS
 10
-25.35
 20
-6.7
 11
-25.85
 21
-6.7
  0
LINE
  5
2C4
100
AcDbEntity
  8
0
100
AcDbLine
 62
250
  6
CONTINUOUS
 10
-4.55
 20
8.4
 11
-4.55
 21
7.9
  0
LINE
  5
2C5
100
AcDbEntity
  8
ASSI
100
AcDbLine
 62
250
  6
CONTINUOUS
 10
-4.55
 20
8.4
 11
-4.55
 21
7.9
  0
LINE
  5
2C6
100
AcDbEntity
  8
0
100
AcDbLine
 62
250
  6
CONTINUOUS
 10
-4.55
 20
-8.4
 11
-4.55
 21
-7.9
  0
LINE
  5
2C7
100
AcDbEntity
  8
ASSI
100
AcDbLine
 62
250
  6
CONTINUOUS
 10
-4.55
 20
-8.4
 11
-4.55
 21
-7.9
  0
LINE
  5
2C8
100
AcDbEntity
  8
0
100
AcDbLine
 62
7
  6
CONTINUOUS
 10
-3.35
 20
6.7
 11
-3.35
 21
-6.7
  0
LINE
  5
2C9
100
AcDbEntity
  8
ASSI
100
AcDbLine
 62
7
  6
CONTINUOUS
 10
-3.35
 20
6.7
 11
-3.35
 21
-6.7
  0
LINE
  5
2CA
100
AcDbEntity
  8
0
100
AcDbLine
 62
7
  6
CONTINUOUS
 10
-2.85
 20
6.7
 11
-2.85
 21
-6.7
  0
LINE
  5
2CB
100
AcDbEntity
  8
ASSI
100
AcDbLine
 62
7
  6
CONTINUOUS
 10
-2.85
 20
6.7
 11
-2.85
 21
-6.7
  0
LWPOLYLINE
  5
2CC
100
AcDbEntity
  8
0
100
AcDbPolyline
 62
7
  6
CONTINUOUS
 90
2
 70
0
 43
0.3500000006
 10
-2.4285715628
 20
55.7499985657
 10
-2.4285715628
 20
57.2499990234
  0
LWPOLYLINE
  5
2CD
100
AcDbEntity
  8
0
100
AcDbPolyline
 62
7
  6
CONTINUOUS
 90
2
 70
0
 43
0.3500000006
 10
-0.0714285717
 20
55.7499985657
 10
-0.0714285717
 20
57.2499990234
  0
LWPOLYLINE
  5
2CE
100
AcDbEntity
  8
0
100
AcDbPolyline
 62
7
  6
CONTINUOUS
 90
13
 70
0
 43
0.3500000006
 10
80.6428597412
 20
-0.0000003204
 10
79.3571437683
 20
-0.0000003204
 10
78.9285747986
 20
0.2142864304
 10
78.4999967651
 20
0.642857666
 10
78.4999967651
 20
0.8571421509
 10
78.9285747986
 20
1.2857133865
 10
79.3571437683
 20
1.5000001373
 10
80.6428597412
 20
1.5000001373
 10
81.0714287109
 20
1.2857133865
 10
81.4999976807
 20
0.8571421509
 10
81.4999976807
 20
0.642857666
 10
81.0714287109
 20
0.2142864304
 10
80.6428597412
 20
-0.0000003204
  0
LINE
  5
2CF
100
AcDbEntity
  8
0
100
AcDbLine
 62
7
  6
CONTINUOUS
 10
2.85
 20
-6.7
 11
2.85
 21
6.7
  0
LINE
  5
2D0
100
AcDbEntity
  8
ASSI
100
AcDbLine
 62
7
  6
CONTINUOUS
 10
2.85
 20
-6.7
 11
2.85
 21
6.7
  0
LINE
  5
2D1
100
AcDbEntity
  8
0
100
AcDbLine
 62
7
  6
CONTINUOUS
 10
3.35
 20
-6.7
 11
3.35
 21
6.7
  0
LINE
  5
2D2
100
AcDbEntity
  8
ASSI
100
AcDbLine
 62
7
  6
CONTINUOUS
 10
3.35
 20
-6.7
 11
3.35
 21
6.7
  0
LINE
  5
2D3
100
AcDbEntity
  8
0
100
AcDbLine
 62
250
  6
CONTINUOUS
 10
4.55
 20
8.4
 11
4.55
 21
7.9
  0
LINE
  5
2D4
100
AcDbEntity
  8
ASSI
100
AcDbLine
 62
250
  6
CONTINUOUS
 10
4.55
 20
8.4
 11
4.55
 21
7.9
  0
LINE
  5
2D5
100
AcDbEntity
  8
0
100
AcDbLine
 62
250
  6
CONTINUOUS
 10
4.55
 20
-8.4
 11
4.55
 21
-7.9
  0
LINE
  5
2D6
100
AcDbEntity
  8
ASSI
100
AcDbLine
 62
250
  6
CONTINUOUS
 10
4.55
 20
-8.4
 11
4.55
 21
-7.9
  0
LINE
  5
2D7
100
AcDbEntity
  8
0
100
AcDbLine
 62
7
  6
CONTINUOUS
 10
-71.0212689598
 20
-43.3767374102
 11
-72.0406993223
 21
-43.8199854699
  0
LINE
  5
2D8
100
AcDbEntity
  8
ASSI
100
AcDbLine
 62
7
  6
CONTINUOUS
 10
-71.0212689598
 20
-43.3767374102
 11
-72.0406993223
 21
-43.8199854699
  0
LINE
  5
2D9
100
AcDbEntity
  8
0
100
AcDbLine
 62
250
  6
CONTINUOUS
 10
-42.15
 20
6.7
 11
-41.65
 21
6.7
  0
LINE
  5
2DA
100
AcDbEntity
  8
ASSI
100
AcDbLine
 62
250
  6
CONTINUOUS
 10
-42.15
 20
6.7
 11
-41.65
 21
6.7
  0
LINE
  5
2DB
100
AcDbEntity
  8
0
100
AcDbLine
 62
250
  6
CONTINUOUS
 10
42.15
 20
6.7
 11
41.65
 21
6.7
  0
LINE
  5
2DC
100
AcDbEntity
  8
ASSI
100
AcDbLine
 62
250
  6
CONTINUOUS
 10
42.15
 20
6.7
 11
41.65
 21
6.7
  0
LINE
  5
2DD
100
AcDbEntity
  8
0
100
AcDbLine
 62
250
  6
CONTINUOUS
 10
-19.65
 20
6.7
 11
-19.15
 21
6.7
  0
LINE
  5
2DE
100
AcDbEntity
  8
ASSI
100
AcDbLine
 62
250
  6
CONTINUOUS
 10
-19.65
 20
6.7
 11
-19.15
 21
6.7
  0
LINE
  5
2DF
100
AcDbEntity
  8
0
100
AcDbLine
 62
250
  6
CONTINUOUS
 10
19.65
 20
6.7
 11
19.15
 21
6.7
  0
LINE
  5
2E0
100
AcDbEntity
  8
ASSI
100
AcDbLine
 62
250
  6
CONTINUOUS
 10
19.65
 20
6.7
 11
19.15
 21
6.7
  0
LINE
  5
2E1
100
AcDbEntity
  8
0
100
AcDbLine
 62
250
  6
CONTINUOUS
 10
2.85
 20
6.7
 11
3.35
 21
6.7
  0
LINE
  5
2E2
100
AcDbEntity
  8
ASSI
100
AcDbLine
 62
250
  6
CONTINUOUS
 10
2.85
 20
6.7
 11
3.35
 21
6.7
  0
LINE
  5
2E3
100
AcDbEntity
  8
0
100
AcDbLine
 62
250
  6
CONTINUOUS
 10
-2.85
 20
6.7
 11
-3.35
 21
6.7
  0
LINE
  5
2E4
100
AcDbEntity
  8
ASSI
100
AcDbLine
 62
250
  6
CONTINUOUS
 10
-2.85
 20
6.7
 11
-3.35
 21
6.7
  0
LINE
  5
2E5
100
AcDbEntity
  8
0
100
AcDbLine
 62
250
  6
CONTINUOUS
 10
25.35
 20
6.7
 11
25.85
 21
6.7
  0
LINE
  5
2E6
100
AcDbEntity
  8
ASSI
100
AcDbLine
 62
250
  6
CONTINUOUS
 10
25.35
 20
6.7
 11
25.85
 21
6.7
  0
LINE
  5
2E7
100
AcDbEntity
  8
0
100
AcDbLine
 62
250
  6
CONTINUOUS
 10
-25.35
 20
6.7
 11
-25.85
 21
6.7
  0
LINE
  5
2E8
100
AcDbEntity
  8
ASSI
100
AcDbLine
 62
250
  6
CONTINUOUS
 10
-25.35
 20
6.7
 11
-25.85
 21
6.7
  0
LINE
  5
2E9
100
AcDbEntity
  8
0
100
AcDbLine
 62
7
  6
CONTINUOUS
 10
-40.45
 20
7.9
 11
-27.05
 21
7.9
  0
LINE
  5
2EA
100
AcDbEntity
  8
ASSI
100
AcDbLine
 62
7
  6
CONTINUOUS
 10
-40.45
 20
7.9
 11
-27.05
 21
7.9
  0
LINE
  5
2EB
100
AcDbEntity
  8
0
100
AcDbLine
 62
7
  6
CONTINUOUS
 10
-17.95
 20
7.9
 11
-4.55
 21
7.9
  0
LINE
  5
2EC
100
AcDbEntity
  8
ASSI
100
AcDbLine
 62
7
  6
CONTINUOUS
 10
-17.95
 20
7.9
 11
-4.55
 21
7.9
  0
LINE
  5
2ED
100
AcDbEntity
  8
0
100
AcDbLine
 62
7
  6
CONTINUOUS
 10
4.55
 20
7.9
 11
17.95
 21
7.9
  0
LINE
  5
2EE
100
AcDbEntity
  8
ASSI
100
AcDbLine
 62
7
  6
CONTINUOUS
 10
4.55
 20
7.9
 11
17.95
 21
7.9
  0
LINE
  5
2EF
100
AcDbEntity
  8
0
100
AcDbLine
 62
7
  6
CONTINUOUS
 10
27.05
 20
7.9
 11
40.45
 21
7.9
  0
LINE
  5
2F0
100
AcDbEntity
  8
ASSI
100
AcDbLine
 62
7
  6
CONTINUOUS
 10
27.05
 20
7.9
 11
40.45
 21
7.9
  0
LINE
  5
2F1
100
AcDbEntity
  8
0
100
AcDbLine
 62
7
  6
CONTINUOUS
 10
-40.45
 20
8.4
 11
-27.05
 21
8.4
  0
LINE
  5
2F2
100
AcDbEntity
  8
ASSI
100
AcDbLine
 62
7
  6
CONTINUOUS
 10
-40.45
 20
8.4
 11
-27.05
 21
8.4
  0
LINE
  5
2F3
100
AcDbEntity
  8
0
100
AcDbLine
 62
7
  6
CONTINUOUS
 10
-17.95
 20
8.4
 11
-4.55
 21
8.4
  0
LINE
  5
2F4
100
AcDbEntity
  8
ASSI
100
AcDbLine
 62
7
  6
CONTINUOUS
 10
-17.95
 20
8.4
 11
-4.55
 21
8.4
  0
LINE
  5
2F5
100
AcDbEntity
  8
0
100
AcDbLine
 62
7
  6
CONTINUOUS
 10
4.55
 20
8.4
 11
17.95
 21
8.4
  0
LINE
  5
2F6
100
AcDbEntity
  8
ASSI
100
AcDbLine
 62
7
  6
CONTINUOUS
 10
4.55
 20
8.4
 11
17.95
 21
8.4
  0
LINE
  5
2F7
100
AcDbEntity
  8
0
100
AcDbLine
 62
7
  6
CONTINUOUS
 10
27.05
 20
8.4
 11
40.45
 21
8.4
  0
LINE
  5
2F8
100
AcDbEntity
  8
ASSI
100
AcDbLine
 62
7
  6
CONTINUOUS
 10
27.05
 20
8.4
 11
40.45
 21
8.4
  0
LINE
  5
2F9
100
AcDbEntity
  8
0
100
AcDbLine
 62
7
  6
CONTINUOUS
 10
-71.0212689598
 20
43.3767374102
 11
-72.0406993223
 21
43.8199854699
  0
LINE
  5
2FA
100
AcDbEntity
  8
ASSI
100
AcDbLine
 62
7
  6
CONTINUOUS
 10
-71.0212689598
 20
43.3767374102
 11
-72.0406993223
 21
43.8199854699
  0
LINE
  5
2FB
100
AcDbEntity
  8
0
100
AcDbLine
 62
250
  6
CONTINUOUS
 10
17.95
 20
8.4
 11
17.95
 21
7.9
  0
LINE
  5
2FC
100
AcDbEntity
  8
ASSI
100
AcDbLine
 62
250
  6
CONTINUOUS
 10
17.95
 20
8.4
 11
17.95
 21
7.9
  0
LINE
  5
2FD
100
AcDbEntity
  8
0
100
AcDbLine
 62
250
  6
CONTINUOUS
 10
17.95
 20
-8.4
 11
17.95
 21
-7.9
  0
LINE
  5
2FE
100
AcDbEntity
  8
ASSI
100
AcDbLine
 62
250
  6
CONTINUOUS
 10
17.95
 20
-8.4
 11
17.95
 21
-7.9
  0
LINE
  5
2FF
100
AcDbEntity
  8
0
100
AcDbLine
 62
7
  6
CONTINUOUS
 10
19.15
 20
6.7
 11
19.15
 21
-6.7
  0
LINE
  5
300
100
AcDbEntity
  8
ASSI
100
AcDbLine
 62
7
  6
CONTINUOUS
 10
19.15
 20
6.7
 11
19.15
 21
-6.7
  0
LINE
  5
301
100
AcDbEntity
  8
0
100
AcDbLine
 62
7
  6
CONTINUOUS
 10
19.65
 20
6.7
 11
19.65
 21
-6.7
  0
LINE
  5
302
100
AcDbEntity
  8
ASSI
100
AcDbLine
 62
7
  6
CONTINUOUS
 10
19.65
 20
6.7
 11
19.65
 21
-6.7
  0
LINE
  5
303
100
AcDbEntity
  8
0
100
AcDbLine
 62
7
  6
CONTINUOUS
 10
71.0555596544
 20
44.8061684565
 11
71.2493911979
 21
45.0
  0
LINE
  5
304
100
AcDbEntity
  8
ASSI
100
AcDbLine
 62
7
  6
CONTINUOUS
 10
71.0555596544
 20
44.8061684565
 11
71.2493911979
 21
45.0
  0
LINE
  5
305
100
AcDbEntity
  8
0
100
AcDbLine
 62
7
  6
CONTINUOUS
 10
72.0561684565
 20
43.8055596544
 11
72.25
 21
43.9993911979
  0
LINE
  5
306
100
AcDbEntity
  8
ASSI
100
AcDbLine
 62
7
  6
CONTINUOUS
 10
72.0561684565
 20
43.8055596544
 11
72.25
 21
43.9993911979
  0
LINE
  5
307
100
AcDbEntity
  8
0
100
AcDbLine
 62
7
  6
CONTINUOUS
 10
71.0555596544
 20
-44.8061684565
 11
71.2493911979
 21
-45.0
  0
LINE
  5
308
100
AcDbEntity
  8
ASSI
100
AcDbLine
 62
7
  6
CONTINUOUS
 10
71.0555596544
 20
-44.8061684565
 11
71.2493911979
 21
-45.0
  0
LINE
  5
309
100
AcDbEntity
  8
0
100
AcDbLine
 62
7
  6
CONTINUOUS
 10
72.0561684565
 20
-43.8055596544
 11
72.25
 21
-43.9993911979
  0
LINE
  5
30A
100
AcDbEntity
  8
ASSI
100
AcDbLine
 62
7
  6
CONTINUOUS
 10
72.0561684565
 20
-43.8055596544
 11
72.25
 21
-43.9993911979
  0
LINE
  5
30B
100
AcDbEntity
  8
0
100
AcDbLine
 62
7
  6
CONTINUOUS
 10
25.35
 20
-6.7
 11
25.35
 21
6.7
  0
LINE
  5
30C
100
AcDbEntity
  8
ASSI
100
AcDbLine
 62
7
  6
CONTINUOUS
 10
25.35
 20
-6.7
 11
25.35
 21
6.7
  0
LINE
  5
30D
100
AcDbEntity
  8
0
100
AcDbLine
 62
7
  6
CONTINUOUS
 10
25.85
 20
-6.7
 11
25.85
 21
6.7
  0
LINE
  5
30E
100
AcDbEntity
  8
ASSI
100
AcDbLine
 62
7
  6
CONTINUOUS
 10
25.85
 20
-6.7
 11
25.85
 21
6.7
  0
LINE
  5
30F
100
AcDbEntity
  8
0
100
AcDbLine
 62
250
  6
CONTINUOUS
 10
27.05
 20
8.4
 11
27.05
 21
7.9
  0
LINE
  5
310
100
AcDbEntity
  8
ASSI
100
AcDbLine
 62
250
  6
CONTINUOUS
 10
27.05
 20
8.4
 11
27.05
 21
7.9
  0
LINE
  5
311
100
AcDbEntity
  8
0
100
AcDbLine
 62
250
  6
CONTINUOUS
 10
27.05
 20
-8.4
 11
27.05
 21
-7.9
  0
LINE
  5
312
100
AcDbEntity
  8
ASSI
100
AcDbLine
 62
250
  6
CONTINUOUS
 10
27.05
 20
-8.4
 11
27.05
 21
-7.9
  0
LWPOLYLINE
  5
313
100
AcDbEntity
  8
0
100
AcDbPolyline
 62
7
  6
CONTINUOUS
 90
10
 70
0
 43
0.3500000006
 10
1.9285714102
 20
56.2499987183
 10
2.0000000439
 20
56.1071454163
 10
2.0000000439
 20
56.0357142334
 10
1.8571429181
 20
55.8928609314
 10
1.7857142844
 20
55.8928609314
 10
1.7142856507
 20
55.9642830505
 10
1.7142856507
 20
56.0357142334
 10
1.7857142844
 20
56.1785675354
 10
1.8571429181
 20
56.2499987183
 10
1.9285714102
 20
56.2499987183
  0
LINE
  5
314
100
AcDbEntity
  8
0
100
AcDbLine
 62
250
  6
CONTINUOUS
 10
40.45
 20
8.4
 11
40.45
 21
7.9
  0
LINE
  5
315
100
AcDbEntity
  8
ASSI
100
AcDbLine
 62
250
  6
CONTINUOUS
 10
40.45
 20
8.4
 11
40.45
 21
7.9
  0
LINE
  5
316
100
AcDbEntity
  8
0
100
AcDbLine
 62
250
  6
CONTINUOUS
 10
40.45
 20
-8.4
 11
40.45
 21
-7.9
  0
LINE
  5
317
100
AcDbEntity
  8
ASSI
100
AcDbLine
 62
250
  6
CONTINUOUS
 10
40.45
 20
-8.4
 11
40.45
 21
-7.9
  0
LINE
  5
318
100
AcDbEntity
  8
0
100
AcDbLine
 62
7
  6
CONTINUOUS
 10
41.65
 20
6.7
 11
41.65
 21
-6.7
  0
LINE
  5
319
100
AcDbEntity
  8
ASSI
100
AcDbLine
 62
7
  6
CONTINUOUS
 10
41.65
 20
6.7
 11
41.65
 21
-6.7
  0
LINE
  5
31A
100
AcDbEntity
  8
0
100
AcDbLine
 62
7
  6
CONTINUOUS
 10
42.15
 20
6.7
 11
42.15
 21
-6.7
  0
LINE
  5
31B
100
AcDbEntity
  8
ASSI
100
AcDbLine
 62
7
  6
CONTINUOUS
 10
42.15
 20
6.7
 11
42.15
 21
-6.7
  0
LINE
  5
31C
100
AcDbEntity
  8
0
100
AcDbLine
 62
7
  6
CONTINUOUS
 10
70.6267374102
 20
43.7712689598
 11
-70.6267374102
 21
43.7712689598
  0
LINE
  5
31D
100
AcDbEntity
  8
ASSI
100
AcDbLine
 62
7
  6
CONTINUOUS
 10
70.6267374102
 20
43.7712689598
 11
-70.6267374102
 21
43.7712689598
  0
LINE
  5
31E
100
AcDbEntity
  8
0
100
AcDbLine
 62
7
  6
CONTINUOUS
 10
71.0555596544
 20
44.8061684565
 11
-71.0555596544
 21
44.8061684565
  0
LINE
  5
31F
100
AcDbEntity
  8
ASSI
100
AcDbLine
 62
7
  6
CONTINUOUS
 10
71.0555596544
 20
44.8061684565
 11
-71.0555596544
 21
44.8061684565
  0
LINE
  5
320
100
AcDbEntity
  8
0
100
AcDbLine
 62
7
  6
CONTINUOUS
 10
71.2493911979
 20
45.0
 11
-71.2493911979
 21
45.0
  0
LINE
  5
321
100
AcDbEntity
  8
ASSI
100
AcDbLine
 62
7
  6
CONTINUOUS
 10
71.2493911979
 20
45.0
 11
-71.2493911979
 21
45.0
  0
LINE
  5
322
100
AcDbEntity
  8
0
100
AcDbLine
 62
7
  6
CONTINUOUS
 10
70.6267374102
 20
43.7712689598
 11
71.0699854699
 21
44.7906993223
  0
LINE
  5
323
100
AcDbEntity
  8
ASSI
100
AcDbLine
 62
7
  6
CONTINUOUS
 10
70.6267374102
 20
43.7712689598
 11
71.0699854699
 21
44.7906993223
  0
LINE
  5
324
100
AcDbEntity
  8
CURVE
100
AcDbLine
 62
250
  6
CONTINUOUS
 10
72.1404101948
 20
-34.842919
 11
72.1973759453
 21
-34.955522
  0
LINE
  5
325
100
AcDbEntity
  8
0
100
AcDbLine
 62
7
  6
CONTINUOUS
 10
70.6267374102
 20
-43.7712689598
 11
71.0699854699
 21
-44.7906993223
  0
LINE
  5
326
100
AcDbEntity
  8
ASSI
100
AcDbLine
 62
7
  6
CONTINUOUS
 10
70.6267374102
 20
-43.7712689598
 11
71.0699854699
 21
-44.7906993223
  0
LWPOLYLINE
  5
327
100
AcDbEntity
  8
0
100
AcDbPolyline
 62
7
  6
CONTINUOUS
 90
8
 70
0
 43
0.3500000006
 10
3.0000000658
 20
55.7499985657
 10
3.8571428204
 20
55.7499985657
 10
4.2857143393
 20
56.1785675354
 10
4.2857143393
 20
57.0357145386
 10
3.8571428204
 20
57.4642835083
 10
3.0000000658
 20
57.4642835083
 10
3.0000000658
 20
58.7499994812
 10
4.2857143393
 20
58.7499994812
  0
LWPOLYLINE
  5
328
100
AcDbEntity
  8
0
100
AcDbPolyline
 62
7
  6
CONTINUOUS
 90
3
 70
0
 43
0.3500000006
 10
0.4285714127
 20
56.392861084
 10
-1.0714285848
 20
56.392861084
 10
-0.4285714127
 20
58.7499994812
  0
LWPOLYLINE
  5
329
100
AcDbEntity
  8
0
100
AcDbPolyline
 62
7
  6
CONTINUOUS
 90
3
 70
0
 43
0.3500000006
 10
-1.9285714102
 20
56.392861084
 10
-3.4285713015
 20
56.392861084
 10
-2.7857141647
 20
58.7499994812
  0
LWPOLYLINE
  5
32A
100
AcDbEntity
  8
0
100
AcDbPolyline
 62
7
  6
CONTINUOUS
 90
10
 70
0
 43
0.3500000006
 10
81.4999976807
 20
-1.9285708809
 10
80.6428597412
 20
-1.0714295425
 10
79.785712738
 20
-0.8571427917
 10
78.9285747986
 20
-0.8571427917
 10
78.4999967651
 20
-1.2857140274
 10
78.4999967651
 20
-1.9285708809
 10
78.9285747986
 20
-2.3571432495
 10
79.785712738
 20
-2.3571432495
 10
80.2142817078
 20
-1.9285708809
 10
80.2142817078
 20
-1.0000006256
  0
LINE
  5
32B
100
AcDbEntity
  8
CURVE
100
AcDbLine
 62
250
  6
CONTINUOUS
 10
72.1973759453
 20
-35.454708
 11
72.110136417
 21
-35.228996
  0
LINE
  5
32C
100
AcDbEntity
  8
CURVE
100
AcDbLine
 62
250
  6
CONTINUOUS
 10
72.110136417
 20
-36.451037
 11
72.1973759453
 21
-37.254552
  0
LINE
  5
32D
100
AcDbEntity
  8
CURVE
100
AcDbLine
 62
250
  6
CONTINUOUS
 10
72.1585720674
 20
-34.191353
 11
72.110136417
 21
-33.66956
  0
LINE
  5
32E
100
AcDbEntity
  8
CURVE
100
AcDbLine
 62
250
  6
CONTINUOUS
 10
72.140647651
 20
-33.5372
 11
72.1973759453
 21
-34.157611
  0
LINE
  5
32F
100
AcDbEntity
  8
CURVE
100
AcDbLine
 62
250
  6
CONTINUOUS
 10
72.1341076249
 20
-31.81095
 11
72.1664833296
 21
-32.070759
  0
LINE
  5
330
100
AcDbEntity
  8
CURVE
100
AcDbLine
 62
250
  6
CONTINUOUS
 10
72.1701860964
 20
-37.463524
 11
72.110136417
 21
-36.972473
  0
LINE
  5
331
100
AcDbEntity
  8
CURVE
100
AcDbLine
 62
250
  6
CONTINUOUS
 10
72.17995984
 20
-32.177494
 11
72.1973759453
 21
-32.321477
  0
LINE
  5
332
100
AcDbEntity
  8
CURVE
100
AcDbLine
 62
250
  6
CONTINUOUS
 10
72.1973759453
 20
-32.837608
 11
72.110136417
 21
-32.053532
  0
LINE
  5
333
100
AcDbEntity
  8
0
100
AcDbLine
 62
7
  6
CONTINUOUS
 10
71.0212689598
 20
-43.3767374102
 11
71.0212689598
 21
43.3767374102
  0
LINE
  5
334
100
AcDbEntity
  8
ASSI
100
AcDbLine
 62
7
  6
CONTINUOUS
 10
71.0212689598
 20
-43.3767374102
 11
71.0212689598
 21
43.3767374102
  0
LINE
  5
335
100
AcDbEntity
  8
0
100
AcDbLine
 62
7
  6
CONTINUOUS
 10
72.0561684565
 20
-43.8055596544
 11
72.0561684565
 21
43.8055596544
  0
LINE
  5
336
100
AcDbEntity
  8
ASSI
100
AcDbLine
 62
7
  6
CONTINUOUS
 10
72.0561684565
 20
-43.8055596544
 11
72.0561684565
 21
43.8055596544
  0
LINE
  5
337
100
AcDbEntity
  8
CURVE
100
AcDbLine
 62
250
  6
CONTINUOUS
 10
72.110131217
 20
-35.735605
 11
72.110131217
 21
-36.257398
  0
LINE
  5
338
100
AcDbEntity
  8
CURVE
100
AcDbLine
 62
250
  6
CONTINUOUS
 10
72.110136417
 20
-38.506847
 11
72.110136417
 21
-37.940019
  0
LINE
  5
339
100
AcDbEntity
  8
CURVE
100
AcDbLine
 62
250
  6
CONTINUOUS
 10
72.110136417
 20
-36.972473
 11
72.110136417
 21
-36.451037
  0
LINE
  5
33A
100
AcDbEntity
  8
CURVE
100
AcDbLine
 62
250
  6
CONTINUOUS
 10
72.110136417
 20
-35.228996
 11
72.110136417
 21
-34.707635
  0
LINE
  5
33B
100
AcDbEntity
  8
CURVE
100
AcDbLine
 62
250
  6
CONTINUOUS
 10
72.110136417
 20
-33.66956
 11
72.110136417
 21
-33.153297
  0
LINE
  5
33C
100
AcDbEntity
  8
CURVE
100
AcDbLine
 62
250
  6
CONTINUOUS
 10
72.110136417
 20
-32.053532
 11
72.110136417
 21
-31.54876
  0
LINE
  5
33D
100
AcDbEntity
  8
CURVE
100
AcDbLine
 62
250
  6
CONTINUOUS
 10
72.1489474951
 20
-29.8279642095
 11
72.1489474951
 21
-30.126163664
  0
LINE
  5
33E
100
AcDbEntity
  8
CURVE
100
AcDbLine
 62
250
  6
CONTINUOUS
 10
72.1632352194
 20
-30.1088617972
 11
72.1632352194
 21
-29.8290889245
  0
LINE
  5
33F
100
AcDbEntity
  8
CURVE
100
AcDbLine
 62
250
  6
CONTINUOUS
 10
72.1664833296
 20
-32.070759
 11
72.1664833296
 21
-31.571179
  0
LINE
  5
340
100
AcDbEntity
  8
CURVE
100
AcDbLine
 62
250
  6
CONTINUOUS
 10
72.17995984
 20
-31.466899
 11
72.17995984
 21
-32.177494
  0
LINE
  5
341
100
AcDbEntity
  8
CURVE
100
AcDbLine
 62
250
  6
CONTINUOUS
 10
72.1973759453
 20
-36.257398
 11
72.1973759453
 21
-35.735605
  0
LINE
  5
342
100
AcDbEntity
  8
CURVE
100
AcDbLine
 62
250
  6
CONTINUOUS
 10
72.1973759458
 20
-30.6285551388
 11
72.1973759458
 21
-30.1088617972
  0
LINE
  5
343
100
AcDbEntity
  8
CURVE
100
AcDbLine
 62
250
  6
CONTINUOUS
 10
72.1973759458
 20
-29.3098079785
 11
72.1973759458
 21
-28.8079038802
  0
LINE
  5
344
100
AcDbEntity
  8
CURVE
100
AcDbLine
 62
250
  6
CONTINUOUS
 10
72.1973759453
 20
-30.781779
 11
72.1973759453
 21
-31.331727
  0
LINE
  5
345
100
AcDbEntity
  8
CURVE
100
AcDbLine
 62
250
  6
CONTINUOUS
 10
72.1973759453
 20
-32.321477
 11
72.1973759453
 21
-32.837608
  0
LINE
  5
346
100
AcDbEntity
  8
CURVE
100
AcDbLine
 62
250
  6
CONTINUOUS
 10
72.1973759453
 20
-32.919544
 11
72.1973759453
 21
-33.429996
  0
LINE
  5
347
100
AcDbEntity
  8
CURVE
100
AcDbLine
 62
250
  6
CONTINUOUS
 10
72.1973759453
 20
-34.157611
 11
72.1973759453
 21
-34.230793
  0
LINE
  5
348
100
AcDbEntity
  8
CURVE
100
AcDbLine
 62
250
  6
CONTINUOUS
 10
72.1973759453
 20
-34.955522
 11
72.1973759453
 21
-35.454708
  0
LINE
  5
349
100
AcDbEntity
  8
CURVE
100
AcDbLine
 62
250
  6
CONTINUOUS
 10
72.1973759453
 20
-37.254552
 11
72.1973759453
 21
-37.714382
  0
LINE
  5
34A
100
AcDbEntity
  8
0
100
AcDbLine
 62
7
  6
CONTINUOUS
 10
72.25
 20
-43.9993911979
 11
72.25
 21
43.9993911979
  0
LINE
  5
34B
100
AcDbEntity
  8
ASSI
100
AcDbLine
 62
7
  6
CONTINUOUS
 10
72.25
 20
-43.9993911979
 11
72.25
 21
43.9993911979
  0
LINE
  5
34C
100
AcDbEntity
  8
CURVE
100
AcDbLine
 62
7
  6
CONTINUOUS
 10
72.1903230847
 20
-28.8611763
 11
72.1973759458
 21
-28.8541234389
  0
LINE
  5
34D
100
AcDbEntity
  8
CURVE
100
AcDbLine
 62
7
  6
CONTINUOUS
 10
72.1164942614
 20
-29.1450158374
 11
72.1514044164
 21
-29.1101056824
  0
LINE
  5
34E
100
AcDbEntity
  8
CURVE
100
AcDbLine
 62
7
  6
CONTINUOUS
 10
72.1630351519
 20
-29.0984749469
 11
72.1973759458
 21
-29.0641341529
  0
LINE
  5
34F
100
AcDbEntity
  8
CURVE
100
AcDbLine
 62
7
  6
CONTINUOUS
 10
72.1118693599
 20
-29.3596514529
 11
72.1973759458
 21
-29.274144867
  0
LINE
  5
350
100
AcDbEntity
  8
CURVE
100
AcDbLine
 62
7
  6
CONTINUOUS
 10
72.1456825097
 20
-29.5358490171
 11
72.1739482785
 21
-29.5075832483
  0
LINE
  5
351
100
AcDbEntity
  8
CURVE
100
AcDbLine
 62
7
  6
CONTINUOUS
 10
72.1100810983
 20
-29.5714504285
 11
72.126596684
 21
-29.5549348428
  0
LINE
  5
352
100
AcDbEntity
  8
CURVE
100
AcDbLine
 62
7
  6
CONTINUOUS
 10
72.1487066428
 20
-29.742835598
 11
72.1638426981
 21
-29.7276995427
  0
LINE
  5
353
100
AcDbEntity
  8
CURVE
100
AcDbLine
 62
7
  6
CONTINUOUS
 10
72.1093194135
 20
-29.7822228273
 11
72.1243228778
 21
-29.7672193631
  0
LINE
  5
354
100
AcDbEntity
  8
CURVE
100
AcDbLine
 62
7
  6
CONTINUOUS
 10
72.1489474951
 20
-29.9526054597
 11
72.1632352194
 21
-29.9383177355
  0
LINE
  5
355
100
AcDbEntity
  8
CURVE
100
AcDbLine
 62
7
  6
CONTINUOUS
 10
72.1091438682
 20
-29.9924090866
 11
72.1243312878
 21
-29.977221667
  0
LINE
  5
356
100
AcDbEntity
  8
CURVE
100
AcDbLine
 62
7
  6
CONTINUOUS
 10
72.1094624149
 20
-30.202101254
 11
72.1973759458
 21
-30.114187723
  0
LINE
  5
357
100
AcDbEntity
  8
CURVE
100
AcDbLine
 62
7
  6
CONTINUOUS
 10
72.1101645785
 20
-30.4114098043
 11
72.1973759458
 21
-30.324198437
  0
LINE
  5
358
100
AcDbEntity
  8
CURVE
100
AcDbLine
 62
7
  6
CONTINUOUS
 10
72.1111167529
 20
-30.620468344
 11
72.1973759458
 21
-30.534209151
  0
LINE
  5
359
100
AcDbEntity
  8
CURVE
100
AcDbLine
 62
7
  6
CONTINUOUS
 10
72.175243127
 20
-30.9763633979
 11
72.1973759453
 21
-30.9542305796
  0
LINE
  5
35A
100
AcDbEntity
  8
CURVE
100
AcDbLine
 62
7
  6
CONTINUOUS
 10
72.1482898861
 20
-31.2133273528
 11
72.1973759453
 21
-31.1642412936
  0
LINE
  5
35B
100
AcDbEntity
  8
CURVE
100
AcDbLine
 62
7
  6
CONTINUOUS
 10
72.1213366452
 20
-31.4502913077
 11
72.1910864936
 21
-31.3805414593
  0
LINE
  5
35C
100
AcDbEntity
  8
CURVE
100
AcDbLine
 62
7
  6
CONTINUOUS
 10
72.1664833296
 20
-31.6151553374
 11
72.17995984
 21
-31.6016788269
  0
LINE
  5
35D
100
AcDbEntity
  8
CURVE
100
AcDbLine
 62
7
  6
CONTINUOUS
 10
72.110136417
 20
-31.67150225
 11
72.1596183479
 21
-31.6220203191
  0
LINE
  5
35E
100
AcDbEntity
  8
CURVE
100
AcDbLine
 62
7
  6
CONTINUOUS
 10
72.1664833296
 20
-31.8251660514
 11
72.17995984
 21
-31.8116895409
  0
LINE
  5
35F
100
AcDbEntity
  8
CURVE
100
AcDbLine
 62
7
  6
CONTINUOUS
 10
72.110136417
 20
-31.881512964
 11
72.1392702529
 21
-31.8523791281
  0
LINE
  5
360
100
AcDbEntity
  8
CURVE
100
AcDbLine
 62
7
  6
CONTINUOUS
 10
72.1664833296
 20
-32.0351767654
 11
72.17995984
 21
-32.0217002549
  0
LINE
  5
361
100
AcDbEntity
  8
CURVE
100
AcDbLine
 62
7
  6
CONTINUOUS
 10
72.1139402928
 20
-32.0877198022
 11
72.1625406183
 21
-32.0391194766
  0
LINE
  5
362
100
AcDbEntity
  8
CURVE
100
AcDbLine
 62
7
  6
CONTINUOUS
 10
72.1349673892
 20
-32.2767034198
 11
72.1858102345
 21
-32.2258605744
  0
LINE
  5
363
100
AcDbEntity
  8
CURVE
100
AcDbLine
 62
7
  6
CONTINUOUS
 10
72.1559944856
 20
-32.4656870373
 11
72.1973759453
 21
-32.4243055777
  0
LINE
  5
364
100
AcDbEntity
  8
CURVE
100
AcDbLine
 62
7
  6
CONTINUOUS
 10
72.1770215821
 20
-32.6546706549
 11
72.1973759453
 21
-32.6343162917
  0
LINE
  5
365
100
AcDbEntity
  8
CURVE
100
AcDbLine
 62
7
  6
CONTINUOUS
 10
72.1171147898
 20
-33.1345988752
 11
72.1973759453
 21
-33.0543377198
  0
LINE
  5
366
100
AcDbEntity
  8
CURVE
100
AcDbLine
 62
250
  6
CONTINUOUS
 10
72.1973759453
 20
-34.230793
 11
72.1404101948
 21
-34.842919
  0
LINE
  5
367
100
AcDbEntity
  8
CURVE
100
AcDbLine
 62
250
  6
CONTINUOUS
 10
72.110136417
 20
-34.707635
 11
72.1585720674
 21
-34.191353
  0
LINE
  5
368
100
AcDbEntity
  8
CURVE
100
AcDbLine
 62
250
  6
CONTINUOUS
 10
72.1973759453
 20
-37.714382
 11
72.110136417
 21
-38.506847
  0
LINE
  5
369
100
AcDbEntity
  8
CURVE
100
AcDbLine
 62
250
  6
CONTINUOUS
 10
72.110136417
 20
-31.54876
 11
72.1973759453
 21
-30.781779
  0
LINE
  5
36A
100
AcDbEntity
  8
CURVE
100
AcDbLine
 62
250
  6
CONTINUOUS
 10
72.110136417
 20
-37.940019
 11
72.1701860964
 21
-37.463524
  0
LINE
  5
36B
100
AcDbEntity
  8
CURVE
100
AcDbLine
 62
250
  6
CONTINUOUS
 10
72.1973759453
 20
-31.331727
 11
72.17995984
 21
-31.466899
  0
LINE
  5
36C
100
AcDbEntity
  8
CURVE
100
AcDbLine
 62
250
  6
CONTINUOUS
 10
72.1664833296
 20
-31.571179
 11
72.1341076249
 21
-31.81095
  0
LINE
  5
36D
100
AcDbEntity
  8
CURVE
100
AcDbLine
 62
250
  6
CONTINUOUS
 10
72.110136417
 20
-33.153297
 11
72.1973759453
 21
-32.919544
  0
LINE
  5
36E
100
AcDbEntity
  8
CURVE
100
AcDbLine
 62
250
  6
CONTINUOUS
 10
72.1973759453
 20
-33.429996
 11
72.140647651
 21
-33.5372
  0
LINE
  5
36F
100
AcDbEntity
  8
0
100
AcDbLine
 62
7
  6
CONTINUOUS
 10
71.0699854699
 20
-44.7906993223
 11
71.0555596544
 21
-44.8061684565
  0
LINE
  5
370
100
AcDbEntity
  8
ASSI
100
AcDbLine
 62
7
  6
CONTINUOUS
 10
71.0699854699
 20
-44.7906993223
 11
71.0555596544
 21
-44.8061684565
  0
LINE
  5
371
100
AcDbEntity
  8
CURVE
100
AcDbLine
 62
7
  6
CONTINUOUS
 10
72.110136417
 20
-33.3515879621
 11
72.1973759453
 21
-33.2643484338
  0
LINE
  5
372
100
AcDbEntity
  8
CURVE
100
AcDbLine
 62
7
  6
CONTINUOUS
 10
72.110136417
 20
-33.5615986761
 11
72.1475173912
 21
-33.5242177019
  0
LINE
  5
373
100
AcDbEntity
  8
CURVE
100
AcDbLine
 62
7
  6
CONTINUOUS
 10
72.1188045689
 20
-33.7629412381
 11
72.157729505
 21
-33.724016302
  0
LINE
  5
374
100
AcDbEntity
  8
CURVE
100
AcDbLine
 62
7
  6
CONTINUOUS
 10
72.1366430369
 20
-33.9551134842
 11
72.1753234472
 21
-33.9164330739
  0
LINE
  5
375
100
AcDbEntity
  8
CURVE
100
AcDbLine
 62
7
  6
CONTINUOUS
 10
72.1544815049
 20
-34.1472857302
 11
72.1929173894
 21
-34.1088498457
  0
LINE
  5
376
100
AcDbEntity
  8
CURVE
100
AcDbLine
 62
7
  6
CONTINUOUS
 10
72.1418156053
 20
-34.3699623438
 11
72.1887967113
 21
-34.3229812378
  0
LINE
  5
377
100
AcDbEntity
  8
CURVE
100
AcDbLine
 62
7
  6
CONTINUOUS
 10
72.1200734126
 20
-34.6017152505
 11
72.1672472255
 21
-34.5545414376
  0
LINE
  5
378
100
AcDbEntity
  8
CURVE
100
AcDbLine
 62
7
  6
CONTINUOUS
 10
72.110136417
 20
-34.8216629601
 11
72.1456977397
 21
-34.7861016374
  0
LINE
  5
379
100
AcDbEntity
  8
CURVE
100
AcDbLine
 62
7
  6
CONTINUOUS
 10
72.110136417
 20
-35.0316736742
 11
72.1936510376
 21
-34.9481590535
  0
LINE
  5
37A
100
AcDbEntity
  8
CURVE
100
AcDbLine
 62
7
  6
CONTINUOUS
 10
72.1136734791
 20
-35.238147326
 11
72.1973759453
 21
-35.1544448599
  0
LINE
  5
37B
100
AcDbEntity
  8
CURVE
100
AcDbLine
 62
7
  6
CONTINUOUS
 10
72.1722168444
 20
-35.3896146748
 11
72.1973759453
 21
-35.3644555739
  0
LINE
  5
37C
100
AcDbEntity
  8
CURVE
100
AcDbLine
 62
7
  6
CONTINUOUS
 10
72.110131217
 20
-35.8717217302
 11
72.1973759453
 21
-35.7844770019
  0
LINE
  5
37D
100
AcDbEntity
  8
CURVE
100
AcDbLine
 62
7
  6
CONTINUOUS
 10
72.110131217
 20
-36.0817324442
 11
72.1973759453
 21
-35.9944877159
  0
LINE
  5
37E
100
AcDbEntity
  8
CURVE
100
AcDbLine
 62
7
  6
CONTINUOUS
 10
72.1444763752
 20
-36.257398
 11
72.1973759453
 21
-36.2044984299
  0
LINE
  5
37F
100
AcDbEntity
  8
CURVE
100
AcDbLine
 62
7
  6
CONTINUOUS
 10
72.110136417
 20
-36.5017486722
 11
72.1151030629
 21
-36.4967820263
  0
LINE
  5
380
100
AcDbEntity
  8
CURVE
100
AcDbLine
 62
7
  6
CONTINUOUS
 10
72.110136417
 20
-36.7117593863
 11
72.1356712835
 21
-36.6862245197
  0
LINE
  5
381
100
AcDbEntity
  8
CURVE
100
AcDbLine
 62
7
  6
CONTINUOUS
 10
72.110136417
 20
-36.9217701003
 11
72.1562395041
 21
-36.8756670131
  0
LINE
  5
382
100
AcDbEntity
  8
CURVE
100
AcDbLine
 62
7
  6
CONTINUOUS
 10
72.1274951021
 20
-37.1144221291
 11
72.1768077247
 21
-37.0651095066
  0
LINE
  5
383
100
AcDbEntity
  8
CURVE
100
AcDbLine
 62
7
  6
CONTINUOUS
 10
72.1503785362
 20
-37.3015494091
 11
72.1973759453
 21
-37.254552
  0
LINE
  5
384
100
AcDbEntity
  8
CURVE
100
AcDbLine
 62
7
  6
CONTINUOUS
 10
72.1661156553
 20
-37.495823004
 11
72.1973759453
 21
-37.464562714
  0
LINE
  5
385
100
AcDbEntity
  8
CURVE
100
AcDbLine
 62
7
  6
CONTINUOUS
 10
72.1358329857
 20
-37.7361163876
 11
72.1973759453
 21
-37.674573428
  0
LINE
  5
386
100
AcDbEntity
  8
CURVE
100
AcDbLine
 62
7
  6
CONTINUOUS
 10
72.110136417
 20
-37.9718236703
 11
72.1763211831
 21
-37.9056389042
  0
LINE
  5
387
100
AcDbEntity
  8
CURVE
100
AcDbLine
 62
7
  6
CONTINUOUS
 10
72.110136417
 20
-38.1818343843
 11
72.1503419235
 21
-38.1416288779
  0
LINE
  5
388
100
AcDbEntity
  8
CURVE
100
AcDbLine
 62
7
  6
CONTINUOUS
 10
72.110136417
 20
-38.3918450984
 11
72.1243626638
 21
-38.3776188515
  0
LINE
  5
389
100
AcDbEntity
  8
0
100
AcDbLine
 62
7
  6
CONTINUOUS
 10
70.6267374102
 20
-43.7712689598
 11
71.0212689598
 21
-43.3767374102
  0
LINE
  5
38A
100
AcDbEntity
  8
ASSI
100
AcDbLine
 62
7
  6
CONTINUOUS
 10
70.6267374102
 20
-43.7712689598
 11
71.0212689598
 21
-43.3767374102
  0
LINE
  5
38B
100
AcDbEntity
  8
0
100
AcDbLine
 62
7
  6
CONTINUOUS
 10
71.0699854699
 20
-44.7906993223
 11
72.0406993223
 21
-43.8199854699
  0
LINE
  5
38C
100
AcDbEntity
  8
ASSI
100
AcDbLine
 62
7
  6
CONTINUOUS
 10
71.0699854699
 20
-44.7906993223
 11
72.0406993223
 21
-43.8199854699
  0
LINE
  5
38D
100
AcDbEntity
  8
0
100
AcDbLine
 62
7
  6
CONTINUOUS
 10
72.25
 20
-43.9993911979
 11
71.2493911979
 21
-45.0
  0
LINE
  5
38E
100
AcDbEntity
  8
ASSI
100
AcDbLine
 62
7
  6
CONTINUOUS
 10
72.25
 20
-43.9993911979
 11
71.2493911979
 21
-45.0
  0
LINE
  5
38F
100
AcDbEntity
  8
0
100
AcDbLine
 62
7
  6
CONTINUOUS
 10
72.0561684565
 20
-43.8055596544
 11
72.0406993223
 21
-43.8199854699
  0
LINE
  5
390
100
AcDbEntity
  8
ASSI
100
AcDbLine
 62
7
  6
CONTINUOUS
 10
72.0561684565
 20
-43.8055596544
 11
72.0406993223
 21
-43.8199854699
  0
LINE
  5
391
100
AcDbEntity
  8
0
100
AcDbLine
 62
7
  6
CONTINUOUS
 10
72.0406993223
 20
43.8199854699
 11
72.0561684565
 21
43.8055596544
  0
LINE
  5
392
100
AcDbEntity
  8
ASSI
100
AcDbLine
 62
7
  6
CONTINUOUS
 10
72.0406993223
 20
43.8199854699
 11
72.0561684565
 21
43.8055596544
  0
LINE
  5
393
100
AcDbEntity
  8
0
100
AcDbLine
 62
7
  6
CONTINUOUS
 10
71.0212689598
 20
43.3767374102
 11
70.6267374102
 21
43.7712689598
  0
LINE
  5
394
100
AcDbEntity
  8
ASSI
100
AcDbLine
 62
7
  6
CONTINUOUS
 10
71.0212689598
 20
43.3767374102
 11
70.6267374102
 21
43.7712689598
  0
LINE
  5
395
100
AcDbEntity
  8
0
100
AcDbLine
 62
7
  6
CONTINUOUS
 10
72.0406993223
 20
43.8199854699
 11
71.0699854699
 21
44.7906993223
  0
LINE
  5
396
100
AcDbEntity
  8
ASSI
100
AcDbLine
 62
7
  6
CONTINUOUS
 10
72.0406993223
 20
43.8199854699
 11
71.0699854699
 21
44.7906993223
  0
LINE
  5
397
100
AcDbEntity
  8
0
100
AcDbLine
 62
7
  6
CONTINUOUS
 10
71.2493911979
 20
45.0
 11
72.25
 21
43.9993911979
  0
LINE
  5
398
100
AcDbEntity
  8
ASSI
100
AcDbLine
 62
7
  6
CONTINUOUS
 10
71.2493911979
 20
45.0
 11
72.25
 21
43.9993911979
  0
LINE
  5
399
100
AcDbEntity
  8
0
100
AcDbLine
 62
7
  6
CONTINUOUS
 10
71.0555596544
 20
44.8061684565
 11
71.0699854699
 21
44.7906993223
  0
LINE
  5
39A
100
AcDbEntity
  8
ASSI
100
AcDbLine
 62
7
  6
CONTINUOUS
 10
71.0555596544
 20
44.8061684565
 11
71.0699854699
 21
44.7906993223
  0
LWPOLYLINE
  5
39B
100
AcDbEntity
  8
0
100
AcDbPolyline
 62
7
  6
CONTINUOUS
 90
3
 70
0
 43
0.3500000006
 10
-126.4326407776
 20
65.8928549194
 10
-125.5755028381
 20
66.7500019226
 10
-125.5755028381
 20
63.7500010071
  0
LWPOLYLINE
  5
39C
100
AcDbEntity
  8
0
100
AcDbPolyline
 62
7
  6
CONTINUOUS
 90
3
 70
0
 43
0.3500000006
 10
-120.6469234314
 20
65.8928549194
 10
-119.7897854919
 20
66.7500019226
 10
-119.7897854919
 20
63.7500010071
  0
LWPOLYLINE
  5
39D
100
AcDbEntity
  8
0
100
AcDbPolyline
 62
7
  6
CONTINUOUS
 90
3
 70
0
 43
0.3500000006
 10
-119.8711505127
 20
57.8928615417
 10
-119.0140035095
 20
58.7499994812
 10
-119.0140035095
 20
55.7499985657
  0
LINE
  5
39E
100
AcDbEntity
  8
0
100
AcDbLine
 62
7
  6
CONTINUOUS
 10
-113.5439347248
 20
-44.8061684565
 11
-107.9933255518
 21
-45.0
  0
LINE
  5
39F
100
AcDbEntity
  8
ASSI
100
AcDbLine
 62
7
  6
CONTINUOUS
 10
-113.5439347248
 20
-44.8061684565
 11
-107.9933255518
 21
-45.0
  0
LINE
  5
3A0
100
AcDbEntity
  8
0
100
AcDbLine
 62
7
  6
CONTINUOUS
 10
-113.5439347248
 20
-43.8055596544
 11
-107.9933255518
 21
-43.9993911979
  0
LINE
  5
3A1
100
AcDbEntity
  8
ASSI
100
AcDbLine
 62
7
  6
CONTINUOUS
 10
-113.5439347248
 20
-43.8055596544
 11
-107.9933255518
 21
-43.9993911979
  0
LINE
  5
3A2
100
AcDbEntity
  8
0
100
AcDbLine
 62
7
  6
CONTINUOUS
 10
-107.9933255518
 20
-42.7580439128
 11
-107.3933255518
 21
-42.8
  0
LINE
  5
3A3
100
AcDbEntity
  8
0
100
AcDbLine
 62
7
  6
CONTINUOUS
 10
-114.5433255518
 20
43.3767374102
 11
-113.558873094
 21
43.8199854699
  0
LINE
  5
3A4
100
AcDbEntity
  8
ASSI
100
AcDbLine
 62
7
  6
CONTINUOUS
 10
-114.5433255518
 20
43.3767374102
 11
-113.558873094
 21
43.8199854699
  0
LINE
  5
3A5
100
AcDbEntity
  8
0
100
AcDbLine
 62
250
  6
CONTINUOUS
 10
-107.9933255518
 20
-41.1619414324
 11
-107.3933255518
 21
-41.2038975196
  0
LINE
  5
3A6
100
AcDbEntity
  8
0
100
AcDbLine
 62
7
  6
CONTINUOUS
 10
-114.5433255518
 20
-43.3767374102
 11
-113.558873094
 21
-43.8199854699
  0
LINE
  5
3A7
100
AcDbEntity
  8
ASSI
100
AcDbLine
 62
7
  6
CONTINUOUS
 10
-114.5433255518
 20
-43.3767374102
 11
-113.558873094
 21
-43.8199854699
  0
LINE
  5
3A8
100
AcDbEntity
  8
CURVE
100
AcDbLine
 62
250
  6
CONTINUOUS
 10
-111.9984945403
 20
-37.940019
 11
-110.2788967114
 21
-37.463524
  0
LINE
  5
3A9
100
AcDbEntity
  8
CURVE
100
AcDbLine
 62
250
  6
CONTINUOUS
 10
-111.9986434495
 20
-36.257398
 11
-109.5002813119
 21
-36.257398
  0
LINE
  5
3AA
100
AcDbEntity
  8
CURVE
100
AcDbLine
 62
250
  6
CONTINUOUS
 10
-110.2788967114
 20
-37.463524
 11
-111.9984945403
 21
-36.972473
  0
LINE
  5
3AB
100
AcDbEntity
  8
0
100
AcDbLine
 62
7
  6
CONTINUOUS
 10
-113.5439347248
 20
44.8061684565
 11
-114.5433255518
 21
43.7712689598
  0
LINE
  5
3AC
100
AcDbEntity
  8
ASSI
100
AcDbLine
 62
7
  6
CONTINUOUS
 10
-113.5439347248
 20
44.8061684565
 11
-114.5433255518
 21
43.7712689598
  0
LINE
  5
3AD
100
AcDbEntity
  8
CURVE
100
AcDbLine
 62
250
  6
CONTINUOUS
 10
-109.5002813119
 20
-33.429996
 11
-111.1247671159
 21
-33.5372
  0
LINE
  5
3AE
100
AcDbEntity
  8
CURVE
100
AcDbLine
 62
250
  6
CONTINUOUS
 10
-109.5002813119
 20
-35.735605
 11
-111.9986434495
 21
-35.735605
  0
LINE
  5
3AF
100
AcDbEntity
  8
CURVE
100
AcDbLine
 62
250
  6
CONTINUOUS
 10
-111.1315669711
 20
-34.842919
 11
-109.5002813119
 21
-34.955522
  0
LINE
  5
3B0
100
AcDbEntity
  8
CURVE
100
AcDbLine
 62
250
  6
CONTINUOUS
 10
-109.5002813119
 20
-35.454708
 11
-111.9984945403
 21
-35.228996
  0
LINE
  5
3B1
100
AcDbEntity
  8
CURVE
100
AcDbLine
 62
250
  6
CONTINUOUS
 10
-111.9984945403
 20
-36.451037
 11
-109.5002813119
 21
-37.254552
  0
LINE
  5
3B2
100
AcDbEntity
  8
0
100
AcDbLine
 62
7
  6
CONTINUOUS
 10
-114.5433255518
 20
-43.7712689598
 11
-113.5439347248
 21
-44.8061684565
  0
LINE
  5
3B3
100
AcDbEntity
  8
ASSI
100
AcDbLine
 62
7
  6
CONTINUOUS
 10
-114.5433255518
 20
-43.7712689598
 11
-113.5439347248
 21
-44.8061684565
  0
LWPOLYLINE
  5
3B4
100
AcDbEntity
  8
0
100
AcDbPolyline
 62
7
  6
CONTINUOUS
 90
3
 70
0
 43
0.3500000006
 10
-121.6469237366
 20
64.0357166748
 10
-121.7183549194
 20
63.8214321899
 10
-121.8612082214
 20
63.5357165222
  0
LINE
  5
3B5
100
AcDbEntity
  8
CURVE
100
AcDbLine
 62
250
  6
CONTINUOUS
 10
-109.5002813119
 20
-31.331727
 11
-109.9990133127
 21
-31.466899
  0
LINE
  5
3B6
100
AcDbEntity
  8
CURVE
100
AcDbLine
 62
250
  6
CONTINUOUS
 10
-110.3849300793
 20
-31.571179
 11
-111.3120489593
 21
-31.81095
  0
LINE
  5
3B7
100
AcDbEntity
  8
CURVE
100
AcDbLine
 62
250
  6
CONTINUOUS
 10
-111.9984945403
 20
-33.153297
 11
-109.5002813119
 21
-32.919544
  0
LINE
  5
3B8
100
AcDbEntity
  8
CURVE
100
AcDbLine
 62
250
  6
CONTINUOUS
 10
-111.9693066842
 20
-30.6285551388
 11
-109.5002812955
 21
-30.6285551388
  0
LINE
  5
3B9
100
AcDbEntity
  8
CURVE
100
AcDbLine
 62
250
  6
CONTINUOUS
 10
-110.8870906771
 20
-30.126163664
 11
-111.572898799
 21
-30.126163664
  0
LINE
  5
3BA
100
AcDbEntity
  8
CURVE
100
AcDbLine
 62
250
  6
CONTINUOUS
 10
-109.5002812955
 20
-30.1088617972
 11
-110.4779437862
 21
-30.1088617972
  0
LINE
  5
3BB
100
AcDbEntity
  8
CURVE
100
AcDbLine
 62
250
  6
CONTINUOUS
 10
-111.3120489593
 20
-31.81095
 11
-110.3849300793
 21
-32.070759
  0
LINE
  5
3BC
100
AcDbEntity
  8
CURVE
100
AcDbLine
 62
250
  6
CONTINUOUS
 10
-109.9990133127
 20
-32.177494
 11
-109.5002813119
 21
-32.321477
  0
LINE
  5
3BD
100
AcDbEntity
  8
CURVE
100
AcDbLine
 62
250
  6
CONTINUOUS
 10
-109.5002813119
 20
-32.837608
 11
-111.9984945403
 21
-32.053532
  0
LINE
  5
3BE
100
AcDbEntity
  8
CURVE
100
AcDbLine
 62
250
  6
CONTINUOUS
 10
-110.6114789877
 20
-34.191353
 11
-111.9984945403
 21
-33.66956
  0
LINE
  5
3BF
100
AcDbEntity
  8
CURVE
100
AcDbLine
 62
250
  6
CONTINUOUS
 10
-111.1247671159
 20
-33.5372
 11
-109.5002813119
 21
-34.157611
  0
LWPOLYLINE
  5
3C0
100
AcDbEntity
  8
0
100
AcDbPolyline
 62
7
  6
CONTINUOUS
 90
3
 70
0
 43
0.3500000006
 10
-120.8711508179
 20
56.0357142334
 10
-120.942572937
 20
55.8214297485
 10
-121.0854353027
 20
55.5357140808
  0
LINE
  5
3C1
100
AcDbEntity
  8
0
100
AcDbLine
 62
7
  6
CONTINUOUS
 10
-106.3933255518
 20
-27.15
 11
-107.3933255518
 21
-27.151745331
  0
LINE
  5
3C2
100
AcDbEntity
  8
0
100
AcDbLine
 62
250
  6
CONTINUOUS
 10
-106.467552968
 20
-26.9276792439
 11
-107.3933255518
 21
-26.9280974384
  0
LINE
  5
3C3
100
AcDbEntity
  8
CURVE
100
AcDbLine
 62
250
  6
CONTINUOUS
 10
-110.6664248699
 20
-29.2870512436
 11
-110.6811871295
 21
-29.2870512436
  0
LINE
  5
3C4
100
AcDbEntity
  8
0
100
AcDbLine
 62
7
  6
CONTINUOUS
 10
-104.9432763196
 20
-26.3415638603
 11
-107.3933255518
 21
-26.3558178298
  0
LINE
  5
3C5
100
AcDbEntity
  8
0
100
AcDbLine
 62
250
  6
CONTINUOUS
 10
-104.9432763196
 20
-26.2536973817
 11
-107.3933255518
 21
-26.2679513512
  0
LINE
  5
3C6
100
AcDbEntity
  8
0
100
AcDbLine
 62
7
  6
CONTINUOUS
 10
-104.3933255518
 20
-26.1523612067
 11
-104.5138883188
 21
-26.1523612067
  0
LINE
  5
3C7
100
AcDbEntity
  8
0
100
AcDbLine
 62
7
  6
CONTINUOUS
 10
-106.4432011729
 20
-25.2
 11
-107.3933255518
 21
-25.2
  0
LINE
  5
3C8
100
AcDbEntity
  8
0
100
AcDbLine
 62
7
  6
CONTINUOUS
 10
-107.3933255518
 20
-25.05
 11
-107.2433255518
 21
-25.05
  0
LINE
  5
3C9
100
AcDbEntity
  8
0
100
AcDbLine
 62
7
  6
CONTINUOUS
 10
-106.9433255518
 20
-25.05
 11
-106.7433255518
 21
-25.05
  0
LINE
  5
3CA
100
AcDbEntity
  8
0
100
AcDbLine
 62
7
  6
CONTINUOUS
 10
-104.3933445899
 20
-25.3545427575
 11
-104.8913590388
 21
-25.3501966513
  0
LINE
  5
3CB
100
AcDbEntity
  8
0
100
AcDbLine
 62
7
  6
CONTINUOUS
 10
-107.3933255518
 20
-25.7558198745
 11
-104.5828583605
 21
-25.8799866677
  0
LINE
  5
3CC
100
AcDbEntity
  8
0
100
AcDbLine
 62
7
  6
CONTINUOUS
 10
-104.3933255518
 20
-25.4
 11
-106.3436974539
 21
-25.2049628098
  0
LWPOLYLINE
  5
3CD
100
AcDbEntity
  8
0
100
AcDbPolyline
 62
7
  6
CONTINUOUS
 90
13
 70
0
 43
0.3500000006
 10
-124.718355835
 20
64.6071389465
 10
-124.718355835
 20
65.8928549194
 10
-124.5040713501
 20
66.3214329529
 10
-124.0755023804
 20
66.7500019226
 10
-123.8612088318
 20
66.7500019226
 10
-123.4326398621
 20
66.3214329529
 10
-123.2183553772
 20
65.8928549194
 10
-123.2183553772
 20
64.6071389465
 10
-123.4326398621
 20
64.1785699768
 10
-123.8612088318
 20
63.7500010071
 10
-124.0755023804
 20
63.7500010071
 10
-124.5040713501
 20
64.1785699768
 10
-124.718355835
 20
64.6071389465
  0
LINE
  5
3CE
100
AcDbEntity
  8
0
100
AcDbLine
 62
7
  6
CONTINUOUS
 10
-107.2433255518
 20
25.05
 11
-107.0933255518
 21
25.2
  0
LINE
  5
3CF
100
AcDbEntity
  8
0
100
AcDbLine
 62
7
  6
CONTINUOUS
 10
-106.7433255518
 20
25.05
 11
-106.5933255518
 21
25.2
  0
LINE
  5
3D0
100
AcDbEntity
  8
0
100
AcDbLine
 62
7
  6
CONTINUOUS
 10
-107.2433255518
 20
-25.05
 11
-107.0933255518
 21
-25.2
  0
LINE
  5
3D1
100
AcDbEntity
  8
0
100
AcDbLine
 62
7
  6
CONTINUOUS
 10
-106.7433255518
 20
-25.05
 11
-106.5933255518
 21
-25.2
  0
LWPOLYLINE
  5
3D2
100
AcDbEntity
  8
0
100
AcDbPolyline
 62
7
  6
CONTINUOUS
 90
4
 70
0
 43
0.3500000006
 10
-123.9425738525
 20
58.1071460266
 10
-123.9425738525
 20
58.7499994812
 10
-122.4425733948
 20
58.7499994812
 10
-123.2997203979
 20
55.7499985657
  0
LINE
  5
3D3
100
AcDbEntity
  8
0
100
AcDbLine
 62
7
  6
CONTINUOUS
 10
-114.5433255518
 20
-43.7712689598
 11
-114.5433255518
 21
43.7712689598
  0
LINE
  5
3D4
100
AcDbEntity
  8
ASSI
100
AcDbLine
 62
7
  6
CONTINUOUS
 10
-114.5433255518
 20
-43.7712689598
 11
-114.5433255518
 21
43.7712689598
  0
LINE
  5
3D5
100
AcDbEntity
  8
0
100
AcDbLine
 62
7
  6
CONTINUOUS
 10
-113.558873094
 20
-44.7906993223
 11
-113.558873094
 21
-43.8199854699
  0
LINE
  5
3D6
100
AcDbEntity
  8
ASSI
100
AcDbLine
 62
7
  6
CONTINUOUS
 10
-113.558873094
 20
-44.7906993223
 11
-113.558873094
 21
-43.8199854699
  0
LINE
  5
3D7
100
AcDbEntity
  8
0
100
AcDbLine
 62
7
  6
CONTINUOUS
 10
-113.558873094
 20
43.8199854699
 11
-113.558873094
 21
44.7906993223
  0
LINE
  5
3D8
100
AcDbEntity
  8
ASSI
100
AcDbLine
 62
7
  6
CONTINUOUS
 10
-113.558873094
 20
43.8199854699
 11
-113.558873094
 21
44.7906993223
  0
LINE
  5
3D9
100
AcDbEntity
  8
0
100
AcDbLine
 62
7
  6
CONTINUOUS
 10
-113.5439347248
 20
-43.8055596544
 11
-113.5439347248
 21
43.8055596544
  0
LINE
  5
3DA
100
AcDbEntity
  8
ASSI
100
AcDbLine
 62
7
  6
CONTINUOUS
 10
-113.5439347248
 20
-43.8055596544
 11
-113.5439347248
 21
43.8055596544
  0
LINE
  5
3DB
100
AcDbEntity
  8
0
100
AcDbLine
 62
250
  6
CONTINUOUS
 10
-107.1433255518
 20
-2.6214065094
 11
-107.3933255518
 21
-2.6214065094
  0
LINE
  5
3DC
100
AcDbEntity
  8
CURVE
100
AcDbLine
 62
250
  6
CONTINUOUS
 10
-111.9986434495
 20
-35.735605
 11
-111.9986434495
 21
-36.257398
  0
LINE
  5
3DD
100
AcDbEntity
  8
CURVE
100
AcDbLine
 62
250
  6
CONTINUOUS
 10
-111.9984945403
 20
-38.506847
 11
-111.9984945403
 21
-37.940019
  0
LINE
  5
3DE
100
AcDbEntity
  8
CURVE
100
AcDbLine
 62
250
  6
CONTINUOUS
 10
-111.9984945403
 20
-36.972473
 11
-111.9984945403
 21
-36.451037
  0
LINE
  5
3DF
100
AcDbEntity
  8
CURVE
100
AcDbLine
 62
250
  6
CONTINUOUS
 10
-111.9984945403
 20
-35.228996
 11
-111.9984945403
 21
-34.707635
  0
LINE
  5
3E0
100
AcDbEntity
  8
CURVE
100
AcDbLine
 62
250
  6
CONTINUOUS
 10
-111.9984945403
 20
-33.66956
 11
-111.9984945403
 21
-33.153297
  0
LINE
  5
3E1
100
AcDbEntity
  8
CURVE
100
AcDbLine
 62
250
  6
CONTINUOUS
 10
-111.9984945403
 20
-32.053532
 11
-111.9984945403
 21
-31.54876
  0
LINE
  5
3E2
100
AcDbEntity
  8
CURVE
100
AcDbLine
 62
250
  6
CONTINUOUS
 10
-110.8870906771
 20
-29.8279642095
 11
-110.8870906771
 21
-30.126163664
  0
LINE
  5
3E3
100
AcDbEntity
  8
CURVE
100
AcDbLine
 62
250
  6
CONTINUOUS
 10
-110.4779437862
 20
-30.1088617972
 11
-110.4779437862
 21
-29.8290889245
  0
LINE
  5
3E4
100
AcDbEntity
  8
CURVE
100
AcDbLine
 62
250
  6
CONTINUOUS
 10
-110.3849300793
 20
-32.070759
 11
-110.3849300793
 21
-31.571179
  0
LINE
  5
3E5
100
AcDbEntity
  8
CURVE
100
AcDbLine
 62
250
  6
CONTINUOUS
 10
-109.9990133127
 20
-31.466899
 11
-109.9990133127
 21
-32.177494
  0
LINE
  5
3E6
100
AcDbEntity
  8
CURVE
100
AcDbLine
 62
250
  6
CONTINUOUS
 10
-109.5002813119
 20
-36.257398
 11
-109.5002813119
 21
-35.735605
  0
LINE
  5
3E7
100
AcDbEntity
  8
CURVE
100
AcDbLine
 62
250
  6
CONTINUOUS
 10
-109.5002813119
 20
-30.781779
 11
-109.5002813119
 21
-31.331727
  0
LINE
  5
3E8
100
AcDbEntity
  8
CURVE
100
AcDbLine
 62
250
  6
CONTINUOUS
 10
-109.5002813119
 20
-32.321477
 11
-109.5002813119
 21
-32.837608
  0
LINE
  5
3E9
100
AcDbEntity
  8
CURVE
100
AcDbLine
 62
250
  6
CONTINUOUS
 10
-109.5002813119
 20
-32.919544
 11
-109.5002813119
 21
-33.429996
  0
LINE
  5
3EA
100
AcDbEntity
  8
CURVE
100
AcDbLine
 62
250
  6
CONTINUOUS
 10
-109.5002813119
 20
-34.157611
 11
-109.5002813119
 21
-34.230793
  0
LINE
  5
3EB
100
AcDbEntity
  8
CURVE
100
AcDbLine
 62
250
  6
CONTINUOUS
 10
-109.5002813119
 20
-34.955522
 11
-109.5002813119
 21
-35.454708
  0
LINE
  5
3EC
100
AcDbEntity
  8
CURVE
100
AcDbLine
 62
250
  6
CONTINUOUS
 10
-109.5002813119
 20
-37.254552
 11
-109.5002813119
 21
-37.714382
  0
LINE
  5
3ED
100
AcDbEntity
  8
CURVE
100
AcDbLine
 62
250
  6
CONTINUOUS
 10
-109.5002812955
 20
-30.6285551388
 11
-109.5002812955
 21
-30.1088617972
  0
LINE
  5
3EE
100
AcDbEntity
  8
CURVE
100
AcDbLine
 62
250
  6
CONTINUOUS
 10
-109.5002812955
 20
-29.3098079785
 11
-109.5002812955
 21
-28.8079038802
  0
LINE
  5
3EF
100
AcDbEntity
  8
0
100
AcDbLine
 62
250
  6
CONTINUOUS
 10
-106.4674884094
 20
-27.1501294387
 11
-106.467552968
 21
-26.9276792439
  0
LINE
  5
3F0
100
AcDbEntity
  8
0
100
AcDbLine
 62
7
  6
CONTINUOUS
 10
-107.9933255518
 20
-45.0
 11
-107.9933255518
 21
45.0
  0
LINE
  5
3F1
100
AcDbEntity
  8
ASSI
100
AcDbLine
 62
7
  6
CONTINUOUS
 10
-107.9933255518
 20
-45.0
 11
-107.9933255518
 21
45.0
  0
LINE
  5
3F2
100
AcDbEntity
  8
0
100
AcDbLine
 62
7
  6
CONTINUOUS
 10
-107.3933255518
 20
-42.8
 11
-107.3933255518
 21
42.8
  0
LINE
  5
3F3
100
AcDbEntity
  8
0
100
AcDbLine
 62
7
  6
CONTINUOUS
 10
-107.1433255518
 20
2.6214065094
 11
-107.1433255518
 21
-2.6214065094
  0
LINE
  5
3F4
100
AcDbEntity
  8
0
100
AcDbLine
 62
250
  6
CONTINUOUS
 10
-106.467552968
 20
26.9276792439
 11
-106.4674884094
 21
27.1501294387
  0
LINE
  5
3F5
100
AcDbEntity
  8
0
100
AcDbLine
 62
250
  6
CONTINUOUS
 10
-107.1433255518
 20
2.6214065094
 11
-107.3933255518
 21
2.6214065094
  0
LINE
  5
3F6
100
AcDbEntity
  8
0
100
AcDbLine
 62
250
  6
CONTINUOUS
 10
-104.6776247649
 20
25.3715700787
 11
-104.6776247649
 21
25.3498801651
  0
LINE
  5
3F7
100
AcDbEntity
  8
0
100
AcDbLine
 62
250
  6
CONTINUOUS
 10
-104.6776247649
 20
-25.3498801651
 11
-104.6776247649
 21
-25.3715700787
  0
LINE
  5
3F8
100
AcDbEntity
  8
0
100
AcDbLine
 62
250
  6
CONTINUOUS
 10
-104.5828583605
 20
25.8799866677
 11
-104.5828583605
 21
25.3810467191
  0
LINE
  5
3F9
100
AcDbEntity
  8
0
100
AcDbLine
 62
250
  6
CONTINUOUS
 10
-104.5828583605
 20
-25.3810467191
 11
-104.5828583605
 21
-25.8799866677
  0
LINE
  5
3FA
100
AcDbEntity
  8
0
100
AcDbLine
 62
7
  6
CONTINUOUS
 10
-104.3933255518
 20
26.1523612067
 11
-104.3933255518
 21
25.3523612067
  0
LINE
  5
3FB
100
AcDbEntity
  8
0
100
AcDbLine
 62
7
  6
CONTINUOUS
 10
-104.3933255518
 20
-25.3523612067
 11
-104.3933255518
 21
-26.1523612067
  0
LWPOLYLINE
  5
3FC
100
AcDbEntity
  8
0
100
AcDbPolyline
 62
7
  6
CONTINUOUS
 90
10
 70
0
 43
0.3500000006
 10
-120.942572937
 20
56.2499987183
 10
-120.8711508179
 20
56.1071454163
 10
-120.8711508179
 20
56.0357142334
 10
-121.0140041199
 20
55.8928609314
 10
-121.0854353027
 20
55.8928609314
 10
-121.1568574219
 20
55.9642830505
 10
-121.1568574219
 20
56.0357142334
 10
-121.0854353027
 20
56.1785675354
 10
-121.0140041199
 20
56.2499987183
 10
-120.942572937
 20
56.2499987183
  0
LWPOLYLINE
  5
3FD
100
AcDbEntity
  8
0
100
AcDbPolyline
 62
7
  6
CONTINUOUS
 90
10
 70
0
 43
0.3500000006
 10
-121.7183549194
 20
64.2500011597
 10
-121.6469237366
 20
64.1071387939
 10
-121.6469237366
 20
64.0357166748
 10
-121.7897861023
 20
63.8928543091
 10
-121.8612082214
 20
63.8928543091
 10
-121.9326394043
 20
63.9642854919
 10
-121.9326394043
 20
64.0357166748
 10
-121.8612082214
 20
64.1785699768
 10
-121.7897861023
 20
64.2500011597
 10
-121.7183549194
 20
64.2500011597
  0
LINE
  5
3FE
100
AcDbEntity
  8
CURVE
100
AcDbLine
 62
7
  6
CONTINUOUS
 10
-111.9724093005
 20
-29.4361550019
 11
-111.4933752519
 21
-28.9571209534
  0
LINE
  5
3FF
100
AcDbEntity
  8
CURVE
100
AcDbLine
 62
7
  6
CONTINUOUS
 10
-112.0152765223
 20
-29.6890329377
 11
-111.2608179426
 21
-28.934574358
  0
LINE
  5
400
100
AcDbEntity
  8
CURVE
100
AcDbLine
 62
7
  6
CONTINUOUS
 10
-112.0267944824
 20
-29.9105616119
 11
-111.0804539856
 21
-28.9642211151
  0
LINE
  5
401
100
AcDbEntity
  8
CURVE
100
AcDbLine
 62
7
  6
CONTINUOUS
 10
-112.0227147991
 20
-30.1164926426
 11
-111.5794113273
 21
-29.6731891708
  0
LINE
  5
402
100
AcDbEntity
  8
CURVE
100
AcDbLine
 62
7
  6
CONTINUOUS
 10
-111.3360662416
 20
-29.4298440851
 11
-110.9323023389
 21
-29.0260801824
  0
LINE
  5
403
100
AcDbEntity
  8
0
100
AcDbLine
 62
7
  6
CONTINUOUS
 10
-107.0933255518
 20
-25.2
 11
-106.9433255518
 21
-25.05
  0
LINE
  5
404
100
AcDbEntity
  8
CURVE
100
AcDbLine
 62
7
  6
CONTINUOUS
 10
-112.0085950293
 20
-30.3123835868
 11
-111.5961108954
 21
-29.8998994529
  0
LINE
  5
405
100
AcDbEntity
  8
CURVE
100
AcDbLine
 62
7
  6
CONTINUOUS
 10
-111.1382911958
 20
-29.4420797533
 11
-110.8112348532
 21
-29.1150234107
  0
LINE
  5
406
100
AcDbEntity
  8
CURVE
100
AcDbLine
 62
7
  6
CONTINUOUS
 10
-111.9869270181
 20
-30.5007262896
 11
-111.5783095669
 21
-30.0921088385
  0
LINE
  5
407
100
AcDbEntity
  8
CURVE
100
AcDbLine
 62
7
  6
CONTINUOUS
 10
-111.001510258
 20
-29.5153095296
 11
-110.7115003595
 21
-29.225299631
  0
LINE
  5
408
100
AcDbEntity
  8
CURVE
100
AcDbLine
 62
7
  6
CONTINUOUS
 10
-111.9047451533
 20
-30.6285551388
 11
-111.4023536785
 21
-30.126163664
  0
LINE
  5
409
100
AcDbEntity
  8
CURVE
100
AcDbLine
 62
7
  6
CONTINUOUS
 10
-110.9182567991
 20
-29.6420667847
 11
-110.2963258646
 21
-29.0201358501
  0
LINE
  5
40A
100
AcDbEntity
  8
CURVE
100
AcDbLine
 62
7
  6
CONTINUOUS
 10
-111.6947344393
 20
-30.6285551388
 11
-111.1923429645
 21
-30.126163664
  0
LINE
  5
40B
100
AcDbEntity
  8
CURVE
100
AcDbLine
 62
7
  6
CONTINUOUS
 10
-110.8873815022
 20
-29.8212022018
 11
-110.0074851979
 21
-28.9413058974
  0
LINE
  5
40C
100
AcDbEntity
  8
CURVE
100
AcDbLine
 62
7
  6
CONTINUOUS
 10
-111.4847237253
 20
-30.6285551388
 11
-110.9823322505
 21
-30.126163664
  0
LINE
  5
40D
100
AcDbEntity
  8
CURVE
100
AcDbLine
 62
7
  6
CONTINUOUS
 10
-110.8870906771
 20
-30.0309220906
 11
-109.7226671955
 21
-28.866498609
  0
LINE
  5
40E
100
AcDbEntity
  8
CURVE
100
AcDbLine
 62
7
  6
CONTINUOUS
 10
-111.2747130112
 20
-30.6285551388
 11
-110.4779437862
 21
-29.8317859137
  0
LINE
  5
40F
100
AcDbEntity
  8
CURVE
100
AcDbLine
 62
7
  6
CONTINUOUS
 10
-110.1448520338
 20
-29.4986941614
 11
-109.5002812955
 21
-28.854123423
  0
LINE
  5
410
100
AcDbEntity
  8
CURVE
100
AcDbLine
 62
7
  6
CONTINUOUS
 10
-111.9984945403
 20
-31.5623473819
 11
-111.9788875941
 21
-31.5427404357
  0
LINE
  5
411
100
AcDbEntity
  8
CURVE
100
AcDbLine
 62
7
  6
CONTINUOUS
 10
-111.0647022972
 20
-30.6285551388
 11
-110.4779437862
 21
-30.0417966277
  0
LINE
  5
412
100
AcDbEntity
  8
CURVE
100
AcDbLine
 62
7
  6
CONTINUOUS
 10
-109.8469072592
 20
-29.4107601008
 11
-109.5002812955
 21
-29.064134137
  0
LINE
  5
413
100
AcDbEntity
  8
CURVE
100
AcDbLine
 62
7
  6
CONTINUOUS
 10
-111.9984945403
 20
-31.7723580959
 11
-111.6758366601
 21
-31.4497002157
  0
LINE
  5
414
100
AcDbEntity
  8
CURVE
100
AcDbLine
 62
7
  6
CONTINUOUS
 10
-110.8546915832
 20
-30.6285551388
 11
-110.3349982416
 21
-30.1088617972
  0
LINE
  5
415
100
AcDbEntity
  8
CURVE
100
AcDbLine
 62
7
  6
CONTINUOUS
 10
-109.5506493931
 20
-29.3245129487
 11
-109.5002812955
 21
-29.274144851
  0
LINE
  5
416
100
AcDbEntity
  8
CURVE
100
AcDbLine
 62
7
  6
CONTINUOUS
 10
-111.9984945403
 20
-31.9823688099
 11
-111.372785726
 21
-31.3566599956
  0
LINE
  5
417
100
AcDbEntity
  8
CURVE
100
AcDbLine
 62
7
  6
CONTINUOUS
 10
-110.6446808692
 20
-30.6285551388
 11
-110.1249875276
 21
-30.1088617972
  0
LINE
  5
418
100
AcDbEntity
  8
CURVE
100
AcDbLine
 62
7
  6
CONTINUOUS
 10
-111.8928150292
 20
-32.0867000128
 11
-111.069734792
 21
-31.2636197756
  0
LINE
  5
419
100
AcDbEntity
  8
CURVE
100
AcDbLine
 62
7
  6
CONTINUOUS
 10
-110.4346701552
 20
-30.6285551388
 11
-109.9149768136
 21
-30.1088617972
  0
LINE
  5
41A
100
AcDbEntity
  8
CURVE
100
AcDbLine
 62
7
  6
CONTINUOUS
 10
-111.7329718504
 20
-32.1368675481
 11
-110.766683858
 21
-31.1705795556
  0
LINE
  5
41B
100
AcDbEntity
  8
CURVE
100
AcDbLine
 62
7
  6
CONTINUOUS
 10
-110.2246594412
 20
-30.6285551388
 11
-109.7049660996
 21
-30.1088617972
  0
LINE
  5
41C
100
AcDbEntity
  8
CURVE
100
AcDbLine
 62
7
  6
CONTINUOUS
 10
-111.5731286717
 20
-32.1870350833
 11
-111.2222173423
 21
-31.836123754
  0
LINE
  5
41D
100
AcDbEntity
  8
CURVE
100
AcDbLine
 62
7
  6
CONTINUOUS
 10
-111.1569256894
 20
-31.770832101
 11
-110.4636329239
 21
-31.0775393356
  0
LINE
  5
41E
100
AcDbEntity
  8
CURVE
100
AcDbLine
 62
7
  6
CONTINUOUS
 10
-110.0146487272
 20
-30.6285551388
 11
-109.5002812955
 21
-30.1141877071
  0
LINE
  5
41F
100
AcDbEntity
  8
CURVE
100
AcDbLine
 62
7
  6
CONTINUOUS
 10
-111.4132854929
 20
-32.2372026186
 11
-111.0581762904
 21
-31.8820934161
  0
LINE
  5
420
100
AcDbEntity
  8
CURVE
100
AcDbLine
 62
7
  6
CONTINUOUS
 10
-110.8736558873
 20
-31.6975730129
 11
-110.1605819899
 21
-30.9844991155
  0
LINE
  5
421
100
AcDbEntity
  8
CURVE
100
AcDbLine
 62
7
  6
CONTINUOUS
 10
-109.8046380132
 20
-30.6285551388
 11
-109.5002812955
 21
-30.3241984211
  0
LINE
  5
422
100
AcDbEntity
  8
0
100
AcDbLine
 62
7
  6
CONTINUOUS
 10
-107.0933255518
 20
25.2
 11
-106.9433255518
 21
25.05
  0
LINE
  5
423
100
AcDbEntity
  8
CURVE
100
AcDbLine
 62
7
  6
CONTINUOUS
 10
-111.2534423142
 20
-32.2873701539
 11
-110.8941352385
 21
-31.9280630782
  0
LINE
  5
424
100
AcDbEntity
  8
CURVE
100
AcDbLine
 62
7
  6
CONTINUOUS
 10
-110.5903860851
 20
-31.6243139248
 11
-109.8575310558
 21
-30.8914588955
  0
LINE
  5
425
100
AcDbEntity
  8
CURVE
100
AcDbLine
 62
7
  6
CONTINUOUS
 10
-109.5946272991
 20
-30.6285551388
 11
-109.5002812955
 21
-30.5342091351
  0
LINE
  5
426
100
AcDbEntity
  8
CURVE
100
AcDbLine
 62
7
  6
CONTINUOUS
 10
-111.9984945403
 20
-33.242433094
 11
-111.9001572119
 21
-33.1440957656
  0
LINE
  5
427
100
AcDbEntity
  8
CURVE
100
AcDbLine
 62
7
  6
CONTINUOUS
 10
-111.0935991354
 20
-32.3375376891
 11
-110.7300941866
 21
-31.9740327403
  0
LINE
  5
428
100
AcDbEntity
  8
CURVE
100
AcDbLine
 62
7
  6
CONTINUOUS
 10
-110.3849300793
 20
-31.628868633
 11
-109.5544801218
 21
-30.7984186755
  0
LINE
  5
429
100
AcDbEntity
  8
CURVE
100
AcDbLine
 62
7
  6
CONTINUOUS
 10
-111.9984945403
 20
-33.452443808
 11
-111.6684677624
 21
-33.12241703
  0
LINE
  5
42A
100
AcDbEntity
  8
CURVE
100
AcDbLine
 62
7
  6
CONTINUOUS
 10
-110.9337559567
 20
-32.3877052244
 11
-110.5660531347
 21
-32.0200024024
  0
LINE
  5
42B
100
AcDbEntity
  8
CURVE
100
AcDbLine
 62
7
  6
CONTINUOUS
 10
-110.3849300793
 20
-31.838879347
 11
-109.5002813119
 21
-30.9542305796
  0
LINE
  5
42C
100
AcDbEntity
  8
CURVE
100
AcDbLine
 62
7
  6
CONTINUOUS
 10
-111.9984945403
 20
-33.662454522
 11
-111.4367783128
 21
-33.1007382945
  0
LINE
  5
42D
100
AcDbEntity
  8
CURVE
100
AcDbLine
 62
7
  6
CONTINUOUS
 10
-110.7739127779
 20
-32.4378727596
 11
-110.4020120828
 21
-32.0659720645
  0
LINE
  5
42E
100
AcDbEntity
  8
CURVE
100
AcDbLine
 62
7
  6
CONTINUOUS
 10
-110.3849300793
 20
-32.048890061
 11
-109.9990133127
 21
-31.6629732944
  0
LINE
  5
42F
100
AcDbEntity
  8
CURVE
100
AcDbLine
 62
7
  6
CONTINUOUS
 10
-109.7300383844
 20
-31.3939983661
 11
-109.5002813119
 21
-31.1642412936
  0
LINE
  5
430
100
AcDbEntity
  8
CURVE
100
AcDbLine
 62
7
  6
CONTINUOUS
 10
-111.8510555959
 20
-33.7250262916
 11
-111.2050888633
 21
-33.079059559
  0
LINE
  5
431
100
AcDbEntity
  8
CURVE
100
AcDbLine
 62
7
  6
CONTINUOUS
 10
-110.6140695992
 20
-32.4880402949
 11
-109.9990133127
 21
-31.8729840084
  0
LINE
  5
432
100
AcDbEntity
  8
CURVE
100
AcDbLine
 62
7
  6
CONTINUOUS
 10
-111.698453531
 20
-33.7824349408
 11
-110.9733994137
 21
-33.0573808234
  0
LINE
  5
433
100
AcDbEntity
  8
CURVE
100
AcDbLine
 62
7
  6
CONTINUOUS
 10
-110.4542264204
 20
-32.5382078302
 11
-109.9990133127
 21
-32.0829947224
  0
LINE
  5
434
100
AcDbEntity
  8
CURVE
100
AcDbLine
 62
7
  6
CONTINUOUS
 10
-111.5458514662
 20
-33.8398435899
 11
-110.7417099641
 21
-33.0357020879
  0
LINE
  5
435
100
AcDbEntity
  8
CURVE
100
AcDbLine
 62
7
  6
CONTINUOUS
 10
-110.2943832417
 20
-32.5883753654
 11
-109.9093791051
 21
-32.2033712288
  0
LINE
  5
436
100
AcDbEntity
  8
CURVE
100
AcDbLine
 62
7
  6
CONTINUOUS
 10
-111.3932494013
 20
-33.8972522391
 11
-111.0585038963
 21
-33.5625067341
  0
LINE
  5
437
100
AcDbEntity
  8
CURVE
100
AcDbLine
 62
7
  6
CONTINUOUS
 10
-111.0267272598
 20
-33.5307300975
 11
-110.5100205146
 21
-33.0140233523
  0
LINE
  5
438
100
AcDbEntity
  8
CURVE
100
AcDbLine
 62
7
  6
CONTINUOUS
 10
-110.1345400629
 20
-32.6385429007
 11
-109.74641564
 21
-32.2504184778
  0
LINE
  5
439
100
AcDbEntity
  8
CURVE
100
AcDbLine
 62
7
  6
CONTINUOUS
 10
-111.9984945403
 20
-34.7125080921
 11
-111.9907320572
 21
-34.704745609
  0
LINE
  5
43A
100
AcDbEntity
  8
CURVE
100
AcDbLine
 62
7
  6
CONTINUOUS
 10
-111.2406473365
 20
-33.9546608882
 11
-110.9065328022
 21
-33.6205463539
  0
LINE
  5
43B
100
AcDbEntity
  8
CURVE
100
AcDbLine
 62
7
  6
CONTINUOUS
 10
-110.8018781759
 20
-33.5158917277
 11
-110.278331065
 21
-32.9923446168
  0
LINE
  5
43C
100
AcDbEntity
  8
CURVE
100
AcDbLine
 62
7
  6
CONTINUOUS
 10
-109.9746968842
 20
-32.6887104359
 11
-109.5834521749
 21
-32.2974657267
  0
LINE
  5
43D
100
AcDbEntity
  8
CURVE
100
AcDbLine
 62
7
  6
CONTINUOUS
 10
-111.9984945403
 20
-34.9225188061
 11
-111.6562001838
 21
-34.5802244496
  0
LINE
  5
43E
100
AcDbEntity
  8
CURVE
100
AcDbLine
 62
7
  6
CONTINUOUS
 10
-111.0880452716
 20
-34.0120695374
 11
-110.754561708
 21
-33.6785859738
  0
LINE
  5
43F
100
AcDbEntity
  8
CURVE
100
AcDbLine
 62
7
  6
CONTINUOUS
 10
-110.577029092
 20
-33.5010533578
 11
-110.0466416155
 21
-32.9706658813
  0
LINE
  5
440
100
AcDbEntity
  8
CURVE
100
AcDbLine
 62
7
  6
CONTINUOUS
 10
-109.8148537054
 20
-32.7388779712
 11
-109.5002813119
 21
-32.4243055777
  0
LINE
  5
441
100
AcDbEntity
  8
CURVE
100
AcDbLine
 62
7
  6
CONTINUOUS
 10
-111.9984945403
 20
-35.1325295201
 11
-111.3216683105
 21
-34.4557032903
  0
LINE
  5
442
100
AcDbEntity
  8
CURVE
100
AcDbLine
 62
7
  6
CONTINUOUS
 10
-110.9354432068
 20
-34.0694781865
 11
-110.6025906138
 21
-33.7366255936
  0
LINE
  5
443
100
AcDbEntity
  8
CURVE
100
AcDbLine
 62
7
  6
CONTINUOUS
 10
-110.3521800082
 20
-33.4862149879
 11
-109.8149521659
 21
-32.9489871457
  0
LINE
  5
444
100
AcDbEntity
  8
CURVE
100
AcDbLine
 62
7
  6
CONTINUOUS
 10
-109.6550105267
 20
-32.7890455065
 11
-109.5002813119
 21
-32.6343162917
  0
LINE
  5
445
100
AcDbEntity
  8
CURVE
100
AcDbLine
 62
7
  6
CONTINUOUS
 10
-111.8943588964
 20
-35.2384045902
 11
-110.9871364371
 21
-34.3311821309
  0
LINE
  5
446
100
AcDbEntity
  8
CURVE
100
AcDbLine
 62
7
  6
CONTINUOUS
 10
-110.7828411419
 20
-34.1268868357
 11
-110.4506195197
 21
-33.7946652135
  0
LINE
  5
447
100
AcDbEntity
  8
CURVE
100
AcDbLine
 62
7
  6
CONTINUOUS
 10
-110.1273309243
 20
-33.4713766181
 11
-109.5832627164
 21
-32.9273084102
  0
LINE
  5
448
100
AcDbEntity
  8
CURVE
100
AcDbLine
 62
7
  6
CONTINUOUS
 10
-111.7017502527
 20
-35.2558066605
 11
-110.6526045638
 21
-34.2066609716
  0
LINE
  5
449
100
AcDbEntity
  8
CURVE
100
AcDbLine
 62
7
  6
CONTINUOUS
 10
-110.630239077
 20
-34.1842954848
 11
-110.2986484255
 21
-33.8527048333
  0
LINE
  5
44A
100
AcDbEntity
  8
CURVE
100
AcDbLine
 62
7
  6
CONTINUOUS
 10
-109.9024818404
 20
-33.4565382482
 11
-109.5002813119
 21
-33.0543377198
  0
LINE
  5
44B
100
AcDbEntity
  8
CURVE
100
AcDbLine
 62
7
  6
CONTINUOUS
 10
-111.9986434495
 20
-35.7627105714
 11
-111.9715378782
 21
-35.735605
  0
LINE
  5
44C
100
AcDbEntity
  8
CURVE
100
AcDbLine
 62
7
  6
CONTINUOUS
 10
-111.5091416089
 20
-35.2732087308
 11
-111.082255695
 21
-34.8463228169
  0
LINE
  5
44D
100
AcDbEntity
  8
CURVE
100
AcDbLine
 62
7
  6
CONTINUOUS
 10
-111.0471902257
 20
-34.8112573475
 11
-110.1466773313
 21
-33.9107444532
  0
LINE
  5
44E
100
AcDbEntity
  8
CURVE
100
AcDbLine
 62
7
  6
CONTINUOUS
 10
-109.6776327565
 20
-33.4416998784
 11
-109.5002813119
 21
-33.2643484338
  0
LINE
  5
44F
100
AcDbEntity
  8
CURVE
100
AcDbLine
 62
7
  6
CONTINUOUS
 10
-111.9986434495
 20
-35.9727212854
 11
-111.7615271642
 21
-35.735605
  0
LINE
  5
450
100
AcDbEntity
  8
CURVE
100
AcDbLine
 62
7
  6
CONTINUOUS
 10
-111.3165329652
 20
-35.290610801
 11
-110.885805386
 21
-34.8598832218
  0
LINE
  5
451
100
AcDbEntity
  8
CURVE
100
AcDbLine
 62
7
  6
CONTINUOUS
 10
-110.7110432217
 20
-34.6851210575
 11
-109.9947062372
 21
-33.968784073
  0
LINE
  5
452
100
AcDbEntity
  8
CURVE
100
AcDbLine
 62
7
  6
CONTINUOUS
 10
-111.9986434495
 20
-36.1827319994
 11
-111.5515164501
 21
-35.735605
  0
LINE
  5
453
100
AcDbEntity
  8
CURVE
100
AcDbLine
 62
7
  6
CONTINUOUS
 10
-111.1239243215
 20
-35.3080128713
 11
-110.6893550769
 21
-34.8734436268
  0
LINE
  5
454
100
AcDbEntity
  8
CURVE
100
AcDbLine
 62
7
  6
CONTINUOUS
 10
-110.3748962177
 20
-34.5589847675
 11
-109.842735143
 21
-34.0268236929
  0
LINE
  5
455
100
AcDbEntity
  8
CURVE
100
AcDbLine
 62
7
  6
CONTINUOUS
 10
-111.8632987361
 20
-36.257398
 11
-111.3415057361
 21
-35.735605
  0
LINE
  5
456
100
AcDbEntity
  8
CURVE
100
AcDbLine
 62
7
  6
CONTINUOUS
 10
-110.9313156778
 20
-35.3254149416
 11
-110.4929047679
 21
-34.8870040317
  0
LINE
  5
457
100
AcDbEntity
  8
CURVE
100
AcDbLine
 62
7
  6
CONTINUOUS
 10
-110.0387492136
 20
-34.4328484775
 11
-109.6907640488
 21
-34.0848633127
  0
LINE
  5
458
100
AcDbEntity
  8
CURVE
100
AcDbLine
 62
7
  6
CONTINUOUS
 10
-111.9984945403
 20
-36.6026045182
 11
-111.883812788
 21
-36.4879227659
  0
LINE
  5
459
100
AcDbEntity
  8
CURVE
100
AcDbLine
 62
7
  6
CONTINUOUS
 10
-111.6532880221
 20
-36.257398
 11
-111.1314950221
 21
-35.735605
  0
LINE
  5
45A
100
AcDbEntity
  8
CURVE
100
AcDbLine
 62
7
  6
CONTINUOUS
 10
-110.738707034
 20
-35.3428170119
 11
-110.2964544588
 21
-34.9005644367
  0
LINE
  5
45B
100
AcDbEntity
  8
CURVE
100
AcDbLine
 62
7
  6
CONTINUOUS
 10
-109.7026022096
 20
-34.3067121875
 11
-109.5387929547
 21
-34.1429029325
  0
LINE
  5
45C
100
AcDbEntity
  8
CURVE
100
AcDbLine
 62
7
  6
CONTINUOUS
 10
-111.9984945403
 20
-36.8126152322
 11
-111.7249106896
 21
-36.5390313815
  0
LINE
  5
45D
100
AcDbEntity
  8
CURVE
100
AcDbLine
 62
7
  6
CONTINUOUS
 10
-111.4432773081
 20
-36.257398
 11
-110.9214843081
 21
-35.735605
  0
LINE
  5
45E
100
AcDbEntity
  8
CURVE
100
AcDbLine
 62
7
  6
CONTINUOUS
 10
-110.5460983903
 20
-35.3602190822
 11
-110.1000041498
 21
-34.9141248417
  0
LINE
  5
45F
100
AcDbEntity
  8
CURVE
100
AcDbLine
 62
7
  6
CONTINUOUS
 10
-111.9594820584
 20
-36.9836134643
 11
-111.5660085912
 21
-36.5901399971
  0
LINE
  5
460
100
AcDbEntity
  8
CURVE
100
AcDbLine
 62
7
  6
CONTINUOUS
 10
-111.2332665941
 20
-36.257398
 11
-110.7114735941
 21
-35.735605
  0
LINE
  5
461
100
AcDbEntity
  8
CURVE
100
AcDbLine
 62
7
  6
CONTINUOUS
 10
-110.3534897466
 20
-35.3776211525
 11
-109.9035538407
 21
-34.9276852466
  0
LINE
  5
462
100
AcDbEntity
  8
CURVE
100
AcDbLine
 62
7
  6
CONTINUOUS
 10
-111.796120984
 20
-37.0302631039
 11
-111.4071064928
 21
-36.6412486127
  0
LINE
  5
463
100
AcDbEntity
  8
CURVE
100
AcDbLine
 62
7
  6
CONTINUOUS
 10
-111.0232558801
 20
-36.257398
 11
-110.5014628801
 21
-35.735605
  0
LINE
  5
464
100
AcDbEntity
  8
CURVE
100
AcDbLine
 62
7
  6
CONTINUOUS
 10
-110.1608811029
 20
-35.3950232228
 11
-109.7071035317
 21
-34.9412456516
  0
LINE
  5
465
100
AcDbEntity
  8
CURVE
100
AcDbLine
 62
7
  6
CONTINUOUS
 10
-111.6327599096
 20
-37.0769127435
 11
-111.2482043944
 21
-36.6923572283
  0
LINE
  5
466
100
AcDbEntity
  8
CURVE
100
AcDbLine
 62
7
  6
CONTINUOUS
 10
-110.8132451661
 20
-36.257398
 11
-110.2914521661
 21
-35.735605
  0
LINE
  5
467
100
AcDbEntity
  8
CURVE
100
AcDbLine
 62
7
  6
CONTINUOUS
 10
-109.9682724591
 20
-35.4124252931
 11
-109.5106532226
 21
-34.9548060566
  0
LINE
  5
468
100
AcDbEntity
  8
CURVE
100
AcDbLine
 62
7
  6
CONTINUOUS
 10
-111.4693988351
 20
-37.1235623831
 11
-111.089302296
 21
-36.7434658439
  0
LINE
  5
469
100
AcDbEntity
  8
CURVE
100
AcDbLine
 62
7
  6
CONTINUOUS
 10
-110.6032344521
 20
-36.257398
 11
-110.0814414521
 21
-35.735605
  0
LINE
  5
46A
100
AcDbEntity
  8
CURVE
100
AcDbLine
 62
7
  6
CONTINUOUS
 10
-109.7756638154
 20
-35.4298273633
 11
-109.5002813119
 21
-35.1544448599
  0
LINE
  5
46B
100
AcDbEntity
  8
CURVE
100
AcDbLine
 62
7
  6
CONTINUOUS
 10
-111.3060377607
 20
-37.1702120227
 11
-110.9304001976
 21
-36.7945744595
  0
LINE
  5
46C
100
AcDbEntity
  8
CURVE
100
AcDbLine
 62
7
  6
CONTINUOUS
 10
-110.3932237381
 20
-36.257398
 11
-109.8714307381
 21
-35.735605
  0
LINE
  5
46D
100
AcDbEntity
  8
CURVE
100
AcDbLine
 62
7
  6
CONTINUOUS
 10
-109.5830551717
 20
-35.4472294336
 11
-109.5002813119
 21
-35.3644555739
  0
LINE
  5
46E
100
AcDbEntity
  8
CURVE
100
AcDbLine
 62
7
  6
CONTINUOUS
 10
-111.9984945403
 20
-38.0726795163
 11
-111.8149837877
 21
-37.8891687636
  0
LINE
  5
46F
100
AcDbEntity
  8
CURVE
100
AcDbLine
 62
7
  6
CONTINUOUS
 10
-111.1426766863
 20
-37.2168616623
 11
-110.7714980992
 21
-36.8456830751
  0
LINE
  5
470
100
AcDbEntity
  8
CURVE
100
AcDbLine
 62
7
  6
CONTINUOUS
 10
-110.183213024
 20
-36.257398
 11
-109.661420024
 21
-35.735605
  0
LINE
  5
471
100
AcDbEntity
  8
CURVE
100
AcDbLine
 62
7
  6
CONTINUOUS
 10
-111.9984945403
 20
-38.2826902303
 11
-111.5244736549
 21
-37.8086693449
  0
LINE
  5
472
100
AcDbEntity
  8
CURVE
100
AcDbLine
 62
7
  6
CONTINUOUS
 10
-110.9793156119
 20
-37.2635113018
 11
-110.6125960008
 21
-36.8967916907
  0
LINE
  5
473
100
AcDbEntity
  8
CURVE
100
AcDbLine
 62
7
  6
CONTINUOUS
 10
-109.97320231
 20
-36.257398
 11
-109.5002813119
 21
-35.7844770019
  0
LINE
  5
474
100
AcDbEntity
  8
CURVE
100
AcDbLine
 62
7
  6
CONTINUOUS
 10
-111.9984945403
 20
-38.4927009443
 11
-111.2339635221
 21
-37.7281699261
  0
LINE
  5
475
100
AcDbEntity
  8
CURVE
100
AcDbLine
 62
7
  6
CONTINUOUS
 10
-110.8159545374
 20
-37.3101609414
 11
-110.4536939024
 21
-36.9479003063
  0
LINE
  5
476
100
AcDbEntity
  8
CURVE
100
AcDbLine
 62
7
  6
CONTINUOUS
 10
-109.763191596
 20
-36.257398
 11
-109.5002813119
 21
-35.9944877159
  0
LINE
  5
477
100
AcDbEntity
  8
CURVE
100
AcDbLine
 62
7
  6
CONTINUOUS
 10
-111.7116341044
 20
-38.4158512224
 11
-110.9434533894
 21
-37.6476705074
  0
LINE
  5
478
100
AcDbEntity
  8
CURVE
100
AcDbLine
 62
7
  6
CONTINUOUS
 10
-110.652593463
 20
-37.356810581
 11
-110.294791804
 21
-36.999008922
  0
LINE
  5
479
100
AcDbEntity
  8
CURVE
100
AcDbLine
 62
7
  6
CONTINUOUS
 10
-109.553180882
 20
-36.257398
 11
-109.5002813119
 21
-36.2044984299
  0
LINE
  5
47A
100
AcDbEntity
  8
CURVE
100
AcDbLine
 62
7
  6
CONTINUOUS
 10
-111.4040555678
 20
-38.3182833998
 11
-110.6529432566
 21
-37.5671710886
  0
LINE
  5
47B
100
AcDbEntity
  8
CURVE
100
AcDbLine
 62
7
  6
CONTINUOUS
 10
-110.4892323886
 20
-37.4034602206
 11
-110.1358897056
 21
-37.0501175376
  0
LINE
  5
47C
100
AcDbEntity
  8
CURVE
100
AcDbLine
 62
7
  6
CONTINUOUS
 10
-111.0964770312
 20
-38.2207155773
 11
-110.3624331239
 21
-37.4866716699
  0
LINE
  5
47D
100
AcDbEntity
  8
CURVE
100
AcDbLine
 62
7
  6
CONTINUOUS
 10
-110.3258713142
 20
-37.4501098602
 11
-109.9769876071
 21
-37.1012261532
  0
LINE
  5
47E
100
AcDbEntity
  8
CURVE
100
AcDbLine
 62
7
  6
CONTINUOUS
 10
-110.7888984947
 20
-38.1231477547
 11
-109.8180855087
 21
-37.1523347688
  0
LINE
  5
47F
100
AcDbEntity
  8
CURVE
100
AcDbLine
 62
7
  6
CONTINUOUS
 10
-110.4813199581
 20
-38.0255799321
 11
-109.6591834103
 21
-37.2034433844
  0
LINE
  5
480
100
AcDbEntity
  8
CURVE
100
AcDbLine
 62
7
  6
CONTINUOUS
 10
-110.1737414215
 20
-37.9280121096
 11
-109.5002813119
 21
-37.254552
  0
LINE
  5
481
100
AcDbEntity
  8
CURVE
100
AcDbLine
 62
7
  6
CONTINUOUS
 10
-109.8661628849
 20
-37.830444287
 11
-109.5002813119
 21
-37.464562714
  0
LINE
  5
482
100
AcDbEntity
  8
CURVE
100
AcDbLine
 62
7
  6
CONTINUOUS
 10
-109.5585843484
 20
-37.7328764645
 11
-109.5002813119
 21
-37.674573428
  0
LINE
  5
483
100
AcDbEntity
  8
0
100
AcDbLine
 62
250
  6
CONTINUOUS
 10
-106.467552968
 20
-26.9276792439
 11
-105.3680341082
 21
-26.3440350289
  0
LINE
  5
484
100
AcDbEntity
  8
0
100
AcDbLine
 62
250
  6
CONTINUOUS
 10
-104.9432763196
 20
-26.2536973817
 11
-104.4211844668
 21
-25.9765617175
  0
LINE
  5
485
100
AcDbEntity
  8
0
100
AcDbLine
 62
7
  6
CONTINUOUS
 10
-104.3933255518
 20
-26.0883643404
 11
-106.3933255563
 21
-27.1500000024
  0
LINE
  5
486
100
AcDbEntity
  8
0
100
AcDbLine
 62
7
  6
CONTINUOUS
 10
-104.3933255518
 20
25.4
 11
-106.3436974539
 21
25.2049628098
  0
LINE
  5
487
100
AcDbEntity
  8
0
100
AcDbLine
 62
7
  6
CONTINUOUS
 10
-107.3933255518
 20
25.7558198745
 11
-104.5828583605
 21
25.8799866677
  0
LINE
  5
488
100
AcDbEntity
  8
0
100
AcDbLine
 62
7
  6
CONTINUOUS
 10
-104.3933255518
 20
25.3523612067
 11
-104.9152622061
 21
25.3478063346
  0
LINE
  5
489
100
AcDbEntity
  8
0
100
AcDbLine
 62
7
  6
CONTINUOUS
 10
-107.3933255518
 20
25.05
 11
-107.2433255518
 21
25.05
  0
LINE
  5
48A
100
AcDbEntity
  8
0
100
AcDbLine
 62
7
  6
CONTINUOUS
 10
-106.9433255518
 20
25.05
 11
-106.7433255518
 21
25.05
  0
LINE
  5
48B
100
AcDbEntity
  8
0
100
AcDbLine
 62
7
  6
CONTINUOUS
 10
-107.3933255518
 20
25.2
 11
-106.4432011729
 21
25.2
  0
LINE
  5
48C
100
AcDbEntity
  8
0
100
AcDbLine
 62
7
  6
CONTINUOUS
 10
-104.3933255518
 20
26.1523612067
 11
-104.5138883188
 21
26.1523612067
  0
LINE
  5
48D
100
AcDbEntity
  8
0
100
AcDbLine
 62
250
  6
CONTINUOUS
 10
-106.467552968
 20
26.9276792439
 11
-107.3933255518
 21
26.9280974384
  0
LINE
  5
48E
100
AcDbEntity
  8
0
100
AcDbLine
 62
7
  6
CONTINUOUS
 10
-106.3933255518
 20
27.15
 11
-107.3933255518
 21
27.151745331
  0
LINE
  5
48F
100
AcDbEntity
  8
0
100
AcDbLine
 62
250
  6
CONTINUOUS
 10
-104.9432763196
 20
26.2536973817
 11
-107.3933255518
 21
26.2679513512
  0
LINE
  5
490
100
AcDbEntity
  8
0
100
AcDbLine
 62
7
  6
CONTINUOUS
 10
-104.9432763196
 20
26.3415638603
 11
-107.3933255518
 21
26.3558178298
  0
LINE
  5
491
100
AcDbEntity
  8
0
100
AcDbLine
 62
250
  6
CONTINUOUS
 10
-105.3680341082
 20
26.3440350289
 11
-106.467552968
 21
26.9276792439
  0
LINE
  5
492
100
AcDbEntity
  8
0
100
AcDbLine
 62
250
  6
CONTINUOUS
 10
-104.4211844668
 20
25.9765617175
 11
-104.9432763196
 21
26.2536973817
  0
LINE
  5
493
100
AcDbEntity
  8
0
100
AcDbLine
 62
7
  6
CONTINUOUS
 10
-104.3933255518
 20
26.0883643404
 11
-106.3933255554
 21
27.1500000019
  0
LINE
  5
494
100
AcDbEntity
  8
0
100
AcDbLine
 62
7
  6
CONTINUOUS
 10
-113.5439347248
 20
-43.8055596544
 11
-113.558873094
 21
-43.8199854699
  0
LINE
  5
495
100
AcDbEntity
  8
ASSI
100
AcDbLine
 62
7
  6
CONTINUOUS
 10
-113.5439347248
 20
-43.8055596544
 11
-113.558873094
 21
-43.8199854699
  0
LINE
  5
496
100
AcDbEntity
  8
CURVE
100
AcDbLine
 62
250
  6
CONTINUOUS
 10
-111.9984945403
 20
-31.54876
 11
-109.5002813119
 21
-30.781779
  0
LINE
  5
497
100
AcDbEntity
  8
0
100
AcDbLine
 62
7
  6
CONTINUOUS
 10
-113.558873094
 20
43.8199854699
 11
-113.5439347248
 21
43.8055596544
  0
LINE
  5
498
100
AcDbEntity
  8
ASSI
100
AcDbLine
 62
7
  6
CONTINUOUS
 10
-113.558873094
 20
43.8199854699
 11
-113.5439347248
 21
43.8055596544
  0
LINE
  5
499
100
AcDbEntity
  8
CURVE
100
AcDbLine
 62
250
  6
CONTINUOUS
 10
-109.5002813119
 20
-34.230793
 11
-111.1315669711
 21
-34.842919
  0
LINE
  5
49A
100
AcDbEntity
  8
CURVE
100
AcDbLine
 62
250
  6
CONTINUOUS
 10
-111.9984945403
 20
-34.707635
 11
-110.6114789877
 21
-34.191353
  0
LINE
  5
49B
100
AcDbEntity
  8
CURVE
100
AcDbLine
 62
250
  6
CONTINUOUS
 10
-109.5002813119
 20
-37.714382
 11
-111.9984945403
 21
-38.506847
  0
LINE
  5
49C
100
AcDbEntity
  8
0
100
AcDbLine
 62
250
  6
CONTINUOUS
 10
-107.9933255518
 20
41.1619414324
 11
-107.3933255518
 21
41.2038975196
  0
LINE
  5
49D
100
AcDbEntity
  8
0
100
AcDbLine
 62
7
  6
CONTINUOUS
 10
-107.9933255518
 20
42.7580439128
 11
-107.3933255518
 21
42.8
  0
LINE
  5
49E
100
AcDbEntity
  8
0
100
AcDbLine
 62
7
  6
CONTINUOUS
 10
-113.5439347248
 20
43.8055596544
 11
-107.9933255518
 21
43.9993911979
  0
LINE
  5
49F
100
AcDbEntity
  8
ASSI
100
AcDbLine
 62
7
  6
CONTINUOUS
 10
-113.5439347248
 20
43.8055596544
 11
-107.9933255518
 21
43.9993911979
  0
LINE
  5
4A0
100
AcDbEntity
  8
0
100
AcDbLine
 62
7
  6
CONTINUOUS
 10
-113.5439347248
 20
44.8061684565
 11
-107.9933255518
 21
45.0
  0
LINE
  5
4A1
100
AcDbEntity
  8
ASSI
100
AcDbLine
 62
7
  6
CONTINUOUS
 10
-113.5439347248
 20
44.8061684565
 11
-107.9933255518
 21
45.0
  0
LWPOLYLINE
  5
4A2
100
AcDbEntity
  8
0
100
AcDbPolyline
 62
7
  6
CONTINUOUS
 90
8
 70
0
 43
0.3500000006
 10
-118.1568565063
 20
55.7499985657
 10
-117.2997185669
 20
55.7499985657
 10
-116.8711495972
 20
56.1785675354
 10
-116.8711495972
 20
57.0357145386
 10
-117.2997185669
 20
57.4642835083
 10
-118.1568565063
 20
57.4642835083
 10
-118.1568565063
 20
58.7499994812
 10
-116.8711495972
 20
58.7499994812
  0
LWPOLYLINE
  5
4A3
100
AcDbEntity
  8
0
100
AcDbPolyline
 62
7
  6
CONTINUOUS
 90
8
 70
0
 43
0.3500000006
 10
-118.9326384888
 20
63.7500010071
 10
-118.0755005493
 20
63.7500010071
 10
-117.6469225159
 20
64.1785699768
 10
-117.6469225159
 20
65.03571698
 10
-118.0755005493
 20
65.4642859497
 10
-118.9326384888
 20
65.4642859497
 10
-118.9326384888
 20
66.7500019226
 10
-117.6469225159
 20
66.7500019226
  0
ARC
  5
4A4
100
AcDbEntity
  8
0
100
AcDbCircle
 62
7
  6
CONTINUOUS
 10
-40.45
 20
-6.7
 40
1.7
100
AcDbArc
 50
180.0
 51
270.0
  0
ARC
  5
4A5
100
AcDbEntity
  8
0
100
AcDbCircle
 62
7
  6
CONTINUOUS
 10
-27.05
 20
-6.7
 40
1.7
100
AcDbArc
 50
270.0
 51
360.0
  0
ARC
  5
4A6
100
AcDbEntity
  8
0
100
AcDbCircle
 62
7
  6
CONTINUOUS
 10
-17.95
 20
-6.7
 40
1.7
100
AcDbArc
 50
180.0
 51
270.0
  0
ARC
  5
4A7
100
AcDbEntity
  8
ASSI
100
AcDbCircle
 62
7
  6
CONTINUOUS
 10
-27.05
 20
-6.7
 40
1.7
100
AcDbArc
 50
270.0
 51
360.0
  0
ARC
  5
4A8
100
AcDbEntity
  8
ASSI
100
AcDbCircle
 62
7
  6
CONTINUOUS
 10
-40.45
 20
-6.7
 40
1.7
100
AcDbArc
 50
180.0
 51
270.0
  0
ARC
  5
4A9
100
AcDbEntity
  8
ASSI
100
AcDbCircle
 62
7
  6
CONTINUOUS
 10
-17.95
 20
-6.7
 40
1.7
100
AcDbArc
 50
180.0
 51
270.0
  0
ARC
  5
4AA
100
AcDbEntity
  8
0
100
AcDbCircle
 62
7
  6
CONTINUOUS
 10
-40.45
 20
-6.7
 40
1.2
100
AcDbArc
 50
180.0
 51
270.0
  0
ARC
  5
4AB
100
AcDbEntity
  8
0
100
AcDbCircle
 62
7
  6
CONTINUOUS
 10
-27.05
 20
-6.7
 40
1.2
100
AcDbArc
 50
270.0
 51
360.0
  0
ARC
  5
4AC
100
AcDbEntity
  8
0
100
AcDbCircle
 62
7
  6
CONTINUOUS
 10
-17.95
 20
-6.7
 40
1.2
100
AcDbArc
 50
180.0
 51
270.0
  0
ARC
  5
4AD
100
AcDbEntity
  8
ASSI
100
AcDbCircle
 62
7
  6
CONTINUOUS
 10
-40.45
 20
-6.7
 40
1.2
100
AcDbArc
 50
180.0
 51
270.0
  0
ARC
  5
4AE
100
AcDbEntity
  8
ASSI
100
AcDbCircle
 62
7
  6
CONTINUOUS
 10
-27.05
 20
-6.7
 40
1.2
100
AcDbArc
 50
270.0
 51
360.0
  0
ARC
  5
4AF
100
AcDbEntity
  8
ASSI
100
AcDbCircle
 62
7
  6
CONTINUOUS
 10
-17.95
 20
-6.7
 40
1.2
100
AcDbArc
 50
180.0
 51
270.0
  0
ARC
  5
4B0
100
AcDbEntity
  8
0
100
AcDbCircle
 62
7
  6
CONTINUOUS
 10
-40.45
 20
6.7
 40
1.7
100
AcDbArc
 50
90.0
 51
180.0
  0
ARC
  5
4B1
100
AcDbEntity
  8
0
100
AcDbCircle
 62
7
  6
CONTINUOUS
 10
-27.05
 20
6.7
 40
1.7
100
AcDbArc
 50
0.0
 51
90.0
  0
ARC
  5
4B2
100
AcDbEntity
  8
0
100
AcDbCircle
 62
7
  6
CONTINUOUS
 10
-17.95
 20
6.7
 40
1.7
100
AcDbArc
 50
90.0
 51
180.0
  0
ARC
  5
4B3
100
AcDbEntity
  8
ASSI
100
AcDbCircle
 62
7
  6
CONTINUOUS
 10
-27.05
 20
6.7
 40
1.7
100
AcDbArc
 50
0.0
 51
90.0
  0
ARC
  5
4B4
100
AcDbEntity
  8
ASSI
100
AcDbCircle
 62
7
  6
CONTINUOUS
 10
-40.45
 20
6.7
 40
1.7
100
AcDbArc
 50
90.0
 51
180.0
  0
ARC
  5
4B5
100
AcDbEntity
  8
ASSI
100
AcDbCircle
 62
7
  6
CONTINUOUS
 10
-17.95
 20
6.7
 40
1.7
100
AcDbArc
 50
90.0
 51
180.0
  0
ARC
  5
4B6
100
AcDbEntity
  8
0
100
AcDbCircle
 62
7
  6
CONTINUOUS
 10
-40.45
 20
6.7
 40
1.2
100
AcDbArc
 50
90.0
 51
180.0
  0
ARC
  5
4B7
100
AcDbEntity
  8
0
100
AcDbCircle
 62
7
  6
CONTINUOUS
 10
-27.05
 20
6.7
 40
1.2
100
AcDbArc
 50
0.0
 51
90.0
  0
ARC
  5
4B8
100
AcDbEntity
  8
0
100
AcDbCircle
 62
7
  6
CONTINUOUS
 10
-17.95
 20
6.7
 40
1.2
100
AcDbArc
 50
90.0
 51
180.0
  0
ARC
  5
4B9
100
AcDbEntity
  8
ASSI
100
AcDbCircle
 62
7
  6
CONTINUOUS
 10
-40.45
 20
6.7
 40
1.2
100
AcDbArc
 50
90.0
 51
180.0
  0
ARC
  5
4BA
100
AcDbEntity
  8
ASSI
100
AcDbCircle
 62
7
  6
CONTINUOUS
 10
-27.05
 20
6.7
 40
1.2
100
AcDbArc
 50
0.0
 51
90.0
  0
ARC
  5
4BB
100
AcDbEntity
  8
ASSI
100
AcDbCircle
 62
7
  6
CONTINUOUS
 10
-17.95
 20
6.7
 40
1.2
100
AcDbArc
 50
90.0
 51
180.0
  0
ARC
  5
4BC
100
AcDbEntity
  8
0
100
AcDbCircle
 62
7
  6
CONTINUOUS
 10
-4.55
 20
-6.7
 40
1.7
100
AcDbArc
 50
270.0
 51
360.0
  0
ARC
  5
4BD
100
AcDbEntity
  8
0
100
AcDbCircle
 62
7
  6
CONTINUOUS
 10
27.05
 20
-6.7
 40
1.7
100
AcDbArc
 50
180.0
 51
270.0
  0
ARC
  5
4BE
100
AcDbEntity
  8
0
100
AcDbCircle
 62
7
  6
CONTINUOUS
 10
4.55
 20
-6.7
 40
1.7
100
AcDbArc
 50
180.0
 51
270.0
  0
ARC
  5
4BF
100
AcDbEntity
  8
0
100
AcDbCircle
 62
7
  6
CONTINUOUS
 10
17.95
 20
-6.7
 40
1.7
100
AcDbArc
 50
270.0
 51
360.0
  0
ARC
  5
4C0
100
AcDbEntity
  8
ASSI
100
AcDbCircle
 62
7
  6
CONTINUOUS
 10
-4.55
 20
-6.7
 40
1.7
100
AcDbArc
 50
270.0
 51
360.0
  0
ARC
  5
4C1
100
AcDbEntity
  8
ASSI
100
AcDbCircle
 62
7
  6
CONTINUOUS
 10
17.95
 20
-6.7
 40
1.7
100
AcDbArc
 50
270.0
 51
360.0
  0
ARC
  5
4C2
100
AcDbEntity
  8
ASSI
100
AcDbCircle
 62
7
  6
CONTINUOUS
 10
4.55
 20
-6.7
 40
1.7
100
AcDbArc
 50
180.0
 51
270.0
  0
ARC
  5
4C3
100
AcDbEntity
  8
ASSI
100
AcDbCircle
 62
7
  6
CONTINUOUS
 10
27.05
 20
-6.7
 40
1.7
100
AcDbArc
 50
180.0
 51
270.0
  0
ARC
  5
4C4
100
AcDbEntity
  8
0
100
AcDbCircle
 62
7
  6
CONTINUOUS
 10
-4.55
 20
-6.7
 40
1.2
100
AcDbArc
 50
270.0
 51
360.0
  0
ARC
  5
4C5
100
AcDbEntity
  8
0
100
AcDbCircle
 62
7
  6
CONTINUOUS
 10
4.55
 20
-6.7
 40
1.2
100
AcDbArc
 50
180.0
 51
270.0
  0
ARC
  5
4C6
100
AcDbEntity
  8
0
100
AcDbCircle
 62
7
  6
CONTINUOUS
 10
17.95
 20
-6.7
 40
1.2
100
AcDbArc
 50
270.0
 51
360.0
  0
ARC
  5
4C7
100
AcDbEntity
  8
0
100
AcDbCircle
 62
7
  6
CONTINUOUS
 10
27.05
 20
-6.7
 40
1.2
100
AcDbArc
 50
180.0
 51
270.0
  0
ARC
  5
4C8
100
AcDbEntity
  8
ASSI
100
AcDbCircle
 62
7
  6
CONTINUOUS
 10
-4.55
 20
-6.7
 40
1.2
100
AcDbArc
 50
270.0
 51
360.0
  0
ARC
  5
4C9
100
AcDbEntity
  8
ASSI
100
AcDbCircle
 62
7
  6
CONTINUOUS
 10
4.55
 20
-6.7
 40
1.2
100
AcDbArc
 50
180.0
 51
270.0
  0
ARC
  5
4CA
100
AcDbEntity
  8
ASSI
100
AcDbCircle
 62
7
  6
CONTINUOUS
 10
17.95
 20
-6.7
 40
1.2
100
AcDbArc
 50
270.0
 51
360.0
  0
ARC
  5
4CB
100
AcDbEntity
  8
ASSI
100
AcDbCircle
 62
7
  6
CONTINUOUS
 10
27.05
 20
-6.7
 40
1.2
100
AcDbArc
 50
180.0
 51
270.0
  0
ARC
  5
4CC
100
AcDbEntity
  8
0
100
AcDbCircle
 62
7
  6
CONTINUOUS
 10
-4.55
 20
6.7
 40
1.7
100
AcDbArc
 50
0.0
 51
90.0
  0
ARC
  5
4CD
100
AcDbEntity
  8
0
100
AcDbCircle
 62
7
  6
CONTINUOUS
 10
27.05
 20
6.7
 40
1.7
100
AcDbArc
 50
90.0
 51
180.0
  0
ARC
  5
4CE
100
AcDbEntity
  8
0
100
AcDbCircle
 62
7
  6
CONTINUOUS
 10
4.55
 20
6.7
 40
1.7
100
AcDbArc
 50
90.0
 51
180.0
  0
ARC
  5
4CF
100
AcDbEntity
  8
0
100
AcDbCircle
 62
7
  6
CONTINUOUS
 10
17.95
 20
6.7
 40
1.7
100
AcDbArc
 50
0.0
 51
90.0
  0
ARC
  5
4D0
100
AcDbEntity
  8
ASSI
100
AcDbCircle
 62
7
  6
CONTINUOUS
 10
-4.55
 20
6.7
 40
1.7
100
AcDbArc
 50
0.0
 51
90.0
  0
ARC
  5
4D1
100
AcDbEntity
  8
ASSI
100
AcDbCircle
 62
7
  6
CONTINUOUS
 10
17.95
 20
6.7
 40
1.7
100
AcDbArc
 50
0.0
 51
90.0
  0
ARC
  5
4D2
100
AcDbEntity
  8
ASSI
100
AcDbCircle
 62
7
  6
CONTINUOUS
 10
4.55
 20
6.7
 40
1.7
100
AcDbArc
 50
90.0
 51
180.0
  0
ARC
  5
4D3
100
AcDbEntity
  8
ASSI
100
AcDbCircle
 62
7
  6
CONTINUOUS
 10
27.05
 20
6.7
 40
1.7
100
AcDbArc
 50
90.0
 51
180.0
  0
ARC
  5
4D4
100
AcDbEntity
  8
0
100
AcDbCircle
 62
7
  6
CONTINUOUS
 10
-4.55
 20
6.7
 40
1.2
100
AcDbArc
 50
0.0
 51
90.0
  0
ARC
  5
4D5
100
AcDbEntity
  8
0
100
AcDbCircle
 62
7
  6
CONTINUOUS
 10
4.55
 20
6.7
 40
1.2
100
AcDbArc
 50
90.0
 51
180.0
  0
ARC
  5
4D6
100
AcDbEntity
  8
0
100
AcDbCircle
 62
7
  6
CONTINUOUS
 10
17.95
 20
6.7
 40
1.2
100
AcDbArc
 50
0.0
 51
90.0
  0
ARC
  5
4D7
100
AcDbEntity
  8
0
100
AcDbCircle
 62
7
  6
CONTINUOUS
 10
27.05
 20
6.7
 40
1.2
100
AcDbArc
 50
90.0
 51
180.0
  0
ARC
  5
4D8
100
AcDbEntity
  8
ASSI
100
AcDbCircle
 62
7
  6
CONTINUOUS
 10
-4.55
 20
6.7
 40
1.2
100
AcDbArc
 50
0.0
 51
90.0
  0
ARC
  5
4D9
100
AcDbEntity
  8
ASSI
100
AcDbCircle
 62
7
  6
CONTINUOUS
 10
4.55
 20
6.7
 40
1.2
100
AcDbArc
 50
90.0
 51
180.0
  0
ARC
  5
4DA
100
AcDbEntity
  8
ASSI
100
AcDbCircle
 62
7
  6
CONTINUOUS
 10
17.95
 20
6.7
 40
1.2
100
AcDbArc
 50
0.0
 51
90.0
  0
ARC
  5
4DB
100
AcDbEntity
  8
ASSI
100
AcDbCircle
 62
7
  6
CONTINUOUS
 10
27.05
 20
6.7
 40
1.2
100
AcDbArc
 50
90.0
 51
180.0
  0
ARC
  5
4DC
100
AcDbEntity
  8
CURVE
100
AcDbCircle
 62
250
  6
CONTINUOUS
 10
111.9922937963
 20
-29.8716892664
 40
39.8681074
100
AcDbArc
 50
179.7782450657
 51
180.3657160807
  0
ARC
  5
4DD
100
AcDbEntity
  8
0
100
AcDbCircle
 62
7
  6
CONTINUOUS
 10
40.45
 20
-6.7
 40
1.7
100
AcDbArc
 50
270.0
 51
360.0
  0
ARC
  5
4DE
100
AcDbEntity
  8
0
100
AcDbCircle
 62
7
  6
CONTINUOUS
 10
40.45
 20
6.7
 40
1.7
100
AcDbArc
 50
0.0
 51
90.0
  0
ARC
  5
4DF
100
AcDbEntity
  8
ASSI
100
AcDbCircle
 62
7
  6
CONTINUOUS
 10
40.45
 20
6.7
 40
1.7
100
AcDbArc
 50
0.0
 51
90.0
  0
ARC
  5
4E0
100
AcDbEntity
  8
ASSI
100
AcDbCircle
 62
7
  6
CONTINUOUS
 10
40.45
 20
-6.7
 40
1.7
100
AcDbArc
 50
270.0
 51
360.0
  0
ARC
  5
4E1
100
AcDbEntity
  8
0
100
AcDbCircle
 62
7
  6
CONTINUOUS
 10
40.45
 20
-6.7
 40
1.2
100
AcDbArc
 50
270.0
 51
360.0
  0
ARC
  5
4E2
100
AcDbEntity
  8
0
100
AcDbCircle
 62
7
  6
CONTINUOUS
 10
40.45
 20
6.7
 40
1.2
100
AcDbArc
 50
0.0
 51
90.0
  0
ARC
  5
4E3
100
AcDbEntity
  8
ASSI
100
AcDbCircle
 62
7
  6
CONTINUOUS
 10
40.45
 20
-6.7
 40
1.2
100
AcDbArc
 50
270.0
 51
360.0
  0
ARC
  5
4E4
100
AcDbEntity
  8
ASSI
100
AcDbCircle
 62
7
  6
CONTINUOUS
 10
40.45
 20
6.7
 40
1.2
100
AcDbArc
 50
0.0
 51
90.0
  0
ARC
  5
4E5
100
AcDbEntity
  8
0
100
AcDbCircle
 62
7
  6
CONTINUOUS
 10
-106.4432011729
 20
-26.2
 40
1.0
100
AcDbArc
 50
84.2894068625
 51
90.0
  0
ARC
  5
4E6
100
AcDbEntity
  8
0
100
AcDbCircle
 62
7
  6
CONTINUOUS
 10
-106.4432011729
 20
26.2
 40
1.0
100
AcDbArc
 50
270.0
 51
275.7105931375
  0
ARC
  5
4E7
100
AcDbEntity
  8
0
100
AcDbCircle
 62
7
  6
CONTINUOUS
 10
-106.4680122269
 20
-26.849999496
 40
0.3
100
AcDbArc
 50
270.0999999936
 51
297.9489685197
  0
ARC
  5
4E8
100
AcDbEntity
  8
0
100
AcDbCircle
 62
7
  6
CONTINUOUS
 10
-106.4680122269
 20
26.849999496
 40
0.3
100
AcDbArc
 50
62.0510314803
 51
89.9000000064
  0
ARC
  5
4E9
100
AcDbEntity
  8
0
100
AcDbCircle
 62
7
  6
CONTINUOUS
 10
-107.4433255518
 20
2.6214065094
 40
0.3
100
AcDbArc
 50
0.0
 51
80.4010886585
  0
ARC
  5
4EA
100
AcDbEntity
  8
0
100
AcDbCircle
 62
7
  6
CONTINUOUS
 10
-107.4433255518
 20
-2.6214065094
 40
0.3
100
AcDbArc
 50
279.5989113415
 51
360.0
  0
ARC
  5
4EB
100
AcDbEntity
  8
0
100
AcDbCircle
 62
7
  6
CONTINUOUS
 10
-104.945021639
 20
-26.0415689373
 40
0.3
100
AcDbArc
 50
270.3333333333
 51
297.9601595792
  0
ARC
  5
4EC
100
AcDbEntity
  8
0
100
AcDbCircle
 62
7
  6
CONTINUOUS
 10
-104.945021639
 20
26.0415689373
 40
0.3
100
AcDbArc
 50
62.0398404207
 51
89.6666666667
  0
SPLINE
  5
4ED
100
AcDbEntity
  8
CURVE
100
AcDbSpline
 62
250
  6
CONTINUOUS
 70
0
 71
3
 72
9
 73
5
 74
0
 42
0.0000001
 43
0.0000001
 44
0.0000000001
 40
0.0
 40
0.0
 40
0.0
 40
0.0
 40
0.3559141631
 40
1.0
 40
1.0
 40
1.0
 40
1.0
 10
72.1632352194
 20
-29.8290889245
 30
0.0
 10
72.1632352194
 20
-29.7836184402
 30
0.0
 10
72.1641961358
 20
-29.6528120506
 30
0.0
 10
72.1682334149
 20
-29.5668873007
 30
0.0
 10
72.1709220674
 20
-29.5379751749
 30
0.0
  0
SPLINE
  5
4EE
100
AcDbEntity
  8
CURVE
100
AcDbSpline
 62
250
  6
CONTINUOUS
 70
0
 71
3
 72
9
 73
5
 74
0
 42
0.0000001
 43
0.0000001
 44
0.0000000001
 40
0.0
 40
0.0
 40
0.0
 40
0.0
 40
0.2957417834
 40
1.0
 40
1.0
 40
1.0
 40
1.0
 10
72.1120741759
 20
-29.3408501143
 30
0.0
 10
72.1105585951
 20
-29.4610542637
 30
0.0
 10
72.1080881081
 20
-29.8931154132
 30
0.0
 10
72.1096096759
 20
-30.3274429247
 30
0.0
 10
72.1111556794
 20
-30.6285551388
 30
0.0
  0
SPLINE
  5
4EF
100
AcDbEntity
  8
CURVE
100
AcDbSpline
 62
250
  6
CONTINUOUS
 70
0
 71
3
 72
17
 73
13
 74
0
 42
0.0000001
 43
0.0000001
 44
0.0000000001
 40
0.0
 40
0.0
 40
0.0
 40
0.0
 40
0.0559780952
 40
0.1687540387
 40
0.321006234
 40
0.4122750837
 40
0.516613223
 40
0.6013931059
 40
0.6776022439
 40
0.8103422694
 40
0.9200404832
 40
1.0
 40
1.0
 40
1.0
 40
1.0
 10
72.1561378054
 20
-29.2870512436
 30
0.0
 10
72.1560080221
 20
-29.2582307418
 30
0.0
 10
72.1539944413
 20
-29.184972753
 30
0.0
 10
72.1501559947
 20
-29.0634829078
 30
0.0
 10
72.144247302
 20
-28.9740276278
 30
0.0
 10
72.1380831982
 20
-28.9341773505
 30
0.0
 10
72.1329671207
 20
-28.9304334968
 30
0.0
 10
72.1281887457
 20
-28.9501640226
 30
0.0
 10
72.1231113496
 20
-28.9979840427
 30
0.0
 10
72.1181353908
 20
-29.0877998266
 30
0.0
 10
72.1142440602
 20
-29.2146127248
 30
0.0
 10
72.112565765
 20
-29.301804483
 30
0.0
 10
72.1120741759
 20
-29.3408501143
 30
0.0
  0
SPLINE
  5
4F0
100
AcDbEntity
  8
CURVE
100
AcDbSpline
 62
250
  6
CONTINUOUS
 70
0
 71
3
 72
9
 73
5
 74
0
 42
0.0000001
 43
0.0000001
 44
0.0000000001
 40
0.0
 40
0.0
 40
0.0
 40
0.0
 40
0.2426586216
 40
1.0
 40
1.0
 40
1.0
 40
1.0
 10
72.1737639114
 20
-28.9862836897
 30
0.0
 10
72.1721786227
 20
-28.9986586641
 30
0.0
 10
72.1657768408
 20
-29.0459291565
 30
0.0
 10
72.1585526835
 20
-29.1505648409
 30
0.0
 10
72.1566533149
 20
-29.2870512436
 30
0.0
  0
LINE
  5
4F1
100
AcDbEntity
  8
CURVE
100
AcDbLine
 62
250
  6
CONTINUOUS
 10
72.1973759458
 20
-28.8079038802
 11
72.1737639114
 21
-28.9862836897
  0
SPLINE
  5
4F2
100
AcDbEntity
  8
CURVE
100
AcDbSpline
 62
250
  6
CONTINUOUS
 70
0
 71
3
 72
9
 73
5
 74
0
 42
0.0000001
 43
0.0000001
 44
0.0000000001
 40
0.0
 40
0.0
 40
0.0
 40
0.0
 40
0.5586214172
 40
1.0
 40
1.0
 40
1.0
 40
1.0
 10
72.1709220674
 20
-29.5379751749
 30
0.0
 10
72.1757378197
 20
-29.486134558
 30
0.0
 10
72.1846552336
 20
-29.4179595379
 30
0.0
 10
72.1934695024
 20
-29.3419894791
 30
0.0
 10
72.1973759458
 20
-29.3098079785
 30
0.0
  0
SPLINE
  5
4F3
100
AcDbEntity
  8
CURVE
100
AcDbSpline
 62
250
  6
CONTINUOUS
 70
0
 71
3
 72
9
 73
5
 74
0
 42
0.0000001
 43
0.0000001
 44
0.0000000001
 40
0.0
 40
0.0
 40
0.0
 40
0.0
 40
0.5206208722
 40
1.0
 40
1.0
 40
1.0
 40
1.0
 10
72.135390512
 20
-29.4226356449
 30
0.0
 10
72.1391619261
 20
-29.4209681689
 30
0.0
 10
72.1474005432
 20
-29.4973108459
 30
0.0
 10
72.1488699409
 20
-29.728472706
 30
0.0
 10
72.1489474951
 20
-29.8279642095
 30
0.0
  0
SPLINE
  5
4F4
100
AcDbEntity
  8
CURVE
100
AcDbSpline
 62
250
  6
CONTINUOUS
 70
0
 71
3
 72
9
 73
5
 74
0
 42
0.0000001
 43
0.0000001
 44
0.0000000001
 40
0.0
 40
0.0
 40
0.0
 40
0.0
 40
0.5013510385
 40
1.0
 40
1.0
 40
1.0
 40
1.0
 10
72.1244850009
 20
-29.7173859732
 30
0.0
 10
72.124794863
 20
-29.6409112471
 30
0.0
 10
72.1271452432
 20
-29.4862321801
 30
0.0
 10
72.1327184632
 20
-29.423833145
 30
0.0
 10
72.135390512
 20
-29.4226356449
 30
0.0
  0
SPLINE
  5
4F5
100
AcDbEntity
  8
CURVE
100
AcDbSpline
 62
250
  6
CONTINUOUS
 70
0
 71
3
 72
9
 73
5
 74
0
 42
0.0000001
 43
0.0000001
 44
0.0000000001
 40
0.0
 40
0.0
 40
0.0
 40
0.0
 40
0.3559141631
 40
1.0
 40
1.0
 40
1.0
 40
1.0
 10
-110.4779437862
 20
-29.8290889245
 30
0.0
 10
-110.4779437862
 20
-29.7836184402
 30
0.0
 10
-110.4504267382
 20
-29.6528120506
 30
0.0
 10
-110.3348141926
 20
-29.5668873007
 30
0.0
 10
-110.2578212601
 20
-29.5379751749
 30
0.0
  0
SPLINE
  5
4F6
100
AcDbEntity
  8
CURVE
100
AcDbSpline
 62
250
  6
CONTINUOUS
 70
0
 71
3
 72
9
 73
5
 74
0
 42
0.0000001
 43
0.0000001
 44
0.0000000001
 40
0.0
 40
0.0
 40
0.0
 40
0.0
 40
0.2957417834
 40
1.0
 40
1.0
 40
1.0
 40
1.0
 10
-111.943004384
 20
-29.3408501143
 30
0.0
 10
-111.9864049397
 20
-29.4610542637
 30
0.0
 10
-112.0571504322
 20
-29.8931154132
 30
0.0
 10
-112.0135784326
 20
-30.3274429247
 30
0.0
 10
-111.9693066842
 20
-30.6285551388
 30
0.0
  0
SPLINE
  5
4F7
100
AcDbEntity
  8
CURVE
100
AcDbSpline
 62
250
  6
CONTINUOUS
 70
0
 71
3
 72
17
 73
13
 74
0
 42
0.0000001
 43
0.0000001
 44
0.0000000001
 40
0.0
 40
0.0
 40
0.0
 40
0.0
 40
0.0559780952
 40
0.1687540387
 40
0.321006234
 40
0.4122750837
 40
0.516613223
 40
0.6013931059
 40
0.6776022439
 40
0.8103422694
 40
0.9200404832
 40
1.0
 40
1.0
 40
1.0
 40
1.0
 10
-110.6811871295
 20
-29.2870512436
 30
0.0
 10
-110.6849036386
 20
-29.2582307418
 30
0.0
 10
-110.7425650468
 20
-29.184972753
 30
0.0
 10
-110.8524837768
 20
-29.0634829078
 30
0.0
 10
-111.021686596
 20
-28.9740276278
 30
0.0
 10
-111.1982034353
 20
-28.9341773505
 30
0.0
 10
-111.3447087273
 20
-28.9304334968
 30
0.0
 10
-111.4815434815
 20
-28.9501640226
 30
0.0
 10
-111.6269410823
 20
-28.9979840427
 30
0.0
 10
-111.7694339009
 20
-29.0877998266
 30
0.0
 10
-111.8808670282
 20
-29.2146127248
 30
0.0
 10
-111.9289271153
 20
-29.301804483
 30
0.0
 10
-111.943004384
 20
-29.3408501143
 30
0.0
  0
SPLINE
  5
4F8
100
AcDbEntity
  8
CURVE
100
AcDbSpline
 62
250
  6
CONTINUOUS
 70
0
 71
3
 72
9
 73
5
 74
0
 42
0.0000001
 43
0.0000001
 44
0.0000000001
 40
0.0
 40
0.0
 40
0.0
 40
0.0
 40
0.2426586216
 40
1.0
 40
1.0
 40
1.0
 40
1.0
 10
-110.1764414939
 20
-28.9862836897
 30
0.0
 10
-110.2218382218
 20
-28.9986586641
 30
0.0
 10
-110.4051612722
 20
-29.0459291565
 30
0.0
 10
-110.6120340704
 20
-29.1505648409
 30
0.0
 10
-110.6664248699
 20
-29.2870512436
 30
0.0
  0
SPLINE
  5
4F9
100
AcDbEntity
  8
CURVE
100
AcDbSpline
 62
250
  6
CONTINUOUS
 70
0
 71
3
 72
9
 73
5
 74
0
 42
0.0000001
 43
0.0000001
 44
0.0000000001
 40
0.0
 40
0.0
 40
0.0
 40
0.0
 40
0.1980141723
 40
1.0
 40
1.0
 40
1.0
 40
1.0
 10
-109.5002812955
 20
-28.8079038802
 30
0.0
 10
-109.5448226109
 20
-28.8200085492
 30
0.0
 10
-109.7702682549
 20
-28.8792554798
 30
0.0
 10
-109.9960814924
 20
-28.9371156095
 30
0.0
 10
-110.1764414939
 20
-28.9862836897
 30
0.0
  0
SPLINE
  5
4FA
100
AcDbEntity
  8
CURVE
100
AcDbSpline
 62
250
  6
CONTINUOUS
 70
0
 71
3
 72
9
 73
5
 74
0
 42
0.0000001
 43
0.0000001
 44
0.0000000001
 40
0.0
 40
0.0
 40
0.0
 40
0.0
 40
0.5586214172
 40
1.0
 40
1.0
 40
1.0
 40
1.0
 10
-110.2578212601
 20
-29.5379751749
 30
0.0
 10
-110.1199161568
 20
-29.486134558
 30
0.0
 10
-109.8645548324
 20
-29.4179595379
 30
0.0
 10
-109.612147199
 20
-29.3419894791
 30
0.0
 10
-109.5002812955
 20
-29.3098079785
 30
0.0
  0
SPLINE
  5
4FB
100
AcDbEntity
  8
CURVE
100
AcDbSpline
 62
250
  6
CONTINUOUS
 70
0
 71
3
 72
9
 73
5
 74
0
 42
0.0000001
 43
0.0000001
 44
0.0000000001
 40
0.0
 40
0.0
 40
0.0
 40
0.0
 40
0.5206208722
 40
1.0
 40
1.0
 40
1.0
 40
1.0
 10
-111.2753118777
 20
-29.4226356449
 30
0.0
 10
-111.167312708
 20
-29.4209681689
 30
0.0
 10
-110.9313895845
 20
-29.4973108459
 30
0.0
 10
-110.8893115386
 20
-29.728472706
 30
0.0
 10
-110.8870906771
 20
-29.8279642095
 30
0.0
  0
SPLINE
  5
4FC
100
AcDbEntity
  8
CURVE
100
AcDbSpline
 62
250
  6
CONTINUOUS
 70
0
 71
3
 72
9
 73
5
 74
0
 42
0.0000001
 43
0.0000001
 44
0.0000000001
 40
0.0
 40
0.0
 40
0.0
 40
0.0
 40
0.5013510385
 40
1.0
 40
1.0
 40
1.0
 40
1.0
 10
-111.5876048571
 20
-29.7173859732
 30
0.0
 10
-111.5787315674
 20
-29.6409112471
 30
0.0
 10
-111.5114254853
 20
-29.4862321801
 30
0.0
 10
-111.351829345
 20
-29.423833145
 30
0.0
 10
-111.2753118777
 20
-29.4226356449
 30
0.0
  0
SPLINE
  5
4FD
100
AcDbEntity
  8
CURVE
100
AcDbSpline
 62
250
  6
CONTINUOUS
 70
0
 71
3
 72
9
 73
5
 74
0
 42
0.0000001
 43
0.0000001
 44
0.0000000001
 40
0.0
 40
0.0
 40
0.0
 40
0.0
 40
0.2703953699
 40
1.0
 40
1.0
 40
1.0
 40
1.0
 10
-111.572898799
 20
-30.126163664
 30
0.0
 10
-111.5791093308
 20
-30.0897447717
 30
0.0
 10
-111.5995352747
 20
-29.9546358143
 30
0.0
 10
-111.5990918506
 20
-29.8164101388
 30
0.0
 10
-111.5876048571
 20
-29.7173859732
 30
0.0
  0
SPLINE
  5
4FE
100
AcDbEntity
  8
0
100
AcDbSpline
 62
250
  6
CONTINUOUS
 70
0
 71
3
 72
17
 73
13
 74
0
 42
0.0000001
 43
0.0000001
 44
0.0000000001
 40
0.0
 40
0.0
 40
0.0
 40
0.0
 40
0.0041509426
 40
0.0165131528
 40
0.0370394731
 40
0.0656738303
 40
0.147033967
 40
0.259883893
 40
0.4031301725
 40
0.5755840393
 40
0.7753335906
 40
1.0
 40
1.0
 40
1.0
 40
1.0
 10
-104.9432763196
 20
-26.3415638603
 30
0.0
 10
-104.9431547421
 20
-26.341563153
 30
0.0
 10
-104.9433718625
 20
-26.3407901078
 30
0.0
 10
-104.94311812
 20
-26.3399838662
 30
0.0
 10
-104.9432253424
 20
-26.3380251079
 30
0.0
 10
-104.9431182194
 20
-26.3342971317
 30
0.0
 10
-104.9431562854
 20
-26.3277000543
 30
0.0
 10
-104.9431218463
 20
-26.3178494928
 30
0.0
 10
-104.9431432182
 20
-26.3052846155
 30
0.0
 10
-104.943167688
 20
-26.2901918491
 30
0.0
 10
-104.9432146409
 20
-26.2727082659
 30
0.0
 10
-104.9432538941
 20
-26.2602777389
 30
0.0
 10
-104.9432763196
 20
-26.2536973817
 30
0.0
  0
SPLINE
  5
4FF
100
AcDbEntity
  8
0
100
AcDbSpline
 62
250
  6
CONTINUOUS
 70
0
 71
3
 72
17
 73
13
 74
0
 42
0.0000001
 43
0.0000001
 44
0.0000000001
 40
0.0
 40
0.0
 40
0.0
 40
0.0
 40
0.2246664094
 40
0.4244159606
 40
0.5968698275
 40
0.740116107
 40
0.852966033
 40
0.9343261697
 40
0.9629605269
 40
0.9834868471
 40
0.9958490574
 40
1.0
 40
1.0
 40
1.0
 40
1.0
 10
-104.9432763196
 20
26.2536973817
 30
0.0
 10
-104.9432538941
 20
26.2602777389
 30
0.0
 10
-104.9432146409
 20
26.2727082659
 30
0.0
 10
-104.943167688
 20
26.2901918491
 30
0.0
 10
-104.9431432182
 20
26.3052846155
 30
0.0
 10
-104.9431218463
 20
26.3178494928
 30
0.0
 10
-104.9431562854
 20
26.3277000543
 30
0.0
 10
-104.9431182194
 20
26.3342971317
 30
0.0
 10
-104.9432253424
 20
26.3380251079
 30
0.0
 10
-104.94311812
 20
26.3399838662
 30
0.0
 10
-104.9433718625
 20
26.3407901078
 30
0.0
 10
-104.9431547421
 20
26.341563153
 30
0.0
 10
-104.9432763196
 20
26.3415638603
 30
0.0
  0
SPLINE
  5
500
100
AcDbEntity
  8
0
100
AcDbSpline
 62
250
  6
CONTINUOUS
 70
0
 71
3
 72
11
 73
7
 74
0
 42
0.0000001
 43
0.0000001
 44
0.0000000001
 40
0.0
 40
0.0
 40
0.0
 40
0.0
 40
0.2014202255
 40
0.426619486
 40
0.6906633363
 40
1.0
 40
1.0
 40
1.0
 40
1.0
 10
-104.8043643905
 20
-26.3065510847
 30
0.0
 10
-104.8106520621
 20
-26.3098886929
 30
0.0
 10
-104.8255884583
 20
-26.3141435322
 30
0.0
 10
-104.8502793581
 20
-26.3120196133
 30
0.0
 10
-104.8770405558
 20
-26.3023922165
 30
0.0
 10
-104.894594339
 20
-26.2920716595
 30
0.0
 10
-104.9036428196
 20
-26.2859359948
 30
0.0
  0
SPLINE
  5
501
100
AcDbEntity
  8
0
100
AcDbSpline
 62
250
  6
CONTINUOUS
 70
0
 71
3
 72
9
 73
5
 74
0
 42
0.0000001
 43
0.0000001
 44
0.0000000001
 40
0.0
 40
0.0
 40
0.0
 40
0.0
 40
0.2353640437
 40
1.0
 40
1.0
 40
1.0
 40
1.0
 10
-104.9036428196
 20
-26.2859359948
 30
0.0
 10
-104.9069623398
 20
-26.2836850685
 30
0.0
 10
-104.920831988
 20
-26.2737769942
 30
0.0
 10
-104.9338071563
 20
-26.2626478062
 30
0.0
 10
-104.9432763196
 20
-26.2536973817
 30
0.0
  0
SPLINE
  5
502
100
AcDbEntity
  8
0
100
AcDbSpline
 62
250
  6
CONTINUOUS
 70
0
 71
3
 72
11
 73
7
 74
0
 42
0.0000001
 43
0.0000001
 44
0.0000000001
 40
0.0
 40
0.0
 40
0.0
 40
0.0
 40
0.2014183949
 40
0.4266166996
 40
0.6906612792
 40
1.0
 40
1.0
 40
1.0
 40
1.0
 10
-104.8043643905
 20
26.3065510847
 30
0.0
 10
-104.8106522414
 20
26.3098887881
 30
0.0
 10
-104.8255891492
 20
26.3141436768
 30
0.0
 10
-104.8502808853
 20
26.3120193272
 30
0.0
 10
-104.8770429923
 20
26.3023911058
 30
0.0
 10
-104.8945973531
 20
26.2920698265
 30
0.0
 10
-104.9036461364
 20
26.2859337461
 30
0.0
  0
SPLINE
  5
503
100
AcDbEntity
  8
0
100
AcDbSpline
 62
250
  6
CONTINUOUS
 70
0
 71
3
 72
9
 73
5
 74
0
 42
0.0000001
 43
0.0000001
 44
0.0000000001
 40
0.0
 40
0.0
 40
0.0
 40
0.0
 40
0.2353655658
 40
1.0
 40
1.0
 40
1.0
 40
1.0
 10
-104.9036461364
 20
26.2859337461
 30
0.0
 10
-104.9069653825
 20
26.2836829285
 30
0.0
 10
-104.9208338146
 20
26.2737754487
 30
0.0
 10
-104.9338079162
 20
26.2626470879
 30
0.0
 10
-104.9432763196
 20
26.2536973817
 30
0.0
  0
SPLINE
  5
504
100
AcDbEntity
  8
0
100
AcDbSpline
 62
250
  6
CONTINUOUS
 70
0
 71
3
 72
9
 73
5
 74
0
 42
0.0000001
 43
0.0000001
 44
0.0000000001
 40
0.0
 40
0.0
 40
0.0
 40
0.0
 40
0.559214469
 40
1.0
 40
1.0
 40
1.0
 40
1.0
 10
-106.467552968
 20
-26.9276792439
 30
0.0
 10
-106.45136164
 20
-26.9561475291
 30
0.0
 10
-106.4212765639
 20
-27.0064029427
 30
0.0
 10
-106.3885060888
 20
-27.0550509448
 30
0.0
 10
-106.372718409
 20
-27.0754752358
 30
0.0
  0
SPLINE
  5
505
100
AcDbEntity
  8
0
100
AcDbSpline
 62
250
  6
CONTINUOUS
 70
0
 71
3
 72
10
 73
6
 74
0
 42
0.0000001
 43
0.0000001
 44
0.0000000001
 40
0.0
 40
0.0
 40
0.0
 40
0.0
 40
0.6950016215
 40
0.8908811261
 40
1.0
 40
1.0
 40
1.0
 40
1.0
 10
-106.372718409
 20
-27.0754752358
 30
0.0
 10
-106.3639523233
 20
-27.086815793
 30
0.0
 10
-106.3519137663
 20
-27.1012198685
 30
0.0
 10
-106.3364498409
 20
-27.1142344305
 30
0.0
 10
-106.3294092043
 20
-27.1160669323
 30
0.0
 10
-106.3274193181
 20
-27.1150157961
 30
0.0
  0
SPLINE
  5
506
100
AcDbEntity
  8
0
100
AcDbSpline
 62
250
  6
CONTINUOUS
 70
0
 71
3
 72
13
 73
9
 74
0
 42
0.0000001
 43
0.0000001
 44
0.0000000001
 40
0.0
 40
0.0
 40
0.0
 40
0.0
 40
0.3880505431
 40
0.7024996488
 40
0.8213626305
 40
0.9105313907
 40
0.9687616583
 40
1.0
 40
1.0
 40
1.0
 40
1.0
 10
-106.467552968
 20
26.9276792439
 30
0.0
 10
-106.4523564512
 20
26.9543865333
 30
0.0
 10
-106.4238462173
 20
27.0021431798
 30
0.0
 10
-106.3876346087
 20
27.0563326343
 30
0.0
 10
-106.3623469287
 20
27.0889705477
 30
0.0
 10
-106.3477156082
 20
27.1045077282
 30
0.0
 10
-106.3375264402
 20
27.1136621549
 30
0.0
 10
-106.3296020982
 20
27.1161795474
 30
0.0
 10
-106.3274193181
 20
27.1150157961
 30
0.0
  0
SPLINE
  5
507
100
AcDbEntity
  8
0
100
AcDbSpline
 62
7
  6
CONTINUOUS
 70
0
 71
3
 72
9
 73
5
 74
0
 42
0.0000001
 43
0.0000001
 44
0.0000000001
 40
0.0
 40
0.0
 40
0.0
 40
0.0
 40
0.4298638959
 40
1.0
 40
1.0
 40
1.0
 40
1.0
 10
-104.3933255518
 20
26.0463167932
 30
0.0
 10
-104.3933255518
 20
26.0354717441
 30
0.0
 10
-104.4012349714
 20
26.0106368792
 30
0.0
 10
-104.4138350549
 20
25.9889263869
 30
0.0
 10
-104.4211844668
 20
25.9765617175
 30
0.0
  0
SPLINE
  5
508
100
AcDbEntity
  8
0
100
AcDbSpline
 62
7
  6
CONTINUOUS
 70
0
 71
3
 72
9
 73
5
 74
0
 42
0.0000001
 43
0.0000001
 44
0.0000000001
 40
0.0
 40
0.0
 40
0.0
 40
0.0
 40
0.5701360159
 40
1.0
 40
1.0
 40
1.0
 40
1.0
 10
-104.4211844668
 20
-25.9765617175
 30
0.0
 10
-104.4138350561
 20
-25.988926385
 30
0.0
 10
-104.4012349731
 20
-26.0106368773
 30
0.0
 10
-104.3933255518
 20
-26.0354717419
 30
0.0
 10
-104.3933255518
 20
-26.0463167932
 30
0.0
  0
ELLIPSE
  5
509
100
AcDbEntity
  8
0
100
AcDbEllipse
 62
7
  6
CONTINUOUS
 10
-104.5933255518
 20
-26.079798695
 30
0.0
 11
0.1417119467
 21
0.1422961243
 31
0.0
 40
0.9918061237
 41
-0.2491986107
 42
0.7350951877
  0
ELLIPSE
  5
50A
100
AcDbEntity
  8
0
100
AcDbEllipse
 62
7
  6
CONTINUOUS
 10
-104.5933255518
 20
26.079798695
 30
0.0
 11
-0.1417119467
 21
0.1422961243
 31
0.0
 40
0.9918061237
 41
-3.8766878413
 42
-2.8923940429
  0
ENDSEC
  0
SECTION
  2
OBJECTS
  0
DICTIONARY
  5
C
100
AcDbDictionary
280
0
281
1
  3
ACAD_GROUP
350
D
  3
ACAD_MLINESTYLE
350
17
  3
ACAD_LAYOUT
350
1A
  3
ACAD_PLOTSETTINGS
350
19
  3
ACAD_PLOTSTYLENAME
350
E
  0
DICTIONARY
  5
D
102
{ACAD_REACTORS
330
C
102
}
100
AcDbDictionary
280
0
281
1
  0
ACDBDICTIONARYWDFLT
  5
E
102
{ACAD_REACTORS
330
C
102
}
100
AcDbDictionary
281
1
  3
Normal
350
F
100
AcDbDictionaryWithDefault
340
F
  0
DICTIONARY
  5
17
102
{ACAD_REACTORS
330
C
102
}
100
AcDbDictionary
280
0
281
1
  3
Standard
350
18
  0
DICTIONARY
  5
19
102
{ACAD_REACTORS
330
C
102
}
100
AcDbDictionary
281
1
  0
DICTIONARY
  5
1A
102
{ACAD_REACTORS
330
C
102
}
100
AcDbDictionary
281
1
  3
Model
350
50B
  3
Layout1
350
50C
  0
ACDBPLACEHOLDER
  5
F
102
{ACAD_REACTORS
330
E
102
}
  0
MLINESTYLE
  5
18
102
{ACAD_REACTORS
330
17
102
}
100
AcDbMlineStyle
  2
STANDARD
 70
0
  3

 62
256
 51
90.0
 52
90.0
 71
2
 49
0.5
 62
256
  6
BYLAYER
 49
-0.5
 62
256
  6
BYLAYER
  0
LAYOUT
  5
50B
102
{ACAD_REACTORS
330
1A
102
}
100
AcDbPlotSettings
  1

  2
none_device
  4
ISO_A4_(297.00_x_210.00_MM)
  6

 40
0.0
 41
0.0
 42
0.0
 43
0.0
 44
297.0
 45
210.0
 46
0.0
 47
0.0
 48
0.0
 49
0.0
140
0.0
141
0.0
142
1.0
143
1.0
 70
1024
 72
1
 73
0
 74
0
  7

 75
0
147
1.0
148
0.0
149
0.0
100
AcDbLayout
  1
Model
 70
0
 71
0
 10
0.0
 20
0.0
 11
297.0
 21
210.0
 12
0.0
 22
0.0
 32
0.0
 14
0.0
 24
0.0
 34
0.0
 15
0.0
 25
0.0
 35
0.0
146
0.0
 13
0.0
 23
0.0
 33
0.0
 16
1.0
 26
0.0
 36
0.0
 17
0.0
 27
1.0
 37
0.0
 76
0
330
21E
345
0
346
0
  0
LAYOUT
  5
50C
102
{ACAD_REACTORS
330
1A
102
}
100
AcDbPlotSettings
  1

  2
none_device
  4
ISO_A4_(297.00_x_210.00_MM)
  6

 40
0.0
 41
0.0
 42
0.0
 43
0.0
 44
297.0
 45
210.0
 46
0.0
 47
0.0
 48
0.0
 49
0.0
140
0.0
141
0.0
142
1.0
143
1.0
 70
0
 72
1
 73
0
 74
0
  7

 75
0
147
1.0
148
0.0
149
0.0
100
AcDbLayout
  1
Layout1
 70
0
 71
1
 10
0.0
 20
0.0
 11
297.0
 21
210.0
 12
0.0
 22
0.0
 32
0.0
 14
0.0
 24
0.0
 34
0.0
 15
0.0
 25
0.0
 35
0.0
146
0.0
 13
0.0
 23
0.0
 33
0.0
 16
1.0
 26
0.0
 36
0.0
 17
0.0
 27
1.0
 37
0.0
 76
0
330
21F
345
0
346
0
  0
ENDSEC
  0
EOF
