  0
SECTION
  2
HEADER
  9
$ACADVER
  1
AC1024
  9
$DWGCODEPAGE
  3
ANSI_1252
  9
$EXTMAX
 10
297.0
 20
210.0
 30
0.0
  9
$EXTMIN
 10
0.0
 20
0.0
 30
0.0
  9
$LIMMIN
 10
0.0
 20
0.0
  9
$LIMMAX
 10
297.0
 20
210.0
  9
$VIEWCTR
 10
148.5
 20
105.0
  9
$VIEWSIZE
 40
210.0
  9
$CLAYER
  8
0
  9
$LTSCALE
 40
16.335
  9
$CELTYPE
  6
BYLAYER
  9
$DIMSCALE
 40
1.0
  9
$DIMASZ
 40
3.0
  9
$DIMEXO
 40
0.5
  9
$DIMDLI
 40
11.286
  9
$DIMEXE
 40
1.5
  9
$DIMCEN
 40
2.673
  9
$DIMLFAC
 40
1.0
  9
$DIMBLK
  1
_FILLED
  9
$DIMALT
 70
0
  9
$DIMALTF
 40
0.0393700787
  9
$DIMTXT
 40
3.0
  9
$DIMTOL
 70
1
  9
$DIMLIM
 70
0
  9
$DIMTFAC
 40
1.0
  9
$DIMTP
 40
0.01
  9
$DIMTM
 40
0.01
  9
$DIMGAP
 40
0.625
  9
$DIMDSEP
 70
44
  9
$AUNITS
 70
0
  9
$PDMODE
 70
3
  9
$PDSIZE
 40
3.0
  9
$HANDSEED
  5
464
  9
$TILEMODE
 70
1
  9
$MEASUREMENT
 70
1
  9
$INSUNITS
 70
4
  0
ENDSEC
  0
SECTION
  2
CLASSES
  0
CLASS
  1
ACDBDICTIONARYWDFLT
  2
AcDbDictionaryWithDefault
  3
AutoCAD 2000
 90
0
 91
1
280
0
281
0
  0
CLASS
  1
ACDBPLACEHOLDER
  2
AcDbPlaceHolder
  3
AutoCAD 2000
 90
0
 91
1
280
0
281
0
  0
CLASS
  1
LAYOUT
  2
AcDbLayout
  3
AutoCAD 2000
 90
0
 91
0
280
0
281
0
  0
ENDSEC
  0
SECTION
  2
TABLES
  0
TABLE
  2
VPORT
  5
8
100
AcDbSymbolTable
 70
2
  0
VPORT
  5
1F4
100
AcDbSymbolTableRecord
100
AcDbViewportTableRecord
  2
*ACTIVE
 70
0
 10
0.0
 20
0.0
 11
1.0
 21
1.0
 12
148.5
 22
105.0
 13
0.0
 23
0.0
 14
1.0
 24
1.0
 15
0.0
 25
0.0
 16
0.0
 26
0.0
 36
1.0
 17
0.0
 27
0.0
 37
0.0
 40
210.0
 41
1.4142857143
 42
50.0
 43
0.0
 44
0.0
 50
0.0
 51
0.0
 71
0
 72
100
 73
1
 74
1
 75
0
 76
0
 77
0
 78
0
  0
ENDTAB
  0
TABLE
  2
LTYPE
  5
5
100
AcDbSymbolTable
 70
6
  0
LTYPE
  5
14
100
AcDbSymbolTableRecord
100
AcDbLinetypeTableRecord
  2
BYBLOCK
 70
0
  3

 72
65
 73
0
 40
0.0
  0
LTYPE
  5
15
100
AcDbSymbolTableRecord
100
AcDbLinetypeTableRecord
  2
BYLAYER
 70
0
  3

 72
65
 73
0
 40
0.0
  0
LTYPE
  5
16
100
AcDbSymbolTableRecord
100
AcDbLinetypeTableRecord
  2
CONTINUOUS
 70
64
  3
Solid line
 72
65
 73
0
 40
0.0
  0
LTYPE
  5
1F5
100
AcDbSymbolTableRecord
100
AcDbLinetypeTableRecord
  2
CENTER
 70
64
  3
____ _ ____ _ ____ _ ____ _ ____ _ ____ _ ____
 72
65
 73
4
 40
0.6
 49
0.375
 74
0
 49
-0.075
 74
0
 49
0.075
 74
0
 49
-0.075
 74
0
  0
LTYPE
  5
1F6
100
AcDbSymbolTableRecord
100
AcDbLinetypeTableRecord
  2
HIDDEN
 70
64
  3
- - - - - - - - - - - - - - - - - - - -
 72
65
 73
2
 40
0.2
 49
0.1
 74
0
 49
-0.1
 74
0
  0
LTYPE
  5
1F7
100
AcDbSymbolTableRecord
100
AcDbLinetypeTableRecord
  2
PHANTOM
 70
64
  3
_____ _ _ _____ _ _ _____ _ _ _____
 72
65
 73
6
 40
0.8
 49
0.45
 74
0
 49
-0.05
 74
0
 49
0.1
 74
0
 49
-0.05
 74
0
 49
0.1
 74
0
 49
-0.05
 74
0
  0
LTYPE
  5
1F8
100
AcDbSymbolTableRecord
100
AcDbLinetypeTableRecord
  2
DOT
 70
64
  3
. . . . . . . . . . . . . . . . . . . .
 72
65
 73
2
 40
0.2
 49
0.1
 74
0
 49
-0.1
 74
0
  0
LTYPE
  5
1F9
100
AcDbSymbolTableRecord
100
AcDbLinetypeTableRecord
  2
DASHED
 70
64
  3
- - - - - - - - - - - - - - - - - - - -
 72
65
 73
2
 40
0.2
 49
0.1
 74
0
 49
-0.1
 74
0
  0
ENDTAB
  0
TABLE
  2
LAYER
  5
2
100
AcDbSymbolTable
 70
36
  0
LAYER
  5
10
100
AcDbSymbolTableRecord
100
AcDbLayerTableRecord
  2
0
 70
0
 62
7
  6
CONTINUOUS
370
-3
390
F
  0
LAYER
  5
1FA
100
AcDbSymbolTableRecord
100
AcDbLayerTableRecord
  2
DEFAULT_1
 70
0
 62
7
  6
CENTER
370
-3
390
F
  0
LAYER
  5
1FB
100
AcDbSymbolTableRecord
100
AcDbLayerTableRecord
  2
DEFAULT_2
 70
0
 62
7
  6
HIDDEN
370
-3
390
F
  0
LAYER
  5
1FC
100
AcDbSymbolTableRecord
100
AcDbLayerTableRecord
  2
DEFAULT_3
 70
0
 62
7
  6
PHANTOM
370
-3
390
F
  0
LAYER
  5
1FD
100
AcDbSymbolTableRecord
100
AcDbLayerTableRecord
  2
ASSI
 70
0
 62
7
  6
CONTINUOUS
370
-3
390
F
  0
LAYER
  5
1FE
100
AcDbSymbolTableRecord
100
AcDbLayerTableRecord
  2
COORDINATE
 70
0
 62
7
  6
CONTINUOUS
370
-3
390
F
  0
LAYER
  5
1FF
100
AcDbSymbolTableRecord
100
AcDbLayerTableRecord
  2
COORD_ORIGINE
 70
0
 62
7
  6
CONTINUOUS
370
-3
390
F
  0
LAYER
  5
200
100
AcDbSymbolTableRecord
100
AcDbLayerTableRecord
  2
COPY_PUBLISH
 70
0
 62
7
  6
CONTINUOUS
370
-3
390
F
  0
LAYER
  5
201
100
AcDbSymbolTableRecord
100
AcDbLayerTableRecord
  2
COSMETIC
 70
0
 62
7
  6
CONTINUOUS
370
-3
390
F
  0
LAYER
  5
202
100
AcDbSymbolTableRecord
100
AcDbLayerTableRecord
  2
COSMETICI
 70
0
 62
7
  6
CONTINUOUS
370
-3
390
F
  0
LAYER
  5
203
100
AcDbSymbolTableRecord
100
AcDbLayerTableRecord
  2
CURVA_TASSELLO
 70
0
 62
7
  6
CONTINUOUS
370
-3
390
F
  0
LAYER
  5
204
100
AcDbSymbolTableRecord
100
AcDbLayerTableRecord
  2
CURVE
 70
0
 62
7
  6
CONTINUOUS
370
-3
390
F
  0
LAYER
  5
205
100
AcDbSymbolTableRecord
100
AcDbLayerTableRecord
  2
DRAFT
 70
0
 62
7
  6
CONTINUOUS
370
-3
390
F
  0
LAYER
  5
206
100
AcDbSymbolTableRecord
100
AcDbLayerTableRecord
  2
IMPORT_IGES
 70
0
 62
7
  6
CONTINUOUS
370
-3
390
F
  0
LAYER
  5
207
100
AcDbSymbolTableRecord
100
AcDbLayerTableRecord
  2
INTFCLR_2
 70
0
 62
7
  6
CONTINUOUS
370
-3
390
F
  0
LAYER
  5
208
100
AcDbSymbolTableRecord
100
AcDbLayerTableRecord
  2
INTF_1
 70
0
 62
7
  6
CONTINUOUS
370
-3
390
F
  0
LAYER
  5
209
100
AcDbSymbolTableRecord
100
AcDbLayerTableRecord
  2
INTF_6
 70
0
 62
7
  6
CONTINUOUS
370
-3
390
F
  0
LAYER
  5
20A
100
AcDbSymbolTableRecord
100
AcDbLayerTableRecord
  2
INTF_7
 70
0
 62
7
  6
CONTINUOUS
370
-3
390
F
  0
LAYER
  5
20B
100
AcDbSymbolTableRecord
100
AcDbLayerTableRecord
  2
LINEA_CHIUSURA
 70
0
 62
7
  6
CONTINUOUS
370
-3
390
F
  0
LAYER
  5
20C
100
AcDbSymbolTableRecord
100
AcDbLayerTableRecord
  2
LIVELLO_1
 70
0
 62
7
  6
CONTINUOUS
370
-3
390
F
  0
LAYER
  5
20D
100
AcDbSymbolTableRecord
100
AcDbLayerTableRecord
  2
NOTE
 70
0
 62
7
  6
CONTINUOUS
370
-3
390
F
  0
LAYER
  5
20E
100
AcDbSymbolTableRecord
100
AcDbLayerTableRecord
  2
PIANI
 70
0
 62
7
  6
CONTINUOUS
370
-3
390
F
  0
LAYER
  5
20F
100
AcDbSymbolTableRecord
100
AcDbLayerTableRecord
  2
PIANI_ORIGINE
 70
0
 62
7
  6
CONTINUOUS
370
-3
390
F
  0
LAYER
  5
210
100
AcDbSymbolTableRecord
100
AcDbLayerTableRecord
  2
PIANI_RIFERIMENTO
 70
0
 62
7
  6
CONTINUOUS
370
-3
390
F
  0
LAYER
  5
211
100
AcDbSymbolTableRecord
100
AcDbLayerTableRecord
  2
PUNTI
 70
0
 62
7
  6
CONTINUOUS
370
-3
390
F
  0
LAYER
  5
212
100
AcDbSymbolTableRecord
100
AcDbLayerTableRecord
  2
RACCORDO
 70
0
 62
7
  6
CONTINUOUS
370
-3
390
F
  0
LAYER
  5
213
100
AcDbSymbolTableRecord
100
AcDbLayerTableRecord
  2
RGB__255__255__255__
 70
0
 62
7
  6
CONTINUOUS
370
-3
390
F
  0
LAYER
  5
214
100
AcDbSymbolTableRecord
100
AcDbLayerTableRecord
  2
RGB____0____0____0__
 70
0
 62
7
  6
CONTINUOUS
370
-3
390
F
  0
LAYER
  5
215
100
AcDbSymbolTableRecord
100
AcDbLayerTableRecord
  2
SIMBOLI
 70
0
 62
7
  6
CONTINUOUS
370
-3
390
F
  0
LAYER
  5
216
100
AcDbSymbolTableRecord
100
AcDbLayerTableRecord
  2
SMUSSO
 70
0
 62
7
  6
CONTINUOUS
370
-3
390
F
  0
LAYER
  5
217
100
AcDbSymbolTableRecord
100
AcDbLayerTableRecord
  2
SNAPLINE
 70
0
 62
7
  6
CONTINUOUS
370
-3
390
F
  0
LAYER
  5
218
100
AcDbSymbolTableRecord
100
AcDbLayerTableRecord
  2
SUPERFICI
 70
0
 62
7
  6
CONTINUOUS
370
-3
390
F
  0
LAYER
  5
219
100
AcDbSymbolTableRecord
100
AcDbLayerTableRecord
  2
TRASH
 70
0
 62
7
  6
CONTINUOUS
370
-3
390
F
  0
LAYER
  5
21A
100
AcDbSymbolTableRecord
100
AcDbLayerTableRecord
  2
WHITE
 70
0
 62
7
  6
CONTINUOUS
370
-3
390
F
  0
LAYER
  5
21B
100
AcDbSymbolTableRecord
100
AcDbLayerTableRecord
  2
XSEC_DATUMS
 70
0
 62
7
  6
CONTINUOUS
370
-3
390
F
  0
ENDTAB
  0
TABLE
  2
STYLE
  5
3
100
AcDbSymbolTable
 70
1
  0
STYLE
  5
11
100
AcDbSymbolTableRecord
100
AcDbTextStyleTableRecord
  2
STANDARD
 70
0
 40
0.0
 41
0.8
 50
0.0
 71
0
 42
0.2
  3
txt
  4

  0
STYLE
  5
21C
100
AcDbSymbolTableRecord
100
AcDbTextStyleTableRecord
  2
TEXTSTYLE_1
 70
0
 40
0.0
 41
0.8
 50
0.0
 71
0
 42
0.2
  3
gdt
  4

  0
ENDTAB
  0
TABLE
  2
VIEW
  5
6
100
AcDbSymbolTable
 70
0
  0
ENDTAB
  0
TABLE
  2
UCS
  5
7
100
AcDbSymbolTable
 70
0
  0
ENDTAB
  0
TABLE
  2
APPID
  5
9
100
AcDbSymbolTable
 70
1
  0
APPID
  5
21D
100
AcDbSymbolTableRecord
100
AcDbRegAppTableRecord
  2
ACAD
 70
0
  0
ENDTAB
  0
TABLE
  2
BLOCK_RECORD
  5
1
100
AcDbSymbolTable
 70
0
  0
BLOCK_RECORD
  5
21E
100
AcDbSymbolTableRecord
100
AcDbBlockTableRecord
  2
*Model_Space
  0
BLOCK_RECORD
  5
21F
100
AcDbSymbolTableRecord
100
AcDbBlockTableRecord
  2
*Paper_Space
  0
BLOCK_RECORD
  5
220
100
AcDbSymbolTableRecord
100
AcDbBlockTableRecord
  2
_FILLED
  0
BLOCK_RECORD
  5
221
100
AcDbSymbolTableRecord
100
AcDbBlockTableRecord
  2
*D0
  0
BLOCK_RECORD
  5
222
100
AcDbSymbolTableRecord
100
AcDbBlockTableRecord
  2
*D1
  0
BLOCK_RECORD
  5
223
100
AcDbSymbolTableRecord
100
AcDbBlockTableRecord
  2
*D2
  0
BLOCK_RECORD
  5
224
100
AcDbSymbolTableRecord
100
AcDbBlockTableRecord
  2
*D3
  0
ENDTAB
  0
TABLE
  2
DIMSTYLE
  5
A
100
AcDbSymbolTable
 70
1
100
AcDbDimStyleTable
 71
0
  0
DIMSTYLE
105
225
100
AcDbSymbolTableRecord
100
AcDbDimStyleTableRecord
  2
STANDARD
 70
0
  3

  4

 40
1.0
 41
3.0
 42
0.5
 43
0.38
 44
1.5
 45
0.0
 46
0.0
 47
0.01
 48
0.01
140
3.0
141
0.09
142
0.0
143
25.4
144
1.0
145
0.0
146
1.0
147
0.625
 71
1
 72
0
 73
0
 74
0
 75
0
 76
0
 77
1
 78
8
 79
2
170
0
171
1
172
0
173
0
174
0
175
0
176
0
177
0
178
0
270
2
179
2
271
2
272
2
273
2
274
2
275
0
280
0
281
0
282
0
283
1
284
8
285
0
286
0
287
3
288
0
340
11
278
44
341
220
342
220
343
220
344
220
  0
DIMSTYLE
105
226
100
AcDbSymbolTableRecord
100
AcDbDimStyleTableRecord
  2
DIMSTYLE_1
 70
0
  3

  4

 40
1.0
 41
3.0
 42
0.5
 43
0.38
 44
1.5
 45
0.0
 46
0.0
 47
0.0
 48
0.0
140
3.0
141
0.09
142
0.0
143
25.4
144
1.0
145
0.0
146
1.0
147
0.75
 71
0
 72
0
 73
0
 74
0
 75
0
 76
0
 77
1
 78
8
 79
2
170
0
171
1
172
0
173
0
174
0
175
0
176
0
177
0
178
0
270
2
179
2
271
2
272
2
273
2
274
2
275
0
280
0
281
0
282
0
283
1
284
8
285
0
286
0
287
3
288
0
340
11
278
44
341
220
342
220
343
220
344
220
  0
ENDTAB
  0
ENDSEC
  0
SECTION
  2
BLOCKS
  0
BLOCK
  5
20
100
AcDbEntity
  8
0
100
AcDbBlockBegin
  2
*Model_Space
 70
0
 10
0.0
 20
0.0
 30
0.0
  3
*Model_Space
  1

  0
ENDBLK
  5
21
100
AcDbEntity
  8
0
100
AcDbBlockEnd
  0
BLOCK
  5
1C
100
AcDbEntity
  8
0
100
AcDbBlockBegin
  2
*Paper_Space
 70
0
 10
0.0
 20
0.0
 30
0.0
  3
*Paper_Space
  1

  0
ENDBLK
  5
1D
100
AcDbEntity
  8
0
100
AcDbBlockEnd
  0
BLOCK
  5
227
100
AcDbEntity
  8
0
100
AcDbBlockBegin
  2
_FILLED
 70
64
 10
0.0
 20
0.0
  3
_FILLED
  1

  0
SOLID
  5
228
100
AcDbEntity
  8
0
  6
BYBLOCK
 62
0
100
AcDbTrace
 10
0.0
 20
0.0
 11
-1.0
 21
0.3166666667
 12
-1.0
 22
-0.3166666667
 13
-1.0
 23
-0.3166666667
  0
ENDBLK
  5
229
100
AcDbEntity
  8
0
  6
BYBLOCK
 62
0
100
AcDbBlockEnd
  0
BLOCK
  5
22A
100
AcDbEntity
  8
0
100
AcDbBlockBegin
 62
7
  6
CONTINUOUS
  2
*D0
 70
65
 10
0.0
 20
0.0
  3
*D0
  1

  0
LINE
  5
22B
100
AcDbEntity
  8
0
100
AcDbLine
 62
7
  6
CONTINUOUS
 10
101.1409652218
 20
143.8408226495
 11
101.1409652218
 21
155.8414314516
  0
LINE
  5
22C
100
AcDbEntity
  8
0
100
AcDbLine
 62
7
  6
CONTINUOUS
 10
245.6409652218
 20
143.8408226495
 11
245.6409652218
 21
155.8414314516
  0
LINE
  5
22D
100
AcDbEntity
  8
0
100
AcDbLine
 62
7
  6
CONTINUOUS
 10
101.1409652218
 20
154.3414314516
 11
173.3909652218
 21
154.3414314516
  0
LINE
  5
22E
100
AcDbEntity
  8
0
100
AcDbLine
 62
7
  6
CONTINUOUS
 10
245.6409652218
 20
154.3414314516
 11
173.3909652218
 21
154.3414314516
  0
INSERT
  5
22F
100
AcDbEntity
  8
0
100
AcDbBlockReference
 62
7
  6
CONTINUOUS
  2
_FILLED
 10
101.1409652218
 20
154.3414314516
 41
3.0
 42
3.0
 43
3.0
 50
180.0
  0
INSERT
  5
230
100
AcDbEntity
  8
0
100
AcDbBlockReference
 62
7
  6
CONTINUOUS
  2
_FILLED
 10
245.6409652218
 20
154.3414314516
 41
3.0
 42
3.0
 43
3.0
 50
0.0
  0
ENDBLK
  5
231
100
AcDbEntity
  8
0
  6
BYBLOCK
 62
0
100
AcDbBlockEnd
  0
BLOCK
  5
232
100
AcDbEntity
  8
0
100
AcDbBlockBegin
 62
7
  6
CONTINUOUS
  2
*D1
 70
65
 10
0.0
 20
0.0
  3
*D1
  1

  0
LINE
  5
233
100
AcDbEntity
  8
0
100
AcDbLine
 62
7
  6
CONTINUOUS
 10
245.1403564197
 20
144.3414314516
 11
257.1409652218
 21
144.3414314516
  0
LINE
  5
234
100
AcDbEntity
  8
0
100
AcDbLine
 62
7
  6
CONTINUOUS
 10
245.1403564197
 20
54.3414314516
 11
257.1409652218
 21
54.3414314516
  0
LINE
  5
235
100
AcDbEntity
  8
0
100
AcDbLine
 62
7
  6
CONTINUOUS
 10
255.6409652218
 20
144.3414314516
 11
255.6409652218
 21
99.3414314516
  0
LINE
  5
236
100
AcDbEntity
  8
0
100
AcDbLine
 62
7
  6
CONTINUOUS
 10
255.6409652218
 20
54.3414314516
 11
255.6409652218
 21
99.3414314516
  0
INSERT
  5
237
100
AcDbEntity
  8
0
100
AcDbBlockReference
 62
7
  6
CONTINUOUS
  2
_FILLED
 10
255.6409652218
 20
144.3414314516
 41
3.0
 42
3.0
 43
3.0
 50
90.0
  0
INSERT
  5
238
100
AcDbEntity
  8
0
100
AcDbBlockReference
 62
7
  6
CONTINUOUS
  2
_FILLED
 10
255.6409652218
 20
54.3414314516
 41
3.0
 42
3.0
 43
3.0
 50
270.0
  0
ENDBLK
  5
239
100
AcDbEntity
  8
0
  6
BYBLOCK
 62
0
100
AcDbBlockEnd
  0
BLOCK
  5
23A
100
AcDbEntity
  8
0
100
AcDbBlockBegin
 62
7
  6
CONTINUOUS
  2
*D2
 70
65
 10
0.0
 20
0.0
  3
*D2
  1

  0
LINE
  5
23B
100
AcDbEntity
  8
0
100
AcDbLine
 62
7
  6
CONTINUOUS
 10
66.5385206653
 20
141.0453289712
 11
66.5385206653
 21
155.8414314516
  0
LINE
  5
23C
100
AcDbEntity
  8
0
100
AcDbLine
 62
7
  6
CONTINUOUS
 10
59.3885206653
 20
143.2181688618
 11
59.3885206653
 21
155.8414314516
  0
LINE
  5
23D
100
AcDbEntity
  8
0
100
AcDbLine
 62
7
  6
CONTINUOUS
 10
66.5385206653
 20
154.3414314516
 11
62.9635206653
 21
154.3414314516
  0
LINE
  5
23E
100
AcDbEntity
  8
0
100
AcDbLine
 62
7
  6
CONTINUOUS
 10
59.3885206653
 20
154.3414314516
 11
62.9635206653
 21
154.3414314516
  0
LINE
  5
23F
100
AcDbEntity
  8
0
100
AcDbLine
 62
7
  6
CONTINUOUS
 10
62.9635206653
 20
154.3414314516
 11
49.9892710609
 21
154.3414314516
  0
INSERT
  5
240
100
AcDbEntity
  8
0
100
AcDbBlockReference
 62
7
  6
CONTINUOUS
  2
_FILLED
 10
66.5385206653
 20
154.3414314516
 41
3.0
 42
3.0
 43
3.0
  0
INSERT
  5
241
100
AcDbEntity
  8
0
100
AcDbBlockReference
 62
7
  6
CONTINUOUS
  2
_FILLED
 10
59.3885206653
 20
154.3414314516
 41
3.0
 42
3.0
 43
3.0
 50
180.0
  0
ENDBLK
  5
242
100
AcDbEntity
  8
0
  6
BYBLOCK
 62
0
100
AcDbBlockEnd
  0
BLOCK
  5
243
100
AcDbEntity
  8
0
100
AcDbBlockBegin
 62
7
  6
CONTINUOUS
  2
*D3
 70
65
 10
0.0
 20
0.0
  3
*D3
  1

  0
LINE
  5
244
100
AcDbEntity
  8
0
100
AcDbLine
 62
7
  6
CONTINUOUS
 10
59.3885206653
 20
143.2181688618
 11
59.3885206653
 21
163.8414314516
  0
LINE
  5
245
100
AcDbEntity
  8
0
100
AcDbLine
 62
7
  6
CONTINUOUS
 10
69.5385206653
 20
125.8877482448
 11
69.5385206653
 21
163.8414314516
  0
LINE
  5
246
100
AcDbEntity
  8
0
100
AcDbLine
 62
7
  6
CONTINUOUS
 10
59.3885206653
 20
162.3414314516
 11
64.4635206653
 21
162.3414314516
  0
LINE
  5
247
100
AcDbEntity
  8
0
100
AcDbLine
 62
7
  6
CONTINUOUS
 10
64.4635206653
 20
162.3414314516
 11
47.4992050439
 21
162.3414314516
  0
LINE
  5
248
100
AcDbEntity
  8
0
100
AcDbLine
 62
7
  6
CONTINUOUS
 10
69.5385206653
 20
162.3414314516
 11
64.4635206653
 21
162.3414314516
  0
INSERT
  5
249
100
AcDbEntity
  8
0
100
AcDbBlockReference
 62
7
  6
CONTINUOUS
  2
_FILLED
 10
59.3885206653
 20
162.3414314516
 41
3.0
 42
3.0
 43
3.0
 50
180.0
  0
INSERT
  5
24A
100
AcDbEntity
  8
0
100
AcDbBlockReference
 62
7
  6
CONTINUOUS
  2
_FILLED
 10
69.5385206653
 20
162.3414314516
 41
3.0
 42
3.0
 43
3.0
  0
ENDBLK
  5
24B
100
AcDbEntity
  8
0
  6
BYBLOCK
 62
0
100
AcDbBlockEnd
  0
ENDSEC
  0
SECTION
  2
ENTITIES
  0
DIMENSION
  5
24C
100
AcDbEntity
  8
0
100
AcDbDimension
 62
7
  6
CONTINUOUS
  2
*D0
 10
245.6409652218
 20
154.3414314516
 11
168.2481080789
 21
154.3414314516
 70
160
 71
2
 72
2
 41
0.9
 42
144.5
  3
DIMSTYLE_1
100
AcDbAlignedDimension
 13
101.1409652218
 23
143.3408226495
 14
245.6409652218
 24
143.3408226495
100
AcDbRotatedDimension
  0
DIMENSION
  5
24D
100
AcDbEntity
  8
0
100
AcDbDimension
 62
7
  6
CONTINUOUS
  2
*D1
 10
255.6409652218
 20
54.3414314516
 11
255.6409652218
 21
96.9842885945
 70
160
 71
2
 72
2
 41
0.9
 42
90.0
  3
DIMSTYLE_1
100
AcDbAlignedDimension
 13
244.6403564197
 23
144.3414314516
 14
244.6403564197
 24
54.3414314516
 50
270.0
100
AcDbRotatedDimension
  0
DIMENSION
  5
24E
100
AcDbEntity
  8
0
100
AcDbDimension
 62
7
  6
CONTINUOUS
  2
*D2
 10
59.3885206653
 20
154.3414314516
 11
49.9892710609
 21
154.3414314516
 70
160
 71
3
 72
2
 41
0.9
 42
7.15
  3
DIMSTYLE_1
100
AcDbAlignedDimension
 13
66.5385206653
 23
140.5453289712
 14
59.3885206653
 24
142.7181688618
 50
180.0
100
AcDbRotatedDimension
  0
DIMENSION
  5
24F
100
AcDbEntity
  8
0
100
AcDbDimension
 62
7
  6
CONTINUOUS
  2
*D3
 10
69.5385206653
 20
162.3414314516
 11
47.4992050439
 21
162.3414314516
 70
160
 71
3
 72
2
 41
0.9
 42
10.15
  3
DIMSTYLE_1
100
AcDbAlignedDimension
 13
59.3885206653
 23
142.7181688618
 14
69.5385206653
 24
125.3877482448
100
AcDbRotatedDimension
  0
LINE
  5
250
100
AcDbEntity
  8
0
100
AcDbLine
 62
7
  6
CONTINUOUS
 10
102.3209797519
 20
144.1321307739
 11
102.3354055674
 21
144.1475999081
  0
LINE
  5
251
100
AcDbEntity
  8
ASSI
100
AcDbLine
 62
7
  6
CONTINUOUS
 10
102.3209797519
 20
144.1321307739
 11
102.3354055674
 21
144.1475999081
  0
LINE
  5
252
100
AcDbEntity
  8
0
100
AcDbLine
 62
7
  6
CONTINUOUS
 10
101.1409652218
 20
143.3408226495
 11
102.1415740239
 21
144.3414314516
  0
LINE
  5
253
100
AcDbEntity
  8
ASSI
100
AcDbLine
 62
7
  6
CONTINUOUS
 10
101.1409652218
 20
143.3408226495
 11
102.1415740239
 21
144.3414314516
  0
LINE
  5
254
100
AcDbEntity
  8
0
100
AcDbLine
 62
7
  6
CONTINUOUS
 10
102.3209797519
 20
144.1321307739
 11
101.3502658994
 21
143.1614169215
  0
LINE
  5
255
100
AcDbEntity
  8
ASSI
100
AcDbLine
 62
7
  6
CONTINUOUS
 10
102.3209797519
 20
144.1321307739
 11
101.3502658994
 21
143.1614169215
  0
LINE
  5
256
100
AcDbEntity
  8
0
100
AcDbLine
 62
7
  6
CONTINUOUS
 10
102.7642278116
 20
143.1127004114
 11
102.3696962619
 21
142.7181688618
  0
LINE
  5
257
100
AcDbEntity
  8
ASSI
100
AcDbLine
 62
7
  6
CONTINUOUS
 10
102.7642278116
 20
143.1127004114
 11
102.3696962619
 21
142.7181688618
  0
LINE
  5
258
100
AcDbEntity
  8
0
100
AcDbLine
 62
7
  6
CONTINUOUS
 10
101.3347967652
 20
143.146991106
 11
101.3502658994
 21
143.1614169215
  0
LINE
  5
259
100
AcDbEntity
  8
ASSI
100
AcDbLine
 62
7
  6
CONTINUOUS
 10
101.3347967652
 20
143.146991106
 11
101.3502658994
 21
143.1614169215
  0
LINE
  5
25A
100
AcDbEntity
  8
0
100
AcDbLine
 62
7
  6
CONTINUOUS
 10
101.3502658994
 20
55.5214459817
 11
101.3347967652
 21
55.5358717972
  0
LINE
  5
25B
100
AcDbEntity
  8
ASSI
100
AcDbLine
 62
7
  6
CONTINUOUS
 10
101.3502658994
 20
55.5214459817
 11
101.3347967652
 21
55.5358717972
  0
LINE
  5
25C
100
AcDbEntity
  8
0
100
AcDbLine
 62
7
  6
CONTINUOUS
 10
102.1415740239
 20
54.3414314516
 11
101.1409652218
 21
55.3420402537
  0
LINE
  5
25D
100
AcDbEntity
  8
ASSI
100
AcDbLine
 62
7
  6
CONTINUOUS
 10
102.1415740239
 20
54.3414314516
 11
101.1409652218
 21
55.3420402537
  0
LINE
  5
25E
100
AcDbEntity
  8
0
100
AcDbLine
 62
7
  6
CONTINUOUS
 10
101.3502658994
 20
55.5214459817
 11
102.3209797519
 21
54.5507321293
  0
LINE
  5
25F
100
AcDbEntity
  8
ASSI
100
AcDbLine
 62
7
  6
CONTINUOUS
 10
101.3502658994
 20
55.5214459817
 11
102.3209797519
 21
54.5507321293
  0
LINE
  5
260
100
AcDbEntity
  8
0
100
AcDbLine
 62
7
  6
CONTINUOUS
 10
102.3696962619
 20
55.9646940414
 11
102.7642278116
 21
55.5701624918
  0
LINE
  5
261
100
AcDbEntity
  8
ASSI
100
AcDbLine
 62
7
  6
CONTINUOUS
 10
102.3696962619
 20
55.9646940414
 11
102.7642278116
 21
55.5701624918
  0
LINE
  5
262
100
AcDbEntity
  8
0
100
AcDbLine
 62
7
  6
CONTINUOUS
 10
102.3354055674
 20
54.5352629951
 11
102.3209797519
 21
54.5507321293
  0
LINE
  5
263
100
AcDbEntity
  8
ASSI
100
AcDbLine
 62
7
  6
CONTINUOUS
 10
102.3354055674
 20
54.5352629951
 11
102.3209797519
 21
54.5507321293
  0
LINE
  5
264
100
AcDbEntity
  8
0
100
AcDbLine
 62
7
  6
CONTINUOUS
 10
101.1409652218
 20
143.3408226495
 11
101.1409652218
 21
55.3420402537
  0
LINE
  5
265
100
AcDbEntity
  8
ASSI
100
AcDbLine
 62
7
  6
CONTINUOUS
 10
101.1409652218
 20
143.3408226495
 11
101.1409652218
 21
55.3420402537
  0
LINE
  5
266
100
AcDbEntity
  8
0
100
AcDbLine
 62
7
  6
CONTINUOUS
 10
101.3347967652
 20
143.146991106
 11
101.3347967652
 21
55.5358717972
  0
LINE
  5
267
100
AcDbEntity
  8
ASSI
100
AcDbLine
 62
7
  6
CONTINUOUS
 10
101.3347967652
 20
143.146991106
 11
101.3347967652
 21
55.5358717972
  0
LINE
  5
268
100
AcDbEntity
  8
0
100
AcDbLine
 62
7
  6
CONTINUOUS
 10
102.3696962619
 20
142.7181688618
 11
102.3696962619
 21
55.9646940414
  0
LINE
  5
269
100
AcDbEntity
  8
ASSI
100
AcDbLine
 62
7
  6
CONTINUOUS
 10
102.3696962619
 20
142.7181688618
 11
102.3696962619
 21
55.9646940414
  0
LWPOLYLINE
  5
26A
100
AcDbEntity
  8
CURVE
100
AcDbPolyline
 62
250
  6
CONTINUOUS
 90
73
 70
0
 10
240.9963203548
 20
59.6177685606
 10
241.0015136286
 20
59.6188145887
 10
241.0065504233
 20
59.6204888856
 10
241.0114579265
 20
59.6226398642
 10
241.0162633257
 20
59.6251159373
 10
241.0209938086
 20
59.6277655178
 10
241.0355939687
 20
59.6363669507
 10
241.0497628166
 20
59.6453149537
 10
241.0635438279
 20
59.6547380427
 10
241.0774642839
 20
59.6651123785
 10
241.091017665
 20
59.6760585
 10
241.1042072231
 20
59.6874990766
 10
241.1170362105
 20
59.6993567775
 10
241.1322481787
 20
59.7143462528
 10
241.1469113311
 20
59.7298378319
 10
241.1610120749
 20
59.7458246462
 10
241.1745368172
 20
59.7622998269
 10
241.1865068358
 20
59.7779447879
 10
241.1979615089
 20
59.7939805525
 10
241.2088886305
 20
59.810387031
 10
241.2192759944
 20
59.8271441333
 10
241.2291113946
 20
59.8442317695
 10
241.2395252685
 20
59.8638703249
 10
241.2492127662
 20
59.8838763189
 10
241.2581647643
 20
59.9042225094
 10
241.2663721393
 20
59.9248816546
 10
241.273825768
 20
59.9458265123
 10
241.2801329814
 20
59.9657306682
 10
241.2857722408
 20
59.9858366227
 10
241.2907483464
 20
60.0061182359
 10
241.2950660985
 20
60.026549368
 10
241.2987302973
 20
60.0471038793
 10
241.3017457431
 20
60.0677556301
 10
241.3043291956
 20
60.0906298275
 10
241.3061527907
 20
60.1135699778
 10
241.3072408956
 20
60.1365554468
 10
241.3076146852
 20
60.1612752608
 10
241.3071770114
 20
60.1859961492
 10
241.3059371256
 20
60.2106906978
 10
241.3043539778
 20
60.2305738702
 10
241.3022320716
 20
60.2504043186
 10
241.2995487067
 20
60.2701643019
 10
241.296480958
 20
60.2887423202
 10
241.2928845919
 20
60.3072272108
 10
241.2887518452
 20
60.3256044936
 10
241.2835306854
 20
60.3458493088
 10
241.2776368896
 20
60.3659148561
 10
241.2710676736
 20
60.3857721602
 10
241.2638202533
 20
60.4053922461
 10
241.2558918446
 20
60.4247461387
 10
241.2480717608
 20
60.4421301701
 10
241.2396918552
 20
60.4592502171
 10
241.2307603296
 20
60.4760874974
 10
241.2212853853
 20
60.492623229
 10
241.211275224
 20
60.5088386296
 10
241.199155369
 20
60.5270064551
 10
241.1863610174
 20
60.5447055939
 10
241.1729099839
 20
60.5619128339
 10
241.1588200833
 20
60.5786049628
 10
241.1443465235
 20
60.5945092894
 10
241.12929269
 20
60.6098754735
 10
241.1136799321
 20
60.6246868547
 10
241.097529599
 20
60.6389267726
 10
241.0808630402
 20
60.6525785668
 10
241.0637016049
 20
60.665625577
 10
241.0460666425
 20
60.6780511428
 10
241.0329247724
 20
60.6867003844
 10
241.0195417286
 20
60.694964035
 10
241.0059165802
 20
60.7027955297
 10
240.9920483963
 20
60.7101483035
 10
240.9779362461
 20
60.7169757917
 10
240.9635791986
 20
60.7232314291
 10
240.948976323
 20
60.7288686511
  0
LINE
  5
26B
100
AcDbEntity
  8
0
100
AcDbLine
 62
7
  6
CONTINUOUS
 10
102.7642278116
 20
55.5701624918
 11
102.3209797519
 21
54.5507321293
  0
LINE
  5
26C
100
AcDbEntity
  8
ASSI
100
AcDbLine
 62
7
  6
CONTINUOUS
 10
102.7642278116
 20
55.5701624918
 11
102.3209797519
 21
54.5507321293
  0
LWPOLYLINE
  5
26D
100
AcDbEntity
  8
CURVE
100
AcDbPolyline
 62
250
  6
CONTINUOUS
 90
23
 70
0
 10
240.2578854286
 20
60.4029701523
 10
240.2745868609
 20
60.4057520807
 10
240.2913178895
 20
60.4083939386
 10
240.3080768102
 20
60.4108814881
 10
240.324861919
 20
60.4132004909
 10
240.3416715119
 20
60.415336709
 10
240.3585038847
 20
60.4172759042
 10
240.3753573333
 20
60.4190038385
 10
240.3922301538
 20
60.4205062738
 10
240.4091206419
 20
60.4217689719
 10
240.4260270937
 20
60.4227776948
 10
240.442947805
 20
60.4235182044
 10
240.4588468329
 20
60.4239595683
 10
240.4747531651
 20
60.4241575565
 10
240.4906630364
 20
60.4241178181
 10
240.5065726817
 20
60.4238460022
 10
240.5224783356
 20
60.4233477581
 10
240.538376233
 20
60.4226287349
 10
240.5542626087
 20
60.4216945816
 10
240.5701336974
 20
60.4205509476
 10
240.5859857338
 20
60.4192034819
 10
240.6018149528
 20
60.4176578338
 10
240.6176175891
 20
60.4159196523
  0
LINE
  5
26E
100
AcDbEntity
  8
0
100
AcDbLine
 62
7
  6
CONTINUOUS
 10
102.1415740239
 20
54.3414314516
 11
244.6403564197
 21
54.3414314516
  0
LINE
  5
26F
100
AcDbEntity
  8
ASSI
100
AcDbLine
 62
7
  6
CONTINUOUS
 10
102.1415740239
 20
54.3414314516
 11
244.6403564197
 21
54.3414314516
  0
LINE
  5
270
100
AcDbEntity
  8
0
100
AcDbLine
 62
7
  6
CONTINUOUS
 10
102.3354055674
 20
54.5352629951
 11
244.4465248762
 21
54.5352629951
  0
LINE
  5
271
100
AcDbEntity
  8
ASSI
100
AcDbLine
 62
7
  6
CONTINUOUS
 10
102.3354055674
 20
54.5352629951
 11
244.4465248762
 21
54.5352629951
  0
LINE
  5
272
100
AcDbEntity
  8
0
100
AcDbLine
 62
7
  6
CONTINUOUS
 10
102.7642278116
 20
143.1127004114
 11
102.3209797519
 21
144.1321307739
  0
LINE
  5
273
100
AcDbEntity
  8
ASSI
100
AcDbLine
 62
7
  6
CONTINUOUS
 10
102.7642278116
 20
143.1127004114
 11
102.3209797519
 21
144.1321307739
  0
LINE
  5
274
100
AcDbEntity
  8
0
100
AcDbLine
 62
7
  6
CONTINUOUS
 10
131.2409652218
 20
92.6414314516
 11
131.2409652218
 21
106.0414314516
  0
LINE
  5
275
100
AcDbEntity
  8
ASSI
100
AcDbLine
 62
7
  6
CONTINUOUS
 10
131.2409652218
 20
92.6414314516
 11
131.2409652218
 21
106.0414314516
  0
LINE
  5
276
100
AcDbEntity
  8
0
100
AcDbLine
 62
7
  6
CONTINUOUS
 10
131.7409652218
 20
92.6414314516
 11
131.7409652218
 21
106.0414314516
  0
LINE
  5
277
100
AcDbEntity
  8
ASSI
100
AcDbLine
 62
7
  6
CONTINUOUS
 10
131.7409652218
 20
92.6414314516
 11
131.7409652218
 21
106.0414314516
  0
LINE
  5
278
100
AcDbEntity
  8
0
100
AcDbLine
 62
250
  6
CONTINUOUS
 10
132.9409652218
 20
107.7414314516
 11
132.9409652218
 21
107.2414314516
  0
LINE
  5
279
100
AcDbEntity
  8
ASSI
100
AcDbLine
 62
250
  6
CONTINUOUS
 10
132.9409652218
 20
107.7414314516
 11
132.9409652218
 21
107.2414314516
  0
LINE
  5
27A
100
AcDbEntity
  8
0
100
AcDbLine
 62
250
  6
CONTINUOUS
 10
132.9409652218
 20
90.9414314516
 11
132.9409652218
 21
91.4414314516
  0
LINE
  5
27B
100
AcDbEntity
  8
ASSI
100
AcDbLine
 62
250
  6
CONTINUOUS
 10
132.9409652218
 20
90.9414314516
 11
132.9409652218
 21
91.4414314516
  0
LWPOLYLINE
  5
27C
100
AcDbEntity
  8
0
100
AcDbPolyline
 62
7
  6
CONTINUOUS
 90
3
 70
0
 43
0.3500000006
 10
168.2481071777
 20
157.2342949219
 10
169.1052451172
 20
158.0914328613
 10
169.1052451172
 20
155.0914319458
  0
LINE
  5
27D
100
AcDbEntity
  8
0
100
AcDbLine
 62
7
  6
CONTINUOUS
 10
102.7642278116
 20
55.5701624918
 11
244.017702632
 21
55.5701624918
  0
LINE
  5
27E
100
AcDbEntity
  8
ASSI
100
AcDbLine
 62
7
  6
CONTINUOUS
 10
102.7642278116
 20
55.5701624918
 11
244.017702632
 21
55.5701624918
  0
LINE
  5
27F
100
AcDbEntity
  8
CURVE
100
AcDbLine
 62
250
  6
CONTINUOUS
 10
239.6809313943
 20
58.5779158809
 11
239.1969670354
 21
58.5779158809
  0
LINE
  5
280
100
AcDbEntity
  8
CURVE
100
AcDbLine
 62
250
  6
CONTINUOUS
 10
238.3259682178
 20
58.5779158809
 11
237.8717625242
 21
58.5779158809
  0
LINE
  5
281
100
AcDbEntity
  8
CURVE
100
AcDbLine
 62
250
  6
CONTINUOUS
 10
237.7996580512
 20
58.5779158809
 11
237.3504505479
 21
58.5779158809
  0
LINE
  5
282
100
AcDbEntity
  8
CURVE
100
AcDbLine
 62
250
  6
CONTINUOUS
 10
236.7101342912
 20
58.5779158809
 11
236.6457340085
 21
58.5779158809
  0
LINE
  5
283
100
AcDbEntity
  8
CURVE
100
AcDbLine
 62
250
  6
CONTINUOUS
 10
236.0079582279
 20
58.5779158809
 11
235.5686653908
 21
58.5779158809
  0
LINE
  5
284
100
AcDbEntity
  8
CURVE
100
AcDbLine
 62
250
  6
CONTINUOUS
 10
233.9847681294
 20
58.5779158809
 11
233.5801085288
 21
58.5779158809
  0
LINE
  5
285
100
AcDbEntity
  8
CURVE
100
AcDbLine
 62
250
  6
CONTINUOUS
 10
234.8622820895
 20
58.5779158809
 11
235.3214702591
 21
58.5779158809
  0
LINE
  5
286
100
AcDbEntity
  8
CURVE
100
AcDbLine
 62
250
  6
CONTINUOUS
 10
239.8157713535
 20
58.5779154642
 11
240.2731114012
 21
58.5779154642
  0
LINE
  5
287
100
AcDbEntity
  8
CURVE
100
AcDbLine
 62
250
  6
CONTINUOUS
 10
240.9762939943
 20
58.5779154642
 11
241.4179791687
 21
58.5779154642
  0
LINE
  5
288
100
AcDbEntity
  8
CURVE
100
AcDbLine
 62
250
  6
CONTINUOUS
 10
239.0780130408
 20
59.0170767181
 11
238.4526756406
 21
59.0170767181
  0
LINE
  5
289
100
AcDbEntity
  8
CURVE
100
AcDbLine
 62
250
  6
CONTINUOUS
 10
238.5466051602
 20
59.3568981312
 11
238.9862447592
 21
59.3568981312
  0
LINE
  5
28A
100
AcDbEntity
  8
CURVE
100
AcDbLine
 62
250
  6
CONTINUOUS
 10
240.2731114012
 20
59.438801522
 11
240.5193168626
 21
59.438801522
  0
LINE
  5
28B
100
AcDbEntity
  8
CURVE
100
AcDbLine
 62
250
  6
CONTINUOUS
 10
240.5203066333
 20
59.7990780565
 11
240.2578854286
 21
59.7990780565
  0
LINE
  5
28C
100
AcDbEntity
  8
CURVE
100
AcDbLine
 62
250
  6
CONTINUOUS
 10
232.8827242747
 20
60.7777303523
 11
233.3815438711
 21
60.7777303523
  0
LINE
  5
28D
100
AcDbEntity
  8
CURVE
100
AcDbLine
 62
250
  6
CONTINUOUS
 10
234.2330024991
 20
60.7777303523
 11
234.6918774306
 21
60.7777303523
  0
LINE
  5
28E
100
AcDbEntity
  8
CURVE
100
AcDbLine
 62
250
  6
CONTINUOUS
 10
235.7672960484
 20
60.7777303523
 11
236.2261039323
 21
60.7777303523
  0
LINE
  5
28F
100
AcDbEntity
  8
CURVE
100
AcDbLine
 62
250
  6
CONTINUOUS
 10
237.1396297955
 20
60.7777303523
 11
237.5939507273
 21
60.7777303523
  0
LINE
  5
290
100
AcDbEntity
  8
CURVE
100
AcDbLine
 62
250
  6
CONTINUOUS
 10
238.5617652547
 20
60.7777303523
 11
239.0059735202
 21
60.7777303523
  0
LINE
  5
291
100
AcDbEntity
  8
CURVE
100
AcDbLine
 62
250
  6
CONTINUOUS
 10
235.3214702591
 20
60.7778623523
 11
234.8622820895
 21
60.7778623523
  0
LWPOLYLINE
  5
292
100
AcDbEntity
  8
CURVE
100
AcDbPolyline
 62
250
  6
CONTINUOUS
 90
46
 70
0
 10
240.5193168626
 20
59.438801522
 10
240.5268283807
 20
59.4386957113
 10
240.5343518014
 20
59.4383782928
 10
240.5418788017
 20
59.4378492872
 10
240.5494010587
 20
59.4371087152
 10
240.5569102493
 20
59.4361565972
 10
240.5643980504
 20
59.434992954
 10
240.5718561391
 20
59.4336178061
 10
240.5792761924
 20
59.4320311743
 10
240.5866498872
 20
59.430233079
 10
240.5939689005
 20
59.428223541
 10
240.6012249094
 20
59.4260025808
 10
240.6084095907
 20
59.4235702191
 10
240.6155146215
 20
59.4209264765
 10
240.6225316788
 20
59.4180713736
 10
240.6294524396
 20
59.415004931
 10
240.6362685808
 20
59.4117271694
 10
240.642802505
 20
59.4083308673
 10
240.6492258748
 20
59.4047391639
 10
240.6555353736
 20
59.4009572838
 10
240.6617276848
 20
59.3969904515
 10
240.667799492
 20
59.3928438915
 10
240.6737474784
 20
59.3885228283
 10
240.6795683277
 20
59.3840324866
 10
240.6852587232
 20
59.3793780909
 10
240.6908153484
 20
59.3745648657
 10
240.6962348868
 20
59.3695980356
 10
240.7015140217
 20
59.364482825
 10
240.7066494367
 20
59.3592244587
 10
240.7116378152
 20
59.353828161
 10
240.7168523206
 20
59.3478573597
 10
240.7218939087
 20
59.3417397401
 10
240.7267646915
 20
59.3354829705
 10
240.7314667809
 20
59.3290947193
 10
240.7360022889
 20
59.3225826549
 10
240.7403733274
 20
59.3159544457
 10
240.7445820083
 20
59.3092177599
 10
240.7486304435
 20
59.302380266
 10
240.752520745
 20
59.2954496324
 10
240.7562550246
 20
59.2884335274
 10
240.7598353943
 20
59.2813396194
 10
240.7632639661
 20
59.2741755767
 10
240.7665428518
 20
59.2669490677
 10
240.7696741633
 20
59.2596677608
 10
240.7726600127
 20
59.2523393244
 10
240.7755025118
 20
59.2449714268
  0
LWPOLYLINE
  5
293
100
AcDbEntity
  8
CURVE
100
AcDbPolyline
 62
250
  6
CONTINUOUS
 90
49
 70
0
 10
240.6176175891
 20
60.4159196523
 10
240.626033368
 20
60.4148290183
 10
240.6344497205
 20
60.4135108986
 10
240.6428573774
 20
60.4119659328
 10
240.6512470691
 20
60.4101947604
 10
240.6596095262
 20
60.4081980209
 10
240.6679354791
 20
60.4059763537
 10
240.6762156585
 20
60.4035303985
 10
240.6844407948
 20
60.4008607947
 10
240.6926016186
 20
60.3979681819
 10
240.7006888603
 20
60.3948531995
 10
240.7086932506
 20
60.3915164872
 10
240.71660552
 20
60.3879586843
 10
240.724416399
 20
60.3841804304
 10
240.732116618
 20
60.3801823651
 10
240.7396969077
 20
60.3759651278
 10
240.7471479986
 20
60.3715293581
 10
240.7544606212
 20
60.3668756954
 10
240.761625506
 20
60.3620047794
 10
240.7686333836
 20
60.3569172495
 10
240.7754749844
 20
60.3516137452
 10
240.7821410391
 20
60.346094906
 10
240.7886222781
 20
60.3403613715
 10
240.7949094321
 20
60.3344137812
 10
240.8009932314
 20
60.3282527746
 10
240.806834426
 20
60.3219154646
 10
240.8124626193
 20
60.3153776069
 10
240.8178751481
 20
60.3086491434
 10
240.8230693494
 20
60.3017400158
 10
240.8280425602
 20
60.294660166
 10
240.8327921173
 20
60.2874195356
 10
240.8373153578
 20
60.2800280666
 10
240.8416096186
 20
60.2724957006
 10
240.8456722366
 20
60.2648323795
 10
240.8495005488
 20
60.2570480451
 10
240.8530918922
 20
60.2491526391
 10
240.8564436035
 20
60.2411561033
 10
240.8595530199
 20
60.2330683794
 10
240.8624174783
 20
60.2248994094
 10
240.8650343155
 20
60.216659135
 10
240.8674008686
 20
60.2083574979
 10
240.8695144745
 20
60.2000044399
 10
240.8713724701
 20
60.1916099029
 10
240.8729721923
 20
60.1831838285
 10
240.8743109782
 20
60.1747361586
 10
240.8753861647
 20
60.166276835
 10
240.8761950887
 20
60.1578157995
 10
240.8767350871
 20
60.1493629938
 10
240.877003497
 20
60.1409283597
  0
LINE
  5
294
100
AcDbEntity
  8
0
100
AcDbLine
 62
250
  6
CONTINUOUS
 10
146.3409652218
 20
107.7414314516
 11
146.3409652218
 21
107.2414314516
  0
LINE
  5
295
100
AcDbEntity
  8
ASSI
100
AcDbLine
 62
250
  6
CONTINUOUS
 10
146.3409652218
 20
107.7414314516
 11
146.3409652218
 21
107.2414314516
  0
LINE
  5
296
100
AcDbEntity
  8
0
100
AcDbLine
 62
250
  6
CONTINUOUS
 10
146.3409652218
 20
90.9414314516
 11
146.3409652218
 21
91.4414314516
  0
LINE
  5
297
100
AcDbEntity
  8
ASSI
100
AcDbLine
 62
250
  6
CONTINUOUS
 10
146.3409652218
 20
90.9414314516
 11
146.3409652218
 21
91.4414314516
  0
LINE
  5
298
100
AcDbEntity
  8
0
100
AcDbLine
 62
7
  6
CONTINUOUS
 10
147.5409652218
 20
106.0414314516
 11
147.5409652218
 21
92.6414314516
  0
LINE
  5
299
100
AcDbEntity
  8
ASSI
100
AcDbLine
 62
7
  6
CONTINUOUS
 10
147.5409652218
 20
106.0414314516
 11
147.5409652218
 21
92.6414314516
  0
LINE
  5
29A
100
AcDbEntity
  8
0
100
AcDbLine
 62
7
  6
CONTINUOUS
 10
148.0409652218
 20
106.0414314516
 11
148.0409652218
 21
92.6414314516
  0
LINE
  5
29B
100
AcDbEntity
  8
ASSI
100
AcDbLine
 62
7
  6
CONTINUOUS
 10
148.0409652218
 20
106.0414314516
 11
148.0409652218
 21
92.6414314516
  0
LINE
  5
29C
100
AcDbEntity
  8
0
100
AcDbLine
 62
7
  6
CONTINUOUS
 10
153.7409652218
 20
92.6414314516
 11
153.7409652218
 21
106.0414314516
  0
LINE
  5
29D
100
AcDbEntity
  8
ASSI
100
AcDbLine
 62
7
  6
CONTINUOUS
 10
153.7409652218
 20
92.6414314516
 11
153.7409652218
 21
106.0414314516
  0
LINE
  5
29E
100
AcDbEntity
  8
0
100
AcDbLine
 62
7
  6
CONTINUOUS
 10
154.2409652218
 20
92.6414314516
 11
154.2409652218
 21
106.0414314516
  0
LINE
  5
29F
100
AcDbEntity
  8
ASSI
100
AcDbLine
 62
7
  6
CONTINUOUS
 10
154.2409652218
 20
92.6414314516
 11
154.2409652218
 21
106.0414314516
  0
LINE
  5
2A0
100
AcDbEntity
  8
0
100
AcDbLine
 62
250
  6
CONTINUOUS
 10
155.4409652218
 20
107.7414314516
 11
155.4409652218
 21
107.2414314516
  0
LINE
  5
2A1
100
AcDbEntity
  8
ASSI
100
AcDbLine
 62
250
  6
CONTINUOUS
 10
155.4409652218
 20
107.7414314516
 11
155.4409652218
 21
107.2414314516
  0
LINE
  5
2A2
100
AcDbEntity
  8
0
100
AcDbLine
 62
250
  6
CONTINUOUS
 10
155.4409652218
 20
90.9414314516
 11
155.4409652218
 21
91.4414314516
  0
LINE
  5
2A3
100
AcDbEntity
  8
ASSI
100
AcDbLine
 62
250
  6
CONTINUOUS
 10
155.4409652218
 20
90.9414314516
 11
155.4409652218
 21
91.4414314516
  0
LINE
  5
2A4
100
AcDbEntity
  8
0
100
AcDbLine
 62
7
  6
CONTINUOUS
 10
101.3347967652
 20
55.5358717972
 11
101.1409652218
 21
55.3420402537
  0
LINE
  5
2A5
100
AcDbEntity
  8
ASSI
100
AcDbLine
 62
7
  6
CONTINUOUS
 10
101.3347967652
 20
55.5358717972
 11
101.1409652218
 21
55.3420402537
  0
LINE
  5
2A6
100
AcDbEntity
  8
0
100
AcDbLine
 62
7
  6
CONTINUOUS
 10
102.3354055674
 20
54.5352629951
 11
102.1415740239
 21
54.3414314516
  0
LINE
  5
2A7
100
AcDbEntity
  8
ASSI
100
AcDbLine
 62
7
  6
CONTINUOUS
 10
102.3354055674
 20
54.5352629951
 11
102.1415740239
 21
54.3414314516
  0
LINE
  5
2A8
100
AcDbEntity
  8
0
100
AcDbLine
 62
7
  6
CONTINUOUS
 10
101.3347967652
 20
143.146991106
 11
101.1409652218
 21
143.3408226495
  0
LINE
  5
2A9
100
AcDbEntity
  8
ASSI
100
AcDbLine
 62
7
  6
CONTINUOUS
 10
101.3347967652
 20
143.146991106
 11
101.1409652218
 21
143.3408226495
  0
LINE
  5
2AA
100
AcDbEntity
  8
0
100
AcDbLine
 62
7
  6
CONTINUOUS
 10
102.3354055674
 20
144.1475999081
 11
102.1415740239
 21
144.3414314516
  0
LINE
  5
2AB
100
AcDbEntity
  8
ASSI
100
AcDbLine
 62
7
  6
CONTINUOUS
 10
102.3354055674
 20
144.1475999081
 11
102.1415740239
 21
144.3414314516
  0
LWPOLYLINE
  5
2AC
100
AcDbEntity
  8
0
100
AcDbPolyline
 62
7
  6
CONTINUOUS
 90
3
 70
0
 43
0.3500000006
 10
175.3909716797
 20
155.3771385498
 10
175.3195314331
 20
155.1628540649
 10
175.1766871948
 20
154.8771474609
  0
LINE
  5
2AD
100
AcDbEntity
  8
0
100
AcDbLine
 62
7
  6
CONTINUOUS
 10
244.4122341816
 20
142.7181688618
 11
245.4316645441
 21
143.1614169215
  0
LINE
  5
2AE
100
AcDbEntity
  8
ASSI
100
AcDbLine
 62
7
  6
CONTINUOUS
 10
244.4122341816
 20
142.7181688618
 11
245.4316645441
 21
143.1614169215
  0
LWPOLYLINE
  5
2AF
100
AcDbEntity
  8
CURVE
100
AcDbPolyline
 62
250
  6
CONTINUOUS
 90
30
 70
0
 10
240.948976323
 20
60.7288686511
 10
240.922393936
 20
60.7380233423
 10
240.8955534237
 20
60.7464021759
 10
240.8684783017
 20
60.7540397395
 10
240.8411920856
 20
60.7609706206
 10
240.8137182911
 20
60.767229407
 10
240.7860804338
 20
60.772850686
 10
240.7583020293
 20
60.7778690454
 10
240.7304065933
 20
60.7823190728
 10
240.7024176413
 20
60.7862353556
 10
240.6743586892
 20
60.7896524816
 10
240.6462532524
 20
60.7926050383
 10
240.6181248466
 20
60.7951276133
 10
240.5767809429
 20
60.7981171356
 10
240.5354399592
 20
60.8003018705
 10
240.4941036348
 20
60.8017310524
 10
240.4527737088
 20
60.8024539156
 10
240.4114519205
 20
60.8025196942
 10
240.3701400091
 20
60.8019776225
 10
240.328839714
 20
60.8008769348
 10
240.2875527743
 20
60.7992668653
 10
240.2349413916
 20
60.7965424461
 10
240.1823615231
 20
60.7931052277
 10
240.1298201511
 20
60.7889902453
 10
240.0773242579
 20
60.7842325344
 10
240.0248808258
 20
60.7788671301
 10
239.9724968371
 20
60.7729290677
 10
239.9201792739
 20
60.7664533826
 10
239.8679351186
 20
60.7594751101
 10
239.8157713535
 20
60.7520292855
  0
LINE
  5
2B0
100
AcDbEntity
  8
0
100
AcDbLine
 62
7
  6
CONTINUOUS
 10
244.4122341816
 20
55.9646940414
 11
245.4316645441
 21
55.5214459817
  0
LINE
  5
2B1
100
AcDbEntity
  8
ASSI
100
AcDbLine
 62
7
  6
CONTINUOUS
 10
244.4122341816
 20
55.9646940414
 11
245.4316645441
 21
55.5214459817
  0
LINE
  5
2B2
100
AcDbEntity
  8
0
100
AcDbLine
 62
7
  6
CONTINUOUS
 10
213.8409652218
 20
90.9414314516
 11
200.4409652218
 21
90.9414314516
  0
LINE
  5
2B3
100
AcDbEntity
  8
ASSI
100
AcDbLine
 62
7
  6
CONTINUOUS
 10
213.8409652218
 20
90.9414314516
 11
200.4409652218
 21
90.9414314516
  0
LINE
  5
2B4
100
AcDbEntity
  8
0
100
AcDbLine
 62
7
  6
CONTINUOUS
 10
191.3409652218
 20
90.9414314516
 11
177.9409652218
 21
90.9414314516
  0
LINE
  5
2B5
100
AcDbEntity
  8
ASSI
100
AcDbLine
 62
7
  6
CONTINUOUS
 10
191.3409652218
 20
90.9414314516
 11
177.9409652218
 21
90.9414314516
  0
LINE
  5
2B6
100
AcDbEntity
  8
0
100
AcDbLine
 62
7
  6
CONTINUOUS
 10
168.8409652218
 20
90.9414314516
 11
155.4409652218
 21
90.9414314516
  0
LINE
  5
2B7
100
AcDbEntity
  8
ASSI
100
AcDbLine
 62
7
  6
CONTINUOUS
 10
168.8409652218
 20
90.9414314516
 11
155.4409652218
 21
90.9414314516
  0
LINE
  5
2B8
100
AcDbEntity
  8
0
100
AcDbLine
 62
7
  6
CONTINUOUS
 10
146.3409652218
 20
90.9414314516
 11
132.9409652218
 21
90.9414314516
  0
LINE
  5
2B9
100
AcDbEntity
  8
ASSI
100
AcDbLine
 62
7
  6
CONTINUOUS
 10
146.3409652218
 20
90.9414314516
 11
132.9409652218
 21
90.9414314516
  0
LINE
  5
2BA
100
AcDbEntity
  8
0
100
AcDbLine
 62
7
  6
CONTINUOUS
 10
213.8409652218
 20
91.4414314516
 11
200.4409652218
 21
91.4414314516
  0
LINE
  5
2BB
100
AcDbEntity
  8
ASSI
100
AcDbLine
 62
7
  6
CONTINUOUS
 10
213.8409652218
 20
91.4414314516
 11
200.4409652218
 21
91.4414314516
  0
LINE
  5
2BC
100
AcDbEntity
  8
0
100
AcDbLine
 62
7
  6
CONTINUOUS
 10
191.3409652218
 20
91.4414314516
 11
177.9409652218
 21
91.4414314516
  0
LINE
  5
2BD
100
AcDbEntity
  8
ASSI
100
AcDbLine
 62
7
  6
CONTINUOUS
 10
191.3409652218
 20
91.4414314516
 11
177.9409652218
 21
91.4414314516
  0
LINE
  5
2BE
100
AcDbEntity
  8
0
100
AcDbLine
 62
7
  6
CONTINUOUS
 10
168.8409652218
 20
91.4414314516
 11
155.4409652218
 21
91.4414314516
  0
LINE
  5
2BF
100
AcDbEntity
  8
ASSI
100
AcDbLine
 62
7
  6
CONTINUOUS
 10
168.8409652218
 20
91.4414314516
 11
155.4409652218
 21
91.4414314516
  0
LINE
  5
2C0
100
AcDbEntity
  8
0
100
AcDbLine
 62
7
  6
CONTINUOUS
 10
146.3409652218
 20
91.4414314516
 11
132.9409652218
 21
91.4414314516
  0
LINE
  5
2C1
100
AcDbEntity
  8
ASSI
100
AcDbLine
 62
7
  6
CONTINUOUS
 10
146.3409652218
 20
91.4414314516
 11
132.9409652218
 21
91.4414314516
  0
LINE
  5
2C2
100
AcDbEntity
  8
0
100
AcDbLine
 62
250
  6
CONTINUOUS
 10
215.5409652218
 20
92.6414314516
 11
215.0409652218
 21
92.6414314516
  0
LINE
  5
2C3
100
AcDbEntity
  8
ASSI
100
AcDbLine
 62
250
  6
CONTINUOUS
 10
215.5409652218
 20
92.6414314516
 11
215.0409652218
 21
92.6414314516
  0
LINE
  5
2C4
100
AcDbEntity
  8
0
100
AcDbLine
 62
250
  6
CONTINUOUS
 10
193.0409652218
 20
92.6414314516
 11
192.5409652218
 21
92.6414314516
  0
LINE
  5
2C5
100
AcDbEntity
  8
ASSI
100
AcDbLine
 62
250
  6
CONTINUOUS
 10
193.0409652218
 20
92.6414314516
 11
192.5409652218
 21
92.6414314516
  0
LINE
  5
2C6
100
AcDbEntity
  8
0
100
AcDbLine
 62
250
  6
CONTINUOUS
 10
170.5409652218
 20
92.6414314516
 11
170.0409652218
 21
92.6414314516
  0
LINE
  5
2C7
100
AcDbEntity
  8
ASSI
100
AcDbLine
 62
250
  6
CONTINUOUS
 10
170.5409652218
 20
92.6414314516
 11
170.0409652218
 21
92.6414314516
  0
LINE
  5
2C8
100
AcDbEntity
  8
0
100
AcDbLine
 62
250
  6
CONTINUOUS
 10
148.0409652218
 20
92.6414314516
 11
147.5409652218
 21
92.6414314516
  0
LINE
  5
2C9
100
AcDbEntity
  8
ASSI
100
AcDbLine
 62
250
  6
CONTINUOUS
 10
148.0409652218
 20
92.6414314516
 11
147.5409652218
 21
92.6414314516
  0
LINE
  5
2CA
100
AcDbEntity
  8
0
100
AcDbLine
 62
250
  6
CONTINUOUS
 10
131.2409652218
 20
92.6414314516
 11
131.7409652218
 21
92.6414314516
  0
LINE
  5
2CB
100
AcDbEntity
  8
ASSI
100
AcDbLine
 62
250
  6
CONTINUOUS
 10
131.2409652218
 20
92.6414314516
 11
131.7409652218
 21
92.6414314516
  0
LINE
  5
2CC
100
AcDbEntity
  8
0
100
AcDbLine
 62
250
  6
CONTINUOUS
 10
153.7409652218
 20
92.6414314516
 11
154.2409652218
 21
92.6414314516
  0
LINE
  5
2CD
100
AcDbEntity
  8
ASSI
100
AcDbLine
 62
250
  6
CONTINUOUS
 10
153.7409652218
 20
92.6414314516
 11
154.2409652218
 21
92.6414314516
  0
LINE
  5
2CE
100
AcDbEntity
  8
0
100
AcDbLine
 62
250
  6
CONTINUOUS
 10
176.2409652218
 20
92.6414314516
 11
176.7409652218
 21
92.6414314516
  0
LINE
  5
2CF
100
AcDbEntity
  8
ASSI
100
AcDbLine
 62
250
  6
CONTINUOUS
 10
176.2409652218
 20
92.6414314516
 11
176.7409652218
 21
92.6414314516
  0
LINE
  5
2D0
100
AcDbEntity
  8
0
100
AcDbLine
 62
250
  6
CONTINUOUS
 10
198.7409652218
 20
92.6414314516
 11
199.2409652218
 21
92.6414314516
  0
LINE
  5
2D1
100
AcDbEntity
  8
ASSI
100
AcDbLine
 62
250
  6
CONTINUOUS
 10
198.7409652218
 20
92.6414314516
 11
199.2409652218
 21
92.6414314516
  0
LINE
  5
2D2
100
AcDbEntity
  8
0
100
AcDbLine
 62
250
  6
CONTINUOUS
 10
168.8409652218
 20
107.7414314516
 11
168.8409652218
 21
107.2414314516
  0
LINE
  5
2D3
100
AcDbEntity
  8
ASSI
100
AcDbLine
 62
250
  6
CONTINUOUS
 10
168.8409652218
 20
107.7414314516
 11
168.8409652218
 21
107.2414314516
  0
LINE
  5
2D4
100
AcDbEntity
  8
0
100
AcDbLine
 62
250
  6
CONTINUOUS
 10
168.8409652218
 20
90.9414314516
 11
168.8409652218
 21
91.4414314516
  0
LINE
  5
2D5
100
AcDbEntity
  8
ASSI
100
AcDbLine
 62
250
  6
CONTINUOUS
 10
168.8409652218
 20
90.9414314516
 11
168.8409652218
 21
91.4414314516
  0
LINE
  5
2D6
100
AcDbEntity
  8
0
100
AcDbLine
 62
7
  6
CONTINUOUS
 10
170.0409652218
 20
106.0414314516
 11
170.0409652218
 21
92.6414314516
  0
LINE
  5
2D7
100
AcDbEntity
  8
ASSI
100
AcDbLine
 62
7
  6
CONTINUOUS
 10
170.0409652218
 20
106.0414314516
 11
170.0409652218
 21
92.6414314516
  0
LINE
  5
2D8
100
AcDbEntity
  8
0
100
AcDbLine
 62
7
  6
CONTINUOUS
 10
170.5409652218
 20
106.0414314516
 11
170.5409652218
 21
92.6414314516
  0
LINE
  5
2D9
100
AcDbEntity
  8
ASSI
100
AcDbLine
 62
7
  6
CONTINUOUS
 10
170.5409652218
 20
106.0414314516
 11
170.5409652218
 21
92.6414314516
  0
LWPOLYLINE
  5
2DA
100
AcDbEntity
  8
0
100
AcDbPolyline
 62
7
  6
CONTINUOUS
 90
2
 70
0
 43
0.3500000006
 10
170.9624014893
 20
155.0914319458
 10
170.9624014893
 20
156.5914233398
  0
LWPOLYLINE
  5
2DB
100
AcDbEntity
  8
0
100
AcDbPolyline
 62
7
  6
CONTINUOUS
 90
2
 70
0
 43
0.3500000006
 10
173.3195308228
 20
155.0914319458
 10
173.3195308228
 20
156.5914233398
  0
LWPOLYLINE
  5
2DC
100
AcDbEntity
  8
0
100
AcDbPolyline
 62
7
  6
CONTINUOUS
 90
13
 70
0
 43
0.3500000006
 10
254.0338308105
 20
99.3414285278
 10
252.7481057739
 20
99.3414285278
 10
252.3195368042
 20
99.5557130127
 10
251.8909678345
 20
99.9842910461
 10
251.8909678345
 20
100.198575531
 10
252.3195368042
 20
100.6271445007
 10
252.7481057739
 20
100.8414289856
 10
254.0338308105
 20
100.8414289856
 10
254.4623997803
 20
100.6271445007
 10
254.89096875
 20
100.198575531
 10
254.89096875
 20
99.9842910461
 10
254.4623997803
 20
99.5557130127
 10
254.0338308105
 20
99.3414285278
  0
LINE
  5
2DD
100
AcDbEntity
  8
0
100
AcDbLine
 62
7
  6
CONTINUOUS
 10
176.2409652218
 20
92.6414314516
 11
176.2409652218
 21
106.0414314516
  0
LINE
  5
2DE
100
AcDbEntity
  8
ASSI
100
AcDbLine
 62
7
  6
CONTINUOUS
 10
176.2409652218
 20
92.6414314516
 11
176.2409652218
 21
106.0414314516
  0
LINE
  5
2DF
100
AcDbEntity
  8
0
100
AcDbLine
 62
7
  6
CONTINUOUS
 10
176.7409652218
 20
92.6414314516
 11
176.7409652218
 21
106.0414314516
  0
LINE
  5
2E0
100
AcDbEntity
  8
ASSI
100
AcDbLine
 62
7
  6
CONTINUOUS
 10
176.7409652218
 20
92.6414314516
 11
176.7409652218
 21
106.0414314516
  0
LINE
  5
2E1
100
AcDbEntity
  8
0
100
AcDbLine
 62
250
  6
CONTINUOUS
 10
177.9409652218
 20
107.7414314516
 11
177.9409652218
 21
107.2414314516
  0
LINE
  5
2E2
100
AcDbEntity
  8
ASSI
100
AcDbLine
 62
250
  6
CONTINUOUS
 10
177.9409652218
 20
107.7414314516
 11
177.9409652218
 21
107.2414314516
  0
LINE
  5
2E3
100
AcDbEntity
  8
0
100
AcDbLine
 62
250
  6
CONTINUOUS
 10
177.9409652218
 20
90.9414314516
 11
177.9409652218
 21
91.4414314516
  0
LINE
  5
2E4
100
AcDbEntity
  8
ASSI
100
AcDbLine
 62
250
  6
CONTINUOUS
 10
177.9409652218
 20
90.9414314516
 11
177.9409652218
 21
91.4414314516
  0
LINE
  5
2E5
100
AcDbEntity
  8
0
100
AcDbLine
 62
7
  6
CONTINUOUS
 10
102.3696962619
 20
55.9646940414
 11
101.3502658994
 21
55.5214459817
  0
LINE
  5
2E6
100
AcDbEntity
  8
ASSI
100
AcDbLine
 62
7
  6
CONTINUOUS
 10
102.3696962619
 20
55.9646940414
 11
101.3502658994
 21
55.5214459817
  0
LINE
  5
2E7
100
AcDbEntity
  8
0
100
AcDbLine
 62
250
  6
CONTINUOUS
 10
215.5409652218
 20
106.0414314516
 11
215.0409652218
 21
106.0414314516
  0
LINE
  5
2E8
100
AcDbEntity
  8
ASSI
100
AcDbLine
 62
250
  6
CONTINUOUS
 10
215.5409652218
 20
106.0414314516
 11
215.0409652218
 21
106.0414314516
  0
LINE
  5
2E9
100
AcDbEntity
  8
0
100
AcDbLine
 62
250
  6
CONTINUOUS
 10
193.0409652218
 20
106.0414314516
 11
192.5409652218
 21
106.0414314516
  0
LINE
  5
2EA
100
AcDbEntity
  8
ASSI
100
AcDbLine
 62
250
  6
CONTINUOUS
 10
193.0409652218
 20
106.0414314516
 11
192.5409652218
 21
106.0414314516
  0
LINE
  5
2EB
100
AcDbEntity
  8
0
100
AcDbLine
 62
250
  6
CONTINUOUS
 10
170.5409652218
 20
106.0414314516
 11
170.0409652218
 21
106.0414314516
  0
LINE
  5
2EC
100
AcDbEntity
  8
ASSI
100
AcDbLine
 62
250
  6
CONTINUOUS
 10
170.5409652218
 20
106.0414314516
 11
170.0409652218
 21
106.0414314516
  0
LINE
  5
2ED
100
AcDbEntity
  8
0
100
AcDbLine
 62
250
  6
CONTINUOUS
 10
148.0409652218
 20
106.0414314516
 11
147.5409652218
 21
106.0414314516
  0
LINE
  5
2EE
100
AcDbEntity
  8
ASSI
100
AcDbLine
 62
250
  6
CONTINUOUS
 10
148.0409652218
 20
106.0414314516
 11
147.5409652218
 21
106.0414314516
  0
LINE
  5
2EF
100
AcDbEntity
  8
0
100
AcDbLine
 62
250
  6
CONTINUOUS
 10
131.2409652218
 20
106.0414314516
 11
131.7409652218
 21
106.0414314516
  0
LINE
  5
2F0
100
AcDbEntity
  8
ASSI
100
AcDbLine
 62
250
  6
CONTINUOUS
 10
131.2409652218
 20
106.0414314516
 11
131.7409652218
 21
106.0414314516
  0
LINE
  5
2F1
100
AcDbEntity
  8
0
100
AcDbLine
 62
250
  6
CONTINUOUS
 10
153.7409652218
 20
106.0414314516
 11
154.2409652218
 21
106.0414314516
  0
LINE
  5
2F2
100
AcDbEntity
  8
ASSI
100
AcDbLine
 62
250
  6
CONTINUOUS
 10
153.7409652218
 20
106.0414314516
 11
154.2409652218
 21
106.0414314516
  0
LINE
  5
2F3
100
AcDbEntity
  8
0
100
AcDbLine
 62
250
  6
CONTINUOUS
 10
176.2409652218
 20
106.0414314516
 11
176.7409652218
 21
106.0414314516
  0
LINE
  5
2F4
100
AcDbEntity
  8
ASSI
100
AcDbLine
 62
250
  6
CONTINUOUS
 10
176.2409652218
 20
106.0414314516
 11
176.7409652218
 21
106.0414314516
  0
LINE
  5
2F5
100
AcDbEntity
  8
0
100
AcDbLine
 62
250
  6
CONTINUOUS
 10
198.7409652218
 20
106.0414314516
 11
199.2409652218
 21
106.0414314516
  0
LINE
  5
2F6
100
AcDbEntity
  8
ASSI
100
AcDbLine
 62
250
  6
CONTINUOUS
 10
198.7409652218
 20
106.0414314516
 11
199.2409652218
 21
106.0414314516
  0
LINE
  5
2F7
100
AcDbEntity
  8
0
100
AcDbLine
 62
7
  6
CONTINUOUS
 10
132.9409652218
 20
107.2414314516
 11
146.3409652218
 21
107.2414314516
  0
LINE
  5
2F8
100
AcDbEntity
  8
ASSI
100
AcDbLine
 62
7
  6
CONTINUOUS
 10
132.9409652218
 20
107.2414314516
 11
146.3409652218
 21
107.2414314516
  0
LINE
  5
2F9
100
AcDbEntity
  8
0
100
AcDbLine
 62
7
  6
CONTINUOUS
 10
155.4409652218
 20
107.2414314516
 11
168.8409652218
 21
107.2414314516
  0
LINE
  5
2FA
100
AcDbEntity
  8
ASSI
100
AcDbLine
 62
7
  6
CONTINUOUS
 10
155.4409652218
 20
107.2414314516
 11
168.8409652218
 21
107.2414314516
  0
LINE
  5
2FB
100
AcDbEntity
  8
0
100
AcDbLine
 62
7
  6
CONTINUOUS
 10
177.9409652218
 20
107.2414314516
 11
191.3409652218
 21
107.2414314516
  0
LINE
  5
2FC
100
AcDbEntity
  8
ASSI
100
AcDbLine
 62
7
  6
CONTINUOUS
 10
177.9409652218
 20
107.2414314516
 11
191.3409652218
 21
107.2414314516
  0
LINE
  5
2FD
100
AcDbEntity
  8
0
100
AcDbLine
 62
7
  6
CONTINUOUS
 10
200.4409652218
 20
107.2414314516
 11
213.8409652218
 21
107.2414314516
  0
LINE
  5
2FE
100
AcDbEntity
  8
ASSI
100
AcDbLine
 62
7
  6
CONTINUOUS
 10
200.4409652218
 20
107.2414314516
 11
213.8409652218
 21
107.2414314516
  0
LINE
  5
2FF
100
AcDbEntity
  8
0
100
AcDbLine
 62
7
  6
CONTINUOUS
 10
132.9409652218
 20
107.7414314516
 11
146.3409652218
 21
107.7414314516
  0
LINE
  5
300
100
AcDbEntity
  8
ASSI
100
AcDbLine
 62
7
  6
CONTINUOUS
 10
132.9409652218
 20
107.7414314516
 11
146.3409652218
 21
107.7414314516
  0
LINE
  5
301
100
AcDbEntity
  8
0
100
AcDbLine
 62
7
  6
CONTINUOUS
 10
155.4409652218
 20
107.7414314516
 11
168.8409652218
 21
107.7414314516
  0
LINE
  5
302
100
AcDbEntity
  8
ASSI
100
AcDbLine
 62
7
  6
CONTINUOUS
 10
155.4409652218
 20
107.7414314516
 11
168.8409652218
 21
107.7414314516
  0
LINE
  5
303
100
AcDbEntity
  8
0
100
AcDbLine
 62
7
  6
CONTINUOUS
 10
177.9409652218
 20
107.7414314516
 11
191.3409652218
 21
107.7414314516
  0
LINE
  5
304
100
AcDbEntity
  8
ASSI
100
AcDbLine
 62
7
  6
CONTINUOUS
 10
177.9409652218
 20
107.7414314516
 11
191.3409652218
 21
107.7414314516
  0
LINE
  5
305
100
AcDbEntity
  8
0
100
AcDbLine
 62
7
  6
CONTINUOUS
 10
200.4409652218
 20
107.7414314516
 11
213.8409652218
 21
107.7414314516
  0
LINE
  5
306
100
AcDbEntity
  8
ASSI
100
AcDbLine
 62
7
  6
CONTINUOUS
 10
200.4409652218
 20
107.7414314516
 11
213.8409652218
 21
107.7414314516
  0
LINE
  5
307
100
AcDbEntity
  8
0
100
AcDbLine
 62
7
  6
CONTINUOUS
 10
102.3696962619
 20
142.7181688618
 11
101.3502658994
 21
143.1614169215
  0
LINE
  5
308
100
AcDbEntity
  8
ASSI
100
AcDbLine
 62
7
  6
CONTINUOUS
 10
102.3696962619
 20
142.7181688618
 11
101.3502658994
 21
143.1614169215
  0
LINE
  5
309
100
AcDbEntity
  8
0
100
AcDbLine
 62
250
  6
CONTINUOUS
 10
191.3409652218
 20
107.7414314516
 11
191.3409652218
 21
107.2414314516
  0
LINE
  5
30A
100
AcDbEntity
  8
ASSI
100
AcDbLine
 62
250
  6
CONTINUOUS
 10
191.3409652218
 20
107.7414314516
 11
191.3409652218
 21
107.2414314516
  0
LINE
  5
30B
100
AcDbEntity
  8
0
100
AcDbLine
 62
250
  6
CONTINUOUS
 10
191.3409652218
 20
90.9414314516
 11
191.3409652218
 21
91.4414314516
  0
LINE
  5
30C
100
AcDbEntity
  8
ASSI
100
AcDbLine
 62
250
  6
CONTINUOUS
 10
191.3409652218
 20
90.9414314516
 11
191.3409652218
 21
91.4414314516
  0
LINE
  5
30D
100
AcDbEntity
  8
0
100
AcDbLine
 62
7
  6
CONTINUOUS
 10
192.5409652218
 20
106.0414314516
 11
192.5409652218
 21
92.6414314516
  0
LINE
  5
30E
100
AcDbEntity
  8
ASSI
100
AcDbLine
 62
7
  6
CONTINUOUS
 10
192.5409652218
 20
106.0414314516
 11
192.5409652218
 21
92.6414314516
  0
LINE
  5
30F
100
AcDbEntity
  8
0
100
AcDbLine
 62
7
  6
CONTINUOUS
 10
193.0409652218
 20
106.0414314516
 11
193.0409652218
 21
92.6414314516
  0
LINE
  5
310
100
AcDbEntity
  8
ASSI
100
AcDbLine
 62
7
  6
CONTINUOUS
 10
193.0409652218
 20
106.0414314516
 11
193.0409652218
 21
92.6414314516
  0
LINE
  5
311
100
AcDbEntity
  8
0
100
AcDbLine
 62
7
  6
CONTINUOUS
 10
244.4465248762
 20
144.1475999081
 11
244.6403564197
 21
144.3414314516
  0
LINE
  5
312
100
AcDbEntity
  8
ASSI
100
AcDbLine
 62
7
  6
CONTINUOUS
 10
244.4465248762
 20
144.1475999081
 11
244.6403564197
 21
144.3414314516
  0
LINE
  5
313
100
AcDbEntity
  8
0
100
AcDbLine
 62
7
  6
CONTINUOUS
 10
245.4471336783
 20
143.146991106
 11
245.6409652218
 21
143.3408226495
  0
LINE
  5
314
100
AcDbEntity
  8
ASSI
100
AcDbLine
 62
7
  6
CONTINUOUS
 10
245.4471336783
 20
143.146991106
 11
245.6409652218
 21
143.3408226495
  0
LINE
  5
315
100
AcDbEntity
  8
0
100
AcDbLine
 62
7
  6
CONTINUOUS
 10
244.4465248762
 20
54.5352629951
 11
244.6403564197
 21
54.3414314516
  0
LINE
  5
316
100
AcDbEntity
  8
ASSI
100
AcDbLine
 62
7
  6
CONTINUOUS
 10
244.4465248762
 20
54.5352629951
 11
244.6403564197
 21
54.3414314516
  0
LINE
  5
317
100
AcDbEntity
  8
0
100
AcDbLine
 62
7
  6
CONTINUOUS
 10
245.4471336783
 20
55.5358717972
 11
245.6409652218
 21
55.3420402537
  0
LINE
  5
318
100
AcDbEntity
  8
ASSI
100
AcDbLine
 62
7
  6
CONTINUOUS
 10
245.4471336783
 20
55.5358717972
 11
245.6409652218
 21
55.3420402537
  0
LINE
  5
319
100
AcDbEntity
  8
0
100
AcDbLine
 62
7
  6
CONTINUOUS
 10
198.7409652218
 20
92.6414314516
 11
198.7409652218
 21
106.0414314516
  0
LINE
  5
31A
100
AcDbEntity
  8
ASSI
100
AcDbLine
 62
7
  6
CONTINUOUS
 10
198.7409652218
 20
92.6414314516
 11
198.7409652218
 21
106.0414314516
  0
LINE
  5
31B
100
AcDbEntity
  8
0
100
AcDbLine
 62
7
  6
CONTINUOUS
 10
199.2409652218
 20
92.6414314516
 11
199.2409652218
 21
106.0414314516
  0
LINE
  5
31C
100
AcDbEntity
  8
ASSI
100
AcDbLine
 62
7
  6
CONTINUOUS
 10
199.2409652218
 20
92.6414314516
 11
199.2409652218
 21
106.0414314516
  0
LINE
  5
31D
100
AcDbEntity
  8
0
100
AcDbLine
 62
250
  6
CONTINUOUS
 10
200.4409652218
 20
107.7414314516
 11
200.4409652218
 21
107.2414314516
  0
LINE
  5
31E
100
AcDbEntity
  8
ASSI
100
AcDbLine
 62
250
  6
CONTINUOUS
 10
200.4409652218
 20
107.7414314516
 11
200.4409652218
 21
107.2414314516
  0
LINE
  5
31F
100
AcDbEntity
  8
0
100
AcDbLine
 62
250
  6
CONTINUOUS
 10
200.4409652218
 20
90.9414314516
 11
200.4409652218
 21
91.4414314516
  0
LINE
  5
320
100
AcDbEntity
  8
ASSI
100
AcDbLine
 62
250
  6
CONTINUOUS
 10
200.4409652218
 20
90.9414314516
 11
200.4409652218
 21
91.4414314516
  0
LWPOLYLINE
  5
321
100
AcDbEntity
  8
0
100
AcDbPolyline
 62
7
  6
CONTINUOUS
 90
10
 70
0
 43
0.3500000006
 10
175.3195314331
 20
155.5914230347
 10
175.3909716797
 20
155.4485787964
 10
175.3909716797
 20
155.3771385498
 10
175.248109314
 20
155.2342943115
 10
175.1766871948
 20
155.2342943115
 10
175.1052469482
 20
155.3057164307
 10
175.1052469482
 20
155.3771385498
 10
175.1766871948
 20
155.5200009155
 10
175.248109314
 20
155.5914230347
 10
175.3195314331
 20
155.5914230347
  0
LINE
  5
322
100
AcDbEntity
  8
0
100
AcDbLine
 62
250
  6
CONTINUOUS
 10
213.8409652218
 20
107.7414314516
 11
213.8409652218
 21
107.2414314516
  0
LINE
  5
323
100
AcDbEntity
  8
ASSI
100
AcDbLine
 62
250
  6
CONTINUOUS
 10
213.8409652218
 20
107.7414314516
 11
213.8409652218
 21
107.2414314516
  0
LINE
  5
324
100
AcDbEntity
  8
0
100
AcDbLine
 62
250
  6
CONTINUOUS
 10
213.8409652218
 20
90.9414314516
 11
213.8409652218
 21
91.4414314516
  0
LINE
  5
325
100
AcDbEntity
  8
ASSI
100
AcDbLine
 62
250
  6
CONTINUOUS
 10
213.8409652218
 20
90.9414314516
 11
213.8409652218
 21
91.4414314516
  0
LINE
  5
326
100
AcDbEntity
  8
0
100
AcDbLine
 62
7
  6
CONTINUOUS
 10
215.0409652218
 20
106.0414314516
 11
215.0409652218
 21
92.6414314516
  0
LINE
  5
327
100
AcDbEntity
  8
ASSI
100
AcDbLine
 62
7
  6
CONTINUOUS
 10
215.0409652218
 20
106.0414314516
 11
215.0409652218
 21
92.6414314516
  0
LINE
  5
328
100
AcDbEntity
  8
0
100
AcDbLine
 62
7
  6
CONTINUOUS
 10
215.5409652218
 20
106.0414314516
 11
215.5409652218
 21
92.6414314516
  0
LINE
  5
329
100
AcDbEntity
  8
ASSI
100
AcDbLine
 62
7
  6
CONTINUOUS
 10
215.5409652218
 20
106.0414314516
 11
215.5409652218
 21
92.6414314516
  0
LINE
  5
32A
100
AcDbEntity
  8
0
100
AcDbLine
 62
7
  6
CONTINUOUS
 10
244.017702632
 20
143.1127004114
 11
102.7642278116
 21
143.1127004114
  0
LINE
  5
32B
100
AcDbEntity
  8
ASSI
100
AcDbLine
 62
7
  6
CONTINUOUS
 10
244.017702632
 20
143.1127004114
 11
102.7642278116
 21
143.1127004114
  0
LINE
  5
32C
100
AcDbEntity
  8
0
100
AcDbLine
 62
7
  6
CONTINUOUS
 10
244.4465248762
 20
144.1475999081
 11
102.3354055674
 21
144.1475999081
  0
LINE
  5
32D
100
AcDbEntity
  8
ASSI
100
AcDbLine
 62
7
  6
CONTINUOUS
 10
244.4465248762
 20
144.1475999081
 11
102.3354055674
 21
144.1475999081
  0
LINE
  5
32E
100
AcDbEntity
  8
0
100
AcDbLine
 62
7
  6
CONTINUOUS
 10
244.6403564197
 20
144.3414314516
 11
102.1415740239
 21
144.3414314516
  0
LINE
  5
32F
100
AcDbEntity
  8
ASSI
100
AcDbLine
 62
7
  6
CONTINUOUS
 10
244.6403564197
 20
144.3414314516
 11
102.1415740239
 21
144.3414314516
  0
LINE
  5
330
100
AcDbEntity
  8
CURVE
100
AcDbLine
 62
250
  6
CONTINUOUS
 10
236.6457340085
 20
58.5779158809
 11
236.1070514615
 21
60.0143534347
  0
LINE
  5
331
100
AcDbEntity
  8
CURVE
100
AcDbLine
 62
250
  6
CONTINUOUS
 10
236.2261039323
 20
60.7777303523
 11
236.6804416259
 21
59.5563867888
  0
LINE
  5
332
100
AcDbEntity
  8
CURVE
100
AcDbLine
 62
250
  6
CONTINUOUS
 10
233.5801085288
 20
58.5779158809
 11
232.8827242747
 21
60.7777303523
  0
LINE
  5
333
100
AcDbEntity
  8
0
100
AcDbLine
 62
7
  6
CONTINUOUS
 10
244.017702632
 20
143.1127004114
 11
244.4609506917
 21
144.1321307739
  0
LINE
  5
334
100
AcDbEntity
  8
ASSI
100
AcDbLine
 62
7
  6
CONTINUOUS
 10
244.017702632
 20
143.1127004114
 11
244.4609506917
 21
144.1321307739
  0
LINE
  5
335
100
AcDbEntity
  8
0
100
AcDbLine
 62
7
  6
CONTINUOUS
 10
244.017702632
 20
55.5701624918
 11
244.4609506917
 21
54.5507321293
  0
LINE
  5
336
100
AcDbEntity
  8
ASSI
100
AcDbLine
 62
7
  6
CONTINUOUS
 10
244.017702632
 20
55.5701624918
 11
244.4609506917
 21
54.5507321293
  0
LWPOLYLINE
  5
337
100
AcDbEntity
  8
CURVE
100
AcDbPolyline
 62
250
  6
CONTINUOUS
 90
6
 70
0
 10
240.7755025118
 20
59.2449714268
 10
240.7830769544
 20
59.2241950075
 10
240.7902858266
 20
59.2032900676
 10
240.7971926684
 20
59.1822794732
 10
240.8038610197
 20
59.1611860905
 10
240.8103544205
 20
59.1400327854
  0
LINE
  5
338
100
AcDbEntity
  8
CURVE
100
AcDbLine
 62
250
  6
CONTINUOUS
 10
239.0059735202
 20
60.7777303523
 11
239.6809313943
 21
58.5779158809
  0
LINE
  5
339
100
AcDbEntity
  8
CURVE
100
AcDbLine
 62
250
  6
CONTINUOUS
 10
233.3815438711
 20
60.7777303523
 11
233.8008690902
 21
59.2635301355
  0
LWPOLYLINE
  5
33A
100
AcDbEntity
  8
0
100
AcDbPolyline
 62
7
  6
CONTINUOUS
 90
8
 70
0
 43
0.3500000006
 10
176.3909719849
 20
155.0914319458
 10
177.2481099243
 20
155.0914319458
 10
177.676678894
 20
155.5200009155
 10
177.676678894
 20
156.377138855
 10
177.2481099243
 20
156.8057259521
 10
176.3909719849
 20
156.8057259521
 10
176.3909719849
 20
158.0914328613
 10
177.676678894
 20
158.0914328613
  0
LWPOLYLINE
  5
33B
100
AcDbEntity
  8
0
100
AcDbPolyline
 62
7
  6
CONTINUOUS
 90
3
 70
0
 43
0.3500000006
 10
173.8195400391
 20
155.7342854004
 10
172.3195305176
 20
155.7342854004
 10
172.9624020996
 20
158.0914328613
  0
LWPOLYLINE
  5
33C
100
AcDbEntity
  8
0
100
AcDbPolyline
 62
7
  6
CONTINUOUS
 90
3
 70
0
 43
0.3500000006
 10
171.4623925781
 20
155.7342854004
 10
169.9624011841
 20
155.7342854004
 10
170.6052546387
 20
158.0914328613
  0
LWPOLYLINE
  5
33D
100
AcDbEntity
  8
0
100
AcDbPolyline
 62
7
  6
CONTINUOUS
 90
10
 70
0
 43
0.3500000006
 10
254.89096875
 20
97.4128591003
 10
254.0338308105
 20
98.2700061035
 10
253.1766747437
 20
98.4842905884
 10
252.3195368042
 20
98.4842905884
 10
251.8909678345
 20
98.0557216187
 10
251.8909678345
 20
97.4128591003
 10
252.3195368042
 20
96.9842901306
 10
253.1766747437
 20
96.9842901306
 10
253.6052437134
 20
97.4128591003
 10
253.6052437134
 20
98.3414282227
  0
LINE
  5
33E
100
AcDbEntity
  8
CURVE
100
AcDbLine
 62
250
  6
CONTINUOUS
 10
240.8103544205
 20
59.1400327854
 11
240.8902932307
 21
58.8731269474
  0
LWPOLYLINE
  5
33F
100
AcDbEntity
  8
CURVE
100
AcDbPolyline
 62
250
  6
CONTINUOUS
 90
3
 70
0
 10
240.8902932307
 20
58.8731269474
 10
240.9503184417
 20
58.6677742716
 10
240.9762939943
 20
58.5779154642
  0
LWPOLYLINE
  5
340
100
AcDbEntity
  8
CURVE
100
AcDbPolyline
 62
250
  6
CONTINUOUS
 90
38
 70
0
 10
241.243811904
 20
59.2357601217
 10
241.2393571
 20
59.2513469087
 10
241.2347930041
 20
59.2669016389
 10
241.2300964497
 20
59.2824133311
 10
241.22524427
 20
59.2978710042
 10
241.2202132983
 20
59.3132636772
 10
241.2149803679
 20
59.3285803687
 10
241.2095223122
 20
59.3438100978
 10
241.2038159642
 20
59.3589418833
 10
241.1978381575
 20
59.373964744
 10
241.1915657252
 20
59.3888676988
 10
241.1849755006
 20
59.4036397665
 10
241.1780443171
 20
59.4182699661
 10
241.1730815906
 20
59.4282138271
 10
241.1679380271
 20
59.4380725974
 10
241.1626040382
 20
59.4478330712
 10
241.1570700352
 20
59.4574820429
 10
241.1513264295
 20
59.4670063067
 10
241.1453636327
 20
59.476392657
 10
241.139172056
 20
59.4856278879
 10
241.132742111
 20
59.4946987939
 10
241.126064209
 20
59.5035921691
 10
241.1191287614
 20
59.512294808
 10
241.1119261797
 20
59.5207935047
 10
241.1044468753
 20
59.5290750536
 10
241.0973480118
 20
59.5364577994
 10
241.0900169084
 20
59.5436329919
 10
241.0824615142
 20
59.5505863235
 10
241.0746897781
 20
59.5573034863
 10
241.0667096492
 20
59.5637701725
 10
241.0585290764
 20
59.5699720744
 10
241.0501560088
 20
59.5758948841
 10
241.0415983953
 20
59.5815242939
 10
241.0328641849
 20
59.5868459961
 10
241.0239613267
 20
59.5918456828
 10
241.0148977696
 20
59.5965090462
 10
241.0056814626
 20
59.6008217785
 10
240.9963203548
 20
59.6047695721
  0
LINE
  5
341
100
AcDbEntity
  8
CURVE
100
AcDbLine
 62
250
  6
CONTINUOUS
 10
241.2524863033
 20
59.2045343018
 11
241.243811904
 21
59.2357601217
  0
LINE
  5
342
100
AcDbEntity
  8
CURVE
100
AcDbLine
 62
250
  6
CONTINUOUS
 10
239.1969670354
 20
58.5779158809
 11
239.0780130408
 21
59.0170767181
  0
LINE
  5
343
100
AcDbEntity
  8
CURVE
100
AcDbLine
 62
250
  6
CONTINUOUS
 10
241.2824480825
 20
59.0938532829
 11
241.2524863033
 21
59.2045343018
  0
LINE
  5
344
100
AcDbEntity
  8
CURVE
100
AcDbLine
 62
250
  6
CONTINUOUS
 10
241.4179791687
 20
58.5779154642
 11
241.3970290151
 21
58.6564528468
  0
LINE
  5
345
100
AcDbEntity
  8
CURVE
100
AcDbLine
 62
250
  6
CONTINUOUS
 10
241.324482101
 20
58.9347058573
 11
241.2824480825
 21
59.0938532829
  0
LINE
  5
346
100
AcDbEntity
  8
CURVE
100
AcDbLine
 62
250
  6
CONTINUOUS
 10
241.3970290151
 20
58.6564528468
 11
241.324482101
 21
58.9347058573
  0
LINE
  5
347
100
AcDbEntity
  8
CURVE
100
AcDbLine
 62
250
  6
CONTINUOUS
 10
238.9862447592
 20
59.3568981312
 11
238.7752417212
 21
60.173277237
  0
LINE
  5
348
100
AcDbEntity
  8
CURVE
100
AcDbLine
 62
250
  6
CONTINUOUS
 10
237.5939507273
 20
60.7777303523
 11
237.7996580512
 21
58.5779158809
  0
LINE
  5
349
100
AcDbEntity
  8
CURVE
100
AcDbLine
 62
250
  6
CONTINUOUS
 10
237.3504505479
 20
58.5779158809
 11
237.2561093141
 21
60.0083652445
  0
LINE
  5
34A
100
AcDbEntity
  8
CURVE
100
AcDbLine
 62
250
  6
CONTINUOUS
 10
234.8622820895
 20
60.7778623523
 11
234.8622820895
 21
58.5779158809
  0
LINE
  5
34B
100
AcDbEntity
  8
CURVE
100
AcDbLine
 62
250
  6
CONTINUOUS
 10
235.3214702591
 20
58.5779158809
 11
235.3214702591
 21
60.7778623523
  0
LWPOLYLINE
  5
34C
100
AcDbEntity
  8
CURVE
100
AcDbPolyline
 62
250
  6
CONTINUOUS
 90
58
 70
0
 10
240.877003497
 20
60.1409283597
 10
240.877072674
 20
60.1307294621
 10
240.8769584407
 20
60.1205011242
 10
240.8766494179
 20
60.1102542509
 10
240.876134226
 20
60.0999997466
 10
240.8754014856
 20
60.0897485161
 10
240.8744398171
 20
60.0795114638
 10
240.8732378413
 20
60.0692994945
 10
240.8717841785
 20
60.0591235127
 10
240.8700674493
 20
60.0489944231
 10
240.8680762744
 20
60.0389231302
 10
240.8657992741
 20
60.0289205387
 10
240.8632250691
 20
60.0189975532
 10
240.8603422799
 20
60.0091650783
 10
240.8571395271
 20
59.9994340186
 10
240.8536054312
 20
59.9898152788
 10
240.8497286127
 20
59.9803197634
 10
240.8458712695
 20
59.9717436053
 10
240.8417233983
 20
59.9632915325
 10
240.8372913204
 20
59.9549751875
 10
240.8325813576
 20
59.9468062131
 10
240.8275998312
 20
59.9387962518
 10
240.822353063
 20
59.9309569463
 10
240.8168473743
 20
59.9232999391
 10
240.8110890869
 20
59.9158368729
 10
240.8050845221
 20
59.9085793904
 10
240.7988400017
 20
59.9015391341
 10
240.792361847
 20
59.8947277466
 10
240.7856563797
 20
59.8881568706
 10
240.7787299214
 20
59.8818381488
 10
240.7715887935
 20
59.8757832236
 10
240.7639133633
 20
59.8697538899
 10
240.7560218107
 20
59.8640187771
 10
240.747925012
 20
59.8585720101
 10
240.7396338437
 20
59.8534077138
 10
240.731159182
 20
59.8485200132
 10
240.7225119035
 20
59.843903033
 10
240.7137028845
 20
59.8395508982
 10
240.7047430013
 20
59.8354577337
 10
240.6956431305
 20
59.8316176643
 10
240.6864141482
 20
59.828024815
 10
240.677066931
 20
59.8246733106
 10
240.6676123553
 20
59.821557276
 10
240.6580612973
 20
59.8186708361
 10
240.6484246336
 20
59.8160081158
 10
240.6387132405
 20
59.8135632399
 10
240.6289379943
 20
59.8113303334
 10
240.6191097715
 20
59.8093035211
 10
240.6092394484
 20
59.807476928
 10
240.5993379015
 20
59.8058446788
 10
240.5894160071
 20
59.8044008986
 10
240.5794846415
 20
59.8031397121
 10
240.5695546813
 20
59.8020552444
 10
240.5596370028
 20
59.8011416201
 10
240.5497424824
 20
59.8003929643
 10
240.5398819964
 20
59.7998034019
 10
240.5300664212
 20
59.7993670576
 10
240.5203066333
 20
59.7990780565
  0
LINE
  5
34D
100
AcDbEntity
  8
CURVE
100
AcDbLine
 62
250
  6
CONTINUOUS
 10
239.8157713535
 20
60.7520292855
 11
239.8157713535
 21
58.5779154642
  0
LINE
  5
34E
100
AcDbEntity
  8
CURVE
100
AcDbLine
 62
250
  6
CONTINUOUS
 10
240.2578854286
 20
59.7990780565
 11
240.2578854286
 21
60.4029701523
  0
LINE
  5
34F
100
AcDbEntity
  8
CURVE
100
AcDbLine
 62
250
  6
CONTINUOUS
 10
240.2731114012
 20
58.5779154642
 11
240.2731114012
 21
59.438801522
  0
LINE
  5
350
100
AcDbEntity
  8
CURVE
100
AcDbLine
 62
250
  6
CONTINUOUS
 10
240.9963203548
 20
59.6047695721
 11
240.9963203548
 21
59.6177685606
  0
LINE
  5
351
100
AcDbEntity
  8
CURVE
100
AcDbLine
 62
250
  6
CONTINUOUS
 10
236.1070514615
 20
60.0143534347
 11
236.0079582279
 21
58.5779158809
  0
LINE
  5
352
100
AcDbEntity
  8
CURVE
100
AcDbLine
 62
250
  6
CONTINUOUS
 10
235.5686653908
 20
58.5779158809
 11
235.7672960484
 21
60.7777303523
  0
LINE
  5
353
100
AcDbEntity
  8
0
100
AcDbLine
 62
7
  6
CONTINUOUS
 10
244.4122341816
 20
55.9646940414
 11
244.4122341816
 21
142.7181688618
  0
LINE
  5
354
100
AcDbEntity
  8
ASSI
100
AcDbLine
 62
7
  6
CONTINUOUS
 10
244.4122341816
 20
55.9646940414
 11
244.4122341816
 21
142.7181688618
  0
LINE
  5
355
100
AcDbEntity
  8
0
100
AcDbLine
 62
7
  6
CONTINUOUS
 10
245.4471336783
 20
55.5358717972
 11
245.4471336783
 21
143.146991106
  0
LINE
  5
356
100
AcDbEntity
  8
ASSI
100
AcDbLine
 62
7
  6
CONTINUOUS
 10
245.4471336783
 20
55.5358717972
 11
245.4471336783
 21
143.146991106
  0
LINE
  5
357
100
AcDbEntity
  8
0
100
AcDbLine
 62
7
  6
CONTINUOUS
 10
245.6409652218
 20
55.3420402537
 11
245.6409652218
 21
143.3408226495
  0
LINE
  5
358
100
AcDbEntity
  8
ASSI
100
AcDbLine
 62
7
  6
CONTINUOUS
 10
245.6409652218
 20
55.3420402537
 11
245.6409652218
 21
143.3408226495
  0
LINE
  5
359
100
AcDbEntity
  8
CURVE
100
AcDbLine
 62
250
  6
CONTINUOUS
 10
238.7752417212
 20
60.173277237
 11
238.5466051602
 21
59.3568981312
  0
LINE
  5
35A
100
AcDbEntity
  8
CURVE
100
AcDbLine
 62
250
  6
CONTINUOUS
 10
233.8008690902
 20
59.2635301355
 11
234.2330024991
 21
60.7777303523
  0
LINE
  5
35B
100
AcDbEntity
  8
CURVE
100
AcDbLine
 62
250
  6
CONTINUOUS
 10
238.4526756406
 20
59.0170767181
 11
238.3259682178
 21
58.5779158809
  0
LINE
  5
35C
100
AcDbEntity
  8
CURVE
100
AcDbLine
 62
250
  6
CONTINUOUS
 10
237.8717625242
 20
58.5779158809
 11
238.5617652547
 21
60.7777303523
  0
LINE
  5
35D
100
AcDbEntity
  8
CURVE
100
AcDbLine
 62
250
  6
CONTINUOUS
 10
234.6918774306
 20
60.7777303523
 11
233.9847681294
 21
58.5779158809
  0
LINE
  5
35E
100
AcDbEntity
  8
CURVE
100
AcDbLine
 62
250
  6
CONTINUOUS
 10
236.6804416259
 20
59.5563867888
 11
237.1396297955
 21
60.7777303523
  0
LINE
  5
35F
100
AcDbEntity
  8
CURVE
100
AcDbLine
 62
250
  6
CONTINUOUS
 10
237.2561093141
 20
60.0083652445
 11
236.7101342912
 21
58.5779158809
  0
LINE
  5
360
100
AcDbEntity
  8
CURVE
100
AcDbLine
 62
7
  6
CONTINUOUS
 10
232.9697910305
 20
60.5030887782
 11
233.2444326047
 21
60.7777303523
  0
LINE
  5
361
100
AcDbEntity
  8
CURVE
100
AcDbLine
 62
7
  6
CONTINUOUS
 10
233.070894323
 20
60.1841706427
 11
233.4428988258
 21
60.5561751454
  0
LINE
  5
362
100
AcDbEntity
  8
CURVE
100
AcDbLine
 62
7
  6
CONTINUOUS
 10
233.1719976156
 20
59.8652525072
 11
233.5339892113
 21
60.2272441029
  0
LINE
  5
363
100
AcDbEntity
  8
CURVE
100
AcDbLine
 62
7
  6
CONTINUOUS
 10
233.2731009081
 20
59.5463343717
 11
233.6250795968
 21
59.8983130604
  0
LINE
  5
364
100
AcDbEntity
  8
CURVE
100
AcDbLine
 62
7
  6
CONTINUOUS
 10
234.1245786982
 20
60.3978121618
 11
234.5044968888
 21
60.7777303523
  0
LINE
  5
365
100
AcDbEntity
  8
CURVE
100
AcDbLine
 62
7
  6
CONTINUOUS
 10
233.3742042006
 20
59.2274162362
 11
233.7161699822
 21
59.5693820178
  0
LINE
  5
366
100
AcDbEntity
  8
CURVE
100
AcDbLine
 62
7
  6
CONTINUOUS
 10
233.956839248
 20
59.8100512835
 11
234.5816731266
 21
60.4348851621
  0
LINE
  5
367
100
AcDbEntity
  8
CURVE
100
AcDbLine
 62
7
  6
CONTINUOUS
 10
234.8622820895
 20
60.7154941251
 11
234.9246503168
 21
60.7778623523
  0
LINE
  5
368
100
AcDbEntity
  8
CURVE
100
AcDbLine
 62
7
  6
CONTINUOUS
 10
233.4753074932
 20
58.9084981007
 11
234.3827047942
 21
59.8158954017
  0
LINE
  5
369
100
AcDbEntity
  8
CURVE
100
AcDbLine
 62
7
  6
CONTINUOUS
 10
234.8622820895
 20
60.2954726971
 11
235.3214702591
 21
60.7546608667
  0
LINE
  5
36A
100
AcDbEntity
  8
CURVE
100
AcDbLine
 62
7
  6
CONTINUOUS
 10
233.5764107857
 20
58.5895799652
 11
234.1837364618
 21
59.1969056413
  0
LINE
  5
36B
100
AcDbEntity
  8
CURVE
100
AcDbLine
 62
7
  6
CONTINUOUS
 10
234.8622820895
 20
59.875451269
 11
235.3214702591
 21
60.3346394386
  0
LINE
  5
36C
100
AcDbEntity
  8
CURVE
100
AcDbLine
 62
7
  6
CONTINUOUS
 10
234.8622820895
 20
59.455429841
 11
235.3214702591
 21
59.9146180106
  0
LINE
  5
36D
100
AcDbEntity
  8
CURVE
100
AcDbLine
 62
7
  6
CONTINUOUS
 10
235.7258776131
 20
60.3190253646
 11
236.1845826009
 21
60.7777303523
  0
LINE
  5
36E
100
AcDbEntity
  8
CURVE
100
AcDbLine
 62
7
  6
CONTINUOUS
 10
234.8622820895
 20
59.035408413
 11
235.3214702591
 21
59.4945965826
  0
LINE
  5
36F
100
AcDbEntity
  8
CURVE
100
AcDbLine
 62
7
  6
CONTINUOUS
 10
235.6841877234
 20
59.8573140468
 11
236.3287289752
 21
60.5018552987
  0
LINE
  5
370
100
AcDbEntity
  8
CURVE
100
AcDbLine
 62
7
  6
CONTINUOUS
 10
234.8622820895
 20
58.615386985
 11
235.3214702591
 21
59.0745751546
  0
LINE
  5
371
100
AcDbEntity
  8
CURVE
100
AcDbLine
 62
7
  6
CONTINUOUS
 10
235.6424978337
 20
59.3956027291
 11
236.095625917
 21
59.8487308125
  0
LINE
  5
372
100
AcDbEntity
  8
CURVE
100
AcDbLine
 62
7
  6
CONTINUOUS
 10
236.1491062583
 20
59.9022111538
 11
236.4426119503
 21
60.1957168458
  0
LINE
  5
373
100
AcDbEntity
  8
CURVE
100
AcDbLine
 62
7
  6
CONTINUOUS
 10
235.2448324135
 20
58.5779158809
 11
235.3214702591
 21
58.6545537265
  0
LINE
  5
374
100
AcDbEntity
  8
CURVE
100
AcDbLine
 62
7
  6
CONTINUOUS
 10
235.600807944
 20
58.9338914114
 11
236.0645035794
 21
59.3975870468
  0
LINE
  5
375
100
AcDbEntity
  8
CURVE
100
AcDbLine
 62
7
  6
CONTINUOUS
 10
236.2636604126
 20
59.59674388
 11
236.5564949254
 21
59.8895783928
  0
LINE
  5
376
100
AcDbEntity
  8
CURVE
100
AcDbLine
 62
7
  6
CONTINUOUS
 10
236.9558611834
 20
60.2889446508
 11
237.4446468849
 21
60.7777303523
  0
LINE
  5
377
100
AcDbEntity
  8
CURVE
100
AcDbLine
 62
7
  6
CONTINUOUS
 10
235.6648538415
 20
58.5779158809
 11
236.0333812417
 21
58.9464432811
  0
LINE
  5
378
100
AcDbEntity
  8
CURVE
100
AcDbLine
 62
7
  6
CONTINUOUS
 10
236.3782145668
 20
59.2912766062
 11
236.6703779005
 21
59.5834399399
  0
LINE
  5
379
100
AcDbEntity
  8
CURVE
100
AcDbLine
 62
7
  6
CONTINUOUS
 10
236.7028040349
 20
59.6158660743
 11
237.6171010434
 21
60.5301630828
  0
LINE
  5
37A
100
AcDbEntity
  8
CURVE
100
AcDbLine
 62
7
  6
CONTINUOUS
 10
236.492768721
 20
58.9858093324
 11
237.0960989178
 21
59.5891395292
  0
LINE
  5
37B
100
AcDbEntity
  8
CURVE
100
AcDbLine
 62
7
  6
CONTINUOUS
 10
237.2721473806
 20
59.7651879919
 11
237.6530190235
 21
60.1460596349
  0
LINE
  5
37C
100
AcDbEntity
  8
CURVE
100
AcDbLine
 62
7
  6
CONTINUOUS
 10
236.6073228752
 20
58.6803420586
 11
236.8368249082
 21
58.9098440915
  0
LINE
  5
37D
100
AcDbEntity
  8
CURVE
100
AcDbLine
 62
7
  6
CONTINUOUS
 10
237.2981347783
 20
59.3711539617
 11
237.6889370036
 21
59.761956187
  0
LINE
  5
37E
100
AcDbEntity
  8
CURVE
100
AcDbLine
 62
7
  6
CONTINUOUS
 10
238.4964371952
 20
60.5694563786
 11
238.704711169
 21
60.7777303523
  0
LINE
  5
37F
100
AcDbEntity
  8
CURVE
100
AcDbLine
 62
7
  6
CONTINUOUS
 10
237.3241221761
 20
58.9771199314
 11
237.7248549837
 21
59.377852739
  0
LINE
  5
380
100
AcDbEntity
  8
CURVE
100
AcDbLine
 62
7
  6
CONTINUOUS
 10
238.3044821823
 20
59.9574799376
 11
239.0338565539
 21
60.6868543092
  0
LINE
  5
381
100
AcDbEntity
  8
CURVE
100
AcDbLine
 62
7
  6
CONTINUOUS
 10
237.3501095738
 20
58.5830859011
 11
237.7607729638
 21
58.9937492911
  0
LINE
  5
382
100
AcDbEntity
  8
CURVE
100
AcDbLine
 62
7
  6
CONTINUOUS
 10
238.1125271694
 20
59.3455034967
 11
238.7110323738
 21
59.9440087011
  0
LINE
  5
383
100
AcDbEntity
  8
CURVE
100
AcDbLine
 62
7
  6
CONTINUOUS
 10
238.8091414638
 20
60.0421177911
 11
239.1324719349
 21
60.3654482622
  0
LINE
  5
384
100
AcDbEntity
  8
CURVE
100
AcDbLine
 62
7
  6
CONTINUOUS
 10
237.7649609816
 20
58.5779158809
 11
237.7966909439
 21
58.6096458432
  0
LINE
  5
385
100
AcDbEntity
  8
CURVE
100
AcDbLine
 62
7
  6
CONTINUOUS
 10
237.9205721565
 20
58.7335270558
 11
238.5476406716
 21
59.3605955708
  0
LINE
  5
386
100
AcDbEntity
  8
CURVE
100
AcDbLine
 62
7
  6
CONTINUOUS
 10
238.8954051758
 20
59.708360075
 11
239.2310873159
 21
60.0440422151
  0
LINE
  5
387
100
AcDbEntity
  8
CURVE
100
AcDbLine
 62
7
  6
CONTINUOUS
 10
239.8157713535
 20
60.6287262528
 11
239.9580472795
 21
60.7710021787
  0
LINE
  5
388
100
AcDbEntity
  8
0
100
AcDbLine
 62
7
  6
CONTINUOUS
 10
244.4609506917
 20
54.5507321293
 11
244.4465248762
 21
54.5352629951
  0
LINE
  5
389
100
AcDbEntity
  8
ASSI
100
AcDbLine
 62
7
  6
CONTINUOUS
 10
244.4609506917
 20
54.5507321293
 11
244.4465248762
 21
54.5352629951
  0
LINE
  5
38A
100
AcDbEntity
  8
CURVE
100
AcDbLine
 62
7
  6
CONTINUOUS
 10
238.1849824097
 20
58.5779158809
 11
238.3831413757
 21
58.776074847
  0
LINE
  5
38B
100
AcDbEntity
  8
CURVE
100
AcDbLine
 62
7
  6
CONTINUOUS
 10
238.6241432468
 20
59.0170767181
 11
238.96396466
 21
59.3568981312
  0
LINE
  5
38C
100
AcDbEntity
  8
CURVE
100
AcDbLine
 62
7
  6
CONTINUOUS
 10
238.9816688878
 20
59.374602359
 11
239.3297026968
 21
59.7226361681
  0
LINE
  5
38D
100
AcDbEntity
  8
CURVE
100
AcDbLine
 62
7
  6
CONTINUOUS
 10
239.8157713535
 20
60.2087048248
 11
240.409357414
 21
60.8022908852
  0
LINE
  5
38E
100
AcDbEntity
  8
CURVE
100
AcDbLine
 62
7
  6
CONTINUOUS
 10
239.0441646749
 20
59.0170767181
 11
239.4283180778
 21
59.4012301211
  0
LINE
  5
38F
100
AcDbEntity
  8
CURVE
100
AcDbLine
 62
7
  6
CONTINUOUS
 10
239.8157713535
 20
59.7886833968
 11
240.2578854286
 21
60.2307974718
  0
LINE
  5
390
100
AcDbEntity
  8
CURVE
100
AcDbLine
 62
7
  6
CONTINUOUS
 10
240.45071836
 20
60.4236304032
 11
240.7973629182
 21
60.7702749615
  0
LINE
  5
391
100
AcDbEntity
  8
CURVE
100
AcDbLine
 62
7
  6
CONTINUOUS
 10
239.1603201678
 20
58.713210783
 11
239.5269334588
 21
59.079824074
  0
LINE
  5
392
100
AcDbEntity
  8
CURVE
100
AcDbLine
 62
7
  6
CONTINUOUS
 10
239.8157713535
 20
59.3686619687
 11
240.2578854286
 21
59.8107760438
  0
LINE
  5
393
100
AcDbEntity
  8
CURVE
100
AcDbLine
 62
7
  6
CONTINUOUS
 10
240.7878249304
 20
60.3407155456
 11
241.0911134721
 21
60.6440040873
  0
LINE
  5
394
100
AcDbEntity
  8
CURVE
100
AcDbLine
 62
7
  6
CONTINUOUS
 10
239.4450466937
 20
58.5779158809
 11
239.6255488398
 21
58.758418027
  0
LINE
  5
395
100
AcDbEntity
  8
CURVE
100
AcDbLine
 62
7
  6
CONTINUOUS
 10
239.8157713535
 20
58.9486405407
 11
240.2731114012
 21
59.4059805884
  0
LINE
  5
396
100
AcDbEntity
  8
CURVE
100
AcDbLine
 62
7
  6
CONTINUOUS
 10
240.3059323349
 20
59.438801522
 11
240.701364487
 21
59.8342336742
  0
LINE
  5
397
100
AcDbEntity
  8
CURVE
100
AcDbLine
 62
7
  6
CONTINUOUS
 10
240.8510329039
 20
59.983902091
 11
241.2657901967
 21
60.3986593839
  0
LINE
  5
398
100
AcDbEntity
  8
CURVE
100
AcDbLine
 62
7
  6
CONTINUOUS
 10
239.8650677051
 20
58.5779154642
 11
240.2731114012
 21
58.9859591603
  0
LINE
  5
399
100
AcDbEntity
  8
CURVE
100
AcDbLine
 62
7
  6
CONTINUOUS
 10
240.6747767419
 20
59.387624501
 11
241.2897642148
 21
60.0026119739
  0
LINE
  5
39A
100
AcDbEntity
  8
CURVE
100
AcDbLine
 62
7
  6
CONTINUOUS
 10
240.8188504358
 20
59.1116767669
 11
241.1597442014
 21
59.4525705325
  0
LINE
  5
39B
100
AcDbEntity
  8
CURVE
100
AcDbLine
 62
7
  6
CONTINUOUS
 10
240.9151803938
 20
58.7879852969
 11
241.269303248
 21
59.1421081511
  0
LINE
  5
39C
100
AcDbEntity
  8
CURVE
100
AcDbLine
 62
7
  6
CONTINUOUS
 10
241.1251319892
 20
58.5779154642
 11
241.3570197214
 21
58.8098031965
  0
LINE
  5
39D
100
AcDbEntity
  8
0
100
AcDbLine
 62
7
  6
CONTINUOUS
 10
244.017702632
 20
55.5701624918
 11
244.4122341816
 21
55.9646940414
  0
LINE
  5
39E
100
AcDbEntity
  8
ASSI
100
AcDbLine
 62
7
  6
CONTINUOUS
 10
244.017702632
 20
55.5701624918
 11
244.4122341816
 21
55.9646940414
  0
LINE
  5
39F
100
AcDbEntity
  8
0
100
AcDbLine
 62
7
  6
CONTINUOUS
 10
244.4609506917
 20
54.5507321293
 11
245.4316645441
 21
55.5214459817
  0
LINE
  5
3A0
100
AcDbEntity
  8
ASSI
100
AcDbLine
 62
7
  6
CONTINUOUS
 10
244.4609506917
 20
54.5507321293
 11
245.4316645441
 21
55.5214459817
  0
LINE
  5
3A1
100
AcDbEntity
  8
0
100
AcDbLine
 62
7
  6
CONTINUOUS
 10
245.6409652218
 20
55.3420402537
 11
244.6403564197
 21
54.3414314516
  0
LINE
  5
3A2
100
AcDbEntity
  8
ASSI
100
AcDbLine
 62
7
  6
CONTINUOUS
 10
245.6409652218
 20
55.3420402537
 11
244.6403564197
 21
54.3414314516
  0
LINE
  5
3A3
100
AcDbEntity
  8
0
100
AcDbLine
 62
7
  6
CONTINUOUS
 10
245.4471336783
 20
55.5358717972
 11
245.4316645441
 21
55.5214459817
  0
LINE
  5
3A4
100
AcDbEntity
  8
ASSI
100
AcDbLine
 62
7
  6
CONTINUOUS
 10
245.4471336783
 20
55.5358717972
 11
245.4316645441
 21
55.5214459817
  0
LINE
  5
3A5
100
AcDbEntity
  8
0
100
AcDbLine
 62
7
  6
CONTINUOUS
 10
245.4316645441
 20
143.1614169215
 11
245.4471336783
 21
143.146991106
  0
LINE
  5
3A6
100
AcDbEntity
  8
ASSI
100
AcDbLine
 62
7
  6
CONTINUOUS
 10
245.4316645441
 20
143.1614169215
 11
245.4471336783
 21
143.146991106
  0
LINE
  5
3A7
100
AcDbEntity
  8
0
100
AcDbLine
 62
7
  6
CONTINUOUS
 10
244.4122341816
 20
142.7181688618
 11
244.017702632
 21
143.1127004114
  0
LINE
  5
3A8
100
AcDbEntity
  8
ASSI
100
AcDbLine
 62
7
  6
CONTINUOUS
 10
244.4122341816
 20
142.7181688618
 11
244.017702632
 21
143.1127004114
  0
LINE
  5
3A9
100
AcDbEntity
  8
0
100
AcDbLine
 62
7
  6
CONTINUOUS
 10
245.4316645441
 20
143.1614169215
 11
244.4609506917
 21
144.1321307739
  0
LINE
  5
3AA
100
AcDbEntity
  8
ASSI
100
AcDbLine
 62
7
  6
CONTINUOUS
 10
245.4316645441
 20
143.1614169215
 11
244.4609506917
 21
144.1321307739
  0
LINE
  5
3AB
100
AcDbEntity
  8
0
100
AcDbLine
 62
7
  6
CONTINUOUS
 10
244.6403564197
 20
144.3414314516
 11
245.6409652218
 21
143.3408226495
  0
LINE
  5
3AC
100
AcDbEntity
  8
ASSI
100
AcDbLine
 62
7
  6
CONTINUOUS
 10
244.6403564197
 20
144.3414314516
 11
245.6409652218
 21
143.3408226495
  0
LINE
  5
3AD
100
AcDbEntity
  8
0
100
AcDbLine
 62
7
  6
CONTINUOUS
 10
244.4465248762
 20
144.1475999081
 11
244.4609506917
 21
144.1321307739
  0
LINE
  5
3AE
100
AcDbEntity
  8
ASSI
100
AcDbLine
 62
7
  6
CONTINUOUS
 10
244.4465248762
 20
144.1475999081
 11
244.4609506917
 21
144.1321307739
  0
LWPOLYLINE
  5
3AF
100
AcDbEntity
  8
0
100
AcDbPolyline
 62
7
  6
CONTINUOUS
 90
3
 70
0
 43
0.3500000006
 10
47.4992032928
 20
165.2342973633
 10
48.3563457642
 20
166.0914353027
 10
48.3563457642
 20
163.0914343872
  0
LWPOLYLINE
  5
3B0
100
AcDbEntity
  8
0
100
AcDbPolyline
 62
7
  6
CONTINUOUS
 90
3
 70
0
 43
0.3500000006
 10
53.284920639
 20
165.2342973633
 10
54.1420631104
 20
166.0914353027
 10
54.1420631104
 20
163.0914343872
  0
LWPOLYLINE
  5
3B1
100
AcDbEntity
  8
0
100
AcDbPolyline
 62
7
  6
CONTINUOUS
 90
3
 70
0
 43
0.3500000006
 10
54.0606980896
 20
157.2342949219
 10
54.9178405609
 20
158.0914328613
 10
54.9178405609
 20
155.0914319458
  0
LINE
  5
3B2
100
AcDbEntity
  8
0
100
AcDbLine
 62
7
  6
CONTINUOUS
 10
60.3879114923
 20
54.5352629951
 11
65.9385206653
 21
54.3414314516
  0
LINE
  5
3B3
100
AcDbEntity
  8
ASSI
100
AcDbLine
 62
7
  6
CONTINUOUS
 10
60.3879114923
 20
54.5352629951
 11
65.9385206653
 21
54.3414314516
  0
LINE
  5
3B4
100
AcDbEntity
  8
0
100
AcDbLine
 62
7
  6
CONTINUOUS
 10
60.3879114923
 20
55.5358717972
 11
65.9385206653
 21
55.3420402537
  0
LINE
  5
3B5
100
AcDbEntity
  8
ASSI
100
AcDbLine
 62
7
  6
CONTINUOUS
 10
60.3879114923
 20
55.5358717972
 11
65.9385206653
 21
55.3420402537
  0
LINE
  5
3B6
100
AcDbEntity
  8
0
100
AcDbLine
 62
7
  6
CONTINUOUS
 10
65.9385206653
 20
56.5833875388
 11
66.5385206653
 21
56.5414314516
  0
LINE
  5
3B7
100
AcDbEntity
  8
0
100
AcDbLine
 62
7
  6
CONTINUOUS
 10
59.3885206653
 20
142.7181688618
 11
60.3729731231
 21
143.1614169215
  0
LINE
  5
3B8
100
AcDbEntity
  8
ASSI
100
AcDbLine
 62
7
  6
CONTINUOUS
 10
59.3885206653
 20
142.7181688618
 11
60.3729731231
 21
143.1614169215
  0
LINE
  5
3B9
100
AcDbEntity
  8
0
100
AcDbLine
 62
250
  6
CONTINUOUS
 10
65.9385206653
 20
58.1794900192
 11
66.5385206653
 21
58.137533932
  0
LINE
  5
3BA
100
AcDbEntity
  8
0
100
AcDbLine
 62
7
  6
CONTINUOUS
 10
59.3885206653
 20
55.9646940414
 11
60.3729731231
 21
55.5214459817
  0
LINE
  5
3BB
100
AcDbEntity
  8
ASSI
100
AcDbLine
 62
7
  6
CONTINUOUS
 10
59.3885206653
 20
55.9646940414
 11
60.3729731231
 21
55.5214459817
  0
LINE
  5
3BC
100
AcDbEntity
  8
0
100
AcDbLine
 62
7
  6
CONTINUOUS
 10
59.3885206653
 20
143.1127004114
 11
60.3879114923
 21
144.1475999081
  0
LINE
  5
3BD
100
AcDbEntity
  8
ASSI
100
AcDbLine
 62
7
  6
CONTINUOUS
 10
59.3885206653
 20
143.1127004114
 11
60.3879114923
 21
144.1475999081
  0
LINE
  5
3BE
100
AcDbEntity
  8
0
100
AcDbLine
 62
7
  6
CONTINUOUS
 10
59.3885206653
 20
55.5701624918
 11
60.3879114923
 21
54.5352629951
  0
LINE
  5
3BF
100
AcDbEntity
  8
ASSI
100
AcDbLine
 62
7
  6
CONTINUOUS
 10
59.3885206653
 20
55.5701624918
 11
60.3879114923
 21
54.5352629951
  0
LWPOLYLINE
  5
3C0
100
AcDbEntity
  8
0
100
AcDbPolyline
 62
7
  6
CONTINUOUS
 90
3
 70
0
 43
0.3500000006
 10
52.2849203339
 20
163.3771409912
 10
52.213489151
 20
163.1628565063
 10
52.070635849
 20
162.8771499023
  0
LWPOLYLINE
  5
3C1
100
AcDbEntity
  8
0
100
AcDbPolyline
 62
7
  6
CONTINUOUS
 90
3
 70
0
 43
0.3500000006
 10
53.0606977844
 20
155.3771385498
 10
52.9892711334
 20
155.1628540649
 10
52.8464132996
 20
154.8771474609
  0
LINE
  5
3C2
100
AcDbEntity
  8
0
100
AcDbLine
 62
7
  6
CONTINUOUS
 10
67.5385206653
 20
72.1914314516
 11
66.5385206653
 21
72.1896861206
  0
LINE
  5
3C3
100
AcDbEntity
  8
0
100
AcDbLine
 62
250
  6
CONTINUOUS
 10
67.4642932491
 20
72.4137522077
 11
66.5385206653
 21
72.4133340132
  0
LINE
  5
3C4
100
AcDbEntity
  8
0
100
AcDbLine
 62
7
  6
CONTINUOUS
 10
68.9885698975
 20
72.9998675913
 11
66.5385206653
 21
72.9856136218
  0
LINE
  5
3C5
100
AcDbEntity
  8
0
100
AcDbLine
 62
250
  6
CONTINUOUS
 10
68.9885698975
 20
73.0877340699
 11
66.5385206653
 21
73.0734801004
  0
LINE
  5
3C6
100
AcDbEntity
  8
0
100
AcDbLine
 62
7
  6
CONTINUOUS
 10
69.5385206653
 20
73.1890702449
 11
69.4179578983
 21
73.1890702449
  0
LINE
  5
3C7
100
AcDbEntity
  8
0
100
AcDbLine
 62
7
  6
CONTINUOUS
 10
67.4886450442
 20
74.1414314516
 11
66.5385206653
 21
74.1414314516
  0
LINE
  5
3C8
100
AcDbEntity
  8
0
100
AcDbLine
 62
7
  6
CONTINUOUS
 10
66.5385206653
 20
74.2914314516
 11
66.6885206653
 21
74.2914314516
  0
LINE
  5
3C9
100
AcDbEntity
  8
0
100
AcDbLine
 62
7
  6
CONTINUOUS
 10
66.9885206653
 20
74.2914314516
 11
67.1885206653
 21
74.2914314516
  0
LINE
  5
3CA
100
AcDbEntity
  8
0
100
AcDbLine
 62
7
  6
CONTINUOUS
 10
69.0404871783
 20
73.9912348003
 11
69.5385016272
 21
73.9868886941
  0
LINE
  5
3CB
100
AcDbEntity
  8
0
100
AcDbLine
 62
7
  6
CONTINUOUS
 10
66.5385206653
 20
73.5856115771
 11
69.3489878566
 21
73.461444784
  0
LINE
  5
3CC
100
AcDbEntity
  8
0
100
AcDbLine
 62
7
  6
CONTINUOUS
 10
67.5881487632
 20
74.1364686418
 11
69.5385206653
 21
73.9414314516
  0
LWPOLYLINE
  5
3CD
100
AcDbEntity
  8
0
100
AcDbPolyline
 62
250
  6
CONTINUOUS
 90
4
 70
0
 10
69.0282000807
 20
125.6273651977
 10
69.0151222688
 20
125.6178999964
 10
69.0018877923
 20
125.6071346857
 10
68.9885698975
 20
125.5951288333
  0
LWPOLYLINE
  5
3CE
100
AcDbEntity
  8
0
100
AcDbPolyline
 62
250
  6
CONTINUOUS
 90
4
 70
0
 10
69.0282033975
 20
73.0554954568
 10
69.015126297
 20
73.0649598098
 10
69.001890725
 20
73.0757257026
 10
68.9885698975
 20
73.0877340699
  0
LWPOLYLINE
  5
3CF
100
AcDbEntity
  8
0
100
AcDbPolyline
 62
7
  6
CONTINUOUS
 90
13
 70
0
 43
0.3500000006
 10
49.2134927673
 20
163.9485723267
 10
49.2134927673
 20
165.2342973633
 10
49.4277772522
 20
165.662866333
 10
49.8563462219
 20
166.0914353027
 10
50.0706352386
 20
166.0914353027
 10
50.4992042084
 20
165.662866333
 10
50.7134886932
 20
165.2342973633
 10
50.7134886932
 20
163.9485723267
 10
50.4992042084
 20
163.5200033569
 10
50.0706352386
 20
163.0914343872
 10
49.8563462219
 20
163.0914343872
 10
49.4277772522
 20
163.5200033569
 10
49.2134927673
 20
163.9485723267
  0
LINE
  5
3D0
100
AcDbEntity
  8
0
100
AcDbLine
 62
7
  6
CONTINUOUS
 10
66.6885206653
 20
124.3914314516
 11
66.8385206653
 21
124.5414314516
  0
LINE
  5
3D1
100
AcDbEntity
  8
0
100
AcDbLine
 62
7
  6
CONTINUOUS
 10
67.1885206653
 20
124.3914314516
 11
67.3385206653
 21
124.5414314516
  0
LINE
  5
3D2
100
AcDbEntity
  8
0
100
AcDbLine
 62
7
  6
CONTINUOUS
 10
66.6885206653
 20
74.2914314516
 11
66.8385206653
 21
74.1414314516
  0
LINE
  5
3D3
100
AcDbEntity
  8
0
100
AcDbLine
 62
7
  6
CONTINUOUS
 10
67.1885206653
 20
74.2914314516
 11
67.3385206653
 21
74.1414314516
  0
LWPOLYLINE
  5
3D4
100
AcDbEntity
  8
0
100
AcDbPolyline
 62
7
  6
CONTINUOUS
 90
4
 70
0
 43
0.3500000006
 10
49.9892702179
 20
157.4485794067
 10
49.9892702179
 20
158.0914328613
 10
51.4892706757
 20
158.0914328613
 10
50.6321282043
 20
155.0914319458
  0
LWPOLYLINE
  5
3D5
100
AcDbEntity
  8
0
100
AcDbPolyline
 62
250
  6
CONTINUOUS
 90
9
 70
0
 10
67.5580009408
 20
72.2674202116
 10
67.5653680157
 20
72.2580629131
 10
67.5725249991
 20
72.2495079504
 10
67.5793982356
 20
72.2419212434
 10
67.5858371993
 20
72.2355525839
 10
67.5916690159
 20
72.2306490994
 10
67.5967733818
 20
72.2273887536
 10
67.6010620785
 20
72.2259237574
 10
67.604426899
 20
72.2264156555
  0
LWPOLYLINE
  5
3D6
100
AcDbEntity
  8
0
100
AcDbPolyline
 62
250
  6
CONTINUOUS
 90
19
 70
0
 10
67.4642932491
 20
126.2691106955
 10
67.47276578
 20
126.2838154182
 10
67.4813234704
 20
126.2984161794
 10
67.4899341997
 20
126.3128462397
 10
67.4985038767
 20
126.3269436572
 10
67.5070570274
 20
126.3407343157
 10
67.515727059
 20
126.3543963266
 10
67.5244668993
 20
126.367818057
 10
67.5332084693
 20
126.3808654114
 10
67.5420198184
 20
126.393593613
 10
67.5508501859
 20
126.4058648461
 10
67.559542843
 20
126.4173905675
 10
67.5679741184
 20
126.4279332659
 10
67.5760640062
 20
126.4372996673
 10
67.583605675
 20
126.4451531393
 10
67.590320534
 20
126.4511359007
 10
67.5960709304
 20
126.4550809567
 10
67.6008048682
 20
126.4568927397
 10
67.604426899
 20
126.4564472477
  0
LWPOLYLINE
  5
3D7
100
AcDbEntity
  8
0
100
AcDbPolyline
 62
7
  6
CONTINUOUS
 90
7
 70
0
 10
69.5106617503
 20
73.3648697341
 10
69.5189331374
 20
73.350815453
 10
69.5258447544
 20
73.337732546
 10
69.5313202744
 20
73.325621013
 10
69.5352932458
 20
73.3144808541
 10
69.5377080276
 20
73.3043120692
 10
69.5385206653
 20
73.2951146584
  0
LWPOLYLINE
  5
3D8
100
AcDbEntity
  8
0
100
AcDbPolyline
 62
250
  6
CONTINUOUS
 90
14
 70
0
 10
67.4642932491
 20
72.4137522077
 10
67.4709108806
 20
72.4022286294
 10
67.4776564682
 20
72.3906389914
 10
67.484513775
 20
72.3790222529
 10
67.4914286078
 20
72.3674775264
 10
67.4984175791
 20
72.3559899577
 10
67.5055642667
 20
72.3444465297
 10
67.5128535057
 20
72.3328964461
 10
67.5202374931
 20
72.3214360908
 10
67.5277374057
 20
72.3100596483
 10
67.5353080909
 20
72.2988677028
 10
67.542893859
 20
72.2879768558
 10
67.5504815562
 20
72.2774460953
 10
67.5580009408
 20
72.2674202116
  0
LINE
  5
3D9
100
AcDbEntity
  8
0
100
AcDbLine
 62
7
  6
CONTINUOUS
 10
59.3885206653
 20
55.5701624918
 11
59.3885206653
 21
143.1127004114
  0
LINE
  5
3DA
100
AcDbEntity
  8
ASSI
100
AcDbLine
 62
7
  6
CONTINUOUS
 10
59.3885206653
 20
55.5701624918
 11
59.3885206653
 21
143.1127004114
  0
LINE
  5
3DB
100
AcDbEntity
  8
0
100
AcDbLine
 62
7
  6
CONTINUOUS
 10
60.3729731231
 20
54.5507321293
 11
60.3729731231
 21
55.5214459817
  0
LINE
  5
3DC
100
AcDbEntity
  8
ASSI
100
AcDbLine
 62
7
  6
CONTINUOUS
 10
60.3729731231
 20
54.5507321293
 11
60.3729731231
 21
55.5214459817
  0
LINE
  5
3DD
100
AcDbEntity
  8
0
100
AcDbLine
 62
7
  6
CONTINUOUS
 10
60.3729731231
 20
143.1614169215
 11
60.3729731231
 21
144.1321307739
  0
LINE
  5
3DE
100
AcDbEntity
  8
ASSI
100
AcDbLine
 62
7
  6
CONTINUOUS
 10
60.3729731231
 20
143.1614169215
 11
60.3729731231
 21
144.1321307739
  0
LINE
  5
3DF
100
AcDbEntity
  8
0
100
AcDbLine
 62
7
  6
CONTINUOUS
 10
60.3879114923
 20
55.5358717972
 11
60.3879114923
 21
143.146991106
  0
LINE
  5
3E0
100
AcDbEntity
  8
ASSI
100
AcDbLine
 62
7
  6
CONTINUOUS
 10
60.3879114923
 20
55.5358717972
 11
60.3879114923
 21
143.146991106
  0
LINE
  5
3E1
100
AcDbEntity
  8
0
100
AcDbLine
 62
250
  6
CONTINUOUS
 10
66.7885206653
 20
96.7200249422
 11
66.5385206653
 21
96.7200249422
  0
LINE
  5
3E2
100
AcDbEntity
  8
0
100
AcDbLine
 62
7
  6
CONTINUOUS
 10
65.9385206653
 20
54.3414314516
 11
65.9385206653
 21
144.3414314516
  0
LINE
  5
3E3
100
AcDbEntity
  8
ASSI
100
AcDbLine
 62
7
  6
CONTINUOUS
 10
65.9385206653
 20
54.3414314516
 11
65.9385206653
 21
144.3414314516
  0
LINE
  5
3E4
100
AcDbEntity
  8
0
100
AcDbLine
 62
7
  6
CONTINUOUS
 10
66.5385206653
 20
56.5414314516
 11
66.5385206653
 21
142.1414314516
  0
LINE
  5
3E5
100
AcDbEntity
  8
0
100
AcDbLine
 62
7
  6
CONTINUOUS
 10
66.7885206653
 20
101.962837961
 11
66.7885206653
 21
96.7200249422
  0
LINE
  5
3E6
100
AcDbEntity
  8
0
100
AcDbLine
 62
250
  6
CONTINUOUS
 10
67.4643578077
 20
72.1913020129
 11
67.4642932491
 21
72.4137522077
  0
LINE
  5
3E7
100
AcDbEntity
  8
0
100
AcDbLine
 62
250
  6
CONTINUOUS
 10
67.4642932491
 20
126.2691106955
 11
67.4643578042
 21
126.4904171908
  0
LWPOLYLINE
  5
3E8
100
AcDbEntity
  8
0
100
AcDbPolyline
 62
7
  6
CONTINUOUS
 90
7
 70
0
 10
69.5385206653
 20
125.3877482448
 10
69.537708146
 20
125.3785516773
 10
69.5352936224
 20
125.3683833984
 10
69.5313209039
 20
125.3572434081
 10
69.5258454917
 20
125.3451317065
 10
69.5189337051
 20
125.3320482935
 10
69.5106617503
 20
125.3179931691
  0
LINE
  5
3E9
100
AcDbEntity
  8
0
100
AcDbLine
 62
250
  6
CONTINUOUS
 10
66.7885206653
 20
101.962837961
 11
66.5385206653
 21
101.962837961
  0
LWPOLYLINE
  5
3EA
100
AcDbEntity
  8
0
100
AcDbPolyline
 62
250
  6
CONTINUOUS
 90
3
 70
0
 10
68.988668918
 20
125.6784367375
 10
68.9886262639
 20
125.681853321
 10
68.9885698975
 20
125.682995312
  0
LINE
  5
3EB
100
AcDbEntity
  8
0
100
AcDbLine
 62
250
  6
CONTINUOUS
 10
68.9887118965
 20
125.6649004987
 11
68.988668918
 21
125.6784367375
  0
LINE
  5
3EC
100
AcDbEntity
  8
0
100
AcDbLine
 62
250
  6
CONTINUOUS
 10
68.9887118965
 20
73.0179624045
 11
68.9885698975
 21
73.0877340699
  0
LINE
  5
3ED
100
AcDbEntity
  8
0
100
AcDbLine
 62
250
  6
CONTINUOUS
 10
69.2542214522
 20
124.7130015303
 11
69.2542214522
 21
124.6913116167
  0
LINE
  5
3EE
100
AcDbEntity
  8
0
100
AcDbLine
 62
250
  6
CONTINUOUS
 10
69.2542214522
 20
73.9915512865
 11
69.2542214522
 21
73.9698613729
  0
LINE
  5
3EF
100
AcDbEntity
  8
0
100
AcDbLine
 62
250
  6
CONTINUOUS
 10
69.3489878566
 20
125.2214181193
 11
69.3489878566
 21
124.7224781707
  0
LINE
  5
3F0
100
AcDbEntity
  8
0
100
AcDbLine
 62
250
  6
CONTINUOUS
 10
69.3489878566
 20
73.9603847325
 11
69.3489878566
 21
73.461444784
  0
LINE
  5
3F1
100
AcDbEntity
  8
0
100
AcDbLine
 62
7
  6
CONTINUOUS
 10
69.5385206653
 20
125.4937926584
 11
69.5385206653
 21
124.6937926584
  0
LINE
  5
3F2
100
AcDbEntity
  8
0
100
AcDbLine
 62
7
  6
CONTINUOUS
 10
69.5385206653
 20
73.9890702449
 11
69.5385206653
 21
73.1890702449
  0
LINE
  5
3F3
100
AcDbEntity
  8
0
100
AcDbLine
 62
250
  6
CONTINUOUS
 10
68.9885698975
 20
125.5951288333
 11
68.9887118965
 21
125.6649004987
  0
LWPOLYLINE
  5
3F4
100
AcDbEntity
  8
0
100
AcDbPolyline
 62
250
  6
CONTINUOUS
 90
4
 70
0
 10
68.9885698975
 20
72.9998675913
 10
68.9886262639
 20
73.0010095823
 10
68.988668918
 20
73.0044261657
 10
68.9887118965
 20
73.0179624045
  0
LWPOLYLINE
  5
3F5
100
AcDbEntity
  8
0
100
AcDbPolyline
 62
7
  6
CONTINUOUS
 90
10
 70
0
 43
0.3500000006
 10
52.9892711334
 20
155.5914230347
 10
53.0606977844
 20
155.4485787964
 10
53.0606977844
 20
155.3771385498
 10
52.9178444824
 20
155.2342943115
 10
52.8464132996
 20
155.2342943115
 10
52.7749866486
 20
155.3057164307
 10
52.7749866486
 20
155.3771385498
 10
52.8464132996
 20
155.5200009155
 10
52.9178444824
 20
155.5914230347
 10
52.9892711334
 20
155.5914230347
  0
LWPOLYLINE
  5
3F6
100
AcDbEntity
  8
0
100
AcDbPolyline
 62
7
  6
CONTINUOUS
 90
10
 70
0
 43
0.3500000006
 10
52.213489151
 20
163.5914254761
 10
52.2849203339
 20
163.4485812378
 10
52.2849203339
 20
163.3771409912
 10
52.1420625
 20
163.2342967529
 10
52.070635849
 20
163.2342967529
 10
51.9992046661
 20
163.3057188721
 10
51.9992046661
 20
163.3771409912
 10
52.070635849
 20
163.5200033569
 10
52.1420625
 20
163.5914254761
 10
52.213489151
 20
163.5914254761
  0
LINE
  5
3F7
100
AcDbEntity
  8
0
100
AcDbLine
 62
7
  6
CONTINUOUS
 10
66.8385206653
 20
74.1414314516
 11
66.9885206653
 21
74.2914314516
  0
LINE
  5
3F8
100
AcDbEntity
  8
0
100
AcDbLine
 62
7
  6
CONTINUOUS
 10
66.8385206653
 20
124.5414314516
 11
66.9885206653
 21
124.3914314516
  0
LINE
  5
3F9
100
AcDbEntity
  8
0
100
AcDbLine
 62
250
  6
CONTINUOUS
 10
67.4642932491
 20
72.4137522077
 11
68.5638121089
 21
72.9973964227
  0
LINE
  5
3FA
100
AcDbEntity
  8
0
100
AcDbLine
 62
250
  6
CONTINUOUS
 10
68.9885698975
 20
73.0877340699
 11
69.5106617503
 21
73.3648697341
  0
LINE
  5
3FB
100
AcDbEntity
  8
0
100
AcDbLine
 62
7
  6
CONTINUOUS
 10
67.5385206608
 20
72.1914314492
 11
69.5385206653
 21
73.2530671112
  0
LWPOLYLINE
  5
3FC
100
AcDbEntity
  8
0
100
AcDbPolyline
 62
250
  6
CONTINUOUS
 90
10
 70
0
 10
69.1274818266
 20
73.0348803669
 10
69.1188314693
 20
73.031229555
 10
69.1094532319
 20
73.0290676961
 10
69.0993998088
 20
73.02840513
 10
69.0887295552
 20
73.0292435916
 10
69.0775002971
 20
73.0315765503
 10
69.0657680114
 20
73.0353920135
 10
69.0535947657
 20
73.0406709402
 10
69.0410499479
 20
73.0473843438
 10
69.0282033975
 20
73.0554954568
  0
LINE
  5
3FD
100
AcDbEntity
  8
0
100
AcDbLine
 62
7
  6
CONTINUOUS
 10
67.5881487632
 20
124.5463942614
 11
69.5385206653
 21
124.7414314516
  0
LINE
  5
3FE
100
AcDbEntity
  8
0
100
AcDbLine
 62
7
  6
CONTINUOUS
 10
66.5385206653
 20
125.0972513262
 11
69.3489878566
 21
125.2214181193
  0
LINE
  5
3FF
100
AcDbEntity
  8
0
100
AcDbLine
 62
7
  6
CONTINUOUS
 10
69.016584011
 20
124.6892377862
 11
69.5385206653
 21
124.6937926584
  0
LINE
  5
400
100
AcDbEntity
  8
0
100
AcDbLine
 62
7
  6
CONTINUOUS
 10
66.5385206653
 20
124.3914314516
 11
66.6885206653
 21
124.3914314516
  0
LINE
  5
401
100
AcDbEntity
  8
0
100
AcDbLine
 62
7
  6
CONTINUOUS
 10
66.9885206653
 20
124.3914314516
 11
67.1885206653
 21
124.3914314516
  0
LINE
  5
402
100
AcDbEntity
  8
0
100
AcDbLine
 62
7
  6
CONTINUOUS
 10
66.5385206653
 20
124.5414314516
 11
67.4886450442
 21
124.5414314516
  0
LINE
  5
403
100
AcDbEntity
  8
0
100
AcDbLine
 62
7
  6
CONTINUOUS
 10
69.5385206653
 20
125.4937926584
 11
69.4179578983
 21
125.4937926584
  0
LINE
  5
404
100
AcDbEntity
  8
0
100
AcDbLine
 62
250
  6
CONTINUOUS
 10
67.4642932491
 20
126.2691106955
 11
66.5385206653
 21
126.2695288901
  0
LINE
  5
405
100
AcDbEntity
  8
0
100
AcDbLine
 62
7
  6
CONTINUOUS
 10
67.5385206653
 20
126.4914314516
 11
66.5385206653
 21
126.4931767826
  0
LINE
  5
406
100
AcDbEntity
  8
0
100
AcDbLine
 62
250
  6
CONTINUOUS
 10
68.9885698975
 20
125.5951288333
 11
66.5385206653
 21
125.6093828028
  0
LINE
  5
407
100
AcDbEntity
  8
0
100
AcDbLine
 62
7
  6
CONTINUOUS
 10
68.9885698975
 20
125.682995312
 11
66.5385206653
 21
125.6972492814
  0
LWPOLYLINE
  5
408
100
AcDbEntity
  8
0
100
AcDbPolyline
 62
250
  6
CONTINUOUS
 90
10
 70
0
 10
69.1274818266
 20
125.6479825363
 10
69.1188338711
 20
125.6516325739
 10
69.1094578344
 20
125.6537945381
 10
69.0994062519
 20
125.6544578279
 10
69.0887375461
 20
125.6536204686
 10
69.0775092305
 20
125.6512887445
 10
69.0657764885
 20
125.6474741142
 10
69.0535999575
 20
125.6421944818
 10
69.0410501285
 20
125.6354786649
 10
69.0282000807
 20
125.6273651977
  0
LINE
  5
409
100
AcDbEntity
  8
0
100
AcDbLine
 62
250
  6
CONTINUOUS
 10
68.5638121089
 20
125.6854664805
 11
67.4642932491
 21
126.2691106955
  0
LINE
  5
40A
100
AcDbEntity
  8
0
100
AcDbLine
 62
250
  6
CONTINUOUS
 10
69.5106617503
 20
125.3179931691
 11
68.9885698975
 21
125.5951288333
  0
LINE
  5
40B
100
AcDbEntity
  8
0
100
AcDbLine
 62
7
  6
CONTINUOUS
 10
69.5385206653
 20
125.429795792
 11
67.5385206617
 21
126.4914314535
  0
LINE
  5
40C
100
AcDbEntity
  8
0
100
AcDbLine
 62
7
  6
CONTINUOUS
 10
60.3879114923
 20
55.5358717972
 11
60.3729731231
 21
55.5214459817
  0
LINE
  5
40D
100
AcDbEntity
  8
ASSI
100
AcDbLine
 62
7
  6
CONTINUOUS
 10
60.3879114923
 20
55.5358717972
 11
60.3729731231
 21
55.5214459817
  0
LINE
  5
40E
100
AcDbEntity
  8
0
100
AcDbLine
 62
7
  6
CONTINUOUS
 10
60.3729731231
 20
143.1614169215
 11
60.3879114923
 21
143.146991106
  0
LINE
  5
40F
100
AcDbEntity
  8
ASSI
100
AcDbLine
 62
7
  6
CONTINUOUS
 10
60.3729731231
 20
143.1614169215
 11
60.3879114923
 21
143.146991106
  0
LINE
  5
410
100
AcDbEntity
  8
0
100
AcDbLine
 62
250
  6
CONTINUOUS
 10
65.9385206653
 20
140.503372884
 11
66.5385206653
 21
140.5453289712
  0
LINE
  5
411
100
AcDbEntity
  8
0
100
AcDbLine
 62
7
  6
CONTINUOUS
 10
65.9385206653
 20
142.0994753644
 11
66.5385206653
 21
142.1414314516
  0
LINE
  5
412
100
AcDbEntity
  8
0
100
AcDbLine
 62
7
  6
CONTINUOUS
 10
60.3879114923
 20
143.146991106
 11
65.9385206653
 21
143.3408226495
  0
LINE
  5
413
100
AcDbEntity
  8
ASSI
100
AcDbLine
 62
7
  6
CONTINUOUS
 10
60.3879114923
 20
143.146991106
 11
65.9385206653
 21
143.3408226495
  0
LINE
  5
414
100
AcDbEntity
  8
0
100
AcDbLine
 62
7
  6
CONTINUOUS
 10
60.3879114923
 20
144.1475999081
 11
65.9385206653
 21
144.3414314516
  0
LINE
  5
415
100
AcDbEntity
  8
ASSI
100
AcDbLine
 62
7
  6
CONTINUOUS
 10
60.3879114923
 20
144.1475999081
 11
65.9385206653
 21
144.3414314516
  0
LWPOLYLINE
  5
416
100
AcDbEntity
  8
0
100
AcDbPolyline
 62
7
  6
CONTINUOUS
 90
8
 70
0
 43
0.3500000006
 10
55.7749875641
 20
155.0914319458
 10
56.6321300354
 20
155.0914319458
 10
57.0606990051
 20
155.5200009155
 10
57.0606990051
 20
156.377138855
 10
56.6321300354
 20
156.8057259521
 10
55.7749875641
 20
156.8057259521
 10
55.7749875641
 20
158.0914328613
 10
57.0606990051
 20
158.0914328613
  0
LWPOLYLINE
  5
417
100
AcDbEntity
  8
0
100
AcDbPolyline
 62
7
  6
CONTINUOUS
 90
8
 70
0
 43
0.3500000006
 10
54.9992055817
 20
163.0914343872
 10
55.856348053
 20
163.0914343872
 10
56.2849215546
 20
163.5200033569
 10
56.2849215546
 20
164.3771412964
 10
55.856348053
 20
164.8057102661
 10
54.9992055817
 20
164.8057102661
 10
54.9992055817
 20
166.0914353027
 10
56.2849215546
 20
166.0914353027
  0
ARC
  5
418
100
AcDbEntity
  8
0
100
AcDbCircle
 62
7
  6
CONTINUOUS
 10
168.8409652218
 20
92.6414314516
 40
1.7
100
AcDbArc
 50
270.0
 51
360.0
  0
ARC
  5
419
100
AcDbEntity
  8
0
100
AcDbCircle
 62
7
  6
CONTINUOUS
 10
132.9409652218
 20
92.6414314516
 40
1.7
100
AcDbArc
 50
180.0
 51
270.0
  0
ARC
  5
41A
100
AcDbEntity
  8
0
100
AcDbCircle
 62
7
  6
CONTINUOUS
 10
146.3409652218
 20
92.6414314516
 40
1.7
100
AcDbArc
 50
270.0
 51
360.0
  0
ARC
  5
41B
100
AcDbEntity
  8
0
100
AcDbCircle
 62
7
  6
CONTINUOUS
 10
155.4409652218
 20
92.6414314516
 40
1.7
100
AcDbArc
 50
180.0
 51
270.0
  0
ARC
  5
41C
100
AcDbEntity
  8
ASSI
100
AcDbCircle
 62
7
  6
CONTINUOUS
 10
146.3409652218
 20
92.6414314516
 40
1.7
100
AcDbArc
 50
270.0
 51
360.0
  0
ARC
  5
41D
100
AcDbEntity
  8
ASSI
100
AcDbCircle
 62
7
  6
CONTINUOUS
 10
132.9409652218
 20
92.6414314516
 40
1.7
100
AcDbArc
 50
180.0
 51
270.0
  0
ARC
  5
41E
100
AcDbEntity
  8
ASSI
100
AcDbCircle
 62
7
  6
CONTINUOUS
 10
168.8409652218
 20
92.6414314516
 40
1.7
100
AcDbArc
 50
270.0
 51
360.0
  0
ARC
  5
41F
100
AcDbEntity
  8
ASSI
100
AcDbCircle
 62
7
  6
CONTINUOUS
 10
155.4409652218
 20
92.6414314516
 40
1.7
100
AcDbArc
 50
180.0
 51
270.0
  0
ARC
  5
420
100
AcDbEntity
  8
0
100
AcDbCircle
 62
7
  6
CONTINUOUS
 10
132.9409652218
 20
92.6414314516
 40
1.2
100
AcDbArc
 50
180.0
 51
270.0
  0
ARC
  5
421
100
AcDbEntity
  8
0
100
AcDbCircle
 62
7
  6
CONTINUOUS
 10
146.3409652218
 20
92.6414314516
 40
1.2
100
AcDbArc
 50
270.0
 51
360.0
  0
ARC
  5
422
100
AcDbEntity
  8
0
100
AcDbCircle
 62
7
  6
CONTINUOUS
 10
155.4409652218
 20
92.6414314516
 40
1.2
100
AcDbArc
 50
180.0
 51
270.0
  0
ARC
  5
423
100
AcDbEntity
  8
0
100
AcDbCircle
 62
7
  6
CONTINUOUS
 10
168.8409652218
 20
92.6414314516
 40
1.2
100
AcDbArc
 50
270.0
 51
360.0
  0
ARC
  5
424
100
AcDbEntity
  8
ASSI
100
AcDbCircle
 62
7
  6
CONTINUOUS
 10
132.9409652218
 20
92.6414314516
 40
1.2
100
AcDbArc
 50
180.0
 51
270.0
  0
ARC
  5
425
100
AcDbEntity
  8
ASSI
100
AcDbCircle
 62
7
  6
CONTINUOUS
 10
146.3409652218
 20
92.6414314516
 40
1.2
100
AcDbArc
 50
270.0
 51
360.0
  0
ARC
  5
426
100
AcDbEntity
  8
ASSI
100
AcDbCircle
 62
7
  6
CONTINUOUS
 10
155.4409652218
 20
92.6414314516
 40
1.2
100
AcDbArc
 50
180.0
 51
270.0
  0
ARC
  5
427
100
AcDbEntity
  8
ASSI
100
AcDbCircle
 62
7
  6
CONTINUOUS
 10
168.8409652218
 20
92.6414314516
 40
1.2
100
AcDbArc
 50
270.0
 51
360.0
  0
ARC
  5
428
100
AcDbEntity
  8
0
100
AcDbCircle
 62
7
  6
CONTINUOUS
 10
168.8409652218
 20
106.0414314516
 40
1.7
100
AcDbArc
 50
0.0
 51
90.0
  0
ARC
  5
429
100
AcDbEntity
  8
0
100
AcDbCircle
 62
7
  6
CONTINUOUS
 10
132.9409652218
 20
106.0414314516
 40
1.7
100
AcDbArc
 50
90.0
 51
180.0
  0
ARC
  5
42A
100
AcDbEntity
  8
0
100
AcDbCircle
 62
7
  6
CONTINUOUS
 10
146.3409652218
 20
106.0414314516
 40
1.7
100
AcDbArc
 50
0.0
 51
90.0
  0
ARC
  5
42B
100
AcDbEntity
  8
0
100
AcDbCircle
 62
7
  6
CONTINUOUS
 10
155.4409652218
 20
106.0414314516
 40
1.7
100
AcDbArc
 50
90.0
 51
180.0
  0
ARC
  5
42C
100
AcDbEntity
  8
ASSI
100
AcDbCircle
 62
7
  6
CONTINUOUS
 10
146.3409652218
 20
106.0414314516
 40
1.7
100
AcDbArc
 50
0.0
 51
90.0
  0
ARC
  5
42D
100
AcDbEntity
  8
ASSI
100
AcDbCircle
 62
7
  6
CONTINUOUS
 10
132.9409652218
 20
106.0414314516
 40
1.7
100
AcDbArc
 50
90.0
 51
180.0
  0
ARC
  5
42E
100
AcDbEntity
  8
ASSI
100
AcDbCircle
 62
7
  6
CONTINUOUS
 10
168.8409652218
 20
106.0414314516
 40
1.7
100
AcDbArc
 50
0.0
 51
90.0
  0
ARC
  5
42F
100
AcDbEntity
  8
ASSI
100
AcDbCircle
 62
7
  6
CONTINUOUS
 10
155.4409652218
 20
106.0414314516
 40
1.7
100
AcDbArc
 50
90.0
 51
180.0
  0
ARC
  5
430
100
AcDbEntity
  8
0
100
AcDbCircle
 62
7
  6
CONTINUOUS
 10
132.9409652218
 20
106.0414314516
 40
1.2
100
AcDbArc
 50
90.0
 51
180.0
  0
ARC
  5
431
100
AcDbEntity
  8
0
100
AcDbCircle
 62
7
  6
CONTINUOUS
 10
146.3409652218
 20
106.0414314516
 40
1.2
100
AcDbArc
 50
0.0
 51
90.0
  0
ARC
  5
432
100
AcDbEntity
  8
0
100
AcDbCircle
 62
7
  6
CONTINUOUS
 10
155.4409652218
 20
106.0414314516
 40
1.2
100
AcDbArc
 50
90.0
 51
180.0
  0
ARC
  5
433
100
AcDbEntity
  8
0
100
AcDbCircle
 62
7
  6
CONTINUOUS
 10
168.8409652218
 20
106.0414314516
 40
1.2
100
AcDbArc
 50
0.0
 51
90.0
  0
ARC
  5
434
100
AcDbEntity
  8
ASSI
100
AcDbCircle
 62
7
  6
CONTINUOUS
 10
132.9409652218
 20
106.0414314516
 40
1.2
100
AcDbArc
 50
90.0
 51
180.0
  0
ARC
  5
435
100
AcDbEntity
  8
ASSI
100
AcDbCircle
 62
7
  6
CONTINUOUS
 10
146.3409652218
 20
106.0414314516
 40
1.2
100
AcDbArc
 50
0.0
 51
90.0
  0
ARC
  5
436
100
AcDbEntity
  8
ASSI
100
AcDbCircle
 62
7
  6
CONTINUOUS
 10
155.4409652218
 20
106.0414314516
 40
1.2
100
AcDbArc
 50
90.0
 51
180.0
  0
ARC
  5
437
100
AcDbEntity
  8
ASSI
100
AcDbCircle
 62
7
  6
CONTINUOUS
 10
168.8409652218
 20
106.0414314516
 40
1.2
100
AcDbArc
 50
0.0
 51
90.0
  0
ARC
  5
438
100
AcDbEntity
  8
0
100
AcDbCircle
 62
7
  6
CONTINUOUS
 10
200.4409652218
 20
92.6414314516
 40
1.7
100
AcDbArc
 50
180.0
 51
270.0
  0
ARC
  5
439
100
AcDbEntity
  8
0
100
AcDbCircle
 62
7
  6
CONTINUOUS
 10
213.8409652218
 20
92.6414314516
 40
1.7
100
AcDbArc
 50
270.0
 51
360.0
  0
ARC
  5
43A
100
AcDbEntity
  8
0
100
AcDbCircle
 62
7
  6
CONTINUOUS
 10
177.9409652218
 20
92.6414314516
 40
1.7
100
AcDbArc
 50
180.0
 51
270.0
  0
ARC
  5
43B
100
AcDbEntity
  8
0
100
AcDbCircle
 62
7
  6
CONTINUOUS
 10
191.3409652218
 20
92.6414314516
 40
1.7
100
AcDbArc
 50
270.0
 51
360.0
  0
ARC
  5
43C
100
AcDbEntity
  8
ASSI
100
AcDbCircle
 62
7
  6
CONTINUOUS
 10
191.3409652218
 20
92.6414314516
 40
1.7
100
AcDbArc
 50
270.0
 51
360.0
  0
ARC
  5
43D
100
AcDbEntity
  8
ASSI
100
AcDbCircle
 62
7
  6
CONTINUOUS
 10
177.9409652218
 20
92.6414314516
 40
1.7
100
AcDbArc
 50
180.0
 51
270.0
  0
ARC
  5
43E
100
AcDbEntity
  8
ASSI
100
AcDbCircle
 62
7
  6
CONTINUOUS
 10
213.8409652218
 20
92.6414314516
 40
1.7
100
AcDbArc
 50
270.0
 51
360.0
  0
ARC
  5
43F
100
AcDbEntity
  8
ASSI
100
AcDbCircle
 62
7
  6
CONTINUOUS
 10
200.4409652218
 20
92.6414314516
 40
1.7
100
AcDbArc
 50
180.0
 51
270.0
  0
ARC
  5
440
100
AcDbEntity
  8
0
100
AcDbCircle
 62
7
  6
CONTINUOUS
 10
177.9409652218
 20
92.6414314516
 40
1.2
100
AcDbArc
 50
180.0
 51
270.0
  0
ARC
  5
441
100
AcDbEntity
  8
0
100
AcDbCircle
 62
7
  6
CONTINUOUS
 10
191.3409652218
 20
92.6414314516
 40
1.2
100
AcDbArc
 50
270.0
 51
360.0
  0
ARC
  5
442
100
AcDbEntity
  8
0
100
AcDbCircle
 62
7
  6
CONTINUOUS
 10
200.4409652218
 20
92.6414314516
 40
1.2
100
AcDbArc
 50
180.0
 51
270.0
  0
ARC
  5
443
100
AcDbEntity
  8
0
100
AcDbCircle
 62
7
  6
CONTINUOUS
 10
213.8409652218
 20
92.6414314516
 40
1.2
100
AcDbArc
 50
270.0
 51
360.0
  0
ARC
  5
444
100
AcDbEntity
  8
ASSI
100
AcDbCircle
 62
7
  6
CONTINUOUS
 10
177.9409652218
 20
92.6414314516
 40
1.2
100
AcDbArc
 50
180.0
 51
270.0
  0
ARC
  5
445
100
AcDbEntity
  8
ASSI
100
AcDbCircle
 62
7
  6
CONTINUOUS
 10
191.3409652218
 20
92.6414314516
 40
1.2
100
AcDbArc
 50
270.0
 51
360.0
  0
ARC
  5
446
100
AcDbEntity
  8
ASSI
100
AcDbCircle
 62
7
  6
CONTINUOUS
 10
200.4409652218
 20
92.6414314516
 40
1.2
100
AcDbArc
 50
180.0
 51
270.0
  0
ARC
  5
447
100
AcDbEntity
  8
ASSI
100
AcDbCircle
 62
7
  6
CONTINUOUS
 10
213.8409652218
 20
92.6414314516
 40
1.2
100
AcDbArc
 50
270.0
 51
360.0
  0
ARC
  5
448
100
AcDbEntity
  8
0
100
AcDbCircle
 62
7
  6
CONTINUOUS
 10
200.4409652218
 20
106.0414314516
 40
1.7
100
AcDbArc
 50
90.0
 51
180.0
  0
ARC
  5
449
100
AcDbEntity
  8
0
100
AcDbCircle
 62
7
  6
CONTINUOUS
 10
213.8409652218
 20
106.0414314516
 40
1.7
100
AcDbArc
 50
0.0
 51
90.0
  0
ARC
  5
44A
100
AcDbEntity
  8
0
100
AcDbCircle
 62
7
  6
CONTINUOUS
 10
177.9409652218
 20
106.0414314516
 40
1.7
100
AcDbArc
 50
90.0
 51
180.0
  0
ARC
  5
44B
100
AcDbEntity
  8
0
100
AcDbCircle
 62
7
  6
CONTINUOUS
 10
191.3409652218
 20
106.0414314516
 40
1.7
100
AcDbArc
 50
0.0
 51
90.0
  0
ARC
  5
44C
100
AcDbEntity
  8
ASSI
100
AcDbCircle
 62
7
  6
CONTINUOUS
 10
191.3409652218
 20
106.0414314516
 40
1.7
100
AcDbArc
 50
0.0
 51
90.0
  0
ARC
  5
44D
100
AcDbEntity
  8
ASSI
100
AcDbCircle
 62
7
  6
CONTINUOUS
 10
177.9409652218
 20
106.0414314516
 40
1.7
100
AcDbArc
 50
90.0
 51
180.0
  0
ARC
  5
44E
100
AcDbEntity
  8
ASSI
100
AcDbCircle
 62
7
  6
CONTINUOUS
 10
213.8409652218
 20
106.0414314516
 40
1.7
100
AcDbArc
 50
0.0
 51
90.0
  0
ARC
  5
44F
100
AcDbEntity
  8
ASSI
100
AcDbCircle
 62
7
  6
CONTINUOUS
 10
200.4409652218
 20
106.0414314516
 40
1.7
100
AcDbArc
 50
90.0
 51
180.0
  0
ARC
  5
450
100
AcDbEntity
  8
0
100
AcDbCircle
 62
7
  6
CONTINUOUS
 10
177.9409652218
 20
106.0414314516
 40
1.2
100
AcDbArc
 50
90.0
 51
180.0
  0
ARC
  5
451
100
AcDbEntity
  8
0
100
AcDbCircle
 62
7
  6
CONTINUOUS
 10
191.3409652218
 20
106.0414314516
 40
1.2
100
AcDbArc
 50
0.0
 51
90.0
  0
ARC
  5
452
100
AcDbEntity
  8
0
100
AcDbCircle
 62
7
  6
CONTINUOUS
 10
200.4409652218
 20
106.0414314516
 40
1.2
100
AcDbArc
 50
90.0
 51
180.0
  0
ARC
  5
453
100
AcDbEntity
  8
0
100
AcDbCircle
 62
7
  6
CONTINUOUS
 10
213.8409652218
 20
106.0414314516
 40
1.2
100
AcDbArc
 50
0.0
 51
90.0
  0
ARC
  5
454
100
AcDbEntity
  8
ASSI
100
AcDbCircle
 62
7
  6
CONTINUOUS
 10
177.9409652218
 20
106.0414314516
 40
1.2
100
AcDbArc
 50
90.0
 51
180.0
  0
ARC
  5
455
100
AcDbEntity
  8
ASSI
100
AcDbCircle
 62
7
  6
CONTINUOUS
 10
191.3409652218
 20
106.0414314516
 40
1.2
100
AcDbArc
 50
0.0
 51
90.0
  0
ARC
  5
456
100
AcDbEntity
  8
ASSI
100
AcDbCircle
 62
7
  6
CONTINUOUS
 10
200.4409652218
 20
106.0414314516
 40
1.2
100
AcDbArc
 50
90.0
 51
180.0
  0
ARC
  5
457
100
AcDbEntity
  8
ASSI
100
AcDbCircle
 62
7
  6
CONTINUOUS
 10
213.8409652218
 20
106.0414314516
 40
1.2
100
AcDbArc
 50
0.0
 51
90.0
  0
ARC
  5
458
100
AcDbEntity
  8
0
100
AcDbCircle
 62
7
  6
CONTINUOUS
 10
67.4886450442
 20
73.1414314516
 40
1.0
100
AcDbArc
 50
84.2894068625
 51
90.0
  0
ARC
  5
459
100
AcDbEntity
  8
0
100
AcDbCircle
 62
7
  6
CONTINUOUS
 10
67.4886450442
 20
125.5414314516
 40
1.0
100
AcDbArc
 50
270.0
 51
275.7105931375
  0
ARC
  5
45A
100
AcDbEntity
  8
0
100
AcDbCircle
 62
7
  6
CONTINUOUS
 10
67.4638339902
 20
72.4914319556
 40
0.3
100
AcDbArc
 50
270.1000001427
 51
297.9489685197
  0
ARC
  5
45B
100
AcDbEntity
  8
0
100
AcDbCircle
 62
7
  6
CONTINUOUS
 10
67.4638339902
 20
126.1914309476
 40
0.3
100
AcDbArc
 50
62.0510314803
 51
89.8999998573
  0
ARC
  5
45C
100
AcDbEntity
  8
0
100
AcDbCircle
 62
7
  6
CONTINUOUS
 10
66.4885206653
 20
101.962837961
 40
0.3
100
AcDbArc
 50
0.0
 51
80.4016345752
  0
ARC
  5
45D
100
AcDbEntity
  8
0
100
AcDbCircle
 62
7
  6
CONTINUOUS
 10
66.4885206653
 20
96.7200249422
 40
0.3
100
AcDbArc
 50
279.5989113415
 51
360.0
  0
ARC
  5
45E
100
AcDbEntity
  8
0
100
AcDbCircle
 62
7
  6
CONTINUOUS
 10
68.9868245781
 20
73.2998625143
 40
0.3
100
AcDbArc
 50
270.3333333333
 51
297.9601595792
  0
ARC
  5
45F
100
AcDbEntity
  8
0
100
AcDbCircle
 62
7
  6
CONTINUOUS
 10
68.9868245781
 20
125.3830003889
 40
0.3
100
AcDbArc
 50
62.0398404207
 51
89.6666666667
  0
ELLIPSE
  5
460
100
AcDbEntity
  8
0
100
AcDbEllipse
 62
7
  6
CONTINUOUS
 10
69.3385206653
 20
73.2616327566
 30
0.0
 11
0.1417119467
 21
0.1422961243
 31
0.0
 40
0.9918061237
 41
-0.2491986107
 42
0.7350951877
  0
ELLIPSE
  5
461
100
AcDbEntity
  8
0
100
AcDbEllipse
 62
7
  6
CONTINUOUS
 10
69.3385206653
 20
125.4212301466
 30
0.0
 11
-0.1417119467
 21
0.1422961243
 31
0.0
 40
0.9918061237
 41
-3.8766878413
 42
-2.8923940429
  0
ENDSEC
  0
SECTION
  2
OBJECTS
  0
DICTIONARY
  5
C
100
AcDbDictionary
280
0
281
1
  3
ACAD_GROUP
350
D
  3
ACAD_MLINESTYLE
350
17
  3
ACAD_LAYOUT
350
1A
  3
ACAD_PLOTSETTINGS
350
19
  3
ACAD_PLOTSTYLENAME
350
E
  0
DICTIONARY
  5
D
102
{ACAD_REACTORS
330
C
102
}
100
AcDbDictionary
280
0
281
1
  0
ACDBDICTIONARYWDFLT
  5
E
102
{ACAD_REACTORS
330
C
102
}
100
AcDbDictionary
281
1
  3
Normal
350
F
100
AcDbDictionaryWithDefault
340
F
  0
DICTIONARY
  5
17
102
{ACAD_REACTORS
330
C
102
}
100
AcDbDictionary
280
0
281
1
  3
Standard
350
18
  0
DICTIONARY
  5
19
102
{ACAD_REACTORS
330
C
102
}
100
AcDbDictionary
281
1
  0
DICTIONARY
  5
1A
102
{ACAD_REACTORS
330
C
102
}
100
AcDbDictionary
281
1
  3
Model
350
462
  3
Layout1
350
463
  0
ACDBPLACEHOLDER
  5
F
102
{ACAD_REACTORS
330
E
102
}
  0
MLINESTYLE
  5
18
102
{ACAD_REACTORS
330
17
102
}
100
AcDbMlineStyle
  2
STANDARD
 70
0
  3

 62
256
 51
90.0
 52
90.0
 71
2
 49
0.5
 62
256
  6
BYLAYER
 49
-0.5
 62
256
  6
BYLAYER
  0
LAYOUT
  5
462
102
{ACAD_REACTORS
330
1A
102
}
100
AcDbPlotSettings
  1

  2
none_device
  4
ISO_A4_(297.00_x_210.00_MM)
  6

 40
0.0
 41
0.0
 42
0.0
 43
0.0
 44
297.0
 45
210.0
 46
0.0
 47
0.0
 48
0.0
 49
0.0
140
0.0
141
0.0
142
1.0
143
1.0
 70
1024
 72
1
 73
0
 74
0
  7

 75
0
147
1.0
148
0.0
149
0.0
100
AcDbLayout
  1
Model
 70
0
 71
0
 10
0.0
 20
0.0
 11
297.0
 21
210.0
 12
0.0
 22
0.0
 32
0.0
 14
0.0
 24
0.0
 34
0.0
 15
0.0
 25
0.0
 35
0.0
146
0.0
 13
0.0
 23
0.0
 33
0.0
 16
1.0
 26
0.0
 36
0.0
 17
0.0
 27
1.0
 37
0.0
 76
0
330
21E
345
0
346
0
  0
LAYOUT
  5
463
102
{ACAD_REACTORS
330
1A
102
}
100
AcDbPlotSettings
  1

  2
none_device
  4
ISO_A4_(297.00_x_210.00_MM)
  6

 40
0.0
 41
0.0
 42
0.0
 43
0.0
 44
297.0
 45
210.0
 46
0.0
 47
0.0
 48
0.0
 49
0.0
140
0.0
141
0.0
142
1.0
143
1.0
 70
0
 72
1
 73
0
 74
0
  7

 75
0
147
1.0
148
0.0
149
0.0
100
AcDbLayout
  1
Layout1
 70
0
 71
1
 10
0.0
 20
0.0
 11
297.0
 21
210.0
 12
0.0
 22
0.0
 32
0.0
 14
0.0
 24
0.0
 34
0.0
 15
0.0
 25
0.0
 35
0.0
146
0.0
 13
0.0
 23
0.0
 33
0.0
 16
1.0
 26
0.0
 36
0.0
 17
0.0
 27
1.0
 37
0.0
 76
0
330
21F
345
0
346
0
  0
ENDSEC
  0
EOF
