  0
SECTION
  2
HEADER
  9
$ACADVER
  1
AC1024
  9
$DWGCODEPAGE
  3
ANSI_1252
  9
$EXTMAX
 10
297.0
 20
210.0
 30
0.0
  9
$EXTMIN
 10
0.0
 20
0.0
 30
0.0
  9
$LIMMIN
 10
0.0
 20
0.0
  9
$LIMMAX
 10
297.0
 20
210.0
  9
$VIEWCTR
 10
148.5
 20
105.0
  9
$VIEWSIZE
 40
210.0
  9
$CLAYER
  8
0
  9
$LTSCALE
 40
16.335
  9
$CELTYPE
  6
BYLAYER
  9
$DIMSCALE
 40
1.0
  9
$DIMASZ
 40
3.0
  9
$DIMEXO
 40
0.5
  9
$DIMDLI
 40
11.286
  9
$DIMEXE
 40
1.5
  9
$DIMCEN
 40
2.673
  9
$DIMLFAC
 40
1.0
  9
$DIMBLK
  1
_FILLED
  9
$DIMALT
 70
0
  9
$DIMALTF
 40
0.0393700787
  9
$DIMTXT
 40
3.0
  9
$DIMTOL
 70
1
  9
$DIMLIM
 70
0
  9
$DIMTFAC
 40
1.0
  9
$DIMTP
 40
0.01
  9
$DIMTM
 40
0.01
  9
$DIMGAP
 40
0.625
  9
$DIMDSEP
 70
44
  9
$AUNITS
 70
0
  9
$PDMODE
 70
3
  9
$PDSIZE
 40
3.0
  9
$HANDSEED
  5
4CD
  9
$TILEMODE
 70
1
  9
$MEASUREMENT
 70
1
  9
$INSUNITS
 70
4
  0
ENDSEC
  0
SECTION
  2
CLASSES
  0
CLASS
  1
ACDBDICTIONARYWDFLT
  2
AcDbDictionaryWithDefault
  3
AutoCAD 2000
 90
0
 91
1
280
0
281
0
  0
CLASS
  1
ACDBPLACEHOLDER
  2
AcDbPlaceHolder
  3
AutoCAD 2000
 90
0
 91
1
280
0
281
0
  0
CLASS
  1
LAYOUT
  2
AcDbLayout
  3
AutoCAD 2000
 90
0
 91
0
280
0
281
0
  0
ENDSEC
  0
SECTION
  2
TABLES
  0
TABLE
  2
VPORT
  5
8
100
AcDbSymbolTable
 70
2
  0
VPORT
  5
1F4
100
AcDbSymbolTableRecord
100
AcDbViewportTableRecord
  2
*ACTIVE
 70
0
 10
0.0
 20
0.0
 11
1.0
 21
1.0
 12
148.5
 22
105.0
 13
0.0
 23
0.0
 14
1.0
 24
1.0
 15
0.0
 25
0.0
 16
0.0
 26
0.0
 36
1.0
 17
0.0
 27
0.0
 37
0.0
 40
210.0
 41
1.4142857143
 42
50.0
 43
0.0
 44
0.0
 50
0.0
 51
0.0
 71
0
 72
100
 73
1
 74
1
 75
0
 76
0
 77
0
 78
0
  0
ENDTAB
  0
TABLE
  2
LTYPE
  5
5
100
AcDbSymbolTable
 70
6
  0
LTYPE
  5
14
100
AcDbSymbolTableRecord
100
AcDbLinetypeTableRecord
  2
BYBLOCK
 70
0
  3

 72
65
 73
0
 40
0.0
  0
LTYPE
  5
15
100
AcDbSymbolTableRecord
100
AcDbLinetypeTableRecord
  2
BYLAYER
 70
0
  3

 72
65
 73
0
 40
0.0
  0
LTYPE
  5
16
100
AcDbSymbolTableRecord
100
AcDbLinetypeTableRecord
  2
CONTINUOUS
 70
64
  3
Solid line
 72
65
 73
0
 40
0.0
  0
LTYPE
  5
1F5
100
AcDbSymbolTableRecord
100
AcDbLinetypeTableRecord
  2
CENTER
 70
64
  3
____ _ ____ _ ____ _ ____ _ ____ _ ____ _ ____
 72
65
 73
4
 40
0.6
 49
0.375
 74
0
 49
-0.075
 74
0
 49
0.075
 74
0
 49
-0.075
 74
0
  0
LTYPE
  5
1F6
100
AcDbSymbolTableRecord
100
AcDbLinetypeTableRecord
  2
HIDDEN
 70
64
  3
- - - - - - - - - - - - - - - - - - - -
 72
65
 73
2
 40
0.2
 49
0.1
 74
0
 49
-0.1
 74
0
  0
LTYPE
  5
1F7
100
AcDbSymbolTableRecord
100
AcDbLinetypeTableRecord
  2
PHANTOM
 70
64
  3
_____ _ _ _____ _ _ _____ _ _ _____
 72
65
 73
6
 40
0.8
 49
0.45
 74
0
 49
-0.05
 74
0
 49
0.1
 74
0
 49
-0.05
 74
0
 49
0.1
 74
0
 49
-0.05
 74
0
  0
LTYPE
  5
1F8
100
AcDbSymbolTableRecord
100
AcDbLinetypeTableRecord
  2
DOT
 70
64
  3
. . . . . . . . . . . . . . . . . . . .
 72
65
 73
2
 40
0.2
 49
0.1
 74
0
 49
-0.1
 74
0
  0
LTYPE
  5
1F9
100
AcDbSymbolTableRecord
100
AcDbLinetypeTableRecord
  2
DASHED
 70
64
  3
- - - - - - - - - - - - - - - - - - - -
 72
65
 73
2
 40
0.2
 49
0.1
 74
0
 49
-0.1
 74
0
  0
ENDTAB
  0
TABLE
  2
LAYER
  5
2
100
AcDbSymbolTable
 70
36
  0
LAYER
  5
10
100
AcDbSymbolTableRecord
100
AcDbLayerTableRecord
  2
0
 70
0
 62
7
  6
CONTINUOUS
370
-3
390
F
  0
LAYER
  5
1FA
100
AcDbSymbolTableRecord
100
AcDbLayerTableRecord
  2
DEFAULT_1
 70
0
 62
7
  6
CENTER
370
-3
390
F
  0
LAYER
  5
1FB
100
AcDbSymbolTableRecord
100
AcDbLayerTableRecord
  2
DEFAULT_2
 70
0
 62
7
  6
HIDDEN
370
-3
390
F
  0
LAYER
  5
1FC
100
AcDbSymbolTableRecord
100
AcDbLayerTableRecord
  2
DEFAULT_3
 70
0
 62
7
  6
PHANTOM
370
-3
390
F
  0
LAYER
  5
1FD
100
AcDbSymbolTableRecord
100
AcDbLayerTableRecord
  2
ASSI
 70
0
 62
7
  6
CONTINUOUS
370
-3
390
F
  0
LAYER
  5
1FE
100
AcDbSymbolTableRecord
100
AcDbLayerTableRecord
  2
COORDINATE
 70
0
 62
7
  6
CONTINUOUS
370
-3
390
F
  0
LAYER
  5
1FF
100
AcDbSymbolTableRecord
100
AcDbLayerTableRecord
  2
COORD_ORIGINE
 70
0
 62
7
  6
CONTINUOUS
370
-3
390
F
  0
LAYER
  5
200
100
AcDbSymbolTableRecord
100
AcDbLayerTableRecord
  2
COPY_PUBLISH
 70
0
 62
7
  6
CONTINUOUS
370
-3
390
F
  0
LAYER
  5
201
100
AcDbSymbolTableRecord
100
AcDbLayerTableRecord
  2
COSMETIC
 70
0
 62
7
  6
CONTINUOUS
370
-3
390
F
  0
LAYER
  5
202
100
AcDbSymbolTableRecord
100
AcDbLayerTableRecord
  2
COSMETICI
 70
0
 62
7
  6
CONTINUOUS
370
-3
390
F
  0
LAYER
  5
203
100
AcDbSymbolTableRecord
100
AcDbLayerTableRecord
  2
CURVE
 70
0
 62
7
  6
CONTINUOUS
370
-3
390
F
  0
LAYER
  5
204
100
AcDbSymbolTableRecord
100
AcDbLayerTableRecord
  2
CURVE_COSTRUZIONE
 70
0
 62
7
  6
CONTINUOUS
370
-3
390
F
  0
LAYER
  5
205
100
AcDbSymbolTableRecord
100
AcDbLayerTableRecord
  2
CURVE_TASSELLI
 70
0
 62
7
  6
CONTINUOUS
370
-3
390
F
  0
LAYER
  5
206
100
AcDbSymbolTableRecord
100
AcDbLayerTableRecord
  2
DRAFT
 70
0
 62
7
  6
CONTINUOUS
370
-3
390
F
  0
LAYER
  5
207
100
AcDbSymbolTableRecord
100
AcDbLayerTableRecord
  2
IMPORT_IGES
 70
0
 62
7
  6
CONTINUOUS
370
-3
390
F
  0
LAYER
  5
208
100
AcDbSymbolTableRecord
100
AcDbLayerTableRecord
  2
INTFCLR_2
 70
0
 62
7
  6
CONTINUOUS
370
-3
390
F
  0
LAYER
  5
209
100
AcDbSymbolTableRecord
100
AcDbLayerTableRecord
  2
INTF_1
 70
0
 62
7
  6
CONTINUOUS
370
-3
390
F
  0
LAYER
  5
20A
100
AcDbSymbolTableRecord
100
AcDbLayerTableRecord
  2
INTF_6
 70
0
 62
7
  6
CONTINUOUS
370
-3
390
F
  0
LAYER
  5
20B
100
AcDbSymbolTableRecord
100
AcDbLayerTableRecord
  2
INTF_7
 70
0
 62
7
  6
CONTINUOUS
370
-3
390
F
  0
LAYER
  5
20C
100
AcDbSymbolTableRecord
100
AcDbLayerTableRecord
  2
INTF_CYAN
 70
0
 62
7
  6
CONTINUOUS
370
-3
390
F
  0
LAYER
  5
20D
100
AcDbSymbolTableRecord
100
AcDbLayerTableRecord
  2
LIVELLO_1
 70
0
 62
7
  6
CONTINUOUS
370
-3
390
F
  0
LAYER
  5
20E
100
AcDbSymbolTableRecord
100
AcDbLayerTableRecord
  2
NOTE
 70
0
 62
7
  6
CONTINUOUS
370
-3
390
F
  0
LAYER
  5
20F
100
AcDbSymbolTableRecord
100
AcDbLayerTableRecord
  2
PIANI
 70
0
 62
7
  6
CONTINUOUS
370
-3
390
F
  0
LAYER
  5
210
100
AcDbSymbolTableRecord
100
AcDbLayerTableRecord
  2
PIANI_ORIGINE
 70
0
 62
7
  6
CONTINUOUS
370
-3
390
F
  0
LAYER
  5
211
100
AcDbSymbolTableRecord
100
AcDbLayerTableRecord
  2
PIANI_RIFERIMENTO
 70
0
 62
7
  6
CONTINUOUS
370
-3
390
F
  0
LAYER
  5
212
100
AcDbSymbolTableRecord
100
AcDbLayerTableRecord
  2
PUNTI
 70
0
 62
7
  6
CONTINUOUS
370
-3
390
F
  0
LAYER
  5
213
100
AcDbSymbolTableRecord
100
AcDbLayerTableRecord
  2
RACCORDO
 70
0
 62
7
  6
CONTINUOUS
370
-3
390
F
  0
LAYER
  5
214
100
AcDbSymbolTableRecord
100
AcDbLayerTableRecord
  2
RGB__255__255__255__
 70
0
 62
7
  6
CONTINUOUS
370
-3
390
F
  0
LAYER
  5
215
100
AcDbSymbolTableRecord
100
AcDbLayerTableRecord
  2
RGB____0____0____0__
 70
0
 62
7
  6
CONTINUOUS
370
-3
390
F
  0
LAYER
  5
216
100
AcDbSymbolTableRecord
100
AcDbLayerTableRecord
  2
SIMBOLI
 70
0
 62
7
  6
CONTINUOUS
370
-3
390
F
  0
LAYER
  5
217
100
AcDbSymbolTableRecord
100
AcDbLayerTableRecord
  2
SMUSSO
 70
0
 62
7
  6
CONTINUOUS
370
-3
390
F
  0
LAYER
  5
218
100
AcDbSymbolTableRecord
100
AcDbLayerTableRecord
  2
SUPERFICI
 70
0
 62
7
  6
CONTINUOUS
370
-3
390
F
  0
LAYER
  5
219
100
AcDbSymbolTableRecord
100
AcDbLayerTableRecord
  2
TRASH
 70
0
 62
7
  6
CONTINUOUS
370
-3
390
F
  0
LAYER
  5
21A
100
AcDbSymbolTableRecord
100
AcDbLayerTableRecord
  2
WHITE
 70
0
 62
7
  6
CONTINUOUS
370
-3
390
F
  0
LAYER
  5
21B
100
AcDbSymbolTableRecord
100
AcDbLayerTableRecord
  2
XSEC_DATUMS
 70
0
 62
7
  6
CONTINUOUS
370
-3
390
F
  0
ENDTAB
  0
TABLE
  2
STYLE
  5
3
100
AcDbSymbolTable
 70
1
  0
STYLE
  5
11
100
AcDbSymbolTableRecord
100
AcDbTextStyleTableRecord
  2
STANDARD
 70
0
 40
0.0
 41
0.8
 50
0.0
 71
0
 42
0.2
  3
txt
  4

  0
STYLE
  5
21C
100
AcDbSymbolTableRecord
100
AcDbTextStyleTableRecord
  2
TEXTSTYLE_1
 70
0
 40
0.0
 41
0.8
 50
0.0
 71
0
 42
0.2
  3
gdt
  4

  0
ENDTAB
  0
TABLE
  2
VIEW
  5
6
100
AcDbSymbolTable
 70
0
  0
ENDTAB
  0
TABLE
  2
UCS
  5
7
100
AcDbSymbolTable
 70
0
  0
ENDTAB
  0
TABLE
  2
APPID
  5
9
100
AcDbSymbolTable
 70
1
  0
APPID
  5
21D
100
AcDbSymbolTableRecord
100
AcDbRegAppTableRecord
  2
ACAD
 70
0
  0
ENDTAB
  0
TABLE
  2
BLOCK_RECORD
  5
1
100
AcDbSymbolTable
 70
0
  0
BLOCK_RECORD
  5
21E
100
AcDbSymbolTableRecord
100
AcDbBlockTableRecord
  2
*Model_Space
  0
BLOCK_RECORD
  5
21F
100
AcDbSymbolTableRecord
100
AcDbBlockTableRecord
  2
*Paper_Space
  0
BLOCK_RECORD
  5
220
100
AcDbSymbolTableRecord
100
AcDbBlockTableRecord
  2
_FILLED
  0
BLOCK_RECORD
  5
221
100
AcDbSymbolTableRecord
100
AcDbBlockTableRecord
  2
*D0
  0
BLOCK_RECORD
  5
222
100
AcDbSymbolTableRecord
100
AcDbBlockTableRecord
  2
*D1
  0
BLOCK_RECORD
  5
223
100
AcDbSymbolTableRecord
100
AcDbBlockTableRecord
  2
*D2
  0
BLOCK_RECORD
  5
224
100
AcDbSymbolTableRecord
100
AcDbBlockTableRecord
  2
*D3
  0
ENDTAB
  0
TABLE
  2
DIMSTYLE
  5
A
100
AcDbSymbolTable
 70
1
100
AcDbDimStyleTable
 71
0
  0
DIMSTYLE
105
225
100
AcDbSymbolTableRecord
100
AcDbDimStyleTableRecord
  2
STANDARD
 70
0
  3

  4

 40
1.0
 41
3.0
 42
0.5
 43
0.38
 44
1.5
 45
0.0
 46
0.0
 47
0.01
 48
0.01
140
3.0
141
0.09
142
0.0
143
25.4
144
1.0
145
0.0
146
1.0
147
0.625
 71
1
 72
0
 73
0
 74
0
 75
0
 76
0
 77
1
 78
8
 79
2
170
0
171
1
172
0
173
0
174
0
175
0
176
0
177
0
178
0
270
2
179
2
271
2
272
2
273
2
274
2
275
0
280
0
281
0
282
0
283
1
284
8
285
0
286
0
287
3
288
0
340
11
278
44
341
220
342
220
343
220
344
220
  0
DIMSTYLE
105
226
100
AcDbSymbolTableRecord
100
AcDbDimStyleTableRecord
  2
DIMSTYLE_1
 70
0
  3

  4

 40
1.0
 41
3.0
 42
0.5
 43
0.38
 44
1.5
 45
0.0
 46
0.0
 47
0.0
 48
0.0
140
3.0
141
0.09
142
0.0
143
25.4
144
1.0
145
0.0
146
1.0
147
0.75
 71
0
 72
0
 73
0
 74
0
 75
0
 76
0
 77
1
 78
8
 79
2
170
0
171
1
172
0
173
0
174
0
175
0
176
0
177
0
178
0
270
2
179
2
271
2
272
2
273
2
274
2
275
0
280
0
281
0
282
0
283
1
284
8
285
0
286
0
287
3
288
0
340
11
278
44
341
220
342
220
343
220
344
220
  0
ENDTAB
  0
ENDSEC
  0
SECTION
  2
BLOCKS
  0
BLOCK
  5
20
100
AcDbEntity
  8
0
100
AcDbBlockBegin
  2
*Model_Space
 70
0
 10
0.0
 20
0.0
 30
0.0
  3
*Model_Space
  1

  0
ENDBLK
  5
21
100
AcDbEntity
  8
0
100
AcDbBlockEnd
  0
BLOCK
  5
1C
100
AcDbEntity
  8
0
100
AcDbBlockBegin
  2
*Paper_Space
 70
0
 10
0.0
 20
0.0
 30
0.0
  3
*Paper_Space
  1

  0
ENDBLK
  5
1D
100
AcDbEntity
  8
0
100
AcDbBlockEnd
  0
BLOCK
  5
227
100
AcDbEntity
  8
0
100
AcDbBlockBegin
  2
_FILLED
 70
64
 10
0.0
 20
0.0
  3
_FILLED
  1

  0
SOLID
  5
228
100
AcDbEntity
  8
0
  6
BYBLOCK
 62
0
100
AcDbTrace
 10
0.0
 20
0.0
 11
-1.0
 21
0.3166666667
 12
-1.0
 22
-0.3166666667
 13
-1.0
 23
-0.3166666667
  0
ENDBLK
  5
229
100
AcDbEntity
  8
0
  6
BYBLOCK
 62
0
100
AcDbBlockEnd
  0
BLOCK
  5
22A
100
AcDbEntity
  8
0
100
AcDbBlockBegin
 62
7
  6
CONTINUOUS
  2
*D0
 70
65
 10
0.0
 20
0.0
  3
*D0
  1

  0
MTEXT
  5
22B
100
AcDbEntity
  8
0
100
AcDbMText
 62
7
  6
CONTINUOUS
  7
STANDARD
 71
2
 72
1
 10
0.0
 20
57.9781690117
 30
0.0
 11
1.0
 21
0.0
 31
0.0
 73
2
 44
0.9
  1
{\ftxt;\W0.0001;\H0.0001;\~}{\ftxt;\W1.5714285714;\H3.0; }{\ftxt;\W0.0001;\H0.0001;\~}
 40
3.0
 41
7.0714285714
  0
LINE
  5
22C
100
AcDbEntity
  8
0
100
AcDbLine
 62
7
  6
CONTINUOUS
 10
-45.0
 20
44.4993911979
 11
-45.0
 21
55.7281690117
  0
LINE
  5
22D
100
AcDbEntity
  8
0
100
AcDbLine
 62
7
  6
CONTINUOUS
 10
45.0
 20
44.4993911979
 11
45.0
 21
55.7281690117
  0
LINE
  5
22E
100
AcDbEntity
  8
0
100
AcDbLine
 62
7
  6
CONTINUOUS
 10
-45.0
 20
54.2281690117
 11
0.0
 21
54.2281690117
  0
LINE
  5
22F
100
AcDbEntity
  8
0
100
AcDbLine
 62
7
  6
CONTINUOUS
 10
45.0
 20
54.2281690117
 11
0.0
 21
54.2281690117
  0
INSERT
  5
230
100
AcDbEntity
  8
0
100
AcDbBlockReference
 62
7
  6
CONTINUOUS
  2
_FILLED
 10
-45.0
 20
54.2281690117
 41
3.0
 42
3.0
 43
3.0
 50
180.0
  0
INSERT
  5
231
100
AcDbEntity
  8
0
100
AcDbBlockReference
 62
7
  6
CONTINUOUS
  2
_FILLED
 10
45.0
 20
54.2281690117
 41
3.0
 42
3.0
 43
3.0
 50
0.0
  0
ENDBLK
  5
232
100
AcDbEntity
  8
0
  6
BYBLOCK
 62
0
100
AcDbBlockEnd
  0
BLOCK
  5
233
100
AcDbEntity
  8
0
100
AcDbBlockBegin
 62
7
  6
CONTINUOUS
  2
*D1
 70
65
 10
0.0
 20
0.0
  3
*D1
  1

  0
MTEXT
  5
234
100
AcDbEntity
  8
0
100
AcDbMText
 62
7
  6
CONTINUOUS
  7
STANDARD
 71
2
 72
1
 10
51.4797857241
 20
0.0
 30
0.0
 11
0.0
 21
1.0
 31
0.0
 73
2
 44
0.9
  1
{\ftxt;\W0.0001;\H0.0001;\~}{\ftxt;\W1.5714285714;\H3.0; }{\ftxt;\W0.0001;\H0.0001;\~}
 40
3.0
 41
7.0714285714
  0
LINE
  5
235
100
AcDbEntity
  8
0
100
AcDbLine
 62
7
  6
CONTINUOUS
 10
44.4993911979
 20
45.0
 11
56.7297857241
 21
45.0
  0
LINE
  5
236
100
AcDbEntity
  8
0
100
AcDbLine
 62
7
  6
CONTINUOUS
 10
44.4993911979
 20
-45.0
 11
56.7297857241
 21
-45.0
  0
LINE
  5
237
100
AcDbEntity
  8
0
100
AcDbLine
 62
7
  6
CONTINUOUS
 10
55.2297857241
 20
45.0
 11
55.2297857241
 21
0.0
  0
LINE
  5
238
100
AcDbEntity
  8
0
100
AcDbLine
 62
7
  6
CONTINUOUS
 10
55.2297857241
 20
-45.0
 11
55.2297857241
 21
0.0
  0
INSERT
  5
239
100
AcDbEntity
  8
0
100
AcDbBlockReference
 62
7
  6
CONTINUOUS
  2
_FILLED
 10
55.2297857241
 20
45.0
 41
3.0
 42
3.0
 43
3.0
 50
90.0
  0
INSERT
  5
23A
100
AcDbEntity
  8
0
100
AcDbBlockReference
 62
7
  6
CONTINUOUS
  2
_FILLED
 10
55.2297857241
 20
-45.0
 41
3.0
 42
3.0
 43
3.0
 50
270.0
  0
ENDBLK
  5
23B
100
AcDbEntity
  8
0
  6
BYBLOCK
 62
0
100
AcDbBlockEnd
  0
BLOCK
  5
23C
100
AcDbEntity
  8
0
100
AcDbBlockBegin
 62
7
  6
CONTINUOUS
  2
*D2
 70
65
 10
0.0
 20
0.0
  3
*D2
  1

  0
MTEXT
  5
23D
100
AcDbEntity
  8
0
100
AcDbMText
 62
7
  6
CONTINUOUS
  7
STANDARD
 71
3
 72
1
 10
-80.9275240092
 20
67.0189673867
 30
0.0
 11
1.0
 21
0.0
 31
0.0
 73
2
 44
0.9
  1
{\ftxt;\W0.0001;\H0.0001;\~}{\ftxt;\W3.2142857143;\H3.0; }{\ftxt;\W0.0001;\H0.0001;\~}
 40
3.0
 41
14.4642857143
  0
LINE
  5
23E
100
AcDbEntity
  8
0
100
AcDbLine
 62
7
  6
CONTINUOUS
 10
-79.4274943092
 20
43.8767374102
 11
-79.4274943092
 21
64.7689673867
  0
LINE
  5
23F
100
AcDbEntity
  8
0
100
AcDbLine
 62
7
  6
CONTINUOUS
 10
-69.2774943092
 20
26.5463167932
 11
-69.2774943092
 21
64.7689673867
  0
LINE
  5
240
100
AcDbEntity
  8
0
100
AcDbLine
 62
7
  6
CONTINUOUS
 10
-79.4274943092
 20
63.2689673867
 11
-74.3524943092
 21
63.2689673867
  0
LINE
  5
241
100
AcDbEntity
  8
0
100
AcDbLine
 62
7
  6
CONTINUOUS
 10
-74.3524943092
 20
63.2689673867
 11
-90.5703811521
 21
63.2689673867
  0
LINE
  5
242
100
AcDbEntity
  8
0
100
AcDbLine
 62
7
  6
CONTINUOUS
 10
-69.2774943092
 20
63.2689673867
 11
-74.3524943092
 21
63.2689673867
  0
INSERT
  5
243
100
AcDbEntity
  8
0
100
AcDbBlockReference
 62
7
  6
CONTINUOUS
  2
_FILLED
 10
-79.4274943092
 20
63.2689673867
 41
3.0
 42
3.0
 43
3.0
 50
180.0
  0
INSERT
  5
244
100
AcDbEntity
  8
0
100
AcDbBlockReference
 62
7
  6
CONTINUOUS
  2
_FILLED
 10
-69.2774943092
 20
63.2689673867
 41
3.0
 42
3.0
 43
3.0
  0
ENDBLK
  5
245
100
AcDbEntity
  8
0
  6
BYBLOCK
 62
0
100
AcDbBlockEnd
  0
BLOCK
  5
246
100
AcDbEntity
  8
0
100
AcDbBlockBegin
 62
7
  6
CONTINUOUS
  2
*D3
 70
65
 10
0.0
 20
0.0
  3
*D3
  1

  0
MTEXT
  5
247
100
AcDbEntity
  8
0
100
AcDbMText
 62
7
  6
CONTINUOUS
  7
STANDARD
 71
3
 72
1
 10
-80.3689918766
 20
58.1739560559
 30
0.0
 11
1.0
 21
0.0
 31
0.0
 73
2
 44
0.9
  1
{\ftxt;\W0.0001;\H0.0001;\~}{\ftxt;\W2.6428571429;\H3.0; }{\ftxt;\W0.0001;\H0.0001;\~}
 40
3.0
 41
11.8928571429
  0
LINE
  5
248
100
AcDbEntity
  8
0
100
AcDbLine
 62
7
  6
CONTINUOUS
 10
-72.2774943092
 20
42.0031667347
 11
-72.2774943092
 21
55.9239560559
  0
LINE
  5
249
100
AcDbEntity
  8
0
100
AcDbLine
 62
7
  6
CONTINUOUS
 10
-79.4274943092
 20
43.8767374102
 11
-79.4274943092
 21
55.9239560559
  0
LINE
  5
24A
100
AcDbEntity
  8
0
100
AcDbLine
 62
7
  6
CONTINUOUS
 10
-72.2774943092
 20
54.4239560559
 11
-75.8524943092
 21
54.4239560559
  0
LINE
  5
24B
100
AcDbEntity
  8
0
100
AcDbLine
 62
7
  6
CONTINUOUS
 10
-79.4274943092
 20
54.4239560559
 11
-75.8524943092
 21
54.4239560559
  0
LINE
  5
24C
100
AcDbEntity
  8
0
100
AcDbLine
 62
7
  6
CONTINUOUS
 10
-75.8524943092
 20
54.4239560559
 11
-88.2975633052
 21
54.4239560559
  0
INSERT
  5
24D
100
AcDbEntity
  8
0
100
AcDbBlockReference
 62
7
  6
CONTINUOUS
  2
_FILLED
 10
-72.2774943092
 20
54.4239560559
 41
3.0
 42
3.0
 43
3.0
  0
INSERT
  5
24E
100
AcDbEntity
  8
0
100
AcDbBlockReference
 62
7
  6
CONTINUOUS
  2
_FILLED
 10
-79.4274943092
 20
54.4239560559
 41
3.0
 42
3.0
 43
3.0
 50
180.0
  0
ENDBLK
  5
24F
100
AcDbEntity
  8
0
  6
BYBLOCK
 62
0
100
AcDbBlockEnd
  0
ENDSEC
  0
SECTION
  2
ENTITIES
  0
DIMENSION
  5
250
100
AcDbEntity
  8
0
100
AcDbDimension
 62
7
  6
CONTINUOUS
  2
*D0
 10
45.0
 20
54.2281690117
 11
-0.4285713773
 21
54.2281690117
 70
160
 71
2
 72
2
 41
0.9
 42
90.0
  1
{\ftxt;\W0.0001;\H0.0001;\~}{\ftxt;\W1.5714285714;\H3.0; }{\ftxt;\W0.0001;\H0.0001;\~}
  3
DIMSTYLE_1
100
AcDbAlignedDimension
 13
-45.0
 23
43.9993911979
 14
45.0
 24
43.9993911979
100
AcDbRotatedDimension
  0
DIMENSION
  5
251
100
AcDbEntity
  8
0
100
AcDbDimension
 62
7
  6
CONTINUOUS
  2
*D1
 10
55.2297857241
 20
-45.0
 11
55.2297857241
 21
-0.4285704803
 70
160
 71
2
 72
2
 41
0.9
 42
90.0
  1
{\ftxt;\W0.0001;\H0.0001;\~}{\ftxt;\W1.5714285714;\H3.0; }{\ftxt;\W0.0001;\H0.0001;\~}
  3
DIMSTYLE_1
100
AcDbAlignedDimension
 13
43.9993911979
 23
45.0
 14
43.9993911979
 24
-45.0
 50
270.0
100
AcDbRotatedDimension
  0
DIMENSION
  5
252
100
AcDbEntity
  8
0
100
AcDbDimension
 62
7
  6
CONTINUOUS
  2
*D2
 10
-69.2774943092
 20
63.2689673867
 11
-86.1775256195
 21
63.2689673867
 70
160
 71
3
 72
2
 41
0.9
 42
10.15
  1
{\ftxt;\W0.0001;\H0.0001;\~}{\ftxt;\W3.2142857143;\H3.0; }{\ftxt;\W0.0001;\H0.0001;\~}
  3
DIMSTYLE_1
100
AcDbAlignedDimension
 13
-79.4274943092
 23
43.3767374102
 14
-69.2774943092
 24
26.0463167932
100
AcDbRotatedDimension
  0
DIMENSION
  5
253
100
AcDbEntity
  8
0
100
AcDbDimension
 62
7
  6
CONTINUOUS
  2
*D3
 10
-79.4274943092
 20
54.4239560559
 11
-84.7618494873
 21
54.4239560559
 70
160
 71
3
 72
2
 41
0.9
 42
7.15
  1
{\ftxt;\W0.0001;\H0.0001;\~}{\ftxt;\W2.6428571429;\H3.0; }{\ftxt;\W0.0001;\H0.0001;\~}
  3
DIMSTYLE_1
100
AcDbAlignedDimension
 13
-72.2774943092
 23
41.5031667347
 14
-79.4274943092
 24
43.3767374102
 50
180.0
100
AcDbRotatedDimension
  0
LINE
  5
254
100
AcDbEntity
  8
0
100
AcDbLine
 62
7
  6
CONTINUOUS
 10
-43.8199854699
 20
44.7906993223
 11
-43.8055596544
 21
44.8061684565
  0
LINE
  5
255
100
AcDbEntity
  8
ASSI
100
AcDbLine
 62
7
  6
CONTINUOUS
 10
-43.8199854699
 20
44.7906993223
 11
-43.8055596544
 21
44.8061684565
  0
LINE
  5
256
100
AcDbEntity
  8
0
100
AcDbLine
 62
7
  6
CONTINUOUS
 10
-45.0
 20
43.9993911979
 11
-43.9993911979
 21
45.0
  0
LINE
  5
257
100
AcDbEntity
  8
ASSI
100
AcDbLine
 62
7
  6
CONTINUOUS
 10
-45.0
 20
43.9993911979
 11
-43.9993911979
 21
45.0
  0
LINE
  5
258
100
AcDbEntity
  8
0
100
AcDbLine
 62
7
  6
CONTINUOUS
 10
-43.8199854699
 20
44.7906993223
 11
-44.7906993223
 21
43.8199854699
  0
LINE
  5
259
100
AcDbEntity
  8
ASSI
100
AcDbLine
 62
7
  6
CONTINUOUS
 10
-43.8199854699
 20
44.7906993223
 11
-44.7906993223
 21
43.8199854699
  0
LINE
  5
25A
100
AcDbEntity
  8
0
100
AcDbLine
 62
7
  6
CONTINUOUS
 10
-43.3767374102
 20
43.7712689598
 11
-43.7712689598
 21
43.3767374102
  0
LINE
  5
25B
100
AcDbEntity
  8
ASSI
100
AcDbLine
 62
7
  6
CONTINUOUS
 10
-43.3767374102
 20
43.7712689598
 11
-43.7712689598
 21
43.3767374102
  0
LINE
  5
25C
100
AcDbEntity
  8
0
100
AcDbLine
 62
7
  6
CONTINUOUS
 10
-44.8061684565
 20
43.8055596544
 11
-44.7906993223
 21
43.8199854699
  0
LINE
  5
25D
100
AcDbEntity
  8
ASSI
100
AcDbLine
 62
7
  6
CONTINUOUS
 10
-44.8061684565
 20
43.8055596544
 11
-44.7906993223
 21
43.8199854699
  0
LINE
  5
25E
100
AcDbEntity
  8
0
100
AcDbLine
 62
7
  6
CONTINUOUS
 10
-44.7906993223
 20
-43.8199854699
 11
-44.8061684565
 21
-43.8055596544
  0
LINE
  5
25F
100
AcDbEntity
  8
ASSI
100
AcDbLine
 62
7
  6
CONTINUOUS
 10
-44.7906993223
 20
-43.8199854699
 11
-44.8061684565
 21
-43.8055596544
  0
LINE
  5
260
100
AcDbEntity
  8
0
100
AcDbLine
 62
7
  6
CONTINUOUS
 10
-43.9993911979
 20
-45.0
 11
-45.0
 21
-43.9993911979
  0
LINE
  5
261
100
AcDbEntity
  8
ASSI
100
AcDbLine
 62
7
  6
CONTINUOUS
 10
-43.9993911979
 20
-45.0
 11
-45.0
 21
-43.9993911979
  0
LINE
  5
262
100
AcDbEntity
  8
0
100
AcDbLine
 62
7
  6
CONTINUOUS
 10
-44.7906993223
 20
-43.8199854699
 11
-43.8199854699
 21
-44.7906993223
  0
LINE
  5
263
100
AcDbEntity
  8
ASSI
100
AcDbLine
 62
7
  6
CONTINUOUS
 10
-44.7906993223
 20
-43.8199854699
 11
-43.8199854699
 21
-44.7906993223
  0
LINE
  5
264
100
AcDbEntity
  8
0
100
AcDbLine
 62
7
  6
CONTINUOUS
 10
-43.7712689598
 20
-43.3767374102
 11
-43.3767374102
 21
-43.7712689598
  0
LINE
  5
265
100
AcDbEntity
  8
ASSI
100
AcDbLine
 62
7
  6
CONTINUOUS
 10
-43.7712689598
 20
-43.3767374102
 11
-43.3767374102
 21
-43.7712689598
  0
LINE
  5
266
100
AcDbEntity
  8
0
100
AcDbLine
 62
7
  6
CONTINUOUS
 10
-43.8055596544
 20
-44.8061684565
 11
-43.8199854699
 21
-44.7906993223
  0
LINE
  5
267
100
AcDbEntity
  8
ASSI
100
AcDbLine
 62
7
  6
CONTINUOUS
 10
-43.8055596544
 20
-44.8061684565
 11
-43.8199854699
 21
-44.7906993223
  0
LINE
  5
268
100
AcDbEntity
  8
0
100
AcDbLine
 62
7
  6
CONTINUOUS
 10
-45.0
 20
43.9993911979
 11
-45.0
 21
-43.9993911979
  0
LINE
  5
269
100
AcDbEntity
  8
ASSI
100
AcDbLine
 62
7
  6
CONTINUOUS
 10
-45.0
 20
43.9993911979
 11
-45.0
 21
-43.9993911979
  0
LINE
  5
26A
100
AcDbEntity
  8
0
100
AcDbLine
 62
7
  6
CONTINUOUS
 10
-44.8061684565
 20
43.8055596544
 11
-44.8061684565
 21
-43.8055596544
  0
LINE
  5
26B
100
AcDbEntity
  8
ASSI
100
AcDbLine
 62
7
  6
CONTINUOUS
 10
-44.8061684565
 20
43.8055596544
 11
-44.8061684565
 21
-43.8055596544
  0
LINE
  5
26C
100
AcDbEntity
  8
0
100
AcDbLine
 62
7
  6
CONTINUOUS
 10
-43.7712689598
 20
43.3767374102
 11
-43.7712689598
 21
-43.3767374102
  0
LINE
  5
26D
100
AcDbEntity
  8
ASSI
100
AcDbLine
 62
7
  6
CONTINUOUS
 10
-43.7712689598
 20
43.3767374102
 11
-43.7712689598
 21
-43.3767374102
  0
LINE
  5
26E
100
AcDbEntity
  8
0
100
AcDbLine
 62
7
  6
CONTINUOUS
 10
-43.9993911979
 20
-45.0
 11
43.9993911979
 21
-45.0
  0
LINE
  5
26F
100
AcDbEntity
  8
ASSI
100
AcDbLine
 62
7
  6
CONTINUOUS
 10
-43.9993911979
 20
-45.0
 11
43.9993911979
 21
-45.0
  0
LINE
  5
270
100
AcDbEntity
  8
0
100
AcDbLine
 62
7
  6
CONTINUOUS
 10
-43.8055596544
 20
-44.8061684565
 11
43.8055596544
 21
-44.8061684565
  0
LINE
  5
271
100
AcDbEntity
  8
ASSI
100
AcDbLine
 62
7
  6
CONTINUOUS
 10
-43.8055596544
 20
-44.8061684565
 11
43.8055596544
 21
-44.8061684565
  0
LINE
  5
272
100
AcDbEntity
  8
0
100
AcDbLine
 62
7
  6
CONTINUOUS
 10
-43.3767374102
 20
-43.7712689598
 11
43.3767374102
 21
-43.7712689598
  0
LINE
  5
273
100
AcDbEntity
  8
ASSI
100
AcDbLine
 62
7
  6
CONTINUOUS
 10
-43.3767374102
 20
-43.7712689598
 11
43.3767374102
 21
-43.7712689598
  0
LWPOLYLINE
  5
274
100
AcDbEntity
  8
0
100
AcDbPolyline
 62
7
  6
CONTINUOUS
 90
10
 70
0
 43
0.3500000006
 10
-1.9285714102
 20
54.9781683655
 10
-1.0714285848
 20
55.8353153687
 10
-0.8571428254
 20
56.6924533081
 10
-0.8571428254
 20
57.5496003113
 10
-1.2857142735
 20
57.978169281
 10
-1.9285714102
 20
57.978169281
 10
-2.3571427875
 20
57.5496003113
 10
-2.3571427875
 20
56.6924533081
 10
-1.9285714102
 20
56.2638843384
 10
-1.0000000219
 20
56.2638843384
  0
LINE
  5
275
100
AcDbEntity
  8
CURVE
100
AcDbLine
 62
250
  6
CONTINUOUS
 10
44.860131217
 20
-36.257398
 11
44.9473759453
 21
-36.257398
  0
LINE
  5
276
100
AcDbEntity
  8
CURVE
100
AcDbLine
 62
250
  6
CONTINUOUS
 10
44.9473759453
 20
-35.735605
 11
44.860131217
 21
-35.735605
  0
LINE
  5
277
100
AcDbEntity
  8
0
100
AcDbLine
 62
7
  6
CONTINUOUS
 10
-30.9
 20
-6.7
 11
-30.9
 21
6.7
  0
LINE
  5
278
100
AcDbEntity
  8
ASSI
100
AcDbLine
 62
7
  6
CONTINUOUS
 10
-30.9
 20
-6.7
 11
-30.9
 21
6.7
  0
LINE
  5
279
100
AcDbEntity
  8
0
100
AcDbLine
 62
7
  6
CONTINUOUS
 10
-30.4
 20
-6.7
 11
-30.4
 21
6.7
  0
LINE
  5
27A
100
AcDbEntity
  8
ASSI
100
AcDbLine
 62
7
  6
CONTINUOUS
 10
-30.4
 20
-6.7
 11
-30.4
 21
6.7
  0
LINE
  5
27B
100
AcDbEntity
  8
0
100
AcDbLine
 62
250
  6
CONTINUOUS
 10
-29.2
 20
8.4
 11
-29.2
 21
7.9
  0
LINE
  5
27C
100
AcDbEntity
  8
ASSI
100
AcDbLine
 62
250
  6
CONTINUOUS
 10
-29.2
 20
8.4
 11
-29.2
 21
7.9
  0
LINE
  5
27D
100
AcDbEntity
  8
0
100
AcDbLine
 62
250
  6
CONTINUOUS
 10
-29.2
 20
-8.4
 11
-29.2
 21
-7.9
  0
LINE
  5
27E
100
AcDbEntity
  8
ASSI
100
AcDbLine
 62
250
  6
CONTINUOUS
 10
-29.2
 20
-8.4
 11
-29.2
 21
-7.9
  0
LINE
  5
27F
100
AcDbEntity
  8
CURVE
100
AcDbLine
 62
250
  6
CONTINUOUS
 10
44.8611556794
 20
-30.6285551388
 11
44.9473759458
 21
-30.6285551388
  0
LINE
  5
280
100
AcDbEntity
  8
CURVE
100
AcDbLine
 62
250
  6
CONTINUOUS
 10
44.8989474951
 20
-30.126163664
 11
44.8749985478
 21
-30.126163664
  0
LINE
  5
281
100
AcDbEntity
  8
CURVE
100
AcDbLine
 62
250
  6
CONTINUOUS
 10
44.9473759458
 20
-30.1088617972
 11
44.9132352194
 21
-30.1088617972
  0
LINE
  5
282
100
AcDbEntity
  8
CURVE
100
AcDbLine
 62
250
  6
CONTINUOUS
 10
44.9066533149
 20
-29.2870512436
 11
44.9061378054
 21
-29.2870512436
  0
LINE
  5
283
100
AcDbEntity
  8
0
100
AcDbLine
 62
7
  6
CONTINUOUS
 10
-43.3767374102
 20
-43.7712689598
 11
-43.8199854699
 21
-44.7906993223
  0
LINE
  5
284
100
AcDbEntity
  8
ASSI
100
AcDbLine
 62
7
  6
CONTINUOUS
 10
-43.3767374102
 20
-43.7712689598
 11
-43.8199854699
 21
-44.7906993223
  0
LINE
  5
285
100
AcDbEntity
  8
0
100
AcDbLine
 62
7
  6
CONTINUOUS
 10
43.7712689598
 20
43.3767374102
 11
44.7906993223
 21
43.8199854699
  0
LINE
  5
286
100
AcDbEntity
  8
ASSI
100
AcDbLine
 62
7
  6
CONTINUOUS
 10
43.7712689598
 20
43.3767374102
 11
44.7906993223
 21
43.8199854699
  0
LINE
  5
287
100
AcDbEntity
  8
0
100
AcDbLine
 62
7
  6
CONTINUOUS
 10
43.7712689598
 20
-43.3767374102
 11
44.7906993223
 21
-43.8199854699
  0
LINE
  5
288
100
AcDbEntity
  8
ASSI
100
AcDbLine
 62
7
  6
CONTINUOUS
 10
43.7712689598
 20
-43.3767374102
 11
44.7906993223
 21
-43.8199854699
  0
LINE
  5
289
100
AcDbEntity
  8
0
100
AcDbLine
 62
7
  6
CONTINUOUS
 10
-43.3767374102
 20
43.7712689598
 11
-43.8199854699
 21
44.7906993223
  0
LINE
  5
28A
100
AcDbEntity
  8
ASSI
100
AcDbLine
 62
7
  6
CONTINUOUS
 10
-43.3767374102
 20
43.7712689598
 11
-43.8199854699
 21
44.7906993223
  0
LINE
  5
28B
100
AcDbEntity
  8
0
100
AcDbLine
 62
250
  6
CONTINUOUS
 10
-15.8
 20
8.4
 11
-15.8
 21
7.9
  0
LINE
  5
28C
100
AcDbEntity
  8
ASSI
100
AcDbLine
 62
250
  6
CONTINUOUS
 10
-15.8
 20
8.4
 11
-15.8
 21
7.9
  0
LINE
  5
28D
100
AcDbEntity
  8
0
100
AcDbLine
 62
250
  6
CONTINUOUS
 10
-15.8
 20
-8.4
 11
-15.8
 21
-7.9
  0
LINE
  5
28E
100
AcDbEntity
  8
ASSI
100
AcDbLine
 62
250
  6
CONTINUOUS
 10
-15.8
 20
-8.4
 11
-15.8
 21
-7.9
  0
LINE
  5
28F
100
AcDbEntity
  8
0
100
AcDbLine
 62
7
  6
CONTINUOUS
 10
-14.6
 20
6.7
 11
-14.6
 21
-6.7
  0
LINE
  5
290
100
AcDbEntity
  8
ASSI
100
AcDbLine
 62
7
  6
CONTINUOUS
 10
-14.6
 20
6.7
 11
-14.6
 21
-6.7
  0
LINE
  5
291
100
AcDbEntity
  8
0
100
AcDbLine
 62
7
  6
CONTINUOUS
 10
-14.1
 20
6.7
 11
-14.1
 21
-6.7
  0
LINE
  5
292
100
AcDbEntity
  8
ASSI
100
AcDbLine
 62
7
  6
CONTINUOUS
 10
-14.1
 20
6.7
 11
-14.1
 21
-6.7
  0
LINE
  5
293
100
AcDbEntity
  8
0
100
AcDbLine
 62
7
  6
CONTINUOUS
 10
-8.4
 20
-6.7
 11
-8.4
 21
6.7
  0
LINE
  5
294
100
AcDbEntity
  8
ASSI
100
AcDbLine
 62
7
  6
CONTINUOUS
 10
-8.4
 20
-6.7
 11
-8.4
 21
6.7
  0
LINE
  5
295
100
AcDbEntity
  8
0
100
AcDbLine
 62
7
  6
CONTINUOUS
 10
29.2
 20
-8.4
 11
15.8
 21
-8.4
  0
LINE
  5
296
100
AcDbEntity
  8
ASSI
100
AcDbLine
 62
7
  6
CONTINUOUS
 10
29.2
 20
-8.4
 11
15.8
 21
-8.4
  0
LINE
  5
297
100
AcDbEntity
  8
0
100
AcDbLine
 62
7
  6
CONTINUOUS
 10
6.7
 20
-8.4
 11
-6.7
 21
-8.4
  0
LINE
  5
298
100
AcDbEntity
  8
ASSI
100
AcDbLine
 62
7
  6
CONTINUOUS
 10
6.7
 20
-8.4
 11
-6.7
 21
-8.4
  0
LINE
  5
299
100
AcDbEntity
  8
0
100
AcDbLine
 62
7
  6
CONTINUOUS
 10
-15.8
 20
-8.4
 11
-29.2
 21
-8.4
  0
LINE
  5
29A
100
AcDbEntity
  8
ASSI
100
AcDbLine
 62
7
  6
CONTINUOUS
 10
-15.8
 20
-8.4
 11
-29.2
 21
-8.4
  0
LINE
  5
29B
100
AcDbEntity
  8
0
100
AcDbLine
 62
7
  6
CONTINUOUS
 10
-7.9
 20
-6.7
 11
-7.9
 21
6.7
  0
LINE
  5
29C
100
AcDbEntity
  8
ASSI
100
AcDbLine
 62
7
  6
CONTINUOUS
 10
-7.9
 20
-6.7
 11
-7.9
 21
6.7
  0
LINE
  5
29D
100
AcDbEntity
  8
0
100
AcDbLine
 62
250
  6
CONTINUOUS
 10
-6.7
 20
8.4
 11
-6.7
 21
7.9
  0
LINE
  5
29E
100
AcDbEntity
  8
ASSI
100
AcDbLine
 62
250
  6
CONTINUOUS
 10
-6.7
 20
8.4
 11
-6.7
 21
7.9
  0
LINE
  5
29F
100
AcDbEntity
  8
0
100
AcDbLine
 62
250
  6
CONTINUOUS
 10
-6.7
 20
-8.4
 11
-6.7
 21
-7.9
  0
LINE
  5
2A0
100
AcDbEntity
  8
ASSI
100
AcDbLine
 62
250
  6
CONTINUOUS
 10
-6.7
 20
-8.4
 11
-6.7
 21
-7.9
  0
LINE
  5
2A1
100
AcDbEntity
  8
0
100
AcDbLine
 62
7
  6
CONTINUOUS
 10
29.2
 20
-7.9
 11
15.8
 21
-7.9
  0
LINE
  5
2A2
100
AcDbEntity
  8
ASSI
100
AcDbLine
 62
7
  6
CONTINUOUS
 10
29.2
 20
-7.9
 11
15.8
 21
-7.9
  0
LINE
  5
2A3
100
AcDbEntity
  8
0
100
AcDbLine
 62
7
  6
CONTINUOUS
 10
6.7
 20
-7.9
 11
-6.7
 21
-7.9
  0
LINE
  5
2A4
100
AcDbEntity
  8
ASSI
100
AcDbLine
 62
7
  6
CONTINUOUS
 10
6.7
 20
-7.9
 11
-6.7
 21
-7.9
  0
LINE
  5
2A5
100
AcDbEntity
  8
0
100
AcDbLine
 62
7
  6
CONTINUOUS
 10
-15.8
 20
-7.9
 11
-29.2
 21
-7.9
  0
LINE
  5
2A6
100
AcDbEntity
  8
ASSI
100
AcDbLine
 62
7
  6
CONTINUOUS
 10
-15.8
 20
-7.9
 11
-29.2
 21
-7.9
  0
LINE
  5
2A7
100
AcDbEntity
  8
0
100
AcDbLine
 62
250
  6
CONTINUOUS
 10
-30.9
 20
-6.7
 11
-30.4
 21
-6.7
  0
LINE
  5
2A8
100
AcDbEntity
  8
ASSI
100
AcDbLine
 62
250
  6
CONTINUOUS
 10
-30.9
 20
-6.7
 11
-30.4
 21
-6.7
  0
LINE
  5
2A9
100
AcDbEntity
  8
0
100
AcDbLine
 62
250
  6
CONTINUOUS
 10
30.9
 20
-6.7
 11
30.4
 21
-6.7
  0
LINE
  5
2AA
100
AcDbEntity
  8
ASSI
100
AcDbLine
 62
250
  6
CONTINUOUS
 10
30.9
 20
-6.7
 11
30.4
 21
-6.7
  0
LINE
  5
2AB
100
AcDbEntity
  8
0
100
AcDbLine
 62
250
  6
CONTINUOUS
 10
-8.4
 20
-6.7
 11
-7.9
 21
-6.7
  0
LINE
  5
2AC
100
AcDbEntity
  8
ASSI
100
AcDbLine
 62
250
  6
CONTINUOUS
 10
-8.4
 20
-6.7
 11
-7.9
 21
-6.7
  0
LINE
  5
2AD
100
AcDbEntity
  8
0
100
AcDbLine
 62
250
  6
CONTINUOUS
 10
8.4
 20
-6.7
 11
7.9
 21
-6.7
  0
LINE
  5
2AE
100
AcDbEntity
  8
ASSI
100
AcDbLine
 62
250
  6
CONTINUOUS
 10
8.4
 20
-6.7
 11
7.9
 21
-6.7
  0
LINE
  5
2AF
100
AcDbEntity
  8
0
100
AcDbLine
 62
250
  6
CONTINUOUS
 10
14.1
 20
-6.7
 11
14.6
 21
-6.7
  0
LINE
  5
2B0
100
AcDbEntity
  8
ASSI
100
AcDbLine
 62
250
  6
CONTINUOUS
 10
14.1
 20
-6.7
 11
14.6
 21
-6.7
  0
LINE
  5
2B1
100
AcDbEntity
  8
0
100
AcDbLine
 62
250
  6
CONTINUOUS
 10
-14.1
 20
-6.7
 11
-14.6
 21
-6.7
  0
LINE
  5
2B2
100
AcDbEntity
  8
ASSI
100
AcDbLine
 62
250
  6
CONTINUOUS
 10
-14.1
 20
-6.7
 11
-14.6
 21
-6.7
  0
LWPOLYLINE
  5
2B3
100
AcDbEntity
  8
0
100
AcDbPolyline
 62
7
  6
CONTINUOUS
 90
13
 70
0
 43
0.3500000006
 10
0.0
 20
55.8353153687
 10
0.0
 20
57.1210222778
 10
0.2142857063
 20
57.5496003113
 10
0.6428571367
 20
57.978169281
 10
0.8571428254
 20
57.978169281
 10
1.2857142735
 20
57.5496003113
 10
1.5000000329
 20
57.1210222778
 10
1.5000000329
 20
55.8353153687
 10
1.2857142735
 20
55.4067418671
 10
0.8571428254
 20
54.9781683655
 10
0.6428571367
 20
54.9781683655
 10
0.2142857063
 20
55.4067418671
 10
0.0
 20
55.8353153687
  0
LINE
  5
2B4
100
AcDbEntity
  8
0
100
AcDbLine
 62
7
  6
CONTINUOUS
 10
-44.8061684565
 20
-43.8055596544
 11
-45.0
 21
-43.9993911979
  0
LINE
  5
2B5
100
AcDbEntity
  8
ASSI
100
AcDbLine
 62
7
  6
CONTINUOUS
 10
-44.8061684565
 20
-43.8055596544
 11
-45.0
 21
-43.9993911979
  0
LINE
  5
2B6
100
AcDbEntity
  8
0
100
AcDbLine
 62
7
  6
CONTINUOUS
 10
43.8055596544
 20
44.8061684565
 11
43.9993911979
 21
45.0
  0
LINE
  5
2B7
100
AcDbEntity
  8
ASSI
100
AcDbLine
 62
7
  6
CONTINUOUS
 10
43.8055596544
 20
44.8061684565
 11
43.9993911979
 21
45.0
  0
LWPOLYLINE
  5
2B8
100
AcDbEntity
  8
0
100
AcDbPolyline
 62
7
  6
CONTINUOUS
 90
13
 70
0
 43
0.3500000006
 10
53.6226439362
 20
-0.0000003204
 10
52.3369279633
 20
-0.0000003204
 10
51.9083589935
 20
0.2142864304
 10
51.4797854919
 20
0.642857666
 10
51.4797854919
 20
0.8571421509
 10
51.9083589935
 20
1.2857133865
 10
52.3369279633
 20
1.5000001373
 10
53.6226439362
 20
1.5000001373
 10
54.0512129059
 20
1.2857133865
 10
54.4797864075
 20
0.8571421509
 10
54.4797864075
 20
0.642857666
 10
54.0512129059
 20
0.2142864304
 10
53.6226439362
 20
-0.0000003204
  0
LINE
  5
2B9
100
AcDbEntity
  8
0
100
AcDbLine
 62
7
  6
CONTINUOUS
 10
43.8055596544
 20
-44.8061684565
 11
43.9993911979
 21
-45.0
  0
LINE
  5
2BA
100
AcDbEntity
  8
ASSI
100
AcDbLine
 62
7
  6
CONTINUOUS
 10
43.8055596544
 20
-44.8061684565
 11
43.9993911979
 21
-45.0
  0
LINE
  5
2BB
100
AcDbEntity
  8
0
100
AcDbLine
 62
7
  6
CONTINUOUS
 10
-44.8061684565
 20
43.8055596544
 11
-45.0
 21
43.9993911979
  0
LINE
  5
2BC
100
AcDbEntity
  8
ASSI
100
AcDbLine
 62
7
  6
CONTINUOUS
 10
-44.8061684565
 20
43.8055596544
 11
-45.0
 21
43.9993911979
  0
LINE
  5
2BD
100
AcDbEntity
  8
0
100
AcDbLine
 62
7
  6
CONTINUOUS
 10
-43.8055596544
 20
-44.8061684565
 11
-43.9993911979
 21
-45.0
  0
LINE
  5
2BE
100
AcDbEntity
  8
ASSI
100
AcDbLine
 62
7
  6
CONTINUOUS
 10
-43.8055596544
 20
-44.8061684565
 11
-43.9993911979
 21
-45.0
  0
LINE
  5
2BF
100
AcDbEntity
  8
0
100
AcDbLine
 62
7
  6
CONTINUOUS
 10
44.8061684565
 20
43.8055596544
 11
45.0
 21
43.9993911979
  0
LINE
  5
2C0
100
AcDbEntity
  8
ASSI
100
AcDbLine
 62
7
  6
CONTINUOUS
 10
44.8061684565
 20
43.8055596544
 11
45.0
 21
43.9993911979
  0
LINE
  5
2C1
100
AcDbEntity
  8
0
100
AcDbLine
 62
7
  6
CONTINUOUS
 10
44.8061684565
 20
-43.8055596544
 11
45.0
 21
-43.9993911979
  0
LINE
  5
2C2
100
AcDbEntity
  8
ASSI
100
AcDbLine
 62
7
  6
CONTINUOUS
 10
44.8061684565
 20
-43.8055596544
 11
45.0
 21
-43.9993911979
  0
LINE
  5
2C3
100
AcDbEntity
  8
0
100
AcDbLine
 62
7
  6
CONTINUOUS
 10
-43.8055596544
 20
44.8061684565
 11
-43.9993911979
 21
45.0
  0
LINE
  5
2C4
100
AcDbEntity
  8
ASSI
100
AcDbLine
 62
7
  6
CONTINUOUS
 10
-43.8055596544
 20
44.8061684565
 11
-43.9993911979
 21
45.0
  0
LINE
  5
2C5
100
AcDbEntity
  8
0
100
AcDbLine
 62
250
  6
CONTINUOUS
 10
6.7
 20
8.4
 11
6.7
 21
7.9
  0
LINE
  5
2C6
100
AcDbEntity
  8
ASSI
100
AcDbLine
 62
250
  6
CONTINUOUS
 10
6.7
 20
8.4
 11
6.7
 21
7.9
  0
LINE
  5
2C7
100
AcDbEntity
  8
0
100
AcDbLine
 62
250
  6
CONTINUOUS
 10
6.7
 20
-8.4
 11
6.7
 21
-7.9
  0
LINE
  5
2C8
100
AcDbEntity
  8
ASSI
100
AcDbLine
 62
250
  6
CONTINUOUS
 10
6.7
 20
-8.4
 11
6.7
 21
-7.9
  0
LINE
  5
2C9
100
AcDbEntity
  8
0
100
AcDbLine
 62
7
  6
CONTINUOUS
 10
7.9
 20
6.7
 11
7.9
 21
-6.7
  0
LINE
  5
2CA
100
AcDbEntity
  8
ASSI
100
AcDbLine
 62
7
  6
CONTINUOUS
 10
7.9
 20
6.7
 11
7.9
 21
-6.7
  0
LINE
  5
2CB
100
AcDbEntity
  8
0
100
AcDbLine
 62
7
  6
CONTINUOUS
 10
8.4
 20
6.7
 11
8.4
 21
-6.7
  0
LINE
  5
2CC
100
AcDbEntity
  8
ASSI
100
AcDbLine
 62
7
  6
CONTINUOUS
 10
8.4
 20
6.7
 11
8.4
 21
-6.7
  0
LINE
  5
2CD
100
AcDbEntity
  8
0
100
AcDbLine
 62
250
  6
CONTINUOUS
 10
-30.9
 20
6.7
 11
-30.4
 21
6.7
  0
LINE
  5
2CE
100
AcDbEntity
  8
ASSI
100
AcDbLine
 62
250
  6
CONTINUOUS
 10
-30.9
 20
6.7
 11
-30.4
 21
6.7
  0
LINE
  5
2CF
100
AcDbEntity
  8
0
100
AcDbLine
 62
250
  6
CONTINUOUS
 10
30.9
 20
6.7
 11
30.4
 21
6.7
  0
LINE
  5
2D0
100
AcDbEntity
  8
ASSI
100
AcDbLine
 62
250
  6
CONTINUOUS
 10
30.9
 20
6.7
 11
30.4
 21
6.7
  0
LINE
  5
2D1
100
AcDbEntity
  8
0
100
AcDbLine
 62
250
  6
CONTINUOUS
 10
-8.4
 20
6.7
 11
-7.9
 21
6.7
  0
LINE
  5
2D2
100
AcDbEntity
  8
ASSI
100
AcDbLine
 62
250
  6
CONTINUOUS
 10
-8.4
 20
6.7
 11
-7.9
 21
6.7
  0
LINE
  5
2D3
100
AcDbEntity
  8
0
100
AcDbLine
 62
250
  6
CONTINUOUS
 10
8.4
 20
6.7
 11
7.9
 21
6.7
  0
LINE
  5
2D4
100
AcDbEntity
  8
ASSI
100
AcDbLine
 62
250
  6
CONTINUOUS
 10
8.4
 20
6.7
 11
7.9
 21
6.7
  0
LINE
  5
2D5
100
AcDbEntity
  8
0
100
AcDbLine
 62
250
  6
CONTINUOUS
 10
14.1
 20
6.7
 11
14.6
 21
6.7
  0
LINE
  5
2D6
100
AcDbEntity
  8
ASSI
100
AcDbLine
 62
250
  6
CONTINUOUS
 10
14.1
 20
6.7
 11
14.6
 21
6.7
  0
LINE
  5
2D7
100
AcDbEntity
  8
0
100
AcDbLine
 62
250
  6
CONTINUOUS
 10
-14.1
 20
6.7
 11
-14.6
 21
6.7
  0
LINE
  5
2D8
100
AcDbEntity
  8
ASSI
100
AcDbLine
 62
250
  6
CONTINUOUS
 10
-14.1
 20
6.7
 11
-14.6
 21
6.7
  0
LINE
  5
2D9
100
AcDbEntity
  8
0
100
AcDbLine
 62
7
  6
CONTINUOUS
 10
-29.2
 20
7.9
 11
-15.8
 21
7.9
  0
LINE
  5
2DA
100
AcDbEntity
  8
ASSI
100
AcDbLine
 62
7
  6
CONTINUOUS
 10
-29.2
 20
7.9
 11
-15.8
 21
7.9
  0
LINE
  5
2DB
100
AcDbEntity
  8
0
100
AcDbLine
 62
7
  6
CONTINUOUS
 10
-6.7
 20
7.9
 11
6.7
 21
7.9
  0
LINE
  5
2DC
100
AcDbEntity
  8
ASSI
100
AcDbLine
 62
7
  6
CONTINUOUS
 10
-6.7
 20
7.9
 11
6.7
 21
7.9
  0
LINE
  5
2DD
100
AcDbEntity
  8
0
100
AcDbLine
 62
7
  6
CONTINUOUS
 10
15.8
 20
7.9
 11
29.2
 21
7.9
  0
LINE
  5
2DE
100
AcDbEntity
  8
ASSI
100
AcDbLine
 62
7
  6
CONTINUOUS
 10
15.8
 20
7.9
 11
29.2
 21
7.9
  0
LINE
  5
2DF
100
AcDbEntity
  8
0
100
AcDbLine
 62
7
  6
CONTINUOUS
 10
-29.2
 20
8.4
 11
-15.8
 21
8.4
  0
LINE
  5
2E0
100
AcDbEntity
  8
ASSI
100
AcDbLine
 62
7
  6
CONTINUOUS
 10
-29.2
 20
8.4
 11
-15.8
 21
8.4
  0
LINE
  5
2E1
100
AcDbEntity
  8
0
100
AcDbLine
 62
7
  6
CONTINUOUS
 10
-6.7
 20
8.4
 11
6.7
 21
8.4
  0
LINE
  5
2E2
100
AcDbEntity
  8
ASSI
100
AcDbLine
 62
7
  6
CONTINUOUS
 10
-6.7
 20
8.4
 11
6.7
 21
8.4
  0
LINE
  5
2E3
100
AcDbEntity
  8
0
100
AcDbLine
 62
7
  6
CONTINUOUS
 10
15.8
 20
8.4
 11
29.2
 21
8.4
  0
LINE
  5
2E4
100
AcDbEntity
  8
ASSI
100
AcDbLine
 62
7
  6
CONTINUOUS
 10
15.8
 20
8.4
 11
29.2
 21
8.4
  0
LINE
  5
2E5
100
AcDbEntity
  8
0
100
AcDbLine
 62
7
  6
CONTINUOUS
 10
14.1
 20
-6.7
 11
14.1
 21
6.7
  0
LINE
  5
2E6
100
AcDbEntity
  8
ASSI
100
AcDbLine
 62
7
  6
CONTINUOUS
 10
14.1
 20
-6.7
 11
14.1
 21
6.7
  0
LINE
  5
2E7
100
AcDbEntity
  8
0
100
AcDbLine
 62
7
  6
CONTINUOUS
 10
14.6
 20
-6.7
 11
14.6
 21
6.7
  0
LINE
  5
2E8
100
AcDbEntity
  8
ASSI
100
AcDbLine
 62
7
  6
CONTINUOUS
 10
14.6
 20
-6.7
 11
14.6
 21
6.7
  0
LINE
  5
2E9
100
AcDbEntity
  8
0
100
AcDbLine
 62
250
  6
CONTINUOUS
 10
15.8
 20
8.4
 11
15.8
 21
7.9
  0
LINE
  5
2EA
100
AcDbEntity
  8
ASSI
100
AcDbLine
 62
250
  6
CONTINUOUS
 10
15.8
 20
8.4
 11
15.8
 21
7.9
  0
LINE
  5
2EB
100
AcDbEntity
  8
0
100
AcDbLine
 62
250
  6
CONTINUOUS
 10
15.8
 20
-8.4
 11
15.8
 21
-7.9
  0
LINE
  5
2EC
100
AcDbEntity
  8
ASSI
100
AcDbLine
 62
250
  6
CONTINUOUS
 10
15.8
 20
-8.4
 11
15.8
 21
-7.9
  0
LINE
  5
2ED
100
AcDbEntity
  8
0
100
AcDbLine
 62
7
  6
CONTINUOUS
 10
43.3767374102
 20
43.7712689598
 11
43.8199854699
 21
44.7906993223
  0
LINE
  5
2EE
100
AcDbEntity
  8
ASSI
100
AcDbLine
 62
7
  6
CONTINUOUS
 10
43.3767374102
 20
43.7712689598
 11
43.8199854699
 21
44.7906993223
  0
LINE
  5
2EF
100
AcDbEntity
  8
0
100
AcDbLine
 62
7
  6
CONTINUOUS
 10
-43.7712689598
 20
-43.3767374102
 11
-44.7906993223
 21
-43.8199854699
  0
LINE
  5
2F0
100
AcDbEntity
  8
ASSI
100
AcDbLine
 62
7
  6
CONTINUOUS
 10
-43.7712689598
 20
-43.3767374102
 11
-44.7906993223
 21
-43.8199854699
  0
LINE
  5
2F1
100
AcDbEntity
  8
0
100
AcDbLine
 62
7
  6
CONTINUOUS
 10
-43.7712689598
 20
43.3767374102
 11
-44.7906993223
 21
43.8199854699
  0
LINE
  5
2F2
100
AcDbEntity
  8
ASSI
100
AcDbLine
 62
7
  6
CONTINUOUS
 10
-43.7712689598
 20
43.3767374102
 11
-44.7906993223
 21
43.8199854699
  0
LINE
  5
2F3
100
AcDbEntity
  8
CURVE
100
AcDbLine
 62
250
  6
CONTINUOUS
 10
44.8904101948
 20
-34.842919
 11
44.9473759453
 21
-34.955522
  0
LINE
  5
2F4
100
AcDbEntity
  8
0
100
AcDbLine
 62
7
  6
CONTINUOUS
 10
43.3767374102
 20
-43.7712689598
 11
43.8199854699
 21
-44.7906993223
  0
LINE
  5
2F5
100
AcDbEntity
  8
ASSI
100
AcDbLine
 62
7
  6
CONTINUOUS
 10
43.3767374102
 20
-43.7712689598
 11
43.8199854699
 21
-44.7906993223
  0
LINE
  5
2F6
100
AcDbEntity
  8
0
100
AcDbLine
 62
250
  6
CONTINUOUS
 10
29.2
 20
8.4
 11
29.2
 21
7.9
  0
LINE
  5
2F7
100
AcDbEntity
  8
ASSI
100
AcDbLine
 62
250
  6
CONTINUOUS
 10
29.2
 20
8.4
 11
29.2
 21
7.9
  0
LINE
  5
2F8
100
AcDbEntity
  8
0
100
AcDbLine
 62
250
  6
CONTINUOUS
 10
29.2
 20
-8.4
 11
29.2
 21
-7.9
  0
LINE
  5
2F9
100
AcDbEntity
  8
ASSI
100
AcDbLine
 62
250
  6
CONTINUOUS
 10
29.2
 20
-8.4
 11
29.2
 21
-7.9
  0
LINE
  5
2FA
100
AcDbEntity
  8
CURVE
100
AcDbLine
 62
250
  6
CONTINUOUS
 10
44.9473759453
 20
-35.454708
 11
44.860136417
 21
-35.228996
  0
LINE
  5
2FB
100
AcDbEntity
  8
0
100
AcDbLine
 62
7
  6
CONTINUOUS
 10
30.4
 20
6.7
 11
30.4
 21
-6.7
  0
LINE
  5
2FC
100
AcDbEntity
  8
ASSI
100
AcDbLine
 62
7
  6
CONTINUOUS
 10
30.4
 20
6.7
 11
30.4
 21
-6.7
  0
LINE
  5
2FD
100
AcDbEntity
  8
0
100
AcDbLine
 62
7
  6
CONTINUOUS
 10
30.9
 20
6.7
 11
30.9
 21
-6.7
  0
LINE
  5
2FE
100
AcDbEntity
  8
ASSI
100
AcDbLine
 62
7
  6
CONTINUOUS
 10
30.9
 20
6.7
 11
30.9
 21
-6.7
  0
LWPOLYLINE
  5
2FF
100
AcDbEntity
  8
0
100
AcDbPolyline
 62
7
  6
CONTINUOUS
 90
10
 70
0
 43
0.3500000006
 10
54.4797864075
 20
-1.9285708809
 10
53.6226439362
 20
-1.0714295425
 10
52.7655014648
 20
-0.8571427917
 10
51.9083589935
 20
-0.8571427917
 10
51.4797854919
 20
-1.2857140274
 10
51.4797854919
 20
-1.9285708809
 10
51.9083589935
 20
-2.3571432495
 10
52.7655014648
 20
-2.3571432495
 10
53.1940704346
 20
-1.9285708809
 10
53.1940704346
 20
-1.0000006256
  0
LINE
  5
300
100
AcDbEntity
  8
CURVE
100
AcDbLine
 62
250
  6
CONTINUOUS
 10
44.860136417
 20
-36.451037
 11
44.9473759453
 21
-37.254552
  0
LINE
  5
301
100
AcDbEntity
  8
CURVE
100
AcDbLine
 62
250
  6
CONTINUOUS
 10
44.9085720674
 20
-34.191353
 11
44.860136417
 21
-33.66956
  0
LINE
  5
302
100
AcDbEntity
  8
CURVE
100
AcDbLine
 62
250
  6
CONTINUOUS
 10
44.890647651
 20
-33.5372
 11
44.9473759453
 21
-34.157611
  0
LINE
  5
303
100
AcDbEntity
  8
CURVE
100
AcDbLine
 62
250
  6
CONTINUOUS
 10
44.8841076249
 20
-31.81095
 11
44.9164833296
 21
-32.070759
  0
LINE
  5
304
100
AcDbEntity
  8
CURVE
100
AcDbLine
 62
250
  6
CONTINUOUS
 10
44.9201860964
 20
-37.463524
 11
44.860136417
 21
-36.972473
  0
LINE
  5
305
100
AcDbEntity
  8
CURVE
100
AcDbLine
 62
250
  6
CONTINUOUS
 10
44.92995984
 20
-32.177494
 11
44.9473759453
 21
-32.321477
  0
LINE
  5
306
100
AcDbEntity
  8
CURVE
100
AcDbLine
 62
250
  6
CONTINUOUS
 10
44.9473759453
 20
-32.837608
 11
44.860136417
 21
-32.053532
  0
LINE
  5
307
100
AcDbEntity
  8
0
100
AcDbLine
 62
7
  6
CONTINUOUS
 10
43.7712689598
 20
-43.3767374102
 11
43.7712689598
 21
43.3767374102
  0
LINE
  5
308
100
AcDbEntity
  8
ASSI
100
AcDbLine
 62
7
  6
CONTINUOUS
 10
43.7712689598
 20
-43.3767374102
 11
43.7712689598
 21
43.3767374102
  0
LINE
  5
309
100
AcDbEntity
  8
0
100
AcDbLine
 62
7
  6
CONTINUOUS
 10
44.8061684565
 20
-43.8055596544
 11
44.8061684565
 21
43.8055596544
  0
LINE
  5
30A
100
AcDbEntity
  8
ASSI
100
AcDbLine
 62
7
  6
CONTINUOUS
 10
44.8061684565
 20
-43.8055596544
 11
44.8061684565
 21
43.8055596544
  0
LINE
  5
30B
100
AcDbEntity
  8
CURVE
100
AcDbLine
 62
250
  6
CONTINUOUS
 10
44.860131217
 20
-35.735605
 11
44.860131217
 21
-36.257398
  0
LINE
  5
30C
100
AcDbEntity
  8
CURVE
100
AcDbLine
 62
250
  6
CONTINUOUS
 10
44.860136417
 20
-38.506847
 11
44.860136417
 21
-37.940019
  0
LINE
  5
30D
100
AcDbEntity
  8
CURVE
100
AcDbLine
 62
250
  6
CONTINUOUS
 10
44.860136417
 20
-36.972473
 11
44.860136417
 21
-36.451037
  0
LINE
  5
30E
100
AcDbEntity
  8
CURVE
100
AcDbLine
 62
250
  6
CONTINUOUS
 10
44.860136417
 20
-35.228996
 11
44.860136417
 21
-34.707635
  0
LINE
  5
30F
100
AcDbEntity
  8
CURVE
100
AcDbLine
 62
250
  6
CONTINUOUS
 10
44.860136417
 20
-33.66956
 11
44.860136417
 21
-33.153297
  0
LINE
  5
310
100
AcDbEntity
  8
CURVE
100
AcDbLine
 62
250
  6
CONTINUOUS
 10
44.860136417
 20
-32.053532
 11
44.860136417
 21
-31.54876
  0
LINE
  5
311
100
AcDbEntity
  8
CURVE
100
AcDbLine
 62
250
  6
CONTINUOUS
 10
44.8989474951
 20
-29.8279642095
 11
44.8989474951
 21
-30.126163664
  0
LINE
  5
312
100
AcDbEntity
  8
CURVE
100
AcDbLine
 62
250
  6
CONTINUOUS
 10
44.9132352194
 20
-30.1088617972
 11
44.9132352194
 21
-29.8290889245
  0
LINE
  5
313
100
AcDbEntity
  8
CURVE
100
AcDbLine
 62
250
  6
CONTINUOUS
 10
44.9164833296
 20
-32.070759
 11
44.9164833296
 21
-31.571179
  0
LINE
  5
314
100
AcDbEntity
  8
CURVE
100
AcDbLine
 62
250
  6
CONTINUOUS
 10
44.92995984
 20
-31.466899
 11
44.92995984
 21
-32.177494
  0
LINE
  5
315
100
AcDbEntity
  8
CURVE
100
AcDbLine
 62
250
  6
CONTINUOUS
 10
44.9473759453
 20
-36.257398
 11
44.9473759453
 21
-35.735605
  0
LINE
  5
316
100
AcDbEntity
  8
CURVE
100
AcDbLine
 62
250
  6
CONTINUOUS
 10
44.9473759458
 20
-30.6285551388
 11
44.9473759458
 21
-30.1088617972
  0
LINE
  5
317
100
AcDbEntity
  8
CURVE
100
AcDbLine
 62
250
  6
CONTINUOUS
 10
44.9473759458
 20
-29.3098079785
 11
44.9473759458
 21
-28.8079038802
  0
LINE
  5
318
100
AcDbEntity
  8
CURVE
100
AcDbLine
 62
250
  6
CONTINUOUS
 10
44.9473759453
 20
-30.781779
 11
44.9473759453
 21
-31.331727
  0
LINE
  5
319
100
AcDbEntity
  8
CURVE
100
AcDbLine
 62
250
  6
CONTINUOUS
 10
44.9473759453
 20
-32.321477
 11
44.9473759453
 21
-32.837608
  0
LINE
  5
31A
100
AcDbEntity
  8
CURVE
100
AcDbLine
 62
250
  6
CONTINUOUS
 10
44.9473759453
 20
-32.919544
 11
44.9473759453
 21
-33.429996
  0
LINE
  5
31B
100
AcDbEntity
  8
CURVE
100
AcDbLine
 62
250
  6
CONTINUOUS
 10
44.9473759453
 20
-34.157611
 11
44.9473759453
 21
-34.230793
  0
LINE
  5
31C
100
AcDbEntity
  8
CURVE
100
AcDbLine
 62
250
  6
CONTINUOUS
 10
44.9473759453
 20
-34.955522
 11
44.9473759453
 21
-35.454708
  0
LINE
  5
31D
100
AcDbEntity
  8
CURVE
100
AcDbLine
 62
250
  6
CONTINUOUS
 10
44.9473759453
 20
-37.254552
 11
44.9473759453
 21
-37.714382
  0
LINE
  5
31E
100
AcDbEntity
  8
0
100
AcDbLine
 62
7
  6
CONTINUOUS
 10
45.0
 20
-43.9993911979
 11
45.0
 21
43.9993911979
  0
LINE
  5
31F
100
AcDbEntity
  8
ASSI
100
AcDbLine
 62
7
  6
CONTINUOUS
 10
45.0
 20
-43.9993911979
 11
45.0
 21
43.9993911979
  0
LINE
  5
320
100
AcDbEntity
  8
0
100
AcDbLine
 62
7
  6
CONTINUOUS
 10
43.3767374102
 20
43.7712689598
 11
-43.3767374102
 21
43.7712689598
  0
LINE
  5
321
100
AcDbEntity
  8
ASSI
100
AcDbLine
 62
7
  6
CONTINUOUS
 10
43.3767374102
 20
43.7712689598
 11
-43.3767374102
 21
43.7712689598
  0
LINE
  5
322
100
AcDbEntity
  8
0
100
AcDbLine
 62
7
  6
CONTINUOUS
 10
43.8055596544
 20
44.8061684565
 11
-43.8055596544
 21
44.8061684565
  0
LINE
  5
323
100
AcDbEntity
  8
ASSI
100
AcDbLine
 62
7
  6
CONTINUOUS
 10
43.8055596544
 20
44.8061684565
 11
-43.8055596544
 21
44.8061684565
  0
LINE
  5
324
100
AcDbEntity
  8
0
100
AcDbLine
 62
7
  6
CONTINUOUS
 10
43.9993911979
 20
45.0
 11
-43.9993911979
 21
45.0
  0
LINE
  5
325
100
AcDbEntity
  8
ASSI
100
AcDbLine
 62
7
  6
CONTINUOUS
 10
43.9993911979
 20
45.0
 11
-43.9993911979
 21
45.0
  0
LINE
  5
326
100
AcDbEntity
  8
CURVE
100
AcDbLine
 62
250
  6
CONTINUOUS
 10
44.9473759453
 20
-34.230793
 11
44.8904101948
 21
-34.842919
  0
LINE
  5
327
100
AcDbEntity
  8
CURVE
100
AcDbLine
 62
250
  6
CONTINUOUS
 10
44.860136417
 20
-34.707635
 11
44.9085720674
 21
-34.191353
  0
LINE
  5
328
100
AcDbEntity
  8
CURVE
100
AcDbLine
 62
250
  6
CONTINUOUS
 10
44.9473759453
 20
-37.714382
 11
44.860136417
 21
-38.506847
  0
LINE
  5
329
100
AcDbEntity
  8
CURVE
100
AcDbLine
 62
250
  6
CONTINUOUS
 10
44.860136417
 20
-31.54876
 11
44.9473759453
 21
-30.781779
  0
LINE
  5
32A
100
AcDbEntity
  8
CURVE
100
AcDbLine
 62
250
  6
CONTINUOUS
 10
44.860136417
 20
-37.940019
 11
44.9201860964
 21
-37.463524
  0
LINE
  5
32B
100
AcDbEntity
  8
CURVE
100
AcDbLine
 62
250
  6
CONTINUOUS
 10
44.9473759453
 20
-31.331727
 11
44.92995984
 21
-31.466899
  0
LINE
  5
32C
100
AcDbEntity
  8
CURVE
100
AcDbLine
 62
250
  6
CONTINUOUS
 10
44.9164833296
 20
-31.571179
 11
44.8841076249
 21
-31.81095
  0
LINE
  5
32D
100
AcDbEntity
  8
CURVE
100
AcDbLine
 62
250
  6
CONTINUOUS
 10
44.860136417
 20
-33.153297
 11
44.9473759453
 21
-32.919544
  0
LINE
  5
32E
100
AcDbEntity
  8
CURVE
100
AcDbLine
 62
250
  6
CONTINUOUS
 10
44.9473759453
 20
-33.429996
 11
44.890647651
 21
-33.5372
  0
LINE
  5
32F
100
AcDbEntity
  8
CURVE
100
AcDbLine
 62
7
  6
CONTINUOUS
 10
44.9324975919
 20
-28.9197046926
 11
44.9473759458
 21
-28.9048263387
  0
LINE
  5
330
100
AcDbEntity
  8
CURVE
100
AcDbLine
 62
7
  6
CONTINUOUS
 10
44.8755531683
 20
-28.9766491162
 11
44.8917284604
 21
-28.9604738241
  0
LINE
  5
331
100
AcDbEntity
  8
CURVE
100
AcDbLine
 62
7
  6
CONTINUOUS
 10
44.8649492422
 20
-29.1972637563
 11
44.903111229
 21
-29.1591017695
  0
LINE
  5
332
100
AcDbEntity
  8
CURVE
100
AcDbLine
 62
7
  6
CONTINUOUS
 10
44.9102747191
 20
-29.1519382794
 11
44.9473759458
 21
-29.1148370527
  0
LINE
  5
333
100
AcDbEntity
  8
CURVE
100
AcDbLine
 62
7
  6
CONTINUOUS
 10
44.8613109348
 20
-29.4109127777
 11
44.9453325953
 21
-29.3268911172
  0
LINE
  5
334
100
AcDbEntity
  8
CURVE
100
AcDbLine
 62
7
  6
CONTINUOUS
 10
44.8969435501
 20
-29.5852908764
 11
44.9190347261
 21
-29.5631997005
  0
LINE
  5
335
100
AcDbEntity
  8
CURVE
100
AcDbLine
 62
7
  6
CONTINUOUS
 10
44.8597994348
 20
-29.6224349918
 11
44.8755681946
 21
-29.606666232
  0
LINE
  5
336
100
AcDbEntity
  8
CURVE
100
AcDbLine
 62
7
  6
CONTINUOUS
 10
44.8988937906
 20
-29.79335135
 11
44.9133811384
 21
-29.7788640022
  0
LINE
  5
337
100
AcDbEntity
  8
CURVE
100
AcDbLine
 62
7
  6
CONTINUOUS
 10
44.8592207145
 20
-29.833024426
 11
44.8742222539
 21
-29.8180228866
  0
LINE
  5
338
100
AcDbEntity
  8
CURVE
100
AcDbLine
 62
7
  6
CONTINUOUS
 10
44.8989474951
 20
-30.0033083595
 11
44.9132352194
 21
-29.9890206352
  0
LINE
  5
339
100
AcDbEntity
  8
CURVE
100
AcDbLine
 62
7
  6
CONTINUOUS
 10
44.8591757532
 20
-30.0430801013
 11
44.8744997271
 21
-30.0277561275
  0
LINE
  5
33A
100
AcDbEntity
  8
CURVE
100
AcDbLine
 62
7
  6
CONTINUOUS
 10
44.8596096984
 20
-30.2526568702
 11
44.9473759458
 21
-30.1648906227
  0
LINE
  5
33B
100
AcDbEntity
  8
CURVE
100
AcDbLine
 62
7
  6
CONTINUOUS
 10
44.8603663752
 20
-30.4619109074
 11
44.9473759458
 21
-30.3749013368
  0
LINE
  5
33C
100
AcDbEntity
  8
CURVE
100
AcDbLine
 62
7
  6
CONTINUOUS
 10
44.9037328578
 20
-30.6285551388
 11
44.9473759458
 21
-30.5849120508
  0
LINE
  5
33D
100
AcDbEntity
  8
CURVE
100
AcDbLine
 62
7
  6
CONTINUOUS
 10
44.9456890453
 20
-30.7966096654
 11
44.9473759453
 21
-30.7949227654
  0
LINE
  5
33E
100
AcDbEntity
  8
CURVE
100
AcDbLine
 62
7
  6
CONTINUOUS
 10
44.9187358044
 20
-31.0335736202
 11
44.9473759453
 21
-31.0049334794
  0
LINE
  5
33F
100
AcDbEntity
  8
CURVE
100
AcDbLine
 62
7
  6
CONTINUOUS
 10
44.8917825635
 20
-31.2705375751
 11
44.9473759453
 21
-31.2149441934
  0
LINE
  5
340
100
AcDbEntity
  8
CURVE
100
AcDbLine
 62
7
  6
CONTINUOUS
 10
44.8648293226
 20
-31.50750153
 11
44.9335875311
 21
-31.4387433215
  0
LINE
  5
341
100
AcDbEntity
  8
CURVE
100
AcDbLine
 62
7
  6
CONTINUOUS
 10
44.9164833296
 20
-31.6658582371
 11
44.92995984
 21
-31.6523817266
  0
LINE
  5
342
100
AcDbEntity
  8
CURVE
100
AcDbLine
 62
7
  6
CONTINUOUS
 10
44.860136417
 20
-31.7222051497
 11
44.9017033076
 21
-31.6806382591
  0
LINE
  5
343
100
AcDbEntity
  8
CURVE
100
AcDbLine
 62
7
  6
CONTINUOUS
 10
44.9164833296
 20
-31.8758689511
 11
44.92995984
 21
-31.8623924406
  0
LINE
  5
344
100
AcDbEntity
  8
CURVE
100
AcDbLine
 62
7
  6
CONTINUOUS
 10
44.860136417
 20
-31.9322158637
 11
44.8948884187
 21
-31.897463862
  0
LINE
  5
345
100
AcDbEntity
  8
CURVE
100
AcDbLine
 62
7
  6
CONTINUOUS
 10
44.869016866
 20
-32.1333461287
 11
44.92995984
 21
-32.0724031547
  0
LINE
  5
346
100
AcDbEntity
  8
CURVE
100
AcDbLine
 62
7
  6
CONTINUOUS
 10
44.8900439624
 20
-32.3223297463
 11
44.9412814361
 21
-32.2710922726
  0
LINE
  5
347
100
AcDbEntity
  8
CURVE
100
AcDbLine
 62
7
  6
CONTINUOUS
 10
44.9110710588
 20
-32.5113133639
 11
44.9473759453
 21
-32.4750084775
  0
LINE
  5
348
100
AcDbEntity
  8
CURVE
100
AcDbLine
 62
7
  6
CONTINUOUS
 10
44.9320981552
 20
-32.7002969815
 11
44.9473759453
 21
-32.6850191915
  0
LINE
  5
349
100
AcDbEntity
  8
CURVE
100
AcDbLine
 62
7
  6
CONTINUOUS
 10
44.860136417
 20
-33.1922801478
 11
44.9473759453
 21
-33.1050406195
  0
LINE
  5
34A
100
AcDbEntity
  8
CURVE
100
AcDbLine
 62
7
  6
CONTINUOUS
 10
44.860136417
 20
-33.4022908618
 11
44.9473759453
 21
-33.3150513335
  0
LINE
  5
34B
100
AcDbEntity
  8
CURVE
100
AcDbLine
 62
7
  6
CONTINUOUS
 10
44.860136417
 20
-33.6123015758
 11
44.8943832694
 21
-33.5780547234
  0
LINE
  5
34C
100
AcDbEntity
  8
CURVE
100
AcDbLine
 62
7
  6
CONTINUOUS
 10
44.8731113113
 20
-33.8093373954
 11
44.9119772116
 21
-33.7704714952
  0
LINE
  5
34D
100
AcDbEntity
  8
0
100
AcDbLine
 62
7
  6
CONTINUOUS
 10
43.8199854699
 20
-44.7906993223
 11
43.8055596544
 21
-44.8061684565
  0
LINE
  5
34E
100
AcDbEntity
  8
ASSI
100
AcDbLine
 62
7
  6
CONTINUOUS
 10
43.8199854699
 20
-44.7906993223
 11
43.8055596544
 21
-44.8061684565
  0
LINE
  5
34F
100
AcDbEntity
  8
CURVE
100
AcDbLine
 62
7
  6
CONTINUOUS
 10
44.8909497793
 20
-34.0015096415
 11
44.9295711538
 21
-33.962888267
  0
LINE
  5
350
100
AcDbEntity
  8
CURVE
100
AcDbLine
 62
7
  6
CONTINUOUS
 10
44.9083085792
 20
-34.1941615557
 11
44.9471650959
 21
-34.1553050389
  0
LINE
  5
351
100
AcDbEntity
  8
CURVE
100
AcDbLine
 62
7
  6
CONTINUOUS
 10
44.8865663864
 20
-34.4259144624
 11
44.9335940176
 21
-34.3788868312
  0
LINE
  5
352
100
AcDbEntity
  8
CURVE
100
AcDbLine
 62
7
  6
CONTINUOUS
 10
44.8648241936
 20
-34.6576673692
 11
44.9120445318
 21
-34.610447031
  0
LINE
  5
353
100
AcDbEntity
  8
CURVE
100
AcDbLine
 62
7
  6
CONTINUOUS
 10
44.860136417
 20
-34.8723658599
 11
44.890495046
 21
-34.8420072309
  0
LINE
  5
354
100
AcDbEntity
  8
CURVE
100
AcDbLine
 62
7
  6
CONTINUOUS
 10
44.860136417
 20
-35.0823765739
 11
44.9473759453
 21
-34.9951370456
  0
LINE
  5
355
100
AcDbEntity
  8
CURVE
100
AcDbLine
 62
7
  6
CONTINUOUS
 10
44.8778076074
 20
-35.2747160975
 11
44.9473759453
 21
-35.2051477596
  0
LINE
  5
356
100
AcDbEntity
  8
CURVE
100
AcDbLine
 62
7
  6
CONTINUOUS
 10
44.9363509727
 20
-35.4261834462
 11
44.9473759453
 21
-35.4151584736
  0
LINE
  5
357
100
AcDbEntity
  8
CURVE
100
AcDbLine
 62
7
  6
CONTINUOUS
 10
44.860131217
 20
-35.92242463
 11
44.9473759453
 21
-35.8351799016
  0
LINE
  5
358
100
AcDbEntity
  8
CURVE
100
AcDbLine
 62
7
  6
CONTINUOUS
 10
44.860131217
 20
-36.132435344
 11
44.9473759453
 21
-36.0451906157
  0
LINE
  5
359
100
AcDbEntity
  8
CURVE
100
AcDbLine
 62
7
  6
CONTINUOUS
 10
44.9451792749
 20
-36.257398
 11
44.9473759453
 21
-36.2552013297
  0
LINE
  5
35A
100
AcDbEntity
  8
CURVE
100
AcDbLine
 62
7
  6
CONTINUOUS
 10
44.860136417
 20
-36.552451572
 11
44.8700688497
 21
-36.5425191393
  0
LINE
  5
35B
100
AcDbEntity
  8
CURVE
100
AcDbLine
 62
7
  6
CONTINUOUS
 10
44.860136417
 20
-36.762462286
 11
44.8906370703
 21
-36.7319616327
  0
LINE
  5
35C
100
AcDbEntity
  8
CURVE
100
AcDbLine
 62
7
  6
CONTINUOUS
 10
44.860136417
 20
-36.972473
 11
44.9112052909
 21
-36.9214041261
  0
LINE
  5
35D
100
AcDbEntity
  8
CURVE
100
AcDbLine
 62
7
  6
CONTINUOUS
 10
44.883019851
 20
-37.15960028
 11
44.9317735115
 21
-37.1108466195
  0
LINE
  5
35E
100
AcDbEntity
  8
CURVE
100
AcDbLine
 62
7
  6
CONTINUOUS
 10
44.9059032851
 20
-37.3467275599
 11
44.9473759453
 21
-37.3052548997
  0
LINE
  5
35F
100
AcDbEntity
  8
CURVE
100
AcDbLine
 62
7
  6
CONTINUOUS
 10
44.9088045085
 20
-37.5538370505
 11
44.9473759453
 21
-37.5152656137
  0
LINE
  5
360
100
AcDbEntity
  8
CURVE
100
AcDbLine
 62
7
  6
CONTINUOUS
 10
44.8785218389
 20
-37.7941304342
 11
44.9460282685
 21
-37.7266240046
  0
LINE
  5
361
100
AcDbEntity
  8
CURVE
100
AcDbLine
 62
7
  6
CONTINUOUS
 10
44.860136417
 20
-38.0225265701
 11
44.9200490088
 21
-37.9626139782
  0
LINE
  5
362
100
AcDbEntity
  8
CURVE
100
AcDbLine
 62
7
  6
CONTINUOUS
 10
44.860136417
 20
-38.2325372841
 11
44.8940697492
 21
-38.1986039519
  0
LINE
  5
363
100
AcDbEntity
  8
CURVE
100
AcDbLine
 62
7
  6
CONTINUOUS
 10
44.860136417
 20
-38.4425479981
 11
44.8680904896
 21
-38.4345939255
  0
LINE
  5
364
100
AcDbEntity
  8
0
100
AcDbLine
 62
7
  6
CONTINUOUS
 10
43.3767374102
 20
-43.7712689598
 11
43.7712689598
 21
-43.3767374102
  0
LINE
  5
365
100
AcDbEntity
  8
ASSI
100
AcDbLine
 62
7
  6
CONTINUOUS
 10
43.3767374102
 20
-43.7712689598
 11
43.7712689598
 21
-43.3767374102
  0
LINE
  5
366
100
AcDbEntity
  8
0
100
AcDbLine
 62
7
  6
CONTINUOUS
 10
43.8199854699
 20
-44.7906993223
 11
44.7906993223
 21
-43.8199854699
  0
LINE
  5
367
100
AcDbEntity
  8
ASSI
100
AcDbLine
 62
7
  6
CONTINUOUS
 10
43.8199854699
 20
-44.7906993223
 11
44.7906993223
 21
-43.8199854699
  0
LINE
  5
368
100
AcDbEntity
  8
0
100
AcDbLine
 62
7
  6
CONTINUOUS
 10
45.0
 20
-43.9993911979
 11
43.9993911979
 21
-45.0
  0
LINE
  5
369
100
AcDbEntity
  8
ASSI
100
AcDbLine
 62
7
  6
CONTINUOUS
 10
45.0
 20
-43.9993911979
 11
43.9993911979
 21
-45.0
  0
LINE
  5
36A
100
AcDbEntity
  8
0
100
AcDbLine
 62
7
  6
CONTINUOUS
 10
44.8061684565
 20
-43.8055596544
 11
44.7906993223
 21
-43.8199854699
  0
LINE
  5
36B
100
AcDbEntity
  8
ASSI
100
AcDbLine
 62
7
  6
CONTINUOUS
 10
44.8061684565
 20
-43.8055596544
 11
44.7906993223
 21
-43.8199854699
  0
LINE
  5
36C
100
AcDbEntity
  8
0
100
AcDbLine
 62
7
  6
CONTINUOUS
 10
44.7906993223
 20
43.8199854699
 11
44.8061684565
 21
43.8055596544
  0
LINE
  5
36D
100
AcDbEntity
  8
ASSI
100
AcDbLine
 62
7
  6
CONTINUOUS
 10
44.7906993223
 20
43.8199854699
 11
44.8061684565
 21
43.8055596544
  0
LINE
  5
36E
100
AcDbEntity
  8
0
100
AcDbLine
 62
7
  6
CONTINUOUS
 10
43.7712689598
 20
43.3767374102
 11
43.3767374102
 21
43.7712689598
  0
LINE
  5
36F
100
AcDbEntity
  8
ASSI
100
AcDbLine
 62
7
  6
CONTINUOUS
 10
43.7712689598
 20
43.3767374102
 11
43.3767374102
 21
43.7712689598
  0
LINE
  5
370
100
AcDbEntity
  8
0
100
AcDbLine
 62
7
  6
CONTINUOUS
 10
44.7906993223
 20
43.8199854699
 11
43.8199854699
 21
44.7906993223
  0
LINE
  5
371
100
AcDbEntity
  8
ASSI
100
AcDbLine
 62
7
  6
CONTINUOUS
 10
44.7906993223
 20
43.8199854699
 11
43.8199854699
 21
44.7906993223
  0
LINE
  5
372
100
AcDbEntity
  8
0
100
AcDbLine
 62
7
  6
CONTINUOUS
 10
43.9993911979
 20
45.0
 11
45.0
 21
43.9993911979
  0
LINE
  5
373
100
AcDbEntity
  8
ASSI
100
AcDbLine
 62
7
  6
CONTINUOUS
 10
43.9993911979
 20
45.0
 11
45.0
 21
43.9993911979
  0
LINE
  5
374
100
AcDbEntity
  8
0
100
AcDbLine
 62
7
  6
CONTINUOUS
 10
43.8055596544
 20
44.8061684565
 11
43.8199854699
 21
44.7906993223
  0
LINE
  5
375
100
AcDbEntity
  8
ASSI
100
AcDbLine
 62
7
  6
CONTINUOUS
 10
43.8055596544
 20
44.8061684565
 11
43.8199854699
 21
44.7906993223
  0
LWPOLYLINE
  5
376
100
AcDbEntity
  8
0
100
AcDbPolyline
 62
7
  6
CONTINUOUS
 90
3
 70
0
 43
0.3500000006
 10
-90.5703802185
 20
66.1618208313
 10
-89.7132422791
 20
67.0189678345
 10
-89.7132422791
 20
64.0189669189
  0
LWPOLYLINE
  5
377
100
AcDbEntity
  8
0
100
AcDbPolyline
 62
7
  6
CONTINUOUS
 90
3
 70
0
 43
0.3500000006
 10
-84.7846628723
 20
66.1618208313
 10
-83.9275249329
 20
67.0189678345
 10
-83.9275249329
 20
64.0189669189
  0
LWPOLYLINE
  5
378
100
AcDbEntity
  8
0
100
AcDbPolyline
 62
7
  6
CONTINUOUS
 90
3
 70
0
 43
0.3500000006
 10
-84.2261382751
 20
57.3168167725
 10
-83.368991272
 20
58.1739547119
 10
-83.368991272
 20
55.1739537964
  0
LINE
  5
379
100
AcDbEntity
  8
0
100
AcDbLine
 62
7
  6
CONTINUOUS
 10
-78.4281034822
 20
-44.8061684565
 11
-72.8774943092
 21
-45.0
  0
LINE
  5
37A
100
AcDbEntity
  8
ASSI
100
AcDbLine
 62
7
  6
CONTINUOUS
 10
-78.4281034822
 20
-44.8061684565
 11
-72.8774943092
 21
-45.0
  0
LINE
  5
37B
100
AcDbEntity
  8
0
100
AcDbLine
 62
7
  6
CONTINUOUS
 10
-78.4281034822
 20
-43.8055596544
 11
-72.8774943092
 21
-43.9993911979
  0
LINE
  5
37C
100
AcDbEntity
  8
ASSI
100
AcDbLine
 62
7
  6
CONTINUOUS
 10
-78.4281034822
 20
-43.8055596544
 11
-72.8774943092
 21
-43.9993911979
  0
LINE
  5
37D
100
AcDbEntity
  8
0
100
AcDbLine
 62
7
  6
CONTINUOUS
 10
-72.8774943092
 20
-42.7580439128
 11
-72.2774943092
 21
-42.8
  0
LINE
  5
37E
100
AcDbEntity
  8
0
100
AcDbLine
 62
7
  6
CONTINUOUS
 10
-79.4274943092
 20
43.3767374102
 11
-78.4430418514
 21
43.8199854699
  0
LINE
  5
37F
100
AcDbEntity
  8
ASSI
100
AcDbLine
 62
7
  6
CONTINUOUS
 10
-79.4274943092
 20
43.3767374102
 11
-78.4430418514
 21
43.8199854699
  0
LINE
  5
380
100
AcDbEntity
  8
0
100
AcDbLine
 62
250
  6
CONTINUOUS
 10
-72.8774943092
 20
-41.4612106475
 11
-72.2774943092
 21
-41.5031667347
  0
LINE
  5
381
100
AcDbEntity
  8
0
100
AcDbLine
 62
7
  6
CONTINUOUS
 10
-79.4274943092
 20
-43.3767374102
 11
-78.4430418514
 21
-43.8199854699
  0
LINE
  5
382
100
AcDbEntity
  8
ASSI
100
AcDbLine
 62
7
  6
CONTINUOUS
 10
-79.4274943092
 20
-43.3767374102
 11
-78.4430418514
 21
-43.8199854699
  0
LINE
  5
383
100
AcDbEntity
  8
CURVE
100
AcDbLine
 62
250
  6
CONTINUOUS
 10
-76.8826632977
 20
-37.940019
 11
-75.1630654688
 21
-37.463524
  0
LINE
  5
384
100
AcDbEntity
  8
CURVE
100
AcDbLine
 62
250
  6
CONTINUOUS
 10
-76.882812207
 20
-36.257398
 11
-74.3844500694
 21
-36.257398
  0
LINE
  5
385
100
AcDbEntity
  8
CURVE
100
AcDbLine
 62
250
  6
CONTINUOUS
 10
-75.1630654688
 20
-37.463524
 11
-76.8826632977
 21
-36.972473
  0
LINE
  5
386
100
AcDbEntity
  8
0
100
AcDbLine
 62
7
  6
CONTINUOUS
 10
-78.4281034822
 20
44.8061684565
 11
-79.4274943092
 21
43.7712689598
  0
LINE
  5
387
100
AcDbEntity
  8
ASSI
100
AcDbLine
 62
7
  6
CONTINUOUS
 10
-78.4281034822
 20
44.8061684565
 11
-79.4274943092
 21
43.7712689598
  0
LINE
  5
388
100
AcDbEntity
  8
CURVE
100
AcDbLine
 62
250
  6
CONTINUOUS
 10
-74.3844500694
 20
-33.429996
 11
-76.0089358733
 21
-33.5372
  0
LINE
  5
389
100
AcDbEntity
  8
CURVE
100
AcDbLine
 62
250
  6
CONTINUOUS
 10
-74.3844500694
 20
-35.735605
 11
-76.882812207
 21
-35.735605
  0
LINE
  5
38A
100
AcDbEntity
  8
CURVE
100
AcDbLine
 62
250
  6
CONTINUOUS
 10
-76.0157357285
 20
-34.842919
 11
-74.3844500694
 21
-34.955522
  0
LINE
  5
38B
100
AcDbEntity
  8
CURVE
100
AcDbLine
 62
250
  6
CONTINUOUS
 10
-74.3844500694
 20
-35.454708
 11
-76.8826632977
 21
-35.228996
  0
LINE
  5
38C
100
AcDbEntity
  8
CURVE
100
AcDbLine
 62
250
  6
CONTINUOUS
 10
-76.8826632977
 20
-36.451037
 11
-74.3844500694
 21
-37.254552
  0
LINE
  5
38D
100
AcDbEntity
  8
0
100
AcDbLine
 62
7
  6
CONTINUOUS
 10
-79.4274943092
 20
-43.7712689598
 11
-78.4281034822
 21
-44.8061684565
  0
LINE
  5
38E
100
AcDbEntity
  8
ASSI
100
AcDbLine
 62
7
  6
CONTINUOUS
 10
-79.4274943092
 20
-43.7712689598
 11
-78.4281034822
 21
-44.8061684565
  0
LWPOLYLINE
  5
38F
100
AcDbEntity
  8
0
100
AcDbPolyline
 62
7
  6
CONTINUOUS
 90
3
 70
0
 43
0.3500000006
 10
-85.7846631775
 20
64.3046825867
 10
-85.8560943604
 20
64.0903981018
 10
-85.9989567261
 20
63.8046824341
  0
LINE
  5
390
100
AcDbEntity
  8
CURVE
100
AcDbLine
 62
250
  6
CONTINUOUS
 10
-74.3844500694
 20
-31.331727
 11
-74.8831820701
 21
-31.466899
  0
LINE
  5
391
100
AcDbEntity
  8
CURVE
100
AcDbLine
 62
250
  6
CONTINUOUS
 10
-75.2690988368
 20
-31.571179
 11
-76.1962177167
 21
-31.81095
  0
LINE
  5
392
100
AcDbEntity
  8
CURVE
100
AcDbLine
 62
250
  6
CONTINUOUS
 10
-76.8826632977
 20
-33.153297
 11
-74.3844500694
 21
-32.919544
  0
LINE
  5
393
100
AcDbEntity
  8
CURVE
100
AcDbLine
 62
250
  6
CONTINUOUS
 10
-76.8534754416
 20
-30.6285551388
 11
-74.3844500529
 21
-30.6285551388
  0
LINE
  5
394
100
AcDbEntity
  8
CURVE
100
AcDbLine
 62
250
  6
CONTINUOUS
 10
-75.7712594345
 20
-30.126163664
 11
-76.4570675564
 21
-30.126163664
  0
LINE
  5
395
100
AcDbEntity
  8
CURVE
100
AcDbLine
 62
250
  6
CONTINUOUS
 10
-74.3844500529
 20
-30.1088617972
 11
-75.3621125436
 21
-30.1088617972
  0
LINE
  5
396
100
AcDbEntity
  8
CURVE
100
AcDbLine
 62
250
  6
CONTINUOUS
 10
-76.1962177167
 20
-31.81095
 11
-75.2690988368
 21
-32.070759
  0
LINE
  5
397
100
AcDbEntity
  8
CURVE
100
AcDbLine
 62
250
  6
CONTINUOUS
 10
-74.8831820701
 20
-32.177494
 11
-74.3844500694
 21
-32.321477
  0
LINE
  5
398
100
AcDbEntity
  8
CURVE
100
AcDbLine
 62
250
  6
CONTINUOUS
 10
-74.3844500694
 20
-32.837608
 11
-76.8826632977
 21
-32.053532
  0
LINE
  5
399
100
AcDbEntity
  8
CURVE
100
AcDbLine
 62
250
  6
CONTINUOUS
 10
-75.4956477452
 20
-34.191353
 11
-76.8826632977
 21
-33.66956
  0
LINE
  5
39A
100
AcDbEntity
  8
CURVE
100
AcDbLine
 62
250
  6
CONTINUOUS
 10
-76.0089358733
 20
-33.5372
 11
-74.3844500694
 21
-34.157611
  0
LWPOLYLINE
  5
39B
100
AcDbEntity
  8
0
100
AcDbPolyline
 62
7
  6
CONTINUOUS
 90
3
 70
0
 43
0.3500000006
 10
-85.2261385803
 20
55.4596694641
 10
-85.2975606995
 20
55.2453849792
 10
-85.4404230652
 20
54.9596693115
  0
LINE
  5
39C
100
AcDbEntity
  8
0
100
AcDbLine
 62
7
  6
CONTINUOUS
 10
-71.3516571582
 20
-27.1501294387
 11
-72.2774943092
 21
-27.151745331
  0
LINE
  5
39D
100
AcDbEntity
  8
0
100
AcDbLine
 62
250
  6
CONTINUOUS
 10
-71.3517217255
 20
-26.9276792439
 11
-72.2774943092
 21
-26.9280974384
  0
LINE
  5
39E
100
AcDbEntity
  8
CURVE
100
AcDbLine
 62
250
  6
CONTINUOUS
 10
-75.5505936274
 20
-29.2870512436
 11
-75.565355887
 21
-29.2870512436
  0
LINE
  5
39F
100
AcDbEntity
  8
0
100
AcDbLine
 62
7
  6
CONTINUOUS
 10
-69.827445077
 20
-26.3415638603
 11
-72.2774943092
 21
-26.3558178298
  0
LINE
  5
3A0
100
AcDbEntity
  8
0
100
AcDbLine
 62
250
  6
CONTINUOUS
 10
-69.827445077
 20
-26.2536973817
 11
-72.2774943092
 21
-26.2679513512
  0
LINE
  5
3A1
100
AcDbEntity
  8
0
100
AcDbLine
 62
7
  6
CONTINUOUS
 10
-71.3273699303
 20
-25.2
 11
-72.2774943092
 21
-25.2
  0
LINE
  5
3A2
100
AcDbEntity
  8
0
100
AcDbLine
 62
7
  6
CONTINUOUS
 10
-72.2774943092
 20
-25.05
 11
-72.1274943092
 21
-25.05
  0
LINE
  5
3A3
100
AcDbEntity
  8
0
100
AcDbLine
 62
7
  6
CONTINUOUS
 10
-71.8274943092
 20
-25.05
 11
-71.6274943092
 21
-25.05
  0
LINE
  5
3A4
100
AcDbEntity
  8
0
100
AcDbLine
 62
7
  6
CONTINUOUS
 10
-72.2774943092
 20
-25.7558198745
 11
-69.467027118
 21
-25.8799866677
  0
LINE
  5
3A5
100
AcDbEntity
  8
0
100
AcDbLine
 62
7
  6
CONTINUOUS
 10
-69.2774943092
 20
-25.4
 11
-71.2278662113
 21
-25.2049628098
  0
LINE
  5
3A6
100
AcDbEntity
  8
0
100
AcDbLine
 62
7
  6
CONTINUOUS
 10
-72.1274943092
 20
25.05
 11
-71.9774943092
 21
25.2
  0
LINE
  5
3A7
100
AcDbEntity
  8
0
100
AcDbLine
 62
7
  6
CONTINUOUS
 10
-71.6274943092
 20
25.05
 11
-71.4774943092
 21
25.2
  0
LINE
  5
3A8
100
AcDbEntity
  8
0
100
AcDbLine
 62
7
  6
CONTINUOUS
 10
-72.1274943092
 20
-25.05
 11
-71.9774943092
 21
-25.2
  0
LINE
  5
3A9
100
AcDbEntity
  8
0
100
AcDbLine
 62
7
  6
CONTINUOUS
 10
-71.6274943092
 20
-25.05
 11
-71.4774943092
 21
-25.2
  0
LWPOLYLINE
  5
3AA
100
AcDbEntity
  8
0
100
AcDbPolyline
 62
7
  6
CONTINUOUS
 90
13
 70
0
 43
0.3500000006
 10
-88.8560952759
 20
64.8761139221
 10
-88.8560952759
 20
66.1618208313
 10
-88.641810791
 20
66.5903988647
 10
-88.2132418213
 20
67.0189678345
 10
-87.9989482727
 20
67.0189678345
 10
-87.570379303
 20
66.5903988647
 10
-87.3560948181
 20
66.1618208313
 10
-87.3560948181
 20
64.8761139221
 10
-87.570379303
 20
64.4475358887
 10
-87.9989482727
 20
64.0189669189
 10
-88.2132418213
 20
64.0189669189
 10
-88.641810791
 20
64.4475358887
 10
-88.8560952759
 20
64.8761139221
  0
LWPOLYLINE
  5
3AB
100
AcDbEntity
  8
0
100
AcDbPolyline
 62
7
  6
CONTINUOUS
 90
4
 70
0
 43
0.3500000006
 10
-88.297561615
 20
57.5311012573
 10
-88.297561615
 20
58.1739547119
 10
-86.7975611572
 20
58.1739547119
 10
-87.6547081604
 20
55.1739537964
  0
LINE
  5
3AC
100
AcDbEntity
  8
0
100
AcDbLine
 62
7
  6
CONTINUOUS
 10
-79.4274943092
 20
-43.7712689598
 11
-79.4274943092
 21
43.7712689598
  0
LINE
  5
3AD
100
AcDbEntity
  8
ASSI
100
AcDbLine
 62
7
  6
CONTINUOUS
 10
-79.4274943092
 20
-43.7712689598
 11
-79.4274943092
 21
43.7712689598
  0
LINE
  5
3AE
100
AcDbEntity
  8
0
100
AcDbLine
 62
7
  6
CONTINUOUS
 10
-78.4430418514
 20
-44.7906993223
 11
-78.4430418514
 21
-43.8199854699
  0
LINE
  5
3AF
100
AcDbEntity
  8
ASSI
100
AcDbLine
 62
7
  6
CONTINUOUS
 10
-78.4430418514
 20
-44.7906993223
 11
-78.4430418514
 21
-43.8199854699
  0
LINE
  5
3B0
100
AcDbEntity
  8
0
100
AcDbLine
 62
7
  6
CONTINUOUS
 10
-78.4430418514
 20
43.8199854699
 11
-78.4430418514
 21
44.7906993223
  0
LINE
  5
3B1
100
AcDbEntity
  8
ASSI
100
AcDbLine
 62
7
  6
CONTINUOUS
 10
-78.4430418514
 20
43.8199854699
 11
-78.4430418514
 21
44.7906993223
  0
LINE
  5
3B2
100
AcDbEntity
  8
0
100
AcDbLine
 62
7
  6
CONTINUOUS
 10
-78.4281034822
 20
-43.8055596544
 11
-78.4281034822
 21
43.8055596544
  0
LINE
  5
3B3
100
AcDbEntity
  8
ASSI
100
AcDbLine
 62
7
  6
CONTINUOUS
 10
-78.4281034822
 20
-43.8055596544
 11
-78.4281034822
 21
43.8055596544
  0
LINE
  5
3B4
100
AcDbEntity
  8
CURVE
100
AcDbLine
 62
250
  6
CONTINUOUS
 10
-76.882812207
 20
-35.735605
 11
-76.882812207
 21
-36.257398
  0
LINE
  5
3B5
100
AcDbEntity
  8
CURVE
100
AcDbLine
 62
250
  6
CONTINUOUS
 10
-76.8826632977
 20
-38.506847
 11
-76.8826632977
 21
-37.940019
  0
LINE
  5
3B6
100
AcDbEntity
  8
CURVE
100
AcDbLine
 62
250
  6
CONTINUOUS
 10
-76.8826632977
 20
-36.972473
 11
-76.8826632977
 21
-36.451037
  0
LINE
  5
3B7
100
AcDbEntity
  8
CURVE
100
AcDbLine
 62
250
  6
CONTINUOUS
 10
-76.8826632977
 20
-35.228996
 11
-76.8826632977
 21
-34.707635
  0
LINE
  5
3B8
100
AcDbEntity
  8
CURVE
100
AcDbLine
 62
250
  6
CONTINUOUS
 10
-76.8826632977
 20
-33.66956
 11
-76.8826632977
 21
-33.153297
  0
LINE
  5
3B9
100
AcDbEntity
  8
CURVE
100
AcDbLine
 62
250
  6
CONTINUOUS
 10
-76.8826632977
 20
-32.053532
 11
-76.8826632977
 21
-31.54876
  0
LINE
  5
3BA
100
AcDbEntity
  8
CURVE
100
AcDbLine
 62
250
  6
CONTINUOUS
 10
-75.7712594345
 20
-29.8279642095
 11
-75.7712594345
 21
-30.126163664
  0
LINE
  5
3BB
100
AcDbEntity
  8
CURVE
100
AcDbLine
 62
250
  6
CONTINUOUS
 10
-75.3621125436
 20
-30.1088617972
 11
-75.3621125436
 21
-29.8290889245
  0
LINE
  5
3BC
100
AcDbEntity
  8
CURVE
100
AcDbLine
 62
250
  6
CONTINUOUS
 10
-75.2690988368
 20
-32.070759
 11
-75.2690988368
 21
-31.571179
  0
LINE
  5
3BD
100
AcDbEntity
  8
CURVE
100
AcDbLine
 62
250
  6
CONTINUOUS
 10
-74.8831820701
 20
-31.466899
 11
-74.8831820701
 21
-32.177494
  0
LINE
  5
3BE
100
AcDbEntity
  8
CURVE
100
AcDbLine
 62
250
  6
CONTINUOUS
 10
-74.3844500694
 20
-36.257398
 11
-74.3844500694
 21
-35.735605
  0
LINE
  5
3BF
100
AcDbEntity
  8
CURVE
100
AcDbLine
 62
250
  6
CONTINUOUS
 10
-74.3844500694
 20
-30.781779
 11
-74.3844500694
 21
-31.331727
  0
LINE
  5
3C0
100
AcDbEntity
  8
CURVE
100
AcDbLine
 62
250
  6
CONTINUOUS
 10
-74.3844500694
 20
-32.321477
 11
-74.3844500694
 21
-32.837608
  0
LINE
  5
3C1
100
AcDbEntity
  8
CURVE
100
AcDbLine
 62
250
  6
CONTINUOUS
 10
-74.3844500694
 20
-32.919544
 11
-74.3844500694
 21
-33.429996
  0
LINE
  5
3C2
100
AcDbEntity
  8
CURVE
100
AcDbLine
 62
250
  6
CONTINUOUS
 10
-74.3844500694
 20
-34.157611
 11
-74.3844500694
 21
-34.230793
  0
LINE
  5
3C3
100
AcDbEntity
  8
CURVE
100
AcDbLine
 62
250
  6
CONTINUOUS
 10
-74.3844500694
 20
-34.955522
 11
-74.3844500694
 21
-35.454708
  0
LINE
  5
3C4
100
AcDbEntity
  8
CURVE
100
AcDbLine
 62
250
  6
CONTINUOUS
 10
-74.3844500694
 20
-37.254552
 11
-74.3844500694
 21
-37.714382
  0
LINE
  5
3C5
100
AcDbEntity
  8
CURVE
100
AcDbLine
 62
250
  6
CONTINUOUS
 10
-74.3844500529
 20
-30.6285551388
 11
-74.3844500529
 21
-30.1088617972
  0
LINE
  5
3C6
100
AcDbEntity
  8
CURVE
100
AcDbLine
 62
250
  6
CONTINUOUS
 10
-74.3844500529
 20
-29.3098079785
 11
-74.3844500529
 21
-28.8079038802
  0
LINE
  5
3C7
100
AcDbEntity
  8
0
100
AcDbLine
 62
250
  6
CONTINUOUS
 10
-71.3516572293
 20
-27.1500750748
 11
-71.3517217255
 21
-26.9276792439
  0
LINE
  5
3C8
100
AcDbEntity
  8
0
100
AcDbLine
 62
7
  6
CONTINUOUS
 10
-72.8774943092
 20
-45.0
 11
-72.8774943092
 21
45.0
  0
LINE
  5
3C9
100
AcDbEntity
  8
ASSI
100
AcDbLine
 62
7
  6
CONTINUOUS
 10
-72.8774943092
 20
-45.0
 11
-72.8774943092
 21
45.0
  0
LINE
  5
3CA
100
AcDbEntity
  8
0
100
AcDbLine
 62
7
  6
CONTINUOUS
 10
-72.2774943092
 20
-42.8
 11
-72.2774943092
 21
42.8
  0
LINE
  5
3CB
100
AcDbEntity
  8
0
100
AcDbLine
 62
250
  6
CONTINUOUS
 10
-71.3517217255
 20
26.9276792439
 11
-71.3516572607
 21
27.1501232517
  0
LINE
  5
3CC
100
AcDbEntity
  8
0
100
AcDbLine
 62
250
  6
CONTINUOUS
 10
-69.467027118
 20
25.8799866677
 11
-69.467027118
 21
25.3810467191
  0
LINE
  5
3CD
100
AcDbEntity
  8
0
100
AcDbLine
 62
250
  6
CONTINUOUS
 10
-69.467027118
 20
-25.3810467191
 11
-69.467027118
 21
-25.8799866677
  0
LINE
  5
3CE
100
AcDbEntity
  8
0
100
AcDbLine
 62
7
  6
CONTINUOUS
 10
-69.2774943092
 20
26.0883643404
 11
-69.2774943092
 21
25.4
  0
LINE
  5
3CF
100
AcDbEntity
  8
0
100
AcDbLine
 62
7
  6
CONTINUOUS
 10
-69.2774943092
 20
-25.4
 11
-69.2774943092
 21
-26.0883643404
  0
LWPOLYLINE
  5
3D0
100
AcDbEntity
  8
0
100
AcDbPolyline
 62
7
  6
CONTINUOUS
 90
10
 70
0
 43
0.3500000006
 10
-85.2975606995
 20
55.673953949
 10
-85.2261385803
 20
55.531100647
 10
-85.2261385803
 20
55.4596694641
 10
-85.3689918823
 20
55.3168116302
 10
-85.4404230652
 20
55.3168116302
 10
-85.5118451843
 20
55.3882428131
 10
-85.5118451843
 20
55.4596694641
 10
-85.4404230652
 20
55.602527298
 10
-85.3689918823
 20
55.673953949
 10
-85.2975606995
 20
55.673953949
  0
LINE
  5
3D1
100
AcDbEntity
  8
CURVE
100
AcDbLine
 62
7
  6
CONTINUOUS
 10
-76.8343127218
 20
-29.3637367197
 11
-76.4509301623
 21
-28.9803541601
  0
LINE
  5
3D2
100
AcDbEntity
  8
CURVE
100
AcDbLine
 62
7
  6
CONTINUOUS
 10
-76.8934301571
 20
-29.6328648689
 11
-76.1949122825
 21
-28.9343469943
  0
LINE
  5
3D3
100
AcDbEntity
  8
CURVE
100
AcDbLine
 62
7
  6
CONTINUOUS
 10
-76.9103764748
 20
-29.8598219006
 11
-76.0037916613
 21
-28.9532370872
  0
LINE
  5
3D4
100
AcDbEntity
  8
CURVE
100
AcDbLine
 62
7
  6
CONTINUOUS
 10
-76.9090344849
 20
-30.0684906248
 11
-76.4341631505
 21
-29.5936192903
  0
LINE
  5
3D5
100
AcDbEntity
  8
CURVE
100
AcDbLine
 62
7
  6
CONTINUOUS
 10
-76.2976047365
 20
-29.4570608763
 11
-75.8493814565
 21
-29.0088375964
  0
LINE
  5
3D6
100
AcDbEntity
  8
0
100
AcDbLine
 62
7
  6
CONTINUOUS
 10
-71.9774943092
 20
-25.2
 11
-71.8274943092
 21
-25.05
  0
LINE
  5
3D7
100
AcDbEntity
  8
CURVE
100
AcDbLine
 62
7
  6
CONTINUOUS
 10
-76.8966256623
 20
-30.2660925161
 11
-76.4802463469
 21
-29.8497132007
  0
LINE
  5
3D8
100
AcDbEntity
  8
CURVE
100
AcDbLine
 62
7
  6
CONTINUOUS
 10
-76.0624590755
 20
-29.4319259293
 11
-75.7218789471
 21
-29.091345801
  0
LINE
  5
3D9
100
AcDbEntity
  8
CURVE
100
AcDbLine
 62
7
  6
CONTINUOUS
 10
-76.8767306931
 20
-30.4562082609
 11
-76.4687345026
 21
-30.0482120705
  0
LINE
  5
3DA
100
AcDbEntity
  8
CURVE
100
AcDbLine
 62
7
  6
CONTINUOUS
 10
-75.9139310815
 20
-29.4934086494
 11
-75.6183292372
 21
-29.197806805
  0
LINE
  5
3DB
100
AcDbEntity
  8
CURVE
100
AcDbLine
 62
7
  6
CONTINUOUS
 10
-76.8390668569
 20
-30.6285551388
 11
-76.3366753821
 21
-30.126163664
  0
LINE
  5
3DC
100
AcDbEntity
  8
CURVE
100
AcDbLine
 62
7
  6
CONTINUOUS
 10
-75.8172179144
 20
-29.6067061963
 11
-75.257097367
 21
-29.0465856489
  0
LINE
  5
3DD
100
AcDbEntity
  8
CURVE
100
AcDbLine
 62
7
  6
CONTINUOUS
 10
-76.6290561429
 20
-30.6285551388
 11
-76.1266646681
 21
-30.126163664
  0
LINE
  5
3DE
100
AcDbEntity
  8
CURVE
100
AcDbLine
 62
7
  6
CONTINUOUS
 10
-75.7745006597
 20
-29.7739996556
 11
-74.9600017396
 21
-28.9595007355
  0
LINE
  5
3DF
100
AcDbEntity
  8
CURVE
100
AcDbLine
 62
7
  6
CONTINUOUS
 10
-76.4190454289
 20
-30.6285551388
 11
-75.9166539541
 21
-30.126163664
  0
LINE
  5
3E0
100
AcDbEntity
  8
CURVE
100
AcDbLine
 62
7
  6
CONTINUOUS
 10
-75.7712594345
 20
-29.9807691444
 11
-74.6746709453
 21
-28.8841806552
  0
LINE
  5
3E1
100
AcDbEntity
  8
CURVE
100
AcDbLine
 62
7
  6
CONTINUOUS
 10
-76.2090347149
 20
-30.6285551388
 11
-75.3576119899
 21
-29.7771324139
  0
LINE
  5
3E2
100
AcDbEntity
  8
CURVE
100
AcDbLine
 62
7
  6
CONTINUOUS
 10
-75.1057425621
 20
-29.525262986
 11
-74.3898041546
 21
-28.8093245785
  0
LINE
  5
3E3
100
AcDbEntity
  8
CURVE
100
AcDbLine
 62
7
  6
CONTINUOUS
 10
-75.9990240009
 20
-30.6285551388
 11
-75.3621125436
 21
-29.9916436815
  0
LINE
  5
3E4
100
AcDbEntity
  8
CURVE
100
AcDbLine
 62
7
  6
CONTINUOUS
 10
-74.8010964148
 20
-29.4306275527
 11
-74.3844500529
 21
-29.0139811908
  0
LINE
  5
3E5
100
AcDbEntity
  8
CURVE
100
AcDbLine
 62
7
  6
CONTINUOUS
 10
-76.8826632977
 20
-31.7222051497
 11
-76.6323774261
 21
-31.471919278
  0
LINE
  5
3E6
100
AcDbEntity
  8
CURVE
100
AcDbLine
 62
7
  6
CONTINUOUS
 10
-75.7890132869
 20
-30.6285551388
 11
-75.2693199453
 21
-30.1088617972
  0
LINE
  5
3E7
100
AcDbEntity
  8
CURVE
100
AcDbLine
 62
7
  6
CONTINUOUS
 10
-74.5056506509
 20
-29.3451925029
 11
-74.3844500529
 21
-29.2239919048
  0
LINE
  5
3E8
100
AcDbEntity
  8
CURVE
100
AcDbLine
 62
7
  6
CONTINUOUS
 10
-76.8826632977
 20
-31.9322158637
 11
-76.329326492
 21
-31.378879058
  0
LINE
  5
3E9
100
AcDbEntity
  8
CURVE
100
AcDbLine
 62
7
  6
CONTINUOUS
 10
-75.5790025728
 20
-30.6285551388
 11
-75.0593092313
 21
-30.1088617972
  0
LINE
  5
3EA
100
AcDbEntity
  8
CURVE
100
AcDbLine
 62
7
  6
CONTINUOUS
 10
-76.815156155
 20
-32.074719435
 11
-76.026275558
 21
-31.285838838
  0
LINE
  5
3EB
100
AcDbEntity
  8
CURVE
100
AcDbLine
 62
7
  6
CONTINUOUS
 10
-75.3689918588
 20
-30.6285551388
 11
-74.8492985173
 21
-30.1088617972
  0
LINE
  5
3EC
100
AcDbEntity
  8
CURVE
100
AcDbLine
 62
7
  6
CONTINUOUS
 10
-76.6553129763
 20
-32.1248869703
 11
-75.7232246239
 21
-31.1927986179
  0
LINE
  5
3ED
100
AcDbEntity
  8
CURVE
100
AcDbLine
 62
7
  6
CONTINUOUS
 10
-75.1589811448
 20
-30.6285551388
 11
-74.6392878032
 21
-30.1088617972
  0
LINE
  5
3EE
100
AcDbEntity
  8
CURVE
100
AcDbLine
 62
7
  6
CONTINUOUS
 10
-76.4954697975
 20
-32.1750545055
 11
-76.145560968
 21
-31.825145676
  0
LINE
  5
3EF
100
AcDbEntity
  8
CURVE
100
AcDbLine
 62
7
  6
CONTINUOUS
 10
-76.1087424962
 20
-31.7883272042
 11
-75.4201736899
 21
-31.0997583979
  0
LINE
  5
3F0
100
AcDbEntity
  8
CURVE
100
AcDbLine
 62
7
  6
CONTINUOUS
 10
-74.9489704308
 20
-30.6285551388
 11
-74.4292770892
 21
-30.1088617972
  0
LINE
  5
3F1
100
AcDbEntity
  8
CURVE
100
AcDbLine
 62
7
  6
CONTINUOUS
 10
-76.3356266188
 20
-32.2252220408
 11
-75.9815199161
 21
-31.8711153381
  0
LINE
  5
3F2
100
AcDbEntity
  8
CURVE
100
AcDbLine
 62
7
  6
CONTINUOUS
 10
-75.8254726941
 20
-31.7150681161
 11
-75.1171227559
 21
-31.0067181779
  0
LINE
  5
3F3
100
AcDbEntity
  8
CURVE
100
AcDbLine
 62
7
  6
CONTINUOUS
 10
-74.7389597168
 20
-30.6285551388
 11
-74.3844500529
 21
-30.2740454749
  0
LINE
  5
3F4
100
AcDbEntity
  8
CURVE
100
AcDbLine
 62
7
  6
CONTINUOUS
 10
-76.17578344
 20
-32.2753895761
 11
-75.8174788642
 21
-31.9170850002
  0
LINE
  5
3F5
100
AcDbEntity
  8
CURVE
100
AcDbLine
 62
7
  6
CONTINUOUS
 10
-75.5422028919
 20
-31.641809028
 11
-74.8140718218
 21
-30.9136779579
  0
LINE
  5
3F6
100
AcDbEntity
  8
CURVE
100
AcDbLine
 62
7
  6
CONTINUOUS
 10
-74.5289490028
 20
-30.6285551388
 11
-74.3844500529
 21
-30.4840561889
  0
LINE
  5
3F7
100
AcDbEntity
  8
0
100
AcDbLine
 62
7
  6
CONTINUOUS
 10
-71.9774943092
 20
25.2
 11
-71.8274943092
 21
25.05
  0
LWPOLYLINE
  5
3F8
100
AcDbEntity
  8
0
100
AcDbPolyline
 62
7
  6
CONTINUOUS
 90
10
 70
0
 43
0.3500000006
 10
-85.8560943604
 20
64.5189670715
 10
-85.7846631775
 20
64.3761137695
 10
-85.7846631775
 20
64.3046825867
 10
-85.9275255432
 20
64.1618202209
 10
-85.9989567261
 20
64.1618202209
 10
-86.0703788452
 20
64.2332514038
 10
-86.0703788452
 20
64.3046825867
 10
-85.9989567261
 20
64.4475358887
 10
-85.9275255432
 20
64.5189670715
 10
-85.8560943604
 20
64.5189670715
  0
LINE
  5
3F9
100
AcDbEntity
  8
CURVE
100
AcDbLine
 62
7
  6
CONTINUOUS
 10
-76.8826632977
 20
-33.1922801478
 11
-76.8396560441
 21
-33.1492728941
  0
LINE
  5
3FA
100
AcDbEntity
  8
CURVE
100
AcDbLine
 62
7
  6
CONTINUOUS
 10
-76.0159402613
 20
-32.3255571113
 11
-75.6534378123
 21
-31.9630546623
  0
LINE
  5
3FB
100
AcDbEntity
  8
CURVE
100
AcDbLine
 62
7
  6
CONTINUOUS
 10
-75.2690988368
 20
-31.5787156868
 11
-74.5110208878
 21
-30.8206377378
  0
LINE
  5
3FC
100
AcDbEntity
  8
CURVE
100
AcDbLine
 62
7
  6
CONTINUOUS
 10
-76.8826632977
 20
-33.4022908618
 11
-76.6079665945
 21
-33.1275941586
  0
LINE
  5
3FD
100
AcDbEntity
  8
CURVE
100
AcDbLine
 62
7
  6
CONTINUOUS
 10
-75.8560970825
 20
-32.3757246466
 11
-75.4893967604
 21
-32.0090243245
  0
LINE
  5
3FE
100
AcDbEntity
  8
CURVE
100
AcDbLine
 62
7
  6
CONTINUOUS
 10
-75.2690988368
 20
-31.7887264008
 11
-74.3844500694
 21
-30.9040776334
  0
LINE
  5
3FF
100
AcDbEntity
  8
CURVE
100
AcDbLine
 62
7
  6
CONTINUOUS
 10
-76.8826632977
 20
-33.6123015758
 11
-76.376277145
 21
-33.105915423
  0
LINE
  5
400
100
AcDbEntity
  8
CURVE
100
AcDbLine
 62
7
  6
CONTINUOUS
 10
-75.6962539038
 20
-32.4258921818
 11
-75.3253557085
 21
-32.0549939866
  0
LINE
  5
401
100
AcDbEntity
  8
CURVE
100
AcDbLine
 62
7
  6
CONTINUOUS
 10
-75.2690988368
 20
-31.9987371148
 11
-74.8831820701
 21
-31.6128203482
  0
LINE
  5
402
100
AcDbEntity
  8
CURVE
100
AcDbLine
 62
7
  6
CONTINUOUS
 10
-74.6830070075
 20
-31.4126452855
 11
-74.3844500694
 21
-31.1140883474
  0
LINE
  5
403
100
AcDbEntity
  8
CURVE
100
AcDbLine
 62
7
  6
CONTINUOUS
 10
-76.7716674614
 20
-33.7113164535
 11
-76.1445876954
 21
-33.0842366875
  0
LINE
  5
404
100
AcDbEntity
  8
CURVE
100
AcDbLine
 62
7
  6
CONTINUOUS
 10
-75.536410725
 20
-32.4760597171
 11
-74.8831820701
 21
-31.8228310622
  0
LINE
  5
405
100
AcDbEntity
  8
CURVE
100
AcDbLine
 62
7
  6
CONTINUOUS
 10
-74.3949140837
 20
-31.3345630758
 11
-74.3844500694
 21
-31.3240990614
  0
LINE
  5
406
100
AcDbEntity
  8
CURVE
100
AcDbLine
 62
7
  6
CONTINUOUS
 10
-76.6190653966
 20
-33.7687251026
 11
-75.9128982459
 21
-33.0625579519
  0
LINE
  5
407
100
AcDbEntity
  8
CURVE
100
AcDbLine
 62
7
  6
CONTINUOUS
 10
-75.3765675463
 20
-32.5262272524
 11
-74.8831820701
 21
-32.0328417762
  0
LINE
  5
408
100
AcDbEntity
  8
CURVE
100
AcDbLine
 62
7
  6
CONTINUOUS
 10
-76.4664633317
 20
-33.8261337518
 11
-75.6812087963
 21
-33.0408792164
  0
LINE
  5
409
100
AcDbEntity
  8
CURVE
100
AcDbLine
 62
7
  6
CONTINUOUS
 10
-75.2167243675
 20
-32.5763947876
 11
-74.8324653908
 21
-32.1921358109
  0
LINE
  5
40A
100
AcDbEntity
  8
CURVE
100
AcDbLine
 62
7
  6
CONTINUOUS
 10
-76.3138612668
 20
-33.883542401
 11
-75.9789650789
 21
-33.548646213
  0
LINE
  5
40B
100
AcDbEntity
  8
CURVE
100
AcDbLine
 62
7
  6
CONTINUOUS
 10
-75.9645925348
 20
-33.5342736689
 11
-75.4495193468
 21
-33.0192004809
  0
LINE
  5
40C
100
AcDbEntity
  8
CURVE
100
AcDbLine
 62
7
  6
CONTINUOUS
 10
-75.0568811888
 20
-32.6265623229
 11
-74.6695019257
 21
-32.2391830598
  0
LINE
  5
40D
100
AcDbEntity
  8
CURVE
100
AcDbLine
 62
7
  6
CONTINUOUS
 10
-76.161259202
 20
-33.9409510501
 11
-75.8269939847
 21
-33.6066858328
  0
LINE
  5
40E
100
AcDbEntity
  8
CURVE
100
AcDbLine
 62
7
  6
CONTINUOUS
 10
-75.739743451
 20
-33.5194352991
 11
-75.2178298972
 21
-32.9975217453
  0
LINE
  5
40F
100
AcDbEntity
  8
CURVE
100
AcDbLine
 62
7
  6
CONTINUOUS
 10
-74.89703801
 20
-32.6767298581
 11
-74.5065384606
 21
-32.2862303088
  0
LINE
  5
410
100
AcDbEntity
  8
CURVE
100
AcDbLine
 62
7
  6
CONTINUOUS
 10
-76.8826632977
 20
-34.8723658599
 11
-76.6202589561
 21
-34.6099615182
  0
LINE
  5
411
100
AcDbEntity
  8
CURVE
100
AcDbLine
 62
7
  6
CONTINUOUS
 10
-76.0086571371
 20
-33.9983596993
 11
-75.6750228906
 21
-33.6647254527
  0
LINE
  5
412
100
AcDbEntity
  8
CURVE
100
AcDbLine
 62
7
  6
CONTINUOUS
 10
-75.5148943671
 20
-33.5045969292
 11
-74.9861404476
 21
-32.9758430098
  0
LINE
  5
413
100
AcDbEntity
  8
CURVE
100
AcDbLine
 62
7
  6
CONTINUOUS
 10
-74.7371948313
 20
-32.7268973934
 11
-74.3844500694
 21
-32.3741526315
  0
LINE
  5
414
100
AcDbEntity
  8
CURVE
100
AcDbLine
 62
7
  6
CONTINUOUS
 10
-76.8826632977
 20
-35.0823765739
 11
-76.2857270827
 21
-34.4854403589
  0
LINE
  5
415
100
AcDbEntity
  8
CURVE
100
AcDbLine
 62
7
  6
CONTINUOUS
 10
-75.8560550723
 20
-34.0557683484
 11
-75.5230517964
 21
-33.7227650725
  0
LINE
  5
416
100
AcDbEntity
  8
CURVE
100
AcDbLine
 62
7
  6
CONTINUOUS
 10
-75.2900452832
 20
-33.4897585594
 11
-74.7544509981
 21
-32.9541642742
  0
LINE
  5
417
100
AcDbEntity
  8
CURVE
100
AcDbLine
 62
7
  6
CONTINUOUS
 10
-74.5773516525
 20
-32.7770649287
 11
-74.3844500694
 21
-32.5841633455
  0
LINE
  5
418
100
AcDbEntity
  8
CURVE
100
AcDbLine
 62
7
  6
CONTINUOUS
 10
-76.8245247878
 20
-35.2342487779
 11
-75.9511952093
 21
-34.3609191995
  0
LINE
  5
419
100
AcDbEntity
  8
CURVE
100
AcDbLine
 62
7
  6
CONTINUOUS
 10
-75.7034530074
 20
-34.1131769976
 11
-75.3710807022
 21
-33.7808046924
  0
LINE
  5
41A
100
AcDbEntity
  8
CURVE
100
AcDbLine
 62
7
  6
CONTINUOUS
 10
-75.0651961993
 20
-33.4749201895
 11
-74.5227615485
 21
-32.9324855387
  0
LINE
  5
41B
100
AcDbEntity
  8
CURVE
100
AcDbLine
 62
7
  6
CONTINUOUS
 10
-74.4175084738
 20
-32.8272324639
 11
-74.3844500694
 21
-32.7941740595
  0
LINE
  5
41C
100
AcDbEntity
  8
CURVE
100
AcDbLine
 62
7
  6
CONTINUOUS
 10
-76.6319161441
 20
-35.2516508482
 11
-75.616663336
 21
-34.2363980402
  0
LINE
  5
41D
100
AcDbEntity
  8
CURVE
100
AcDbLine
 62
7
  6
CONTINUOUS
 10
-75.5508509425
 20
-34.1705856467
 11
-75.2191096081
 21
-33.8388443122
  0
LINE
  5
41E
100
AcDbEntity
  8
CURVE
100
AcDbLine
 62
7
  6
CONTINUOUS
 10
-74.8403471155
 20
-33.4600818197
 11
-74.3844500694
 21
-33.0041847735
  0
LINE
  5
41F
100
AcDbEntity
  8
CURVE
100
AcDbLine
 62
7
  6
CONTINUOUS
 10
-76.4393075003
 20
-35.2690529185
 11
-76.0133390198
 21
-34.843084438
  0
LINE
  5
420
100
AcDbEntity
  8
CURVE
100
AcDbLine
 62
7
  6
CONTINUOUS
 10
-76.0116347095
 20
-34.8413801277
 11
-75.0671385139
 21
-33.8968839321
  0
LINE
  5
421
100
AcDbEntity
  8
CURVE
100
AcDbLine
 62
7
  6
CONTINUOUS
 10
-74.6154980316
 20
-33.4452434498
 11
-74.3844500694
 21
-33.2141954876
  0
LINE
  5
422
100
AcDbEntity
  8
CURVE
100
AcDbLine
 62
7
  6
CONTINUOUS
 10
-76.882812207
 20
-35.9225683392
 11
-76.6958488678
 21
-35.735605
  0
LINE
  5
423
100
AcDbEntity
  8
CURVE
100
AcDbLine
 62
7
  6
CONTINUOUS
 10
-76.2466988566
 20
-35.2864549888
 11
-75.8168887107
 21
-34.8566448429
  0
LINE
  5
424
100
AcDbEntity
  8
CURVE
100
AcDbLine
 62
7
  6
CONTINUOUS
 10
-75.6754877055
 20
-34.7152438377
 11
-74.9151674197
 21
-33.9549235519
  0
LINE
  5
425
100
AcDbEntity
  8
CURVE
100
AcDbLine
 62
7
  6
CONTINUOUS
 10
-74.3906489477
 20
-33.4304050799
 11
-74.3844500694
 21
-33.4242062016
  0
LINE
  5
426
100
AcDbEntity
  8
CURVE
100
AcDbLine
 62
7
  6
CONTINUOUS
 10
-76.882812207
 20
-36.1325790532
 11
-76.4858381538
 21
-35.735605
  0
LINE
  5
427
100
AcDbEntity
  8
CURVE
100
AcDbLine
 62
7
  6
CONTINUOUS
 10
-76.0540902129
 20
-35.3038570591
 11
-75.6204384017
 21
-34.8702052479
  0
LINE
  5
428
100
AcDbEntity
  8
CURVE
100
AcDbLine
 62
7
  6
CONTINUOUS
 10
-75.3393407014
 20
-34.5891075477
 11
-74.7631963255
 21
-34.0129631718
  0
LINE
  5
429
100
AcDbEntity
  8
CURVE
100
AcDbLine
 62
7
  6
CONTINUOUS
 10
-76.7976204398
 20
-36.257398
 11
-76.2758274398
 21
-35.735605
  0
LINE
  5
42A
100
AcDbEntity
  8
CURVE
100
AcDbLine
 62
7
  6
CONTINUOUS
 10
-75.8614815692
 20
-35.3212591294
 11
-75.4239880926
 21
-34.8837656529
  0
LINE
  5
42B
100
AcDbEntity
  8
CURVE
100
AcDbLine
 62
7
  6
CONTINUOUS
 10
-75.0031936974
 20
-34.4629712577
 11
-74.6112252314
 21
-34.0710027916
  0
LINE
  5
42C
100
AcDbEntity
  8
CURVE
100
AcDbLine
 62
7
  6
CONTINUOUS
 10
-76.8826632977
 20
-36.552451572
 11
-76.8059291731
 21
-36.4757174474
  0
LINE
  5
42D
100
AcDbEntity
  8
CURVE
100
AcDbLine
 62
7
  6
CONTINUOUS
 10
-76.5876097258
 20
-36.257398
 11
-76.0658167258
 21
-35.735605
  0
LINE
  5
42E
100
AcDbEntity
  8
CURVE
100
AcDbLine
 62
7
  6
CONTINUOUS
 10
-75.6688729254
 20
-35.3386611997
 11
-75.2275377836
 21
-34.8973260578
  0
LINE
  5
42F
100
AcDbEntity
  8
CURVE
100
AcDbLine
 62
7
  6
CONTINUOUS
 10
-74.6670466934
 20
-34.3368349676
 11
-74.4592541372
 21
-34.1290424115
  0
LINE
  5
430
100
AcDbEntity
  8
CURVE
100
AcDbLine
 62
7
  6
CONTINUOUS
 10
-76.8826632977
 20
-36.762462286
 11
-76.6470270747
 21
-36.526826063
  0
LINE
  5
431
100
AcDbEntity
  8
CURVE
100
AcDbLine
 62
7
  6
CONTINUOUS
 10
-76.3775990117
 20
-36.257398
 11
-75.8558060117
 21
-35.735605
  0
LINE
  5
432
100
AcDbEntity
  8
CURVE
100
AcDbLine
 62
7
  6
CONTINUOUS
 10
-75.4762642817
 20
-35.35606327
 11
-75.0310874745
 21
-34.9108864628
  0
LINE
  5
433
100
AcDbEntity
  8
CURVE
100
AcDbLine
 62
7
  6
CONTINUOUS
 10
-76.8826632977
 20
-36.972473
 11
-76.4881249763
 21
-36.5779346786
  0
LINE
  5
434
100
AcDbEntity
  8
CURVE
100
AcDbLine
 62
7
  6
CONTINUOUS
 10
-76.1675882977
 20
-36.257398
 11
-75.6457952977
 21
-35.735605
  0
LINE
  5
435
100
AcDbEntity
  8
CURVE
100
AcDbLine
 62
7
  6
CONTINUOUS
 10
-75.283655638
 20
-35.3734653402
 11
-74.8346371655
 21
-34.9244468678
  0
LINE
  5
436
100
AcDbEntity
  8
CURVE
100
AcDbLine
 62
7
  6
CONTINUOUS
 10
-76.7193022233
 20
-37.0191226396
 11
-76.3292228779
 21
-36.6290432942
  0
LINE
  5
437
100
AcDbEntity
  8
CURVE
100
AcDbLine
 62
7
  6
CONTINUOUS
 10
-75.9575775837
 20
-36.257398
 11
-75.4357845837
 21
-35.735605
  0
LINE
  5
438
100
AcDbEntity
  8
CURVE
100
AcDbLine
 62
7
  6
CONTINUOUS
 10
-75.0910469943
 20
-35.3908674105
 11
-74.6381868564
 21
-34.9380072727
  0
LINE
  5
439
100
AcDbEntity
  8
CURVE
100
AcDbLine
 62
7
  6
CONTINUOUS
 10
-76.5559411489
 20
-37.0657722792
 11
-76.1703207795
 21
-36.6801519098
  0
LINE
  5
43A
100
AcDbEntity
  8
CURVE
100
AcDbLine
 62
7
  6
CONTINUOUS
 10
-75.7475668697
 20
-36.257398
 11
-75.2257738697
 21
-35.735605
  0
LINE
  5
43B
100
AcDbEntity
  8
CURVE
100
AcDbLine
 62
7
  6
CONTINUOUS
 10
-74.8984383505
 20
-35.4082694808
 11
-74.4417365474
 21
-34.9515676777
  0
LINE
  5
43C
100
AcDbEntity
  8
CURVE
100
AcDbLine
 62
7
  6
CONTINUOUS
 10
-76.3925800745
 20
-37.1124219188
 11
-76.0114186811
 21
-36.7312605254
  0
LINE
  5
43D
100
AcDbEntity
  8
CURVE
100
AcDbLine
 62
7
  6
CONTINUOUS
 10
-75.5375561557
 20
-36.257398
 11
-75.0157631557
 21
-35.735605
  0
LINE
  5
43E
100
AcDbEntity
  8
CURVE
100
AcDbLine
 62
7
  6
CONTINUOUS
 10
-74.7058297068
 20
-35.4256715511
 11
-74.3844500694
 21
-35.1042919137
  0
LINE
  5
43F
100
AcDbEntity
  8
CURVE
100
AcDbLine
 62
7
  6
CONTINUOUS
 10
-76.229219
 20
-37.1590715584
 11
-75.8525165827
 21
-36.782369141
  0
LINE
  5
440
100
AcDbEntity
  8
CURVE
100
AcDbLine
 62
7
  6
CONTINUOUS
 10
-75.3275454417
 20
-36.257398
 11
-74.8057524417
 21
-35.735605
  0
LINE
  5
441
100
AcDbEntity
  8
CURVE
100
AcDbLine
 62
7
  6
CONTINUOUS
 10
-74.5132210631
 20
-35.4430736214
 11
-74.3844500694
 21
-35.3143026277
  0
LINE
  5
442
100
AcDbEntity
  8
CURVE
100
AcDbLine
 62
7
  6
CONTINUOUS
 10
-76.8826632977
 20
-38.0225265701
 11
-76.7685296677
 21
-37.90839294
  0
LINE
  5
443
100
AcDbEntity
  8
CURVE
100
AcDbLine
 62
7
  6
CONTINUOUS
 10
-76.0658579256
 20
-37.2057211979
 11
-75.6936144843
 21
-36.8334777566
  0
LINE
  5
444
100
AcDbEntity
  8
CURVE
100
AcDbLine
 62
7
  6
CONTINUOUS
 10
-75.1175347277
 20
-36.257398
 11
-74.5957417277
 21
-35.735605
  0
LINE
  5
445
100
AcDbEntity
  8
CURVE
100
AcDbLine
 62
7
  6
CONTINUOUS
 10
-76.8826632977
 20
-38.2325372841
 11
-76.478019535
 21
-37.8278935213
  0
LINE
  5
446
100
AcDbEntity
  8
CURVE
100
AcDbLine
 62
7
  6
CONTINUOUS
 10
-75.9024968512
 20
-37.2523708375
 11
-75.5347123859
 21
-36.8845863723
  0
LINE
  5
447
100
AcDbEntity
  8
CURVE
100
AcDbLine
 62
7
  6
CONTINUOUS
 10
-74.9075240137
 20
-36.257398
 11
-74.3857310137
 21
-35.735605
  0
LINE
  5
448
100
AcDbEntity
  8
CURVE
100
AcDbLine
 62
7
  6
CONTINUOUS
 10
-76.8826632977
 20
-38.4425479981
 11
-76.1875094022
 21
-37.7473941026
  0
LINE
  5
449
100
AcDbEntity
  8
CURVE
100
AcDbLine
 62
7
  6
CONTINUOUS
 10
-75.7391357768
 20
-37.2990204771
 11
-75.3758102875
 21
-36.9356949879
  0
LINE
  5
44A
100
AcDbEntity
  8
CURVE
100
AcDbLine
 62
7
  6
CONTINUOUS
 10
-74.6975132996
 20
-36.257398
 11
-74.3844500694
 21
-35.9443347697
  0
LINE
  5
44B
100
AcDbEntity
  8
CURVE
100
AcDbLine
 62
7
  6
CONTINUOUS
 10
-76.6692561133
 20
-38.4391515277
 11
-75.8969992694
 21
-37.6668946838
  0
LINE
  5
44C
100
AcDbEntity
  8
CURVE
100
AcDbLine
 62
7
  6
CONTINUOUS
 10
-75.5757747023
 20
-37.3456701167
 11
-75.2169081891
 21
-36.9868036035
  0
LINE
  5
44D
100
AcDbEntity
  8
CURVE
100
AcDbLine
 62
7
  6
CONTINUOUS
 10
-74.4875025856
 20
-36.257398
 11
-74.3844500694
 21
-36.1543454837
  0
LINE
  5
44E
100
AcDbEntity
  8
CURVE
100
AcDbLine
 62
7
  6
CONTINUOUS
 10
-76.3616775768
 20
-38.3415837051
 11
-75.6064891367
 21
-37.5863952651
  0
LINE
  5
44F
100
AcDbEntity
  8
CURVE
100
AcDbLine
 62
7
  6
CONTINUOUS
 10
-75.4124136279
 20
-37.3923197563
 11
-75.0580060907
 21
-37.0379122191
  0
LINE
  5
450
100
AcDbEntity
  8
CURVE
100
AcDbLine
 62
7
  6
CONTINUOUS
 10
-76.0540990402
 20
-38.2440158826
 11
-75.3159790039
 21
-37.5058958463
  0
LINE
  5
451
100
AcDbEntity
  8
CURVE
100
AcDbLine
 62
7
  6
CONTINUOUS
 10
-75.2490525535
 20
-37.4389693959
 11
-74.8991039923
 21
-37.0890208347
  0
LINE
  5
452
100
AcDbEntity
  8
CURVE
100
AcDbLine
 62
7
  6
CONTINUOUS
 10
-75.7465205036
 20
-38.14644806
 11
-74.7402018939
 21
-37.1401294503
  0
LINE
  5
453
100
AcDbEntity
  8
CURVE
100
AcDbLine
 62
7
  6
CONTINUOUS
 10
-75.4389419671
 20
-38.0488802375
 11
-74.5812997955
 21
-37.1912380659
  0
LINE
  5
454
100
AcDbEntity
  8
CURVE
100
AcDbLine
 62
7
  6
CONTINUOUS
 10
-75.1313634305
 20
-37.9513124149
 11
-74.4223976971
 21
-37.2423466815
  0
LINE
  5
455
100
AcDbEntity
  8
CURVE
100
AcDbLine
 62
7
  6
CONTINUOUS
 10
-74.8237848939
 20
-37.8537445923
 11
-74.3844500694
 21
-37.4144097678
  0
LINE
  5
456
100
AcDbEntity
  8
CURVE
100
AcDbLine
 62
7
  6
CONTINUOUS
 10
-74.5162063573
 20
-37.7561767698
 11
-74.3844500694
 21
-37.6244204818
  0
LINE
  5
457
100
AcDbEntity
  8
0
100
AcDbLine
 62
250
  6
CONTINUOUS
 10
-71.3517217255
 20
-26.9276792439
 11
-70.2522028656
 21
-26.3440350289
  0
LINE
  5
458
100
AcDbEntity
  8
0
100
AcDbLine
 62
250
  6
CONTINUOUS
 10
-69.827445077
 20
-26.2536973817
 11
-69.3053532242
 21
-25.9765617175
  0
LINE
  5
459
100
AcDbEntity
  8
0
100
AcDbLine
 62
7
  6
CONTINUOUS
 10
-69.2774943092
 20
-26.0883643404
 11
-71.2124823475
 21
-27.1154904916
  0
LINE
  5
45A
100
AcDbEntity
  8
0
100
AcDbLine
 62
7
  6
CONTINUOUS
 10
-69.2774943092
 20
25.4
 11
-71.2278662113
 21
25.2049628098
  0
LINE
  5
45B
100
AcDbEntity
  8
0
100
AcDbLine
 62
7
  6
CONTINUOUS
 10
-72.2774943092
 20
25.7558198745
 11
-69.467027118
 21
25.8799866677
  0
LINE
  5
45C
100
AcDbEntity
  8
0
100
AcDbLine
 62
7
  6
CONTINUOUS
 10
-72.2774943092
 20
25.05
 11
-72.1274943092
 21
25.05
  0
LINE
  5
45D
100
AcDbEntity
  8
0
100
AcDbLine
 62
7
  6
CONTINUOUS
 10
-71.8274943092
 20
25.05
 11
-71.6274943092
 21
25.05
  0
LINE
  5
45E
100
AcDbEntity
  8
0
100
AcDbLine
 62
7
  6
CONTINUOUS
 10
-72.2774943092
 20
25.2
 11
-71.3273699303
 21
25.2
  0
LINE
  5
45F
100
AcDbEntity
  8
0
100
AcDbLine
 62
250
  6
CONTINUOUS
 10
-71.3517217255
 20
26.9276792439
 11
-72.2774943092
 21
26.9280974384
  0
LINE
  5
460
100
AcDbEntity
  8
0
100
AcDbLine
 62
7
  6
CONTINUOUS
 10
-71.3516571582
 20
27.1501294387
 11
-72.2774943092
 21
27.151745331
  0
LINE
  5
461
100
AcDbEntity
  8
0
100
AcDbLine
 62
250
  6
CONTINUOUS
 10
-69.827445077
 20
26.2536973817
 11
-72.2774943092
 21
26.2679513512
  0
LINE
  5
462
100
AcDbEntity
  8
0
100
AcDbLine
 62
7
  6
CONTINUOUS
 10
-69.827445077
 20
26.3415638603
 11
-72.2774943092
 21
26.3558178298
  0
LINE
  5
463
100
AcDbEntity
  8
0
100
AcDbLine
 62
250
  6
CONTINUOUS
 10
-70.2522028656
 20
26.3440350289
 11
-71.3517217255
 21
26.9276792439
  0
LINE
  5
464
100
AcDbEntity
  8
0
100
AcDbLine
 62
250
  6
CONTINUOUS
 10
-69.3053532242
 20
25.9765617175
 11
-69.827445077
 21
26.2536973817
  0
LINE
  5
465
100
AcDbEntity
  8
0
100
AcDbLine
 62
7
  6
CONTINUOUS
 10
-69.2774943092
 20
26.0883643404
 11
-71.2124823475
 21
27.1154904916
  0
LINE
  5
466
100
AcDbEntity
  8
0
100
AcDbLine
 62
7
  6
CONTINUOUS
 10
-78.4281034822
 20
-43.8055596544
 11
-78.4430418514
 21
-43.8199854699
  0
LINE
  5
467
100
AcDbEntity
  8
ASSI
100
AcDbLine
 62
7
  6
CONTINUOUS
 10
-78.4281034822
 20
-43.8055596544
 11
-78.4430418514
 21
-43.8199854699
  0
LINE
  5
468
100
AcDbEntity
  8
CURVE
100
AcDbLine
 62
250
  6
CONTINUOUS
 10
-76.8826632977
 20
-31.54876
 11
-74.3844500694
 21
-30.781779
  0
LINE
  5
469
100
AcDbEntity
  8
0
100
AcDbLine
 62
7
  6
CONTINUOUS
 10
-78.4430418514
 20
43.8199854699
 11
-78.4281034822
 21
43.8055596544
  0
LINE
  5
46A
100
AcDbEntity
  8
ASSI
100
AcDbLine
 62
7
  6
CONTINUOUS
 10
-78.4430418514
 20
43.8199854699
 11
-78.4281034822
 21
43.8055596544
  0
LINE
  5
46B
100
AcDbEntity
  8
CURVE
100
AcDbLine
 62
250
  6
CONTINUOUS
 10
-74.3844500694
 20
-34.230793
 11
-76.0157357285
 21
-34.842919
  0
LINE
  5
46C
100
AcDbEntity
  8
CURVE
100
AcDbLine
 62
250
  6
CONTINUOUS
 10
-76.8826632977
 20
-34.707635
 11
-75.4956477452
 21
-34.191353
  0
LINE
  5
46D
100
AcDbEntity
  8
CURVE
100
AcDbLine
 62
250
  6
CONTINUOUS
 10
-74.3844500694
 20
-37.714382
 11
-76.8826632977
 21
-38.506847
  0
LINE
  5
46E
100
AcDbEntity
  8
0
100
AcDbLine
 62
250
  6
CONTINUOUS
 10
-72.8774943092
 20
41.4612106475
 11
-72.2774943092
 21
41.5031667347
  0
LINE
  5
46F
100
AcDbEntity
  8
0
100
AcDbLine
 62
7
  6
CONTINUOUS
 10
-72.8774943092
 20
42.7580439128
 11
-72.2774943092
 21
42.8
  0
LINE
  5
470
100
AcDbEntity
  8
0
100
AcDbLine
 62
7
  6
CONTINUOUS
 10
-78.4281034822
 20
43.8055596544
 11
-72.8774943092
 21
43.9993911979
  0
LINE
  5
471
100
AcDbEntity
  8
ASSI
100
AcDbLine
 62
7
  6
CONTINUOUS
 10
-78.4281034822
 20
43.8055596544
 11
-72.8774943092
 21
43.9993911979
  0
LINE
  5
472
100
AcDbEntity
  8
0
100
AcDbLine
 62
7
  6
CONTINUOUS
 10
-78.4281034822
 20
44.8061684565
 11
-72.8774943092
 21
45.0
  0
LINE
  5
473
100
AcDbEntity
  8
ASSI
100
AcDbLine
 62
7
  6
CONTINUOUS
 10
-78.4281034822
 20
44.8061684565
 11
-72.8774943092
 21
45.0
  0
LWPOLYLINE
  5
474
100
AcDbEntity
  8
0
100
AcDbPolyline
 62
7
  6
CONTINUOUS
 90
8
 70
0
 43
0.3500000006
 10
-82.5118533325
 20
55.1739537964
 10
-81.6547063293
 20
55.1739537964
 10
-81.2261373596
 20
55.602527298
 10
-81.2261373596
 20
56.4596697693
 10
-81.6547063293
 20
56.888238739
 10
-82.5118533325
 20
56.888238739
 10
-82.5118533325
 20
58.1739547119
 10
-81.2261373596
 20
58.1739547119
  0
LWPOLYLINE
  5
475
100
AcDbEntity
  8
0
100
AcDbPolyline
 62
7
  6
CONTINUOUS
 90
8
 70
0
 43
0.3500000006
 10
-83.0703779297
 20
64.0189669189
 10
-82.2132399902
 20
64.0189669189
 10
-81.7846710205
 20
64.4475358887
 10
-81.7846710205
 20
65.3046828918
 10
-82.2132399902
 20
65.7332518616
 10
-83.0703779297
 20
65.7332518616
 10
-83.0703779297
 20
67.0189678345
 10
-81.7846710205
 20
67.0189678345
  0
ARC
  5
476
100
AcDbEntity
  8
0
100
AcDbCircle
 62
7
  6
CONTINUOUS
 10
-29.2
 20
-6.7
 40
1.7
100
AcDbArc
 50
180.0
 51
270.0
  0
ARC
  5
477
100
AcDbEntity
  8
0
100
AcDbCircle
 62
7
  6
CONTINUOUS
 10
-15.8
 20
-6.7
 40
1.7
100
AcDbArc
 50
270.0
 51
360.0
  0
ARC
  5
478
100
AcDbEntity
  8
ASSI
100
AcDbCircle
 62
7
  6
CONTINUOUS
 10
-29.2
 20
-6.7
 40
1.7
100
AcDbArc
 50
180.0
 51
270.0
  0
ARC
  5
479
100
AcDbEntity
  8
ASSI
100
AcDbCircle
 62
7
  6
CONTINUOUS
 10
-15.8
 20
-6.7
 40
1.7
100
AcDbArc
 50
270.0
 51
360.0
  0
ARC
  5
47A
100
AcDbEntity
  8
0
100
AcDbCircle
 62
7
  6
CONTINUOUS
 10
-29.2
 20
-6.7
 40
1.2
100
AcDbArc
 50
180.0
 51
270.0
  0
ARC
  5
47B
100
AcDbEntity
  8
0
100
AcDbCircle
 62
7
  6
CONTINUOUS
 10
-15.8
 20
-6.7
 40
1.2
100
AcDbArc
 50
270.0
 51
360.0
  0
ARC
  5
47C
100
AcDbEntity
  8
ASSI
100
AcDbCircle
 62
7
  6
CONTINUOUS
 10
-29.2
 20
-6.7
 40
1.2
100
AcDbArc
 50
180.0
 51
270.0
  0
ARC
  5
47D
100
AcDbEntity
  8
ASSI
100
AcDbCircle
 62
7
  6
CONTINUOUS
 10
-15.8
 20
-6.7
 40
1.2
100
AcDbArc
 50
270.0
 51
360.0
  0
ARC
  5
47E
100
AcDbEntity
  8
0
100
AcDbCircle
 62
7
  6
CONTINUOUS
 10
-29.2
 20
6.7
 40
1.7
100
AcDbArc
 50
90.0
 51
180.0
  0
ARC
  5
47F
100
AcDbEntity
  8
0
100
AcDbCircle
 62
7
  6
CONTINUOUS
 10
-15.8
 20
6.7
 40
1.7
100
AcDbArc
 50
0.0
 51
90.0
  0
ARC
  5
480
100
AcDbEntity
  8
ASSI
100
AcDbCircle
 62
7
  6
CONTINUOUS
 10
-29.2
 20
6.7
 40
1.7
100
AcDbArc
 50
90.0
 51
180.0
  0
ARC
  5
481
100
AcDbEntity
  8
ASSI
100
AcDbCircle
 62
7
  6
CONTINUOUS
 10
-15.8
 20
6.7
 40
1.7
100
AcDbArc
 50
0.0
 51
90.0
  0
ARC
  5
482
100
AcDbEntity
  8
0
100
AcDbCircle
 62
7
  6
CONTINUOUS
 10
-29.2
 20
6.7
 40
1.2
100
AcDbArc
 50
90.0
 51
180.0
  0
ARC
  5
483
100
AcDbEntity
  8
0
100
AcDbCircle
 62
7
  6
CONTINUOUS
 10
-15.8
 20
6.7
 40
1.2
100
AcDbArc
 50
0.0
 51
90.0
  0
ARC
  5
484
100
AcDbEntity
  8
ASSI
100
AcDbCircle
 62
7
  6
CONTINUOUS
 10
-29.2
 20
6.7
 40
1.2
100
AcDbArc
 50
90.0
 51
180.0
  0
ARC
  5
485
100
AcDbEntity
  8
ASSI
100
AcDbCircle
 62
7
  6
CONTINUOUS
 10
-15.8
 20
6.7
 40
1.2
100
AcDbArc
 50
0.0
 51
90.0
  0
ARC
  5
486
100
AcDbEntity
  8
0
100
AcDbCircle
 62
7
  6
CONTINUOUS
 10
6.7
 20
-6.7
 40
1.7
100
AcDbArc
 50
270.0
 51
360.0
  0
ARC
  5
487
100
AcDbEntity
  8
0
100
AcDbCircle
 62
7
  6
CONTINUOUS
 10
15.8
 20
-6.7
 40
1.7
100
AcDbArc
 50
180.0
 51
270.0
  0
ARC
  5
488
100
AcDbEntity
  8
0
100
AcDbCircle
 62
7
  6
CONTINUOUS
 10
-6.7
 20
-6.7
 40
1.7
100
AcDbArc
 50
180.0
 51
270.0
  0
ARC
  5
489
100
AcDbEntity
  8
ASSI
100
AcDbCircle
 62
7
  6
CONTINUOUS
 10
6.7
 20
-6.7
 40
1.7
100
AcDbArc
 50
270.0
 51
360.0
  0
ARC
  5
48A
100
AcDbEntity
  8
ASSI
100
AcDbCircle
 62
7
  6
CONTINUOUS
 10
15.8
 20
-6.7
 40
1.7
100
AcDbArc
 50
180.0
 51
270.0
  0
ARC
  5
48B
100
AcDbEntity
  8
ASSI
100
AcDbCircle
 62
7
  6
CONTINUOUS
 10
-6.7
 20
-6.7
 40
1.7
100
AcDbArc
 50
180.0
 51
270.0
  0
ARC
  5
48C
100
AcDbEntity
  8
0
100
AcDbCircle
 62
7
  6
CONTINUOUS
 10
-6.7
 20
-6.7
 40
1.2
100
AcDbArc
 50
180.0
 51
270.0
  0
ARC
  5
48D
100
AcDbEntity
  8
0
100
AcDbCircle
 62
7
  6
CONTINUOUS
 10
6.7
 20
-6.7
 40
1.2
100
AcDbArc
 50
270.0
 51
360.0
  0
ARC
  5
48E
100
AcDbEntity
  8
0
100
AcDbCircle
 62
7
  6
CONTINUOUS
 10
15.8
 20
-6.7
 40
1.2
100
AcDbArc
 50
180.0
 51
270.0
  0
ARC
  5
48F
100
AcDbEntity
  8
ASSI
100
AcDbCircle
 62
7
  6
CONTINUOUS
 10
-6.7
 20
-6.7
 40
1.2
100
AcDbArc
 50
180.0
 51
270.0
  0
ARC
  5
490
100
AcDbEntity
  8
ASSI
100
AcDbCircle
 62
7
  6
CONTINUOUS
 10
6.7
 20
-6.7
 40
1.2
100
AcDbArc
 50
270.0
 51
360.0
  0
ARC
  5
491
100
AcDbEntity
  8
ASSI
100
AcDbCircle
 62
7
  6
CONTINUOUS
 10
15.8
 20
-6.7
 40
1.2
100
AcDbArc
 50
180.0
 51
270.0
  0
ARC
  5
492
100
AcDbEntity
  8
0
100
AcDbCircle
 62
7
  6
CONTINUOUS
 10
6.7
 20
6.7
 40
1.7
100
AcDbArc
 50
0.0
 51
90.0
  0
ARC
  5
493
100
AcDbEntity
  8
0
100
AcDbCircle
 62
7
  6
CONTINUOUS
 10
15.8
 20
6.7
 40
1.7
100
AcDbArc
 50
90.0
 51
180.0
  0
ARC
  5
494
100
AcDbEntity
  8
0
100
AcDbCircle
 62
7
  6
CONTINUOUS
 10
-6.7
 20
6.7
 40
1.7
100
AcDbArc
 50
90.0
 51
180.0
  0
ARC
  5
495
100
AcDbEntity
  8
ASSI
100
AcDbCircle
 62
7
  6
CONTINUOUS
 10
6.7
 20
6.7
 40
1.7
100
AcDbArc
 50
0.0
 51
90.0
  0
ARC
  5
496
100
AcDbEntity
  8
ASSI
100
AcDbCircle
 62
7
  6
CONTINUOUS
 10
15.8
 20
6.7
 40
1.7
100
AcDbArc
 50
90.0
 51
180.0
  0
ARC
  5
497
100
AcDbEntity
  8
ASSI
100
AcDbCircle
 62
7
  6
CONTINUOUS
 10
-6.7
 20
6.7
 40
1.7
100
AcDbArc
 50
90.0
 51
180.0
  0
ARC
  5
498
100
AcDbEntity
  8
0
100
AcDbCircle
 62
7
  6
CONTINUOUS
 10
-6.7
 20
6.7
 40
1.2
100
AcDbArc
 50
90.0
 51
180.0
  0
ARC
  5
499
100
AcDbEntity
  8
0
100
AcDbCircle
 62
7
  6
CONTINUOUS
 10
6.7
 20
6.7
 40
1.2
100
AcDbArc
 50
0.0
 51
90.0
  0
ARC
  5
49A
100
AcDbEntity
  8
0
100
AcDbCircle
 62
7
  6
CONTINUOUS
 10
15.8
 20
6.7
 40
1.2
100
AcDbArc
 50
90.0
 51
180.0
  0
ARC
  5
49B
100
AcDbEntity
  8
ASSI
100
AcDbCircle
 62
7
  6
CONTINUOUS
 10
-6.7
 20
6.7
 40
1.2
100
AcDbArc
 50
90.0
 51
180.0
  0
ARC
  5
49C
100
AcDbEntity
  8
ASSI
100
AcDbCircle
 62
7
  6
CONTINUOUS
 10
6.7
 20
6.7
 40
1.2
100
AcDbArc
 50
0.0
 51
90.0
  0
ARC
  5
49D
100
AcDbEntity
  8
ASSI
100
AcDbCircle
 62
7
  6
CONTINUOUS
 10
15.8
 20
6.7
 40
1.2
100
AcDbArc
 50
90.0
 51
180.0
  0
ARC
  5
49E
100
AcDbEntity
  8
CURVE
100
AcDbCircle
 62
250
  6
CONTINUOUS
 10
84.7422937963
 20
-29.8716892664
 40
39.8681074
100
AcDbArc
 50
179.7782450657
 51
180.3657160807
  0
ARC
  5
49F
100
AcDbEntity
  8
0
100
AcDbCircle
 62
7
  6
CONTINUOUS
 10
29.2
 20
-6.7
 40
1.7
100
AcDbArc
 50
270.0
 51
360.0
  0
ARC
  5
4A0
100
AcDbEntity
  8
0
100
AcDbCircle
 62
7
  6
CONTINUOUS
 10
29.2
 20
6.7
 40
1.7
100
AcDbArc
 50
0.0
 51
90.0
  0
ARC
  5
4A1
100
AcDbEntity
  8
ASSI
100
AcDbCircle
 62
7
  6
CONTINUOUS
 10
29.2
 20
-6.7
 40
1.7
100
AcDbArc
 50
270.0
 51
360.0
  0
ARC
  5
4A2
100
AcDbEntity
  8
ASSI
100
AcDbCircle
 62
7
  6
CONTINUOUS
 10
29.2
 20
6.7
 40
1.7
100
AcDbArc
 50
0.0
 51
90.0
  0
ARC
  5
4A3
100
AcDbEntity
  8
0
100
AcDbCircle
 62
7
  6
CONTINUOUS
 10
29.2
 20
-6.7
 40
1.2
100
AcDbArc
 50
270.0
 51
360.0
  0
ARC
  5
4A4
100
AcDbEntity
  8
0
100
AcDbCircle
 62
7
  6
CONTINUOUS
 10
29.2
 20
6.7
 40
1.2
100
AcDbArc
 50
0.0
 51
90.0
  0
ARC
  5
4A5
100
AcDbEntity
  8
ASSI
100
AcDbCircle
 62
7
  6
CONTINUOUS
 10
29.2
 20
-6.7
 40
1.2
100
AcDbArc
 50
270.0
 51
360.0
  0
ARC
  5
4A6
100
AcDbEntity
  8
ASSI
100
AcDbCircle
 62
7
  6
CONTINUOUS
 10
29.2
 20
6.7
 40
1.2
100
AcDbArc
 50
0.0
 51
90.0
  0
ARC
  5
4A7
100
AcDbEntity
  8
0
100
AcDbCircle
 62
7
  6
CONTINUOUS
 10
-71.3273699303
 20
26.2
 40
1.0
100
AcDbArc
 50
270.0
 51
275.7105931375
  0
ARC
  5
4A8
100
AcDbEntity
  8
0
100
AcDbCircle
 62
7
  6
CONTINUOUS
 10
-71.3273699303
 20
-26.2
 40
1.0
100
AcDbArc
 50
84.2894068625
 51
90.0
  0
ARC
  5
4A9
100
AcDbEntity
  8
0
100
AcDbCircle
 62
7
  6
CONTINUOUS
 10
-71.3521809843
 20
26.849999496
 40
0.3
100
AcDbArc
 50
62.0510370175
 51
89.9000000064
  0
ARC
  5
4AA
100
AcDbEntity
  8
0
100
AcDbCircle
 62
7
  6
CONTINUOUS
 10
-71.3521809843
 20
-26.849999496
 40
0.3
100
AcDbArc
 50
270.0999999936
 51
297.9489629825
  0
ARC
  5
4AB
100
AcDbEntity
  8
0
100
AcDbCircle
 62
7
  6
CONTINUOUS
 10
-69.8291903964
 20
-26.0415689373
 40
0.3
100
AcDbArc
 50
270.3333333333
 51
297.9601595781
  0
ARC
  5
4AC
100
AcDbEntity
  8
0
100
AcDbCircle
 62
7
  6
CONTINUOUS
 10
-69.8291903964
 20
26.0415689373
 40
0.3
100
AcDbArc
 50
62.0398404207
 51
89.6666666667
  0
SPLINE
  5
4AD
100
AcDbEntity
  8
CURVE
100
AcDbSpline
 62
250
  6
CONTINUOUS
 70
0
 71
3
 72
9
 73
5
 74
0
 42
0.0000001
 43
0.0000001
 44
0.0000000001
 40
0.0
 40
0.0
 40
0.0
 40
0.0
 40
0.5206208722
 40
1.0
 40
1.0
 40
1.0
 40
1.0
 10
44.885390512
 20
-29.4226356449
 30
0.0
 10
44.8891619261
 20
-29.4209681689
 30
0.0
 10
44.8974005432
 20
-29.4973108459
 30
0.0
 10
44.8988699409
 20
-29.728472706
 30
0.0
 10
44.8989474951
 20
-29.8279642095
 30
0.0
  0
SPLINE
  5
4AE
100
AcDbEntity
  8
CURVE
100
AcDbSpline
 62
250
  6
CONTINUOUS
 70
0
 71
3
 72
9
 73
5
 74
0
 42
0.0000001
 43
0.0000001
 44
0.0000000001
 40
0.0
 40
0.0
 40
0.0
 40
0.0
 40
0.5013510385
 40
1.0
 40
1.0
 40
1.0
 40
1.0
 10
44.8744850009
 20
-29.7173859732
 30
0.0
 10
44.874794863
 20
-29.6409112471
 30
0.0
 10
44.8771452432
 20
-29.4862321801
 30
0.0
 10
44.8827184632
 20
-29.423833145
 30
0.0
 10
44.885390512
 20
-29.4226356449
 30
0.0
  0
SPLINE
  5
4AF
100
AcDbEntity
  8
CURVE
100
AcDbSpline
 62
250
  6
CONTINUOUS
 70
0
 71
3
 72
9
 73
5
 74
0
 42
0.0000001
 43
0.0000001
 44
0.0000000001
 40
0.0
 40
0.0
 40
0.0
 40
0.0
 40
0.2957417834
 40
1.0
 40
1.0
 40
1.0
 40
1.0
 10
44.8620741759
 20
-29.3408501143
 30
0.0
 10
44.8605585951
 20
-29.4610542637
 30
0.0
 10
44.8580881081
 20
-29.8931154132
 30
0.0
 10
44.8596096759
 20
-30.3274429247
 30
0.0
 10
44.8611556794
 20
-30.6285551388
 30
0.0
  0
SPLINE
  5
4B0
100
AcDbEntity
  8
CURVE
100
AcDbSpline
 62
250
  6
CONTINUOUS
 70
0
 71
3
 72
17
 73
13
 74
0
 42
0.0000001
 43
0.0000001
 44
0.0000000001
 40
0.0
 40
0.0
 40
0.0
 40
0.0
 40
0.0559780952
 40
0.1687540387
 40
0.321006234
 40
0.4122750837
 40
0.516613223
 40
0.6013931059
 40
0.6776022439
 40
0.8103422694
 40
0.9200404832
 40
1.0
 40
1.0
 40
1.0
 40
1.0
 10
44.9061378054
 20
-29.2870512436
 30
0.0
 10
44.9060080221
 20
-29.2582307418
 30
0.0
 10
44.9039944413
 20
-29.184972753
 30
0.0
 10
44.9001559947
 20
-29.0634829078
 30
0.0
 10
44.894247302
 20
-28.9740276278
 30
0.0
 10
44.8880831982
 20
-28.9341773505
 30
0.0
 10
44.8829671207
 20
-28.9304334968
 30
0.0
 10
44.8781887457
 20
-28.9501640226
 30
0.0
 10
44.8731113496
 20
-28.9979840427
 30
0.0
 10
44.8681353908
 20
-29.0877998266
 30
0.0
 10
44.8642440602
 20
-29.2146127248
 30
0.0
 10
44.862565765
 20
-29.301804483
 30
0.0
 10
44.8620741759
 20
-29.3408501143
 30
0.0
  0
SPLINE
  5
4B1
100
AcDbEntity
  8
CURVE
100
AcDbSpline
 62
250
  6
CONTINUOUS
 70
0
 71
3
 72
9
 73
5
 74
0
 42
0.0000001
 43
0.0000001
 44
0.0000000001
 40
0.0
 40
0.0
 40
0.0
 40
0.0
 40
0.2426586216
 40
1.0
 40
1.0
 40
1.0
 40
1.0
 10
44.9237639114
 20
-28.9862836897
 30
0.0
 10
44.9221786227
 20
-28.9986586641
 30
0.0
 10
44.9157768408
 20
-29.0459291565
 30
0.0
 10
44.9085526835
 20
-29.1505648409
 30
0.0
 10
44.9066533149
 20
-29.2870512436
 30
0.0
  0
LINE
  5
4B2
100
AcDbEntity
  8
CURVE
100
AcDbLine
 62
250
  6
CONTINUOUS
 10
44.9473759458
 20
-28.8079038802
 11
44.9237639114
 21
-28.9862836897
  0
SPLINE
  5
4B3
100
AcDbEntity
  8
CURVE
100
AcDbSpline
 62
250
  6
CONTINUOUS
 70
0
 71
3
 72
9
 73
5
 74
0
 42
0.0000001
 43
0.0000001
 44
0.0000000001
 40
0.0
 40
0.0
 40
0.0
 40
0.0
 40
0.5586214172
 40
1.0
 40
1.0
 40
1.0
 40
1.0
 10
44.9209220674
 20
-29.5379751749
 30
0.0
 10
44.9257378197
 20
-29.486134558
 30
0.0
 10
44.9346552336
 20
-29.4179595379
 30
0.0
 10
44.9434695024
 20
-29.3419894791
 30
0.0
 10
44.9473759458
 20
-29.3098079785
 30
0.0
  0
SPLINE
  5
4B4
100
AcDbEntity
  8
CURVE
100
AcDbSpline
 62
250
  6
CONTINUOUS
 70
0
 71
3
 72
9
 73
5
 74
0
 42
0.0000001
 43
0.0000001
 44
0.0000000001
 40
0.0
 40
0.0
 40
0.0
 40
0.0
 40
0.3559141631
 40
1.0
 40
1.0
 40
1.0
 40
1.0
 10
44.9132352194
 20
-29.8290889245
 30
0.0
 10
44.9132352194
 20
-29.7836184402
 30
0.0
 10
44.9141961358
 20
-29.6528120506
 30
0.0
 10
44.9182334149
 20
-29.5668873007
 30
0.0
 10
44.9209220674
 20
-29.5379751749
 30
0.0
  0
SPLINE
  5
4B5
100
AcDbEntity
  8
CURVE
100
AcDbSpline
 62
250
  6
CONTINUOUS
 70
0
 71
3
 72
9
 73
5
 74
0
 42
0.0000001
 43
0.0000001
 44
0.0000000001
 40
0.0
 40
0.0
 40
0.0
 40
0.0
 40
0.5206208722
 40
1.0
 40
1.0
 40
1.0
 40
1.0
 10
-76.1594806351
 20
-29.4226356449
 30
0.0
 10
-76.0514814655
 20
-29.4209681689
 30
0.0
 10
-75.8155583419
 20
-29.4973108459
 30
0.0
 10
-75.773480296
 20
-29.728472706
 30
0.0
 10
-75.7712594345
 20
-29.8279642095
 30
0.0
  0
SPLINE
  5
4B6
100
AcDbEntity
  8
CURVE
100
AcDbSpline
 62
250
  6
CONTINUOUS
 70
0
 71
3
 72
9
 73
5
 74
0
 42
0.0000001
 43
0.0000001
 44
0.0000000001
 40
0.0
 40
0.0
 40
0.0
 40
0.0
 40
0.5013510385
 40
1.0
 40
1.0
 40
1.0
 40
1.0
 10
-76.4717736146
 20
-29.7173859732
 30
0.0
 10
-76.4629003249
 20
-29.6409112471
 30
0.0
 10
-76.3955942428
 20
-29.4862321801
 30
0.0
 10
-76.2359981024
 20
-29.423833145
 30
0.0
 10
-76.1594806351
 20
-29.4226356449
 30
0.0
  0
SPLINE
  5
4B7
100
AcDbEntity
  8
CURVE
100
AcDbSpline
 62
250
  6
CONTINUOUS
 70
0
 71
3
 72
9
 73
5
 74
0
 42
0.0000001
 43
0.0000001
 44
0.0000000001
 40
0.0
 40
0.0
 40
0.0
 40
0.0
 40
0.2703953699
 40
1.0
 40
1.0
 40
1.0
 40
1.0
 10
-76.4570675564
 20
-30.126163664
 30
0.0
 10
-76.4632780882
 20
-30.0897447717
 30
0.0
 10
-76.4837040321
 20
-29.9546358143
 30
0.0
 10
-76.483260608
 20
-29.8164101388
 30
0.0
 10
-76.4717736146
 20
-29.7173859732
 30
0.0
  0
SPLINE
  5
4B8
100
AcDbEntity
  8
CURVE
100
AcDbSpline
 62
250
  6
CONTINUOUS
 70
0
 71
3
 72
9
 73
5
 74
0
 42
0.0000001
 43
0.0000001
 44
0.0000000001
 40
0.0
 40
0.0
 40
0.0
 40
0.0
 40
0.2957417834
 40
1.0
 40
1.0
 40
1.0
 40
1.0
 10
-76.8271731415
 20
-29.3408501143
 30
0.0
 10
-76.8705736971
 20
-29.4610542637
 30
0.0
 10
-76.9413191897
 20
-29.8931154132
 30
0.0
 10
-76.89774719
 20
-30.3274429247
 30
0.0
 10
-76.8534754416
 20
-30.6285551388
 30
0.0
  0
SPLINE
  5
4B9
100
AcDbEntity
  8
CURVE
100
AcDbSpline
 62
250
  6
CONTINUOUS
 70
0
 71
3
 72
17
 73
13
 74
0
 42
0.0000001
 43
0.0000001
 44
0.0000000001
 40
0.0
 40
0.0
 40
0.0
 40
0.0
 40
0.0559780952
 40
0.1687540387
 40
0.321006234
 40
0.4122750837
 40
0.516613223
 40
0.6013931059
 40
0.6776022439
 40
0.8103422694
 40
0.9200404832
 40
1.0
 40
1.0
 40
1.0
 40
1.0
 10
-75.565355887
 20
-29.2870512436
 30
0.0
 10
-75.569072396
 20
-29.2582307418
 30
0.0
 10
-75.6267338042
 20
-29.184972753
 30
0.0
 10
-75.7366525342
 20
-29.0634829078
 30
0.0
 10
-75.9058553535
 20
-28.9740276278
 30
0.0
 10
-76.0823721928
 20
-28.9341773505
 30
0.0
 10
-76.2288774847
 20
-28.9304334968
 30
0.0
 10
-76.3657122389
 20
-28.9501640226
 30
0.0
 10
-76.5111098398
 20
-28.9979840427
 30
0.0
 10
-76.6536026583
 20
-29.0877998266
 30
0.0
 10
-76.7650357856
 20
-29.2146127248
 30
0.0
 10
-76.8130958728
 20
-29.301804483
 30
0.0
 10
-76.8271731415
 20
-29.3408501143
 30
0.0
  0
SPLINE
  5
4BA
100
AcDbEntity
  8
CURVE
100
AcDbSpline
 62
250
  6
CONTINUOUS
 70
0
 71
3
 72
9
 73
5
 74
0
 42
0.0000001
 43
0.0000001
 44
0.0000000001
 40
0.0
 40
0.0
 40
0.0
 40
0.0
 40
0.2426586216
 40
1.0
 40
1.0
 40
1.0
 40
1.0
 10
-75.0606102513
 20
-28.9862836897
 30
0.0
 10
-75.1060069793
 20
-28.9986586641
 30
0.0
 10
-75.2893300296
 20
-29.0459291565
 30
0.0
 10
-75.4962028278
 20
-29.1505648409
 30
0.0
 10
-75.5505936274
 20
-29.2870512436
 30
0.0
  0
SPLINE
  5
4BB
100
AcDbEntity
  8
CURVE
100
AcDbSpline
 62
250
  6
CONTINUOUS
 70
0
 71
3
 72
9
 73
5
 74
0
 42
0.0000001
 43
0.0000001
 44
0.0000000001
 40
0.0
 40
0.0
 40
0.0
 40
0.0
 40
0.1980141723
 40
1.0
 40
1.0
 40
1.0
 40
1.0
 10
-74.3844500529
 20
-28.8079038802
 30
0.0
 10
-74.4289913683
 20
-28.8200085492
 30
0.0
 10
-74.6544370123
 20
-28.8792554798
 30
0.0
 10
-74.8802502499
 20
-28.9371156095
 30
0.0
 10
-75.0606102513
 20
-28.9862836897
 30
0.0
  0
SPLINE
  5
4BC
100
AcDbEntity
  8
CURVE
100
AcDbSpline
 62
250
  6
CONTINUOUS
 70
0
 71
3
 72
9
 73
5
 74
0
 42
0.0000001
 43
0.0000001
 44
0.0000000001
 40
0.0
 40
0.0
 40
0.0
 40
0.0
 40
0.5586214172
 40
1.0
 40
1.0
 40
1.0
 40
1.0
 10
-75.1419900176
 20
-29.5379751749
 30
0.0
 10
-75.0040849142
 20
-29.486134558
 30
0.0
 10
-74.7487235898
 20
-29.4179595379
 30
0.0
 10
-74.4963159565
 20
-29.3419894791
 30
0.0
 10
-74.3844500529
 20
-29.3098079785
 30
0.0
  0
SPLINE
  5
4BD
100
AcDbEntity
  8
CURVE
100
AcDbSpline
 62
250
  6
CONTINUOUS
 70
0
 71
3
 72
9
 73
5
 74
0
 42
0.0000001
 43
0.0000001
 44
0.0000000001
 40
0.0
 40
0.0
 40
0.0
 40
0.0
 40
0.3559141631
 40
1.0
 40
1.0
 40
1.0
 40
1.0
 10
-75.3621125436
 20
-29.8290889245
 30
0.0
 10
-75.3621125436
 20
-29.7836184402
 30
0.0
 10
-75.3345954957
 20
-29.6528120506
 30
0.0
 10
-75.21898295
 20
-29.5668873007
 30
0.0
 10
-75.1419900176
 20
-29.5379751749
 30
0.0
  0
SPLINE
  5
4BE
100
AcDbEntity
  8
0
100
AcDbSpline
 62
7
  6
CONTINUOUS
 70
0
 71
3
 72
9
 73
5
 74
0
 42
0.0000001
 43
0.0000001
 44
0.0000000001
 40
0.0
 40
0.0
 40
0.0
 40
0.0
 40
0.4298640935
 40
1.0
 40
1.0
 40
1.0
 40
1.0
 10
-69.2774943092
 20
26.0463167932
 30
0.0
 10
-69.2774943092
 20
26.0354717391
 30
0.0
 10
-69.2854037327
 20
26.010636875
 30
0.0
 10
-69.2980038149
 20
25.9889263826
 30
0.0
 10
-69.3053532242
 20
25.9765617175
 30
0.0
  0
SPLINE
  5
4BF
100
AcDbEntity
  8
0
100
AcDbSpline
 62
250
  6
CONTINUOUS
 70
0
 71
3
 72
9
 73
5
 74
0
 42
0.0000001
 43
0.0000001
 44
0.0000000001
 40
0.0
 40
0.0
 40
0.0
 40
0.0
 40
0.5590518811
 40
1.0
 40
1.0
 40
1.0
 40
1.0
 10
-71.3517217255
 20
-26.9276792439
 30
0.0
 10
-71.3355540583
 20
-26.9561059275
 30
0.0
 10
-71.3055058827
 20
-27.0063036493
 30
0.0
 10
-71.2727797657
 20
-27.054897917
 30
0.0
 10
-71.2570130727
 20
-27.0753122436
 30
0.0
  0
SPLINE
  5
4C0
100
AcDbEntity
  8
0
100
AcDbSpline
 62
250
  6
CONTINUOUS
 70
0
 71
3
 72
10
 73
6
 74
0
 42
0.0000001
 43
0.0000001
 44
0.0000000001
 40
0.0
 40
0.0
 40
0.0
 40
0.0
 40
0.695089043
 40
0.8909700174
 40
1.0
 40
1.0
 40
1.0
 40
1.0
 10
-71.2570130727
 20
-27.0753122436
 30
0.0
 10
-71.2482215023
 20
-27.0866953529
 30
0.0
 10
-71.2361469008
 20
-27.1011551843
 30
0.0
 10
-71.220644589
 20
-27.1142214526
 30
0.0
 10
-71.2135829256
 20
-27.1160695457
 30
0.0
 10
-71.2115880755
 20
-27.1150157961
 30
0.0
  0
SPLINE
  5
4C1
100
AcDbEntity
  8
0
100
AcDbSpline
 62
250
  6
CONTINUOUS
 70
0
 71
3
 72
13
 73
9
 74
0
 42
0.0000001
 43
0.0000001
 44
0.0000000001
 40
0.0
 40
0.0
 40
0.0
 40
0.0
 40
0.3880873771
 40
0.7025988043
 40
0.8214552685
 40
0.9105861306
 40
0.9687926621
 40
1.0
 40
1.0
 40
1.0
 40
1.0
 10
-71.3517217255
 20
26.9276792439
 30
0.0
 10
-71.3365238205
 20
26.954388973
 30
0.0
 10
-71.3080092991
 20
27.002152232
 30
0.0
 10
-71.2717909535
 20
27.0563451371
 30
0.0
 10
-71.2465062869
 20
27.088987444
 30
0.0
 10
-71.2318730848
 20
27.1045153452
 30
0.0
 10
-71.2216879264
 20
27.113663453
 30
0.0
 10
-71.2137686776
 20
27.1161783955
 30
0.0
 10
-71.2115880755
 20
27.1150157961
 30
0.0
  0
SPLINE
  5
4C2
100
AcDbEntity
  8
0
100
AcDbSpline
 62
250
  6
CONTINUOUS
 70
0
 71
3
 72
11
 73
7
 74
0
 42
0.0000001
 43
0.0000001
 44
0.0000000001
 40
0.0
 40
0.0
 40
0.0
 40
0.0
 40
0.2000269844
 40
0.4247287562
 40
0.6891834224
 40
1.0
 40
1.0
 40
1.0
 40
1.0
 10
-69.688533148
 20
26.3065510847
 30
0.0
 10
-69.6949542364
 20
26.309959513
 30
0.0
 10
-69.710288487
 20
26.3142240282
 30
0.0
 10
-69.735607309
 20
26.3118059158
 30
0.0
 10
-69.7630549044
 20
26.3015467889
 30
0.0
 10
-69.781027959
 20
26.2906707683
 30
0.0
 10
-69.7902994024
 20
26.2842176744
 30
0.0
  0
SPLINE
  5
4C3
100
AcDbEntity
  8
0
100
AcDbSpline
 62
250
  6
CONTINUOUS
 70
0
 71
3
 72
9
 73
5
 74
0
 42
0.0000001
 43
0.0000001
 44
0.0000000001
 40
0.0
 40
0.0
 40
0.0
 40
0.0
 40
0.2366932103
 40
1.0
 40
1.0
 40
1.0
 40
1.0
 10
-69.7902994024
 20
26.2842176744
 30
0.0
 10
-69.7934142841
 20
26.2820496599
 30
0.0
 10
-69.8063718545
 20
26.2726000078
 30
0.0
 10
-69.8185507936
 20
26.2621044193
 30
0.0
 10
-69.827445077
 20
26.2536973817
 30
0.0
  0
SPLINE
  5
4C4
100
AcDbEntity
  8
0
100
AcDbSpline
 62
250
  6
CONTINUOUS
 70
0
 71
3
 72
11
 73
7
 74
0
 42
0.0000001
 43
0.0000001
 44
0.0000000001
 40
0.0
 40
0.0
 40
0.0
 40
0.0
 40
0.2000370051
 40
0.4247427346
 40
0.6891997178
 40
1.0
 40
1.0
 40
1.0
 40
1.0
 10
-69.688533148
 20
-26.3065510847
 30
0.0
 10
-69.6949525294
 20
-26.3099586069
 30
0.0
 10
-69.710281841
 20
-26.3142233188
 30
0.0
 10
-69.7355935299
 20
-26.3118084799
 30
0.0
 10
-69.7630334343
 20
-26.3015565779
 30
0.0
 10
-69.7810021188
 20
-26.2906870918
 30
0.0
 10
-69.7902710174
 20
-26.2842376253
 30
0.0
  0
SPLINE
  5
4C5
100
AcDbEntity
  8
0
100
AcDbSpline
 62
250
  6
CONTINUOUS
 70
0
 71
3
 72
9
 73
5
 74
0
 42
0.0000001
 43
0.0000001
 44
0.0000000001
 40
0.0
 40
0.0
 40
0.0
 40
0.0
 40
0.236679886
 40
1.0
 40
1.0
 40
1.0
 40
1.0
 10
-69.7902710174
 20
-26.2842376253
 30
0.0
 10
-69.793388261
 20
-26.2820685911
 30
0.0
 10
-69.8063562025
 20
-26.2726135297
 30
0.0
 10
-69.8185442287
 20
-26.2621106246
 30
0.0
 10
-69.827445077
 20
-26.2536973817
 30
0.0
  0
SPLINE
  5
4C6
100
AcDbEntity
  8
0
100
AcDbSpline
 62
250
  6
CONTINUOUS
 70
0
 71
3
 72
17
 73
13
 74
0
 42
0.0000001
 43
0.0000001
 44
0.0000000001
 40
0.0
 40
0.0
 40
0.0
 40
0.0
 40
0.0041509426
 40
0.0165131528
 40
0.0370394731
 40
0.0656738303
 40
0.147033967
 40
0.259883893
 40
0.4031301725
 40
0.5755840393
 40
0.7753335906
 40
1.0
 40
1.0
 40
1.0
 40
1.0
 10
-69.827445077
 20
-26.3415638603
 30
0.0
 10
-69.8273234995
 20
-26.341563153
 30
0.0
 10
-69.8275406199
 20
-26.3407901078
 30
0.0
 10
-69.8272868774
 20
-26.3399838662
 30
0.0
 10
-69.8273940998
 20
-26.3380251079
 30
0.0
 10
-69.8272869769
 20
-26.3342971317
 30
0.0
 10
-69.8273250428
 20
-26.3277000543
 30
0.0
 10
-69.8272906037
 20
-26.3178494928
 30
0.0
 10
-69.8273119756
 20
-26.3052846155
 30
0.0
 10
-69.8273364454
 20
-26.2901918491
 30
0.0
 10
-69.8273833983
 20
-26.2727082659
 30
0.0
 10
-69.8274226515
 20
-26.2602777389
 30
0.0
 10
-69.827445077
 20
-26.2536973817
 30
0.0
  0
SPLINE
  5
4C7
100
AcDbEntity
  8
0
100
AcDbSpline
 62
7
  6
CONTINUOUS
 70
0
 71
3
 72
9
 73
5
 74
0
 42
0.0000001
 43
0.0000001
 44
0.0000000001
 40
0.0
 40
0.0
 40
0.0
 40
0.0
 40
0.5701357943
 40
1.0
 40
1.0
 40
1.0
 40
1.0
 10
-69.3053532242
 20
-25.9765617175
 30
0.0
 10
-69.2980038164
 20
-25.9889263801
 30
0.0
 10
-69.2854037349
 20
-26.0106368726
 30
0.0
 10
-69.2774943092
 20
-26.0354717363
 30
0.0
 10
-69.2774943092
 20
-26.0463167932
 30
0.0
  0
SPLINE
  5
4C8
100
AcDbEntity
  8
0
100
AcDbSpline
 62
250
  6
CONTINUOUS
 70
0
 71
3
 72
17
 73
13
 74
0
 42
0.0000001
 43
0.0000001
 44
0.0000000001
 40
0.0
 40
0.0
 40
0.0
 40
0.0
 40
0.2246664094
 40
0.4244159606
 40
0.5968698275
 40
0.740116107
 40
0.852966033
 40
0.9343261697
 40
0.9629605269
 40
0.9834868471
 40
0.9958490574
 40
1.0
 40
1.0
 40
1.0
 40
1.0
 10
-69.827445077
 20
26.2536973817
 30
0.0
 10
-69.8274226515
 20
26.2602777389
 30
0.0
 10
-69.8273833983
 20
26.2727082659
 30
0.0
 10
-69.8273364454
 20
26.2901918491
 30
0.0
 10
-69.8273119756
 20
26.3052846155
 30
0.0
 10
-69.8272906037
 20
26.3178494928
 30
0.0
 10
-69.8273250428
 20
26.3277000543
 30
0.0
 10
-69.8272869769
 20
26.3342971317
 30
0.0
 10
-69.8273940998
 20
26.3380251079
 30
0.0
 10
-69.8272868774
 20
26.3399838662
 30
0.0
 10
-69.8275406199
 20
26.3407901078
 30
0.0
 10
-69.8273234995
 20
26.341563153
 30
0.0
 10
-69.827445077
 20
26.3415638603
 30
0.0
  0
ELLIPSE
  5
4C9
100
AcDbEntity
  8
0
100
AcDbEllipse
 62
7
  6
CONTINUOUS
 10
-69.4774943092
 20
-26.079798695
 30
0.0
 11
0.1417119467
 21
0.1422961243
 31
0.0
 40
0.9918061237
 41
-0.2491986107
 42
0.7350951877
  0
ELLIPSE
  5
4CA
100
AcDbEntity
  8
0
100
AcDbEllipse
 62
7
  6
CONTINUOUS
 10
-69.4774943092
 20
26.079798695
 30
0.0
 11
-0.1417119467
 21
0.1422961243
 31
0.0
 40
0.9918061237
 41
-3.8766878413
 42
-2.8923940429
  0
ENDSEC
  0
SECTION
  2
OBJECTS
  0
DICTIONARY
  5
C
100
AcDbDictionary
280
0
281
1
  3
ACAD_GROUP
350
D
  3
ACAD_MLINESTYLE
350
17
  3
ACAD_LAYOUT
350
1A
  3
ACAD_PLOTSETTINGS
350
19
  3
ACAD_PLOTSTYLENAME
350
E
  0
DICTIONARY
  5
D
102
{ACAD_REACTORS
330
C
102
}
100
AcDbDictionary
280
0
281
1
  0
ACDBDICTIONARYWDFLT
  5
E
102
{ACAD_REACTORS
330
C
102
}
100
AcDbDictionary
281
1
  3
Normal
350
F
100
AcDbDictionaryWithDefault
340
F
  0
DICTIONARY
  5
17
102
{ACAD_REACTORS
330
C
102
}
100
AcDbDictionary
280
0
281
1
  3
Standard
350
18
  0
DICTIONARY
  5
19
102
{ACAD_REACTORS
330
C
102
}
100
AcDbDictionary
281
1
  0
DICTIONARY
  5
1A
102
{ACAD_REACTORS
330
C
102
}
100
AcDbDictionary
281
1
  3
Model
350
4CB
  3
Layout1
350
4CC
  0
ACDBPLACEHOLDER
  5
F
102
{ACAD_REACTORS
330
E
102
}
  0
MLINESTYLE
  5
18
102
{ACAD_REACTORS
330
17
102
}
100
AcDbMlineStyle
  2
STANDARD
 70
0
  3

 62
256
 51
90.0
 52
90.0
 71
2
 49
0.5
 62
256
  6
BYLAYER
 49
-0.5
 62
256
  6
BYLAYER
  0
LAYOUT
  5
4CB
102
{ACAD_REACTORS
330
1A
102
}
100
AcDbPlotSettings
  1

  2
none_device
  4
ISO_A4_(297.00_x_210.00_MM)
  6

 40
0.0
 41
0.0
 42
0.0
 43
0.0
 44
297.0
 45
210.0
 46
0.0
 47
0.0
 48
0.0
 49
0.0
140
0.0
141
0.0
142
1.0
143
1.0
 70
1024
 72
1
 73
0
 74
0
  7

 75
0
147
1.0
148
0.0
149
0.0
100
AcDbLayout
  1
Model
 70
0
 71
0
 10
0.0
 20
0.0
 11
297.0
 21
210.0
 12
0.0
 22
0.0
 32
0.0
 14
0.0
 24
0.0
 34
0.0
 15
0.0
 25
0.0
 35
0.0
146
0.0
 13
0.0
 23
0.0
 33
0.0
 16
1.0
 26
0.0
 36
0.0
 17
0.0
 27
1.0
 37
0.0
 76
0
330
21E
345
0
346
0
  0
LAYOUT
  5
4CC
102
{ACAD_REACTORS
330
1A
102
}
100
AcDbPlotSettings
  1

  2
none_device
  4
ISO_A4_(297.00_x_210.00_MM)
  6

 40
0.0
 41
0.0
 42
0.0
 43
0.0
 44
297.0
 45
210.0
 46
0.0
 47
0.0
 48
0.0
 49
0.0
140
0.0
141
0.0
142
1.0
143
1.0
 70
0
 72
1
 73
0
 74
0
  7

 75
0
147
1.0
148
0.0
149
0.0
100
AcDbLayout
  1
Layout1
 70
0
 71
1
 10
0.0
 20
0.0
 11
297.0
 21
210.0
 12
0.0
 22
0.0
 32
0.0
 14
0.0
 24
0.0
 34
0.0
 15
0.0
 25
0.0
 35
0.0
146
0.0
 13
0.0
 23
0.0
 33
0.0
 16
1.0
 26
0.0
 36
0.0
 17
0.0
 27
1.0
 37
0.0
 76
0
330
21F
345
0
346
0
  0
ENDSEC
  0
EOF
