  0
SECTION
  2
HEADER
  9
$ACADVER
  1
AC1024
  9
$DWGCODEPAGE
  3
ANSI_1252
  9
$EXTMAX
 10
297.0
 20
210.0
 30
0.0
  9
$EXTMIN
 10
0.0
 20
0.0
 30
0.0
  9
$LIMMIN
 10
0.0
 20
0.0
  9
$LIMMAX
 10
297.0
 20
210.0
  9
$VIEWCTR
 10
148.5
 20
105.0
  9
$VIEWSIZE
 40
210.0
  9
$CLAYER
  8
0
  9
$LTSCALE
 40
16.335
  9
$CELTYPE
  6
BYLAYER
  9
$DIMSCALE
 40
1.0
  9
$DIMASZ
 40
3.0
  9
$DIMEXO
 40
0.5
  9
$DIMDLI
 40
11.286
  9
$DIMEXE
 40
1.5
  9
$DIMCEN
 40
2.673
  9
$DIMLFAC
 40
1.0
  9
$DIMBLK
  1
_FILLED
  9
$DIMALT
 70
0
  9
$DIMALTF
 40
0.0393700787
  9
$DIMTXT
 40
3.0
  9
$DIMTOL
 70
1
  9
$DIMLIM
 70
0
  9
$DIMTFAC
 40
1.0
  9
$DIMTP
 40
0.01
  9
$DIMTM
 40
0.01
  9
$DIMGAP
 40
0.625
  9
$DIMDSEP
 70
44
  9
$AUNITS
 70
0
  9
$PDMODE
 70
3
  9
$PDSIZE
 40
3.0
  9
$HANDSEED
  5
423
  9
$TILEMODE
 70
1
  9
$MEASUREMENT
 70
1
  9
$INSUNITS
 70
4
  0
ENDSEC
  0
SECTION
  2
CLASSES
  0
CLASS
  1
ACDBDICTIONARYWDFLT
  2
AcDbDictionaryWithDefault
  3
AutoCAD 2000
 90
0
 91
1
280
0
281
0
  0
CLASS
  1
ACDBPLACEHOLDER
  2
AcDbPlaceHolder
  3
AutoCAD 2000
 90
0
 91
1
280
0
281
0
  0
CLASS
  1
LAYOUT
  2
AcDbLayout
  3
AutoCAD 2000
 90
0
 91
0
280
0
281
0
  0
ENDSEC
  0
SECTION
  2
TABLES
  0
TABLE
  2
VPORT
  5
8
100
AcDbSymbolTable
 70
2
  0
VPORT
  5
1F4
100
AcDbSymbolTableRecord
100
AcDbViewportTableRecord
  2
*ACTIVE
 70
0
 10
0.0
 20
0.0
 11
1.0
 21
1.0
 12
148.5
 22
105.0
 13
0.0
 23
0.0
 14
1.0
 24
1.0
 15
0.0
 25
0.0
 16
0.0
 26
0.0
 36
1.0
 17
0.0
 27
0.0
 37
0.0
 40
210.0
 41
1.4142857143
 42
50.0
 43
0.0
 44
0.0
 50
0.0
 51
0.0
 71
0
 72
100
 73
1
 74
1
 75
0
 76
0
 77
0
 78
0
  0
ENDTAB
  0
TABLE
  2
LTYPE
  5
5
100
AcDbSymbolTable
 70
6
  0
LTYPE
  5
14
100
AcDbSymbolTableRecord
100
AcDbLinetypeTableRecord
  2
BYBLOCK
 70
0
  3

 72
65
 73
0
 40
0.0
  0
LTYPE
  5
15
100
AcDbSymbolTableRecord
100
AcDbLinetypeTableRecord
  2
BYLAYER
 70
0
  3

 72
65
 73
0
 40
0.0
  0
LTYPE
  5
16
100
AcDbSymbolTableRecord
100
AcDbLinetypeTableRecord
  2
CONTINUOUS
 70
64
  3
Solid line
 72
65
 73
0
 40
0.0
  0
LTYPE
  5
1F5
100
AcDbSymbolTableRecord
100
AcDbLinetypeTableRecord
  2
CENTER
 70
64
  3
____ _ ____ _ ____ _ ____ _ ____ _ ____ _ ____
 72
65
 73
4
 40
0.6
 49
0.375
 74
0
 49
-0.075
 74
0
 49
0.075
 74
0
 49
-0.075
 74
0
  0
LTYPE
  5
1F6
100
AcDbSymbolTableRecord
100
AcDbLinetypeTableRecord
  2
HIDDEN
 70
64
  3
- - - - - - - - - - - - - - - - - - - -
 72
65
 73
2
 40
0.2
 49
0.1
 74
0
 49
-0.1
 74
0
  0
LTYPE
  5
1F7
100
AcDbSymbolTableRecord
100
AcDbLinetypeTableRecord
  2
PHANTOM
 70
64
  3
_____ _ _ _____ _ _ _____ _ _ _____
 72
65
 73
6
 40
0.8
 49
0.45
 74
0
 49
-0.05
 74
0
 49
0.1
 74
0
 49
-0.05
 74
0
 49
0.1
 74
0
 49
-0.05
 74
0
  0
LTYPE
  5
1F8
100
AcDbSymbolTableRecord
100
AcDbLinetypeTableRecord
  2
DOT
 70
64
  3
. . . . . . . . . . . . . . . . . . . .
 72
65
 73
2
 40
0.2
 49
0.1
 74
0
 49
-0.1
 74
0
  0
LTYPE
  5
1F9
100
AcDbSymbolTableRecord
100
AcDbLinetypeTableRecord
  2
DASHED
 70
64
  3
- - - - - - - - - - - - - - - - - - - -
 72
65
 73
2
 40
0.2
 49
0.1
 74
0
 49
-0.1
 74
0
  0
ENDTAB
  0
TABLE
  2
LAYER
  5
2
100
AcDbSymbolTable
 70
36
  0
LAYER
  5
10
100
AcDbSymbolTableRecord
100
AcDbLayerTableRecord
  2
0
 70
0
 62
7
  6
CONTINUOUS
370
-3
390
F
  0
LAYER
  5
1FA
100
AcDbSymbolTableRecord
100
AcDbLayerTableRecord
  2
DEFAULT_1
 70
0
 62
7
  6
CENTER
370
-3
390
F
  0
LAYER
  5
1FB
100
AcDbSymbolTableRecord
100
AcDbLayerTableRecord
  2
DEFAULT_2
 70
0
 62
7
  6
HIDDEN
370
-3
390
F
  0
LAYER
  5
1FC
100
AcDbSymbolTableRecord
100
AcDbLayerTableRecord
  2
DEFAULT_3
 70
0
 62
7
  6
PHANTOM
370
-3
390
F
  0
LAYER
  5
1FD
100
AcDbSymbolTableRecord
100
AcDbLayerTableRecord
  2
ASSI
 70
0
 62
7
  6
CONTINUOUS
370
-3
390
F
  0
LAYER
  5
1FE
100
AcDbSymbolTableRecord
100
AcDbLayerTableRecord
  2
COORDINATE
 70
0
 62
7
  6
CONTINUOUS
370
-3
390
F
  0
LAYER
  5
1FF
100
AcDbSymbolTableRecord
100
AcDbLayerTableRecord
  2
COORD_ORIGINE
 70
0
 62
7
  6
CONTINUOUS
370
-3
390
F
  0
LAYER
  5
200
100
AcDbSymbolTableRecord
100
AcDbLayerTableRecord
  2
COPY_PUBLISH
 70
0
 62
7
  6
CONTINUOUS
370
-3
390
F
  0
LAYER
  5
201
100
AcDbSymbolTableRecord
100
AcDbLayerTableRecord
  2
COSMETIC
 70
0
 62
7
  6
CONTINUOUS
370
-3
390
F
  0
LAYER
  5
202
100
AcDbSymbolTableRecord
100
AcDbLayerTableRecord
  2
COSMETICI
 70
0
 62
7
  6
CONTINUOUS
370
-3
390
F
  0
LAYER
  5
203
100
AcDbSymbolTableRecord
100
AcDbLayerTableRecord
  2
CURVE
 70
0
 62
7
  6
CONTINUOUS
370
-3
390
F
  0
LAYER
  5
204
100
AcDbSymbolTableRecord
100
AcDbLayerTableRecord
  2
CURVE_COSTRUZIONE
 70
0
 62
7
  6
CONTINUOUS
370
-3
390
F
  0
LAYER
  5
205
100
AcDbSymbolTableRecord
100
AcDbLayerTableRecord
  2
CURVE_TASSELLI
 70
0
 62
7
  6
CONTINUOUS
370
-3
390
F
  0
LAYER
  5
206
100
AcDbSymbolTableRecord
100
AcDbLayerTableRecord
  2
DRAFT
 70
0
 62
7
  6
CONTINUOUS
370
-3
390
F
  0
LAYER
  5
207
100
AcDbSymbolTableRecord
100
AcDbLayerTableRecord
  2
IMPORT_IGES
 70
0
 62
7
  6
CONTINUOUS
370
-3
390
F
  0
LAYER
  5
208
100
AcDbSymbolTableRecord
100
AcDbLayerTableRecord
  2
INTFCLR_2
 70
0
 62
7
  6
CONTINUOUS
370
-3
390
F
  0
LAYER
  5
209
100
AcDbSymbolTableRecord
100
AcDbLayerTableRecord
  2
INTF_1
 70
0
 62
7
  6
CONTINUOUS
370
-3
390
F
  0
LAYER
  5
20A
100
AcDbSymbolTableRecord
100
AcDbLayerTableRecord
  2
INTF_6
 70
0
 62
7
  6
CONTINUOUS
370
-3
390
F
  0
LAYER
  5
20B
100
AcDbSymbolTableRecord
100
AcDbLayerTableRecord
  2
INTF_7
 70
0
 62
7
  6
CONTINUOUS
370
-3
390
F
  0
LAYER
  5
20C
100
AcDbSymbolTableRecord
100
AcDbLayerTableRecord
  2
INTF_CYAN
 70
0
 62
7
  6
CONTINUOUS
370
-3
390
F
  0
LAYER
  5
20D
100
AcDbSymbolTableRecord
100
AcDbLayerTableRecord
  2
LIVELLO_1
 70
0
 62
7
  6
CONTINUOUS
370
-3
390
F
  0
LAYER
  5
20E
100
AcDbSymbolTableRecord
100
AcDbLayerTableRecord
  2
NOTE
 70
0
 62
7
  6
CONTINUOUS
370
-3
390
F
  0
LAYER
  5
20F
100
AcDbSymbolTableRecord
100
AcDbLayerTableRecord
  2
PIANI
 70
0
 62
7
  6
CONTINUOUS
370
-3
390
F
  0
LAYER
  5
210
100
AcDbSymbolTableRecord
100
AcDbLayerTableRecord
  2
PIANI_ORIGINE
 70
0
 62
7
  6
CONTINUOUS
370
-3
390
F
  0
LAYER
  5
211
100
AcDbSymbolTableRecord
100
AcDbLayerTableRecord
  2
PIANI_RIFERIMENTO
 70
0
 62
7
  6
CONTINUOUS
370
-3
390
F
  0
LAYER
  5
212
100
AcDbSymbolTableRecord
100
AcDbLayerTableRecord
  2
PUNTI
 70
0
 62
7
  6
CONTINUOUS
370
-3
390
F
  0
LAYER
  5
213
100
AcDbSymbolTableRecord
100
AcDbLayerTableRecord
  2
RACCORDO
 70
0
 62
7
  6
CONTINUOUS
370
-3
390
F
  0
LAYER
  5
214
100
AcDbSymbolTableRecord
100
AcDbLayerTableRecord
  2
RGB__255__255__255__
 70
0
 62
7
  6
CONTINUOUS
370
-3
390
F
  0
LAYER
  5
215
100
AcDbSymbolTableRecord
100
AcDbLayerTableRecord
  2
RGB____0____0____0__
 70
0
 62
7
  6
CONTINUOUS
370
-3
390
F
  0
LAYER
  5
216
100
AcDbSymbolTableRecord
100
AcDbLayerTableRecord
  2
SIMBOLI
 70
0
 62
7
  6
CONTINUOUS
370
-3
390
F
  0
LAYER
  5
217
100
AcDbSymbolTableRecord
100
AcDbLayerTableRecord
  2
SMUSSO
 70
0
 62
7
  6
CONTINUOUS
370
-3
390
F
  0
LAYER
  5
218
100
AcDbSymbolTableRecord
100
AcDbLayerTableRecord
  2
SUPERFICI
 70
0
 62
7
  6
CONTINUOUS
370
-3
390
F
  0
LAYER
  5
219
100
AcDbSymbolTableRecord
100
AcDbLayerTableRecord
  2
TRASH
 70
0
 62
7
  6
CONTINUOUS
370
-3
390
F
  0
LAYER
  5
21A
100
AcDbSymbolTableRecord
100
AcDbLayerTableRecord
  2
WHITE
 70
0
 62
7
  6
CONTINUOUS
370
-3
390
F
  0
LAYER
  5
21B
100
AcDbSymbolTableRecord
100
AcDbLayerTableRecord
  2
XSEC_DATUMS
 70
0
 62
7
  6
CONTINUOUS
370
-3
390
F
  0
ENDTAB
  0
TABLE
  2
STYLE
  5
3
100
AcDbSymbolTable
 70
1
  0
STYLE
  5
11
100
AcDbSymbolTableRecord
100
AcDbTextStyleTableRecord
  2
STANDARD
 70
0
 40
0.0
 41
0.8
 50
0.0
 71
0
 42
0.2
  3
txt
  4

  0
STYLE
  5
21C
100
AcDbSymbolTableRecord
100
AcDbTextStyleTableRecord
  2
TEXTSTYLE_1
 70
0
 40
0.0
 41
0.8
 50
0.0
 71
0
 42
0.2
  3
gdt
  4

  0
ENDTAB
  0
TABLE
  2
VIEW
  5
6
100
AcDbSymbolTable
 70
0
  0
ENDTAB
  0
TABLE
  2
UCS
  5
7
100
AcDbSymbolTable
 70
0
  0
ENDTAB
  0
TABLE
  2
APPID
  5
9
100
AcDbSymbolTable
 70
1
  0
APPID
  5
21D
100
AcDbSymbolTableRecord
100
AcDbRegAppTableRecord
  2
ACAD
 70
0
  0
ENDTAB
  0
TABLE
  2
BLOCK_RECORD
  5
1
100
AcDbSymbolTable
 70
0
  0
BLOCK_RECORD
  5
21E
100
AcDbSymbolTableRecord
100
AcDbBlockTableRecord
  2
*Model_Space
  0
BLOCK_RECORD
  5
21F
100
AcDbSymbolTableRecord
100
AcDbBlockTableRecord
  2
*Paper_Space
  0
BLOCK_RECORD
  5
220
100
AcDbSymbolTableRecord
100
AcDbBlockTableRecord
  2
_FILLED
  0
BLOCK_RECORD
  5
221
100
AcDbSymbolTableRecord
100
AcDbBlockTableRecord
  2
*D0
  0
BLOCK_RECORD
  5
222
100
AcDbSymbolTableRecord
100
AcDbBlockTableRecord
  2
*D1
  0
BLOCK_RECORD
  5
223
100
AcDbSymbolTableRecord
100
AcDbBlockTableRecord
  2
*D2
  0
BLOCK_RECORD
  5
224
100
AcDbSymbolTableRecord
100
AcDbBlockTableRecord
  2
*D3
  0
ENDTAB
  0
TABLE
  2
DIMSTYLE
  5
A
100
AcDbSymbolTable
 70
1
100
AcDbDimStyleTable
 71
0
  0
DIMSTYLE
105
225
100
AcDbSymbolTableRecord
100
AcDbDimStyleTableRecord
  2
STANDARD
 70
0
  3

  4

 40
1.0
 41
3.0
 42
0.5
 43
0.38
 44
1.5
 45
0.0
 46
0.0
 47
0.01
 48
0.01
140
3.0
141
0.09
142
0.0
143
25.4
144
1.0
145
0.0
146
1.0
147
0.625
 71
1
 72
0
 73
0
 74
0
 75
0
 76
0
 77
1
 78
8
 79
2
170
0
171
1
172
0
173
0
174
0
175
0
176
0
177
0
178
0
270
2
179
2
271
2
272
2
273
2
274
2
275
0
280
0
281
0
282
0
283
1
284
8
285
0
286
0
287
3
288
0
340
11
278
44
341
220
342
220
343
220
344
220
  0
DIMSTYLE
105
226
100
AcDbSymbolTableRecord
100
AcDbDimStyleTableRecord
  2
DIMSTYLE_1
 70
0
  3

  4

 40
1.0
 41
3.0
 42
0.5
 43
0.38
 44
1.5
 45
0.0
 46
0.0
 47
0.0
 48
0.0
140
3.0
141
0.09
142
0.0
143
25.4
144
1.0
145
0.0
146
1.0
147
0.75
 71
0
 72
0
 73
0
 74
0
 75
0
 76
0
 77
1
 78
8
 79
2
170
0
171
1
172
0
173
0
174
0
175
0
176
0
177
0
178
0
270
2
179
2
271
2
272
2
273
2
274
2
275
0
280
0
281
0
282
0
283
1
284
8
285
0
286
0
287
3
288
0
340
11
278
44
341
220
342
220
343
220
344
220
  0
ENDTAB
  0
ENDSEC
  0
SECTION
  2
BLOCKS
  0
BLOCK
  5
20
100
AcDbEntity
  8
0
100
AcDbBlockBegin
  2
*Model_Space
 70
0
 10
0.0
 20
0.0
 30
0.0
  3
*Model_Space
  1

  0
ENDBLK
  5
21
100
AcDbEntity
  8
0
100
AcDbBlockEnd
  0
BLOCK
  5
1C
100
AcDbEntity
  8
0
100
AcDbBlockBegin
  2
*Paper_Space
 70
0
 10
0.0
 20
0.0
 30
0.0
  3
*Paper_Space
  1

  0
ENDBLK
  5
1D
100
AcDbEntity
  8
0
100
AcDbBlockEnd
  0
BLOCK
  5
227
100
AcDbEntity
  8
0
100
AcDbBlockBegin
  2
_FILLED
 70
64
 10
0.0
 20
0.0
  3
_FILLED
  1

  0
SOLID
  5
228
100
AcDbEntity
  8
0
  6
BYBLOCK
 62
0
100
AcDbTrace
 10
0.0
 20
0.0
 11
-1.0
 21
0.3166666667
 12
-1.0
 22
-0.3166666667
 13
-1.0
 23
-0.3166666667
  0
ENDBLK
  5
229
100
AcDbEntity
  8
0
  6
BYBLOCK
 62
0
100
AcDbBlockEnd
  0
BLOCK
  5
22A
100
AcDbEntity
  8
0
100
AcDbBlockBegin
 62
7
  6
CONTINUOUS
  2
*D0
 70
65
 10
0.0
 20
0.0
  3
*D0
  1

  0
LINE
  5
22B
100
AcDbEntity
  8
0
100
AcDbLine
 62
7
  6
CONTINUOUS
 10
142.1112212171
 20
151.9393829742
 11
142.1112212171
 21
163.168160788
  0
LINE
  5
22C
100
AcDbEntity
  8
0
100
AcDbLine
 62
7
  6
CONTINUOUS
 10
232.1112212171
 20
151.9393829742
 11
232.1112212171
 21
163.168160788
  0
LINE
  5
22D
100
AcDbEntity
  8
0
100
AcDbLine
 62
7
  6
CONTINUOUS
 10
142.1112212171
 20
161.668160788
 11
187.1112212171
 21
161.668160788
  0
LINE
  5
22E
100
AcDbEntity
  8
0
100
AcDbLine
 62
7
  6
CONTINUOUS
 10
232.1112212171
 20
161.668160788
 11
187.1112212171
 21
161.668160788
  0
INSERT
  5
22F
100
AcDbEntity
  8
0
100
AcDbBlockReference
 62
7
  6
CONTINUOUS
  2
_FILLED
 10
142.1112212171
 20
161.668160788
 41
3.0
 42
3.0
 43
3.0
 50
180.0
  0
INSERT
  5
230
100
AcDbEntity
  8
0
100
AcDbBlockReference
 62
7
  6
CONTINUOUS
  2
_FILLED
 10
232.1112212171
 20
161.668160788
 41
3.0
 42
3.0
 43
3.0
  0
ENDBLK
  5
231
100
AcDbEntity
  8
0
  6
BYBLOCK
 62
0
100
AcDbBlockEnd
  0
BLOCK
  5
232
100
AcDbEntity
  8
0
100
AcDbBlockBegin
 62
7
  6
CONTINUOUS
  2
*D1
 70
65
 10
0.0
 20
0.0
  3
*D1
  1

  0
LINE
  5
233
100
AcDbEntity
  8
0
100
AcDbLine
 62
7
  6
CONTINUOUS
 10
231.610612415
 20
152.4399917763
 11
243.8410069412
 21
152.4399917763
  0
LINE
  5
234
100
AcDbEntity
  8
0
100
AcDbLine
 62
7
  6
CONTINUOUS
 10
231.610612415
 20
62.4399917763
 11
243.8410069412
 21
62.4399917763
  0
LINE
  5
235
100
AcDbEntity
  8
0
100
AcDbLine
 62
7
  6
CONTINUOUS
 10
242.3410069412
 20
152.4399917763
 11
242.3410069412
 21
107.4399917763
  0
LINE
  5
236
100
AcDbEntity
  8
0
100
AcDbLine
 62
7
  6
CONTINUOUS
 10
242.3410069412
 20
62.4399917763
 11
242.3410069412
 21
107.4399917763
  0
INSERT
  5
237
100
AcDbEntity
  8
0
100
AcDbBlockReference
 62
7
  6
CONTINUOUS
  2
_FILLED
 10
242.3410069412
 20
152.4399917763
 41
3.0
 42
3.0
 43
3.0
 50
90.0
  0
INSERT
  5
238
100
AcDbEntity
  8
0
100
AcDbBlockReference
 62
7
  6
CONTINUOUS
  2
_FILLED
 10
242.3410069412
 20
62.4399917763
 41
3.0
 42
3.0
 43
3.0
 50
270.0
  0
ENDBLK
  5
239
100
AcDbEntity
  8
0
  6
BYBLOCK
 62
0
100
AcDbBlockEnd
  0
BLOCK
  5
23A
100
AcDbEntity
  8
0
100
AcDbBlockBegin
 62
7
  6
CONTINUOUS
  2
*D2
 70
65
 10
0.0
 20
0.0
  3
*D2
  1

  0
LINE
  5
23B
100
AcDbEntity
  8
0
100
AcDbLine
 62
7
  6
CONTINUOUS
 10
91.7016586513
 20
151.3167291865
 11
91.7016586513
 21
172.208959163
  0
LINE
  5
23C
100
AcDbEntity
  8
0
100
AcDbLine
 62
7
  6
CONTINUOUS
 10
101.8516586513
 20
133.9863085695
 11
101.8516586513
 21
172.208959163
  0
LINE
  5
23D
100
AcDbEntity
  8
0
100
AcDbLine
 62
7
  6
CONTINUOUS
 10
91.7016586513
 20
170.708959163
 11
96.7766586513
 21
170.708959163
  0
LINE
  5
23E
100
AcDbEntity
  8
0
100
AcDbLine
 62
7
  6
CONTINUOUS
 10
96.7766586513
 20
170.708959163
 11
80.5587718085
 21
170.708959163
  0
LINE
  5
23F
100
AcDbEntity
  8
0
100
AcDbLine
 62
7
  6
CONTINUOUS
 10
101.8516586513
 20
170.708959163
 11
96.7766586513
 21
170.708959163
  0
INSERT
  5
240
100
AcDbEntity
  8
0
100
AcDbBlockReference
 62
7
  6
CONTINUOUS
  2
_FILLED
 10
91.7016586513
 20
170.708959163
 41
3.0
 42
3.0
 43
3.0
 50
180.0
  0
INSERT
  5
241
100
AcDbEntity
  8
0
100
AcDbBlockReference
 62
7
  6
CONTINUOUS
  2
_FILLED
 10
101.8516586513
 20
170.708959163
 41
3.0
 42
3.0
 43
3.0
  0
ENDBLK
  5
242
100
AcDbEntity
  8
0
  6
BYBLOCK
 62
0
100
AcDbBlockEnd
  0
BLOCK
  5
243
100
AcDbEntity
  8
0
100
AcDbBlockBegin
 62
7
  6
CONTINUOUS
  2
*D3
 70
65
 10
0.0
 20
0.0
  3
*D3
  1

  0
LINE
  5
244
100
AcDbEntity
  8
0
100
AcDbLine
 62
7
  6
CONTINUOUS
 10
98.8516586513
 20
149.443158511
 11
98.8516586513
 21
163.3639478323
  0
LINE
  5
245
100
AcDbEntity
  8
0
100
AcDbLine
 62
7
  6
CONTINUOUS
 10
91.7016586513
 20
151.3167291865
 11
91.7016586513
 21
163.3639478323
  0
LINE
  5
246
100
AcDbEntity
  8
0
100
AcDbLine
 62
7
  6
CONTINUOUS
 10
98.8516586513
 20
161.8639478323
 11
95.2766586513
 21
161.8639478323
  0
LINE
  5
247
100
AcDbEntity
  8
0
100
AcDbLine
 62
7
  6
CONTINUOUS
 10
91.7016586513
 20
161.8639478323
 11
95.2766586513
 21
161.8639478323
  0
LINE
  5
248
100
AcDbEntity
  8
0
100
AcDbLine
 62
7
  6
CONTINUOUS
 10
95.2766586513
 20
161.8639478323
 11
82.8315896554
 21
161.8639478323
  0
INSERT
  5
249
100
AcDbEntity
  8
0
100
AcDbBlockReference
 62
7
  6
CONTINUOUS
  2
_FILLED
 10
98.8516586513
 20
161.8639478323
 41
3.0
 42
3.0
 43
3.0
  0
INSERT
  5
24A
100
AcDbEntity
  8
0
100
AcDbBlockReference
 62
7
  6
CONTINUOUS
  2
_FILLED
 10
91.7016586513
 20
161.8639478323
 41
3.0
 42
3.0
 43
3.0
 50
180.0
  0
ENDBLK
  5
24B
100
AcDbEntity
  8
0
  6
BYBLOCK
 62
0
100
AcDbBlockEnd
  0
ENDSEC
  0
SECTION
  2
ENTITIES
  0
DIMENSION
  5
24C
100
AcDbEntity
  8
0
100
AcDbDimension
 62
7
  6
CONTINUOUS
  2
*D0
 10
232.1112212171
 20
161.668160788
 11
184.75407836
 21
161.668160788
 70
160
 71
2
 72
2
 41
0.9
 42
90.0
  3
DIMSTYLE_1
100
AcDbAlignedDimension
 13
142.1112212171
 23
151.4393829742
 14
232.1112212171
 24
151.4393829742
100
AcDbRotatedDimension
  0
DIMENSION
  5
24D
100
AcDbEntity
  8
0
100
AcDbDimension
 62
7
  6
CONTINUOUS
  2
*D1
 10
242.3410069412
 20
62.4399917763
 11
242.3410069412
 21
105.0828489192
 70
160
 71
2
 72
2
 41
0.9
 42
90.0
  3
DIMSTYLE_1
100
AcDbAlignedDimension
 13
231.110612415
 23
152.4399917763
 14
231.110612415
 24
62.4399917763
 50
270.0
100
AcDbRotatedDimension
  0
DIMENSION
  5
24E
100
AcDbEntity
  8
0
100
AcDbDimension
 62
7
  6
CONTINUOUS
  2
*D2
 10
101.8516586513
 20
170.708959163
 11
80.5587718085
 21
170.708959163
 70
160
 71
3
 72
2
 41
0.9
 42
10.15
  3
DIMSTYLE_1
100
AcDbAlignedDimension
 13
91.7016586513
 23
150.8167291865
 14
101.8516586513
 24
133.4863085695
100
AcDbRotatedDimension
  0
DIMENSION
  5
24F
100
AcDbEntity
  8
0
100
AcDbDimension
 62
7
  6
CONTINUOUS
  2
*D3
 10
91.7016586513
 20
161.8639478323
 11
82.8315896554
 21
161.8639478323
 70
160
 71
3
 72
2
 41
0.9
 42
7.15
  3
DIMSTYLE_1
100
AcDbAlignedDimension
 13
98.8516586513
 23
148.943158511
 14
91.7016586513
 24
150.8167291865
 50
180.0
100
AcDbRotatedDimension
  0
LINE
  5
250
100
AcDbEntity
  8
0
100
AcDbLine
 62
7
  6
CONTINUOUS
 10
143.2912357472
 20
152.2306910986
 11
143.3056615627
 21
152.2461602328
  0
LINE
  5
251
100
AcDbEntity
  8
ASSI
100
AcDbLine
 62
7
  6
CONTINUOUS
 10
143.2912357472
 20
152.2306910986
 11
143.3056615627
 21
152.2461602328
  0
LINE
  5
252
100
AcDbEntity
  8
0
100
AcDbLine
 62
7
  6
CONTINUOUS
 10
142.1112212171
 20
151.4393829742
 11
143.1118300192
 21
152.4399917763
  0
LINE
  5
253
100
AcDbEntity
  8
ASSI
100
AcDbLine
 62
7
  6
CONTINUOUS
 10
142.1112212171
 20
151.4393829742
 11
143.1118300192
 21
152.4399917763
  0
LINE
  5
254
100
AcDbEntity
  8
0
100
AcDbLine
 62
7
  6
CONTINUOUS
 10
143.2912357472
 20
152.2306910986
 11
142.3205218948
 21
151.2599772462
  0
LINE
  5
255
100
AcDbEntity
  8
ASSI
100
AcDbLine
 62
7
  6
CONTINUOUS
 10
143.2912357472
 20
152.2306910986
 11
142.3205218948
 21
151.2599772462
  0
LINE
  5
256
100
AcDbEntity
  8
0
100
AcDbLine
 62
7
  6
CONTINUOUS
 10
143.7344838069
 20
151.2112607361
 11
143.3399522573
 21
150.8167291865
  0
LINE
  5
257
100
AcDbEntity
  8
ASSI
100
AcDbLine
 62
7
  6
CONTINUOUS
 10
143.7344838069
 20
151.2112607361
 11
143.3399522573
 21
150.8167291865
  0
LINE
  5
258
100
AcDbEntity
  8
0
100
AcDbLine
 62
7
  6
CONTINUOUS
 10
142.3050527606
 20
151.2455514307
 11
142.3205218948
 21
151.2599772462
  0
LINE
  5
259
100
AcDbEntity
  8
ASSI
100
AcDbLine
 62
7
  6
CONTINUOUS
 10
142.3050527606
 20
151.2455514307
 11
142.3205218948
 21
151.2599772462
  0
LINE
  5
25A
100
AcDbEntity
  8
0
100
AcDbLine
 62
7
  6
CONTINUOUS
 10
142.3205218948
 20
63.6200063064
 11
142.3050527606
 21
63.6344321219
  0
LINE
  5
25B
100
AcDbEntity
  8
ASSI
100
AcDbLine
 62
7
  6
CONTINUOUS
 10
142.3205218948
 20
63.6200063064
 11
142.3050527606
 21
63.6344321219
  0
LINE
  5
25C
100
AcDbEntity
  8
0
100
AcDbLine
 62
7
  6
CONTINUOUS
 10
143.1118300192
 20
62.4399917763
 11
142.1112212171
 21
63.4406005784
  0
LINE
  5
25D
100
AcDbEntity
  8
ASSI
100
AcDbLine
 62
7
  6
CONTINUOUS
 10
143.1118300192
 20
62.4399917763
 11
142.1112212171
 21
63.4406005784
  0
LINE
  5
25E
100
AcDbEntity
  8
0
100
AcDbLine
 62
7
  6
CONTINUOUS
 10
142.3205218948
 20
63.6200063064
 11
143.2912357472
 21
62.649292454
  0
LINE
  5
25F
100
AcDbEntity
  8
ASSI
100
AcDbLine
 62
7
  6
CONTINUOUS
 10
142.3205218948
 20
63.6200063064
 11
143.2912357472
 21
62.649292454
  0
LINE
  5
260
100
AcDbEntity
  8
0
100
AcDbLine
 62
7
  6
CONTINUOUS
 10
143.3399522573
 20
64.0632543661
 11
143.7344838069
 21
63.6687228165
  0
LINE
  5
261
100
AcDbEntity
  8
ASSI
100
AcDbLine
 62
7
  6
CONTINUOUS
 10
143.3399522573
 20
64.0632543661
 11
143.7344838069
 21
63.6687228165
  0
LINE
  5
262
100
AcDbEntity
  8
0
100
AcDbLine
 62
7
  6
CONTINUOUS
 10
143.3056615627
 20
62.6338233198
 11
143.2912357472
 21
62.649292454
  0
LINE
  5
263
100
AcDbEntity
  8
ASSI
100
AcDbLine
 62
7
  6
CONTINUOUS
 10
143.3056615627
 20
62.6338233198
 11
143.2912357472
 21
62.649292454
  0
LWPOLYLINE
  5
264
100
AcDbEntity
  8
CURVE
100
AcDbPolyline
 62
250
  6
CONTINUOUS
 90
73
 70
0
 10
227.4165763501
 20
67.7163288853
 10
227.4217696239
 20
67.7173749134
 10
227.4268064186
 20
67.7190492103
 10
227.4317139218
 20
67.7212001889
 10
227.4365193211
 20
67.723676262
 10
227.4412498039
 20
67.7263258425
 10
227.4558499641
 20
67.7349272754
 10
227.4700188119
 20
67.7438752784
 10
227.4837998232
 20
67.7532983674
 10
227.4977202793
 20
67.7636727032
 10
227.5112736603
 20
67.7746188247
 10
227.5244632185
 20
67.7860594013
 10
227.5372922059
 20
67.7979171022
 10
227.552504174
 20
67.8129065775
 10
227.5671673264
 20
67.8283981566
 10
227.5812680702
 20
67.8443849709
 10
227.5947928125
 20
67.8608601516
 10
227.6067628311
 20
67.8765051126
 10
227.6182175043
 20
67.8925408772
 10
227.6291446258
 20
67.9089473557
 10
227.6395319897
 20
67.925704458
 10
227.6493673899
 20
67.9427920942
 10
227.6597812639
 20
67.9624306496
 10
227.6694687616
 20
67.9824366436
 10
227.6784207596
 20
68.0027828341
 10
227.6866281346
 20
68.0234419793
 10
227.6940817633
 20
68.044386837
 10
227.7003889767
 20
68.0642909929
 10
227.7060282361
 20
68.0843969474
 10
227.7110043418
 20
68.1046785606
 10
227.7153220938
 20
68.1251096927
 10
227.7189862926
 20
68.145664204
 10
227.7220017384
 20
68.1663159548
 10
227.7245851909
 20
68.1891901522
 10
227.726408786
 20
68.2121303025
 10
227.7274968909
 20
68.2351157715
 10
227.7278706805
 20
68.2598355855
 10
227.7274330068
 20
68.2845564739
 10
227.7261931209
 20
68.3092510225
 10
227.7246099731
 20
68.3291341949
 10
227.7224880669
 20
68.3489646433
 10
227.719804702
 20
68.3687246266
 10
227.7167369534
 20
68.3873026449
 10
227.7131405872
 20
68.4057875355
 10
227.7090078405
 20
68.4241648183
 10
227.7037866807
 20
68.4444096335
 10
227.6978928849
 20
68.4644751808
 10
227.6913236689
 20
68.4843324849
 10
227.6840762487
 20
68.5039525708
 10
227.6761478399
 20
68.5233064634
 10
227.6683277561
 20
68.5406904948
 10
227.6599478506
 20
68.5578105418
 10
227.6510163249
 20
68.5746478221
 10
227.6415413806
 20
68.5911835537
 10
227.6315312193
 20
68.6073989543
 10
227.6194113644
 20
68.6255667798
 10
227.6066170127
 20
68.6432659186
 10
227.5931659792
 20
68.6604731586
 10
227.5790760786
 20
68.6771652875
 10
227.5646025189
 20
68.6930696141
 10
227.5495486854
 20
68.7084357982
 10
227.5339359274
 20
68.7232471794
 10
227.5177855944
 20
68.7374870973
 10
227.5011190355
 20
68.7511388915
 10
227.4839576002
 20
68.7641859017
 10
227.4663226378
 20
68.7766114675
 10
227.4531807678
 20
68.7852607091
 10
227.439797724
 20
68.7935243598
 10
227.4261725756
 20
68.8013558544
 10
227.4123043917
 20
68.8087086283
 10
227.3981922414
 20
68.8155361164
 10
227.3838351939
 20
68.8217917538
 10
227.3692323183
 20
68.8274289758
  0
LINE
  5
265
100
AcDbEntity
  8
0
100
AcDbLine
 62
7
  6
CONTINUOUS
 10
142.1112212171
 20
151.4393829742
 11
142.1112212171
 21
63.4406005784
  0
LINE
  5
266
100
AcDbEntity
  8
ASSI
100
AcDbLine
 62
7
  6
CONTINUOUS
 10
142.1112212171
 20
151.4393829742
 11
142.1112212171
 21
63.4406005784
  0
LINE
  5
267
100
AcDbEntity
  8
0
100
AcDbLine
 62
7
  6
CONTINUOUS
 10
142.3050527606
 20
151.2455514307
 11
142.3050527606
 21
63.6344321219
  0
LINE
  5
268
100
AcDbEntity
  8
ASSI
100
AcDbLine
 62
7
  6
CONTINUOUS
 10
142.3050527606
 20
151.2455514307
 11
142.3050527606
 21
63.6344321219
  0
LINE
  5
269
100
AcDbEntity
  8
0
100
AcDbLine
 62
7
  6
CONTINUOUS
 10
143.3399522573
 20
150.8167291865
 11
143.3399522573
 21
64.0632543661
  0
LINE
  5
26A
100
AcDbEntity
  8
ASSI
100
AcDbLine
 62
7
  6
CONTINUOUS
 10
143.3399522573
 20
150.8167291865
 11
143.3399522573
 21
64.0632543661
  0
LWPOLYLINE
  5
26B
100
AcDbEntity
  8
CURVE
100
AcDbPolyline
 62
250
  6
CONTINUOUS
 90
23
 70
0
 10
226.6781414239
 20
68.501530477
 10
226.6948428562
 20
68.5043124054
 10
226.7115738848
 20
68.5069542633
 10
226.7283328055
 20
68.5094418128
 10
226.7451179144
 20
68.5117608156
 10
226.7619275072
 20
68.5138970337
 10
226.77875988
 20
68.5158362289
 10
226.7956133287
 20
68.5175641632
 10
226.8124861491
 20
68.5190665985
 10
226.8293766373
 20
68.5203292966
 10
226.846283089
 20
68.5213380195
 10
226.8632038004
 20
68.5220785291
 10
226.8791028282
 20
68.522519893
 10
226.8950091604
 20
68.5227178812
 10
226.9109190317
 20
68.5226781428
 10
226.926828677
 20
68.5224063269
 10
226.9427343309
 20
68.5219080828
 10
226.9586322284
 20
68.5211890596
 10
226.974518604
 20
68.5202549063
 10
226.9903896927
 20
68.5191112723
 10
227.0062417291
 20
68.5177638066
 10
227.0220709481
 20
68.5162181585
 10
227.0378735845
 20
68.514479977
  0
LINE
  5
26C
100
AcDbEntity
  8
0
100
AcDbLine
 62
7
  6
CONTINUOUS
 10
143.1118300192
 20
62.4399917763
 11
231.110612415
 21
62.4399917763
  0
LINE
  5
26D
100
AcDbEntity
  8
ASSI
100
AcDbLine
 62
7
  6
CONTINUOUS
 10
143.1118300192
 20
62.4399917763
 11
231.110612415
 21
62.4399917763
  0
LINE
  5
26E
100
AcDbEntity
  8
0
100
AcDbLine
 62
7
  6
CONTINUOUS
 10
143.3056615627
 20
62.6338233198
 11
230.9167808715
 21
62.6338233198
  0
LINE
  5
26F
100
AcDbEntity
  8
ASSI
100
AcDbLine
 62
7
  6
CONTINUOUS
 10
143.3056615627
 20
62.6338233198
 11
230.9167808715
 21
62.6338233198
  0
LINE
  5
270
100
AcDbEntity
  8
0
100
AcDbLine
 62
7
  6
CONTINUOUS
 10
143.7344838069
 20
63.6687228165
 11
230.4879586273
 21
63.6687228165
  0
LINE
  5
271
100
AcDbEntity
  8
ASSI
100
AcDbLine
 62
7
  6
CONTINUOUS
 10
143.7344838069
 20
63.6687228165
 11
230.4879586273
 21
63.6687228165
  0
LWPOLYLINE
  5
272
100
AcDbEntity
  8
0
100
AcDbPolyline
 62
7
  6
CONTINUOUS
 90
10
 70
0
 43
0.3500000006
 10
185.1826541748
 20
162.4181630859
 10
186.0397921143
 20
163.2753010254
 10
186.2540765991
 20
164.1324389648
 10
186.2540765991
 20
164.9895950317
 10
185.8255076294
 20
165.4181640015
 10
185.1826541748
 20
165.4181640015
 10
184.7540852051
 20
164.9895950317
 10
184.7540852051
 20
164.1324389648
 10
185.1826541748
 20
163.7038699951
 10
186.1112142334
 20
163.7038699951
  0
LINE
  5
273
100
AcDbEntity
  8
CURVE
100
AcDbLine
 62
250
  6
CONTINUOUS
 10
226.1011873896
 20
66.6764762056
 11
225.6172230307
 21
66.6764762056
  0
LINE
  5
274
100
AcDbEntity
  8
CURVE
100
AcDbLine
 62
250
  6
CONTINUOUS
 10
224.7462242131
 20
66.6764762056
 11
224.2920185195
 21
66.6764762056
  0
LINE
  5
275
100
AcDbEntity
  8
CURVE
100
AcDbLine
 62
250
  6
CONTINUOUS
 10
224.2199140466
 20
66.6764762056
 11
223.7707065432
 21
66.6764762056
  0
LINE
  5
276
100
AcDbEntity
  8
CURVE
100
AcDbLine
 62
250
  6
CONTINUOUS
 10
223.1303902866
 20
66.6764762056
 11
223.0659900038
 21
66.6764762056
  0
LINE
  5
277
100
AcDbEntity
  8
CURVE
100
AcDbLine
 62
250
  6
CONTINUOUS
 10
222.4282142233
 20
66.6764762056
 11
221.9889213861
 21
66.6764762056
  0
LINE
  5
278
100
AcDbEntity
  8
CURVE
100
AcDbLine
 62
250
  6
CONTINUOUS
 10
220.4050241247
 20
66.6764762056
 11
220.0003645241
 21
66.6764762056
  0
LINE
  5
279
100
AcDbEntity
  8
CURVE
100
AcDbLine
 62
250
  6
CONTINUOUS
 10
221.2825380849
 20
66.6764762056
 11
221.7417262545
 21
66.6764762056
  0
LINE
  5
27A
100
AcDbEntity
  8
CURVE
100
AcDbLine
 62
250
  6
CONTINUOUS
 10
226.2360273489
 20
66.6764757889
 11
226.6933673965
 21
66.6764757889
  0
LINE
  5
27B
100
AcDbEntity
  8
CURVE
100
AcDbLine
 62
250
  6
CONTINUOUS
 10
227.3965499896
 20
66.6764757889
 11
227.838235164
 21
66.6764757889
  0
LINE
  5
27C
100
AcDbEntity
  8
CURVE
100
AcDbLine
 62
250
  6
CONTINUOUS
 10
225.4982690361
 20
67.1156370428
 11
224.8729316359
 21
67.1156370428
  0
LINE
  5
27D
100
AcDbEntity
  8
CURVE
100
AcDbLine
 62
250
  6
CONTINUOUS
 10
224.9668611555
 20
67.4554584559
 11
225.4065007545
 21
67.4554584559
  0
LINE
  5
27E
100
AcDbEntity
  8
CURVE
100
AcDbLine
 62
250
  6
CONTINUOUS
 10
226.6933673965
 20
67.5373618468
 11
226.9395728579
 21
67.5373618468
  0
LINE
  5
27F
100
AcDbEntity
  8
CURVE
100
AcDbLine
 62
250
  6
CONTINUOUS
 10
226.9405626286
 20
67.8976383812
 11
226.6781414239
 21
67.8976383812
  0
LINE
  5
280
100
AcDbEntity
  8
CURVE
100
AcDbLine
 62
250
  6
CONTINUOUS
 10
219.3029802701
 20
68.876290677
 11
219.8017998665
 21
68.876290677
  0
LINE
  5
281
100
AcDbEntity
  8
CURVE
100
AcDbLine
 62
250
  6
CONTINUOUS
 10
220.6532584944
 20
68.876290677
 11
221.1121334259
 21
68.876290677
  0
LINE
  5
282
100
AcDbEntity
  8
CURVE
100
AcDbLine
 62
250
  6
CONTINUOUS
 10
222.1875520437
 20
68.876290677
 11
222.6463599276
 21
68.876290677
  0
LINE
  5
283
100
AcDbEntity
  8
CURVE
100
AcDbLine
 62
250
  6
CONTINUOUS
 10
223.5598857909
 20
68.876290677
 11
224.0142067226
 21
68.876290677
  0
LINE
  5
284
100
AcDbEntity
  8
CURVE
100
AcDbLine
 62
250
  6
CONTINUOUS
 10
224.98202125
 20
68.876290677
 11
225.4262295156
 21
68.876290677
  0
LINE
  5
285
100
AcDbEntity
  8
CURVE
100
AcDbLine
 62
250
  6
CONTINUOUS
 10
221.7417262545
 20
68.876422677
 11
221.2825380849
 21
68.876422677
  0
LWPOLYLINE
  5
286
100
AcDbEntity
  8
CURVE
100
AcDbPolyline
 62
250
  6
CONTINUOUS
 90
46
 70
0
 10
226.9395728579
 20
67.5373618468
 10
226.947084376
 20
67.537256036
 10
226.9546077967
 20
67.5369386175
 10
226.9621347971
 20
67.5364096119
 10
226.969657054
 20
67.5356690399
 10
226.9771662446
 20
67.5347169219
 10
226.9846540457
 20
67.5335532787
 10
226.9921121345
 20
67.5321781308
 10
226.9995321877
 20
67.530591499
 10
227.0069058825
 20
67.5287934037
 10
227.0142248959
 20
67.5267838657
 10
227.0214809047
 20
67.5245629055
 10
227.028665586
 20
67.5221305438
 10
227.0357706169
 20
67.5194868012
 10
227.0427876741
 20
67.5166316983
 10
227.0497084349
 20
67.5135652557
 10
227.0565245761
 20
67.5102874941
 10
227.0630585003
 20
67.506891192
 10
227.0694818701
 20
67.5032994887
 10
227.0757913689
 20
67.4995176085
 10
227.0819836802
 20
67.4955507762
 10
227.0880554873
 20
67.4914042162
 10
227.0940034738
 20
67.487083153
 10
227.099824323
 20
67.4825928113
 10
227.1055147186
 20
67.4779384156
 10
227.1110713438
 20
67.4731251904
 10
227.1164908821
 20
67.4681583603
 10
227.1217700171
 20
67.4630431497
 10
227.1269054321
 20
67.4577847834
 10
227.1318938105
 20
67.4523884857
 10
227.1371083159
 20
67.4464176844
 10
227.142149904
 20
67.4403000648
 10
227.1470206868
 20
67.4340432952
 10
227.1517227763
 20
67.427655044
 10
227.1562582843
 20
67.4211429796
 10
227.1606293227
 20
67.4145147704
 10
227.1648380036
 20
67.4077780846
 10
227.1688864388
 20
67.4009405907
 10
227.1727767403
 20
67.3940099571
 10
227.1765110199
 20
67.3869938521
 10
227.1800913896
 20
67.3798999441
 10
227.1835199614
 20
67.3727359014
 10
227.1867988471
 20
67.3655093924
 10
227.1899301587
 20
67.3582280856
 10
227.1929160081
 20
67.3508996491
 10
227.1957585071
 20
67.3435317515
  0
LWPOLYLINE
  5
287
100
AcDbEntity
  8
CURVE
100
AcDbPolyline
 62
250
  6
CONTINUOUS
 90
49
 70
0
 10
227.0378735845
 20
68.514479977
 10
227.0462893633
 20
68.513389343
 10
227.0547057159
 20
68.5120712233
 10
227.0631133728
 20
68.5105262576
 10
227.0715030645
 20
68.5087550851
 10
227.0798655215
 20
68.5067583456
 10
227.0881914745
 20
68.5045366784
 10
227.0964716538
 20
68.5020907232
 10
227.1046967901
 20
68.4994211194
 10
227.1128576139
 20
68.4965285066
 10
227.1209448557
 20
68.4934135242
 10
227.128949246
 20
68.4900768119
 10
227.1368615153
 20
68.486519009
 10
227.1446723943
 20
68.4827407551
 10
227.1523726133
 20
68.4787426898
 10
227.1599529031
 20
68.4745254525
 10
227.1674039939
 20
68.4700896828
 10
227.1747166165
 20
68.4654360201
 10
227.1818815013
 20
68.4605651041
 10
227.1888893789
 20
68.4554775742
 10
227.1957309798
 20
68.4501740699
 10
227.2023970345
 20
68.4446552307
 10
227.2088782735
 20
68.4389216962
 10
227.2151654274
 20
68.4329741059
 10
227.2212492267
 20
68.4268130993
 10
227.2270904213
 20
68.4204757893
 10
227.2327186146
 20
68.4139379316
 10
227.2381311434
 20
68.4072094681
 10
227.2433253447
 20
68.4003003405
 10
227.2482985555
 20
68.3932204907
 10
227.2530481127
 20
68.3859798603
 10
227.2575713532
 20
68.3785883913
 10
227.261865614
 20
68.3710560253
 10
227.265928232
 20
68.3633927042
 10
227.2697565442
 20
68.3556083698
 10
227.2733478875
 20
68.3477129638
 10
227.2766995989
 20
68.339716428
 10
227.2798090152
 20
68.3316287042
 10
227.2826734736
 20
68.3234597341
 10
227.2852903108
 20
68.3152194597
 10
227.2876568639
 20
68.3069178226
 10
227.2897704698
 20
68.2985647646
 10
227.2916284654
 20
68.2901702276
 10
227.2932281877
 20
68.2817441532
 10
227.2945669736
 20
68.2732964833
 10
227.29564216
 20
68.2648371598
 10
227.296451084
 20
68.2563761242
 10
227.2969910825
 20
68.2479233185
 10
227.2972594923
 20
68.2394886844
  0
LINE
  5
288
100
AcDbEntity
  8
0
100
AcDbLine
 62
7
  6
CONTINUOUS
 10
156.2112212171
 20
100.7399917763
 11
156.2112212171
 21
114.1399917763
  0
LINE
  5
289
100
AcDbEntity
  8
ASSI
100
AcDbLine
 62
7
  6
CONTINUOUS
 10
156.2112212171
 20
100.7399917763
 11
156.2112212171
 21
114.1399917763
  0
LINE
  5
28A
100
AcDbEntity
  8
0
100
AcDbLine
 62
7
  6
CONTINUOUS
 10
156.7112212171
 20
100.7399917763
 11
156.7112212171
 21
114.1399917763
  0
LINE
  5
28B
100
AcDbEntity
  8
ASSI
100
AcDbLine
 62
7
  6
CONTINUOUS
 10
156.7112212171
 20
100.7399917763
 11
156.7112212171
 21
114.1399917763
  0
LINE
  5
28C
100
AcDbEntity
  8
0
100
AcDbLine
 62
250
  6
CONTINUOUS
 10
157.9112212171
 20
115.8399917763
 11
157.9112212171
 21
115.3399917763
  0
LINE
  5
28D
100
AcDbEntity
  8
ASSI
100
AcDbLine
 62
250
  6
CONTINUOUS
 10
157.9112212171
 20
115.8399917763
 11
157.9112212171
 21
115.3399917763
  0
LINE
  5
28E
100
AcDbEntity
  8
0
100
AcDbLine
 62
250
  6
CONTINUOUS
 10
157.9112212171
 20
99.0399917763
 11
157.9112212171
 21
99.5399917763
  0
LINE
  5
28F
100
AcDbEntity
  8
ASSI
100
AcDbLine
 62
250
  6
CONTINUOUS
 10
157.9112212171
 20
99.0399917763
 11
157.9112212171
 21
99.5399917763
  0
LINE
  5
290
100
AcDbEntity
  8
0
100
AcDbLine
 62
7
  6
CONTINUOUS
 10
143.7344838069
 20
63.6687228165
 11
143.2912357472
 21
62.649292454
  0
LINE
  5
291
100
AcDbEntity
  8
ASSI
100
AcDbLine
 62
7
  6
CONTINUOUS
 10
143.7344838069
 20
63.6687228165
 11
143.2912357472
 21
62.649292454
  0
LINE
  5
292
100
AcDbEntity
  8
0
100
AcDbLine
 62
7
  6
CONTINUOUS
 10
230.8824901769
 20
150.8167291865
 11
231.9019205394
 21
151.2599772462
  0
LINE
  5
293
100
AcDbEntity
  8
ASSI
100
AcDbLine
 62
7
  6
CONTINUOUS
 10
230.8824901769
 20
150.8167291865
 11
231.9019205394
 21
151.2599772462
  0
LWPOLYLINE
  5
294
100
AcDbEntity
  8
CURVE
100
AcDbPolyline
 62
250
  6
CONTINUOUS
 90
30
 70
0
 10
227.3692323183
 20
68.8274289758
 10
227.3426499314
 20
68.836583667
 10
227.3158094191
 20
68.8449625006
 10
227.2887342971
 20
68.8526000642
 10
227.261448081
 20
68.8595309454
 10
227.2339742864
 20
68.8657897317
 10
227.2063364291
 20
68.8714110107
 10
227.1785580246
 20
68.8764293701
 10
227.1506625886
 20
68.8808793975
 10
227.1226736367
 20
68.8847956804
 10
227.0946146845
 20
68.8882128063
 10
227.0665092477
 20
68.891165363
 10
227.038380842
 20
68.893687938
 10
226.9970369383
 20
68.8966774603
 10
226.9556959546
 20
68.8988621952
 10
226.9143596301
 20
68.9002913772
 10
226.8730297041
 20
68.9010142403
 10
226.8317079158
 20
68.9010800189
 10
226.7903960045
 20
68.9005379472
 10
226.7490957093
 20
68.8994372595
 10
226.7078087696
 20
68.89782719
 10
226.6551973869
 20
68.8951027708
 10
226.6026175184
 20
68.8916655524
 10
226.5500761464
 20
68.88755057
 10
226.4975802533
 20
68.8827928591
 10
226.4451368212
 20
68.8774274548
 10
226.3927528324
 20
68.8714893924
 10
226.3404352692
 20
68.8650137073
 10
226.288191114
 20
68.8580354348
 10
226.2360273489
 20
68.8505896102
  0
LINE
  5
295
100
AcDbEntity
  8
0
100
AcDbLine
 62
7
  6
CONTINUOUS
 10
230.8824901769
 20
64.0632543661
 11
231.9019205394
 21
63.6200063064
  0
LINE
  5
296
100
AcDbEntity
  8
ASSI
100
AcDbLine
 62
7
  6
CONTINUOUS
 10
230.8824901769
 20
64.0632543661
 11
231.9019205394
 21
63.6200063064
  0
LINE
  5
297
100
AcDbEntity
  8
0
100
AcDbLine
 62
7
  6
CONTINUOUS
 10
143.7344838069
 20
151.2112607361
 11
143.2912357472
 21
152.2306910986
  0
LINE
  5
298
100
AcDbEntity
  8
ASSI
100
AcDbLine
 62
7
  6
CONTINUOUS
 10
143.7344838069
 20
151.2112607361
 11
143.2912357472
 21
152.2306910986
  0
LINE
  5
299
100
AcDbEntity
  8
0
100
AcDbLine
 62
250
  6
CONTINUOUS
 10
171.3112212171
 20
115.8399917763
 11
171.3112212171
 21
115.3399917763
  0
LINE
  5
29A
100
AcDbEntity
  8
ASSI
100
AcDbLine
 62
250
  6
CONTINUOUS
 10
171.3112212171
 20
115.8399917763
 11
171.3112212171
 21
115.3399917763
  0
LINE
  5
29B
100
AcDbEntity
  8
0
100
AcDbLine
 62
250
  6
CONTINUOUS
 10
171.3112212171
 20
99.0399917763
 11
171.3112212171
 21
99.5399917763
  0
LINE
  5
29C
100
AcDbEntity
  8
ASSI
100
AcDbLine
 62
250
  6
CONTINUOUS
 10
171.3112212171
 20
99.0399917763
 11
171.3112212171
 21
99.5399917763
  0
LINE
  5
29D
100
AcDbEntity
  8
0
100
AcDbLine
 62
7
  6
CONTINUOUS
 10
172.5112212171
 20
114.1399917763
 11
172.5112212171
 21
100.7399917763
  0
LINE
  5
29E
100
AcDbEntity
  8
ASSI
100
AcDbLine
 62
7
  6
CONTINUOUS
 10
172.5112212171
 20
114.1399917763
 11
172.5112212171
 21
100.7399917763
  0
LINE
  5
29F
100
AcDbEntity
  8
0
100
AcDbLine
 62
7
  6
CONTINUOUS
 10
173.0112212171
 20
114.1399917763
 11
173.0112212171
 21
100.7399917763
  0
LINE
  5
2A0
100
AcDbEntity
  8
ASSI
100
AcDbLine
 62
7
  6
CONTINUOUS
 10
173.0112212171
 20
114.1399917763
 11
173.0112212171
 21
100.7399917763
  0
LINE
  5
2A1
100
AcDbEntity
  8
0
100
AcDbLine
 62
7
  6
CONTINUOUS
 10
178.7112212171
 20
100.7399917763
 11
178.7112212171
 21
114.1399917763
  0
LINE
  5
2A2
100
AcDbEntity
  8
ASSI
100
AcDbLine
 62
7
  6
CONTINUOUS
 10
178.7112212171
 20
100.7399917763
 11
178.7112212171
 21
114.1399917763
  0
LINE
  5
2A3
100
AcDbEntity
  8
0
100
AcDbLine
 62
7
  6
CONTINUOUS
 10
216.3112212171
 20
99.0399917763
 11
202.9112212171
 21
99.0399917763
  0
LINE
  5
2A4
100
AcDbEntity
  8
ASSI
100
AcDbLine
 62
7
  6
CONTINUOUS
 10
216.3112212171
 20
99.0399917763
 11
202.9112212171
 21
99.0399917763
  0
LINE
  5
2A5
100
AcDbEntity
  8
0
100
AcDbLine
 62
7
  6
CONTINUOUS
 10
193.8112212171
 20
99.0399917763
 11
180.4112212171
 21
99.0399917763
  0
LINE
  5
2A6
100
AcDbEntity
  8
ASSI
100
AcDbLine
 62
7
  6
CONTINUOUS
 10
193.8112212171
 20
99.0399917763
 11
180.4112212171
 21
99.0399917763
  0
LINE
  5
2A7
100
AcDbEntity
  8
0
100
AcDbLine
 62
7
  6
CONTINUOUS
 10
171.3112212171
 20
99.0399917763
 11
157.9112212171
 21
99.0399917763
  0
LINE
  5
2A8
100
AcDbEntity
  8
ASSI
100
AcDbLine
 62
7
  6
CONTINUOUS
 10
171.3112212171
 20
99.0399917763
 11
157.9112212171
 21
99.0399917763
  0
LINE
  5
2A9
100
AcDbEntity
  8
0
100
AcDbLine
 62
7
  6
CONTINUOUS
 10
179.2112212171
 20
100.7399917763
 11
179.2112212171
 21
114.1399917763
  0
LINE
  5
2AA
100
AcDbEntity
  8
ASSI
100
AcDbLine
 62
7
  6
CONTINUOUS
 10
179.2112212171
 20
100.7399917763
 11
179.2112212171
 21
114.1399917763
  0
LINE
  5
2AB
100
AcDbEntity
  8
0
100
AcDbLine
 62
250
  6
CONTINUOUS
 10
180.4112212171
 20
115.8399917763
 11
180.4112212171
 21
115.3399917763
  0
LINE
  5
2AC
100
AcDbEntity
  8
ASSI
100
AcDbLine
 62
250
  6
CONTINUOUS
 10
180.4112212171
 20
115.8399917763
 11
180.4112212171
 21
115.3399917763
  0
LINE
  5
2AD
100
AcDbEntity
  8
0
100
AcDbLine
 62
250
  6
CONTINUOUS
 10
180.4112212171
 20
99.0399917763
 11
180.4112212171
 21
99.5399917763
  0
LINE
  5
2AE
100
AcDbEntity
  8
ASSI
100
AcDbLine
 62
250
  6
CONTINUOUS
 10
180.4112212171
 20
99.0399917763
 11
180.4112212171
 21
99.5399917763
  0
LINE
  5
2AF
100
AcDbEntity
  8
0
100
AcDbLine
 62
7
  6
CONTINUOUS
 10
216.3112212171
 20
99.5399917763
 11
202.9112212171
 21
99.5399917763
  0
LINE
  5
2B0
100
AcDbEntity
  8
ASSI
100
AcDbLine
 62
7
  6
CONTINUOUS
 10
216.3112212171
 20
99.5399917763
 11
202.9112212171
 21
99.5399917763
  0
LINE
  5
2B1
100
AcDbEntity
  8
0
100
AcDbLine
 62
7
  6
CONTINUOUS
 10
193.8112212171
 20
99.5399917763
 11
180.4112212171
 21
99.5399917763
  0
LINE
  5
2B2
100
AcDbEntity
  8
ASSI
100
AcDbLine
 62
7
  6
CONTINUOUS
 10
193.8112212171
 20
99.5399917763
 11
180.4112212171
 21
99.5399917763
  0
LINE
  5
2B3
100
AcDbEntity
  8
0
100
AcDbLine
 62
7
  6
CONTINUOUS
 10
171.3112212171
 20
99.5399917763
 11
157.9112212171
 21
99.5399917763
  0
LINE
  5
2B4
100
AcDbEntity
  8
ASSI
100
AcDbLine
 62
7
  6
CONTINUOUS
 10
171.3112212171
 20
99.5399917763
 11
157.9112212171
 21
99.5399917763
  0
LINE
  5
2B5
100
AcDbEntity
  8
0
100
AcDbLine
 62
250
  6
CONTINUOUS
 10
218.0112212171
 20
100.7399917763
 11
217.5112212171
 21
100.7399917763
  0
LINE
  5
2B6
100
AcDbEntity
  8
ASSI
100
AcDbLine
 62
250
  6
CONTINUOUS
 10
218.0112212171
 20
100.7399917763
 11
217.5112212171
 21
100.7399917763
  0
LINE
  5
2B7
100
AcDbEntity
  8
0
100
AcDbLine
 62
250
  6
CONTINUOUS
 10
195.5112212171
 20
100.7399917763
 11
195.0112212171
 21
100.7399917763
  0
LINE
  5
2B8
100
AcDbEntity
  8
ASSI
100
AcDbLine
 62
250
  6
CONTINUOUS
 10
195.5112212171
 20
100.7399917763
 11
195.0112212171
 21
100.7399917763
  0
LINE
  5
2B9
100
AcDbEntity
  8
0
100
AcDbLine
 62
250
  6
CONTINUOUS
 10
173.0112212171
 20
100.7399917763
 11
172.5112212171
 21
100.7399917763
  0
LINE
  5
2BA
100
AcDbEntity
  8
ASSI
100
AcDbLine
 62
250
  6
CONTINUOUS
 10
173.0112212171
 20
100.7399917763
 11
172.5112212171
 21
100.7399917763
  0
LINE
  5
2BB
100
AcDbEntity
  8
0
100
AcDbLine
 62
250
  6
CONTINUOUS
 10
156.2112212171
 20
100.7399917763
 11
156.7112212171
 21
100.7399917763
  0
LINE
  5
2BC
100
AcDbEntity
  8
ASSI
100
AcDbLine
 62
250
  6
CONTINUOUS
 10
156.2112212171
 20
100.7399917763
 11
156.7112212171
 21
100.7399917763
  0
LINE
  5
2BD
100
AcDbEntity
  8
0
100
AcDbLine
 62
250
  6
CONTINUOUS
 10
178.7112212171
 20
100.7399917763
 11
179.2112212171
 21
100.7399917763
  0
LINE
  5
2BE
100
AcDbEntity
  8
ASSI
100
AcDbLine
 62
250
  6
CONTINUOUS
 10
178.7112212171
 20
100.7399917763
 11
179.2112212171
 21
100.7399917763
  0
LINE
  5
2BF
100
AcDbEntity
  8
0
100
AcDbLine
 62
250
  6
CONTINUOUS
 10
201.2112212171
 20
100.7399917763
 11
201.7112212171
 21
100.7399917763
  0
LINE
  5
2C0
100
AcDbEntity
  8
ASSI
100
AcDbLine
 62
250
  6
CONTINUOUS
 10
201.2112212171
 20
100.7399917763
 11
201.7112212171
 21
100.7399917763
  0
LWPOLYLINE
  5
2C1
100
AcDbEntity
  8
0
100
AcDbPolyline
 62
7
  6
CONTINUOUS
 90
13
 70
0
 43
0.3500000006
 10
187.1112145386
 20
163.2753010254
 10
187.1112145386
 20
164.561026062
 10
187.3254990234
 20
164.9895950317
 10
187.7540861206
 20
165.4181640015
 10
187.9683706055
 20
165.4181640015
 10
188.3969395752
 20
164.9895950317
 10
188.6112240601
 20
164.561026062
 10
188.6112240601
 20
163.2753010254
 10
188.3969395752
 20
162.8467320557
 10
187.9683706055
 20
162.4181630859
 10
187.7540861206
 20
162.4181630859
 10
187.3254990234
 20
162.8467320557
 10
187.1112145386
 20
163.2753010254
  0
LINE
  5
2C2
100
AcDbEntity
  8
0
100
AcDbLine
 62
7
  6
CONTINUOUS
 10
142.3050527606
 20
63.6344321219
 11
142.1112212171
 21
63.4406005784
  0
LINE
  5
2C3
100
AcDbEntity
  8
ASSI
100
AcDbLine
 62
7
  6
CONTINUOUS
 10
142.3050527606
 20
63.6344321219
 11
142.1112212171
 21
63.4406005784
  0
LINE
  5
2C4
100
AcDbEntity
  8
0
100
AcDbLine
 62
7
  6
CONTINUOUS
 10
230.9167808715
 20
152.2461602328
 11
231.110612415
 21
152.4399917763
  0
LINE
  5
2C5
100
AcDbEntity
  8
ASSI
100
AcDbLine
 62
7
  6
CONTINUOUS
 10
230.9167808715
 20
152.2461602328
 11
231.110612415
 21
152.4399917763
  0
LWPOLYLINE
  5
2C6
100
AcDbEntity
  8
0
100
AcDbPolyline
 62
7
  6
CONTINUOUS
 90
13
 70
0
 43
0.3500000006
 10
240.7338720703
 20
107.4399898682
 10
239.4481470337
 20
107.4399898682
 10
239.019578064
 20
107.654274353
 10
238.5910090942
 20
108.0828523865
 10
238.5910090942
 20
108.2971368713
 10
239.019578064
 20
108.7257058411
 10
239.4481470337
 20
108.9399903259
 10
240.7338720703
 20
108.9399903259
 10
241.16244104
 20
108.7257058411
 10
241.5910100098
 20
108.2971368713
 10
241.5910100098
 20
108.0828523865
 10
241.16244104
 20
107.654274353
 10
240.7338720703
 20
107.4399898682
  0
LINE
  5
2C7
100
AcDbEntity
  8
0
100
AcDbLine
 62
7
  6
CONTINUOUS
 10
142.3050527606
 20
151.2455514307
 11
142.1112212171
 21
151.4393829742
  0
LINE
  5
2C8
100
AcDbEntity
  8
ASSI
100
AcDbLine
 62
7
  6
CONTINUOUS
 10
142.3050527606
 20
151.2455514307
 11
142.1112212171
 21
151.4393829742
  0
LINE
  5
2C9
100
AcDbEntity
  8
0
100
AcDbLine
 62
7
  6
CONTINUOUS
 10
230.9167808715
 20
62.6338233198
 11
231.110612415
 21
62.4399917763
  0
LINE
  5
2CA
100
AcDbEntity
  8
ASSI
100
AcDbLine
 62
7
  6
CONTINUOUS
 10
230.9167808715
 20
62.6338233198
 11
231.110612415
 21
62.4399917763
  0
LINE
  5
2CB
100
AcDbEntity
  8
0
100
AcDbLine
 62
7
  6
CONTINUOUS
 10
143.3056615627
 20
62.6338233198
 11
143.1118300192
 21
62.4399917763
  0
LINE
  5
2CC
100
AcDbEntity
  8
ASSI
100
AcDbLine
 62
7
  6
CONTINUOUS
 10
143.3056615627
 20
62.6338233198
 11
143.1118300192
 21
62.4399917763
  0
LINE
  5
2CD
100
AcDbEntity
  8
0
100
AcDbLine
 62
7
  6
CONTINUOUS
 10
231.9173896736
 20
151.2455514307
 11
232.1112212171
 21
151.4393829742
  0
LINE
  5
2CE
100
AcDbEntity
  8
ASSI
100
AcDbLine
 62
7
  6
CONTINUOUS
 10
231.9173896736
 20
151.2455514307
 11
232.1112212171
 21
151.4393829742
  0
LINE
  5
2CF
100
AcDbEntity
  8
0
100
AcDbLine
 62
7
  6
CONTINUOUS
 10
143.3056615627
 20
152.2461602328
 11
143.1118300192
 21
152.4399917763
  0
LINE
  5
2D0
100
AcDbEntity
  8
ASSI
100
AcDbLine
 62
7
  6
CONTINUOUS
 10
143.3056615627
 20
152.2461602328
 11
143.1118300192
 21
152.4399917763
  0
LINE
  5
2D1
100
AcDbEntity
  8
0
100
AcDbLine
 62
7
  6
CONTINUOUS
 10
231.9173896736
 20
63.6344321219
 11
232.1112212171
 21
63.4406005784
  0
LINE
  5
2D2
100
AcDbEntity
  8
ASSI
100
AcDbLine
 62
7
  6
CONTINUOUS
 10
231.9173896736
 20
63.6344321219
 11
232.1112212171
 21
63.4406005784
  0
LINE
  5
2D3
100
AcDbEntity
  8
0
100
AcDbLine
 62
250
  6
CONTINUOUS
 10
193.8112212171
 20
115.8399917763
 11
193.8112212171
 21
115.3399917763
  0
LINE
  5
2D4
100
AcDbEntity
  8
ASSI
100
AcDbLine
 62
250
  6
CONTINUOUS
 10
193.8112212171
 20
115.8399917763
 11
193.8112212171
 21
115.3399917763
  0
LINE
  5
2D5
100
AcDbEntity
  8
0
100
AcDbLine
 62
250
  6
CONTINUOUS
 10
193.8112212171
 20
99.0399917763
 11
193.8112212171
 21
99.5399917763
  0
LINE
  5
2D6
100
AcDbEntity
  8
ASSI
100
AcDbLine
 62
250
  6
CONTINUOUS
 10
193.8112212171
 20
99.0399917763
 11
193.8112212171
 21
99.5399917763
  0
LINE
  5
2D7
100
AcDbEntity
  8
0
100
AcDbLine
 62
7
  6
CONTINUOUS
 10
195.0112212171
 20
114.1399917763
 11
195.0112212171
 21
100.7399917763
  0
LINE
  5
2D8
100
AcDbEntity
  8
ASSI
100
AcDbLine
 62
7
  6
CONTINUOUS
 10
195.0112212171
 20
114.1399917763
 11
195.0112212171
 21
100.7399917763
  0
LINE
  5
2D9
100
AcDbEntity
  8
0
100
AcDbLine
 62
7
  6
CONTINUOUS
 10
195.5112212171
 20
114.1399917763
 11
195.5112212171
 21
100.7399917763
  0
LINE
  5
2DA
100
AcDbEntity
  8
ASSI
100
AcDbLine
 62
7
  6
CONTINUOUS
 10
195.5112212171
 20
114.1399917763
 11
195.5112212171
 21
100.7399917763
  0
LINE
  5
2DB
100
AcDbEntity
  8
0
100
AcDbLine
 62
250
  6
CONTINUOUS
 10
218.0112212171
 20
114.1399917763
 11
217.5112212171
 21
114.1399917763
  0
LINE
  5
2DC
100
AcDbEntity
  8
ASSI
100
AcDbLine
 62
250
  6
CONTINUOUS
 10
218.0112212171
 20
114.1399917763
 11
217.5112212171
 21
114.1399917763
  0
LINE
  5
2DD
100
AcDbEntity
  8
0
100
AcDbLine
 62
250
  6
CONTINUOUS
 10
195.5112212171
 20
114.1399917763
 11
195.0112212171
 21
114.1399917763
  0
LINE
  5
2DE
100
AcDbEntity
  8
ASSI
100
AcDbLine
 62
250
  6
CONTINUOUS
 10
195.5112212171
 20
114.1399917763
 11
195.0112212171
 21
114.1399917763
  0
LINE
  5
2DF
100
AcDbEntity
  8
0
100
AcDbLine
 62
250
  6
CONTINUOUS
 10
173.0112212171
 20
114.1399917763
 11
172.5112212171
 21
114.1399917763
  0
LINE
  5
2E0
100
AcDbEntity
  8
ASSI
100
AcDbLine
 62
250
  6
CONTINUOUS
 10
173.0112212171
 20
114.1399917763
 11
172.5112212171
 21
114.1399917763
  0
LINE
  5
2E1
100
AcDbEntity
  8
0
100
AcDbLine
 62
250
  6
CONTINUOUS
 10
156.2112212171
 20
114.1399917763
 11
156.7112212171
 21
114.1399917763
  0
LINE
  5
2E2
100
AcDbEntity
  8
ASSI
100
AcDbLine
 62
250
  6
CONTINUOUS
 10
156.2112212171
 20
114.1399917763
 11
156.7112212171
 21
114.1399917763
  0
LINE
  5
2E3
100
AcDbEntity
  8
0
100
AcDbLine
 62
250
  6
CONTINUOUS
 10
178.7112212171
 20
114.1399917763
 11
179.2112212171
 21
114.1399917763
  0
LINE
  5
2E4
100
AcDbEntity
  8
ASSI
100
AcDbLine
 62
250
  6
CONTINUOUS
 10
178.7112212171
 20
114.1399917763
 11
179.2112212171
 21
114.1399917763
  0
LINE
  5
2E5
100
AcDbEntity
  8
0
100
AcDbLine
 62
250
  6
CONTINUOUS
 10
201.2112212171
 20
114.1399917763
 11
201.7112212171
 21
114.1399917763
  0
LINE
  5
2E6
100
AcDbEntity
  8
ASSI
100
AcDbLine
 62
250
  6
CONTINUOUS
 10
201.2112212171
 20
114.1399917763
 11
201.7112212171
 21
114.1399917763
  0
LINE
  5
2E7
100
AcDbEntity
  8
0
100
AcDbLine
 62
7
  6
CONTINUOUS
 10
157.9112212171
 20
115.3399917763
 11
171.3112212171
 21
115.3399917763
  0
LINE
  5
2E8
100
AcDbEntity
  8
ASSI
100
AcDbLine
 62
7
  6
CONTINUOUS
 10
157.9112212171
 20
115.3399917763
 11
171.3112212171
 21
115.3399917763
  0
LINE
  5
2E9
100
AcDbEntity
  8
0
100
AcDbLine
 62
7
  6
CONTINUOUS
 10
180.4112212171
 20
115.3399917763
 11
193.8112212171
 21
115.3399917763
  0
LINE
  5
2EA
100
AcDbEntity
  8
ASSI
100
AcDbLine
 62
7
  6
CONTINUOUS
 10
180.4112212171
 20
115.3399917763
 11
193.8112212171
 21
115.3399917763
  0
LINE
  5
2EB
100
AcDbEntity
  8
0
100
AcDbLine
 62
7
  6
CONTINUOUS
 10
202.9112212171
 20
115.3399917763
 11
216.3112212171
 21
115.3399917763
  0
LINE
  5
2EC
100
AcDbEntity
  8
ASSI
100
AcDbLine
 62
7
  6
CONTINUOUS
 10
202.9112212171
 20
115.3399917763
 11
216.3112212171
 21
115.3399917763
  0
LINE
  5
2ED
100
AcDbEntity
  8
0
100
AcDbLine
 62
7
  6
CONTINUOUS
 10
157.9112212171
 20
115.8399917763
 11
171.3112212171
 21
115.8399917763
  0
LINE
  5
2EE
100
AcDbEntity
  8
ASSI
100
AcDbLine
 62
7
  6
CONTINUOUS
 10
157.9112212171
 20
115.8399917763
 11
171.3112212171
 21
115.8399917763
  0
LINE
  5
2EF
100
AcDbEntity
  8
0
100
AcDbLine
 62
7
  6
CONTINUOUS
 10
180.4112212171
 20
115.8399917763
 11
193.8112212171
 21
115.8399917763
  0
LINE
  5
2F0
100
AcDbEntity
  8
ASSI
100
AcDbLine
 62
7
  6
CONTINUOUS
 10
180.4112212171
 20
115.8399917763
 11
193.8112212171
 21
115.8399917763
  0
LINE
  5
2F1
100
AcDbEntity
  8
0
100
AcDbLine
 62
7
  6
CONTINUOUS
 10
202.9112212171
 20
115.8399917763
 11
216.3112212171
 21
115.8399917763
  0
LINE
  5
2F2
100
AcDbEntity
  8
ASSI
100
AcDbLine
 62
7
  6
CONTINUOUS
 10
202.9112212171
 20
115.8399917763
 11
216.3112212171
 21
115.8399917763
  0
LINE
  5
2F3
100
AcDbEntity
  8
0
100
AcDbLine
 62
7
  6
CONTINUOUS
 10
201.2112212171
 20
100.7399917763
 11
201.2112212171
 21
114.1399917763
  0
LINE
  5
2F4
100
AcDbEntity
  8
ASSI
100
AcDbLine
 62
7
  6
CONTINUOUS
 10
201.2112212171
 20
100.7399917763
 11
201.2112212171
 21
114.1399917763
  0
LINE
  5
2F5
100
AcDbEntity
  8
0
100
AcDbLine
 62
7
  6
CONTINUOUS
 10
201.7112212171
 20
100.7399917763
 11
201.7112212171
 21
114.1399917763
  0
LINE
  5
2F6
100
AcDbEntity
  8
ASSI
100
AcDbLine
 62
7
  6
CONTINUOUS
 10
201.7112212171
 20
100.7399917763
 11
201.7112212171
 21
114.1399917763
  0
LINE
  5
2F7
100
AcDbEntity
  8
0
100
AcDbLine
 62
250
  6
CONTINUOUS
 10
202.9112212171
 20
115.8399917763
 11
202.9112212171
 21
115.3399917763
  0
LINE
  5
2F8
100
AcDbEntity
  8
ASSI
100
AcDbLine
 62
250
  6
CONTINUOUS
 10
202.9112212171
 20
115.8399917763
 11
202.9112212171
 21
115.3399917763
  0
LINE
  5
2F9
100
AcDbEntity
  8
0
100
AcDbLine
 62
250
  6
CONTINUOUS
 10
202.9112212171
 20
99.0399917763
 11
202.9112212171
 21
99.5399917763
  0
LINE
  5
2FA
100
AcDbEntity
  8
ASSI
100
AcDbLine
 62
250
  6
CONTINUOUS
 10
202.9112212171
 20
99.0399917763
 11
202.9112212171
 21
99.5399917763
  0
LINE
  5
2FB
100
AcDbEntity
  8
CURVE
100
AcDbLine
 62
250
  6
CONTINUOUS
 10
223.0659900038
 20
66.6764762056
 11
222.5273074569
 21
68.1129137594
  0
LINE
  5
2FC
100
AcDbEntity
  8
CURVE
100
AcDbLine
 62
250
  6
CONTINUOUS
 10
222.6463599276
 20
68.876290677
 11
223.1006976213
 21
67.6549471135
  0
LINE
  5
2FD
100
AcDbEntity
  8
CURVE
100
AcDbLine
 62
250
  6
CONTINUOUS
 10
220.0003645241
 20
66.6764762056
 11
219.3029802701
 21
68.876290677
  0
LINE
  5
2FE
100
AcDbEntity
  8
CURVE
100
AcDbLine
 62
250
  6
CONTINUOUS
 10
219.8017998665
 20
68.876290677
 11
220.2211250855
 21
67.3620904602
  0
LINE
  5
2FF
100
AcDbEntity
  8
0
100
AcDbLine
 62
7
  6
CONTINUOUS
 10
230.4879586273
 20
151.2112607361
 11
230.931206687
 21
152.2306910986
  0
LINE
  5
300
100
AcDbEntity
  8
ASSI
100
AcDbLine
 62
7
  6
CONTINUOUS
 10
230.4879586273
 20
151.2112607361
 11
230.931206687
 21
152.2306910986
  0
LINE
  5
301
100
AcDbEntity
  8
0
100
AcDbLine
 62
7
  6
CONTINUOUS
 10
143.3399522573
 20
64.0632543661
 11
142.3205218948
 21
63.6200063064
  0
LINE
  5
302
100
AcDbEntity
  8
ASSI
100
AcDbLine
 62
7
  6
CONTINUOUS
 10
143.3399522573
 20
64.0632543661
 11
142.3205218948
 21
63.6200063064
  0
LINE
  5
303
100
AcDbEntity
  8
0
100
AcDbLine
 62
7
  6
CONTINUOUS
 10
143.3399522573
 20
150.8167291865
 11
142.3205218948
 21
151.2599772462
  0
LINE
  5
304
100
AcDbEntity
  8
ASSI
100
AcDbLine
 62
7
  6
CONTINUOUS
 10
143.3399522573
 20
150.8167291865
 11
142.3205218948
 21
151.2599772462
  0
LINE
  5
305
100
AcDbEntity
  8
0
100
AcDbLine
 62
7
  6
CONTINUOUS
 10
230.4879586273
 20
63.6687228165
 11
230.931206687
 21
62.649292454
  0
LINE
  5
306
100
AcDbEntity
  8
ASSI
100
AcDbLine
 62
7
  6
CONTINUOUS
 10
230.4879586273
 20
63.6687228165
 11
230.931206687
 21
62.649292454
  0
LWPOLYLINE
  5
307
100
AcDbEntity
  8
CURVE
100
AcDbPolyline
 62
250
  6
CONTINUOUS
 90
6
 70
0
 10
227.1957585071
 20
67.3435317515
 10
227.2033329497
 20
67.3227553322
 10
227.2105418219
 20
67.3018503923
 10
227.2174486637
 20
67.280839798
 10
227.224117015
 20
67.2597464152
 10
227.2306104159
 20
67.2385931101
  0
LINE
  5
308
100
AcDbEntity
  8
CURVE
100
AcDbLine
 62
250
  6
CONTINUOUS
 10
225.4262295156
 20
68.876290677
 11
226.1011873896
 21
66.6764762056
  0
LINE
  5
309
100
AcDbEntity
  8
0
100
AcDbLine
 62
250
  6
CONTINUOUS
 10
216.3112212171
 20
115.8399917763
 11
216.3112212171
 21
115.3399917763
  0
LINE
  5
30A
100
AcDbEntity
  8
ASSI
100
AcDbLine
 62
250
  6
CONTINUOUS
 10
216.3112212171
 20
115.8399917763
 11
216.3112212171
 21
115.3399917763
  0
LINE
  5
30B
100
AcDbEntity
  8
0
100
AcDbLine
 62
250
  6
CONTINUOUS
 10
216.3112212171
 20
99.0399917763
 11
216.3112212171
 21
99.5399917763
  0
LINE
  5
30C
100
AcDbEntity
  8
ASSI
100
AcDbLine
 62
250
  6
CONTINUOUS
 10
216.3112212171
 20
99.0399917763
 11
216.3112212171
 21
99.5399917763
  0
LINE
  5
30D
100
AcDbEntity
  8
CURVE
100
AcDbLine
 62
250
  6
CONTINUOUS
 10
227.2306104159
 20
67.2385931101
 11
227.310549226
 21
66.9716872721
  0
LWPOLYLINE
  5
30E
100
AcDbEntity
  8
CURVE
100
AcDbPolyline
 62
250
  6
CONTINUOUS
 90
3
 70
0
 10
227.310549226
 20
66.9716872721
 10
227.3705744371
 20
66.7663345963
 10
227.3965499896
 20
66.6764757889
  0
LWPOLYLINE
  5
30F
100
AcDbEntity
  8
CURVE
100
AcDbPolyline
 62
250
  6
CONTINUOUS
 90
38
 70
0
 10
227.6640678993
 20
67.3343204464
 10
227.6596130953
 20
67.3499072334
 10
227.6550489994
 20
67.3654619636
 10
227.650352445
 20
67.3809736558
 10
227.6455002653
 20
67.3964313289
 10
227.6404692936
 20
67.4118240019
 10
227.6352363633
 20
67.4271406934
 10
227.6297783075
 20
67.4423704225
 10
227.6240719596
 20
67.457502208
 10
227.6180941528
 20
67.4725250687
 10
227.6118217205
 20
67.4874280235
 10
227.605231496
 20
67.5022000912
 10
227.5983003124
 20
67.5168302908
 10
227.5933375859
 20
67.5267741518
 10
227.5881940224
 20
67.5366329221
 10
227.5828600335
 20
67.5463933959
 10
227.5773260305
 20
67.5560423676
 10
227.5715824249
 20
67.5655666314
 10
227.565619628
 20
67.5749529817
 10
227.5594280513
 20
67.5841882126
 10
227.5529981063
 20
67.5932591186
 10
227.5463202043
 20
67.6021524938
 10
227.5393847567
 20
67.6108551327
 10
227.532182175
 20
67.6193538294
 10
227.5247028706
 20
67.6276353783
 10
227.5176040071
 20
67.6350181241
 10
227.5102729037
 20
67.6421933166
 10
227.5027175095
 20
67.6491466482
 10
227.4949457734
 20
67.655863811
 10
227.4869656445
 20
67.6623304972
 10
227.4787850717
 20
67.6685323991
 10
227.4704120041
 20
67.6744552088
 10
227.4618543906
 20
67.6800846186
 10
227.4531201802
 20
67.6854063208
 10
227.444217322
 20
67.6904060075
 10
227.4351537649
 20
67.6950693709
 10
227.4259374579
 20
67.6993821032
 10
227.4165763501
 20
67.7033298968
  0
LINE
  5
310
100
AcDbEntity
  8
CURVE
100
AcDbLine
 62
250
  6
CONTINUOUS
 10
227.6727422987
 20
67.3030946265
 11
227.6640678993
 21
67.3343204464
  0
LINE
  5
311
100
AcDbEntity
  8
CURVE
100
AcDbLine
 62
250
  6
CONTINUOUS
 10
225.6172230307
 20
66.6764762056
 11
225.4982690361
 21
67.1156370428
  0
LINE
  5
312
100
AcDbEntity
  8
CURVE
100
AcDbLine
 62
250
  6
CONTINUOUS
 10
227.7027040778
 20
67.1924136076
 11
227.6727422987
 21
67.3030946265
  0
LINE
  5
313
100
AcDbEntity
  8
CURVE
100
AcDbLine
 62
250
  6
CONTINUOUS
 10
227.838235164
 20
66.6764757889
 11
227.8172850104
 21
66.7550131715
  0
LINE
  5
314
100
AcDbEntity
  8
CURVE
100
AcDbLine
 62
250
  6
CONTINUOUS
 10
227.7447380963
 20
67.033266182
 11
227.7027040778
 21
67.1924136076
  0
LINE
  5
315
100
AcDbEntity
  8
CURVE
100
AcDbLine
 62
250
  6
CONTINUOUS
 10
227.8172850104
 20
66.7550131715
 11
227.7447380963
 21
67.033266182
  0
LINE
  5
316
100
AcDbEntity
  8
CURVE
100
AcDbLine
 62
250
  6
CONTINUOUS
 10
225.4065007545
 20
67.4554584559
 11
225.1954977165
 21
68.2718375617
  0
LINE
  5
317
100
AcDbEntity
  8
CURVE
100
AcDbLine
 62
250
  6
CONTINUOUS
 10
224.0142067226
 20
68.876290677
 11
224.2199140466
 21
66.6764762056
  0
LINE
  5
318
100
AcDbEntity
  8
CURVE
100
AcDbLine
 62
250
  6
CONTINUOUS
 10
223.7707065432
 20
66.6764762056
 11
223.6763653094
 21
68.1069255692
  0
LINE
  5
319
100
AcDbEntity
  8
0
100
AcDbLine
 62
7
  6
CONTINUOUS
 10
217.5112212171
 20
114.1399917763
 11
217.5112212171
 21
100.7399917763
  0
LINE
  5
31A
100
AcDbEntity
  8
ASSI
100
AcDbLine
 62
7
  6
CONTINUOUS
 10
217.5112212171
 20
114.1399917763
 11
217.5112212171
 21
100.7399917763
  0
LINE
  5
31B
100
AcDbEntity
  8
0
100
AcDbLine
 62
7
  6
CONTINUOUS
 10
218.0112212171
 20
114.1399917763
 11
218.0112212171
 21
100.7399917763
  0
LINE
  5
31C
100
AcDbEntity
  8
ASSI
100
AcDbLine
 62
7
  6
CONTINUOUS
 10
218.0112212171
 20
114.1399917763
 11
218.0112212171
 21
100.7399917763
  0
LINE
  5
31D
100
AcDbEntity
  8
CURVE
100
AcDbLine
 62
250
  6
CONTINUOUS
 10
221.2825380849
 20
68.876422677
 11
221.2825380849
 21
66.6764762056
  0
LINE
  5
31E
100
AcDbEntity
  8
CURVE
100
AcDbLine
 62
250
  6
CONTINUOUS
 10
221.7417262545
 20
66.6764762056
 11
221.7417262545
 21
68.876422677
  0
LINE
  5
31F
100
AcDbEntity
  8
CURVE
100
AcDbLine
 62
250
  6
CONTINUOUS
 10
222.5273074569
 20
68.1129137594
 11
222.4282142233
 21
66.6764762056
  0
LINE
  5
320
100
AcDbEntity
  8
CURVE
100
AcDbLine
 62
250
  6
CONTINUOUS
 10
221.9889213861
 20
66.6764762056
 11
222.1875520437
 21
68.876290677
  0
LWPOLYLINE
  5
321
100
AcDbEntity
  8
0
100
AcDbPolyline
 62
7
  6
CONTINUOUS
 90
10
 70
0
 43
0.3500000006
 10
241.5910100098
 20
105.5114204407
 10
240.7338720703
 20
106.3685674438
 10
239.8767160034
 20
106.5828519287
 10
239.019578064
 20
106.5828519287
 10
238.5910090942
 20
106.1542738953
 10
238.5910090942
 20
105.5114204407
 10
239.019578064
 20
105.0828514709
 10
239.8767160034
 20
105.0828514709
 10
240.3052849731
 20
105.5114204407
 10
240.3052849731
 20
106.439989563
  0
LWPOLYLINE
  5
322
100
AcDbEntity
  8
CURVE
100
AcDbPolyline
 62
250
  6
CONTINUOUS
 90
58
 70
0
 10
227.2972594923
 20
68.2394886844
 10
227.2973286693
 20
68.2292897868
 10
227.2972144361
 20
68.219061449
 10
227.2969054132
 20
68.2088145756
 10
227.2963902213
 20
68.1985600713
 10
227.2956574809
 20
68.1883088408
 10
227.2946958125
 20
68.1780717885
 10
227.2934938366
 20
68.1678598192
 10
227.2920401738
 20
68.1576838374
 10
227.2903234447
 20
68.1475547478
 10
227.2883322697
 20
68.1374834549
 10
227.2860552694
 20
68.1274808634
 10
227.2834810644
 20
68.1175578779
 10
227.2805982753
 20
68.107725403
 10
227.2773955224
 20
68.0979943433
 10
227.2738614265
 20
68.0883756035
 10
227.269984608
 20
68.0788800881
 10
227.2661272649
 20
68.07030393
 10
227.2619793936
 20
68.0618518572
 10
227.2575473158
 20
68.0535355122
 10
227.2528373529
 20
68.0453665378
 10
227.2478558266
 20
68.0373565765
 10
227.2426090583
 20
68.029517271
 10
227.2371033697
 20
68.0218602638
 10
227.2313450822
 20
68.0143971976
 10
227.2253405175
 20
68.0071397151
 10
227.219095997
 20
68.0000994588
 10
227.2126178423
 20
67.9932880713
 10
227.2059123751
 20
67.9867171954
 10
227.1989859167
 20
67.9803984735
 10
227.1918447888
 20
67.9743435483
 10
227.1841693587
 20
67.9683142146
 10
227.176277806
 20
67.9625791018
 10
227.1681810073
 20
67.9571323348
 10
227.159889839
 20
67.9519680385
 10
227.1514151774
 20
67.9470803379
 10
227.1427678988
 20
67.9424633577
 10
227.1339588798
 20
67.9381112229
 10
227.1249989967
 20
67.9340180584
 10
227.1158991258
 20
67.930177989
 10
227.1066701436
 20
67.9265851397
 10
227.0973229264
 20
67.9232336353
 10
227.0878683506
 20
67.9201176007
 10
227.0783172927
 20
67.9172311608
 10
227.0686806289
 20
67.9145684405
 10
227.0589692358
 20
67.9121235646
 10
227.0491939896
 20
67.9098906581
 10
227.0393657668
 20
67.9078638458
 10
227.0294954437
 20
67.9060372527
 10
227.0195938968
 20
67.9044050035
 10
227.0096720024
 20
67.9029612233
 10
226.9997406369
 20
67.9017000368
 10
226.9898106767
 20
67.9006155691
 10
226.9798929981
 20
67.8997019448
 10
226.9699984777
 20
67.898953289
 10
226.9601379917
 20
67.8983637266
 10
226.9503224165
 20
67.8979273823
 10
226.9405626286
 20
67.8976383812
  0
LINE
  5
323
100
AcDbEntity
  8
CURVE
100
AcDbLine
 62
250
  6
CONTINUOUS
 10
226.2360273489
 20
68.8505896102
 11
226.2360273489
 21
66.6764757889
  0
LINE
  5
324
100
AcDbEntity
  8
CURVE
100
AcDbLine
 62
250
  6
CONTINUOUS
 10
226.6781414239
 20
67.8976383812
 11
226.6781414239
 21
68.501530477
  0
LINE
  5
325
100
AcDbEntity
  8
CURVE
100
AcDbLine
 62
250
  6
CONTINUOUS
 10
226.6933673965
 20
66.6764757889
 11
226.6933673965
 21
67.5373618468
  0
LINE
  5
326
100
AcDbEntity
  8
CURVE
100
AcDbLine
 62
250
  6
CONTINUOUS
 10
227.4165763501
 20
67.7033298968
 11
227.4165763501
 21
67.7163288853
  0
LINE
  5
327
100
AcDbEntity
  8
CURVE
100
AcDbLine
 62
250
  6
CONTINUOUS
 10
220.2211250855
 20
67.3620904602
 11
220.6532584944
 21
68.876290677
  0
LINE
  5
328
100
AcDbEntity
  8
0
100
AcDbLine
 62
7
  6
CONTINUOUS
 10
230.8824901769
 20
64.0632543661
 11
230.8824901769
 21
150.8167291865
  0
LINE
  5
329
100
AcDbEntity
  8
ASSI
100
AcDbLine
 62
7
  6
CONTINUOUS
 10
230.8824901769
 20
64.0632543661
 11
230.8824901769
 21
150.8167291865
  0
LINE
  5
32A
100
AcDbEntity
  8
0
100
AcDbLine
 62
7
  6
CONTINUOUS
 10
231.9173896736
 20
63.6344321219
 11
231.9173896736
 21
151.2455514307
  0
LINE
  5
32B
100
AcDbEntity
  8
ASSI
100
AcDbLine
 62
7
  6
CONTINUOUS
 10
231.9173896736
 20
63.6344321219
 11
231.9173896736
 21
151.2455514307
  0
LINE
  5
32C
100
AcDbEntity
  8
0
100
AcDbLine
 62
7
  6
CONTINUOUS
 10
232.1112212171
 20
63.4406005784
 11
232.1112212171
 21
151.4393829742
  0
LINE
  5
32D
100
AcDbEntity
  8
ASSI
100
AcDbLine
 62
7
  6
CONTINUOUS
 10
232.1112212171
 20
63.4406005784
 11
232.1112212171
 21
151.4393829742
  0
LINE
  5
32E
100
AcDbEntity
  8
CURVE
100
AcDbLine
 62
250
  6
CONTINUOUS
 10
225.1954977165
 20
68.2718375617
 11
224.9668611555
 21
67.4554584559
  0
LINE
  5
32F
100
AcDbEntity
  8
CURVE
100
AcDbLine
 62
250
  6
CONTINUOUS
 10
221.1121334259
 20
68.876290677
 11
220.4050241247
 21
66.6764762056
  0
LINE
  5
330
100
AcDbEntity
  8
0
100
AcDbLine
 62
7
  6
CONTINUOUS
 10
230.4879586273
 20
151.2112607361
 11
143.7344838069
 21
151.2112607361
  0
LINE
  5
331
100
AcDbEntity
  8
ASSI
100
AcDbLine
 62
7
  6
CONTINUOUS
 10
230.4879586273
 20
151.2112607361
 11
143.7344838069
 21
151.2112607361
  0
LINE
  5
332
100
AcDbEntity
  8
0
100
AcDbLine
 62
7
  6
CONTINUOUS
 10
230.9167808715
 20
152.2461602328
 11
143.3056615627
 21
152.2461602328
  0
LINE
  5
333
100
AcDbEntity
  8
ASSI
100
AcDbLine
 62
7
  6
CONTINUOUS
 10
230.9167808715
 20
152.2461602328
 11
143.3056615627
 21
152.2461602328
  0
LINE
  5
334
100
AcDbEntity
  8
0
100
AcDbLine
 62
7
  6
CONTINUOUS
 10
231.110612415
 20
152.4399917763
 11
143.1118300192
 21
152.4399917763
  0
LINE
  5
335
100
AcDbEntity
  8
ASSI
100
AcDbLine
 62
7
  6
CONTINUOUS
 10
231.110612415
 20
152.4399917763
 11
143.1118300192
 21
152.4399917763
  0
LINE
  5
336
100
AcDbEntity
  8
CURVE
100
AcDbLine
 62
250
  6
CONTINUOUS
 10
224.8729316359
 20
67.1156370428
 11
224.7462242131
 21
66.6764762056
  0
LINE
  5
337
100
AcDbEntity
  8
CURVE
100
AcDbLine
 62
250
  6
CONTINUOUS
 10
224.2920185195
 20
66.6764762056
 11
224.98202125
 21
68.876290677
  0
LINE
  5
338
100
AcDbEntity
  8
CURVE
100
AcDbLine
 62
250
  6
CONTINUOUS
 10
223.1006976213
 20
67.6549471135
 11
223.5598857909
 21
68.876290677
  0
LINE
  5
339
100
AcDbEntity
  8
CURVE
100
AcDbLine
 62
250
  6
CONTINUOUS
 10
223.6763653094
 20
68.1069255692
 11
223.1303902866
 21
66.6764762056
  0
LINE
  5
33A
100
AcDbEntity
  8
CURVE
100
AcDbLine
 62
7
  6
CONTINUOUS
 10
219.3900470258
 20
68.6016491029
 11
219.6646886
 21
68.876290677
  0
LINE
  5
33B
100
AcDbEntity
  8
CURVE
100
AcDbLine
 62
7
  6
CONTINUOUS
 10
219.4911503184
 20
68.2827309674
 11
219.8631548211
 21
68.6547354701
  0
LINE
  5
33C
100
AcDbEntity
  8
CURVE
100
AcDbLine
 62
7
  6
CONTINUOUS
 10
219.5922536109
 20
67.9638128319
 11
219.9542452066
 21
68.3258044276
  0
LINE
  5
33D
100
AcDbEntity
  8
CURVE
100
AcDbLine
 62
7
  6
CONTINUOUS
 10
219.6933569034
 20
67.6448946964
 11
220.0453355921
 21
67.9968733851
  0
LINE
  5
33E
100
AcDbEntity
  8
CURVE
100
AcDbLine
 62
7
  6
CONTINUOUS
 10
220.5448346935
 20
68.4963724865
 11
220.9247528841
 21
68.876290677
  0
LINE
  5
33F
100
AcDbEntity
  8
CURVE
100
AcDbLine
 62
7
  6
CONTINUOUS
 10
219.794460196
 20
67.3259765609
 11
220.1364259776
 21
67.6679423425
  0
LINE
  5
340
100
AcDbEntity
  8
CURVE
100
AcDbLine
 62
7
  6
CONTINUOUS
 10
220.3770952433
 20
67.9086116082
 11
221.0019291219
 21
68.5334454868
  0
LINE
  5
341
100
AcDbEntity
  8
CURVE
100
AcDbLine
 62
7
  6
CONTINUOUS
 10
221.2825380849
 20
68.8140544498
 11
221.3449063121
 21
68.876422677
  0
LINE
  5
342
100
AcDbEntity
  8
CURVE
100
AcDbLine
 62
7
  6
CONTINUOUS
 10
219.8955634885
 20
67.0070584254
 11
220.8029607895
 21
67.9144557264
  0
LINE
  5
343
100
AcDbEntity
  8
CURVE
100
AcDbLine
 62
7
  6
CONTINUOUS
 10
221.2825380849
 20
68.3940330218
 11
221.7417262545
 21
68.8532211914
  0
LINE
  5
344
100
AcDbEntity
  8
CURVE
100
AcDbLine
 62
7
  6
CONTINUOUS
 10
219.996666781
 20
66.6881402899
 11
220.6039924571
 21
67.295465966
  0
LINE
  5
345
100
AcDbEntity
  8
CURVE
100
AcDbLine
 62
7
  6
CONTINUOUS
 10
221.2825380849
 20
67.9740115937
 11
221.7417262545
 21
68.4331997634
  0
LINE
  5
346
100
AcDbEntity
  8
CURVE
100
AcDbLine
 62
7
  6
CONTINUOUS
 10
221.2825380849
 20
67.5539901657
 11
221.7417262545
 21
68.0131783353
  0
LINE
  5
347
100
AcDbEntity
  8
CURVE
100
AcDbLine
 62
7
  6
CONTINUOUS
 10
222.1461336084
 20
68.4175856893
 11
222.6048385962
 21
68.876290677
  0
LINE
  5
348
100
AcDbEntity
  8
CURVE
100
AcDbLine
 62
7
  6
CONTINUOUS
 10
221.2825380849
 20
67.1339687377
 11
221.7417262545
 21
67.5931569073
  0
LINE
  5
349
100
AcDbEntity
  8
CURVE
100
AcDbLine
 62
7
  6
CONTINUOUS
 10
222.1044437187
 20
67.9558743715
 11
222.7489849705
 21
68.6004156234
  0
LINE
  5
34A
100
AcDbEntity
  8
CURVE
100
AcDbLine
 62
7
  6
CONTINUOUS
 10
221.2825380849
 20
66.7139473097
 11
221.7417262545
 21
67.1731354793
  0
LINE
  5
34B
100
AcDbEntity
  8
CURVE
100
AcDbLine
 62
7
  6
CONTINUOUS
 10
222.062753829
 20
67.4941630538
 11
222.5158819124
 21
67.9472911372
  0
LINE
  5
34C
100
AcDbEntity
  8
CURVE
100
AcDbLine
 62
7
  6
CONTINUOUS
 10
222.5693622537
 20
68.0007714785
 11
222.8628679456
 21
68.2942771705
  0
LINE
  5
34D
100
AcDbEntity
  8
CURVE
100
AcDbLine
 62
7
  6
CONTINUOUS
 10
221.6650884088
 20
66.6764762056
 11
221.7417262545
 21
66.7531140513
  0
LINE
  5
34E
100
AcDbEntity
  8
CURVE
100
AcDbLine
 62
7
  6
CONTINUOUS
 10
222.0210639393
 20
67.0324517361
 11
222.4847595747
 21
67.4961473715
  0
LINE
  5
34F
100
AcDbEntity
  8
CURVE
100
AcDbLine
 62
7
  6
CONTINUOUS
 10
222.6839164079
 20
67.6953042047
 11
222.9767509207
 21
67.9881387175
  0
LINE
  5
350
100
AcDbEntity
  8
CURVE
100
AcDbLine
 62
7
  6
CONTINUOUS
 10
223.3761171787
 20
68.3875049755
 11
223.8649028803
 21
68.876290677
  0
LINE
  5
351
100
AcDbEntity
  8
CURVE
100
AcDbLine
 62
7
  6
CONTINUOUS
 10
222.0851098368
 20
66.6764762056
 11
222.4536372371
 21
67.0450036058
  0
LINE
  5
352
100
AcDbEntity
  8
CURVE
100
AcDbLine
 62
7
  6
CONTINUOUS
 10
222.7984705621
 20
67.3898369309
 11
223.0906338958
 21
67.6820002646
  0
LINE
  5
353
100
AcDbEntity
  8
CURVE
100
AcDbLine
 62
7
  6
CONTINUOUS
 10
223.1230600302
 20
67.714426399
 11
224.0373570388
 21
68.6287234075
  0
LINE
  5
354
100
AcDbEntity
  8
CURVE
100
AcDbLine
 62
7
  6
CONTINUOUS
 10
222.9130247163
 20
67.0843696571
 11
223.5163549131
 21
67.6876998539
  0
LINE
  5
355
100
AcDbEntity
  8
CURVE
100
AcDbLine
 62
7
  6
CONTINUOUS
 10
223.6924033759
 20
67.8637483166
 11
224.0732750189
 21
68.2446199596
  0
LINE
  5
356
100
AcDbEntity
  8
CURVE
100
AcDbLine
 62
7
  6
CONTINUOUS
 10
223.0275788706
 20
66.7789023833
 11
223.2570809035
 21
67.0084044162
  0
LINE
  5
357
100
AcDbEntity
  8
CURVE
100
AcDbLine
 62
7
  6
CONTINUOUS
 10
223.7183907737
 20
67.4697142864
 11
224.109192999
 21
67.8605165117
  0
LINE
  5
358
100
AcDbEntity
  8
CURVE
100
AcDbLine
 62
7
  6
CONTINUOUS
 10
224.9166931906
 20
68.6680167033
 11
225.1249671643
 21
68.876290677
  0
LINE
  5
359
100
AcDbEntity
  8
CURVE
100
AcDbLine
 62
7
  6
CONTINUOUS
 10
223.7443781714
 20
67.0756802561
 11
224.1451109791
 21
67.4764130637
  0
LINE
  5
35A
100
AcDbEntity
  8
CURVE
100
AcDbLine
 62
7
  6
CONTINUOUS
 10
224.7247381777
 20
68.0560402623
 11
225.4541125492
 21
68.7854146339
  0
LINE
  5
35B
100
AcDbEntity
  8
CURVE
100
AcDbLine
 62
7
  6
CONTINUOUS
 10
223.7703655692
 20
66.6816462258
 11
224.1810289592
 21
67.0923096158
  0
LINE
  5
35C
100
AcDbEntity
  8
CURVE
100
AcDbLine
 62
7
  6
CONTINUOUS
 10
224.5327831647
 20
67.4440638214
 11
225.1312883691
 21
68.0425690258
  0
LINE
  5
35D
100
AcDbEntity
  8
CURVE
100
AcDbLine
 62
7
  6
CONTINUOUS
 10
225.2293974591
 20
68.1406781158
 11
225.5527279302
 21
68.4640085869
  0
LINE
  5
35E
100
AcDbEntity
  8
CURVE
100
AcDbLine
 62
7
  6
CONTINUOUS
 10
224.185216977
 20
66.6764762056
 11
224.2169469393
 21
66.7082061679
  0
LINE
  5
35F
100
AcDbEntity
  8
CURVE
100
AcDbLine
 62
7
  6
CONTINUOUS
 10
224.3408281518
 20
66.8320873805
 11
224.9678966669
 21
67.4591558955
  0
LINE
  5
360
100
AcDbEntity
  8
CURVE
100
AcDbLine
 62
7
  6
CONTINUOUS
 10
225.3156611711
 20
67.8069203997
 11
225.6513433112
 21
68.1426025398
  0
LINE
  5
361
100
AcDbEntity
  8
CURVE
100
AcDbLine
 62
7
  6
CONTINUOUS
 10
226.2360273489
 20
68.7272865775
 11
226.3783032748
 21
68.8695625034
  0
LINE
  5
362
100
AcDbEntity
  8
CURVE
100
AcDbLine
 62
7
  6
CONTINUOUS
 10
224.605238405
 20
66.6764762056
 11
224.8033973711
 21
66.8746351717
  0
LINE
  5
363
100
AcDbEntity
  8
CURVE
100
AcDbLine
 62
7
  6
CONTINUOUS
 10
225.0443992422
 20
67.1156370428
 11
225.3842206553
 21
67.4554584559
  0
LINE
  5
364
100
AcDbEntity
  8
CURVE
100
AcDbLine
 62
7
  6
CONTINUOUS
 10
225.4019248831
 20
67.4731626837
 11
225.7499586922
 21
67.8211964928
  0
LINE
  5
365
100
AcDbEntity
  8
CURVE
100
AcDbLine
 62
7
  6
CONTINUOUS
 10
226.2360273489
 20
68.3072651495
 11
226.8296134093
 21
68.9008512099
  0
LINE
  5
366
100
AcDbEntity
  8
CURVE
100
AcDbLine
 62
7
  6
CONTINUOUS
 10
225.4644206702
 20
67.1156370428
 11
225.8485740732
 21
67.4997904458
  0
LINE
  5
367
100
AcDbEntity
  8
CURVE
100
AcDbLine
 62
7
  6
CONTINUOUS
 10
226.2360273489
 20
67.8872437215
 11
226.6781414239
 21
68.3293577965
  0
LINE
  5
368
100
AcDbEntity
  8
CURVE
100
AcDbLine
 62
7
  6
CONTINUOUS
 10
226.8709743553
 20
68.5221907279
 11
227.2176189136
 21
68.8688352862
  0
LINE
  5
369
100
AcDbEntity
  8
0
100
AcDbLine
 62
7
  6
CONTINUOUS
 10
230.931206687
 20
62.649292454
 11
230.9167808715
 21
62.6338233198
  0
LINE
  5
36A
100
AcDbEntity
  8
ASSI
100
AcDbLine
 62
7
  6
CONTINUOUS
 10
230.931206687
 20
62.649292454
 11
230.9167808715
 21
62.6338233198
  0
LINE
  5
36B
100
AcDbEntity
  8
CURVE
100
AcDbLine
 62
7
  6
CONTINUOUS
 10
225.5805761631
 20
66.8117711077
 11
225.9471894542
 21
67.1783843987
  0
LINE
  5
36C
100
AcDbEntity
  8
CURVE
100
AcDbLine
 62
7
  6
CONTINUOUS
 10
226.2360273489
 20
67.4672222934
 11
226.6781414239
 21
67.9093363685
  0
LINE
  5
36D
100
AcDbEntity
  8
CURVE
100
AcDbLine
 62
7
  6
CONTINUOUS
 10
227.2080809258
 20
68.4392758703
 11
227.5113694674
 21
68.742564412
  0
LINE
  5
36E
100
AcDbEntity
  8
CURVE
100
AcDbLine
 62
7
  6
CONTINUOUS
 10
225.8653026891
 20
66.6764762056
 11
226.0458048352
 21
66.8569783517
  0
LINE
  5
36F
100
AcDbEntity
  8
CURVE
100
AcDbLine
 62
7
  6
CONTINUOUS
 10
226.2360273489
 20
67.0472008654
 11
226.6933673965
 21
67.5045409131
  0
LINE
  5
370
100
AcDbEntity
  8
CURVE
100
AcDbLine
 62
7
  6
CONTINUOUS
 10
226.7261883302
 20
67.5373618468
 11
227.1216204823
 21
67.9327939989
  0
LINE
  5
371
100
AcDbEntity
  8
CURVE
100
AcDbLine
 62
7
  6
CONTINUOUS
 10
227.2712888992
 20
68.0824624157
 11
227.686046192
 21
68.4972197086
  0
LINE
  5
372
100
AcDbEntity
  8
CURVE
100
AcDbLine
 62
7
  6
CONTINUOUS
 10
226.2853237004
 20
66.6764757889
 11
226.6933673965
 21
67.084519485
  0
LINE
  5
373
100
AcDbEntity
  8
CURVE
100
AcDbLine
 62
7
  6
CONTINUOUS
 10
227.0950327372
 20
67.4861848257
 11
227.7100202101
 21
68.1011722986
  0
LINE
  5
374
100
AcDbEntity
  8
CURVE
100
AcDbLine
 62
7
  6
CONTINUOUS
 10
227.2391064311
 20
67.2102370916
 11
227.5800001967
 21
67.5511308572
  0
LINE
  5
375
100
AcDbEntity
  8
CURVE
100
AcDbLine
 62
7
  6
CONTINUOUS
 10
227.3354363891
 20
66.8865456216
 11
227.6895592434
 21
67.2406684758
  0
LINE
  5
376
100
AcDbEntity
  8
CURVE
100
AcDbLine
 62
7
  6
CONTINUOUS
 10
227.5453879845
 20
66.6764757889
 11
227.7772757168
 21
66.9083635212
  0
LINE
  5
377
100
AcDbEntity
  8
0
100
AcDbLine
 62
7
  6
CONTINUOUS
 10
230.4879586273
 20
63.6687228165
 11
230.8824901769
 21
64.0632543661
  0
LINE
  5
378
100
AcDbEntity
  8
ASSI
100
AcDbLine
 62
7
  6
CONTINUOUS
 10
230.4879586273
 20
63.6687228165
 11
230.8824901769
 21
64.0632543661
  0
LINE
  5
379
100
AcDbEntity
  8
0
100
AcDbLine
 62
7
  6
CONTINUOUS
 10
230.931206687
 20
62.649292454
 11
231.9019205394
 21
63.6200063064
  0
LINE
  5
37A
100
AcDbEntity
  8
ASSI
100
AcDbLine
 62
7
  6
CONTINUOUS
 10
230.931206687
 20
62.649292454
 11
231.9019205394
 21
63.6200063064
  0
LINE
  5
37B
100
AcDbEntity
  8
0
100
AcDbLine
 62
7
  6
CONTINUOUS
 10
232.1112212171
 20
63.4406005784
 11
231.110612415
 21
62.4399917763
  0
LINE
  5
37C
100
AcDbEntity
  8
ASSI
100
AcDbLine
 62
7
  6
CONTINUOUS
 10
232.1112212171
 20
63.4406005784
 11
231.110612415
 21
62.4399917763
  0
LINE
  5
37D
100
AcDbEntity
  8
0
100
AcDbLine
 62
7
  6
CONTINUOUS
 10
231.9173896736
 20
63.6344321219
 11
231.9019205394
 21
63.6200063064
  0
LINE
  5
37E
100
AcDbEntity
  8
ASSI
100
AcDbLine
 62
7
  6
CONTINUOUS
 10
231.9173896736
 20
63.6344321219
 11
231.9019205394
 21
63.6200063064
  0
LINE
  5
37F
100
AcDbEntity
  8
0
100
AcDbLine
 62
7
  6
CONTINUOUS
 10
231.9019205394
 20
151.2599772462
 11
231.9173896736
 21
151.2455514307
  0
LINE
  5
380
100
AcDbEntity
  8
ASSI
100
AcDbLine
 62
7
  6
CONTINUOUS
 10
231.9019205394
 20
151.2599772462
 11
231.9173896736
 21
151.2455514307
  0
LINE
  5
381
100
AcDbEntity
  8
0
100
AcDbLine
 62
7
  6
CONTINUOUS
 10
230.8824901769
 20
150.8167291865
 11
230.4879586273
 21
151.2112607361
  0
LINE
  5
382
100
AcDbEntity
  8
ASSI
100
AcDbLine
 62
7
  6
CONTINUOUS
 10
230.8824901769
 20
150.8167291865
 11
230.4879586273
 21
151.2112607361
  0
LINE
  5
383
100
AcDbEntity
  8
0
100
AcDbLine
 62
7
  6
CONTINUOUS
 10
231.9019205394
 20
151.2599772462
 11
230.931206687
 21
152.2306910986
  0
LINE
  5
384
100
AcDbEntity
  8
ASSI
100
AcDbLine
 62
7
  6
CONTINUOUS
 10
231.9019205394
 20
151.2599772462
 11
230.931206687
 21
152.2306910986
  0
LINE
  5
385
100
AcDbEntity
  8
0
100
AcDbLine
 62
7
  6
CONTINUOUS
 10
231.110612415
 20
152.4399917763
 11
232.1112212171
 21
151.4393829742
  0
LINE
  5
386
100
AcDbEntity
  8
ASSI
100
AcDbLine
 62
7
  6
CONTINUOUS
 10
231.110612415
 20
152.4399917763
 11
232.1112212171
 21
151.4393829742
  0
LINE
  5
387
100
AcDbEntity
  8
0
100
AcDbLine
 62
7
  6
CONTINUOUS
 10
230.9167808715
 20
152.2461602328
 11
230.931206687
 21
152.2306910986
  0
LINE
  5
388
100
AcDbEntity
  8
ASSI
100
AcDbLine
 62
7
  6
CONTINUOUS
 10
230.9167808715
 20
152.2461602328
 11
230.931206687
 21
152.2306910986
  0
LWPOLYLINE
  5
389
100
AcDbEntity
  8
0
100
AcDbPolyline
 62
7
  6
CONTINUOUS
 90
3
 70
0
 43
0.3500000006
 10
80.5587756042
 20
173.6018155518
 10
81.4159135437
 20
174.4589534912
 10
81.4159135437
 20
171.4589525757
  0
LWPOLYLINE
  5
38A
100
AcDbEntity
  8
0
100
AcDbPolyline
 62
7
  6
CONTINUOUS
 90
3
 70
0
 43
0.3500000006
 10
86.3444838867
 20
173.6018155518
 10
87.2016308899
 20
174.4589534912
 10
87.2016308899
 20
171.4589525757
  0
LWPOLYLINE
  5
38B
100
AcDbEntity
  8
0
100
AcDbPolyline
 62
7
  6
CONTINUOUS
 90
3
 70
0
 43
0.3500000006
 10
86.9030175476
 20
164.7568024292
 10
87.7601645508
 20
165.6139403687
 10
87.7601645508
 20
162.6139394531
  0
LINE
  5
38C
100
AcDbEntity
  8
0
100
AcDbLine
 62
7
  6
CONTINUOUS
 10
92.7010494783
 20
62.6338233198
 11
98.2516586513
 21
62.4399917763
  0
LINE
  5
38D
100
AcDbEntity
  8
ASSI
100
AcDbLine
 62
7
  6
CONTINUOUS
 10
92.7010494783
 20
62.6338233198
 11
98.2516586513
 21
62.4399917763
  0
LINE
  5
38E
100
AcDbEntity
  8
0
100
AcDbLine
 62
7
  6
CONTINUOUS
 10
92.7010494783
 20
63.6344321219
 11
98.2516586513
 21
63.4406005784
  0
LINE
  5
38F
100
AcDbEntity
  8
ASSI
100
AcDbLine
 62
7
  6
CONTINUOUS
 10
92.7010494783
 20
63.6344321219
 11
98.2516586513
 21
63.4406005784
  0
LINE
  5
390
100
AcDbEntity
  8
0
100
AcDbLine
 62
7
  6
CONTINUOUS
 10
98.2516586513
 20
64.6819478635
 11
98.8516586513
 21
64.6399917763
  0
LINE
  5
391
100
AcDbEntity
  8
0
100
AcDbLine
 62
7
  6
CONTINUOUS
 10
91.7016586513
 20
150.8167291865
 11
92.6861111091
 21
151.2599772462
  0
LINE
  5
392
100
AcDbEntity
  8
ASSI
100
AcDbLine
 62
7
  6
CONTINUOUS
 10
91.7016586513
 20
150.8167291865
 11
92.6861111091
 21
151.2599772462
  0
LINE
  5
393
100
AcDbEntity
  8
0
100
AcDbLine
 62
250
  6
CONTINUOUS
 10
98.2516586513
 20
65.9787811288
 11
98.8516586513
 21
65.9368250417
  0
LINE
  5
394
100
AcDbEntity
  8
0
100
AcDbLine
 62
7
  6
CONTINUOUS
 10
91.7016586513
 20
64.0632543661
 11
92.6861111091
 21
63.6200063064
  0
LINE
  5
395
100
AcDbEntity
  8
ASSI
100
AcDbLine
 62
7
  6
CONTINUOUS
 10
91.7016586513
 20
64.0632543661
 11
92.6861111091
 21
63.6200063064
  0
LINE
  5
396
100
AcDbEntity
  8
0
100
AcDbLine
 62
7
  6
CONTINUOUS
 10
91.7016586513
 20
151.2112607361
 11
92.7010494783
 21
152.2461602328
  0
LINE
  5
397
100
AcDbEntity
  8
ASSI
100
AcDbLine
 62
7
  6
CONTINUOUS
 10
91.7016586513
 20
151.2112607361
 11
92.7010494783
 21
152.2461602328
  0
LINE
  5
398
100
AcDbEntity
  8
0
100
AcDbLine
 62
7
  6
CONTINUOUS
 10
91.7016586513
 20
63.6687228165
 11
92.7010494783
 21
62.6338233198
  0
LINE
  5
399
100
AcDbEntity
  8
ASSI
100
AcDbLine
 62
7
  6
CONTINUOUS
 10
91.7016586513
 20
63.6687228165
 11
92.7010494783
 21
62.6338233198
  0
LWPOLYLINE
  5
39A
100
AcDbEntity
  8
0
100
AcDbPolyline
 62
7
  6
CONTINUOUS
 90
3
 70
0
 43
0.3500000006
 10
85.3444835815
 20
171.7446773071
 10
85.2730614624
 20
171.5303928223
 10
85.1301990967
 20
171.2446680908
  0
LWPOLYLINE
  5
39B
100
AcDbEntity
  8
0
100
AcDbPolyline
 62
7
  6
CONTINUOUS
 90
3
 70
0
 43
0.3500000006
 10
85.9030172424
 20
162.8996641846
 10
85.8315860596
 20
162.6853796997
 10
85.6887327576
 20
162.3996549683
  0
LINE
  5
39C
100
AcDbEntity
  8
0
100
AcDbLine
 62
7
  6
CONTINUOUS
 10
99.7774958023
 20
80.2898623376
 11
98.8516586513
 21
80.2882464453
  0
LINE
  5
39D
100
AcDbEntity
  8
0
100
AcDbLine
 62
250
  6
CONTINUOUS
 10
99.7774312351
 20
80.5123125324
 11
98.8516586513
 21
80.5118943379
  0
LINE
  5
39E
100
AcDbEntity
  8
0
100
AcDbLine
 62
7
  6
CONTINUOUS
 10
101.3017078835
 20
81.098427916
 11
98.8516586513
 21
81.0841739465
  0
LINE
  5
39F
100
AcDbEntity
  8
0
100
AcDbLine
 62
250
  6
CONTINUOUS
 10
101.3017078835
 20
81.1862943946
 11
98.8516586513
 21
81.1720404251
  0
LINE
  5
3A0
100
AcDbEntity
  8
0
100
AcDbLine
 62
7
  6
CONTINUOUS
 10
99.8017830302
 20
82.2399917763
 11
98.8516586513
 21
82.2399917763
  0
LINE
  5
3A1
100
AcDbEntity
  8
0
100
AcDbLine
 62
7
  6
CONTINUOUS
 10
98.8516586513
 20
82.3899917763
 11
99.0016586513
 21
82.3899917763
  0
LINE
  5
3A2
100
AcDbEntity
  8
0
100
AcDbLine
 62
7
  6
CONTINUOUS
 10
99.3016586513
 20
82.3899917763
 11
99.5016586513
 21
82.3899917763
  0
LINE
  5
3A3
100
AcDbEntity
  8
0
100
AcDbLine
 62
7
  6
CONTINUOUS
 10
98.8516586513
 20
81.6841719018
 11
101.6621258426
 21
81.5600051087
  0
LINE
  5
3A4
100
AcDbEntity
  8
0
100
AcDbLine
 62
7
  6
CONTINUOUS
 10
99.9012867492
 20
82.2350289665
 11
101.8516586513
 21
82.0399917763
  0
LWPOLYLINE
  5
3A5
100
AcDbEntity
  8
0
100
AcDbPolyline
 62
250
  6
CONTINUOUS
 90
4
 70
0
 10
101.3542732072
 20
133.7340886421
 10
101.3370961351
 20
133.7229858928
 10
101.3195171138
 20
133.7094797989
 10
101.3017078835
 20
133.693689158
  0
LWPOLYLINE
  5
3A6
100
AcDbEntity
  8
0
100
AcDbPolyline
 62
250
  6
CONTINUOUS
 90
4
 70
0
 10
101.3541898759
 20
81.1459435347
 10
101.3370071198
 20
81.157060703
 10
101.3194556423
 20
81.1705546489
 10
101.3017078835
 20
81.1862943946
  0
LINE
  5
3A7
100
AcDbEntity
  8
0
100
AcDbLine
 62
7
  6
CONTINUOUS
 10
99.0016586513
 20
132.4899917763
 11
99.1516586513
 21
132.6399917763
  0
LINE
  5
3A8
100
AcDbEntity
  8
0
100
AcDbLine
 62
7
  6
CONTINUOUS
 10
99.5016586513
 20
132.4899917763
 11
99.6516586513
 21
132.6399917763
  0
LINE
  5
3A9
100
AcDbEntity
  8
0
100
AcDbLine
 62
7
  6
CONTINUOUS
 10
99.0016586513
 20
82.3899917763
 11
99.1516586513
 21
82.2399917763
  0
LINE
  5
3AA
100
AcDbEntity
  8
0
100
AcDbLine
 62
7
  6
CONTINUOUS
 10
99.5016586513
 20
82.3899917763
 11
99.6516586513
 21
82.2399917763
  0
LWPOLYLINE
  5
3AB
100
AcDbEntity
  8
0
100
AcDbPolyline
 62
7
  6
CONTINUOUS
 90
13
 70
0
 43
0.3500000006
 10
82.2730605469
 20
172.3161086426
 10
82.2730605469
 20
173.6018155518
 10
82.4873450317
 20
174.0303845215
 10
82.9159140015
 20
174.4589534912
 10
83.1301984863
 20
174.4589534912
 10
83.5587674561
 20
174.0303845215
 10
83.7730610046
 20
173.6018155518
 10
83.7730610046
 20
172.3161086426
 10
83.5587674561
 20
171.8875215454
 10
83.1301984863
 20
171.4589525757
 10
82.9159140015
 20
171.4589525757
 10
82.4873450317
 20
171.8875215454
 10
82.2730605469
 20
172.3161086426
  0
LWPOLYLINE
  5
3AC
100
AcDbEntity
  8
0
100
AcDbPolyline
 62
7
  6
CONTINUOUS
 90
4
 70
0
 43
0.3500000006
 10
82.831585144
 20
164.9710869141
 10
82.831585144
 20
165.6139403687
 10
84.3315856018
 20
165.6139403687
 10
83.4744476624
 20
162.6139394531
  0
LWPOLYLINE
  5
3AD
100
AcDbEntity
  8
0
100
AcDbPolyline
 62
250
  6
CONTINUOUS
 90
9
 70
0
 10
99.8715914878
 20
80.3653915738
 10
99.8788521608
 20
80.3561963991
 10
99.8858980471
 20
80.3477976881
 10
99.8926449547
 20
80.3403674271
 10
99.8989675734
 20
80.3341199413
 10
99.9047422042
 20
80.329257979
 10
99.9098475278
 20
80.3259814511
 10
99.914163702
 20
80.3244889338
 10
99.917564885
 20
80.3249759802
  0
LWPOLYLINE
  5
3AE
100
AcDbEntity
  8
0
100
AcDbPolyline
 62
250
  6
CONTINUOUS
 90
19
 70
0
 10
99.7774312351
 20
134.3676710202
 10
99.785389123
 20
134.3814861442
 10
99.7936999757
 20
134.3956841001
 10
99.80233032
 20
134.4101717566
 10
99.8112475058
 20
134.4248611503
 10
99.8203915321
 20
134.4396077984
 10
99.829676501
 20
134.4542178005
 10
99.8390296344
 20
134.468531575
 10
99.8483804486
 20
134.4824034204
 10
99.8576356501
 20
134.4956492795
 10
99.8667313344
 20
134.5081264125
 10
99.8755315487
 20
134.5195925575
 10
99.8838425327
 20
134.529747754
 10
99.891588667
 20
134.5384519333
 10
99.8986511294
 20
134.5455268198
 10
99.9048307069
 20
134.5507557573
 10
99.9100499785
 20
134.5540812837
 10
99.9143063444
 20
134.5555045421
 10
99.917564885
 20
134.5550075724
  0
LWPOLYLINE
  5
3AF
100
AcDbEntity
  8
0
100
AcDbPolyline
 62
7
  6
CONTINUOUS
 90
7
 70
0
 10
101.8237997363
 20
81.4634300588
 10
101.8320696971
 20
81.4493778964
 10
101.8389808879
 20
81.4362962605
 10
101.8444566786
 20
81.4241851513
 10
101.8484302857
 20
81.4130445686
 10
101.8508457159
 20
81.4028745126
 10
101.8516586513
 20
81.3936749831
  0
LWPOLYLINE
  5
3B0
100
AcDbEntity
  8
0
100
AcDbPolyline
 62
250
  6
CONTINUOUS
 90
14
 70
0
 10
99.7774312351
 20
80.5123125324
 10
99.7842044139
 20
80.5005191191
 10
99.7910843659
 20
80.4887037339
 10
99.7980541058
 20
80.4769052926
 10
99.8050574837
 20
80.465224707
 10
99.8121123264
 20
80.4536435808
 10
99.8193063548
 20
80.4420409259
 10
99.8266250432
 20
80.4304637423
 10
99.834020168
 20
80.4190077513
 10
99.8415153996
 20
80.4076621048
 10
99.8490720635
 20
80.3965165626
 10
99.8566291345
 20
80.3856944426
 10
99.8641602212
 20
80.3752711375
 10
99.8715914878
 20
80.3653915738
  0
LINE
  5
3B1
100
AcDbEntity
  8
0
100
AcDbLine
 62
7
  6
CONTINUOUS
 10
91.7016586513
 20
63.6687228165
 11
91.7016586513
 21
151.2112607361
  0
LINE
  5
3B2
100
AcDbEntity
  8
ASSI
100
AcDbLine
 62
7
  6
CONTINUOUS
 10
91.7016586513
 20
63.6687228165
 11
91.7016586513
 21
151.2112607361
  0
LINE
  5
3B3
100
AcDbEntity
  8
0
100
AcDbLine
 62
7
  6
CONTINUOUS
 10
92.6861111091
 20
62.649292454
 11
92.6861111091
 21
63.6200063064
  0
LINE
  5
3B4
100
AcDbEntity
  8
ASSI
100
AcDbLine
 62
7
  6
CONTINUOUS
 10
92.6861111091
 20
62.649292454
 11
92.6861111091
 21
63.6200063064
  0
LINE
  5
3B5
100
AcDbEntity
  8
0
100
AcDbLine
 62
7
  6
CONTINUOUS
 10
92.6861111091
 20
151.2599772462
 11
92.6861111091
 21
152.2306910986
  0
LINE
  5
3B6
100
AcDbEntity
  8
ASSI
100
AcDbLine
 62
7
  6
CONTINUOUS
 10
92.6861111091
 20
151.2599772462
 11
92.6861111091
 21
152.2306910986
  0
LINE
  5
3B7
100
AcDbEntity
  8
0
100
AcDbLine
 62
7
  6
CONTINUOUS
 10
92.7010494783
 20
63.6344321219
 11
92.7010494783
 21
151.2455514307
  0
LINE
  5
3B8
100
AcDbEntity
  8
ASSI
100
AcDbLine
 62
7
  6
CONTINUOUS
 10
92.7010494783
 20
63.6344321219
 11
92.7010494783
 21
151.2455514307
  0
LINE
  5
3B9
100
AcDbEntity
  8
0
100
AcDbLine
 62
7
  6
CONTINUOUS
 10
98.2516586513
 20
62.4399917763
 11
98.2516586513
 21
152.4399917763
  0
LINE
  5
3BA
100
AcDbEntity
  8
ASSI
100
AcDbLine
 62
7
  6
CONTINUOUS
 10
98.2516586513
 20
62.4399917763
 11
98.2516586513
 21
152.4399917763
  0
LINE
  5
3BB
100
AcDbEntity
  8
0
100
AcDbLine
 62
7
  6
CONTINUOUS
 10
98.8516586513
 20
64.6399917763
 11
98.8516586513
 21
150.2399917763
  0
LINE
  5
3BC
100
AcDbEntity
  8
0
100
AcDbLine
 62
250
  6
CONTINUOUS
 10
99.77749601
 20
80.2902140645
 11
99.7774312351
 21
80.5123125324
  0
LINE
  5
3BD
100
AcDbEntity
  8
0
100
AcDbLine
 62
250
  6
CONTINUOUS
 10
99.7774312351
 20
134.3676710202
 11
99.7774958573
 21
134.5897678215
  0
LWPOLYLINE
  5
3BE
100
AcDbEntity
  8
0
100
AcDbPolyline
 62
7
  6
CONTINUOUS
 90
7
 70
0
 10
101.8516586513
 20
133.4863085695
 10
101.8508458666
 20
133.4771101129
 10
101.8484307648
 20
133.4669407005
 10
101.8444574796
 20
133.4558003324
 10
101.838981826
 20
133.4436890086
 10
101.8320704194
 20
133.4306067291
 10
101.8237997363
 20
133.4165534938
  0
LWPOLYLINE
  5
3BF
100
AcDbEntity
  8
0
100
AcDbPolyline
 62
250
  6
CONTINUOUS
 90
3
 70
0
 10
101.301806904
 20
133.7769970622
 10
101.3017642499
 20
133.7804136457
 10
101.3017078835
 20
133.7815556367
  0
LINE
  5
3C0
100
AcDbEntity
  8
0
100
AcDbLine
 62
250
  6
CONTINUOUS
 10
101.3018498825
 20
133.7634608234
 11
101.301806904
 21
133.7769970622
  0
LINE
  5
3C1
100
AcDbEntity
  8
0
100
AcDbLine
 62
250
  6
CONTINUOUS
 10
101.3018498825
 20
81.1165227292
 11
101.3017078835
 21
81.1862943946
  0
LINE
  5
3C2
100
AcDbEntity
  8
0
100
AcDbLine
 62
250
  6
CONTINUOUS
 10
101.6621258426
 20
133.319978444
 11
101.6621258426
 21
132.8210384954
  0
LINE
  5
3C3
100
AcDbEntity
  8
0
100
AcDbLine
 62
250
  6
CONTINUOUS
 10
101.6621258426
 20
82.0589450572
 11
101.6621258426
 21
81.5600051087
  0
LINE
  5
3C4
100
AcDbEntity
  8
0
100
AcDbLine
 62
7
  6
CONTINUOUS
 10
101.8516586513
 20
133.5283561167
 11
101.8516586513
 21
132.8399917763
  0
LINE
  5
3C5
100
AcDbEntity
  8
0
100
AcDbLine
 62
7
  6
CONTINUOUS
 10
101.8516586513
 20
82.0399917763
 11
101.8516586513
 21
81.3516274359
  0
LINE
  5
3C6
100
AcDbEntity
  8
0
100
AcDbLine
 62
250
  6
CONTINUOUS
 10
101.3017078835
 20
133.693689158
 11
101.3018498825
 21
133.7634608234
  0
LWPOLYLINE
  5
3C7
100
AcDbEntity
  8
0
100
AcDbPolyline
 62
250
  6
CONTINUOUS
 90
4
 70
0
 10
101.3017078835
 20
81.098427916
 10
101.3017642499
 20
81.099569907
 10
101.301806904
 20
81.1029864904
 10
101.3018498825
 20
81.1165227292
  0
LWPOLYLINE
  5
3C8
100
AcDbEntity
  8
0
100
AcDbPolyline
 62
7
  6
CONTINUOUS
 90
10
 70
0
 43
0.3500000006
 10
85.8315860596
 20
163.1139486694
 10
85.9030172424
 20
162.9710863037
 10
85.9030172424
 20
162.8996641846
 10
85.7601639404
 20
162.7568018188
 10
85.6887327576
 20
162.7568018188
 10
85.6173015747
 20
162.8282420654
 10
85.6173015747
 20
162.8996641846
 10
85.6887327576
 20
163.0425265503
 10
85.7601639404
 20
163.1139486694
 10
85.8315860596
 20
163.1139486694
  0
LINE
  5
3C9
100
AcDbEntity
  8
0
100
AcDbLine
 62
7
  6
CONTINUOUS
 10
99.1516586513
 20
82.2399917763
 11
99.3016586513
 21
82.3899917763
  0
LINE
  5
3CA
100
AcDbEntity
  8
0
100
AcDbLine
 62
7
  6
CONTINUOUS
 10
99.1516586513
 20
132.6399917763
 11
99.3016586513
 21
132.4899917763
  0
LWPOLYLINE
  5
3CB
100
AcDbEntity
  8
0
100
AcDbPolyline
 62
7
  6
CONTINUOUS
 90
10
 70
0
 43
0.3500000006
 10
85.2730614624
 20
171.958961792
 10
85.3444835815
 20
171.8160994263
 10
85.3444835815
 20
171.7446773071
 10
85.2016302795
 20
171.6018149414
 10
85.1301990967
 20
171.6018149414
 10
85.0587679138
 20
171.6732370605
 10
85.0587679138
 20
171.7446773071
 10
85.1301990967
 20
171.8875215454
 10
85.2016302795
 20
171.958961792
 10
85.2730614624
 20
171.958961792
  0
LINE
  5
3CC
100
AcDbEntity
  8
0
100
AcDbLine
 62
250
  6
CONTINUOUS
 10
99.7774312351
 20
80.5123125324
 11
100.8769500949
 21
81.0959567474
  0
LINE
  5
3CD
100
AcDbEntity
  8
0
100
AcDbLine
 62
250
  6
CONTINUOUS
 10
101.3017078835
 20
81.1862943946
 11
101.8237997363
 21
81.4634300588
  0
LINE
  5
3CE
100
AcDbEntity
  8
0
100
AcDbLine
 62
7
  6
CONTINUOUS
 10
99.9166706131
 20
80.3245012848
 11
101.8516586513
 21
81.3516274359
  0
LWPOLYLINE
  5
3CF
100
AcDbEntity
  8
0
100
AcDbPolyline
 62
250
  6
CONTINUOUS
 90
7
 70
0
 10
101.4406198126
 20
81.1334406916
 10
101.4289260366
 20
81.1289042613
 10
101.4159663262
 20
81.1270196602
 10
101.401868905
 20
81.1278037188
 10
101.3867754705
 20
81.1312462786
 10
101.3708327629
 20
81.1373117446
 10
101.3541898759
 20
81.1459435347
  0
LINE
  5
3D0
100
AcDbEntity
  8
0
100
AcDbLine
 62
7
  6
CONTINUOUS
 10
99.9012867492
 20
132.6449545861
 11
101.8516586513
 21
132.8399917763
  0
LINE
  5
3D1
100
AcDbEntity
  8
0
100
AcDbLine
 62
7
  6
CONTINUOUS
 10
98.8516586513
 20
133.1958116509
 11
101.6621258426
 21
133.319978444
  0
LINE
  5
3D2
100
AcDbEntity
  8
0
100
AcDbLine
 62
7
  6
CONTINUOUS
 10
98.8516586513
 20
132.4899917763
 11
99.0016586513
 21
132.4899917763
  0
LINE
  5
3D3
100
AcDbEntity
  8
0
100
AcDbLine
 62
7
  6
CONTINUOUS
 10
99.3016586513
 20
132.4899917763
 11
99.5016586513
 21
132.4899917763
  0
LINE
  5
3D4
100
AcDbEntity
  8
0
100
AcDbLine
 62
7
  6
CONTINUOUS
 10
98.8516586513
 20
132.6399917763
 11
99.8017830302
 21
132.6399917763
  0
LINE
  5
3D5
100
AcDbEntity
  8
0
100
AcDbLine
 62
250
  6
CONTINUOUS
 10
99.7774312351
 20
134.3676710202
 11
98.8516586513
 21
134.3680892148
  0
LINE
  5
3D6
100
AcDbEntity
  8
0
100
AcDbLine
 62
7
  6
CONTINUOUS
 10
99.7774958023
 20
134.590121215
 11
98.8516586513
 21
134.5917371073
  0
LINE
  5
3D7
100
AcDbEntity
  8
0
100
AcDbLine
 62
250
  6
CONTINUOUS
 10
101.3017078835
 20
133.693689158
 11
98.8516586513
 21
133.7079431275
  0
LINE
  5
3D8
100
AcDbEntity
  8
0
100
AcDbLine
 62
7
  6
CONTINUOUS
 10
101.3017078835
 20
133.7815556367
 11
98.8516586513
 21
133.7958096061
  0
LWPOLYLINE
  5
3D9
100
AcDbEntity
  8
0
100
AcDbPolyline
 62
250
  6
CONTINUOUS
 90
7
 70
0
 10
101.4406198126
 20
133.746542861
 10
101.4288732292
 20
133.7510930164
 10
101.4158780165
 20
133.7529674248
 10
101.4017706877
 20
133.7521655528
 10
101.386719738
 20
133.7487201841
 10
101.3708586776
 20
133.7426834931
 10
101.3542732072
 20
133.7340886421
  0
LINE
  5
3DA
100
AcDbEntity
  8
0
100
AcDbLine
 62
250
  6
CONTINUOUS
 10
100.8769500949
 20
133.7840268052
 11
99.7774312351
 21
134.3676710202
  0
LINE
  5
3DB
100
AcDbEntity
  8
0
100
AcDbLine
 62
250
  6
CONTINUOUS
 10
101.8237997363
 20
133.4165534938
 11
101.3017078835
 21
133.693689158
  0
LINE
  5
3DC
100
AcDbEntity
  8
0
100
AcDbLine
 62
7
  6
CONTINUOUS
 10
99.9166706131
 20
134.5554822679
 11
101.8516586513
 21
133.5283561167
  0
LINE
  5
3DD
100
AcDbEntity
  8
0
100
AcDbLine
 62
7
  6
CONTINUOUS
 10
92.7010494783
 20
63.6344321219
 11
92.6861111091
 21
63.6200063064
  0
LINE
  5
3DE
100
AcDbEntity
  8
ASSI
100
AcDbLine
 62
7
  6
CONTINUOUS
 10
92.7010494783
 20
63.6344321219
 11
92.6861111091
 21
63.6200063064
  0
LINE
  5
3DF
100
AcDbEntity
  8
0
100
AcDbLine
 62
7
  6
CONTINUOUS
 10
92.6861111091
 20
151.2599772462
 11
92.7010494783
 21
151.2455514307
  0
LINE
  5
3E0
100
AcDbEntity
  8
ASSI
100
AcDbLine
 62
7
  6
CONTINUOUS
 10
92.6861111091
 20
151.2599772462
 11
92.7010494783
 21
151.2455514307
  0
LINE
  5
3E1
100
AcDbEntity
  8
0
100
AcDbLine
 62
250
  6
CONTINUOUS
 10
98.2516586513
 20
148.9012024238
 11
98.8516586513
 21
148.943158511
  0
LINE
  5
3E2
100
AcDbEntity
  8
0
100
AcDbLine
 62
7
  6
CONTINUOUS
 10
98.2516586513
 20
150.1980356891
 11
98.8516586513
 21
150.2399917763
  0
LINE
  5
3E3
100
AcDbEntity
  8
0
100
AcDbLine
 62
7
  6
CONTINUOUS
 10
92.7010494783
 20
151.2455514307
 11
98.2516586513
 21
151.4393829742
  0
LINE
  5
3E4
100
AcDbEntity
  8
ASSI
100
AcDbLine
 62
7
  6
CONTINUOUS
 10
92.7010494783
 20
151.2455514307
 11
98.2516586513
 21
151.4393829742
  0
LINE
  5
3E5
100
AcDbEntity
  8
0
100
AcDbLine
 62
7
  6
CONTINUOUS
 10
92.7010494783
 20
152.2461602328
 11
98.2516586513
 21
152.4399917763
  0
LINE
  5
3E6
100
AcDbEntity
  8
ASSI
100
AcDbLine
 62
7
  6
CONTINUOUS
 10
92.7010494783
 20
152.2461602328
 11
98.2516586513
 21
152.4399917763
  0
LWPOLYLINE
  5
3E7
100
AcDbEntity
  8
0
100
AcDbPolyline
 62
7
  6
CONTINUOUS
 90
8
 70
0
 43
0.3500000006
 10
88.6173024902
 20
162.6139394531
 10
89.4744494934
 20
162.6139394531
 10
89.9030184631
 20
163.0425265503
 10
89.9030184631
 20
163.8996644897
 10
89.4744494934
 20
164.3282334595
 10
88.6173024902
 20
164.3282334595
 10
88.6173024902
 20
165.6139403687
 10
89.9030184631
 20
165.6139403687
  0
LWPOLYLINE
  5
3E8
100
AcDbEntity
  8
0
100
AcDbPolyline
 62
7
  6
CONTINUOUS
 90
8
 70
0
 43
0.3500000006
 10
88.0587688293
 20
171.4589525757
 10
88.9159158325
 20
171.4589525757
 10
89.3444848022
 20
171.8875215454
 10
89.3444848022
 20
172.7446776123
 10
88.9159158325
 20
173.173246582
 10
88.0587688293
 20
173.173246582
 10
88.0587688293
 20
174.4589534912
 10
89.3444848022
 20
174.4589534912
  0
ARC
  5
3E9
100
AcDbEntity
  8
0
100
AcDbCircle
 62
7
  6
CONTINUOUS
 10
157.9112212171
 20
100.7399917763
 40
1.7
100
AcDbArc
 50
180.0
 51
270.0
  0
ARC
  5
3EA
100
AcDbEntity
  8
0
100
AcDbCircle
 62
7
  6
CONTINUOUS
 10
171.3112212171
 20
100.7399917763
 40
1.7
100
AcDbArc
 50
270.0
 51
360.0
  0
ARC
  5
3EB
100
AcDbEntity
  8
0
100
AcDbCircle
 62
7
  6
CONTINUOUS
 10
180.4112212171
 20
100.7399917763
 40
1.7
100
AcDbArc
 50
180.0
 51
270.0
  0
ARC
  5
3EC
100
AcDbEntity
  8
ASSI
100
AcDbCircle
 62
7
  6
CONTINUOUS
 10
157.9112212171
 20
100.7399917763
 40
1.7
100
AcDbArc
 50
180.0
 51
270.0
  0
ARC
  5
3ED
100
AcDbEntity
  8
ASSI
100
AcDbCircle
 62
7
  6
CONTINUOUS
 10
171.3112212171
 20
100.7399917763
 40
1.7
100
AcDbArc
 50
270.0
 51
360.0
  0
ARC
  5
3EE
100
AcDbEntity
  8
ASSI
100
AcDbCircle
 62
7
  6
CONTINUOUS
 10
180.4112212171
 20
100.7399917763
 40
1.7
100
AcDbArc
 50
180.0
 51
270.0
  0
ARC
  5
3EF
100
AcDbEntity
  8
0
100
AcDbCircle
 62
7
  6
CONTINUOUS
 10
157.9112212171
 20
100.7399917763
 40
1.2
100
AcDbArc
 50
180.0
 51
270.0
  0
ARC
  5
3F0
100
AcDbEntity
  8
0
100
AcDbCircle
 62
7
  6
CONTINUOUS
 10
171.3112212171
 20
100.7399917763
 40
1.2
100
AcDbArc
 50
270.0
 51
360.0
  0
ARC
  5
3F1
100
AcDbEntity
  8
0
100
AcDbCircle
 62
7
  6
CONTINUOUS
 10
180.4112212171
 20
100.7399917763
 40
1.2
100
AcDbArc
 50
180.0
 51
270.0
  0
ARC
  5
3F2
100
AcDbEntity
  8
ASSI
100
AcDbCircle
 62
7
  6
CONTINUOUS
 10
157.9112212171
 20
100.7399917763
 40
1.2
100
AcDbArc
 50
180.0
 51
270.0
  0
ARC
  5
3F3
100
AcDbEntity
  8
ASSI
100
AcDbCircle
 62
7
  6
CONTINUOUS
 10
171.3112212171
 20
100.7399917763
 40
1.2
100
AcDbArc
 50
270.0
 51
360.0
  0
ARC
  5
3F4
100
AcDbEntity
  8
ASSI
100
AcDbCircle
 62
7
  6
CONTINUOUS
 10
180.4112212171
 20
100.7399917763
 40
1.2
100
AcDbArc
 50
180.0
 51
270.0
  0
ARC
  5
3F5
100
AcDbEntity
  8
0
100
AcDbCircle
 62
7
  6
CONTINUOUS
 10
157.9112212171
 20
114.1399917763
 40
1.7
100
AcDbArc
 50
90.0
 51
180.0
  0
ARC
  5
3F6
100
AcDbEntity
  8
0
100
AcDbCircle
 62
7
  6
CONTINUOUS
 10
171.3112212171
 20
114.1399917763
 40
1.7
100
AcDbArc
 50
0.0
 51
90.0
  0
ARC
  5
3F7
100
AcDbEntity
  8
0
100
AcDbCircle
 62
7
  6
CONTINUOUS
 10
180.4112212171
 20
114.1399917763
 40
1.7
100
AcDbArc
 50
90.0
 51
180.0
  0
ARC
  5
3F8
100
AcDbEntity
  8
ASSI
100
AcDbCircle
 62
7
  6
CONTINUOUS
 10
157.9112212171
 20
114.1399917763
 40
1.7
100
AcDbArc
 50
90.0
 51
180.0
  0
ARC
  5
3F9
100
AcDbEntity
  8
ASSI
100
AcDbCircle
 62
7
  6
CONTINUOUS
 10
171.3112212171
 20
114.1399917763
 40
1.7
100
AcDbArc
 50
0.0
 51
90.0
  0
ARC
  5
3FA
100
AcDbEntity
  8
ASSI
100
AcDbCircle
 62
7
  6
CONTINUOUS
 10
180.4112212171
 20
114.1399917763
 40
1.7
100
AcDbArc
 50
90.0
 51
180.0
  0
ARC
  5
3FB
100
AcDbEntity
  8
0
100
AcDbCircle
 62
7
  6
CONTINUOUS
 10
157.9112212171
 20
114.1399917763
 40
1.2
100
AcDbArc
 50
90.0
 51
180.0
  0
ARC
  5
3FC
100
AcDbEntity
  8
0
100
AcDbCircle
 62
7
  6
CONTINUOUS
 10
171.3112212171
 20
114.1399917763
 40
1.2
100
AcDbArc
 50
0.0
 51
90.0
  0
ARC
  5
3FD
100
AcDbEntity
  8
0
100
AcDbCircle
 62
7
  6
CONTINUOUS
 10
180.4112212171
 20
114.1399917763
 40
1.2
100
AcDbArc
 50
90.0
 51
180.0
  0
ARC
  5
3FE
100
AcDbEntity
  8
ASSI
100
AcDbCircle
 62
7
  6
CONTINUOUS
 10
157.9112212171
 20
114.1399917763
 40
1.2
100
AcDbArc
 50
90.0
 51
180.0
  0
ARC
  5
3FF
100
AcDbEntity
  8
ASSI
100
AcDbCircle
 62
7
  6
CONTINUOUS
 10
171.3112212171
 20
114.1399917763
 40
1.2
100
AcDbArc
 50
0.0
 51
90.0
  0
ARC
  5
400
100
AcDbEntity
  8
ASSI
100
AcDbCircle
 62
7
  6
CONTINUOUS
 10
180.4112212171
 20
114.1399917763
 40
1.2
100
AcDbArc
 50
90.0
 51
180.0
  0
ARC
  5
401
100
AcDbEntity
  8
0
100
AcDbCircle
 62
7
  6
CONTINUOUS
 10
193.8112212171
 20
100.7399917763
 40
1.7
100
AcDbArc
 50
270.0
 51
360.0
  0
ARC
  5
402
100
AcDbEntity
  8
0
100
AcDbCircle
 62
7
  6
CONTINUOUS
 10
202.9112212171
 20
100.7399917763
 40
1.7
100
AcDbArc
 50
180.0
 51
270.0
  0
ARC
  5
403
100
AcDbEntity
  8
0
100
AcDbCircle
 62
7
  6
CONTINUOUS
 10
216.3112212171
 20
100.7399917763
 40
1.7
100
AcDbArc
 50
270.0
 51
360.0
  0
ARC
  5
404
100
AcDbEntity
  8
ASSI
100
AcDbCircle
 62
7
  6
CONTINUOUS
 10
193.8112212171
 20
100.7399917763
 40
1.7
100
AcDbArc
 50
270.0
 51
360.0
  0
ARC
  5
405
100
AcDbEntity
  8
ASSI
100
AcDbCircle
 62
7
  6
CONTINUOUS
 10
202.9112212171
 20
100.7399917763
 40
1.7
100
AcDbArc
 50
180.0
 51
270.0
  0
ARC
  5
406
100
AcDbEntity
  8
ASSI
100
AcDbCircle
 62
7
  6
CONTINUOUS
 10
216.3112212171
 20
100.7399917763
 40
1.7
100
AcDbArc
 50
270.0
 51
360.0
  0
ARC
  5
407
100
AcDbEntity
  8
0
100
AcDbCircle
 62
7
  6
CONTINUOUS
 10
193.8112212171
 20
100.7399917763
 40
1.2
100
AcDbArc
 50
270.0
 51
360.0
  0
ARC
  5
408
100
AcDbEntity
  8
0
100
AcDbCircle
 62
7
  6
CONTINUOUS
 10
202.9112212171
 20
100.7399917763
 40
1.2
100
AcDbArc
 50
180.0
 51
270.0
  0
ARC
  5
409
100
AcDbEntity
  8
0
100
AcDbCircle
 62
7
  6
CONTINUOUS
 10
216.3112212171
 20
100.7399917763
 40
1.2
100
AcDbArc
 50
270.0
 51
360.0
  0
ARC
  5
40A
100
AcDbEntity
  8
ASSI
100
AcDbCircle
 62
7
  6
CONTINUOUS
 10
193.8112212171
 20
100.7399917763
 40
1.2
100
AcDbArc
 50
270.0
 51
360.0
  0
ARC
  5
40B
100
AcDbEntity
  8
ASSI
100
AcDbCircle
 62
7
  6
CONTINUOUS
 10
202.9112212171
 20
100.7399917763
 40
1.2
100
AcDbArc
 50
180.0
 51
270.0
  0
ARC
  5
40C
100
AcDbEntity
  8
ASSI
100
AcDbCircle
 62
7
  6
CONTINUOUS
 10
216.3112212171
 20
100.7399917763
 40
1.2
100
AcDbArc
 50
270.0
 51
360.0
  0
ARC
  5
40D
100
AcDbEntity
  8
0
100
AcDbCircle
 62
7
  6
CONTINUOUS
 10
193.8112212171
 20
114.1399917763
 40
1.7
100
AcDbArc
 50
0.0
 51
90.0
  0
ARC
  5
40E
100
AcDbEntity
  8
0
100
AcDbCircle
 62
7
  6
CONTINUOUS
 10
202.9112212171
 20
114.1399917763
 40
1.7
100
AcDbArc
 50
90.0
 51
180.0
  0
ARC
  5
40F
100
AcDbEntity
  8
0
100
AcDbCircle
 62
7
  6
CONTINUOUS
 10
216.3112212171
 20
114.1399917763
 40
1.7
100
AcDbArc
 50
0.0
 51
90.0
  0
ARC
  5
410
100
AcDbEntity
  8
ASSI
100
AcDbCircle
 62
7
  6
CONTINUOUS
 10
193.8112212171
 20
114.1399917763
 40
1.7
100
AcDbArc
 50
0.0
 51
90.0
  0
ARC
  5
411
100
AcDbEntity
  8
ASSI
100
AcDbCircle
 62
7
  6
CONTINUOUS
 10
202.9112212171
 20
114.1399917763
 40
1.7
100
AcDbArc
 50
90.0
 51
180.0
  0
ARC
  5
412
100
AcDbEntity
  8
ASSI
100
AcDbCircle
 62
7
  6
CONTINUOUS
 10
216.3112212171
 20
114.1399917763
 40
1.7
100
AcDbArc
 50
0.0
 51
90.0
  0
ARC
  5
413
100
AcDbEntity
  8
0
100
AcDbCircle
 62
7
  6
CONTINUOUS
 10
193.8112212171
 20
114.1399917763
 40
1.2
100
AcDbArc
 50
0.0
 51
90.0
  0
ARC
  5
414
100
AcDbEntity
  8
0
100
AcDbCircle
 62
7
  6
CONTINUOUS
 10
202.9112212171
 20
114.1399917763
 40
1.2
100
AcDbArc
 50
90.0
 51
180.0
  0
ARC
  5
415
100
AcDbEntity
  8
0
100
AcDbCircle
 62
7
  6
CONTINUOUS
 10
216.3112212171
 20
114.1399917763
 40
1.2
100
AcDbArc
 50
0.0
 51
90.0
  0
ARC
  5
416
100
AcDbEntity
  8
ASSI
100
AcDbCircle
 62
7
  6
CONTINUOUS
 10
193.8112212171
 20
114.1399917763
 40
1.2
100
AcDbArc
 50
0.0
 51
90.0
  0
ARC
  5
417
100
AcDbEntity
  8
ASSI
100
AcDbCircle
 62
7
  6
CONTINUOUS
 10
202.9112212171
 20
114.1399917763
 40
1.2
100
AcDbArc
 50
90.0
 51
180.0
  0
ARC
  5
418
100
AcDbEntity
  8
ASSI
100
AcDbCircle
 62
7
  6
CONTINUOUS
 10
216.3112212171
 20
114.1399917763
 40
1.2
100
AcDbArc
 50
0.0
 51
90.0
  0
ARC
  5
419
100
AcDbEntity
  8
0
100
AcDbCircle
 62
7
  6
CONTINUOUS
 10
99.8017830302
 20
133.6399917763
 40
1.0
100
AcDbArc
 50
270.0
 51
275.7105931375
  0
ARC
  5
41A
100
AcDbEntity
  8
0
100
AcDbCircle
 62
7
  6
CONTINUOUS
 10
99.8017830302
 20
81.2399917763
 40
1.0
100
AcDbArc
 50
84.2894068625
 51
90.0
  0
ARC
  5
41B
100
AcDbEntity
  8
0
100
AcDbCircle
 62
7
  6
CONTINUOUS
 10
99.7769719762
 20
134.2899912723
 40
0.3
100
AcDbArc
 50
62.0510370175
 51
89.8999998573
  0
ARC
  5
41C
100
AcDbEntity
  8
0
100
AcDbCircle
 62
7
  6
CONTINUOUS
 10
99.7769719762
 20
80.5899922803
 40
0.3
100
AcDbArc
 50
270.1000001427
 51
297.9489629825
  0
ARC
  5
41D
100
AcDbEntity
  8
0
100
AcDbCircle
 62
7
  6
CONTINUOUS
 10
101.2999625641
 20
81.398422839
 40
0.3
100
AcDbArc
 50
270.3333333333
 51
297.9601595781
  0
ARC
  5
41E
100
AcDbEntity
  8
0
100
AcDbCircle
 62
7
  6
CONTINUOUS
 10
101.2999625641
 20
133.4815607136
 40
0.3
100
AcDbArc
 50
62.0398404207
 51
89.6666666667
  0
ELLIPSE
  5
41F
100
AcDbEntity
  8
0
100
AcDbEllipse
 62
7
  6
CONTINUOUS
 10
101.6516586513
 20
81.3601930813
 30
0.0
 11
0.1417119467
 21
0.1422961243
 31
0.0
 40
0.9918061237
 41
-0.2491986107
 42
0.7350951877
  0
ELLIPSE
  5
420
100
AcDbEntity
  8
0
100
AcDbEllipse
 62
7
  6
CONTINUOUS
 10
101.6516586513
 20
133.5197904713
 30
0.0
 11
-0.1417119467
 21
0.1422961243
 31
0.0
 40
0.9918061237
 41
-3.8766878413
 42
-2.8923940429
  0
ENDSEC
  0
SECTION
  2
OBJECTS
  0
DICTIONARY
  5
C
100
AcDbDictionary
280
0
281
1
  3
ACAD_GROUP
350
D
  3
ACAD_MLINESTYLE
350
17
  3
ACAD_LAYOUT
350
1A
  3
ACAD_PLOTSETTINGS
350
19
  3
ACAD_PLOTSTYLENAME
350
E
  0
DICTIONARY
  5
D
102
{ACAD_REACTORS
330
C
102
}
100
AcDbDictionary
280
0
281
1
  0
ACDBDICTIONARYWDFLT
  5
E
102
{ACAD_REACTORS
330
C
102
}
100
AcDbDictionary
281
1
  3
Normal
350
F
100
AcDbDictionaryWithDefault
340
F
  0
DICTIONARY
  5
17
102
{ACAD_REACTORS
330
C
102
}
100
AcDbDictionary
280
0
281
1
  3
Standard
350
18
  0
DICTIONARY
  5
19
102
{ACAD_REACTORS
330
C
102
}
100
AcDbDictionary
281
1
  0
DICTIONARY
  5
1A
102
{ACAD_REACTORS
330
C
102
}
100
AcDbDictionary
281
1
  3
Model
350
421
  3
Layout1
350
422
  0
ACDBPLACEHOLDER
  5
F
102
{ACAD_REACTORS
330
E
102
}
  0
MLINESTYLE
  5
18
102
{ACAD_REACTORS
330
17
102
}
100
AcDbMlineStyle
  2
STANDARD
 70
0
  3

 62
256
 51
90.0
 52
90.0
 71
2
 49
0.5
 62
256
  6
BYLAYER
 49
-0.5
 62
256
  6
BYLAYER
  0
LAYOUT
  5
421
102
{ACAD_REACTORS
330
1A
102
}
100
AcDbPlotSettings
  1

  2
none_device
  4
ISO_A4_(297.00_x_210.00_MM)
  6

 40
0.0
 41
0.0
 42
0.0
 43
0.0
 44
297.0
 45
210.0
 46
0.0
 47
0.0
 48
0.0
 49
0.0
140
0.0
141
0.0
142
1.0
143
1.0
 70
1024
 72
1
 73
0
 74
0
  7

 75
0
147
1.0
148
0.0
149
0.0
100
AcDbLayout
  1
Model
 70
0
 71
0
 10
0.0
 20
0.0
 11
297.0
 21
210.0
 12
0.0
 22
0.0
 32
0.0
 14
0.0
 24
0.0
 34
0.0
 15
0.0
 25
0.0
 35
0.0
146
0.0
 13
0.0
 23
0.0
 33
0.0
 16
1.0
 26
0.0
 36
0.0
 17
0.0
 27
1.0
 37
0.0
 76
0
330
21E
345
0
346
0
  0
LAYOUT
  5
422
102
{ACAD_REACTORS
330
1A
102
}
100
AcDbPlotSettings
  1

  2
none_device
  4
ISO_A4_(297.00_x_210.00_MM)
  6

 40
0.0
 41
0.0
 42
0.0
 43
0.0
 44
297.0
 45
210.0
 46
0.0
 47
0.0
 48
0.0
 49
0.0
140
0.0
141
0.0
142
1.0
143
1.0
 70
0
 72
1
 73
0
 74
0
  7

 75
0
147
1.0
148
0.0
149
0.0
100
AcDbLayout
  1
Layout1
 70
0
 71
1
 10
0.0
 20
0.0
 11
297.0
 21
210.0
 12
0.0
 22
0.0
 32
0.0
 14
0.0
 24
0.0
 34
0.0
 15
0.0
 25
0.0
 35
0.0
146
0.0
 13
0.0
 23
0.0
 33
0.0
 16
1.0
 26
0.0
 36
0.0
 17
0.0
 27
1.0
 37
0.0
 76
0
330
21F
345
0
346
0
  0
ENDSEC
  0
EOF
