  0
SECTION
  2
HEADER
  9
$ACADVER
  1
AC1024
  9
$DWGCODEPAGE
  3
ANSI_1252
  9
$EXTMAX
 10
297.0
 20
210.0
 30
0.0
  9
$EXTMIN
 10
0.0
 20
0.0
 30
0.0
  9
$LIMMIN
 10
0.0
 20
0.0
  9
$LIMMAX
 10
297.0
 20
210.0
  9
$VIEWCTR
 10
148.5
 20
105.0
  9
$VIEWSIZE
 40
210.0
  9
$CLAYER
  8
0
  9
$LTSCALE
 40
16.335
  9
$CELTYPE
  6
BYLAYER
  9
$DIMSCALE
 40
1.0
  9
$DIMASZ
 40
3.0
  9
$DIMEXO
 40
0.5
  9
$DIMDLI
 40
11.286
  9
$DIMEXE
 40
1.5
  9
$DIMCEN
 40
2.673
  9
$DIMLFAC
 40
1.0
  9
$DIMBLK
  1
_FILLED
  9
$DIMALT
 70
0
  9
$DIMALTF
 40
0.0393700787
  9
$DIMTXT
 40
3.0
  9
$DIMTOL
 70
1
  9
$DIMLIM
 70
0
  9
$DIMTFAC
 40
1.0
  9
$DIMTP
 40
0.01
  9
$DIMTM
 40
0.01
  9
$DIMGAP
 40
0.625
  9
$DIMDSEP
 70
44
  9
$AUNITS
 70
0
  9
$PDMODE
 70
3
  9
$PDSIZE
 40
3.0
  9
$HANDSEED
  5
4F2
  9
$TILEMODE
 70
1
  9
$MEASUREMENT
 70
1
  9
$INSUNITS
 70
4
  0
ENDSEC
  0
SECTION
  2
CLASSES
  0
CLASS
  1
ACDBDICTIONARYWDFLT
  2
AcDbDictionaryWithDefault
  3
AutoCAD 2000
 90
0
 91
1
280
0
281
0
  0
CLASS
  1
ACDBPLACEHOLDER
  2
AcDbPlaceHolder
  3
AutoCAD 2000
 90
0
 91
1
280
0
281
0
  0
CLASS
  1
LAYOUT
  2
AcDbLayout
  3
AutoCAD 2000
 90
0
 91
0
280
0
281
0
  0
ENDSEC
  0
SECTION
  2
TABLES
  0
TABLE
  2
VPORT
  5
8
100
AcDbSymbolTable
 70
2
  0
VPORT
  5
1F4
100
AcDbSymbolTableRecord
100
AcDbViewportTableRecord
  2
*ACTIVE
 70
0
 10
0.0
 20
0.0
 11
1.0
 21
1.0
 12
148.5
 22
105.0
 13
0.0
 23
0.0
 14
1.0
 24
1.0
 15
0.0
 25
0.0
 16
0.0
 26
0.0
 36
1.0
 17
0.0
 27
0.0
 37
0.0
 40
210.0
 41
1.4142857143
 42
50.0
 43
0.0
 44
0.0
 50
0.0
 51
0.0
 71
0
 72
100
 73
1
 74
1
 75
0
 76
0
 77
0
 78
0
  0
ENDTAB
  0
TABLE
  2
LTYPE
  5
5
100
AcDbSymbolTable
 70
6
  0
LTYPE
  5
14
100
AcDbSymbolTableRecord
100
AcDbLinetypeTableRecord
  2
BYBLOCK
 70
0
  3

 72
65
 73
0
 40
0.0
  0
LTYPE
  5
15
100
AcDbSymbolTableRecord
100
AcDbLinetypeTableRecord
  2
BYLAYER
 70
0
  3

 72
65
 73
0
 40
0.0
  0
LTYPE
  5
16
100
AcDbSymbolTableRecord
100
AcDbLinetypeTableRecord
  2
CONTINUOUS
 70
64
  3
Solid line
 72
65
 73
0
 40
0.0
  0
LTYPE
  5
1F5
100
AcDbSymbolTableRecord
100
AcDbLinetypeTableRecord
  2
CENTER
 70
64
  3
____ _ ____ _ ____ _ ____ _ ____ _ ____ _ ____
 72
65
 73
4
 40
0.6
 49
0.375
 74
0
 49
-0.075
 74
0
 49
0.075
 74
0
 49
-0.075
 74
0
  0
LTYPE
  5
1F6
100
AcDbSymbolTableRecord
100
AcDbLinetypeTableRecord
  2
HIDDEN
 70
64
  3
- - - - - - - - - - - - - - - - - - - -
 72
65
 73
2
 40
0.2
 49
0.1
 74
0
 49
-0.1
 74
0
  0
LTYPE
  5
1F7
100
AcDbSymbolTableRecord
100
AcDbLinetypeTableRecord
  2
PHANTOM
 70
64
  3
_____ _ _ _____ _ _ _____ _ _ _____
 72
65
 73
6
 40
0.8
 49
0.45
 74
0
 49
-0.05
 74
0
 49
0.1
 74
0
 49
-0.05
 74
0
 49
0.1
 74
0
 49
-0.05
 74
0
  0
LTYPE
  5
1F8
100
AcDbSymbolTableRecord
100
AcDbLinetypeTableRecord
  2
DOT
 70
64
  3
. . . . . . . . . . . . . . . . . . . .
 72
65
 73
2
 40
0.2
 49
0.1
 74
0
 49
-0.1
 74
0
  0
LTYPE
  5
1F9
100
AcDbSymbolTableRecord
100
AcDbLinetypeTableRecord
  2
DASHED
 70
64
  3
- - - - - - - - - - - - - - - - - - - -
 72
65
 73
2
 40
0.2
 49
0.1
 74
0
 49
-0.1
 74
0
  0
ENDTAB
  0
TABLE
  2
LAYER
  5
2
100
AcDbSymbolTable
 70
36
  0
LAYER
  5
10
100
AcDbSymbolTableRecord
100
AcDbLayerTableRecord
  2
0
 70
0
 62
7
  6
CONTINUOUS
370
-3
390
F
  0
LAYER
  5
1FA
100
AcDbSymbolTableRecord
100
AcDbLayerTableRecord
  2
DEFAULT_1
 70
0
 62
7
  6
CENTER
370
-3
390
F
  0
LAYER
  5
1FB
100
AcDbSymbolTableRecord
100
AcDbLayerTableRecord
  2
DEFAULT_2
 70
0
 62
7
  6
HIDDEN
370
-3
390
F
  0
LAYER
  5
1FC
100
AcDbSymbolTableRecord
100
AcDbLayerTableRecord
  2
DEFAULT_3
 70
0
 62
7
  6
PHANTOM
370
-3
390
F
  0
LAYER
  5
1FD
100
AcDbSymbolTableRecord
100
AcDbLayerTableRecord
  2
ASSI
 70
0
 62
7
  6
CONTINUOUS
370
-3
390
F
  0
LAYER
  5
1FE
100
AcDbSymbolTableRecord
100
AcDbLayerTableRecord
  2
COORDINATE
 70
0
 62
7
  6
CONTINUOUS
370
-3
390
F
  0
LAYER
  5
1FF
100
AcDbSymbolTableRecord
100
AcDbLayerTableRecord
  2
COORD_ORIGINE
 70
0
 62
7
  6
CONTINUOUS
370
-3
390
F
  0
LAYER
  5
200
100
AcDbSymbolTableRecord
100
AcDbLayerTableRecord
  2
COPY_PUBLISH
 70
0
 62
7
  6
CONTINUOUS
370
-3
390
F
  0
LAYER
  5
201
100
AcDbSymbolTableRecord
100
AcDbLayerTableRecord
  2
COSMETIC
 70
0
 62
7
  6
CONTINUOUS
370
-3
390
F
  0
LAYER
  5
202
100
AcDbSymbolTableRecord
100
AcDbLayerTableRecord
  2
COSMETICI
 70
0
 62
7
  6
CONTINUOUS
370
-3
390
F
  0
LAYER
  5
203
100
AcDbSymbolTableRecord
100
AcDbLayerTableRecord
  2
CURVE
 70
0
 62
7
  6
CONTINUOUS
370
-3
390
F
  0
LAYER
  5
204
100
AcDbSymbolTableRecord
100
AcDbLayerTableRecord
  2
DRAFT
 70
0
 62
7
  6
CONTINUOUS
370
-3
390
F
  0
LAYER
  5
205
100
AcDbSymbolTableRecord
100
AcDbLayerTableRecord
  2
IMPORT_IGES
 70
0
 62
7
  6
CONTINUOUS
370
-3
390
F
  0
LAYER
  5
206
100
AcDbSymbolTableRecord
100
AcDbLayerTableRecord
  2
INTFCLR_2
 70
0
 62
7
  6
CONTINUOUS
370
-3
390
F
  0
LAYER
  5
207
100
AcDbSymbolTableRecord
100
AcDbLayerTableRecord
  2
INTF_1
 70
0
 62
7
  6
CONTINUOUS
370
-3
390
F
  0
LAYER
  5
208
100
AcDbSymbolTableRecord
100
AcDbLayerTableRecord
  2
INTF_21
 70
0
 62
7
  6
CONTINUOUS
370
-3
390
F
  0
LAYER
  5
209
100
AcDbSymbolTableRecord
100
AcDbLayerTableRecord
  2
INTF_6
 70
0
 62
7
  6
CONTINUOUS
370
-3
390
F
  0
LAYER
  5
20A
100
AcDbSymbolTableRecord
100
AcDbLayerTableRecord
  2
INTF_7
 70
0
 62
7
  6
CONTINUOUS
370
-3
390
F
  0
LAYER
  5
20B
100
AcDbSymbolTableRecord
100
AcDbLayerTableRecord
  2
INTF_CYAN
 70
0
 62
7
  6
CONTINUOUS
370
-3
390
F
  0
LAYER
  5
20C
100
AcDbSymbolTableRecord
100
AcDbLayerTableRecord
  2
LINEA_CHIUSURA
 70
0
 62
7
  6
CONTINUOUS
370
-3
390
F
  0
LAYER
  5
20D
100
AcDbSymbolTableRecord
100
AcDbLayerTableRecord
  2
LIVELLO_1
 70
0
 62
7
  6
CONTINUOUS
370
-3
390
F
  0
LAYER
  5
20E
100
AcDbSymbolTableRecord
100
AcDbLayerTableRecord
  2
NOTE
 70
0
 62
7
  6
CONTINUOUS
370
-3
390
F
  0
LAYER
  5
20F
100
AcDbSymbolTableRecord
100
AcDbLayerTableRecord
  2
PIANI
 70
0
 62
7
  6
CONTINUOUS
370
-3
390
F
  0
LAYER
  5
210
100
AcDbSymbolTableRecord
100
AcDbLayerTableRecord
  2
PIANI_ORIGINE
 70
0
 62
7
  6
CONTINUOUS
370
-3
390
F
  0
LAYER
  5
211
100
AcDbSymbolTableRecord
100
AcDbLayerTableRecord
  2
PIANI_RIFERIMENTO
 70
0
 62
7
  6
CONTINUOUS
370
-3
390
F
  0
LAYER
  5
212
100
AcDbSymbolTableRecord
100
AcDbLayerTableRecord
  2
PUNTI
 70
0
 62
7
  6
CONTINUOUS
370
-3
390
F
  0
LAYER
  5
213
100
AcDbSymbolTableRecord
100
AcDbLayerTableRecord
  2
RACCORDO
 70
0
 62
7
  6
CONTINUOUS
370
-3
390
F
  0
LAYER
  5
214
100
AcDbSymbolTableRecord
100
AcDbLayerTableRecord
  2
RGB__255__255__255__
 70
0
 62
7
  6
CONTINUOUS
370
-3
390
F
  0
LAYER
  5
215
100
AcDbSymbolTableRecord
100
AcDbLayerTableRecord
  2
RGB____0____0____0__
 70
0
 62
7
  6
CONTINUOUS
370
-3
390
F
  0
LAYER
  5
216
100
AcDbSymbolTableRecord
100
AcDbLayerTableRecord
  2
SIMBOLI
 70
0
 62
7
  6
CONTINUOUS
370
-3
390
F
  0
LAYER
  5
217
100
AcDbSymbolTableRecord
100
AcDbLayerTableRecord
  2
SMUSSO
 70
0
 62
7
  6
CONTINUOUS
370
-3
390
F
  0
LAYER
  5
218
100
AcDbSymbolTableRecord
100
AcDbLayerTableRecord
  2
SUPERFICI
 70
0
 62
7
  6
CONTINUOUS
370
-3
390
F
  0
LAYER
  5
219
100
AcDbSymbolTableRecord
100
AcDbLayerTableRecord
  2
TRASH
 70
0
 62
7
  6
CONTINUOUS
370
-3
390
F
  0
LAYER
  5
21A
100
AcDbSymbolTableRecord
100
AcDbLayerTableRecord
  2
WHITE
 70
0
 62
7
  6
CONTINUOUS
370
-3
390
F
  0
LAYER
  5
21B
100
AcDbSymbolTableRecord
100
AcDbLayerTableRecord
  2
XSEC_DATUMS
 70
0
 62
7
  6
CONTINUOUS
370
-3
390
F
  0
ENDTAB
  0
TABLE
  2
STYLE
  5
3
100
AcDbSymbolTable
 70
1
  0
STYLE
  5
11
100
AcDbSymbolTableRecord
100
AcDbTextStyleTableRecord
  2
STANDARD
 70
0
 40
0.0
 41
0.8
 50
0.0
 71
0
 42
0.2
  3
txt
  4

  0
STYLE
  5
21C
100
AcDbSymbolTableRecord
100
AcDbTextStyleTableRecord
  2
TEXTSTYLE_1
 70
0
 40
0.0
 41
0.8
 50
0.0
 71
0
 42
0.2
  3
gdt
  4

  0
ENDTAB
  0
TABLE
  2
VIEW
  5
6
100
AcDbSymbolTable
 70
0
  0
ENDTAB
  0
TABLE
  2
UCS
  5
7
100
AcDbSymbolTable
 70
0
  0
ENDTAB
  0
TABLE
  2
APPID
  5
9
100
AcDbSymbolTable
 70
1
  0
APPID
  5
21D
100
AcDbSymbolTableRecord
100
AcDbRegAppTableRecord
  2
ACAD
 70
0
  0
ENDTAB
  0
TABLE
  2
BLOCK_RECORD
  5
1
100
AcDbSymbolTable
 70
0
  0
BLOCK_RECORD
  5
21E
100
AcDbSymbolTableRecord
100
AcDbBlockTableRecord
  2
*Model_Space
  0
BLOCK_RECORD
  5
21F
100
AcDbSymbolTableRecord
100
AcDbBlockTableRecord
  2
*Paper_Space
  0
BLOCK_RECORD
  5
220
100
AcDbSymbolTableRecord
100
AcDbBlockTableRecord
  2
_FILLED
  0
BLOCK_RECORD
  5
221
100
AcDbSymbolTableRecord
100
AcDbBlockTableRecord
  2
*D0
  0
BLOCK_RECORD
  5
222
100
AcDbSymbolTableRecord
100
AcDbBlockTableRecord
  2
*D1
  0
BLOCK_RECORD
  5
223
100
AcDbSymbolTableRecord
100
AcDbBlockTableRecord
  2
*D2
  0
BLOCK_RECORD
  5
224
100
AcDbSymbolTableRecord
100
AcDbBlockTableRecord
  2
*D3
  0
ENDTAB
  0
TABLE
  2
DIMSTYLE
  5
A
100
AcDbSymbolTable
 70
1
100
AcDbDimStyleTable
 71
0
  0
DIMSTYLE
105
225
100
AcDbSymbolTableRecord
100
AcDbDimStyleTableRecord
  2
STANDARD
 70
0
  3

  4

 40
1.0
 41
3.0
 42
0.5
 43
0.38
 44
1.5
 45
0.0
 46
0.0
 47
0.01
 48
0.01
140
3.0
141
0.09
142
0.0
143
25.4
144
1.0
145
0.0
146
1.0
147
0.625
 71
1
 72
0
 73
0
 74
0
 75
0
 76
0
 77
1
 78
8
 79
2
170
0
171
1
172
0
173
0
174
0
175
0
176
0
177
0
178
0
270
2
179
2
271
2
272
2
273
2
274
2
275
0
280
0
281
0
282
0
283
1
284
8
285
0
286
0
287
3
288
0
340
11
278
44
341
220
342
220
343
220
344
220
  0
DIMSTYLE
105
226
100
AcDbSymbolTableRecord
100
AcDbDimStyleTableRecord
  2
DIMSTYLE_1
 70
0
  3

  4

 40
1.0
 41
3.0
 42
0.5
 43
0.38
 44
1.5
 45
0.0
 46
0.0
 47
0.0
 48
0.0
140
3.0
141
0.09
142
0.0
143
25.4
144
1.0
145
0.0
146
1.0
147
0.75
 71
0
 72
0
 73
0
 74
0
 75
0
 76
0
 77
1
 78
8
 79
2
170
0
171
1
172
0
173
0
174
0
175
0
176
0
177
0
178
0
270
2
179
2
271
2
272
2
273
2
274
2
275
0
280
0
281
0
282
0
283
1
284
8
285
0
286
0
287
3
288
0
340
11
278
44
341
220
342
220
343
220
344
220
  0
ENDTAB
  0
ENDSEC
  0
SECTION
  2
BLOCKS
  0
BLOCK
  5
20
100
AcDbEntity
  8
0
100
AcDbBlockBegin
  2
*Model_Space
 70
0
 10
0.0
 20
0.0
 30
0.0
  3
*Model_Space
  1

  0
ENDBLK
  5
21
100
AcDbEntity
  8
0
100
AcDbBlockEnd
  0
BLOCK
  5
1C
100
AcDbEntity
  8
0
100
AcDbBlockBegin
  2
*Paper_Space
 70
0
 10
0.0
 20
0.0
 30
0.0
  3
*Paper_Space
  1

  0
ENDBLK
  5
1D
100
AcDbEntity
  8
0
100
AcDbBlockEnd
  0
BLOCK
  5
227
100
AcDbEntity
  8
0
100
AcDbBlockBegin
  2
_FILLED
 70
64
 10
0.0
 20
0.0
  3
_FILLED
  1

  0
SOLID
  5
228
100
AcDbEntity
  8
0
  6
BYBLOCK
 62
0
100
AcDbTrace
 10
0.0
 20
0.0
 11
-1.0
 21
0.3166666667
 12
-1.0
 22
-0.3166666667
 13
-1.0
 23
-0.3166666667
  0
ENDBLK
  5
229
100
AcDbEntity
  8
0
  6
BYBLOCK
 62
0
100
AcDbBlockEnd
  0
BLOCK
  5
22A
100
AcDbEntity
  8
0
100
AcDbBlockBegin
 62
7
  6
CONTINUOUS
  2
*D0
 70
65
 10
0.0
 20
0.0
  3
*D0
  1

  0
MTEXT
  5
22B
100
AcDbEntity
  8
0
100
AcDbMText
 62
7
  6
CONTINUOUS
  7
STANDARD
 71
3
 72
1
 10
-123.6685969778
 20
61.6628202154
 30
0.0
 11
1.0
 21
0.0
 31
0.0
 73
2
 44
0.9
  1
{\ftxt;\W0.0001;\H0.0001;\~}{\ftxt;\W2.6428571429;\H3.0; }{\ftxt;\W0.0001;\H0.0001;\~}
 40
3.0
 41
11.8928571429
  0
LINE
  5
22C
100
AcDbEntity
  8
0
100
AcDbLine
 62
7
  6
CONTINUOUS
 10
-113.5106222399
 20
41.7038975196
 11
-113.5106222399
 21
59.4128202154
  0
LINE
  5
22D
100
AcDbEntity
  8
0
100
AcDbLine
 62
7
  6
CONTINUOUS
 10
-120.6606222399
 20
43.8767374102
 11
-120.6606222399
 21
59.4128202154
  0
LINE
  5
22E
100
AcDbEntity
  8
0
100
AcDbLine
 62
7
  6
CONTINUOUS
 10
-113.5106222399
 20
57.9128202154
 11
-117.0856222399
 21
57.9128202154
  0
LINE
  5
22F
100
AcDbEntity
  8
0
100
AcDbLine
 62
7
  6
CONTINUOUS
 10
-120.6606222399
 20
57.9128202154
 11
-117.0856222399
 21
57.9128202154
  0
LINE
  5
230
100
AcDbEntity
  8
0
100
AcDbLine
 62
7
  6
CONTINUOUS
 10
-117.0856222399
 20
57.9128202154
 11
-131.5971684063
 21
57.9128202154
  0
INSERT
  5
231
100
AcDbEntity
  8
0
100
AcDbBlockReference
 62
7
  6
CONTINUOUS
  2
_FILLED
 10
-113.5106222399
 20
57.9128202154
 41
3.0
 42
3.0
 43
3.0
  0
INSERT
  5
232
100
AcDbEntity
  8
0
100
AcDbBlockReference
 62
7
  6
CONTINUOUS
  2
_FILLED
 10
-120.6606222399
 20
57.9128202154
 41
3.0
 42
3.0
 43
3.0
 50
180.0
  0
ENDBLK
  5
233
100
AcDbEntity
  8
0
  6
BYBLOCK
 62
0
100
AcDbBlockEnd
  0
BLOCK
  5
234
100
AcDbEntity
  8
0
100
AcDbBlockBegin
 62
7
  6
CONTINUOUS
  2
*D1
 70
65
 10
0.0
 20
0.0
  3
*D1
  1

  0
MTEXT
  5
235
100
AcDbEntity
  8
0
100
AcDbMText
 62
7
  6
CONTINUOUS
  7
STANDARD
 71
3
 72
1
 10
-123.865820719
 20
71.2653867468
 30
0.0
 11
1.0
 21
0.0
 31
0.0
 73
2
 44
0.9
  1
{\ftxt;\W0.0001;\H0.0001;\~}{\ftxt;\W3.2142857143;\H3.0; }{\ftxt;\W0.0001;\H0.0001;\~}
 40
3.0
 41
14.4642857143
  0
LINE
  5
236
100
AcDbEntity
  8
0
100
AcDbLine
 62
7
  6
CONTINUOUS
 10
-120.6606222399
 20
43.8767374102
 11
-120.6606222399
 21
69.0153867468
  0
LINE
  5
237
100
AcDbEntity
  8
0
100
AcDbLine
 62
7
  6
CONTINUOUS
 10
-110.5106222399
 20
26.5463167932
 11
-110.5106222399
 21
69.0153867468
  0
LINE
  5
238
100
AcDbEntity
  8
0
100
AcDbLine
 62
7
  6
CONTINUOUS
 10
-120.6606222399
 20
67.5153867468
 11
-115.5856222399
 21
67.5153867468
  0
LINE
  5
239
100
AcDbEntity
  8
0
100
AcDbLine
 62
7
  6
CONTINUOUS
 10
-115.5856222399
 20
67.5153867468
 11
-133.5086778618
 21
67.5153867468
  0
LINE
  5
23A
100
AcDbEntity
  8
0
100
AcDbLine
 62
7
  6
CONTINUOUS
 10
-110.5106222399
 20
67.5153867468
 11
-115.5856222399
 21
67.5153867468
  0
INSERT
  5
23B
100
AcDbEntity
  8
0
100
AcDbBlockReference
 62
7
  6
CONTINUOUS
  2
_FILLED
 10
-120.6606222399
 20
67.5153867468
 41
3.0
 42
3.0
 43
3.0
 50
180.0
  0
INSERT
  5
23C
100
AcDbEntity
  8
0
100
AcDbBlockReference
 62
7
  6
CONTINUOUS
  2
_FILLED
 10
-110.5106222399
 20
67.5153867468
 41
3.0
 42
3.0
 43
3.0
  0
ENDBLK
  5
23D
100
AcDbEntity
  8
0
  6
BYBLOCK
 62
0
100
AcDbBlockEnd
  0
BLOCK
  5
23E
100
AcDbEntity
  8
0
100
AcDbBlockBegin
 62
7
  6
CONTINUOUS
  2
*D2
 70
65
 10
0.0
 20
0.0
  3
*D2
  1

  0
MTEXT
  5
23F
100
AcDbEntity
  8
0
100
AcDbMText
 62
7
  6
CONTINUOUS
  7
STANDARD
 71
2
 72
1
 10
0.0
 20
60.0512457968
 30
0.0
 11
1.0
 21
0.0
 31
0.0
 73
2
 44
0.9
  1
{\ftxt;\W0.0001;\H0.0001;\~}{\ftxt;\W3.3571428571;\H3.0; }{\ftxt;\W0.0001;\H0.0001;\~}
 40
3.0
 41
15.1071428571
  0
LINE
  5
240
100
AcDbEntity
  8
0
100
AcDbLine
 62
7
  6
CONTINUOUS
 10
-79.65
 20
44.4993911979
 11
-79.65
 21
57.8012457968
  0
LINE
  5
241
100
AcDbEntity
  8
0
100
AcDbLine
 62
7
  6
CONTINUOUS
 10
79.65
 20
44.4993911979
 11
79.65
 21
57.8012457968
  0
LINE
  5
242
100
AcDbEntity
  8
0
100
AcDbLine
 62
7
  6
CONTINUOUS
 10
-79.65
 20
56.3012457968
 11
0.0
 21
56.3012457968
  0
LINE
  5
243
100
AcDbEntity
  8
0
100
AcDbLine
 62
7
  6
CONTINUOUS
 10
79.65
 20
56.3012457968
 11
0.0
 21
56.3012457968
  0
INSERT
  5
244
100
AcDbEntity
  8
0
100
AcDbBlockReference
 62
7
  6
CONTINUOUS
  2
_FILLED
 10
-79.65
 20
56.3012457968
 41
3.0
 42
3.0
 43
3.0
 50
180.0
  0
INSERT
  5
245
100
AcDbEntity
  8
0
100
AcDbBlockReference
 62
7
  6
CONTINUOUS
  2
_FILLED
 10
79.65
 20
56.3012457968
 41
3.0
 42
3.0
 43
3.0
  0
ENDBLK
  5
246
100
AcDbEntity
  8
0
  6
BYBLOCK
 62
0
100
AcDbBlockEnd
  0
BLOCK
  5
247
100
AcDbEntity
  8
0
100
AcDbBlockBegin
 62
7
  6
CONTINUOUS
  2
*D3
 70
65
 10
0.0
 20
0.0
  3
*D3
  1

  0
MTEXT
  5
248
100
AcDbEntity
  8
0
100
AcDbMText
 62
7
  6
CONTINUOUS
  7
STANDARD
 71
2
 72
1
 10
87.4406846668
 20
0.0
 30
0.0
 11
0.0
 21
1.0
 31
0.0
 73
2
 44
0.9
  1
{\ftxt;\W0.0001;\H0.0001;\~}{\ftxt;\W1.5714285714;\H3.0; }{\ftxt;\W0.0001;\H0.0001;\~}
 40
3.0
 41
7.0714285714
  0
LINE
  5
249
100
AcDbEntity
  8
0
100
AcDbLine
 62
7
  6
CONTINUOUS
 10
79.1493911979
 20
45.0
 11
92.6906846668
 21
45.0
  0
LINE
  5
24A
100
AcDbEntity
  8
0
100
AcDbLine
 62
7
  6
CONTINUOUS
 10
79.1493911979
 20
-45.0
 11
92.6906846668
 21
-45.0
  0
LINE
  5
24B
100
AcDbEntity
  8
0
100
AcDbLine
 62
7
  6
CONTINUOUS
 10
91.1906846668
 20
45.0
 11
91.1906846668
 21
0.0
  0
LINE
  5
24C
100
AcDbEntity
  8
0
100
AcDbLine
 62
7
  6
CONTINUOUS
 10
91.1906846668
 20
-45.0
 11
91.1906846668
 21
0.0
  0
INSERT
  5
24D
100
AcDbEntity
  8
0
100
AcDbBlockReference
 62
7
  6
CONTINUOUS
  2
_FILLED
 10
91.1906846668
 20
45.0
 41
3.0
 42
3.0
 43
3.0
 50
90.0
  0
INSERT
  5
24E
100
AcDbEntity
  8
0
100
AcDbBlockReference
 62
7
  6
CONTINUOUS
  2
_FILLED
 10
91.1906846668
 20
-45.0
 41
3.0
 42
3.0
 43
3.0
 50
270.0
  0
ENDBLK
  5
24F
100
AcDbEntity
  8
0
  6
BYBLOCK
 62
0
100
AcDbBlockEnd
  0
ENDSEC
  0
SECTION
  2
ENTITIES
  0
DIMENSION
  5
250
100
AcDbEntity
  8
0
100
AcDbDimension
 62
7
  6
CONTINUOUS
  2
*D0
 10
-120.6606222399
 20
57.9128202154
 11
-128.061454834
 21
57.9128202154
 70
160
 71
3
 72
2
 41
0.9
 42
7.15
  1
{\ftxt;\W0.0001;\H0.0001;\~}{\ftxt;\W2.6428571429;\H3.0; }{\ftxt;\W0.0001;\H0.0001;\~}
  3
DIMSTYLE_1
100
AcDbAlignedDimension
 13
-113.5106222399
 23
41.2038975196
 14
-120.6606222399
 24
43.3767374102
 50
180.0
100
AcDbRotatedDimension
  0
DIMENSION
  5
251
100
AcDbEntity
  8
0
100
AcDbDimension
 62
7
  6
CONTINUOUS
  2
*D1
 10
-110.5106222399
 20
67.5153867468
 11
-129.1158193359
 21
67.5153867468
 70
160
 71
3
 72
2
 41
0.9
 42
10.15
  1
{\ftxt;\W0.0001;\H0.0001;\~}{\ftxt;\W3.2142857143;\H3.0; }{\ftxt;\W0.0001;\H0.0001;\~}
  3
DIMSTYLE_1
100
AcDbAlignedDimension
 13
-120.6606222399
 23
43.3767374102
 14
-110.5106222399
 24
26.0463167932
100
AcDbRotatedDimension
  0
DIMENSION
  5
252
100
AcDbEntity
  8
0
100
AcDbDimension
 62
7
  6
CONTINUOUS
  2
*D2
 10
79.65
 20
56.3012457968
 11
-0.4285713773
 21
56.3012457968
 70
160
 71
2
 72
2
 41
0.9
 42
159.3
  1
{\ftxt;\W0.0001;\H0.0001;\~}{\ftxt;\W3.3571428571;\H3.0; }{\ftxt;\W0.0001;\H0.0001;\~}
  3
DIMSTYLE_1
100
AcDbAlignedDimension
 13
-79.65
 23
43.9993911979
 14
79.65
 24
43.9993911979
100
AcDbRotatedDimension
  0
DIMENSION
  5
253
100
AcDbEntity
  8
0
100
AcDbDimension
 62
7
  6
CONTINUOUS
  2
*D3
 10
91.1906846668
 20
-45.0
 11
91.1906846668
 21
-0.4285706575
 70
160
 71
2
 72
2
 41
0.9
 42
90.0
  1
{\ftxt;\W0.0001;\H0.0001;\~}{\ftxt;\W1.5714285714;\H3.0; }{\ftxt;\W0.0001;\H0.0001;\~}
  3
DIMSTYLE_1
100
AcDbAlignedDimension
 13
78.6493911979
 23
45.0
 14
78.6493911979
 24
-45.0
 50
270.0
100
AcDbRotatedDimension
  0
LINE
  5
254
100
AcDbEntity
  8
ASSI
100
AcDbLine
 62
7
  6
CONTINUOUS
 10
-78.4699854699
 20
44.7906993223
 11
-78.4555596544
 21
44.8061684565
  0
LINE
  5
255
100
AcDbEntity
  8
ASSI
100
AcDbLine
 62
7
  6
CONTINUOUS
 10
-79.65
 20
43.9993911979
 11
-78.6493911979
 21
45.0
  0
LINE
  5
256
100
AcDbEntity
  8
ASSI
100
AcDbLine
 62
7
  6
CONTINUOUS
 10
-78.4699854699
 20
44.7906993223
 11
-79.4406993223
 21
43.8199854699
  0
LINE
  5
257
100
AcDbEntity
  8
ASSI
100
AcDbLine
 62
7
  6
CONTINUOUS
 10
-78.0267374102
 20
43.7712689598
 11
-78.4212689598
 21
43.3767374102
  0
LINE
  5
258
100
AcDbEntity
  8
ASSI
100
AcDbLine
 62
7
  6
CONTINUOUS
 10
-79.4561684565
 20
43.8055596544
 11
-79.4406993223
 21
43.8199854699
  0
LINE
  5
259
100
AcDbEntity
  8
ASSI
100
AcDbLine
 62
7
  6
CONTINUOUS
 10
-79.4406993223
 20
-43.8199854699
 11
-79.4561684565
 21
-43.8055596544
  0
LINE
  5
25A
100
AcDbEntity
  8
ASSI
100
AcDbLine
 62
7
  6
CONTINUOUS
 10
-78.6493911979
 20
-45.0
 11
-79.65
 21
-43.9993911979
  0
LINE
  5
25B
100
AcDbEntity
  8
ASSI
100
AcDbLine
 62
7
  6
CONTINUOUS
 10
-79.4406993223
 20
-43.8199854699
 11
-78.4699854699
 21
-44.7906993223
  0
LINE
  5
25C
100
AcDbEntity
  8
ASSI
100
AcDbLine
 62
7
  6
CONTINUOUS
 10
-78.4212689598
 20
-43.3767374102
 11
-78.0267374102
 21
-43.7712689598
  0
LINE
  5
25D
100
AcDbEntity
  8
ASSI
100
AcDbLine
 62
7
  6
CONTINUOUS
 10
-78.4555596544
 20
-44.8061684565
 11
-78.4699854699
 21
-44.7906993223
  0
LINE
  5
25E
100
AcDbEntity
  8
ASSI
100
AcDbLine
 62
7
  6
CONTINUOUS
 10
-79.65
 20
43.9993911979
 11
-79.65
 21
-43.9993911979
  0
LINE
  5
25F
100
AcDbEntity
  8
ASSI
100
AcDbLine
 62
7
  6
CONTINUOUS
 10
-79.4561684565
 20
43.8055596544
 11
-79.4561684565
 21
-43.8055596544
  0
LINE
  5
260
100
AcDbEntity
  8
ASSI
100
AcDbLine
 62
7
  6
CONTINUOUS
 10
-78.4212689598
 20
43.3767374102
 11
-78.4212689598
 21
-43.3767374102
  0
LINE
  5
261
100
AcDbEntity
  8
ASSI
100
AcDbLine
 62
7
  6
CONTINUOUS
 10
-78.0267374102
 20
-43.7712689598
 11
-78.4699854699
 21
-44.7906993223
  0
LINE
  5
262
100
AcDbEntity
  8
ASSI
100
AcDbLine
 62
7
  6
CONTINUOUS
 10
-78.0267374102
 20
43.7712689598
 11
-78.4699854699
 21
44.7906993223
  0
LINE
  5
263
100
AcDbEntity
  8
SMUSSO
100
AcDbLine
 62
7
  6
CONTINUOUS
 10
-53.4
 20
-6.7
 11
-53.4
 21
6.7
  0
LINE
  5
264
100
AcDbEntity
  8
ASSI
100
AcDbLine
 62
7
  6
CONTINUOUS
 10
-53.4
 20
-6.7
 11
-53.4
 21
6.7
  0
LINE
  5
265
100
AcDbEntity
  8
SMUSSO
100
AcDbLine
 62
7
  6
CONTINUOUS
 10
-52.9
 20
-6.7
 11
-52.9
 21
6.7
  0
LINE
  5
266
100
AcDbEntity
  8
ASSI
100
AcDbLine
 62
7
  6
CONTINUOUS
 10
-52.9
 20
-6.7
 11
-52.9
 21
6.7
  0
LINE
  5
267
100
AcDbEntity
  8
SMUSSO
100
AcDbLine
 62
250
  6
CONTINUOUS
 10
-51.7
 20
8.4
 11
-51.7
 21
7.9
  0
LINE
  5
268
100
AcDbEntity
  8
ASSI
100
AcDbLine
 62
250
  6
CONTINUOUS
 10
-51.7
 20
8.4
 11
-51.7
 21
7.9
  0
LINE
  5
269
100
AcDbEntity
  8
SMUSSO
100
AcDbLine
 62
250
  6
CONTINUOUS
 10
-51.7
 20
-8.4
 11
-51.7
 21
-7.9
  0
LINE
  5
26A
100
AcDbEntity
  8
ASSI
100
AcDbLine
 62
250
  6
CONTINUOUS
 10
-51.7
 20
-8.4
 11
-51.7
 21
-7.9
  0
LWPOLYLINE
  5
26B
100
AcDbEntity
  8
0
100
AcDbPolyline
 62
7
  6
CONTINUOUS
 90
5
 70
0
 43
0.3500000006
 10
3.7500000114
 20
58.7655346985
 10
4.1071428967
 20
58.9798191833
 10
4.1071428967
 20
59.6226726379
 10
3.7500000114
 20
60.0512416077
 10
2.8928572569
 20
60.0512416077
  0
LWPOLYLINE
  5
26C
100
AcDbEntity
  8
0
100
AcDbPolyline
 62
7
  6
CONTINUOUS
 90
3
 70
0
 43
0.3500000006
 10
-5.0357142849
 20
59.1941036682
 10
-4.1785715303
 20
60.0512416077
 10
-4.1785715303
 20
57.0512497559
  0
LINE
  5
26D
100
AcDbEntity
  8
ASSI
100
AcDbLine
 62
7
  6
CONTINUOUS
 10
-78.6493911979
 20
-45.0
 11
78.6493911979
 21
-45.0
  0
LINE
  5
26E
100
AcDbEntity
  8
ASSI
100
AcDbLine
 62
7
  6
CONTINUOUS
 10
-78.4555596544
 20
-44.8061684565
 11
78.4555596544
 21
-44.8061684565
  0
LINE
  5
26F
100
AcDbEntity
  8
ASSI
100
AcDbLine
 62
7
  6
CONTINUOUS
 10
-78.0267374102
 20
-43.7712689598
 11
78.0267374102
 21
-43.7712689598
  0
LINE
  5
270
100
AcDbEntity
  8
SMUSSO
100
AcDbLine
 62
250
  6
CONTINUOUS
 10
-38.3
 20
8.4
 11
-38.3
 21
7.9
  0
LINE
  5
271
100
AcDbEntity
  8
ASSI
100
AcDbLine
 62
250
  6
CONTINUOUS
 10
-38.3
 20
8.4
 11
-38.3
 21
7.9
  0
LINE
  5
272
100
AcDbEntity
  8
SMUSSO
100
AcDbLine
 62
250
  6
CONTINUOUS
 10
-38.3
 20
-8.4
 11
-38.3
 21
-7.9
  0
LINE
  5
273
100
AcDbEntity
  8
ASSI
100
AcDbLine
 62
250
  6
CONTINUOUS
 10
-38.3
 20
-8.4
 11
-38.3
 21
-7.9
  0
LINE
  5
274
100
AcDbEntity
  8
SMUSSO
100
AcDbLine
 62
7
  6
CONTINUOUS
 10
-37.1
 20
6.7
 11
-37.1
 21
-6.7
  0
LINE
  5
275
100
AcDbEntity
  8
ASSI
100
AcDbLine
 62
7
  6
CONTINUOUS
 10
-37.1
 20
6.7
 11
-37.1
 21
-6.7
  0
LINE
  5
276
100
AcDbEntity
  8
SMUSSO
100
AcDbLine
 62
7
  6
CONTINUOUS
 10
-36.6
 20
6.7
 11
-36.6
 21
-6.7
  0
LINE
  5
277
100
AcDbEntity
  8
ASSI
100
AcDbLine
 62
7
  6
CONTINUOUS
 10
-36.6
 20
6.7
 11
-36.6
 21
-6.7
  0
LWPOLYLINE
  5
278
100
AcDbEntity
  8
0
100
AcDbPolyline
 62
7
  6
CONTINUOUS
 90
10
 70
0
 43
0.3500000006
 10
-0.7500000165
 20
57.0512497559
 10
0.1071428532
 20
57.9083876953
 10
0.3214285684
 20
58.7655346985
 10
0.3214285684
 20
59.6226726379
 10
-0.1071428532
 20
60.0512416077
 10
-0.7500000165
 20
60.0512416077
 10
-1.1785713937
 20
59.6226726379
 10
-1.1785713937
 20
58.7655346985
 10
-0.7500000165
 20
58.336956665
 10
0.1785714249
 20
58.336956665
  0
LINE
  5
279
100
AcDbEntity
  8
CURVE
100
AcDbLine
 62
250
  6
CONTINUOUS
 10
79.510131217
 20
-36.257398
 11
79.5973759453
 21
-36.257398
  0
LINE
  5
27A
100
AcDbEntity
  8
SMUSSO
100
AcDbLine
 62
7
  6
CONTINUOUS
 10
-30.9
 20
-6.7
 11
-30.9
 21
6.7
  0
LINE
  5
27B
100
AcDbEntity
  8
ASSI
100
AcDbLine
 62
7
  6
CONTINUOUS
 10
-30.9
 20
-6.7
 11
-30.9
 21
6.7
  0
LINE
  5
27C
100
AcDbEntity
  8
SMUSSO
100
AcDbLine
 62
7
  6
CONTINUOUS
 10
-30.4
 20
-6.7
 11
-30.4
 21
6.7
  0
LINE
  5
27D
100
AcDbEntity
  8
ASSI
100
AcDbLine
 62
7
  6
CONTINUOUS
 10
-30.4
 20
-6.7
 11
-30.4
 21
6.7
  0
LINE
  5
27E
100
AcDbEntity
  8
CURVE
100
AcDbLine
 62
250
  6
CONTINUOUS
 10
79.5973759453
 20
-35.735605
 11
79.510131217
 21
-35.735605
  0
LINE
  5
27F
100
AcDbEntity
  8
CURVE
100
AcDbLine
 62
250
  6
CONTINUOUS
 10
79.5111556794
 20
-30.6285551388
 11
79.5973759458
 21
-30.6285551388
  0
LINE
  5
280
100
AcDbEntity
  8
CURVE
100
AcDbLine
 62
250
  6
CONTINUOUS
 10
79.5489474951
 20
-30.126163664
 11
79.5249985478
 21
-30.126163664
  0
LINE
  5
281
100
AcDbEntity
  8
CURVE
100
AcDbLine
 62
250
  6
CONTINUOUS
 10
79.5973759458
 20
-30.1088617972
 11
79.5632352194
 21
-30.1088617972
  0
LINE
  5
282
100
AcDbEntity
  8
SMUSSO
100
AcDbLine
 62
250
  6
CONTINUOUS
 10
-29.2
 20
8.4
 11
-29.2
 21
7.9
  0
LINE
  5
283
100
AcDbEntity
  8
ASSI
100
AcDbLine
 62
250
  6
CONTINUOUS
 10
-29.2
 20
8.4
 11
-29.2
 21
7.9
  0
LINE
  5
284
100
AcDbEntity
  8
SMUSSO
100
AcDbLine
 62
250
  6
CONTINUOUS
 10
-29.2
 20
-8.4
 11
-29.2
 21
-7.9
  0
LINE
  5
285
100
AcDbEntity
  8
ASSI
100
AcDbLine
 62
250
  6
CONTINUOUS
 10
-29.2
 20
-8.4
 11
-29.2
 21
-7.9
  0
LINE
  5
286
100
AcDbEntity
  8
ASSI
100
AcDbLine
 62
7
  6
CONTINUOUS
 10
-79.4561684565
 20
-43.8055596544
 11
-79.65
 21
-43.9993911979
  0
LINE
  5
287
100
AcDbEntity
  8
ASSI
100
AcDbLine
 62
7
  6
CONTINUOUS
 10
-78.4555596544
 20
-44.8061684565
 11
-78.6493911979
 21
-45.0
  0
LINE
  5
288
100
AcDbEntity
  8
CURVE
100
AcDbLine
 62
250
  6
CONTINUOUS
 10
79.5566533149
 20
-29.2870512436
 11
79.5561378054
 21
-29.2870512436
  0
LINE
  5
289
100
AcDbEntity
  8
ASSI
100
AcDbLine
 62
7
  6
CONTINUOUS
 10
-79.4561684565
 20
43.8055596544
 11
-79.65
 21
43.9993911979
  0
LINE
  5
28A
100
AcDbEntity
  8
ASSI
100
AcDbLine
 62
7
  6
CONTINUOUS
 10
-78.4555596544
 20
44.8061684565
 11
-78.6493911979
 21
45.0
  0
LINE
  5
28B
100
AcDbEntity
  8
SMUSSO
100
AcDbLine
 62
250
  6
CONTINUOUS
 10
-15.8
 20
8.4
 11
-15.8
 21
7.9
  0
LINE
  5
28C
100
AcDbEntity
  8
ASSI
100
AcDbLine
 62
250
  6
CONTINUOUS
 10
-15.8
 20
8.4
 11
-15.8
 21
7.9
  0
LINE
  5
28D
100
AcDbEntity
  8
SMUSSO
100
AcDbLine
 62
250
  6
CONTINUOUS
 10
-15.8
 20
-8.4
 11
-15.8
 21
-7.9
  0
LINE
  5
28E
100
AcDbEntity
  8
ASSI
100
AcDbLine
 62
250
  6
CONTINUOUS
 10
-15.8
 20
-8.4
 11
-15.8
 21
-7.9
  0
LINE
  5
28F
100
AcDbEntity
  8
SMUSSO
100
AcDbLine
 62
7
  6
CONTINUOUS
 10
-14.6
 20
6.7
 11
-14.6
 21
-6.7
  0
LINE
  5
290
100
AcDbEntity
  8
ASSI
100
AcDbLine
 62
7
  6
CONTINUOUS
 10
-14.6
 20
6.7
 11
-14.6
 21
-6.7
  0
LINE
  5
291
100
AcDbEntity
  8
SMUSSO
100
AcDbLine
 62
7
  6
CONTINUOUS
 10
-14.1
 20
6.7
 11
-14.1
 21
-6.7
  0
LINE
  5
292
100
AcDbEntity
  8
ASSI
100
AcDbLine
 62
7
  6
CONTINUOUS
 10
-14.1
 20
6.7
 11
-14.1
 21
-6.7
  0
LWPOLYLINE
  5
293
100
AcDbEntity
  8
0
100
AcDbPolyline
 62
7
  6
CONTINUOUS
 90
3
 70
0
 43
0.3500000006
 10
1.8928570933
 20
57.3369563599
 10
1.8214286013
 20
57.122671875
 10
1.6785714755
 20
56.8369562073
  0
LINE
  5
294
100
AcDbEntity
  8
SMUSSO
100
AcDbLine
 62
7
  6
CONTINUOUS
 10
-8.4
 20
-6.7
 11
-8.4
 21
6.7
  0
LINE
  5
295
100
AcDbEntity
  8
ASSI
100
AcDbLine
 62
7
  6
CONTINUOUS
 10
-8.4
 20
-6.7
 11
-8.4
 21
6.7
  0
LINE
  5
296
100
AcDbEntity
  8
SMUSSO
100
AcDbLine
 62
7
  6
CONTINUOUS
 10
-7.9
 20
-6.7
 11
-7.9
 21
6.7
  0
LINE
  5
297
100
AcDbEntity
  8
ASSI
100
AcDbLine
 62
7
  6
CONTINUOUS
 10
-7.9
 20
-6.7
 11
-7.9
 21
6.7
  0
LINE
  5
298
100
AcDbEntity
  8
SMUSSO
100
AcDbLine
 62
250
  6
CONTINUOUS
 10
-6.7
 20
8.4
 11
-6.7
 21
7.9
  0
LINE
  5
299
100
AcDbEntity
  8
ASSI
100
AcDbLine
 62
250
  6
CONTINUOUS
 10
-6.7
 20
8.4
 11
-6.7
 21
7.9
  0
LINE
  5
29A
100
AcDbEntity
  8
SMUSSO
100
AcDbLine
 62
250
  6
CONTINUOUS
 10
-6.7
 20
-8.4
 11
-6.7
 21
-7.9
  0
LINE
  5
29B
100
AcDbEntity
  8
ASSI
100
AcDbLine
 62
250
  6
CONTINUOUS
 10
-6.7
 20
-8.4
 11
-6.7
 21
-7.9
  0
LINE
  5
29C
100
AcDbEntity
  8
ASSI
100
AcDbLine
 62
7
  6
CONTINUOUS
 10
78.4212689598
 20
43.3767374102
 11
79.4406993223
 21
43.8199854699
  0
LINE
  5
29D
100
AcDbEntity
  8
SMUSSO
100
AcDbLine
 62
7
  6
CONTINUOUS
 10
51.7
 20
-8.4
 11
38.3
 21
-8.4
  0
LINE
  5
29E
100
AcDbEntity
  8
ASSI
100
AcDbLine
 62
7
  6
CONTINUOUS
 10
51.7
 20
-8.4
 11
38.3
 21
-8.4
  0
LINE
  5
29F
100
AcDbEntity
  8
SMUSSO
100
AcDbLine
 62
7
  6
CONTINUOUS
 10
29.2
 20
-8.4
 11
15.8
 21
-8.4
  0
LINE
  5
2A0
100
AcDbEntity
  8
ASSI
100
AcDbLine
 62
7
  6
CONTINUOUS
 10
29.2
 20
-8.4
 11
15.8
 21
-8.4
  0
LINE
  5
2A1
100
AcDbEntity
  8
SMUSSO
100
AcDbLine
 62
7
  6
CONTINUOUS
 10
6.7
 20
-8.4
 11
-6.7
 21
-8.4
  0
LINE
  5
2A2
100
AcDbEntity
  8
ASSI
100
AcDbLine
 62
7
  6
CONTINUOUS
 10
6.7
 20
-8.4
 11
-6.7
 21
-8.4
  0
LINE
  5
2A3
100
AcDbEntity
  8
SMUSSO
100
AcDbLine
 62
7
  6
CONTINUOUS
 10
-15.8
 20
-8.4
 11
-29.2
 21
-8.4
  0
LINE
  5
2A4
100
AcDbEntity
  8
ASSI
100
AcDbLine
 62
7
  6
CONTINUOUS
 10
-15.8
 20
-8.4
 11
-29.2
 21
-8.4
  0
LINE
  5
2A5
100
AcDbEntity
  8
SMUSSO
100
AcDbLine
 62
7
  6
CONTINUOUS
 10
-38.3
 20
-8.4
 11
-51.7
 21
-8.4
  0
LINE
  5
2A6
100
AcDbEntity
  8
ASSI
100
AcDbLine
 62
7
  6
CONTINUOUS
 10
-38.3
 20
-8.4
 11
-51.7
 21
-8.4
  0
LINE
  5
2A7
100
AcDbEntity
  8
SMUSSO
100
AcDbLine
 62
7
  6
CONTINUOUS
 10
51.7
 20
-7.9
 11
38.3
 21
-7.9
  0
LINE
  5
2A8
100
AcDbEntity
  8
ASSI
100
AcDbLine
 62
7
  6
CONTINUOUS
 10
51.7
 20
-7.9
 11
38.3
 21
-7.9
  0
LINE
  5
2A9
100
AcDbEntity
  8
SMUSSO
100
AcDbLine
 62
7
  6
CONTINUOUS
 10
29.2
 20
-7.9
 11
15.8
 21
-7.9
  0
LINE
  5
2AA
100
AcDbEntity
  8
ASSI
100
AcDbLine
 62
7
  6
CONTINUOUS
 10
29.2
 20
-7.9
 11
15.8
 21
-7.9
  0
LINE
  5
2AB
100
AcDbEntity
  8
SMUSSO
100
AcDbLine
 62
7
  6
CONTINUOUS
 10
6.7
 20
-7.9
 11
-6.7
 21
-7.9
  0
LINE
  5
2AC
100
AcDbEntity
  8
ASSI
100
AcDbLine
 62
7
  6
CONTINUOUS
 10
6.7
 20
-7.9
 11
-6.7
 21
-7.9
  0
LINE
  5
2AD
100
AcDbEntity
  8
SMUSSO
100
AcDbLine
 62
7
  6
CONTINUOUS
 10
-15.8
 20
-7.9
 11
-29.2
 21
-7.9
  0
LINE
  5
2AE
100
AcDbEntity
  8
ASSI
100
AcDbLine
 62
7
  6
CONTINUOUS
 10
-15.8
 20
-7.9
 11
-29.2
 21
-7.9
  0
LINE
  5
2AF
100
AcDbEntity
  8
SMUSSO
100
AcDbLine
 62
7
  6
CONTINUOUS
 10
-38.3
 20
-7.9
 11
-51.7
 21
-7.9
  0
LINE
  5
2B0
100
AcDbEntity
  8
ASSI
100
AcDbLine
 62
7
  6
CONTINUOUS
 10
-38.3
 20
-7.9
 11
-51.7
 21
-7.9
  0
LINE
  5
2B1
100
AcDbEntity
  8
SMUSSO
100
AcDbLine
 62
250
  6
CONTINUOUS
 10
-53.4
 20
-6.7
 11
-52.9
 21
-6.7
  0
LINE
  5
2B2
100
AcDbEntity
  8
ASSI
100
AcDbLine
 62
250
  6
CONTINUOUS
 10
-53.4
 20
-6.7
 11
-52.9
 21
-6.7
  0
LINE
  5
2B3
100
AcDbEntity
  8
SMUSSO
100
AcDbLine
 62
250
  6
CONTINUOUS
 10
53.4
 20
-6.7
 11
52.9
 21
-6.7
  0
LINE
  5
2B4
100
AcDbEntity
  8
ASSI
100
AcDbLine
 62
250
  6
CONTINUOUS
 10
53.4
 20
-6.7
 11
52.9
 21
-6.7
  0
LINE
  5
2B5
100
AcDbEntity
  8
SMUSSO
100
AcDbLine
 62
250
  6
CONTINUOUS
 10
-30.9
 20
-6.7
 11
-30.4
 21
-6.7
  0
LINE
  5
2B6
100
AcDbEntity
  8
ASSI
100
AcDbLine
 62
250
  6
CONTINUOUS
 10
-30.9
 20
-6.7
 11
-30.4
 21
-6.7
  0
LINE
  5
2B7
100
AcDbEntity
  8
SMUSSO
100
AcDbLine
 62
250
  6
CONTINUOUS
 10
30.9
 20
-6.7
 11
30.4
 21
-6.7
  0
LINE
  5
2B8
100
AcDbEntity
  8
ASSI
100
AcDbLine
 62
250
  6
CONTINUOUS
 10
30.9
 20
-6.7
 11
30.4
 21
-6.7
  0
LINE
  5
2B9
100
AcDbEntity
  8
SMUSSO
100
AcDbLine
 62
250
  6
CONTINUOUS
 10
-8.4
 20
-6.7
 11
-7.9
 21
-6.7
  0
LINE
  5
2BA
100
AcDbEntity
  8
ASSI
100
AcDbLine
 62
250
  6
CONTINUOUS
 10
-8.4
 20
-6.7
 11
-7.9
 21
-6.7
  0
LINE
  5
2BB
100
AcDbEntity
  8
SMUSSO
100
AcDbLine
 62
250
  6
CONTINUOUS
 10
8.4
 20
-6.7
 11
7.9
 21
-6.7
  0
LINE
  5
2BC
100
AcDbEntity
  8
ASSI
100
AcDbLine
 62
250
  6
CONTINUOUS
 10
8.4
 20
-6.7
 11
7.9
 21
-6.7
  0
LINE
  5
2BD
100
AcDbEntity
  8
SMUSSO
100
AcDbLine
 62
250
  6
CONTINUOUS
 10
14.1
 20
-6.7
 11
14.6
 21
-6.7
  0
LINE
  5
2BE
100
AcDbEntity
  8
ASSI
100
AcDbLine
 62
250
  6
CONTINUOUS
 10
14.1
 20
-6.7
 11
14.6
 21
-6.7
  0
LINE
  5
2BF
100
AcDbEntity
  8
SMUSSO
100
AcDbLine
 62
250
  6
CONTINUOUS
 10
-14.1
 20
-6.7
 11
-14.6
 21
-6.7
  0
LINE
  5
2C0
100
AcDbEntity
  8
ASSI
100
AcDbLine
 62
250
  6
CONTINUOUS
 10
-14.1
 20
-6.7
 11
-14.6
 21
-6.7
  0
LINE
  5
2C1
100
AcDbEntity
  8
SMUSSO
100
AcDbLine
 62
250
  6
CONTINUOUS
 10
36.6
 20
-6.7
 11
37.1
 21
-6.7
  0
LINE
  5
2C2
100
AcDbEntity
  8
ASSI
100
AcDbLine
 62
250
  6
CONTINUOUS
 10
36.6
 20
-6.7
 11
37.1
 21
-6.7
  0
LINE
  5
2C3
100
AcDbEntity
  8
SMUSSO
100
AcDbLine
 62
250
  6
CONTINUOUS
 10
-36.6
 20
-6.7
 11
-37.1
 21
-6.7
  0
LINE
  5
2C4
100
AcDbEntity
  8
ASSI
100
AcDbLine
 62
250
  6
CONTINUOUS
 10
-36.6
 20
-6.7
 11
-37.1
 21
-6.7
  0
LINE
  5
2C5
100
AcDbEntity
  8
ASSI
100
AcDbLine
 62
7
  6
CONTINUOUS
 10
78.4212689598
 20
-43.3767374102
 11
79.4406993223
 21
-43.8199854699
  0
LWPOLYLINE
  5
2C6
100
AcDbEntity
  8
0
100
AcDbPolyline
 62
7
  6
CONTINUOUS
 90
13
 70
0
 43
0.3500000006
 10
89.5835404358
 20
-0.0000003204
 10
88.2978244629
 20
-0.0000003204
 10
87.8692554932
 20
0.2142864304
 10
87.4406865234
 20
0.642857666
 10
87.4406865234
 20
0.8571421509
 10
87.8692554932
 20
1.2857133865
 10
88.2978244629
 20
1.5000001373
 10
89.5835404358
 20
1.5000001373
 10
90.0121094055
 20
1.2857133865
 10
90.440687439
 20
0.8571421509
 10
90.440687439
 20
0.642857666
 10
90.0121094055
 20
0.2142864304
 10
89.5835404358
 20
-0.0000003204
  0
LINE
  5
2C7
100
AcDbEntity
  8
SMUSSO
100
AcDbLine
 62
250
  6
CONTINUOUS
 10
6.7
 20
8.4
 11
6.7
 21
7.9
  0
LINE
  5
2C8
100
AcDbEntity
  8
ASSI
100
AcDbLine
 62
250
  6
CONTINUOUS
 10
6.7
 20
8.4
 11
6.7
 21
7.9
  0
LINE
  5
2C9
100
AcDbEntity
  8
SMUSSO
100
AcDbLine
 62
250
  6
CONTINUOUS
 10
6.7
 20
-8.4
 11
6.7
 21
-7.9
  0
LINE
  5
2CA
100
AcDbEntity
  8
ASSI
100
AcDbLine
 62
250
  6
CONTINUOUS
 10
6.7
 20
-8.4
 11
6.7
 21
-7.9
  0
LINE
  5
2CB
100
AcDbEntity
  8
SMUSSO
100
AcDbLine
 62
250
  6
CONTINUOUS
 10
-53.4
 20
6.7
 11
-52.9
 21
6.7
  0
LINE
  5
2CC
100
AcDbEntity
  8
ASSI
100
AcDbLine
 62
250
  6
CONTINUOUS
 10
-53.4
 20
6.7
 11
-52.9
 21
6.7
  0
LINE
  5
2CD
100
AcDbEntity
  8
SMUSSO
100
AcDbLine
 62
250
  6
CONTINUOUS
 10
53.4
 20
6.7
 11
52.9
 21
6.7
  0
LINE
  5
2CE
100
AcDbEntity
  8
ASSI
100
AcDbLine
 62
250
  6
CONTINUOUS
 10
53.4
 20
6.7
 11
52.9
 21
6.7
  0
LINE
  5
2CF
100
AcDbEntity
  8
SMUSSO
100
AcDbLine
 62
250
  6
CONTINUOUS
 10
-30.9
 20
6.7
 11
-30.4
 21
6.7
  0
LINE
  5
2D0
100
AcDbEntity
  8
ASSI
100
AcDbLine
 62
250
  6
CONTINUOUS
 10
-30.9
 20
6.7
 11
-30.4
 21
6.7
  0
LINE
  5
2D1
100
AcDbEntity
  8
SMUSSO
100
AcDbLine
 62
250
  6
CONTINUOUS
 10
30.9
 20
6.7
 11
30.4
 21
6.7
  0
LINE
  5
2D2
100
AcDbEntity
  8
ASSI
100
AcDbLine
 62
250
  6
CONTINUOUS
 10
30.9
 20
6.7
 11
30.4
 21
6.7
  0
LINE
  5
2D3
100
AcDbEntity
  8
SMUSSO
100
AcDbLine
 62
250
  6
CONTINUOUS
 10
-8.4
 20
6.7
 11
-7.9
 21
6.7
  0
LINE
  5
2D4
100
AcDbEntity
  8
ASSI
100
AcDbLine
 62
250
  6
CONTINUOUS
 10
-8.4
 20
6.7
 11
-7.9
 21
6.7
  0
LINE
  5
2D5
100
AcDbEntity
  8
SMUSSO
100
AcDbLine
 62
250
  6
CONTINUOUS
 10
8.4
 20
6.7
 11
7.9
 21
6.7
  0
LINE
  5
2D6
100
AcDbEntity
  8
ASSI
100
AcDbLine
 62
250
  6
CONTINUOUS
 10
8.4
 20
6.7
 11
7.9
 21
6.7
  0
LINE
  5
2D7
100
AcDbEntity
  8
SMUSSO
100
AcDbLine
 62
250
  6
CONTINUOUS
 10
14.1
 20
6.7
 11
14.6
 21
6.7
  0
LINE
  5
2D8
100
AcDbEntity
  8
ASSI
100
AcDbLine
 62
250
  6
CONTINUOUS
 10
14.1
 20
6.7
 11
14.6
 21
6.7
  0
LINE
  5
2D9
100
AcDbEntity
  8
SMUSSO
100
AcDbLine
 62
250
  6
CONTINUOUS
 10
-14.1
 20
6.7
 11
-14.6
 21
6.7
  0
LINE
  5
2DA
100
AcDbEntity
  8
ASSI
100
AcDbLine
 62
250
  6
CONTINUOUS
 10
-14.1
 20
6.7
 11
-14.6
 21
6.7
  0
LINE
  5
2DB
100
AcDbEntity
  8
SMUSSO
100
AcDbLine
 62
250
  6
CONTINUOUS
 10
36.6
 20
6.7
 11
37.1
 21
6.7
  0
LINE
  5
2DC
100
AcDbEntity
  8
ASSI
100
AcDbLine
 62
250
  6
CONTINUOUS
 10
36.6
 20
6.7
 11
37.1
 21
6.7
  0
LINE
  5
2DD
100
AcDbEntity
  8
SMUSSO
100
AcDbLine
 62
250
  6
CONTINUOUS
 10
-36.6
 20
6.7
 11
-37.1
 21
6.7
  0
LINE
  5
2DE
100
AcDbEntity
  8
ASSI
100
AcDbLine
 62
250
  6
CONTINUOUS
 10
-36.6
 20
6.7
 11
-37.1
 21
6.7
  0
LINE
  5
2DF
100
AcDbEntity
  8
SMUSSO
100
AcDbLine
 62
7
  6
CONTINUOUS
 10
7.9
 20
6.7
 11
7.9
 21
-6.7
  0
LINE
  5
2E0
100
AcDbEntity
  8
ASSI
100
AcDbLine
 62
7
  6
CONTINUOUS
 10
7.9
 20
6.7
 11
7.9
 21
-6.7
  0
LINE
  5
2E1
100
AcDbEntity
  8
SMUSSO
100
AcDbLine
 62
7
  6
CONTINUOUS
 10
8.4
 20
6.7
 11
8.4
 21
-6.7
  0
LINE
  5
2E2
100
AcDbEntity
  8
ASSI
100
AcDbLine
 62
7
  6
CONTINUOUS
 10
8.4
 20
6.7
 11
8.4
 21
-6.7
  0
LINE
  5
2E3
100
AcDbEntity
  8
ASSI
100
AcDbLine
 62
7
  6
CONTINUOUS
 10
-78.4212689598
 20
-43.3767374102
 11
-79.4406993223
 21
-43.8199854699
  0
LINE
  5
2E4
100
AcDbEntity
  8
SMUSSO
100
AcDbLine
 62
7
  6
CONTINUOUS
 10
-51.7
 20
7.9
 11
-38.3
 21
7.9
  0
LINE
  5
2E5
100
AcDbEntity
  8
ASSI
100
AcDbLine
 62
7
  6
CONTINUOUS
 10
-51.7
 20
7.9
 11
-38.3
 21
7.9
  0
LINE
  5
2E6
100
AcDbEntity
  8
SMUSSO
100
AcDbLine
 62
7
  6
CONTINUOUS
 10
-29.2
 20
7.9
 11
-15.8
 21
7.9
  0
LINE
  5
2E7
100
AcDbEntity
  8
ASSI
100
AcDbLine
 62
7
  6
CONTINUOUS
 10
-29.2
 20
7.9
 11
-15.8
 21
7.9
  0
LINE
  5
2E8
100
AcDbEntity
  8
SMUSSO
100
AcDbLine
 62
7
  6
CONTINUOUS
 10
-6.7
 20
7.9
 11
6.7
 21
7.9
  0
LINE
  5
2E9
100
AcDbEntity
  8
ASSI
100
AcDbLine
 62
7
  6
CONTINUOUS
 10
-6.7
 20
7.9
 11
6.7
 21
7.9
  0
LINE
  5
2EA
100
AcDbEntity
  8
SMUSSO
100
AcDbLine
 62
7
  6
CONTINUOUS
 10
15.8
 20
7.9
 11
29.2
 21
7.9
  0
LINE
  5
2EB
100
AcDbEntity
  8
ASSI
100
AcDbLine
 62
7
  6
CONTINUOUS
 10
15.8
 20
7.9
 11
29.2
 21
7.9
  0
LINE
  5
2EC
100
AcDbEntity
  8
SMUSSO
100
AcDbLine
 62
7
  6
CONTINUOUS
 10
38.3
 20
7.9
 11
51.7
 21
7.9
  0
LINE
  5
2ED
100
AcDbEntity
  8
ASSI
100
AcDbLine
 62
7
  6
CONTINUOUS
 10
38.3
 20
7.9
 11
51.7
 21
7.9
  0
LINE
  5
2EE
100
AcDbEntity
  8
SMUSSO
100
AcDbLine
 62
7
  6
CONTINUOUS
 10
-51.7
 20
8.4
 11
-38.3
 21
8.4
  0
LINE
  5
2EF
100
AcDbEntity
  8
ASSI
100
AcDbLine
 62
7
  6
CONTINUOUS
 10
-51.7
 20
8.4
 11
-38.3
 21
8.4
  0
LINE
  5
2F0
100
AcDbEntity
  8
SMUSSO
100
AcDbLine
 62
7
  6
CONTINUOUS
 10
-29.2
 20
8.4
 11
-15.8
 21
8.4
  0
LINE
  5
2F1
100
AcDbEntity
  8
ASSI
100
AcDbLine
 62
7
  6
CONTINUOUS
 10
-29.2
 20
8.4
 11
-15.8
 21
8.4
  0
LINE
  5
2F2
100
AcDbEntity
  8
SMUSSO
100
AcDbLine
 62
7
  6
CONTINUOUS
 10
-6.7
 20
8.4
 11
6.7
 21
8.4
  0
LINE
  5
2F3
100
AcDbEntity
  8
ASSI
100
AcDbLine
 62
7
  6
CONTINUOUS
 10
-6.7
 20
8.4
 11
6.7
 21
8.4
  0
LINE
  5
2F4
100
AcDbEntity
  8
SMUSSO
100
AcDbLine
 62
7
  6
CONTINUOUS
 10
15.8
 20
8.4
 11
29.2
 21
8.4
  0
LINE
  5
2F5
100
AcDbEntity
  8
ASSI
100
AcDbLine
 62
7
  6
CONTINUOUS
 10
15.8
 20
8.4
 11
29.2
 21
8.4
  0
LINE
  5
2F6
100
AcDbEntity
  8
SMUSSO
100
AcDbLine
 62
7
  6
CONTINUOUS
 10
38.3
 20
8.4
 11
51.7
 21
8.4
  0
LINE
  5
2F7
100
AcDbEntity
  8
ASSI
100
AcDbLine
 62
7
  6
CONTINUOUS
 10
38.3
 20
8.4
 11
51.7
 21
8.4
  0
LINE
  5
2F8
100
AcDbEntity
  8
ASSI
100
AcDbLine
 62
7
  6
CONTINUOUS
 10
-78.4212689598
 20
43.3767374102
 11
-79.4406993223
 21
43.8199854699
  0
LINE
  5
2F9
100
AcDbEntity
  8
SMUSSO
100
AcDbLine
 62
7
  6
CONTINUOUS
 10
14.1
 20
-6.7
 11
14.1
 21
6.7
  0
LINE
  5
2FA
100
AcDbEntity
  8
ASSI
100
AcDbLine
 62
7
  6
CONTINUOUS
 10
14.1
 20
-6.7
 11
14.1
 21
6.7
  0
LINE
  5
2FB
100
AcDbEntity
  8
SMUSSO
100
AcDbLine
 62
7
  6
CONTINUOUS
 10
14.6
 20
-6.7
 11
14.6
 21
6.7
  0
LINE
  5
2FC
100
AcDbEntity
  8
ASSI
100
AcDbLine
 62
7
  6
CONTINUOUS
 10
14.6
 20
-6.7
 11
14.6
 21
6.7
  0
LINE
  5
2FD
100
AcDbEntity
  8
SMUSSO
100
AcDbLine
 62
250
  6
CONTINUOUS
 10
15.8
 20
8.4
 11
15.8
 21
7.9
  0
LINE
  5
2FE
100
AcDbEntity
  8
ASSI
100
AcDbLine
 62
250
  6
CONTINUOUS
 10
15.8
 20
8.4
 11
15.8
 21
7.9
  0
LINE
  5
2FF
100
AcDbEntity
  8
SMUSSO
100
AcDbLine
 62
250
  6
CONTINUOUS
 10
15.8
 20
-8.4
 11
15.8
 21
-7.9
  0
LINE
  5
300
100
AcDbEntity
  8
ASSI
100
AcDbLine
 62
250
  6
CONTINUOUS
 10
15.8
 20
-8.4
 11
15.8
 21
-7.9
  0
LINE
  5
301
100
AcDbEntity
  8
ASSI
100
AcDbLine
 62
7
  6
CONTINUOUS
 10
78.4555596544
 20
44.8061684565
 11
78.6493911979
 21
45.0
  0
LINE
  5
302
100
AcDbEntity
  8
ASSI
100
AcDbLine
 62
7
  6
CONTINUOUS
 10
79.4561684565
 20
43.8055596544
 11
79.65
 21
43.9993911979
  0
LINE
  5
303
100
AcDbEntity
  8
ASSI
100
AcDbLine
 62
7
  6
CONTINUOUS
 10
78.4555596544
 20
-44.8061684565
 11
78.6493911979
 21
-45.0
  0
LINE
  5
304
100
AcDbEntity
  8
ASSI
100
AcDbLine
 62
7
  6
CONTINUOUS
 10
79.4561684565
 20
-43.8055596544
 11
79.65
 21
-43.9993911979
  0
LINE
  5
305
100
AcDbEntity
  8
SMUSSO
100
AcDbLine
 62
250
  6
CONTINUOUS
 10
29.2
 20
8.4
 11
29.2
 21
7.9
  0
LINE
  5
306
100
AcDbEntity
  8
ASSI
100
AcDbLine
 62
250
  6
CONTINUOUS
 10
29.2
 20
8.4
 11
29.2
 21
7.9
  0
LINE
  5
307
100
AcDbEntity
  8
SMUSSO
100
AcDbLine
 62
250
  6
CONTINUOUS
 10
29.2
 20
-8.4
 11
29.2
 21
-7.9
  0
LINE
  5
308
100
AcDbEntity
  8
ASSI
100
AcDbLine
 62
250
  6
CONTINUOUS
 10
29.2
 20
-8.4
 11
29.2
 21
-7.9
  0
LINE
  5
309
100
AcDbEntity
  8
SMUSSO
100
AcDbLine
 62
7
  6
CONTINUOUS
 10
30.4
 20
6.7
 11
30.4
 21
-6.7
  0
LINE
  5
30A
100
AcDbEntity
  8
ASSI
100
AcDbLine
 62
7
  6
CONTINUOUS
 10
30.4
 20
6.7
 11
30.4
 21
-6.7
  0
LINE
  5
30B
100
AcDbEntity
  8
SMUSSO
100
AcDbLine
 62
7
  6
CONTINUOUS
 10
30.9
 20
6.7
 11
30.9
 21
-6.7
  0
LINE
  5
30C
100
AcDbEntity
  8
ASSI
100
AcDbLine
 62
7
  6
CONTINUOUS
 10
30.9
 20
6.7
 11
30.9
 21
-6.7
  0
LWPOLYLINE
  5
30D
100
AcDbEntity
  8
0
100
AcDbPolyline
 62
7
  6
CONTINUOUS
 90
10
 70
0
 43
0.3500000006
 10
1.8214286013
 20
57.5512499084
 10
1.8928570933
 20
57.4083875427
 10
1.8928570933
 20
57.3369563599
 10
1.7499999676
 20
57.1941030579
 10
1.6785714755
 20
57.1941030579
 10
1.6071428418
 20
57.2655342407
 10
1.6071428418
 20
57.3369563599
 10
1.6785714755
 20
57.4798187256
 10
1.7499999676
 20
57.5512499084
 10
1.8214286013
 20
57.5512499084
  0
LINE
  5
30E
100
AcDbEntity
  8
SMUSSO
100
AcDbLine
 62
7
  6
CONTINUOUS
 10
36.6
 20
-6.7
 11
36.6
 21
6.7
  0
LINE
  5
30F
100
AcDbEntity
  8
ASSI
100
AcDbLine
 62
7
  6
CONTINUOUS
 10
36.6
 20
-6.7
 11
36.6
 21
6.7
  0
LINE
  5
310
100
AcDbEntity
  8
SMUSSO
100
AcDbLine
 62
7
  6
CONTINUOUS
 10
37.1
 20
-6.7
 11
37.1
 21
6.7
  0
LINE
  5
311
100
AcDbEntity
  8
ASSI
100
AcDbLine
 62
7
  6
CONTINUOUS
 10
37.1
 20
-6.7
 11
37.1
 21
6.7
  0
LINE
  5
312
100
AcDbEntity
  8
SMUSSO
100
AcDbLine
 62
250
  6
CONTINUOUS
 10
38.3
 20
8.4
 11
38.3
 21
7.9
  0
LINE
  5
313
100
AcDbEntity
  8
ASSI
100
AcDbLine
 62
250
  6
CONTINUOUS
 10
38.3
 20
8.4
 11
38.3
 21
7.9
  0
LINE
  5
314
100
AcDbEntity
  8
SMUSSO
100
AcDbLine
 62
250
  6
CONTINUOUS
 10
38.3
 20
-8.4
 11
38.3
 21
-7.9
  0
LINE
  5
315
100
AcDbEntity
  8
ASSI
100
AcDbLine
 62
250
  6
CONTINUOUS
 10
38.3
 20
-8.4
 11
38.3
 21
-7.9
  0
LINE
  5
316
100
AcDbEntity
  8
ASSI
100
AcDbLine
 62
7
  6
CONTINUOUS
 10
78.0267374102
 20
43.7712689598
 11
-78.0267374102
 21
43.7712689598
  0
LINE
  5
317
100
AcDbEntity
  8
ASSI
100
AcDbLine
 62
7
  6
CONTINUOUS
 10
78.4555596544
 20
44.8061684565
 11
-78.4555596544
 21
44.8061684565
  0
LINE
  5
318
100
AcDbEntity
  8
ASSI
100
AcDbLine
 62
7
  6
CONTINUOUS
 10
78.6493911979
 20
45.0
 11
-78.6493911979
 21
45.0
  0
LINE
  5
319
100
AcDbEntity
  8
SMUSSO
100
AcDbLine
 62
250
  6
CONTINUOUS
 10
51.7
 20
8.4
 11
51.7
 21
7.9
  0
LINE
  5
31A
100
AcDbEntity
  8
ASSI
100
AcDbLine
 62
250
  6
CONTINUOUS
 10
51.7
 20
8.4
 11
51.7
 21
7.9
  0
LINE
  5
31B
100
AcDbEntity
  8
SMUSSO
100
AcDbLine
 62
250
  6
CONTINUOUS
 10
51.7
 20
-8.4
 11
51.7
 21
-7.9
  0
LINE
  5
31C
100
AcDbEntity
  8
ASSI
100
AcDbLine
 62
250
  6
CONTINUOUS
 10
51.7
 20
-8.4
 11
51.7
 21
-7.9
  0
LINE
  5
31D
100
AcDbEntity
  8
SMUSSO
100
AcDbLine
 62
7
  6
CONTINUOUS
 10
52.9
 20
6.7
 11
52.9
 21
-6.7
  0
LINE
  5
31E
100
AcDbEntity
  8
ASSI
100
AcDbLine
 62
7
  6
CONTINUOUS
 10
52.9
 20
6.7
 11
52.9
 21
-6.7
  0
LINE
  5
31F
100
AcDbEntity
  8
SMUSSO
100
AcDbLine
 62
7
  6
CONTINUOUS
 10
53.4
 20
6.7
 11
53.4
 21
-6.7
  0
LINE
  5
320
100
AcDbEntity
  8
ASSI
100
AcDbLine
 62
7
  6
CONTINUOUS
 10
53.4
 20
6.7
 11
53.4
 21
-6.7
  0
LINE
  5
321
100
AcDbEntity
  8
ASSI
100
AcDbLine
 62
7
  6
CONTINUOUS
 10
78.0267374102
 20
43.7712689598
 11
78.4699854699
 21
44.7906993223
  0
LINE
  5
322
100
AcDbEntity
  8
CURVE
100
AcDbLine
 62
250
  6
CONTINUOUS
 10
79.5404101948
 20
-34.842919
 11
79.5973759453
 21
-34.955522
  0
LINE
  5
323
100
AcDbEntity
  8
ASSI
100
AcDbLine
 62
7
  6
CONTINUOUS
 10
78.0267374102
 20
-43.7712689598
 11
78.4699854699
 21
-44.7906993223
  0
LWPOLYLINE
  5
324
100
AcDbEntity
  8
0
100
AcDbPolyline
 62
7
  6
CONTINUOUS
 90
8
 70
0
 43
0.3500000006
 10
-3.3214284925
 20
57.0512497559
 10
-2.464285738
 20
57.0512497559
 10
-2.0357142191
 20
57.4798187256
 10
-2.0357142191
 20
58.336956665
 10
-2.464285738
 20
58.7655346985
 10
-3.3214284925
 20
58.7655346985
 10
-3.3214284925
 20
60.0512416077
 10
-2.0357142191
 20
60.0512416077
  0
LWPOLYLINE
  5
325
100
AcDbEntity
  8
0
100
AcDbPolyline
 62
7
  6
CONTINUOUS
 90
6
 70
0
 43
0.3500000006
 10
2.8928572569
 20
57.0512497559
 10
3.9642856293
 20
57.0512497559
 10
4.1785715303
 20
57.2655342407
 10
4.1785715303
 20
58.336956665
 10
3.7500000114
 20
58.7655346985
 10
3.3214284925
 20
58.7655346985
  0
LINE
  5
326
100
AcDbEntity
  8
CURVE
100
AcDbLine
 62
250
  6
CONTINUOUS
 10
79.5973759453
 20
-35.454708
 11
79.510136417
 21
-35.228996
  0
LWPOLYLINE
  5
327
100
AcDbEntity
  8
0
100
AcDbPolyline
 62
7
  6
CONTINUOUS
 90
10
 70
0
 43
0.3500000006
 10
90.440687439
 20
-1.9285708809
 10
89.5835404358
 20
-1.0714295425
 10
88.7264024963
 20
-0.8571427917
 10
87.8692554932
 20
-0.8571427917
 10
87.4406865234
 20
-1.2857140274
 10
87.4406865234
 20
-1.9285708809
 10
87.8692554932
 20
-2.3571432495
 10
88.7264024963
 20
-2.3571432495
 10
89.1549714661
 20
-1.9285708809
 10
89.1549714661
 20
-1.0000006256
  0
LINE
  5
328
100
AcDbEntity
  8
CURVE
100
AcDbLine
 62
250
  6
CONTINUOUS
 10
79.510136417
 20
-36.451037
 11
79.5973759453
 21
-37.254552
  0
LINE
  5
329
100
AcDbEntity
  8
CURVE
100
AcDbLine
 62
250
  6
CONTINUOUS
 10
79.5585720674
 20
-34.191353
 11
79.510136417
 21
-33.66956
  0
LINE
  5
32A
100
AcDbEntity
  8
CURVE
100
AcDbLine
 62
250
  6
CONTINUOUS
 10
79.540647651
 20
-33.5372
 11
79.5973759453
 21
-34.157611
  0
LINE
  5
32B
100
AcDbEntity
  8
ASSI
100
AcDbLine
 62
7
  6
CONTINUOUS
 10
78.4212689598
 20
-43.3767374102
 11
78.4212689598
 21
43.3767374102
  0
LINE
  5
32C
100
AcDbEntity
  8
ASSI
100
AcDbLine
 62
7
  6
CONTINUOUS
 10
79.4561684565
 20
-43.8055596544
 11
79.4561684565
 21
43.8055596544
  0
LINE
  5
32D
100
AcDbEntity
  8
CURVE
100
AcDbLine
 62
250
  6
CONTINUOUS
 10
79.510131217
 20
-35.735605
 11
79.510131217
 21
-36.257398
  0
LINE
  5
32E
100
AcDbEntity
  8
CURVE
100
AcDbLine
 62
250
  6
CONTINUOUS
 10
79.510136417
 20
-38.506847
 11
79.510136417
 21
-37.940019
  0
LINE
  5
32F
100
AcDbEntity
  8
CURVE
100
AcDbLine
 62
250
  6
CONTINUOUS
 10
79.510136417
 20
-36.972473
 11
79.510136417
 21
-36.451037
  0
LINE
  5
330
100
AcDbEntity
  8
CURVE
100
AcDbLine
 62
250
  6
CONTINUOUS
 10
79.510136417
 20
-35.228996
 11
79.510136417
 21
-34.707635
  0
LINE
  5
331
100
AcDbEntity
  8
CURVE
100
AcDbLine
 62
250
  6
CONTINUOUS
 10
79.510136417
 20
-33.66956
 11
79.510136417
 21
-33.153297
  0
LINE
  5
332
100
AcDbEntity
  8
CURVE
100
AcDbLine
 62
250
  6
CONTINUOUS
 10
79.510136417
 20
-32.053532
 11
79.510136417
 21
-31.54876
  0
LINE
  5
333
100
AcDbEntity
  8
CURVE
100
AcDbLine
 62
250
  6
CONTINUOUS
 10
79.5489474951
 20
-29.8279642095
 11
79.5489474951
 21
-30.126163664
  0
LINE
  5
334
100
AcDbEntity
  8
CURVE
100
AcDbLine
 62
250
  6
CONTINUOUS
 10
79.5632352194
 20
-30.1088617972
 11
79.5632352194
 21
-29.8290889245
  0
LINE
  5
335
100
AcDbEntity
  8
CURVE
100
AcDbLine
 62
250
  6
CONTINUOUS
 10
79.5664833296
 20
-32.070759
 11
79.5664833296
 21
-31.571179
  0
LINE
  5
336
100
AcDbEntity
  8
CURVE
100
AcDbLine
 62
250
  6
CONTINUOUS
 10
79.57995984
 20
-31.466899
 11
79.57995984
 21
-32.177494
  0
LINE
  5
337
100
AcDbEntity
  8
CURVE
100
AcDbLine
 62
250
  6
CONTINUOUS
 10
79.5973759453
 20
-36.257398
 11
79.5973759453
 21
-35.735605
  0
LINE
  5
338
100
AcDbEntity
  8
CURVE
100
AcDbLine
 62
250
  6
CONTINUOUS
 10
79.5973759458
 20
-30.6285551388
 11
79.5973759458
 21
-30.1088617972
  0
LINE
  5
339
100
AcDbEntity
  8
CURVE
100
AcDbLine
 62
250
  6
CONTINUOUS
 10
79.5973759458
 20
-29.3098079785
 11
79.5973759458
 21
-28.8079038802
  0
LINE
  5
33A
100
AcDbEntity
  8
CURVE
100
AcDbLine
 62
250
  6
CONTINUOUS
 10
79.5973759453
 20
-30.781779
 11
79.5973759453
 21
-31.331727
  0
LINE
  5
33B
100
AcDbEntity
  8
CURVE
100
AcDbLine
 62
250
  6
CONTINUOUS
 10
79.5973759453
 20
-32.321477
 11
79.5973759453
 21
-32.837608
  0
LINE
  5
33C
100
AcDbEntity
  8
CURVE
100
AcDbLine
 62
250
  6
CONTINUOUS
 10
79.5973759453
 20
-32.919544
 11
79.5973759453
 21
-33.429996
  0
LINE
  5
33D
100
AcDbEntity
  8
CURVE
100
AcDbLine
 62
250
  6
CONTINUOUS
 10
79.5973759453
 20
-34.157611
 11
79.5973759453
 21
-34.230793
  0
LINE
  5
33E
100
AcDbEntity
  8
CURVE
100
AcDbLine
 62
250
  6
CONTINUOUS
 10
79.5973759453
 20
-34.955522
 11
79.5973759453
 21
-35.454708
  0
LINE
  5
33F
100
AcDbEntity
  8
CURVE
100
AcDbLine
 62
250
  6
CONTINUOUS
 10
79.5973759453
 20
-37.254552
 11
79.5973759453
 21
-37.714382
  0
LINE
  5
340
100
AcDbEntity
  8
ASSI
100
AcDbLine
 62
7
  6
CONTINUOUS
 10
79.65
 20
-43.9993911979
 11
79.65
 21
43.9993911979
  0
LINE
  5
341
100
AcDbEntity
  8
CURVE
100
AcDbLine
 62
7
  6
CONTINUOUS
 10
79.5903230847
 20
-28.8611763
 11
79.5973759458
 21
-28.8541234389
  0
LINE
  5
342
100
AcDbEntity
  8
CURVE
100
AcDbLine
 62
7
  6
CONTINUOUS
 10
79.5630351519
 20
-29.0984749469
 11
79.5973759458
 21
-29.0641341529
  0
LINE
  5
343
100
AcDbEntity
  8
CURVE
100
AcDbLine
 62
7
  6
CONTINUOUS
 10
79.5164942614
 20
-29.1450158374
 11
79.5514044164
 21
-29.1101056824
  0
LINE
  5
344
100
AcDbEntity
  8
CURVE
100
AcDbLine
 62
7
  6
CONTINUOUS
 10
79.5118693599
 20
-29.3596514529
 11
79.5973759458
 21
-29.274144867
  0
LINE
  5
345
100
AcDbEntity
  8
CURVE
100
AcDbLine
 62
7
  6
CONTINUOUS
 10
79.5456825097
 20
-29.5358490171
 11
79.5739482785
 21
-29.5075832483
  0
LINE
  5
346
100
AcDbEntity
  8
CURVE
100
AcDbLine
 62
7
  6
CONTINUOUS
 10
79.5100810983
 20
-29.5714504285
 11
79.526596684
 21
-29.5549348428
  0
LINE
  5
347
100
AcDbEntity
  8
CURVE
100
AcDbLine
 62
7
  6
CONTINUOUS
 10
79.5487066428
 20
-29.742835598
 11
79.5638426981
 21
-29.7276995427
  0
LINE
  5
348
100
AcDbEntity
  8
CURVE
100
AcDbLine
 62
7
  6
CONTINUOUS
 10
79.5093194135
 20
-29.7822228273
 11
79.5243228778
 21
-29.7672193631
  0
LINE
  5
349
100
AcDbEntity
  8
CURVE
100
AcDbLine
 62
7
  6
CONTINUOUS
 10
79.5489474951
 20
-29.9526054597
 11
79.5632352194
 21
-29.9383177355
  0
LINE
  5
34A
100
AcDbEntity
  8
CURVE
100
AcDbLine
 62
7
  6
CONTINUOUS
 10
79.5091438682
 20
-29.9924090866
 11
79.5243312878
 21
-29.977221667
  0
LINE
  5
34B
100
AcDbEntity
  8
CURVE
100
AcDbLine
 62
7
  6
CONTINUOUS
 10
79.5094624149
 20
-30.202101254
 11
79.5973759458
 21
-30.114187723
  0
LINE
  5
34C
100
AcDbEntity
  8
CURVE
100
AcDbLine
 62
7
  6
CONTINUOUS
 10
79.5101645785
 20
-30.4114098043
 11
79.5973759458
 21
-30.324198437
  0
LINE
  5
34D
100
AcDbEntity
  8
CURVE
100
AcDbLine
 62
7
  6
CONTINUOUS
 10
79.5111167529
 20
-30.620468344
 11
79.5973759458
 21
-30.534209151
  0
LINE
  5
34E
100
AcDbEntity
  8
CURVE
100
AcDbLine
 62
7
  6
CONTINUOUS
 10
79.575243127
 20
-30.9763633979
 11
79.5973759453
 21
-30.9542305796
  0
LINE
  5
34F
100
AcDbEntity
  8
CURVE
100
AcDbLine
 62
7
  6
CONTINUOUS
 10
79.5482898861
 20
-31.2133273528
 11
79.5973759453
 21
-31.1642412936
  0
LINE
  5
350
100
AcDbEntity
  8
CURVE
100
AcDbLine
 62
7
  6
CONTINUOUS
 10
79.5213366452
 20
-31.4502913077
 11
79.5910864936
 21
-31.3805414593
  0
LINE
  5
351
100
AcDbEntity
  8
CURVE
100
AcDbLine
 62
7
  6
CONTINUOUS
 10
79.5664833296
 20
-31.6151553374
 11
79.57995984
 21
-31.6016788269
  0
LINE
  5
352
100
AcDbEntity
  8
CURVE
100
AcDbLine
 62
7
  6
CONTINUOUS
 10
79.510136417
 20
-31.67150225
 11
79.5596183479
 21
-31.6220203191
  0
LINE
  5
353
100
AcDbEntity
  8
CURVE
100
AcDbLine
 62
7
  6
CONTINUOUS
 10
79.510136417
 20
-31.881512964
 11
79.5392702529
 21
-31.8523791281
  0
LINE
  5
354
100
AcDbEntity
  8
CURVE
100
AcDbLine
 62
7
  6
CONTINUOUS
 10
79.5664833296
 20
-31.8251660514
 11
79.57995984
 21
-31.8116895409
  0
LINE
  5
355
100
AcDbEntity
  8
CURVE
100
AcDbLine
 62
7
  6
CONTINUOUS
 10
79.5664833296
 20
-32.0351767654
 11
79.57995984
 21
-32.0217002549
  0
LINE
  5
356
100
AcDbEntity
  8
CURVE
100
AcDbLine
 62
7
  6
CONTINUOUS
 10
79.5139402928
 20
-32.0877198022
 11
79.5625406183
 21
-32.0391194766
  0
LINE
  5
357
100
AcDbEntity
  8
CURVE
100
AcDbLine
 62
7
  6
CONTINUOUS
 10
79.5349673892
 20
-32.2767034198
 11
79.5858102345
 21
-32.2258605744
  0
LINE
  5
358
100
AcDbEntity
  8
CURVE
100
AcDbLine
 62
7
  6
CONTINUOUS
 10
79.5559944856
 20
-32.4656870373
 11
79.5973759453
 21
-32.4243055777
  0
LINE
  5
359
100
AcDbEntity
  8
CURVE
100
AcDbLine
 62
7
  6
CONTINUOUS
 10
79.5770215821
 20
-32.6546706549
 11
79.5973759453
 21
-32.6343162917
  0
LINE
  5
35A
100
AcDbEntity
  8
CURVE
100
AcDbLine
 62
7
  6
CONTINUOUS
 10
79.5171147898
 20
-33.1345988752
 11
79.5973759453
 21
-33.0543377198
  0
LINE
  5
35B
100
AcDbEntity
  8
CURVE
100
AcDbLine
 62
7
  6
CONTINUOUS
 10
79.510136417
 20
-33.3515879621
 11
79.5973759453
 21
-33.2643484338
  0
LINE
  5
35C
100
AcDbEntity
  8
CURVE
100
AcDbLine
 62
7
  6
CONTINUOUS
 10
79.510136417
 20
-33.5615986761
 11
79.5475173912
 21
-33.5242177019
  0
LINE
  5
35D
100
AcDbEntity
  8
CURVE
100
AcDbLine
 62
7
  6
CONTINUOUS
 10
79.5188045689
 20
-33.7629412381
 11
79.557729505
 21
-33.724016302
  0
LINE
  5
35E
100
AcDbEntity
  8
CURVE
100
AcDbLine
 62
250
  6
CONTINUOUS
 10
79.5341076249
 20
-31.81095
 11
79.5664833296
 21
-32.070759
  0
LINE
  5
35F
100
AcDbEntity
  8
CURVE
100
AcDbLine
 62
250
  6
CONTINUOUS
 10
79.5701860964
 20
-37.463524
 11
79.510136417
 21
-36.972473
  0
LINE
  5
360
100
AcDbEntity
  8
CURVE
100
AcDbLine
 62
250
  6
CONTINUOUS
 10
79.57995984
 20
-32.177494
 11
79.5973759453
 21
-32.321477
  0
LINE
  5
361
100
AcDbEntity
  8
CURVE
100
AcDbLine
 62
250
  6
CONTINUOUS
 10
79.5973759453
 20
-32.837608
 11
79.510136417
 21
-32.053532
  0
LINE
  5
362
100
AcDbEntity
  8
CURVE
100
AcDbLine
 62
250
  6
CONTINUOUS
 10
79.5973759453
 20
-34.230793
 11
79.5404101948
 21
-34.842919
  0
LINE
  5
363
100
AcDbEntity
  8
CURVE
100
AcDbLine
 62
250
  6
CONTINUOUS
 10
79.510136417
 20
-34.707635
 11
79.5585720674
 21
-34.191353
  0
LINE
  5
364
100
AcDbEntity
  8
CURVE
100
AcDbLine
 62
250
  6
CONTINUOUS
 10
79.5973759453
 20
-37.714382
 11
79.510136417
 21
-38.506847
  0
LINE
  5
365
100
AcDbEntity
  8
CURVE
100
AcDbLine
 62
250
  6
CONTINUOUS
 10
79.510136417
 20
-31.54876
 11
79.5973759453
 21
-30.781779
  0
LINE
  5
366
100
AcDbEntity
  8
CURVE
100
AcDbLine
 62
250
  6
CONTINUOUS
 10
79.510136417
 20
-37.940019
 11
79.5701860964
 21
-37.463524
  0
LINE
  5
367
100
AcDbEntity
  8
CURVE
100
AcDbLine
 62
250
  6
CONTINUOUS
 10
79.5973759453
 20
-31.331727
 11
79.57995984
 21
-31.466899
  0
LINE
  5
368
100
AcDbEntity
  8
CURVE
100
AcDbLine
 62
250
  6
CONTINUOUS
 10
79.5664833296
 20
-31.571179
 11
79.5341076249
 21
-31.81095
  0
LINE
  5
369
100
AcDbEntity
  8
CURVE
100
AcDbLine
 62
250
  6
CONTINUOUS
 10
79.510136417
 20
-33.153297
 11
79.5973759453
 21
-32.919544
  0
LINE
  5
36A
100
AcDbEntity
  8
CURVE
100
AcDbLine
 62
250
  6
CONTINUOUS
 10
79.5973759453
 20
-33.429996
 11
79.540647651
 21
-33.5372
  0
LINE
  5
36B
100
AcDbEntity
  8
ASSI
100
AcDbLine
 62
7
  6
CONTINUOUS
 10
78.4699854699
 20
-44.7906993223
 11
78.4555596544
 21
-44.8061684565
  0
LINE
  5
36C
100
AcDbEntity
  8
CURVE
100
AcDbLine
 62
7
  6
CONTINUOUS
 10
79.5366430369
 20
-33.9551134842
 11
79.5753234472
 21
-33.9164330739
  0
LINE
  5
36D
100
AcDbEntity
  8
CURVE
100
AcDbLine
 62
7
  6
CONTINUOUS
 10
79.5544815049
 20
-34.1472857302
 11
79.5929173894
 21
-34.1088498457
  0
LINE
  5
36E
100
AcDbEntity
  8
CURVE
100
AcDbLine
 62
7
  6
CONTINUOUS
 10
79.5418156053
 20
-34.3699623438
 11
79.5887967113
 21
-34.3229812378
  0
LINE
  5
36F
100
AcDbEntity
  8
CURVE
100
AcDbLine
 62
7
  6
CONTINUOUS
 10
79.5200734126
 20
-34.6017152505
 11
79.5672472255
 21
-34.5545414376
  0
LINE
  5
370
100
AcDbEntity
  8
CURVE
100
AcDbLine
 62
7
  6
CONTINUOUS
 10
79.510136417
 20
-34.8216629601
 11
79.5456977397
 21
-34.7861016374
  0
LINE
  5
371
100
AcDbEntity
  8
CURVE
100
AcDbLine
 62
7
  6
CONTINUOUS
 10
79.510136417
 20
-35.0316736742
 11
79.5936510376
 21
-34.9481590535
  0
LINE
  5
372
100
AcDbEntity
  8
CURVE
100
AcDbLine
 62
7
  6
CONTINUOUS
 10
79.5136734791
 20
-35.238147326
 11
79.5973759453
 21
-35.1544448599
  0
LINE
  5
373
100
AcDbEntity
  8
CURVE
100
AcDbLine
 62
7
  6
CONTINUOUS
 10
79.5722168444
 20
-35.3896146748
 11
79.5973759453
 21
-35.3644555739
  0
LINE
  5
374
100
AcDbEntity
  8
CURVE
100
AcDbLine
 62
7
  6
CONTINUOUS
 10
79.510131217
 20
-35.8717217302
 11
79.5973759453
 21
-35.7844770019
  0
LINE
  5
375
100
AcDbEntity
  8
CURVE
100
AcDbLine
 62
7
  6
CONTINUOUS
 10
79.510131217
 20
-36.0817324442
 11
79.5973759453
 21
-35.9944877159
  0
LINE
  5
376
100
AcDbEntity
  8
CURVE
100
AcDbLine
 62
7
  6
CONTINUOUS
 10
79.5444763752
 20
-36.257398
 11
79.5973759453
 21
-36.2044984299
  0
LINE
  5
377
100
AcDbEntity
  8
CURVE
100
AcDbLine
 62
7
  6
CONTINUOUS
 10
79.510136417
 20
-36.5017486722
 11
79.5151030629
 21
-36.4967820263
  0
LINE
  5
378
100
AcDbEntity
  8
CURVE
100
AcDbLine
 62
7
  6
CONTINUOUS
 10
79.510136417
 20
-36.7117593863
 11
79.5356712835
 21
-36.6862245197
  0
LINE
  5
379
100
AcDbEntity
  8
CURVE
100
AcDbLine
 62
7
  6
CONTINUOUS
 10
79.510136417
 20
-36.9217701003
 11
79.5562395041
 21
-36.8756670131
  0
LINE
  5
37A
100
AcDbEntity
  8
CURVE
100
AcDbLine
 62
7
  6
CONTINUOUS
 10
79.5274951021
 20
-37.1144221291
 11
79.5768077247
 21
-37.0651095066
  0
LINE
  5
37B
100
AcDbEntity
  8
CURVE
100
AcDbLine
 62
7
  6
CONTINUOUS
 10
79.5503785362
 20
-37.3015494091
 11
79.5973759453
 21
-37.254552
  0
LINE
  5
37C
100
AcDbEntity
  8
CURVE
100
AcDbLine
 62
7
  6
CONTINUOUS
 10
79.5661156553
 20
-37.495823004
 11
79.5973759453
 21
-37.464562714
  0
LINE
  5
37D
100
AcDbEntity
  8
CURVE
100
AcDbLine
 62
7
  6
CONTINUOUS
 10
79.5358329857
 20
-37.7361163876
 11
79.5973759453
 21
-37.674573428
  0
LINE
  5
37E
100
AcDbEntity
  8
CURVE
100
AcDbLine
 62
7
  6
CONTINUOUS
 10
79.510136417
 20
-37.9718236703
 11
79.5763211831
 21
-37.9056389042
  0
LINE
  5
37F
100
AcDbEntity
  8
CURVE
100
AcDbLine
 62
7
  6
CONTINUOUS
 10
79.510136417
 20
-38.1818343843
 11
79.5503419235
 21
-38.1416288779
  0
LINE
  5
380
100
AcDbEntity
  8
CURVE
100
AcDbLine
 62
7
  6
CONTINUOUS
 10
79.510136417
 20
-38.3918450984
 11
79.5243626638
 21
-38.3776188515
  0
LINE
  5
381
100
AcDbEntity
  8
ASSI
100
AcDbLine
 62
7
  6
CONTINUOUS
 10
78.0267374102
 20
-43.7712689598
 11
78.4212689598
 21
-43.3767374102
  0
LINE
  5
382
100
AcDbEntity
  8
ASSI
100
AcDbLine
 62
7
  6
CONTINUOUS
 10
78.4699854699
 20
-44.7906993223
 11
79.4406993223
 21
-43.8199854699
  0
LINE
  5
383
100
AcDbEntity
  8
ASSI
100
AcDbLine
 62
7
  6
CONTINUOUS
 10
79.65
 20
-43.9993911979
 11
78.6493911979
 21
-45.0
  0
LINE
  5
384
100
AcDbEntity
  8
ASSI
100
AcDbLine
 62
7
  6
CONTINUOUS
 10
79.4561684565
 20
-43.8055596544
 11
79.4406993223
 21
-43.8199854699
  0
LINE
  5
385
100
AcDbEntity
  8
ASSI
100
AcDbLine
 62
7
  6
CONTINUOUS
 10
79.4406993223
 20
43.8199854699
 11
79.4561684565
 21
43.8055596544
  0
LINE
  5
386
100
AcDbEntity
  8
ASSI
100
AcDbLine
 62
7
  6
CONTINUOUS
 10
78.4212689598
 20
43.3767374102
 11
78.0267374102
 21
43.7712689598
  0
LINE
  5
387
100
AcDbEntity
  8
ASSI
100
AcDbLine
 62
7
  6
CONTINUOUS
 10
79.4406993223
 20
43.8199854699
 11
78.4699854699
 21
44.7906993223
  0
LINE
  5
388
100
AcDbEntity
  8
ASSI
100
AcDbLine
 62
7
  6
CONTINUOUS
 10
78.6493911979
 20
45.0
 11
79.65
 21
43.9993911979
  0
LINE
  5
389
100
AcDbEntity
  8
ASSI
100
AcDbLine
 62
7
  6
CONTINUOUS
 10
78.4555596544
 20
44.8061684565
 11
78.4699854699
 21
44.7906993223
  0
LWPOLYLINE
  5
38A
100
AcDbEntity
  8
0
100
AcDbPolyline
 62
7
  6
CONTINUOUS
 90
3
 70
0
 43
0.3500000006
 10
-133.5086784668
 20
70.4082464905
 10
-132.6515314636
 20
71.2653844299
 10
-132.6515314636
 20
68.2653835144
  0
LWPOLYLINE
  5
38B
100
AcDbEntity
  8
0
100
AcDbPolyline
 62
7
  6
CONTINUOUS
 90
3
 70
0
 43
0.3500000006
 10
-127.7229611206
 20
70.4082464905
 10
-126.8658231812
 20
71.2653844299
 10
-126.8658231812
 20
68.2653835144
  0
LWPOLYLINE
  5
38C
100
AcDbEntity
  8
0
100
AcDbPolyline
 62
7
  6
CONTINUOUS
 90
3
 70
0
 43
0.3500000006
 10
-127.5257436218
 20
60.8056785278
 10
-126.6685966187
 20
61.6628164673
 10
-126.6685966187
 20
58.6628246155
  0
LINE
  5
38D
100
AcDbEntity
  8
ASSI
100
AcDbLine
 62
7
  6
CONTINUOUS
 10
-119.6612314128
 20
-44.8061684565
 11
-114.1106222399
 21
-45.0
  0
LINE
  5
38E
100
AcDbEntity
  8
ASSI
100
AcDbLine
 62
7
  6
CONTINUOUS
 10
-119.6612314128
 20
-43.8055596544
 11
-114.1106222399
 21
-43.9993911979
  0
LINE
  5
38F
100
AcDbEntity
  8
0
100
AcDbLine
 62
7
  6
CONTINUOUS
 10
-114.1106222399
 20
-42.7580439128
 11
-113.5106222399
 21
-42.8
  0
LINE
  5
390
100
AcDbEntity
  8
ASSI
100
AcDbLine
 62
7
  6
CONTINUOUS
 10
-120.6606222399
 20
43.3767374102
 11
-119.6761697821
 21
43.8199854699
  0
LINE
  5
391
100
AcDbEntity
  8
0
100
AcDbLine
 62
250
  6
CONTINUOUS
 10
-114.1106222399
 20
-41.1619414324
 11
-113.5106222399
 21
-41.2038975196
  0
LINE
  5
392
100
AcDbEntity
  8
ASSI
100
AcDbLine
 62
7
  6
CONTINUOUS
 10
-120.6606222399
 20
-43.3767374102
 11
-119.6761697821
 21
-43.8199854699
  0
LINE
  5
393
100
AcDbEntity
  8
CURVE
100
AcDbLine
 62
250
  6
CONTINUOUS
 10
-118.1157912284
 20
-37.940019
 11
-116.3961933994
 21
-37.463524
  0
LINE
  5
394
100
AcDbEntity
  8
CURVE
100
AcDbLine
 62
250
  6
CONTINUOUS
 10
-118.1159401376
 20
-36.257398
 11
-115.617578
 21
-36.257398
  0
LINE
  5
395
100
AcDbEntity
  8
CURVE
100
AcDbLine
 62
250
  6
CONTINUOUS
 10
-116.3961933994
 20
-37.463524
 11
-118.1157912284
 21
-36.972473
  0
LWPOLYLINE
  5
396
100
AcDbEntity
  8
0
100
AcDbPolyline
 62
7
  6
CONTINUOUS
 90
3
 70
0
 43
0.3500000006
 10
-128.7229614258
 20
68.5510991821
 10
-128.7943926086
 20
68.3368146973
 10
-128.9372459106
 20
68.0510990295
  0
LINE
  5
397
100
AcDbEntity
  8
ASSI
100
AcDbLine
 62
7
  6
CONTINUOUS
 10
-119.6612314128
 20
44.8061684565
 11
-120.6606222399
 21
43.7712689598
  0
LINE
  5
398
100
AcDbEntity
  8
CURVE
100
AcDbLine
 62
250
  6
CONTINUOUS
 10
-115.617578
 20
-33.429996
 11
-117.242063804
 21
-33.5372
  0
LINE
  5
399
100
AcDbEntity
  8
CURVE
100
AcDbLine
 62
250
  6
CONTINUOUS
 10
-115.617578
 20
-35.735605
 11
-118.1159401376
 21
-35.735605
  0
LINE
  5
39A
100
AcDbEntity
  8
CURVE
100
AcDbLine
 62
250
  6
CONTINUOUS
 10
-117.2488636591
 20
-34.842919
 11
-115.617578
 21
-34.955522
  0
LINE
  5
39B
100
AcDbEntity
  8
CURVE
100
AcDbLine
 62
250
  6
CONTINUOUS
 10
-115.617578
 20
-35.454708
 11
-118.1157912284
 21
-35.228996
  0
LINE
  5
39C
100
AcDbEntity
  8
CURVE
100
AcDbLine
 62
250
  6
CONTINUOUS
 10
-118.1157912284
 20
-36.451037
 11
-115.617578
 21
-37.254552
  0
LINE
  5
39D
100
AcDbEntity
  8
ASSI
100
AcDbLine
 62
7
  6
CONTINUOUS
 10
-120.6606222399
 20
-43.7712689598
 11
-119.6612314128
 21
-44.8061684565
  0
LWPOLYLINE
  5
39E
100
AcDbEntity
  8
0
100
AcDbPolyline
 62
7
  6
CONTINUOUS
 90
3
 70
0
 43
0.3500000006
 10
-128.525743927
 20
58.9485312195
 10
-128.5971660461
 20
58.7342467346
 10
-128.7400284119
 20
58.4485310669
  0
LINE
  5
39F
100
AcDbEntity
  8
CURVE
100
AcDbLine
 62
250
  6
CONTINUOUS
 10
-115.617578
 20
-31.331727
 11
-116.1163100008
 21
-31.466899
  0
LINE
  5
3A0
100
AcDbEntity
  8
CURVE
100
AcDbLine
 62
250
  6
CONTINUOUS
 10
-116.5022267674
 20
-31.571179
 11
-117.4293456474
 21
-31.81095
  0
LINE
  5
3A1
100
AcDbEntity
  8
CURVE
100
AcDbLine
 62
250
  6
CONTINUOUS
 10
-118.1157912284
 20
-33.153297
 11
-115.617578
 21
-32.919544
  0
LINE
  5
3A2
100
AcDbEntity
  8
CURVE
100
AcDbLine
 62
250
  6
CONTINUOUS
 10
-118.0866033723
 20
-30.6285551388
 11
-115.6175779835
 21
-30.6285551388
  0
LINE
  5
3A3
100
AcDbEntity
  8
CURVE
100
AcDbLine
 62
250
  6
CONTINUOUS
 10
-117.0043873652
 20
-30.126163664
 11
-117.6901954871
 21
-30.126163664
  0
LINE
  5
3A4
100
AcDbEntity
  8
CURVE
100
AcDbLine
 62
250
  6
CONTINUOUS
 10
-115.6175779835
 20
-30.1088617972
 11
-116.5952404742
 21
-30.1088617972
  0
LINE
  5
3A5
100
AcDbEntity
  8
CURVE
100
AcDbLine
 62
250
  6
CONTINUOUS
 10
-117.4293456474
 20
-31.81095
 11
-116.5022267674
 21
-32.070759
  0
LINE
  5
3A6
100
AcDbEntity
  8
CURVE
100
AcDbLine
 62
250
  6
CONTINUOUS
 10
-116.1163100008
 20
-32.177494
 11
-115.617578
 21
-32.321477
  0
LINE
  5
3A7
100
AcDbEntity
  8
CURVE
100
AcDbLine
 62
250
  6
CONTINUOUS
 10
-115.617578
 20
-32.837608
 11
-118.1157912284
 21
-32.053532
  0
LINE
  5
3A8
100
AcDbEntity
  8
CURVE
100
AcDbLine
 62
250
  6
CONTINUOUS
 10
-116.7287756758
 20
-34.191353
 11
-118.1157912284
 21
-33.66956
  0
LINE
  5
3A9
100
AcDbEntity
  8
CURVE
100
AcDbLine
 62
250
  6
CONTINUOUS
 10
-117.242063804
 20
-33.5372
 11
-115.617578
 21
-34.157611
  0
LINE
  5
3AA
100
AcDbEntity
  8
0
100
AcDbLine
 62
7
  6
CONTINUOUS
 10
-112.5847850889
 20
-27.1501294387
 11
-113.5106222399
 21
-27.151745331
  0
LINE
  5
3AB
100
AcDbEntity
  8
0
100
AcDbLine
 62
250
  6
CONTINUOUS
 10
-112.5848496561
 20
-26.9276792439
 11
-113.5106222399
 21
-26.9280974384
  0
LINE
  5
3AC
100
AcDbEntity
  8
CURVE
100
AcDbLine
 62
250
  6
CONTINUOUS
 10
-116.783721558
 20
-29.2870512436
 11
-116.7984838176
 21
-29.2870512436
  0
LINE
  5
3AD
100
AcDbEntity
  8
0
100
AcDbLine
 62
7
  6
CONTINUOUS
 10
-111.0605730076
 20
-26.3415638603
 11
-113.5106222399
 21
-26.3558178298
  0
LINE
  5
3AE
100
AcDbEntity
  8
0
100
AcDbLine
 62
250
  6
CONTINUOUS
 10
-111.0605730076
 20
-26.2536973817
 11
-113.5106222399
 21
-26.2679513512
  0
LINE
  5
3AF
100
AcDbEntity
  8
0
100
AcDbLine
 62
7
  6
CONTINUOUS
 10
-112.560497861
 20
-25.2
 11
-113.5106222399
 21
-25.2
  0
LINE
  5
3B0
100
AcDbEntity
  8
0
100
AcDbLine
 62
7
  6
CONTINUOUS
 10
-113.5106222399
 20
-25.05
 11
-113.3606222399
 21
-25.05
  0
LINE
  5
3B1
100
AcDbEntity
  8
0
100
AcDbLine
 62
7
  6
CONTINUOUS
 10
-113.0606222399
 20
-25.05
 11
-112.8606222399
 21
-25.05
  0
LINE
  5
3B2
100
AcDbEntity
  8
0
100
AcDbLine
 62
7
  6
CONTINUOUS
 10
-113.5106222399
 20
-25.7558198745
 11
-110.7001550486
 21
-25.8799866677
  0
LINE
  5
3B3
100
AcDbEntity
  8
0
100
AcDbLine
 62
7
  6
CONTINUOUS
 10
-110.5106222399
 20
-25.4
 11
-112.460994142
 21
-25.2049628098
  0
LWPOLYLINE
  5
3B4
100
AcDbEntity
  8
0
100
AcDbPolyline
 62
7
  6
CONTINUOUS
 90
13
 70
0
 43
0.3500000006
 10
-131.7943935242
 20
69.1225305176
 10
-131.7943935242
 20
70.4082464905
 10
-131.5801090393
 20
70.8368154602
 10
-131.1515310059
 20
71.2653844299
 10
-130.937246521
 20
71.2653844299
 10
-130.5086775513
 20
70.8368154602
 10
-130.2943930664
 20
70.4082464905
 10
-130.2943930664
 20
69.1225305176
 10
-130.5086775513
 20
68.6939615479
 10
-130.937246521
 20
68.2653835144
 10
-131.1515310059
 20
68.2653835144
 10
-131.5801090393
 20
68.6939615479
 10
-131.7943935242
 20
69.1225305176
  0
LWPOLYLINE
  5
3B5
100
AcDbEntity
  8
0
100
AcDbPolyline
 62
7
  6
CONTINUOUS
 90
4
 70
0
 43
0.3500000006
 10
-131.5971669617
 20
61.0199630127
 10
-131.5971669617
 20
61.6628164673
 10
-130.0971665039
 20
61.6628164673
 10
-130.9543135071
 20
58.6628246155
  0
LINE
  5
3B6
100
AcDbEntity
  8
0
100
AcDbLine
 62
7
  6
CONTINUOUS
 10
-113.3606222399
 20
25.05
 11
-113.2106222399
 21
25.2
  0
LINE
  5
3B7
100
AcDbEntity
  8
0
100
AcDbLine
 62
7
  6
CONTINUOUS
 10
-112.8606222399
 20
25.05
 11
-112.7106222399
 21
25.2
  0
LINE
  5
3B8
100
AcDbEntity
  8
0
100
AcDbLine
 62
7
  6
CONTINUOUS
 10
-113.3606222399
 20
-25.05
 11
-113.2106222399
 21
-25.2
  0
LINE
  5
3B9
100
AcDbEntity
  8
0
100
AcDbLine
 62
7
  6
CONTINUOUS
 10
-112.8606222399
 20
-25.05
 11
-112.7106222399
 21
-25.2
  0
LINE
  5
3BA
100
AcDbEntity
  8
ASSI
100
AcDbLine
 62
7
  6
CONTINUOUS
 10
-120.6606222399
 20
-43.7712689598
 11
-120.6606222399
 21
43.7712689598
  0
LINE
  5
3BB
100
AcDbEntity
  8
ASSI
100
AcDbLine
 62
7
  6
CONTINUOUS
 10
-119.6761697821
 20
-44.7906993223
 11
-119.6761697821
 21
-43.8199854699
  0
LINE
  5
3BC
100
AcDbEntity
  8
ASSI
100
AcDbLine
 62
7
  6
CONTINUOUS
 10
-119.6761697821
 20
43.8199854699
 11
-119.6761697821
 21
44.7906993223
  0
LINE
  5
3BD
100
AcDbEntity
  8
ASSI
100
AcDbLine
 62
7
  6
CONTINUOUS
 10
-119.6612314128
 20
-43.8055596544
 11
-119.6612314128
 21
43.8055596544
  0
LINE
  5
3BE
100
AcDbEntity
  8
CURVE
100
AcDbLine
 62
250
  6
CONTINUOUS
 10
-118.1159401376
 20
-35.735605
 11
-118.1159401376
 21
-36.257398
  0
LINE
  5
3BF
100
AcDbEntity
  8
CURVE
100
AcDbLine
 62
250
  6
CONTINUOUS
 10
-118.1157912284
 20
-38.506847
 11
-118.1157912284
 21
-37.940019
  0
LINE
  5
3C0
100
AcDbEntity
  8
CURVE
100
AcDbLine
 62
250
  6
CONTINUOUS
 10
-118.1157912284
 20
-36.972473
 11
-118.1157912284
 21
-36.451037
  0
LINE
  5
3C1
100
AcDbEntity
  8
CURVE
100
AcDbLine
 62
250
  6
CONTINUOUS
 10
-118.1157912284
 20
-35.228996
 11
-118.1157912284
 21
-34.707635
  0
LINE
  5
3C2
100
AcDbEntity
  8
CURVE
100
AcDbLine
 62
250
  6
CONTINUOUS
 10
-118.1157912284
 20
-33.66956
 11
-118.1157912284
 21
-33.153297
  0
LINE
  5
3C3
100
AcDbEntity
  8
CURVE
100
AcDbLine
 62
250
  6
CONTINUOUS
 10
-118.1157912284
 20
-32.053532
 11
-118.1157912284
 21
-31.54876
  0
LINE
  5
3C4
100
AcDbEntity
  8
CURVE
100
AcDbLine
 62
250
  6
CONTINUOUS
 10
-117.0043873652
 20
-29.8279642095
 11
-117.0043873652
 21
-30.126163664
  0
LINE
  5
3C5
100
AcDbEntity
  8
CURVE
100
AcDbLine
 62
250
  6
CONTINUOUS
 10
-116.5952404742
 20
-30.1088617972
 11
-116.5952404742
 21
-29.8290889245
  0
LINE
  5
3C6
100
AcDbEntity
  8
CURVE
100
AcDbLine
 62
250
  6
CONTINUOUS
 10
-116.5022267674
 20
-32.070759
 11
-116.5022267674
 21
-31.571179
  0
LINE
  5
3C7
100
AcDbEntity
  8
CURVE
100
AcDbLine
 62
250
  6
CONTINUOUS
 10
-116.1163100008
 20
-31.466899
 11
-116.1163100008
 21
-32.177494
  0
LINE
  5
3C8
100
AcDbEntity
  8
CURVE
100
AcDbLine
 62
250
  6
CONTINUOUS
 10
-115.617578
 20
-36.257398
 11
-115.617578
 21
-35.735605
  0
LINE
  5
3C9
100
AcDbEntity
  8
CURVE
100
AcDbLine
 62
250
  6
CONTINUOUS
 10
-115.617578
 20
-30.781779
 11
-115.617578
 21
-31.331727
  0
LINE
  5
3CA
100
AcDbEntity
  8
CURVE
100
AcDbLine
 62
250
  6
CONTINUOUS
 10
-115.617578
 20
-32.321477
 11
-115.617578
 21
-32.837608
  0
LINE
  5
3CB
100
AcDbEntity
  8
CURVE
100
AcDbLine
 62
250
  6
CONTINUOUS
 10
-115.617578
 20
-32.919544
 11
-115.617578
 21
-33.429996
  0
LINE
  5
3CC
100
AcDbEntity
  8
CURVE
100
AcDbLine
 62
250
  6
CONTINUOUS
 10
-115.617578
 20
-34.157611
 11
-115.617578
 21
-34.230793
  0
LINE
  5
3CD
100
AcDbEntity
  8
CURVE
100
AcDbLine
 62
250
  6
CONTINUOUS
 10
-115.617578
 20
-34.955522
 11
-115.617578
 21
-35.454708
  0
LINE
  5
3CE
100
AcDbEntity
  8
CURVE
100
AcDbLine
 62
250
  6
CONTINUOUS
 10
-115.617578
 20
-37.254552
 11
-115.617578
 21
-37.714382
  0
LINE
  5
3CF
100
AcDbEntity
  8
CURVE
100
AcDbLine
 62
250
  6
CONTINUOUS
 10
-115.6175779835
 20
-30.6285551388
 11
-115.6175779835
 21
-30.1088617972
  0
LINE
  5
3D0
100
AcDbEntity
  8
CURVE
100
AcDbLine
 62
250
  6
CONTINUOUS
 10
-115.6175779835
 20
-29.3098079785
 11
-115.6175779835
 21
-28.8079038802
  0
LINE
  5
3D1
100
AcDbEntity
  8
0
100
AcDbLine
 62
250
  6
CONTINUOUS
 10
-112.5847851082
 20
-27.1501294388
 11
-112.5848496561
 21
-26.9276792439
  0
LINE
  5
3D2
100
AcDbEntity
  8
ASSI
100
AcDbLine
 62
7
  6
CONTINUOUS
 10
-114.1106222399
 20
-45.0
 11
-114.1106222399
 21
45.0
  0
LINE
  5
3D3
100
AcDbEntity
  8
0
100
AcDbLine
 62
7
  6
CONTINUOUS
 10
-113.5106222399
 20
-42.8
 11
-113.5106222399
 21
42.8
  0
LINE
  5
3D4
100
AcDbEntity
  8
0
100
AcDbLine
 62
250
  6
CONTINUOUS
 10
-112.5848496561
 20
26.9276792439
 11
-112.5847851082
 21
27.1501294388
  0
LINE
  5
3D5
100
AcDbEntity
  8
0
100
AcDbLine
 62
250
  6
CONTINUOUS
 10
-110.7001550486
 20
25.8799866677
 11
-110.7001550486
 21
25.3810467191
  0
LINE
  5
3D6
100
AcDbEntity
  8
0
100
AcDbLine
 62
250
  6
CONTINUOUS
 10
-110.7001550486
 20
-25.3810467191
 11
-110.7001550486
 21
-25.8799866677
  0
LINE
  5
3D7
100
AcDbEntity
  8
0
100
AcDbLine
 62
7
  6
CONTINUOUS
 10
-110.5106222399
 20
26.0883643404
 11
-110.5106222399
 21
25.4
  0
LINE
  5
3D8
100
AcDbEntity
  8
0
100
AcDbLine
 62
7
  6
CONTINUOUS
 10
-110.5106222399
 20
-25.4
 11
-110.5106222399
 21
-26.0883643404
  0
LWPOLYLINE
  5
3D9
100
AcDbEntity
  8
0
100
AcDbPolyline
 62
7
  6
CONTINUOUS
 90
10
 70
0
 43
0.3500000006
 10
-128.5971660461
 20
59.1628157043
 10
-128.525743927
 20
59.0199624023
 10
-128.525743927
 20
58.9485312195
 10
-128.668597229
 20
58.8056779175
 10
-128.7400284119
 20
58.8056779175
 10
-128.811450531
 20
58.8771091003
 10
-128.811450531
 20
58.9485312195
 10
-128.7400284119
 20
59.0913935852
 10
-128.668597229
 20
59.1628157043
 10
-128.5971660461
 20
59.1628157043
  0
LINE
  5
3DA
100
AcDbEntity
  8
CURVE
100
AcDbLine
 62
7
  6
CONTINUOUS
 10
-118.0897059886
 20
-29.4361550019
 11
-117.61067194
 21
-28.9571209534
  0
LINE
  5
3DB
100
AcDbEntity
  8
CURVE
100
AcDbLine
 62
7
  6
CONTINUOUS
 10
-118.1325732103
 20
-29.6890329377
 11
-117.3781146306
 21
-28.934574358
  0
LINE
  5
3DC
100
AcDbEntity
  8
CURVE
100
AcDbLine
 62
7
  6
CONTINUOUS
 10
-118.1440911705
 20
-29.9105616119
 11
-117.1977506737
 21
-28.9642211151
  0
LINE
  5
3DD
100
AcDbEntity
  8
CURVE
100
AcDbLine
 62
7
  6
CONTINUOUS
 10
-118.1400114872
 20
-30.1164926426
 11
-117.6967080154
 21
-29.6731891708
  0
LINE
  5
3DE
100
AcDbEntity
  8
CURVE
100
AcDbLine
 62
7
  6
CONTINUOUS
 10
-117.4533629297
 20
-29.4298440851
 11
-117.0495990269
 21
-29.0260801824
  0
LINE
  5
3DF
100
AcDbEntity
  8
0
100
AcDbLine
 62
7
  6
CONTINUOUS
 10
-113.2106222399
 20
-25.2
 11
-113.0606222399
 21
-25.05
  0
LINE
  5
3E0
100
AcDbEntity
  8
CURVE
100
AcDbLine
 62
7
  6
CONTINUOUS
 10
-118.1258917174
 20
-30.3123835868
 11
-117.7134075835
 21
-29.8998994529
  0
LINE
  5
3E1
100
AcDbEntity
  8
CURVE
100
AcDbLine
 62
7
  6
CONTINUOUS
 10
-117.2555878839
 20
-29.4420797533
 11
-116.9285315413
 21
-29.1150234107
  0
LINE
  5
3E2
100
AcDbEntity
  8
CURVE
100
AcDbLine
 62
7
  6
CONTINUOUS
 10
-118.1042237062
 20
-30.5007262896
 11
-117.695606255
 21
-30.0921088385
  0
LINE
  5
3E3
100
AcDbEntity
  8
CURVE
100
AcDbLine
 62
7
  6
CONTINUOUS
 10
-117.1188069461
 20
-29.5153095296
 11
-116.8287970475
 21
-29.225299631
  0
LINE
  5
3E4
100
AcDbEntity
  8
CURVE
100
AcDbLine
 62
7
  6
CONTINUOUS
 10
-118.0220418414
 20
-30.6285551388
 11
-117.5196503666
 21
-30.126163664
  0
LINE
  5
3E5
100
AcDbEntity
  8
CURVE
100
AcDbLine
 62
7
  6
CONTINUOUS
 10
-117.0355534872
 20
-29.6420667847
 11
-116.4136225527
 21
-29.0201358501
  0
LINE
  5
3E6
100
AcDbEntity
  8
CURVE
100
AcDbLine
 62
7
  6
CONTINUOUS
 10
-117.8120311273
 20
-30.6285551388
 11
-117.3096396525
 21
-30.126163664
  0
LINE
  5
3E7
100
AcDbEntity
  8
CURVE
100
AcDbLine
 62
7
  6
CONTINUOUS
 10
-117.0046781903
 20
-29.8212022018
 11
-116.124781886
 21
-28.9413058974
  0
LINE
  5
3E8
100
AcDbEntity
  8
CURVE
100
AcDbLine
 62
7
  6
CONTINUOUS
 10
-117.6020204133
 20
-30.6285551388
 11
-117.0996289385
 21
-30.126163664
  0
LINE
  5
3E9
100
AcDbEntity
  8
CURVE
100
AcDbLine
 62
7
  6
CONTINUOUS
 10
-117.0043873652
 20
-30.0309220906
 11
-115.8399638836
 21
-28.866498609
  0
LINE
  5
3EA
100
AcDbEntity
  8
CURVE
100
AcDbLine
 62
7
  6
CONTINUOUS
 10
-117.3920096993
 20
-30.6285551388
 11
-116.5952404742
 21
-29.8317859137
  0
LINE
  5
3EB
100
AcDbEntity
  8
CURVE
100
AcDbLine
 62
7
  6
CONTINUOUS
 10
-116.2621487219
 20
-29.4986941614
 11
-115.6175779835
 21
-28.854123423
  0
LINE
  5
3EC
100
AcDbEntity
  8
CURVE
100
AcDbLine
 62
7
  6
CONTINUOUS
 10
-118.1157912284
 20
-31.5623473819
 11
-118.0961842822
 21
-31.5427404357
  0
LINE
  5
3ED
100
AcDbEntity
  8
CURVE
100
AcDbLine
 62
7
  6
CONTINUOUS
 10
-117.1819989853
 20
-30.6285551388
 11
-116.5952404742
 21
-30.0417966277
  0
LINE
  5
3EE
100
AcDbEntity
  8
CURVE
100
AcDbLine
 62
7
  6
CONTINUOUS
 10
-115.9642039473
 20
-29.4107601008
 11
-115.6175779835
 21
-29.064134137
  0
LINE
  5
3EF
100
AcDbEntity
  8
CURVE
100
AcDbLine
 62
7
  6
CONTINUOUS
 10
-118.1157912284
 20
-31.7723580959
 11
-117.7931333481
 21
-31.4497002157
  0
LINE
  5
3F0
100
AcDbEntity
  8
CURVE
100
AcDbLine
 62
7
  6
CONTINUOUS
 10
-116.9719882713
 20
-30.6285551388
 11
-116.4522949297
 21
-30.1088617972
  0
LINE
  5
3F1
100
AcDbEntity
  8
CURVE
100
AcDbLine
 62
7
  6
CONTINUOUS
 10
-115.6679460811
 20
-29.3245129487
 11
-115.6175779835
 21
-29.274144851
  0
LINE
  5
3F2
100
AcDbEntity
  8
CURVE
100
AcDbLine
 62
7
  6
CONTINUOUS
 10
-118.1157912284
 20
-31.9823688099
 11
-117.4900824141
 21
-31.3566599956
  0
LINE
  5
3F3
100
AcDbEntity
  8
CURVE
100
AcDbLine
 62
7
  6
CONTINUOUS
 10
-116.7619775573
 20
-30.6285551388
 11
-116.2422842157
 21
-30.1088617972
  0
LINE
  5
3F4
100
AcDbEntity
  8
CURVE
100
AcDbLine
 62
7
  6
CONTINUOUS
 10
-118.0101117173
 20
-32.0867000128
 11
-117.1870314801
 21
-31.2636197756
  0
LINE
  5
3F5
100
AcDbEntity
  8
CURVE
100
AcDbLine
 62
7
  6
CONTINUOUS
 10
-116.5519668433
 20
-30.6285551388
 11
-116.0322735017
 21
-30.1088617972
  0
LINE
  5
3F6
100
AcDbEntity
  8
CURVE
100
AcDbLine
 62
7
  6
CONTINUOUS
 10
-117.8502685385
 20
-32.1368675481
 11
-116.883980546
 21
-31.1705795556
  0
LINE
  5
3F7
100
AcDbEntity
  8
CURVE
100
AcDbLine
 62
7
  6
CONTINUOUS
 10
-116.3419561293
 20
-30.6285551388
 11
-115.8222627877
 21
-30.1088617972
  0
LINE
  5
3F8
100
AcDbEntity
  8
CURVE
100
AcDbLine
 62
7
  6
CONTINUOUS
 10
-117.6904253598
 20
-32.1870350833
 11
-117.3395140304
 21
-31.836123754
  0
LINE
  5
3F9
100
AcDbEntity
  8
CURVE
100
AcDbLine
 62
7
  6
CONTINUOUS
 10
-117.2742223775
 20
-31.770832101
 11
-116.580929612
 21
-31.0775393356
  0
LINE
  5
3FA
100
AcDbEntity
  8
CURVE
100
AcDbLine
 62
7
  6
CONTINUOUS
 10
-116.1319454152
 20
-30.6285551388
 11
-115.6175779835
 21
-30.1141877071
  0
LINE
  5
3FB
100
AcDbEntity
  8
CURVE
100
AcDbLine
 62
7
  6
CONTINUOUS
 10
-117.530582181
 20
-32.2372026186
 11
-117.1754729785
 21
-31.8820934161
  0
LINE
  5
3FC
100
AcDbEntity
  8
CURVE
100
AcDbLine
 62
7
  6
CONTINUOUS
 10
-116.9909525753
 20
-31.6975730129
 11
-116.2778786779
 21
-30.9844991155
  0
LINE
  5
3FD
100
AcDbEntity
  8
CURVE
100
AcDbLine
 62
7
  6
CONTINUOUS
 10
-115.9219347012
 20
-30.6285551388
 11
-115.6175779835
 21
-30.3241984211
  0
LINE
  5
3FE
100
AcDbEntity
  8
0
100
AcDbLine
 62
7
  6
CONTINUOUS
 10
-113.2106222399
 20
25.2
 11
-113.0606222399
 21
25.05
  0
LWPOLYLINE
  5
3FF
100
AcDbEntity
  8
0
100
AcDbPolyline
 62
7
  6
CONTINUOUS
 90
10
 70
0
 43
0.3500000006
 10
-128.7943926086
 20
68.765383667
 10
-128.7229614258
 20
68.622530365
 10
-128.7229614258
 20
68.5510991821
 10
-128.8658237915
 20
68.4082458801
 10
-128.9372459106
 20
68.4082458801
 10
-129.0086770935
 20
68.4796679993
 10
-129.0086770935
 20
68.5510991821
 10
-128.9372459106
 20
68.6939615479
 10
-128.8658237915
 20
68.765383667
 10
-128.7943926086
 20
68.765383667
  0
LINE
  5
400
100
AcDbEntity
  8
CURVE
100
AcDbLine
 62
7
  6
CONTINUOUS
 10
-117.3707390023
 20
-32.2873701539
 11
-117.0114319266
 21
-31.9280630782
  0
LINE
  5
401
100
AcDbEntity
  8
CURVE
100
AcDbLine
 62
7
  6
CONTINUOUS
 10
-116.7076827732
 20
-31.6243139248
 11
-115.9748277439
 21
-30.8914588955
  0
LINE
  5
402
100
AcDbEntity
  8
CURVE
100
AcDbLine
 62
7
  6
CONTINUOUS
 10
-115.7119239872
 20
-30.6285551388
 11
-115.6175779835
 21
-30.5342091351
  0
LINE
  5
403
100
AcDbEntity
  8
CURVE
100
AcDbLine
 62
7
  6
CONTINUOUS
 10
-118.1157912284
 20
-33.242433094
 11
-118.0174539
 21
-33.1440957656
  0
LINE
  5
404
100
AcDbEntity
  8
CURVE
100
AcDbLine
 62
7
  6
CONTINUOUS
 10
-117.2108958235
 20
-32.3375376891
 11
-116.8473908747
 21
-31.9740327403
  0
LINE
  5
405
100
AcDbEntity
  8
CURVE
100
AcDbLine
 62
7
  6
CONTINUOUS
 10
-116.5022267674
 20
-31.628868633
 11
-115.6717768099
 21
-30.7984186755
  0
LINE
  5
406
100
AcDbEntity
  8
CURVE
100
AcDbLine
 62
7
  6
CONTINUOUS
 10
-118.1157912284
 20
-33.452443808
 11
-117.7857644504
 21
-33.12241703
  0
LINE
  5
407
100
AcDbEntity
  8
CURVE
100
AcDbLine
 62
7
  6
CONTINUOUS
 10
-117.0510526448
 20
-32.3877052244
 11
-116.6833498228
 21
-32.0200024024
  0
LINE
  5
408
100
AcDbEntity
  8
CURVE
100
AcDbLine
 62
7
  6
CONTINUOUS
 10
-116.5022267674
 20
-31.838879347
 11
-115.617578
 21
-30.9542305796
  0
LINE
  5
409
100
AcDbEntity
  8
CURVE
100
AcDbLine
 62
7
  6
CONTINUOUS
 10
-118.1157912284
 20
-33.662454522
 11
-117.5540750009
 21
-33.1007382945
  0
LINE
  5
40A
100
AcDbEntity
  8
CURVE
100
AcDbLine
 62
7
  6
CONTINUOUS
 10
-116.891209466
 20
-32.4378727596
 11
-116.5193087709
 21
-32.0659720645
  0
LINE
  5
40B
100
AcDbEntity
  8
CURVE
100
AcDbLine
 62
7
  6
CONTINUOUS
 10
-116.5022267674
 20
-32.048890061
 11
-116.1163100008
 21
-31.6629732944
  0
LINE
  5
40C
100
AcDbEntity
  8
CURVE
100
AcDbLine
 62
7
  6
CONTINUOUS
 10
-115.8473350725
 20
-31.3939983661
 11
-115.617578
 21
-31.1642412936
  0
LINE
  5
40D
100
AcDbEntity
  8
CURVE
100
AcDbLine
 62
7
  6
CONTINUOUS
 10
-117.968352284
 20
-33.7250262916
 11
-117.3223855513
 21
-33.079059559
  0
LINE
  5
40E
100
AcDbEntity
  8
CURVE
100
AcDbLine
 62
7
  6
CONTINUOUS
 10
-116.7313662873
 20
-32.4880402949
 11
-116.1163100008
 21
-31.8729840084
  0
LINE
  5
40F
100
AcDbEntity
  8
CURVE
100
AcDbLine
 62
7
  6
CONTINUOUS
 10
-117.8157502191
 20
-33.7824349408
 11
-117.0906961018
 21
-33.0573808234
  0
LINE
  5
410
100
AcDbEntity
  8
CURVE
100
AcDbLine
 62
7
  6
CONTINUOUS
 10
-116.5715231085
 20
-32.5382078302
 11
-116.1163100008
 21
-32.0829947224
  0
LINE
  5
411
100
AcDbEntity
  8
CURVE
100
AcDbLine
 62
7
  6
CONTINUOUS
 10
-117.6631481543
 20
-33.8398435899
 11
-116.8590066522
 21
-33.0357020879
  0
LINE
  5
412
100
AcDbEntity
  8
CURVE
100
AcDbLine
 62
7
  6
CONTINUOUS
 10
-116.4116799298
 20
-32.5883753654
 11
-116.0266757932
 21
-32.2033712288
  0
LINE
  5
413
100
AcDbEntity
  8
CURVE
100
AcDbLine
 62
7
  6
CONTINUOUS
 10
-117.5105460894
 20
-33.8972522391
 11
-117.1758005844
 21
-33.5625067341
  0
LINE
  5
414
100
AcDbEntity
  8
CURVE
100
AcDbLine
 62
7
  6
CONTINUOUS
 10
-117.1440239478
 20
-33.5307300975
 11
-116.6273172027
 21
-33.0140233523
  0
LINE
  5
415
100
AcDbEntity
  8
CURVE
100
AcDbLine
 62
7
  6
CONTINUOUS
 10
-116.251836751
 20
-32.6385429007
 11
-115.8637123281
 21
-32.2504184778
  0
LINE
  5
416
100
AcDbEntity
  8
CURVE
100
AcDbLine
 62
7
  6
CONTINUOUS
 10
-118.1157912284
 20
-34.7125080921
 11
-118.1080287453
 21
-34.704745609
  0
LINE
  5
417
100
AcDbEntity
  8
CURVE
100
AcDbLine
 62
7
  6
CONTINUOUS
 10
-117.3579440245
 20
-33.9546608882
 11
-117.0238294903
 21
-33.6205463539
  0
LINE
  5
418
100
AcDbEntity
  8
CURVE
100
AcDbLine
 62
7
  6
CONTINUOUS
 10
-116.919174864
 20
-33.5158917277
 11
-116.3956277531
 21
-32.9923446168
  0
LINE
  5
419
100
AcDbEntity
  8
CURVE
100
AcDbLine
 62
7
  6
CONTINUOUS
 10
-116.0919935722
 20
-32.6887104359
 11
-115.700748863
 21
-32.2974657267
  0
LINE
  5
41A
100
AcDbEntity
  8
CURVE
100
AcDbLine
 62
7
  6
CONTINUOUS
 10
-118.1157912284
 20
-34.9225188061
 11
-117.7734968719
 21
-34.5802244496
  0
LINE
  5
41B
100
AcDbEntity
  8
CURVE
100
AcDbLine
 62
7
  6
CONTINUOUS
 10
-117.2053419597
 20
-34.0120695374
 11
-116.8718583961
 21
-33.6785859738
  0
LINE
  5
41C
100
AcDbEntity
  8
CURVE
100
AcDbLine
 62
7
  6
CONTINUOUS
 10
-116.6943257801
 20
-33.5010533578
 11
-116.1639383036
 21
-32.9706658813
  0
LINE
  5
41D
100
AcDbEntity
  8
CURVE
100
AcDbLine
 62
7
  6
CONTINUOUS
 10
-115.9321503935
 20
-32.7388779712
 11
-115.617578
 21
-32.4243055777
  0
LINE
  5
41E
100
AcDbEntity
  8
CURVE
100
AcDbLine
 62
7
  6
CONTINUOUS
 10
-118.1157912284
 20
-35.1325295201
 11
-117.4389649986
 21
-34.4557032903
  0
LINE
  5
41F
100
AcDbEntity
  8
CURVE
100
AcDbLine
 62
7
  6
CONTINUOUS
 10
-117.0527398948
 20
-34.0694781865
 11
-116.7198873019
 21
-33.7366255936
  0
LINE
  5
420
100
AcDbEntity
  8
CURVE
100
AcDbLine
 62
7
  6
CONTINUOUS
 10
-116.4694766962
 20
-33.4862149879
 11
-115.932248854
 21
-32.9489871457
  0
LINE
  5
421
100
AcDbEntity
  8
CURVE
100
AcDbLine
 62
7
  6
CONTINUOUS
 10
-115.7723072147
 20
-32.7890455065
 11
-115.617578
 21
-32.6343162917
  0
LINE
  5
422
100
AcDbEntity
  8
CURVE
100
AcDbLine
 62
7
  6
CONTINUOUS
 10
-118.0116555845
 20
-35.2384045902
 11
-117.1044331252
 21
-34.3311821309
  0
LINE
  5
423
100
AcDbEntity
  8
CURVE
100
AcDbLine
 62
7
  6
CONTINUOUS
 10
-116.90013783
 20
-34.1268868357
 11
-116.5679162078
 21
-33.7946652135
  0
LINE
  5
424
100
AcDbEntity
  8
CURVE
100
AcDbLine
 62
7
  6
CONTINUOUS
 10
-116.2446276124
 20
-33.4713766181
 11
-115.7005594045
 21
-32.9273084102
  0
LINE
  5
425
100
AcDbEntity
  8
CURVE
100
AcDbLine
 62
7
  6
CONTINUOUS
 10
-117.8190469407
 20
-35.2558066605
 11
-116.7699012518
 21
-34.2066609716
  0
LINE
  5
426
100
AcDbEntity
  8
CURVE
100
AcDbLine
 62
7
  6
CONTINUOUS
 10
-116.7475357651
 20
-34.1842954848
 11
-116.4159451136
 21
-33.8527048333
  0
LINE
  5
427
100
AcDbEntity
  8
CURVE
100
AcDbLine
 62
7
  6
CONTINUOUS
 10
-116.0197785285
 20
-33.4565382482
 11
-115.617578
 21
-33.0543377198
  0
LINE
  5
428
100
AcDbEntity
  8
CURVE
100
AcDbLine
 62
7
  6
CONTINUOUS
 10
-118.1159401376
 20
-35.7627105714
 11
-118.0888345662
 21
-35.735605
  0
LINE
  5
429
100
AcDbEntity
  8
CURVE
100
AcDbLine
 62
7
  6
CONTINUOUS
 10
-117.626438297
 20
-35.2732087308
 11
-117.1995523831
 21
-34.8463228169
  0
LINE
  5
42A
100
AcDbEntity
  8
CURVE
100
AcDbLine
 62
7
  6
CONTINUOUS
 10
-117.1644869138
 20
-34.8112573475
 11
-116.2639740194
 21
-33.9107444532
  0
LINE
  5
42B
100
AcDbEntity
  8
CURVE
100
AcDbLine
 62
7
  6
CONTINUOUS
 10
-115.7949294446
 20
-33.4416998784
 11
-115.617578
 21
-33.2643484338
  0
LINE
  5
42C
100
AcDbEntity
  8
CURVE
100
AcDbLine
 62
7
  6
CONTINUOUS
 10
-118.1159401376
 20
-35.9727212854
 11
-117.8788238522
 21
-35.735605
  0
LINE
  5
42D
100
AcDbEntity
  8
CURVE
100
AcDbLine
 62
7
  6
CONTINUOUS
 10
-117.4338296533
 20
-35.290610801
 11
-117.0031020741
 21
-34.8598832218
  0
LINE
  5
42E
100
AcDbEntity
  8
CURVE
100
AcDbLine
 62
7
  6
CONTINUOUS
 10
-116.8283399097
 20
-34.6851210575
 11
-116.1120029253
 21
-33.968784073
  0
LINE
  5
42F
100
AcDbEntity
  8
CURVE
100
AcDbLine
 62
7
  6
CONTINUOUS
 10
-118.1159401376
 20
-36.1827319994
 11
-117.6688131382
 21
-35.735605
  0
LINE
  5
430
100
AcDbEntity
  8
CURVE
100
AcDbLine
 62
7
  6
CONTINUOUS
 10
-117.2412210096
 20
-35.3080128713
 11
-116.806651765
 21
-34.8734436268
  0
LINE
  5
431
100
AcDbEntity
  8
CURVE
100
AcDbLine
 62
7
  6
CONTINUOUS
 10
-116.4921929057
 20
-34.5589847675
 11
-115.9600318311
 21
-34.0268236929
  0
LINE
  5
432
100
AcDbEntity
  8
CURVE
100
AcDbLine
 62
7
  6
CONTINUOUS
 10
-117.9805954242
 20
-36.257398
 11
-117.4588024242
 21
-35.735605
  0
LINE
  5
433
100
AcDbEntity
  8
CURVE
100
AcDbLine
 62
7
  6
CONTINUOUS
 10
-117.0486123658
 20
-35.3254149416
 11
-116.610201456
 21
-34.8870040317
  0
LINE
  5
434
100
AcDbEntity
  8
CURVE
100
AcDbLine
 62
7
  6
CONTINUOUS
 10
-116.1560459017
 20
-34.4328484775
 11
-115.8080607369
 21
-34.0848633127
  0
LINE
  5
435
100
AcDbEntity
  8
CURVE
100
AcDbLine
 62
7
  6
CONTINUOUS
 10
-118.1157912284
 20
-36.6026045182
 11
-118.0011094761
 21
-36.4879227659
  0
LINE
  5
436
100
AcDbEntity
  8
CURVE
100
AcDbLine
 62
7
  6
CONTINUOUS
 10
-117.7705847102
 20
-36.257398
 11
-117.2487917102
 21
-35.735605
  0
LINE
  5
437
100
AcDbEntity
  8
CURVE
100
AcDbLine
 62
7
  6
CONTINUOUS
 10
-116.8560037221
 20
-35.3428170119
 11
-116.4137511469
 21
-34.9005644367
  0
LINE
  5
438
100
AcDbEntity
  8
CURVE
100
AcDbLine
 62
7
  6
CONTINUOUS
 10
-115.8198988977
 20
-34.3067121875
 11
-115.6560896427
 21
-34.1429029325
  0
LINE
  5
439
100
AcDbEntity
  8
CURVE
100
AcDbLine
 62
7
  6
CONTINUOUS
 10
-118.1157912284
 20
-36.8126152322
 11
-117.8422073777
 21
-36.5390313815
  0
LINE
  5
43A
100
AcDbEntity
  8
CURVE
100
AcDbLine
 62
7
  6
CONTINUOUS
 10
-117.5605739962
 20
-36.257398
 11
-117.0387809962
 21
-35.735605
  0
LINE
  5
43B
100
AcDbEntity
  8
CURVE
100
AcDbLine
 62
7
  6
CONTINUOUS
 10
-116.6633950784
 20
-35.3602190822
 11
-116.2173008379
 21
-34.9141248417
  0
LINE
  5
43C
100
AcDbEntity
  8
CURVE
100
AcDbLine
 62
7
  6
CONTINUOUS
 10
-118.0767787465
 20
-36.9836134643
 11
-117.6833052793
 21
-36.5901399971
  0
LINE
  5
43D
100
AcDbEntity
  8
CURVE
100
AcDbLine
 62
7
  6
CONTINUOUS
 10
-117.3505632822
 20
-36.257398
 11
-116.8287702822
 21
-35.735605
  0
LINE
  5
43E
100
AcDbEntity
  8
CURVE
100
AcDbLine
 62
7
  6
CONTINUOUS
 10
-116.4707864347
 20
-35.3776211525
 11
-116.0208505288
 21
-34.9276852466
  0
LINE
  5
43F
100
AcDbEntity
  8
CURVE
100
AcDbLine
 62
7
  6
CONTINUOUS
 10
-117.9134176721
 20
-37.0302631039
 11
-117.5244031809
 21
-36.6412486127
  0
LINE
  5
440
100
AcDbEntity
  8
CURVE
100
AcDbLine
 62
7
  6
CONTINUOUS
 10
-117.1405525682
 20
-36.257398
 11
-116.6187595682
 21
-35.735605
  0
LINE
  5
441
100
AcDbEntity
  8
CURVE
100
AcDbLine
 62
7
  6
CONTINUOUS
 10
-116.2781777909
 20
-35.3950232228
 11
-115.8244002198
 21
-34.9412456516
  0
LINE
  5
442
100
AcDbEntity
  8
CURVE
100
AcDbLine
 62
7
  6
CONTINUOUS
 10
-117.7500565976
 20
-37.0769127435
 11
-117.3655010824
 21
-36.6923572283
  0
LINE
  5
443
100
AcDbEntity
  8
CURVE
100
AcDbLine
 62
7
  6
CONTINUOUS
 10
-116.9305418542
 20
-36.257398
 11
-116.4087488542
 21
-35.735605
  0
LINE
  5
444
100
AcDbEntity
  8
CURVE
100
AcDbLine
 62
7
  6
CONTINUOUS
 10
-116.0855691472
 20
-35.4124252931
 11
-115.6279499107
 21
-34.9548060566
  0
LINE
  5
445
100
AcDbEntity
  8
CURVE
100
AcDbLine
 62
7
  6
CONTINUOUS
 10
-117.5866955232
 20
-37.1235623831
 11
-117.206598984
 21
-36.7434658439
  0
LINE
  5
446
100
AcDbEntity
  8
CURVE
100
AcDbLine
 62
7
  6
CONTINUOUS
 10
-116.7205311401
 20
-36.257398
 11
-116.1987381401
 21
-35.735605
  0
LINE
  5
447
100
AcDbEntity
  8
CURVE
100
AcDbLine
 62
7
  6
CONTINUOUS
 10
-115.8929605035
 20
-35.4298273633
 11
-115.617578
 21
-35.1544448599
  0
LINE
  5
448
100
AcDbEntity
  8
CURVE
100
AcDbLine
 62
7
  6
CONTINUOUS
 10
-117.4233344488
 20
-37.1702120227
 11
-117.0476968856
 21
-36.7945744595
  0
LINE
  5
449
100
AcDbEntity
  8
CURVE
100
AcDbLine
 62
7
  6
CONTINUOUS
 10
-116.5105204261
 20
-36.257398
 11
-115.9887274261
 21
-35.735605
  0
LINE
  5
44A
100
AcDbEntity
  8
CURVE
100
AcDbLine
 62
7
  6
CONTINUOUS
 10
-115.7003518598
 20
-35.4472294336
 11
-115.617578
 21
-35.3644555739
  0
LINE
  5
44B
100
AcDbEntity
  8
CURVE
100
AcDbLine
 62
7
  6
CONTINUOUS
 10
-118.1157912284
 20
-38.0726795163
 11
-117.9322804757
 21
-37.8891687636
  0
LINE
  5
44C
100
AcDbEntity
  8
CURVE
100
AcDbLine
 62
7
  6
CONTINUOUS
 10
-117.2599733744
 20
-37.2168616623
 11
-116.8887947872
 21
-36.8456830751
  0
LINE
  5
44D
100
AcDbEntity
  8
CURVE
100
AcDbLine
 62
7
  6
CONTINUOUS
 10
-116.3005097121
 20
-36.257398
 11
-115.7787167121
 21
-35.735605
  0
LINE
  5
44E
100
AcDbEntity
  8
CURVE
100
AcDbLine
 62
7
  6
CONTINUOUS
 10
-118.1157912284
 20
-38.2826902303
 11
-117.641770343
 21
-37.8086693449
  0
LINE
  5
44F
100
AcDbEntity
  8
CURVE
100
AcDbLine
 62
7
  6
CONTINUOUS
 10
-117.0966122999
 20
-37.2635113018
 11
-116.7298926888
 21
-36.8967916907
  0
LINE
  5
450
100
AcDbEntity
  8
CURVE
100
AcDbLine
 62
7
  6
CONTINUOUS
 10
-116.0904989981
 20
-36.257398
 11
-115.617578
 21
-35.7844770019
  0
LINE
  5
451
100
AcDbEntity
  8
CURVE
100
AcDbLine
 62
7
  6
CONTINUOUS
 10
-118.1157912284
 20
-38.4927009443
 11
-117.3512602102
 21
-37.7281699261
  0
LINE
  5
452
100
AcDbEntity
  8
CURVE
100
AcDbLine
 62
7
  6
CONTINUOUS
 10
-116.9332512255
 20
-37.3101609414
 11
-116.5709905904
 21
-36.9479003063
  0
LINE
  5
453
100
AcDbEntity
  8
CURVE
100
AcDbLine
 62
7
  6
CONTINUOUS
 10
-115.8804882841
 20
-36.257398
 11
-115.617578
 21
-35.9944877159
  0
LINE
  5
454
100
AcDbEntity
  8
CURVE
100
AcDbLine
 62
7
  6
CONTINUOUS
 10
-117.8289307925
 20
-38.4158512224
 11
-117.0607500775
 21
-37.6476705074
  0
LINE
  5
455
100
AcDbEntity
  8
CURVE
100
AcDbLine
 62
7
  6
CONTINUOUS
 10
-116.7698901511
 20
-37.356810581
 11
-116.412088492
 21
-36.999008922
  0
LINE
  5
456
100
AcDbEntity
  8
CURVE
100
AcDbLine
 62
7
  6
CONTINUOUS
 10
-115.6704775701
 20
-36.257398
 11
-115.617578
 21
-36.2044984299
  0
LINE
  5
457
100
AcDbEntity
  8
CURVE
100
AcDbLine
 62
7
  6
CONTINUOUS
 10
-117.5213522559
 20
-38.3182833998
 11
-116.7702399447
 21
-37.5671710886
  0
LINE
  5
458
100
AcDbEntity
  8
CURVE
100
AcDbLine
 62
7
  6
CONTINUOUS
 10
-116.6065290767
 20
-37.4034602206
 11
-116.2531863936
 21
-37.0501175376
  0
LINE
  5
459
100
AcDbEntity
  8
CURVE
100
AcDbLine
 62
7
  6
CONTINUOUS
 10
-117.2137737193
 20
-38.2207155773
 11
-116.4797298119
 21
-37.4866716699
  0
LINE
  5
45A
100
AcDbEntity
  8
CURVE
100
AcDbLine
 62
7
  6
CONTINUOUS
 10
-116.4431680022
 20
-37.4501098602
 11
-116.0942842952
 21
-37.1012261532
  0
LINE
  5
45B
100
AcDbEntity
  8
CURVE
100
AcDbLine
 62
7
  6
CONTINUOUS
 10
-116.9061951827
 20
-38.1231477547
 11
-115.9353821968
 21
-37.1523347688
  0
LINE
  5
45C
100
AcDbEntity
  8
CURVE
100
AcDbLine
 62
7
  6
CONTINUOUS
 10
-116.5986166462
 20
-38.0255799321
 11
-115.7764800984
 21
-37.2034433844
  0
LINE
  5
45D
100
AcDbEntity
  8
CURVE
100
AcDbLine
 62
7
  6
CONTINUOUS
 10
-116.2910381096
 20
-37.9280121096
 11
-115.617578
 21
-37.254552
  0
LINE
  5
45E
100
AcDbEntity
  8
CURVE
100
AcDbLine
 62
7
  6
CONTINUOUS
 10
-115.983459573
 20
-37.830444287
 11
-115.617578
 21
-37.464562714
  0
LINE
  5
45F
100
AcDbEntity
  8
CURVE
100
AcDbLine
 62
7
  6
CONTINUOUS
 10
-115.6758810365
 20
-37.7328764645
 11
-115.617578
 21
-37.674573428
  0
LINE
  5
460
100
AcDbEntity
  8
0
100
AcDbLine
 62
250
  6
CONTINUOUS
 10
-112.5848496561
 20
-26.9276792439
 11
-111.4853307963
 21
-26.3440350289
  0
LINE
  5
461
100
AcDbEntity
  8
0
100
AcDbLine
 62
250
  6
CONTINUOUS
 10
-111.0605730076
 20
-26.2536973817
 11
-110.5384811549
 21
-25.9765617175
  0
LINE
  5
462
100
AcDbEntity
  8
0
100
AcDbLine
 62
7
  6
CONTINUOUS
 10
-110.5106222399
 20
-26.0883643404
 11
-112.4456102781
 21
-27.1154904916
  0
LINE
  5
463
100
AcDbEntity
  8
0
100
AcDbLine
 62
7
  6
CONTINUOUS
 10
-110.5106222399
 20
25.4
 11
-112.460994142
 21
25.2049628098
  0
LINE
  5
464
100
AcDbEntity
  8
0
100
AcDbLine
 62
7
  6
CONTINUOUS
 10
-113.5106222399
 20
25.7558198745
 11
-110.7001550486
 21
25.8799866677
  0
LINE
  5
465
100
AcDbEntity
  8
0
100
AcDbLine
 62
7
  6
CONTINUOUS
 10
-113.5106222399
 20
25.05
 11
-113.3606222399
 21
25.05
  0
LINE
  5
466
100
AcDbEntity
  8
0
100
AcDbLine
 62
7
  6
CONTINUOUS
 10
-113.0606222399
 20
25.05
 11
-112.8606222399
 21
25.05
  0
LINE
  5
467
100
AcDbEntity
  8
0
100
AcDbLine
 62
7
  6
CONTINUOUS
 10
-113.5106222399
 20
25.2
 11
-112.560497861
 21
25.2
  0
LINE
  5
468
100
AcDbEntity
  8
0
100
AcDbLine
 62
250
  6
CONTINUOUS
 10
-112.5848496561
 20
26.9276792439
 11
-113.5106222399
 21
26.9280974384
  0
LINE
  5
469
100
AcDbEntity
  8
0
100
AcDbLine
 62
7
  6
CONTINUOUS
 10
-112.5847850889
 20
27.1501294387
 11
-113.5106222399
 21
27.151745331
  0
LINE
  5
46A
100
AcDbEntity
  8
0
100
AcDbLine
 62
250
  6
CONTINUOUS
 10
-111.0605730076
 20
26.2536973817
 11
-113.5106222399
 21
26.2679513512
  0
LINE
  5
46B
100
AcDbEntity
  8
0
100
AcDbLine
 62
7
  6
CONTINUOUS
 10
-111.0605730076
 20
26.3415638603
 11
-113.5106222399
 21
26.3558178298
  0
LINE
  5
46C
100
AcDbEntity
  8
0
100
AcDbLine
 62
250
  6
CONTINUOUS
 10
-111.4853307963
 20
26.3440350289
 11
-112.5848496561
 21
26.9276792439
  0
LINE
  5
46D
100
AcDbEntity
  8
0
100
AcDbLine
 62
250
  6
CONTINUOUS
 10
-110.5384811549
 20
25.9765617175
 11
-111.0605730076
 21
26.2536973817
  0
LINE
  5
46E
100
AcDbEntity
  8
0
100
AcDbLine
 62
7
  6
CONTINUOUS
 10
-110.5106222399
 20
26.0883643404
 11
-112.4456102781
 21
27.1154904916
  0
LINE
  5
46F
100
AcDbEntity
  8
ASSI
100
AcDbLine
 62
7
  6
CONTINUOUS
 10
-119.6612314128
 20
-43.8055596544
 11
-119.6761697821
 21
-43.8199854699
  0
LINE
  5
470
100
AcDbEntity
  8
CURVE
100
AcDbLine
 62
250
  6
CONTINUOUS
 10
-118.1157912284
 20
-31.54876
 11
-115.617578
 21
-30.781779
  0
LINE
  5
471
100
AcDbEntity
  8
ASSI
100
AcDbLine
 62
7
  6
CONTINUOUS
 10
-119.6761697821
 20
43.8199854699
 11
-119.6612314128
 21
43.8055596544
  0
LINE
  5
472
100
AcDbEntity
  8
CURVE
100
AcDbLine
 62
250
  6
CONTINUOUS
 10
-115.617578
 20
-34.230793
 11
-117.2488636591
 21
-34.842919
  0
LINE
  5
473
100
AcDbEntity
  8
CURVE
100
AcDbLine
 62
250
  6
CONTINUOUS
 10
-118.1157912284
 20
-34.707635
 11
-116.7287756758
 21
-34.191353
  0
LINE
  5
474
100
AcDbEntity
  8
CURVE
100
AcDbLine
 62
250
  6
CONTINUOUS
 10
-115.617578
 20
-37.714382
 11
-118.1157912284
 21
-38.506847
  0
LINE
  5
475
100
AcDbEntity
  8
0
100
AcDbLine
 62
250
  6
CONTINUOUS
 10
-114.1106222399
 20
41.1619414324
 11
-113.5106222399
 21
41.2038975196
  0
LINE
  5
476
100
AcDbEntity
  8
0
100
AcDbLine
 62
7
  6
CONTINUOUS
 10
-114.1106222399
 20
42.7580439128
 11
-113.5106222399
 21
42.8
  0
LINE
  5
477
100
AcDbEntity
  8
ASSI
100
AcDbLine
 62
7
  6
CONTINUOUS
 10
-119.6612314128
 20
43.8055596544
 11
-114.1106222399
 21
43.9993911979
  0
LINE
  5
478
100
AcDbEntity
  8
ASSI
100
AcDbLine
 62
7
  6
CONTINUOUS
 10
-119.6612314128
 20
44.8061684565
 11
-114.1106222399
 21
45.0
  0
LWPOLYLINE
  5
479
100
AcDbEntity
  8
0
100
AcDbPolyline
 62
7
  6
CONTINUOUS
 90
8
 70
0
 43
0.3500000006
 10
-125.8114496155
 20
58.6628246155
 10
-124.954311676
 20
58.6628246155
 10
-124.5257427063
 20
59.0913935852
 10
-124.5257427063
 20
59.9485315247
 10
-124.954311676
 20
60.3771095581
 10
-125.8114496155
 20
60.3771095581
 10
-125.8114496155
 20
61.6628164673
 10
-124.5257427063
 20
61.6628164673
  0
LWPOLYLINE
  5
47A
100
AcDbEntity
  8
0
100
AcDbPolyline
 62
7
  6
CONTINUOUS
 90
8
 70
0
 43
0.3500000006
 10
-126.008676178
 20
68.2653835144
 10
-125.1515382385
 20
68.2653835144
 10
-124.7229602051
 20
68.6939615479
 10
-124.7229602051
 20
69.5510994873
 10
-125.1515382385
 20
69.979668457
 10
-126.008676178
 20
69.979668457
 10
-126.008676178
 20
71.2653844299
 10
-124.7229602051
 20
71.2653844299
  0
ARC
  5
47B
100
AcDbEntity
  8
SMUSSO
100
AcDbCircle
 62
7
  6
CONTINUOUS
 10
-15.8
 20
-6.7
 40
1.7
100
AcDbArc
 50
270.0
 51
360.0
  0
ARC
  5
47C
100
AcDbEntity
  8
SMUSSO
100
AcDbCircle
 62
7
  6
CONTINUOUS
 10
-51.7
 20
-6.7
 40
1.7
100
AcDbArc
 50
180.0
 51
270.0
  0
ARC
  5
47D
100
AcDbEntity
  8
SMUSSO
100
AcDbCircle
 62
7
  6
CONTINUOUS
 10
-38.3
 20
-6.7
 40
1.7
100
AcDbArc
 50
270.0
 51
360.0
  0
ARC
  5
47E
100
AcDbEntity
  8
SMUSSO
100
AcDbCircle
 62
7
  6
CONTINUOUS
 10
-29.2
 20
-6.7
 40
1.7
100
AcDbArc
 50
180.0
 51
270.0
  0
ARC
  5
47F
100
AcDbEntity
  8
ASSI
100
AcDbCircle
 62
7
  6
CONTINUOUS
 10
-51.7
 20
-6.7
 40
1.7
100
AcDbArc
 50
180.0
 51
270.0
  0
ARC
  5
480
100
AcDbEntity
  8
ASSI
100
AcDbCircle
 62
7
  6
CONTINUOUS
 10
-38.3
 20
-6.7
 40
1.7
100
AcDbArc
 50
270.0
 51
360.0
  0
ARC
  5
481
100
AcDbEntity
  8
ASSI
100
AcDbCircle
 62
7
  6
CONTINUOUS
 10
-15.8
 20
-6.7
 40
1.7
100
AcDbArc
 50
270.0
 51
360.0
  0
ARC
  5
482
100
AcDbEntity
  8
ASSI
100
AcDbCircle
 62
7
  6
CONTINUOUS
 10
-29.2
 20
-6.7
 40
1.7
100
AcDbArc
 50
180.0
 51
270.0
  0
ARC
  5
483
100
AcDbEntity
  8
SMUSSO
100
AcDbCircle
 62
7
  6
CONTINUOUS
 10
-51.7
 20
-6.7
 40
1.2
100
AcDbArc
 50
180.0
 51
270.0
  0
ARC
  5
484
100
AcDbEntity
  8
SMUSSO
100
AcDbCircle
 62
7
  6
CONTINUOUS
 10
-38.3
 20
-6.7
 40
1.2
100
AcDbArc
 50
270.0
 51
360.0
  0
ARC
  5
485
100
AcDbEntity
  8
SMUSSO
100
AcDbCircle
 62
7
  6
CONTINUOUS
 10
-29.2
 20
-6.7
 40
1.2
100
AcDbArc
 50
180.0
 51
270.0
  0
ARC
  5
486
100
AcDbEntity
  8
SMUSSO
100
AcDbCircle
 62
7
  6
CONTINUOUS
 10
-15.8
 20
-6.7
 40
1.2
100
AcDbArc
 50
270.0
 51
360.0
  0
ARC
  5
487
100
AcDbEntity
  8
ASSI
100
AcDbCircle
 62
7
  6
CONTINUOUS
 10
-51.7
 20
-6.7
 40
1.2
100
AcDbArc
 50
180.0
 51
270.0
  0
ARC
  5
488
100
AcDbEntity
  8
ASSI
100
AcDbCircle
 62
7
  6
CONTINUOUS
 10
-38.3
 20
-6.7
 40
1.2
100
AcDbArc
 50
270.0
 51
360.0
  0
ARC
  5
489
100
AcDbEntity
  8
ASSI
100
AcDbCircle
 62
7
  6
CONTINUOUS
 10
-29.2
 20
-6.7
 40
1.2
100
AcDbArc
 50
180.0
 51
270.0
  0
ARC
  5
48A
100
AcDbEntity
  8
ASSI
100
AcDbCircle
 62
7
  6
CONTINUOUS
 10
-15.8
 20
-6.7
 40
1.2
100
AcDbArc
 50
270.0
 51
360.0
  0
ARC
  5
48B
100
AcDbEntity
  8
SMUSSO
100
AcDbCircle
 62
7
  6
CONTINUOUS
 10
-15.8
 20
6.7
 40
1.7
100
AcDbArc
 50
0.0
 51
90.0
  0
ARC
  5
48C
100
AcDbEntity
  8
SMUSSO
100
AcDbCircle
 62
7
  6
CONTINUOUS
 10
-51.7
 20
6.7
 40
1.7
100
AcDbArc
 50
90.0
 51
180.0
  0
ARC
  5
48D
100
AcDbEntity
  8
SMUSSO
100
AcDbCircle
 62
7
  6
CONTINUOUS
 10
-38.3
 20
6.7
 40
1.7
100
AcDbArc
 50
0.0
 51
90.0
  0
ARC
  5
48E
100
AcDbEntity
  8
SMUSSO
100
AcDbCircle
 62
7
  6
CONTINUOUS
 10
-29.2
 20
6.7
 40
1.7
100
AcDbArc
 50
90.0
 51
180.0
  0
ARC
  5
48F
100
AcDbEntity
  8
ASSI
100
AcDbCircle
 62
7
  6
CONTINUOUS
 10
-38.3
 20
6.7
 40
1.7
100
AcDbArc
 50
0.0
 51
90.0
  0
ARC
  5
490
100
AcDbEntity
  8
ASSI
100
AcDbCircle
 62
7
  6
CONTINUOUS
 10
-15.8
 20
6.7
 40
1.7
100
AcDbArc
 50
0.0
 51
90.0
  0
ARC
  5
491
100
AcDbEntity
  8
ASSI
100
AcDbCircle
 62
7
  6
CONTINUOUS
 10
-51.7
 20
6.7
 40
1.7
100
AcDbArc
 50
90.0
 51
180.0
  0
ARC
  5
492
100
AcDbEntity
  8
ASSI
100
AcDbCircle
 62
7
  6
CONTINUOUS
 10
-29.2
 20
6.7
 40
1.7
100
AcDbArc
 50
90.0
 51
180.0
  0
ARC
  5
493
100
AcDbEntity
  8
SMUSSO
100
AcDbCircle
 62
7
  6
CONTINUOUS
 10
-51.7
 20
6.7
 40
1.2
100
AcDbArc
 50
90.0
 51
180.0
  0
ARC
  5
494
100
AcDbEntity
  8
SMUSSO
100
AcDbCircle
 62
7
  6
CONTINUOUS
 10
-38.3
 20
6.7
 40
1.2
100
AcDbArc
 50
0.0
 51
90.0
  0
ARC
  5
495
100
AcDbEntity
  8
SMUSSO
100
AcDbCircle
 62
7
  6
CONTINUOUS
 10
-29.2
 20
6.7
 40
1.2
100
AcDbArc
 50
90.0
 51
180.0
  0
ARC
  5
496
100
AcDbEntity
  8
SMUSSO
100
AcDbCircle
 62
7
  6
CONTINUOUS
 10
-15.8
 20
6.7
 40
1.2
100
AcDbArc
 50
0.0
 51
90.0
  0
ARC
  5
497
100
AcDbEntity
  8
ASSI
100
AcDbCircle
 62
7
  6
CONTINUOUS
 10
-51.7
 20
6.7
 40
1.2
100
AcDbArc
 50
90.0
 51
180.0
  0
ARC
  5
498
100
AcDbEntity
  8
ASSI
100
AcDbCircle
 62
7
  6
CONTINUOUS
 10
-38.3
 20
6.7
 40
1.2
100
AcDbArc
 50
0.0
 51
90.0
  0
ARC
  5
499
100
AcDbEntity
  8
ASSI
100
AcDbCircle
 62
7
  6
CONTINUOUS
 10
-29.2
 20
6.7
 40
1.2
100
AcDbArc
 50
90.0
 51
180.0
  0
ARC
  5
49A
100
AcDbEntity
  8
ASSI
100
AcDbCircle
 62
7
  6
CONTINUOUS
 10
-15.8
 20
6.7
 40
1.2
100
AcDbArc
 50
0.0
 51
90.0
  0
ARC
  5
49B
100
AcDbEntity
  8
SMUSSO
100
AcDbCircle
 62
7
  6
CONTINUOUS
 10
15.8
 20
-6.7
 40
1.7
100
AcDbArc
 50
180.0
 51
270.0
  0
ARC
  5
49C
100
AcDbEntity
  8
SMUSSO
100
AcDbCircle
 62
7
  6
CONTINUOUS
 10
29.2
 20
-6.7
 40
1.7
100
AcDbArc
 50
270.0
 51
360.0
  0
ARC
  5
49D
100
AcDbEntity
  8
SMUSSO
100
AcDbCircle
 62
7
  6
CONTINUOUS
 10
-6.7
 20
-6.7
 40
1.7
100
AcDbArc
 50
180.0
 51
270.0
  0
ARC
  5
49E
100
AcDbEntity
  8
SMUSSO
100
AcDbCircle
 62
7
  6
CONTINUOUS
 10
6.7
 20
-6.7
 40
1.7
100
AcDbArc
 50
270.0
 51
360.0
  0
ARC
  5
49F
100
AcDbEntity
  8
ASSI
100
AcDbCircle
 62
7
  6
CONTINUOUS
 10
15.8
 20
-6.7
 40
1.7
100
AcDbArc
 50
180.0
 51
270.0
  0
ARC
  5
4A0
100
AcDbEntity
  8
ASSI
100
AcDbCircle
 62
7
  6
CONTINUOUS
 10
29.2
 20
-6.7
 40
1.7
100
AcDbArc
 50
270.0
 51
360.0
  0
ARC
  5
4A1
100
AcDbEntity
  8
ASSI
100
AcDbCircle
 62
7
  6
CONTINUOUS
 10
-6.7
 20
-6.7
 40
1.7
100
AcDbArc
 50
180.0
 51
270.0
  0
ARC
  5
4A2
100
AcDbEntity
  8
ASSI
100
AcDbCircle
 62
7
  6
CONTINUOUS
 10
6.7
 20
-6.7
 40
1.7
100
AcDbArc
 50
270.0
 51
360.0
  0
ARC
  5
4A3
100
AcDbEntity
  8
SMUSSO
100
AcDbCircle
 62
7
  6
CONTINUOUS
 10
-6.7
 20
-6.7
 40
1.2
100
AcDbArc
 50
180.0
 51
270.0
  0
ARC
  5
4A4
100
AcDbEntity
  8
SMUSSO
100
AcDbCircle
 62
7
  6
CONTINUOUS
 10
6.7
 20
-6.7
 40
1.2
100
AcDbArc
 50
270.0
 51
360.0
  0
ARC
  5
4A5
100
AcDbEntity
  8
SMUSSO
100
AcDbCircle
 62
7
  6
CONTINUOUS
 10
15.8
 20
-6.7
 40
1.2
100
AcDbArc
 50
180.0
 51
270.0
  0
ARC
  5
4A6
100
AcDbEntity
  8
SMUSSO
100
AcDbCircle
 62
7
  6
CONTINUOUS
 10
29.2
 20
-6.7
 40
1.2
100
AcDbArc
 50
270.0
 51
360.0
  0
ARC
  5
4A7
100
AcDbEntity
  8
ASSI
100
AcDbCircle
 62
7
  6
CONTINUOUS
 10
-6.7
 20
-6.7
 40
1.2
100
AcDbArc
 50
180.0
 51
270.0
  0
ARC
  5
4A8
100
AcDbEntity
  8
ASSI
100
AcDbCircle
 62
7
  6
CONTINUOUS
 10
6.7
 20
-6.7
 40
1.2
100
AcDbArc
 50
270.0
 51
360.0
  0
ARC
  5
4A9
100
AcDbEntity
  8
ASSI
100
AcDbCircle
 62
7
  6
CONTINUOUS
 10
15.8
 20
-6.7
 40
1.2
100
AcDbArc
 50
180.0
 51
270.0
  0
ARC
  5
4AA
100
AcDbEntity
  8
ASSI
100
AcDbCircle
 62
7
  6
CONTINUOUS
 10
29.2
 20
-6.7
 40
1.2
100
AcDbArc
 50
270.0
 51
360.0
  0
ARC
  5
4AB
100
AcDbEntity
  8
SMUSSO
100
AcDbCircle
 62
7
  6
CONTINUOUS
 10
15.8
 20
6.7
 40
1.7
100
AcDbArc
 50
90.0
 51
180.0
  0
ARC
  5
4AC
100
AcDbEntity
  8
SMUSSO
100
AcDbCircle
 62
7
  6
CONTINUOUS
 10
29.2
 20
6.7
 40
1.7
100
AcDbArc
 50
0.0
 51
90.0
  0
ARC
  5
4AD
100
AcDbEntity
  8
SMUSSO
100
AcDbCircle
 62
7
  6
CONTINUOUS
 10
-6.7
 20
6.7
 40
1.7
100
AcDbArc
 50
90.0
 51
180.0
  0
ARC
  5
4AE
100
AcDbEntity
  8
SMUSSO
100
AcDbCircle
 62
7
  6
CONTINUOUS
 10
6.7
 20
6.7
 40
1.7
100
AcDbArc
 50
0.0
 51
90.0
  0
ARC
  5
4AF
100
AcDbEntity
  8
ASSI
100
AcDbCircle
 62
7
  6
CONTINUOUS
 10
15.8
 20
6.7
 40
1.7
100
AcDbArc
 50
90.0
 51
180.0
  0
ARC
  5
4B0
100
AcDbEntity
  8
ASSI
100
AcDbCircle
 62
7
  6
CONTINUOUS
 10
29.2
 20
6.7
 40
1.7
100
AcDbArc
 50
0.0
 51
90.0
  0
ARC
  5
4B1
100
AcDbEntity
  8
ASSI
100
AcDbCircle
 62
7
  6
CONTINUOUS
 10
-6.7
 20
6.7
 40
1.7
100
AcDbArc
 50
90.0
 51
180.0
  0
ARC
  5
4B2
100
AcDbEntity
  8
ASSI
100
AcDbCircle
 62
7
  6
CONTINUOUS
 10
6.7
 20
6.7
 40
1.7
100
AcDbArc
 50
0.0
 51
90.0
  0
ARC
  5
4B3
100
AcDbEntity
  8
SMUSSO
100
AcDbCircle
 62
7
  6
CONTINUOUS
 10
-6.7
 20
6.7
 40
1.2
100
AcDbArc
 50
90.0
 51
180.0
  0
ARC
  5
4B4
100
AcDbEntity
  8
SMUSSO
100
AcDbCircle
 62
7
  6
CONTINUOUS
 10
6.7
 20
6.7
 40
1.2
100
AcDbArc
 50
0.0
 51
90.0
  0
ARC
  5
4B5
100
AcDbEntity
  8
SMUSSO
100
AcDbCircle
 62
7
  6
CONTINUOUS
 10
15.8
 20
6.7
 40
1.2
100
AcDbArc
 50
90.0
 51
180.0
  0
ARC
  5
4B6
100
AcDbEntity
  8
SMUSSO
100
AcDbCircle
 62
7
  6
CONTINUOUS
 10
29.2
 20
6.7
 40
1.2
100
AcDbArc
 50
0.0
 51
90.0
  0
ARC
  5
4B7
100
AcDbEntity
  8
ASSI
100
AcDbCircle
 62
7
  6
CONTINUOUS
 10
-6.7
 20
6.7
 40
1.2
100
AcDbArc
 50
90.0
 51
180.0
  0
ARC
  5
4B8
100
AcDbEntity
  8
ASSI
100
AcDbCircle
 62
7
  6
CONTINUOUS
 10
6.7
 20
6.7
 40
1.2
100
AcDbArc
 50
0.0
 51
90.0
  0
ARC
  5
4B9
100
AcDbEntity
  8
ASSI
100
AcDbCircle
 62
7
  6
CONTINUOUS
 10
15.8
 20
6.7
 40
1.2
100
AcDbArc
 50
90.0
 51
180.0
  0
ARC
  5
4BA
100
AcDbEntity
  8
ASSI
100
AcDbCircle
 62
7
  6
CONTINUOUS
 10
29.2
 20
6.7
 40
1.2
100
AcDbArc
 50
0.0
 51
90.0
  0
ARC
  5
4BB
100
AcDbEntity
  8
CURVE
100
AcDbCircle
 62
250
  6
CONTINUOUS
 10
119.3922937953
 20
-29.8716892664
 40
39.868107399
100
AcDbArc
 50
179.7782450657
 51
180.3657160807
  0
ARC
  5
4BC
100
AcDbEntity
  8
SMUSSO
100
AcDbCircle
 62
7
  6
CONTINUOUS
 10
38.3
 20
6.7
 40
1.7
100
AcDbArc
 50
90.0
 51
180.0
  0
ARC
  5
4BD
100
AcDbEntity
  8
SMUSSO
100
AcDbCircle
 62
7
  6
CONTINUOUS
 10
38.3
 20
-6.7
 40
1.7
100
AcDbArc
 50
180.0
 51
270.0
  0
ARC
  5
4BE
100
AcDbEntity
  8
SMUSSO
100
AcDbCircle
 62
7
  6
CONTINUOUS
 10
51.7
 20
-6.7
 40
1.7
100
AcDbArc
 50
270.0
 51
360.0
  0
ARC
  5
4BF
100
AcDbEntity
  8
SMUSSO
100
AcDbCircle
 62
7
  6
CONTINUOUS
 10
51.7
 20
6.7
 40
1.7
100
AcDbArc
 50
0.0
 51
90.0
  0
ARC
  5
4C0
100
AcDbEntity
  8
ASSI
100
AcDbCircle
 62
7
  6
CONTINUOUS
 10
38.3
 20
6.7
 40
1.7
100
AcDbArc
 50
90.0
 51
180.0
  0
ARC
  5
4C1
100
AcDbEntity
  8
ASSI
100
AcDbCircle
 62
7
  6
CONTINUOUS
 10
38.3
 20
-6.7
 40
1.7
100
AcDbArc
 50
180.0
 51
270.0
  0
ARC
  5
4C2
100
AcDbEntity
  8
ASSI
100
AcDbCircle
 62
7
  6
CONTINUOUS
 10
51.7
 20
-6.7
 40
1.7
100
AcDbArc
 50
270.0
 51
360.0
  0
ARC
  5
4C3
100
AcDbEntity
  8
ASSI
100
AcDbCircle
 62
7
  6
CONTINUOUS
 10
51.7
 20
6.7
 40
1.7
100
AcDbArc
 50
0.0
 51
90.0
  0
ARC
  5
4C4
100
AcDbEntity
  8
SMUSSO
100
AcDbCircle
 62
7
  6
CONTINUOUS
 10
38.3
 20
-6.7
 40
1.2
100
AcDbArc
 50
180.0
 51
270.0
  0
ARC
  5
4C5
100
AcDbEntity
  8
SMUSSO
100
AcDbCircle
 62
7
  6
CONTINUOUS
 10
51.7
 20
-6.7
 40
1.2
100
AcDbArc
 50
270.0
 51
360.0
  0
ARC
  5
4C6
100
AcDbEntity
  8
SMUSSO
100
AcDbCircle
 62
7
  6
CONTINUOUS
 10
38.3
 20
6.7
 40
1.2
100
AcDbArc
 50
90.0
 51
180.0
  0
ARC
  5
4C7
100
AcDbEntity
  8
SMUSSO
100
AcDbCircle
 62
7
  6
CONTINUOUS
 10
51.7
 20
6.7
 40
1.2
100
AcDbArc
 50
0.0
 51
90.0
  0
ARC
  5
4C8
100
AcDbEntity
  8
ASSI
100
AcDbCircle
 62
7
  6
CONTINUOUS
 10
38.3
 20
-6.7
 40
1.2
100
AcDbArc
 50
180.0
 51
270.0
  0
ARC
  5
4C9
100
AcDbEntity
  8
ASSI
100
AcDbCircle
 62
7
  6
CONTINUOUS
 10
51.7
 20
-6.7
 40
1.2
100
AcDbArc
 50
270.0
 51
360.0
  0
ARC
  5
4CA
100
AcDbEntity
  8
ASSI
100
AcDbCircle
 62
7
  6
CONTINUOUS
 10
38.3
 20
6.7
 40
1.2
100
AcDbArc
 50
90.0
 51
180.0
  0
ARC
  5
4CB
100
AcDbEntity
  8
ASSI
100
AcDbCircle
 62
7
  6
CONTINUOUS
 10
51.7
 20
6.7
 40
1.2
100
AcDbArc
 50
0.0
 51
90.0
  0
ARC
  5
4CC
100
AcDbEntity
  8
0
100
AcDbCircle
 62
7
  6
CONTINUOUS
 10
-112.560497861
 20
26.2
 40
1.0
100
AcDbArc
 50
270.0
 51
275.7105931375
  0
ARC
  5
4CD
100
AcDbEntity
  8
0
100
AcDbCircle
 62
7
  6
CONTINUOUS
 10
-112.560497861
 20
-26.2
 40
1.0
100
AcDbArc
 50
84.2894068625
 51
90.0
  0
ARC
  5
4CE
100
AcDbEntity
  8
0
100
AcDbCircle
 62
7
  6
CONTINUOUS
 10
-112.585308915
 20
-26.849999496
 40
0.3
100
AcDbArc
 50
270.0999999936
 51
297.9489684597
  0
ARC
  5
4CF
100
AcDbEntity
  8
0
100
AcDbCircle
 62
7
  6
CONTINUOUS
 10
-112.585308915
 20
26.849999496
 40
0.3
100
AcDbArc
 50
62.0510315402
 51
89.9000000064
  0
ARC
  5
4D0
100
AcDbEntity
  8
0
100
AcDbCircle
 62
7
  6
CONTINUOUS
 10
-111.062318327
 20
-26.0415689373
 40
0.3
100
AcDbArc
 50
270.3333333333
 51
297.9601595792
  0
ARC
  5
4D1
100
AcDbEntity
  8
0
100
AcDbCircle
 62
7
  6
CONTINUOUS
 10
-111.062318327
 20
26.0415689373
 40
0.3
100
AcDbArc
 50
62.0398404207
 51
89.6666666667
  0
SPLINE
  5
4D2
100
AcDbEntity
  8
CURVE
100
AcDbSpline
 62
250
  6
CONTINUOUS
 70
0
 71
3
 72
9
 73
5
 74
0
 42
0.0000001
 43
0.0000001
 44
0.0000000001
 40
0.0
 40
0.0
 40
0.0
 40
0.0
 40
0.5206208722
 40
1.0
 40
1.0
 40
1.0
 40
1.0
 10
79.535390512
 20
-29.4226356449
 30
0.0
 10
79.5391619261
 20
-29.4209681689
 30
0.0
 10
79.5474005432
 20
-29.4973108459
 30
0.0
 10
79.5488699409
 20
-29.728472706
 30
0.0
 10
79.5489474951
 20
-29.8279642095
 30
0.0
  0
SPLINE
  5
4D3
100
AcDbEntity
  8
CURVE
100
AcDbSpline
 62
250
  6
CONTINUOUS
 70
0
 71
3
 72
9
 73
5
 74
0
 42
0.0000001
 43
0.0000001
 44
0.0000000001
 40
0.0
 40
0.0
 40
0.0
 40
0.0
 40
0.5013510385
 40
1.0
 40
1.0
 40
1.0
 40
1.0
 10
79.5244850009
 20
-29.7173859732
 30
0.0
 10
79.524794863
 20
-29.6409112471
 30
0.0
 10
79.5271452432
 20
-29.4862321801
 30
0.0
 10
79.5327184632
 20
-29.423833145
 30
0.0
 10
79.535390512
 20
-29.4226356449
 30
0.0
  0
SPLINE
  5
4D4
100
AcDbEntity
  8
CURVE
100
AcDbSpline
 62
250
  6
CONTINUOUS
 70
0
 71
3
 72
9
 73
5
 74
0
 42
0.0000001
 43
0.0000001
 44
0.0000000001
 40
0.0
 40
0.0
 40
0.0
 40
0.0
 40
0.2957417834
 40
1.0
 40
1.0
 40
1.0
 40
1.0
 10
79.5120741759
 20
-29.3408501143
 30
0.0
 10
79.5105585951
 20
-29.4610542637
 30
0.0
 10
79.5080881081
 20
-29.8931154132
 30
0.0
 10
79.5096096759
 20
-30.3274429247
 30
0.0
 10
79.5111556794
 20
-30.6285551388
 30
0.0
  0
SPLINE
  5
4D5
100
AcDbEntity
  8
CURVE
100
AcDbSpline
 62
250
  6
CONTINUOUS
 70
0
 71
3
 72
17
 73
13
 74
0
 42
0.0000001
 43
0.0000001
 44
0.0000000001
 40
0.0
 40
0.0
 40
0.0
 40
0.0
 40
0.0559780952
 40
0.1687540387
 40
0.321006234
 40
0.4122750837
 40
0.516613223
 40
0.6013931059
 40
0.6776022439
 40
0.8103422694
 40
0.9200404832
 40
1.0
 40
1.0
 40
1.0
 40
1.0
 10
79.5561378054
 20
-29.2870512436
 30
0.0
 10
79.5560080221
 20
-29.2582307418
 30
0.0
 10
79.5539944413
 20
-29.184972753
 30
0.0
 10
79.5501559947
 20
-29.0634829078
 30
0.0
 10
79.544247302
 20
-28.9740276278
 30
0.0
 10
79.5380831982
 20
-28.9341773505
 30
0.0
 10
79.5329671207
 20
-28.9304334968
 30
0.0
 10
79.5281887457
 20
-28.9501640226
 30
0.0
 10
79.5231113496
 20
-28.9979840427
 30
0.0
 10
79.5181353908
 20
-29.0877998266
 30
0.0
 10
79.5142440602
 20
-29.2146127248
 30
0.0
 10
79.512565765
 20
-29.301804483
 30
0.0
 10
79.5120741759
 20
-29.3408501143
 30
0.0
  0
SPLINE
  5
4D6
100
AcDbEntity
  8
CURVE
100
AcDbSpline
 62
250
  6
CONTINUOUS
 70
0
 71
3
 72
9
 73
5
 74
0
 42
0.0000001
 43
0.0000001
 44
0.0000000001
 40
0.0
 40
0.0
 40
0.0
 40
0.0
 40
0.2426586216
 40
1.0
 40
1.0
 40
1.0
 40
1.0
 10
79.5737639114
 20
-28.9862836897
 30
0.0
 10
79.5721786227
 20
-28.9986586641
 30
0.0
 10
79.5657768408
 20
-29.0459291565
 30
0.0
 10
79.5585526835
 20
-29.1505648409
 30
0.0
 10
79.5566533149
 20
-29.2870512436
 30
0.0
  0
LINE
  5
4D7
100
AcDbEntity
  8
CURVE
100
AcDbLine
 62
250
  6
CONTINUOUS
 10
79.5973759458
 20
-28.8079038802
 11
79.5737639114
 21
-28.9862836897
  0
SPLINE
  5
4D8
100
AcDbEntity
  8
CURVE
100
AcDbSpline
 62
250
  6
CONTINUOUS
 70
0
 71
3
 72
9
 73
5
 74
0
 42
0.0000001
 43
0.0000001
 44
0.0000000001
 40
0.0
 40
0.0
 40
0.0
 40
0.0
 40
0.5586214172
 40
1.0
 40
1.0
 40
1.0
 40
1.0
 10
79.5709220674
 20
-29.5379751749
 30
0.0
 10
79.5757378197
 20
-29.486134558
 30
0.0
 10
79.5846552336
 20
-29.4179595379
 30
0.0
 10
79.5934695024
 20
-29.3419894791
 30
0.0
 10
79.5973759458
 20
-29.3098079785
 30
0.0
  0
SPLINE
  5
4D9
100
AcDbEntity
  8
CURVE
100
AcDbSpline
 62
250
  6
CONTINUOUS
 70
0
 71
3
 72
9
 73
5
 74
0
 42
0.0000001
 43
0.0000001
 44
0.0000000001
 40
0.0
 40
0.0
 40
0.0
 40
0.0
 40
0.3559141631
 40
1.0
 40
1.0
 40
1.0
 40
1.0
 10
79.5632352194
 20
-29.8290889245
 30
0.0
 10
79.5632352194
 20
-29.7836184402
 30
0.0
 10
79.5641961358
 20
-29.6528120506
 30
0.0
 10
79.5682334149
 20
-29.5668873007
 30
0.0
 10
79.5709220674
 20
-29.5379751749
 30
0.0
  0
SPLINE
  5
4DA
100
AcDbEntity
  8
CURVE
100
AcDbSpline
 62
250
  6
CONTINUOUS
 70
0
 71
3
 72
9
 73
5
 74
0
 42
0.0000001
 43
0.0000001
 44
0.0000000001
 40
0.0
 40
0.0
 40
0.0
 40
0.0
 40
0.5206208722
 40
1.0
 40
1.0
 40
1.0
 40
1.0
 10
-117.3926085657
 20
-29.4226356449
 30
0.0
 10
-117.2846093961
 20
-29.4209681689
 30
0.0
 10
-117.0486862725
 20
-29.4973108459
 30
0.0
 10
-117.0066082267
 20
-29.728472706
 30
0.0
 10
-117.0043873652
 20
-29.8279642095
 30
0.0
  0
SPLINE
  5
4DB
100
AcDbEntity
  8
CURVE
100
AcDbSpline
 62
250
  6
CONTINUOUS
 70
0
 71
3
 72
9
 73
5
 74
0
 42
0.0000001
 43
0.0000001
 44
0.0000000001
 40
0.0
 40
0.0
 40
0.0
 40
0.0
 40
0.5013510385
 40
1.0
 40
1.0
 40
1.0
 40
1.0
 10
-117.7049015452
 20
-29.7173859732
 30
0.0
 10
-117.6960282555
 20
-29.6409112471
 30
0.0
 10
-117.6287221734
 20
-29.4862321801
 30
0.0
 10
-117.4691260331
 20
-29.423833145
 30
0.0
 10
-117.3926085657
 20
-29.4226356449
 30
0.0
  0
SPLINE
  5
4DC
100
AcDbEntity
  8
CURVE
100
AcDbSpline
 62
250
  6
CONTINUOUS
 70
0
 71
3
 72
9
 73
5
 74
0
 42
0.0000001
 43
0.0000001
 44
0.0000000001
 40
0.0
 40
0.0
 40
0.0
 40
0.0
 40
0.2703953699
 40
1.0
 40
1.0
 40
1.0
 40
1.0
 10
-117.6901954871
 20
-30.126163664
 30
0.0
 10
-117.6964060188
 20
-30.0897447717
 30
0.0
 10
-117.7168319628
 20
-29.9546358143
 30
0.0
 10
-117.7163885387
 20
-29.8164101388
 30
0.0
 10
-117.7049015452
 20
-29.7173859732
 30
0.0
  0
SPLINE
  5
4DD
100
AcDbEntity
  8
CURVE
100
AcDbSpline
 62
250
  6
CONTINUOUS
 70
0
 71
3
 72
9
 73
5
 74
0
 42
0.0000001
 43
0.0000001
 44
0.0000000001
 40
0.0
 40
0.0
 40
0.0
 40
0.0
 40
0.2957417834
 40
1.0
 40
1.0
 40
1.0
 40
1.0
 10
-118.0603010721
 20
-29.3408501143
 30
0.0
 10
-118.1037016278
 20
-29.4610542637
 30
0.0
 10
-118.1744471203
 20
-29.8931154132
 30
0.0
 10
-118.1308751207
 20
-30.3274429247
 30
0.0
 10
-118.0866033723
 20
-30.6285551388
 30
0.0
  0
SPLINE
  5
4DE
100
AcDbEntity
  8
CURVE
100
AcDbSpline
 62
250
  6
CONTINUOUS
 70
0
 71
3
 72
17
 73
13
 74
0
 42
0.0000001
 43
0.0000001
 44
0.0000000001
 40
0.0
 40
0.0
 40
0.0
 40
0.0
 40
0.0559780952
 40
0.1687540387
 40
0.321006234
 40
0.4122750837
 40
0.516613223
 40
0.6013931059
 40
0.6776022439
 40
0.8103422694
 40
0.9200404832
 40
1.0
 40
1.0
 40
1.0
 40
1.0
 10
-116.7984838176
 20
-29.2870512436
 30
0.0
 10
-116.8022003267
 20
-29.2582307418
 30
0.0
 10
-116.8598617349
 20
-29.184972753
 30
0.0
 10
-116.9697804649
 20
-29.0634829078
 30
0.0
 10
-117.1389832841
 20
-28.9740276278
 30
0.0
 10
-117.3155001234
 20
-28.9341773505
 30
0.0
 10
-117.4620054153
 20
-28.9304334968
 30
0.0
 10
-117.5988401695
 20
-28.9501640226
 30
0.0
 10
-117.7442377704
 20
-28.9979840427
 30
0.0
 10
-117.8867305889
 20
-29.0877998266
 30
0.0
 10
-117.9981637162
 20
-29.2146127248
 30
0.0
 10
-118.0462238034
 20
-29.301804483
 30
0.0
 10
-118.0603010721
 20
-29.3408501143
 30
0.0
  0
SPLINE
  5
4DF
100
AcDbEntity
  8
CURVE
100
AcDbSpline
 62
250
  6
CONTINUOUS
 70
0
 71
3
 72
9
 73
5
 74
0
 42
0.0000001
 43
0.0000001
 44
0.0000000001
 40
0.0
 40
0.0
 40
0.0
 40
0.0
 40
0.2426586216
 40
1.0
 40
1.0
 40
1.0
 40
1.0
 10
-116.293738182
 20
-28.9862836897
 30
0.0
 10
-116.3391349099
 20
-28.9986586641
 30
0.0
 10
-116.5224579602
 20
-29.0459291565
 30
0.0
 10
-116.7293307585
 20
-29.1505648409
 30
0.0
 10
-116.783721558
 20
-29.2870512436
 30
0.0
  0
SPLINE
  5
4E0
100
AcDbEntity
  8
CURVE
100
AcDbSpline
 62
250
  6
CONTINUOUS
 70
0
 71
3
 72
9
 73
5
 74
0
 42
0.0000001
 43
0.0000001
 44
0.0000000001
 40
0.0
 40
0.0
 40
0.0
 40
0.0
 40
0.1980141723
 40
1.0
 40
1.0
 40
1.0
 40
1.0
 10
-115.6175779835
 20
-28.8079038802
 30
0.0
 10
-115.662119299
 20
-28.8200085492
 30
0.0
 10
-115.887564943
 20
-28.8792554798
 30
0.0
 10
-116.1133781805
 20
-28.9371156095
 30
0.0
 10
-116.293738182
 20
-28.9862836897
 30
0.0
  0
SPLINE
  5
4E1
100
AcDbEntity
  8
CURVE
100
AcDbSpline
 62
250
  6
CONTINUOUS
 70
0
 71
3
 72
9
 73
5
 74
0
 42
0.0000001
 43
0.0000001
 44
0.0000000001
 40
0.0
 40
0.0
 40
0.0
 40
0.0
 40
0.5586214172
 40
1.0
 40
1.0
 40
1.0
 40
1.0
 10
-116.3751179482
 20
-29.5379751749
 30
0.0
 10
-116.2372128449
 20
-29.486134558
 30
0.0
 10
-115.9818515205
 20
-29.4179595379
 30
0.0
 10
-115.7294438871
 20
-29.3419894791
 30
0.0
 10
-115.6175779835
 20
-29.3098079785
 30
0.0
  0
SPLINE
  5
4E2
100
AcDbEntity
  8
CURVE
100
AcDbSpline
 62
250
  6
CONTINUOUS
 70
0
 71
3
 72
9
 73
5
 74
0
 42
0.0000001
 43
0.0000001
 44
0.0000000001
 40
0.0
 40
0.0
 40
0.0
 40
0.0
 40
0.3559141631
 40
1.0
 40
1.0
 40
1.0
 40
1.0
 10
-116.5952404742
 20
-29.8290889245
 30
0.0
 10
-116.5952404742
 20
-29.7836184402
 30
0.0
 10
-116.5677234263
 20
-29.6528120506
 30
0.0
 10
-116.4521108806
 20
-29.5668873007
 30
0.0
 10
-116.3751179482
 20
-29.5379751749
 30
0.0
  0
SPLINE
  5
4E3
100
AcDbEntity
  8
0
100
AcDbSpline
 62
7
  6
CONTINUOUS
 70
0
 71
3
 72
9
 73
5
 74
0
 42
0.0000001
 43
0.0000001
 44
0.0000000001
 40
0.0
 40
0.0
 40
0.0
 40
0.0
 40
0.4298639259
 40
1.0
 40
1.0
 40
1.0
 40
1.0
 10
-110.5106222399
 20
26.0463167932
 30
0.0
 10
-110.5106222399
 20
26.0354717433
 30
0.0
 10
-110.5185316601
 20
26.0106368785
 30
0.0
 10
-110.5311317434
 20
25.9889263862
 30
0.0
 10
-110.5384811549
 20
25.9765617175
 30
0.0
  0
SPLINE
  5
4E4
100
AcDbEntity
  8
0
100
AcDbSpline
 62
7
  6
CONTINUOUS
 70
0
 71
3
 72
9
 73
5
 74
0
 42
0.0000001
 43
0.0000001
 44
0.0000000001
 40
0.0
 40
0.0
 40
0.0
 40
0.0
 40
0.5701359783
 40
1.0
 40
1.0
 40
1.0
 40
1.0
 10
-110.5384811549
 20
-25.9765617175
 30
0.0
 10
-110.5311317446
 20
-25.9889263841
 30
0.0
 10
-110.5185316619
 20
-26.0106368765
 30
0.0
 10
-110.5106222399
 20
-26.0354717409
 30
0.0
 10
-110.5106222399
 20
-26.0463167932
 30
0.0
  0
SPLINE
  5
4E5
100
AcDbEntity
  8
0
100
AcDbSpline
 62
250
  6
CONTINUOUS
 70
0
 71
3
 72
13
 73
9
 74
0
 42
0.0000001
 43
0.0000001
 44
0.0000000001
 40
0.0
 40
0.0
 40
0.0
 40
0.0
 40
0.3880487266
 40
0.7024991829
 40
0.8213635491
 40
0.9105324873
 40
0.9687624458
 40
1.0
 40
1.0
 40
1.0
 40
1.0
 10
-112.5848496561
 20
26.9276792439
 30
0.0
 10
-112.5696532106
 20
26.954386408
 30
0.0
 10
-112.5411431015
 20
27.0021430954
 30
0.0
 10
-112.5049313386
 20
27.0563325113
 30
0.0
 10
-112.4796435744
 20
27.0889706773
 30
0.0
 10
-112.4650120681
 20
27.1045077875
 30
0.0
 10
-112.4548229834
 20
27.1136622635
 30
0.0
 10
-112.4468987311
 20
27.1161795183
 30
0.0
 10
-112.4447160062
 20
27.1150157961
 30
0.0
  0
SPLINE
  5
4E6
100
AcDbEntity
  8
0
100
AcDbSpline
 62
250
  6
CONTINUOUS
 70
0
 71
3
 72
9
 73
5
 74
0
 42
0.0000001
 43
0.0000001
 44
0.0000000001
 40
0.0
 40
0.0
 40
0.0
 40
0.0
 40
0.5592716625
 40
1.0
 40
1.0
 40
1.0
 40
1.0
 10
-112.5848496561
 20
-26.9276792439
 30
0.0
 10
-112.5686501481
 20
-26.9561619115
 30
0.0
 10
-112.5385523457
 20
-27.0064371562
 30
0.0
 10
-112.5057666273
 20
-27.0551036628
 30
0.0
 10
-112.4899717564
 20
-27.075531305
 30
0.0
  0
SPLINE
  5
4E7
100
AcDbEntity
  8
0
100
AcDbSpline
 62
250
  6
CONTINUOUS
 70
0
 71
3
 72
10
 73
6
 74
0
 42
0.0000001
 43
0.0000001
 44
0.0000000001
 40
0.0
 40
0.0
 40
0.0
 40
0.0
 40
0.6949677911
 40
0.8908475351
 40
1.0
 40
1.0
 40
1.0
 40
1.0
 10
-112.4899717564
 20
-27.075531305
 30
0.0
 10
-112.4812144856
 20
-27.0868571585
 30
0.0
 10
-112.4691884707
 20
-27.1012421842
 30
0.0
 10
-112.4537377081
 20
-27.1142387348
 30
0.0
 10
-112.4467042377
 20
-27.116066058
 30
0.0
 10
-112.4447160062
 20
-27.1150157961
 30
0.0
  0
SPLINE
  5
4E8
100
AcDbEntity
  8
0
100
AcDbSpline
 62
250
  6
CONTINUOUS
 70
0
 71
3
 72
11
 73
7
 74
0
 42
0.0000001
 43
0.0000001
 44
0.0000000001
 40
0.0
 40
0.0
 40
0.0
 40
0.0
 40
0.2014148372
 40
0.4266121401
 40
0.6906582782
 40
1.0
 40
1.0
 40
1.0
 40
1.0
 10
-110.9216610786
 20
26.3065510847
 30
0.0
 10
-110.9279492886
 20
26.3098889787
 30
0.0
 10
-110.9428872497
 20
26.3141439837
 30
0.0
 10
-110.9675806837
 20
26.3120187112
 30
0.0
 10
-110.9943446047
 20
26.3023888892
 30
0.0
 10
-111.0119000733
 20
26.2920661639
 30
0.0
 10
-111.0209494226
 20
26.2859292724
 30
0.0
  0
SPLINE
  5
4E9
100
AcDbEntity
  8
0
100
AcDbSpline
 62
250
  6
CONTINUOUS
 70
0
 71
3
 72
9
 73
5
 74
0
 42
0.0000001
 43
0.0000001
 44
0.0000000001
 40
0.0
 40
0.0
 40
0.0
 40
0.0
 40
0.2353683512
 40
1.0
 40
1.0
 40
1.0
 40
1.0
 10
-111.0209494226
 20
26.2859292724
 30
0.0
 10
-111.0242681184
 20
26.2836786713
 30
0.0
 10
-111.0381341274
 20
26.2737723695
 30
0.0
 10
-111.0511061131
 20
26.2626456618
 30
0.0
 10
-111.0605730076
 20
26.2536973817
 30
0.0
  0
SPLINE
  5
4EA
100
AcDbEntity
  8
0
100
AcDbSpline
 62
250
  6
CONTINUOUS
 70
0
 71
3
 72
11
 73
7
 74
0
 42
0.0000001
 43
0.0000001
 44
0.0000000001
 40
0.0
 40
0.0
 40
0.0
 40
0.0
 40
0.2014204425
 40
0.4266195702
 40
0.69066323
 40
1.0
 40
1.0
 40
1.0
 40
1.0
 10
-110.9216610786
 20
-26.3065510847
 30
0.0
 10
-110.9279487503
 20
-26.309888693
 30
0.0
 10
-110.9428851365
 20
-26.3141435121
 30
0.0
 10
-110.9675760078
 20
-26.3120196388
 30
0.0
 10
-110.9943371679
 20
-26.3023922375
 30
0.0
 10
-111.0118909382
 20
-26.2920717117
 30
0.0
 10
-111.0209394162
 20
-26.2859360568
 30
0.0
  0
SPLINE
  5
4EB
100
AcDbEntity
  8
0
100
AcDbSpline
 62
250
  6
CONTINUOUS
 70
0
 71
3
 72
9
 73
5
 74
0
 42
0.0000001
 43
0.0000001
 44
0.0000000001
 40
0.0
 40
0.0
 40
0.0
 40
0.0
 40
0.2353640417
 40
1.0
 40
1.0
 40
1.0
 40
1.0
 10
-111.0209394162
 20
-26.2859360568
 30
0.0
 10
-111.0242589449
 20
-26.2836851277
 30
0.0
 10
-111.0381286276
 20
-26.2737770382
 30
0.0
 10
-111.0511038238
 20
-26.2626478256
 30
0.0
 10
-111.0605730076
 20
-26.2536973817
 30
0.0
  0
SPLINE
  5
4EC
100
AcDbEntity
  8
0
100
AcDbSpline
 62
250
  6
CONTINUOUS
 70
0
 71
3
 72
17
 73
13
 74
0
 42
0.0000001
 43
0.0000001
 44
0.0000000001
 40
0.0
 40
0.0
 40
0.0
 40
0.0
 40
0.0041509426
 40
0.0165131528
 40
0.0370394731
 40
0.0656738303
 40
0.147033967
 40
0.259883893
 40
0.4031301725
 40
0.5755840393
 40
0.7753335906
 40
1.0
 40
1.0
 40
1.0
 40
1.0
 10
-111.0605730076
 20
-26.3415638603
 30
0.0
 10
-111.0604514301
 20
-26.341563153
 30
0.0
 10
-111.0606685506
 20
-26.3407901078
 30
0.0
 10
-111.0604148081
 20
-26.3399838662
 30
0.0
 10
-111.0605220305
 20
-26.3380251079
 30
0.0
 10
-111.0604149075
 20
-26.3342971317
 30
0.0
 10
-111.0604529735
 20
-26.3277000543
 30
0.0
 10
-111.0604185344
 20
-26.3178494928
 30
0.0
 10
-111.0604399062
 20
-26.3052846155
 30
0.0
 10
-111.0604643761
 20
-26.2901918491
 30
0.0
 10
-111.060511329
 20
-26.2727082659
 30
0.0
 10
-111.0605505822
 20
-26.2602777389
 30
0.0
 10
-111.0605730076
 20
-26.2536973817
 30
0.0
  0
SPLINE
  5
4ED
100
AcDbEntity
  8
0
100
AcDbSpline
 62
250
  6
CONTINUOUS
 70
0
 71
3
 72
17
 73
13
 74
0
 42
0.0000001
 43
0.0000001
 44
0.0000000001
 40
0.0
 40
0.0
 40
0.0
 40
0.0
 40
0.2246664094
 40
0.4244159606
 40
0.5968698275
 40
0.740116107
 40
0.852966033
 40
0.9343261697
 40
0.9629605269
 40
0.9834868471
 40
0.9958490574
 40
1.0
 40
1.0
 40
1.0
 40
1.0
 10
-111.0605730076
 20
26.2536973817
 30
0.0
 10
-111.0605505822
 20
26.2602777389
 30
0.0
 10
-111.060511329
 20
26.2727082659
 30
0.0
 10
-111.0604643761
 20
26.2901918491
 30
0.0
 10
-111.0604399062
 20
26.3052846155
 30
0.0
 10
-111.0604185344
 20
26.3178494928
 30
0.0
 10
-111.0604529735
 20
26.3277000543
 30
0.0
 10
-111.0604149075
 20
26.3342971317
 30
0.0
 10
-111.0605220305
 20
26.3380251079
 30
0.0
 10
-111.0604148081
 20
26.3399838662
 30
0.0
 10
-111.0606685506
 20
26.3407901078
 30
0.0
 10
-111.0604514301
 20
26.341563153
 30
0.0
 10
-111.0605730076
 20
26.3415638603
 30
0.0
  0
ELLIPSE
  5
4EE
100
AcDbEntity
  8
0
100
AcDbEllipse
 62
7
  6
CONTINUOUS
 10
-110.7106222399
 20
26.079798695
 30
0.0
 11
-0.1417119467
 21
0.1422961243
 31
0.0
 40
0.9918061237
 41
-3.8766878413
 42
-2.8923940429
  0
ELLIPSE
  5
4EF
100
AcDbEntity
  8
0
100
AcDbEllipse
 62
7
  6
CONTINUOUS
 10
-110.7106222399
 20
-26.079798695
 30
0.0
 11
0.1417119467
 21
0.1422961243
 31
0.0
 40
0.9918061237
 41
-0.2491986107
 42
0.7350951877
  0
ENDSEC
  0
SECTION
  2
OBJECTS
  0
DICTIONARY
  5
C
100
AcDbDictionary
280
0
281
1
  3
ACAD_GROUP
350
D
  3
ACAD_MLINESTYLE
350
17
  3
ACAD_LAYOUT
350
1A
  3
ACAD_PLOTSETTINGS
350
19
  3
ACAD_PLOTSTYLENAME
350
E
  0
DICTIONARY
  5
D
102
{ACAD_REACTORS
330
C
102
}
100
AcDbDictionary
280
0
281
1
  0
ACDBDICTIONARYWDFLT
  5
E
102
{ACAD_REACTORS
330
C
102
}
100
AcDbDictionary
281
1
  3
Normal
350
F
100
AcDbDictionaryWithDefault
340
F
  0
DICTIONARY
  5
17
102
{ACAD_REACTORS
330
C
102
}
100
AcDbDictionary
280
0
281
1
  3
Standard
350
18
  0
DICTIONARY
  5
19
102
{ACAD_REACTORS
330
C
102
}
100
AcDbDictionary
281
1
  0
DICTIONARY
  5
1A
102
{ACAD_REACTORS
330
C
102
}
100
AcDbDictionary
281
1
  3
Model
350
4F0
  3
Layout1
350
4F1
  0
ACDBPLACEHOLDER
  5
F
102
{ACAD_REACTORS
330
E
102
}
  0
MLINESTYLE
  5
18
102
{ACAD_REACTORS
330
17
102
}
100
AcDbMlineStyle
  2
STANDARD
 70
0
  3

 62
256
 51
90.0
 52
90.0
 71
2
 49
0.5
 62
256
  6
BYLAYER
 49
-0.5
 62
256
  6
BYLAYER
  0
LAYOUT
  5
4F0
102
{ACAD_REACTORS
330
1A
102
}
100
AcDbPlotSettings
  1

  2
none_device
  4
ISO_A4_(297.00_x_210.00_MM)
  6

 40
0.0
 41
0.0
 42
0.0
 43
0.0
 44
297.0
 45
210.0
 46
0.0
 47
0.0
 48
0.0
 49
0.0
140
0.0
141
0.0
142
1.0
143
1.0
 70
1024
 72
1
 73
0
 74
0
  7

 75
0
147
1.0
148
0.0
149
0.0
100
AcDbLayout
  1
Model
 70
0
 71
0
 10
0.0
 20
0.0
 11
297.0
 21
210.0
 12
0.0
 22
0.0
 32
0.0
 14
0.0
 24
0.0
 34
0.0
 15
0.0
 25
0.0
 35
0.0
146
0.0
 13
0.0
 23
0.0
 33
0.0
 16
1.0
 26
0.0
 36
0.0
 17
0.0
 27
1.0
 37
0.0
 76
0
330
21E
345
0
346
0
  0
LAYOUT
  5
4F1
102
{ACAD_REACTORS
330
1A
102
}
100
AcDbPlotSettings
  1

  2
none_device
  4
ISO_A4_(297.00_x_210.00_MM)
  6

 40
0.0
 41
0.0
 42
0.0
 43
0.0
 44
297.0
 45
210.0
 46
0.0
 47
0.0
 48
0.0
 49
0.0
140
0.0
141
0.0
142
1.0
143
1.0
 70
0
 72
1
 73
0
 74
0
  7

 75
0
147
1.0
148
0.0
149
0.0
100
AcDbLayout
  1
Layout1
 70
0
 71
1
 10
0.0
 20
0.0
 11
297.0
 21
210.0
 12
0.0
 22
0.0
 32
0.0
 14
0.0
 24
0.0
 34
0.0
 15
0.0
 25
0.0
 35
0.0
146
0.0
 13
0.0
 23
0.0
 33
0.0
 16
1.0
 26
0.0
 36
0.0
 17
0.0
 27
1.0
 37
0.0
 76
0
330
21F
345
0
346
0
  0
ENDSEC
  0
EOF
