  0
SECTION
  2
HEADER
  9
$ACADVER
  1
AC1024
  9
$DWGCODEPAGE
  3
ANSI_1252
  9
$EXTMAX
 10
297.0
 20
210.0
 30
0.0
  9
$EXTMIN
 10
0.0
 20
0.0
 30
0.0
  9
$LIMMIN
 10
0.0
 20
0.0
  9
$LIMMAX
 10
297.0
 20
210.0
  9
$VIEWCTR
 10
148.5
 20
105.0
  9
$VIEWSIZE
 40
210.0
  9
$CLAYER
  8
0
  9
$LTSCALE
 40
16.335
  9
$CELTYPE
  6
BYLAYER
  9
$DIMSCALE
 40
1.0
  9
$DIMASZ
 40
3.0
  9
$DIMEXO
 40
0.5
  9
$DIMDLI
 40
11.286
  9
$DIMEXE
 40
1.5
  9
$DIMCEN
 40
2.673
  9
$DIMLFAC
 40
1.0
  9
$DIMBLK
  1
_FILLED
  9
$DIMALT
 70
0
  9
$DIMALTF
 40
0.0393700787
  9
$DIMTXT
 40
3.0
  9
$DIMTOL
 70
1
  9
$DIMLIM
 70
0
  9
$DIMTFAC
 40
1.0
  9
$DIMTP
 40
0.01
  9
$DIMTM
 40
0.01
  9
$DIMGAP
 40
0.625
  9
$DIMDSEP
 70
44
  9
$AUNITS
 70
0
  9
$PDMODE
 70
3
  9
$PDSIZE
 40
3.0
  9
$HANDSEED
  5
340
  9
$TILEMODE
 70
1
  9
$MEASUREMENT
 70
1
  9
$INSUNITS
 70
4
  0
ENDSEC
  0
SECTION
  2
CLASSES
  0
CLASS
  1
ACDBDICTIONARYWDFLT
  2
AcDbDictionaryWithDefault
  3
AutoCAD 2000
 90
0
 91
1
280
0
281
0
  0
CLASS
  1
ACDBPLACEHOLDER
  2
AcDbPlaceHolder
  3
AutoCAD 2000
 90
0
 91
1
280
0
281
0
  0
CLASS
  1
LAYOUT
  2
AcDbLayout
  3
AutoCAD 2000
 90
0
 91
0
280
0
281
0
  0
ENDSEC
  0
SECTION
  2
TABLES
  0
TABLE
  2
VPORT
  5
8
100
AcDbSymbolTable
 70
2
  0
VPORT
  5
1F4
100
AcDbSymbolTableRecord
100
AcDbViewportTableRecord
  2
*ACTIVE
 70
0
 10
0.0
 20
0.0
 11
1.0
 21
1.0
 12
148.5
 22
105.0
 13
0.0
 23
0.0
 14
1.0
 24
1.0
 15
0.0
 25
0.0
 16
0.0
 26
0.0
 36
1.0
 17
0.0
 27
0.0
 37
0.0
 40
210.0
 41
1.4142857143
 42
50.0
 43
0.0
 44
0.0
 50
0.0
 51
0.0
 71
0
 72
100
 73
1
 74
1
 75
0
 76
0
 77
0
 78
0
  0
ENDTAB
  0
TABLE
  2
LTYPE
  5
5
100
AcDbSymbolTable
 70
6
  0
LTYPE
  5
14
100
AcDbSymbolTableRecord
100
AcDbLinetypeTableRecord
  2
BYBLOCK
 70
0
  3

 72
65
 73
0
 40
0.0
  0
LTYPE
  5
15
100
AcDbSymbolTableRecord
100
AcDbLinetypeTableRecord
  2
BYLAYER
 70
0
  3

 72
65
 73
0
 40
0.0
  0
LTYPE
  5
16
100
AcDbSymbolTableRecord
100
AcDbLinetypeTableRecord
  2
CONTINUOUS
 70
64
  3
Solid line
 72
65
 73
0
 40
0.0
  0
LTYPE
  5
1F5
100
AcDbSymbolTableRecord
100
AcDbLinetypeTableRecord
  2
CENTER
 70
64
  3
____ _ ____ _ ____ _ ____ _ ____ _ ____ _ ____
 72
65
 73
4
 40
0.6
 49
0.375
 74
0
 49
-0.075
 74
0
 49
0.075
 74
0
 49
-0.075
 74
0
  0
LTYPE
  5
1F6
100
AcDbSymbolTableRecord
100
AcDbLinetypeTableRecord
  2
HIDDEN
 70
64
  3
- - - - - - - - - - - - - - - - - - - -
 72
65
 73
2
 40
0.2
 49
0.1
 74
0
 49
-0.1
 74
0
  0
LTYPE
  5
1F7
100
AcDbSymbolTableRecord
100
AcDbLinetypeTableRecord
  2
PHANTOM
 70
64
  3
_____ _ _ _____ _ _ _____ _ _ _____
 72
65
 73
6
 40
0.8
 49
0.45
 74
0
 49
-0.05
 74
0
 49
0.1
 74
0
 49
-0.05
 74
0
 49
0.1
 74
0
 49
-0.05
 74
0
  0
LTYPE
  5
1F8
100
AcDbSymbolTableRecord
100
AcDbLinetypeTableRecord
  2
DOT
 70
64
  3
. . . . . . . . . . . . . . . . . . . .
 72
65
 73
2
 40
0.2
 49
0.1
 74
0
 49
-0.1
 74
0
  0
LTYPE
  5
1F9
100
AcDbSymbolTableRecord
100
AcDbLinetypeTableRecord
  2
DASHED
 70
64
  3
- - - - - - - - - - - - - - - - - - - -
 72
65
 73
2
 40
0.2
 49
0.1
 74
0
 49
-0.1
 74
0
  0
ENDTAB
  0
TABLE
  2
LAYER
  5
2
100
AcDbSymbolTable
 70
36
  0
LAYER
  5
10
100
AcDbSymbolTableRecord
100
AcDbLayerTableRecord
  2
0
 70
0
 62
7
  6
CONTINUOUS
370
-3
390
F
  0
LAYER
  5
1FA
100
AcDbSymbolTableRecord
100
AcDbLayerTableRecord
  2
DEFAULT_1
 70
0
 62
7
  6
CENTER
370
-3
390
F
  0
LAYER
  5
1FB
100
AcDbSymbolTableRecord
100
AcDbLayerTableRecord
  2
DEFAULT_2
 70
0
 62
7
  6
HIDDEN
370
-3
390
F
  0
LAYER
  5
1FC
100
AcDbSymbolTableRecord
100
AcDbLayerTableRecord
  2
DEFAULT_3
 70
0
 62
7
  6
PHANTOM
370
-3
390
F
  0
LAYER
  5
1FD
100
AcDbSymbolTableRecord
100
AcDbLayerTableRecord
  2
ASSI
 70
0
 62
7
  6
CONTINUOUS
370
-3
390
F
  0
LAYER
  5
1FE
100
AcDbSymbolTableRecord
100
AcDbLayerTableRecord
  2
COORDINATE
 70
0
 62
7
  6
CONTINUOUS
370
-3
390
F
  0
LAYER
  5
1FF
100
AcDbSymbolTableRecord
100
AcDbLayerTableRecord
  2
COORD_ORIGINE
 70
0
 62
7
  6
CONTINUOUS
370
-3
390
F
  0
LAYER
  5
200
100
AcDbSymbolTableRecord
100
AcDbLayerTableRecord
  2
COPY_PUBLISH
 70
0
 62
7
  6
CONTINUOUS
370
-3
390
F
  0
LAYER
  5
201
100
AcDbSymbolTableRecord
100
AcDbLayerTableRecord
  2
COSMETIC
 70
0
 62
7
  6
CONTINUOUS
370
-3
390
F
  0
LAYER
  5
202
100
AcDbSymbolTableRecord
100
AcDbLayerTableRecord
  2
COSMETICI
 70
0
 62
7
  6
CONTINUOUS
370
-3
390
F
  0
LAYER
  5
203
100
AcDbSymbolTableRecord
100
AcDbLayerTableRecord
  2
CURVE
 70
0
 62
7
  6
CONTINUOUS
370
-3
390
F
  0
LAYER
  5
204
100
AcDbSymbolTableRecord
100
AcDbLayerTableRecord
  2
CURVE_TASSELLI
 70
0
 62
7
  6
CONTINUOUS
370
-3
390
F
  0
LAYER
  5
205
100
AcDbSymbolTableRecord
100
AcDbLayerTableRecord
  2
DRAFT
 70
0
 62
7
  6
CONTINUOUS
370
-3
390
F
  0
LAYER
  5
206
100
AcDbSymbolTableRecord
100
AcDbLayerTableRecord
  2
IMPORT_IGES
 70
0
 62
7
  6
CONTINUOUS
370
-3
390
F
  0
LAYER
  5
207
100
AcDbSymbolTableRecord
100
AcDbLayerTableRecord
  2
INTFCLR_2
 70
0
 62
7
  6
CONTINUOUS
370
-3
390
F
  0
LAYER
  5
208
100
AcDbSymbolTableRecord
100
AcDbLayerTableRecord
  2
INTF_1
 70
0
 62
7
  6
CONTINUOUS
370
-3
390
F
  0
LAYER
  5
209
100
AcDbSymbolTableRecord
100
AcDbLayerTableRecord
  2
INTF_21
 70
0
 62
7
  6
CONTINUOUS
370
-3
390
F
  0
LAYER
  5
20A
100
AcDbSymbolTableRecord
100
AcDbLayerTableRecord
  2
INTF_7
 70
0
 62
7
  6
CONTINUOUS
370
-3
390
F
  0
LAYER
  5
20B
100
AcDbSymbolTableRecord
100
AcDbLayerTableRecord
  2
INTF_CYAN
 70
0
 62
7
  6
CONTINUOUS
370
-3
390
F
  0
LAYER
  5
20C
100
AcDbSymbolTableRecord
100
AcDbLayerTableRecord
  2
NOTE
 70
0
 62
7
  6
CONTINUOUS
370
-3
390
F
  0
LAYER
  5
20D
100
AcDbSymbolTableRecord
100
AcDbLayerTableRecord
  2
PIANI
 70
0
 62
7
  6
CONTINUOUS
370
-3
390
F
  0
LAYER
  5
20E
100
AcDbSymbolTableRecord
100
AcDbLayerTableRecord
  2
PIANI_ORIGINE
 70
0
 62
7
  6
CONTINUOUS
370
-3
390
F
  0
LAYER
  5
20F
100
AcDbSymbolTableRecord
100
AcDbLayerTableRecord
  2
PIANI_RIFERIMENTO
 70
0
 62
7
  6
CONTINUOUS
370
-3
390
F
  0
LAYER
  5
210
100
AcDbSymbolTableRecord
100
AcDbLayerTableRecord
  2
PUNTI
 70
0
 62
7
  6
CONTINUOUS
370
-3
390
F
  0
LAYER
  5
211
100
AcDbSymbolTableRecord
100
AcDbLayerTableRecord
  2
RACCORDO
 70
0
 62
7
  6
CONTINUOUS
370
-3
390
F
  0
LAYER
  5
212
100
AcDbSymbolTableRecord
100
AcDbLayerTableRecord
  2
RGB__255__255__255__
 70
0
 62
7
  6
CONTINUOUS
370
-3
390
F
  0
LAYER
  5
213
100
AcDbSymbolTableRecord
100
AcDbLayerTableRecord
  2
RGB____0____0____0__
 70
0
 62
7
  6
CONTINUOUS
370
-3
390
F
  0
LAYER
  5
214
100
AcDbSymbolTableRecord
100
AcDbLayerTableRecord
  2
SIMBOLI
 70
0
 62
7
  6
CONTINUOUS
370
-3
390
F
  0
LAYER
  5
215
100
AcDbSymbolTableRecord
100
AcDbLayerTableRecord
  2
SMUSSO
 70
0
 62
7
  6
CONTINUOUS
370
-3
390
F
  0
LAYER
  5
216
100
AcDbSymbolTableRecord
100
AcDbLayerTableRecord
  2
SUPERFICI
 70
0
 62
7
  6
CONTINUOUS
370
-3
390
F
  0
LAYER
  5
217
100
AcDbSymbolTableRecord
100
AcDbLayerTableRecord
  2
TRASH
 70
0
 62
7
  6
CONTINUOUS
370
-3
390
F
  0
LAYER
  5
218
100
AcDbSymbolTableRecord
100
AcDbLayerTableRecord
  2
XSEC_DATUMS
 70
0
 62
7
  6
CONTINUOUS
370
-3
390
F
  0
ENDTAB
  0
TABLE
  2
STYLE
  5
3
100
AcDbSymbolTable
 70
1
  0
STYLE
  5
11
100
AcDbSymbolTableRecord
100
AcDbTextStyleTableRecord
  2
STANDARD
 70
0
 40
0.0
 41
0.8
 50
0.0
 71
0
 42
0.2
  3
txt
  4

  0
STYLE
  5
219
100
AcDbSymbolTableRecord
100
AcDbTextStyleTableRecord
  2
TEXTSTYLE_1
 70
0
 40
0.0
 41
0.8
 50
0.0
 71
0
 42
0.2
  3
gdt
  4

  0
ENDTAB
  0
TABLE
  2
VIEW
  5
6
100
AcDbSymbolTable
 70
0
  0
ENDTAB
  0
TABLE
  2
UCS
  5
7
100
AcDbSymbolTable
 70
0
  0
ENDTAB
  0
TABLE
  2
APPID
  5
9
100
AcDbSymbolTable
 70
1
  0
APPID
  5
21A
100
AcDbSymbolTableRecord
100
AcDbRegAppTableRecord
  2
ACAD
 70
0
  0
ENDTAB
  0
TABLE
  2
BLOCK_RECORD
  5
1
100
AcDbSymbolTable
 70
0
  0
BLOCK_RECORD
  5
21B
100
AcDbSymbolTableRecord
100
AcDbBlockTableRecord
  2
*Model_Space
  0
BLOCK_RECORD
  5
21C
100
AcDbSymbolTableRecord
100
AcDbBlockTableRecord
  2
*Paper_Space
  0
BLOCK_RECORD
  5
21D
100
AcDbSymbolTableRecord
100
AcDbBlockTableRecord
  2
_FILLED
  0
BLOCK_RECORD
  5
21E
100
AcDbSymbolTableRecord
100
AcDbBlockTableRecord
  2
*D0
  0
BLOCK_RECORD
  5
21F
100
AcDbSymbolTableRecord
100
AcDbBlockTableRecord
  2
*D1
  0
BLOCK_RECORD
  5
220
100
AcDbSymbolTableRecord
100
AcDbBlockTableRecord
  2
*D2
  0
BLOCK_RECORD
  5
221
100
AcDbSymbolTableRecord
100
AcDbBlockTableRecord
  2
*D3
  0
ENDTAB
  0
TABLE
  2
DIMSTYLE
  5
A
100
AcDbSymbolTable
 70
1
100
AcDbDimStyleTable
 71
0
  0
DIMSTYLE
105
222
100
AcDbSymbolTableRecord
100
AcDbDimStyleTableRecord
  2
STANDARD
 70
0
  3

  4

 40
1.0
 41
3.0
 42
0.5
 43
0.38
 44
1.5
 45
0.0
 46
0.0
 47
0.01
 48
0.01
140
3.0
141
0.09
142
0.0
143
25.4
144
1.0
145
0.0
146
1.0
147
0.625
 71
1.0
 72
0.0
 73
0
 74
0
 75
0
 76
0
 77
1
 78
8
 79
2
170
0
171
1
172
0
173
0
174
0
175
0
176
0
177
0
178
0
270
2
179
2
271
2
272
2
273
2
274
2
275
0
280
0
281
0
282
0
283
1
284
8
285
0
286
0
287
3
288
0
340
11
278
44
341
21D
342
21D
343
21D
344
21D
  0
DIMSTYLE
105
223
100
AcDbSymbolTableRecord
100
AcDbDimStyleTableRecord
  2
DIMSTYLE_1
 70
0
  3

  4

 40
1.0
 41
3.0
 42
0.5
 43
0.38
 44
1.5
 45
0.0
 46
0.0
 47
0.0
 48
0.0
140
3.0
141
0.09
142
0.0
143
25.4
144
1.0
145
0.0
146
1.0
147
0.75
 71
0.0
 72
0.0
 73
0
 74
0
 75
0
 76
0
 77
1
 78
8
 79
2
170
0
171
1
172
0
173
0
174
0
175
0
176
0
177
0
178
0
270
2
179
2
271
2
272
2
273
2
274
2
275
0
280
0
281
0
282
0
283
1
284
8
285
0
286
0
287
3
288
0
340
11
278
44
341
21D
342
21D
343
21D
344
21D
  0
ENDTAB
  0
ENDSEC
  0
SECTION
  2
BLOCKS
  0
BLOCK
  5
20
100
AcDbEntity
  8
0
100
AcDbBlockBegin
  2
*Model_Space
 70
0
 10
0.0
 20
0.0
 30
0.0
  3
*Model_Space
  1

  0
ENDBLK
  5
21
100
AcDbEntity
  8
0
100
AcDbBlockEnd
  0
BLOCK
  5
1C
100
AcDbEntity
  8
0
100
AcDbBlockBegin
  2
*Paper_Space
 70
0
 10
0.0
 20
0.0
 30
0.0
  3
*Paper_Space
  1

  0
ENDBLK
  5
1D
100
AcDbEntity
  8
0
100
AcDbBlockEnd
  0
BLOCK
  5
224
100
AcDbEntity
  8
0
100
AcDbBlockBegin
  2
_FILLED
 70
64
 10
0.0
 20
0.0
  3
_FILLED
  1

  0
SOLID
  5
225
100
AcDbEntity
  8
0
  6
BYBLOCK
 62
0
100
AcDbTrace
 10
0.0
 20
0.0
 11
-1.0
 21
0.3166666667
 12
-1.0
 22
-0.3166666667
 13
-1.0
 23
-0.3166666667
  0
ENDBLK
  5
226
100
AcDbEntity
  8
0
  6
BYBLOCK
 62
0
100
AcDbBlockEnd
  0
BLOCK
  5
227
100
AcDbEntity
  8
0
100
AcDbBlockBegin
 62
7
  6
CONTINUOUS
  2
*D0
 70
65
 10
0.0
 20
0.0
  3
*D0
  1

  0
LINE
  5
228
100
AcDbEntity
  8
0
100
AcDbLine
 62
7
  6
CONTINUOUS
 10
230.5944695724
 20
150.4885770531
 11
230.5944695724
 21
164.5644074567
  0
LINE
  5
229
100
AcDbEntity
  8
0
100
AcDbLine
 62
7
  6
CONTINUOUS
 10
140.5944695724
 20
150.4885770531
 11
140.5944695724
 21
164.5644074567
  0
LINE
  5
22A
100
AcDbEntity
  8
0
100
AcDbLine
 62
7
  6
CONTINUOUS
 10
230.5944695724
 20
163.0644074567
 11
185.5944695724
 21
163.0644074567
  0
LINE
  5
22B
100
AcDbEntity
  8
0
100
AcDbLine
 62
7
  6
CONTINUOUS
 10
140.5944695724
 20
163.0644074567
 11
185.5944695724
 21
163.0644074567
  0
INSERT
  5
22C
100
AcDbEntity
  8
0
100
AcDbBlockReference
 62
7
  6
CONTINUOUS
  2
_FILLED
 10
230.5944695724
 20
163.0644074567
 41
3.0
 42
3.0
 43
3.0
  0
INSERT
  5
22D
100
AcDbEntity
  8
0
100
AcDbBlockReference
 62
7
  6
CONTINUOUS
  2
_FILLED
 10
140.5944695724
 20
163.0644074567
 41
3.0
 42
3.0
 43
3.0
 50
180.0
  0
ENDBLK
  5
22E
100
AcDbEntity
  8
0
  6
BYBLOCK
 62
0
100
AcDbBlockEnd
  0
BLOCK
  5
22F
100
AcDbEntity
  8
0
100
AcDbBlockBegin
 62
7
  6
CONTINUOUS
  2
*D1
 70
65
 10
0.0
 20
0.0
  3
*D1
  1

  0
LINE
  5
230
100
AcDbEntity
  8
0
100
AcDbLine
 62
7
  6
CONTINUOUS
 10
230.0938607703
 20
150.9891858553
 11
245.2943688219
 21
150.9891858553
  0
LINE
  5
231
100
AcDbEntity
  8
0
100
AcDbLine
 62
7
  6
CONTINUOUS
 10
230.0938607703
 20
60.9891858553
 11
245.2943688219
 21
60.9891858553
  0
LINE
  5
232
100
AcDbEntity
  8
0
100
AcDbLine
 62
7
  6
CONTINUOUS
 10
243.7943688219
 20
150.9891858553
 11
243.7943688219
 21
105.9891858553
  0
LINE
  5
233
100
AcDbEntity
  8
0
100
AcDbLine
 62
7
  6
CONTINUOUS
 10
243.7943688219
 20
60.9891858553
 11
243.7943688219
 21
105.9891858553
  0
INSERT
  5
234
100
AcDbEntity
  8
0
100
AcDbBlockReference
 62
7
  6
CONTINUOUS
  2
_FILLED
 10
243.7943688219
 20
150.9891858553
 41
3.0
 42
3.0
 43
3.0
 50
90.0
  0
INSERT
  5
235
100
AcDbEntity
  8
0
100
AcDbBlockReference
 62
7
  6
CONTINUOUS
  2
_FILLED
 10
243.7943688219
 20
60.9891858553
 41
3.0
 42
3.0
 43
3.0
 50
270.0
  0
ENDBLK
  5
236
100
AcDbEntity
  8
0
  6
BYBLOCK
 62
0
100
AcDbBlockEnd
  0
BLOCK
  5
237
100
AcDbEntity
  8
0
100
AcDbBlockBegin
 62
7
  6
CONTINUOUS
  2
*D2
 70
65
 10
0.0
 20
0.0
  3
*D2
  1

  0
LINE
  5
238
100
AcDbEntity
  8
0
100
AcDbLine
 62
7
  6
CONTINUOUS
 10
88.9157483509
 20
147.6930833748
 11
88.9157483509
 21
164.7795489592
  0
LINE
  5
239
100
AcDbEntity
  8
0
100
AcDbLine
 62
7
  6
CONTINUOUS
 10
81.7657483509
 20
149.8659232655
 11
81.7657483509
 21
164.7795489592
  0
LINE
  5
23A
100
AcDbEntity
  8
0
100
AcDbLine
 62
7
  6
CONTINUOUS
 10
88.9157483509
 20
163.2795489592
 11
85.3407483509
 21
163.2795489592
  0
LINE
  5
23B
100
AcDbEntity
  8
0
100
AcDbLine
 62
7
  6
CONTINUOUS
 10
81.7657483509
 20
163.2795489592
 11
85.3407483509
 21
163.2795489592
  0
LINE
  5
23C
100
AcDbEntity
  8
0
100
AcDbLine
 62
7
  6
CONTINUOUS
 10
85.3407483509
 20
163.2795489592
 11
72.3219101635
 21
163.2795489592
  0
INSERT
  5
23D
100
AcDbEntity
  8
0
100
AcDbBlockReference
 62
7
  6
CONTINUOUS
  2
_FILLED
 10
88.9157483509
 20
163.2795489592
 41
3.0
 42
3.0
 43
3.0
  0
INSERT
  5
23E
100
AcDbEntity
  8
0
100
AcDbBlockReference
 62
7
  6
CONTINUOUS
  2
_FILLED
 10
81.7657483509
 20
163.2795489592
 41
3.0
 42
3.0
 43
3.0
 50
180.0
  0
ENDBLK
  5
23F
100
AcDbEntity
  8
0
  6
BYBLOCK
 62
0
100
AcDbBlockEnd
  0
BLOCK
  5
240
100
AcDbEntity
  8
0
100
AcDbBlockBegin
 62
7
  6
CONTINUOUS
  2
*D3
 70
65
 10
0.0
 20
0.0
  3
*D3
  1

  0
LINE
  5
241
100
AcDbEntity
  8
0
100
AcDbLine
 62
7
  6
CONTINUOUS
 10
91.9157483509
 20
132.4101485826
 11
91.9157483509
 21
175.948304342
  0
LINE
  5
242
100
AcDbEntity
  8
0
100
AcDbLine
 62
7
  6
CONTINUOUS
 10
81.7657483509
 20
149.8659232655
 11
81.7657483509
 21
175.948304342
  0
LINE
  5
243
100
AcDbEntity
  8
0
100
AcDbLine
 62
7
  6
CONTINUOUS
 10
91.9157483509
 20
174.448304342
 11
86.8407483509
 21
174.448304342
  0
LINE
  5
244
100
AcDbEntity
  8
0
100
AcDbLine
 62
7
  6
CONTINUOUS
 10
81.7657483509
 20
174.448304342
 11
86.8407483509
 21
174.448304342
  0
LINE
  5
245
100
AcDbEntity
  8
0
100
AcDbLine
 62
7
  6
CONTINUOUS
 10
86.8407483509
 20
174.448304342
 11
70.622861508
 21
174.448304342
  0
INSERT
  5
246
100
AcDbEntity
  8
0
100
AcDbBlockReference
 62
7
  6
CONTINUOUS
  2
_FILLED
 10
91.9157483509
 20
174.448304342
 41
3.0
 42
3.0
 43
3.0
  0
INSERT
  5
247
100
AcDbEntity
  8
0
100
AcDbBlockReference
 62
7
  6
CONTINUOUS
  2
_FILLED
 10
81.7657483509
 20
174.448304342
 41
3.0
 42
3.0
 43
3.0
 50
180.0
  0
ENDBLK
  5
248
100
AcDbEntity
  8
0
  6
BYBLOCK
 62
0
100
AcDbBlockEnd
  0
ENDSEC
  0
SECTION
  2
ENTITIES
  0
DIMENSION
  5
249
100
AcDbEntity
  8
0
100
AcDbDimension
 62
7
  6
CONTINUOUS
  2
*D0
 10
140.5944695724
 20
163.0644074567
 11
183.2373267152
 21
163.0644074567
 70
160
 71
2
 72
2
 41
0.9
 42
90.0
  3
DIMSTYLE_1
100
AcDbAlignedDimension
 13
230.5944695724
 23
149.9885770531
 14
140.5944695724
 24
149.9885770531
 50
180.0
100
AcDbRotatedDimension
  0
DIMENSION
  5
24A
100
AcDbEntity
  8
0
100
AcDbDimension
 62
7
  6
CONTINUOUS
  2
*D1
 10
243.7943688219
 20
60.9891858553
 11
243.7943688219
 21
103.6320429981
 70
160
 71
2
 72
2
 41
0.9
 42
90.0
  3
DIMSTYLE_1
100
AcDbAlignedDimension
 13
229.5938607703
 23
150.9891858553
 14
229.5938607703
 24
60.9891858553
 50
270.0
100
AcDbRotatedDimension
  0
DIMENSION
  5
24B
100
AcDbEntity
  8
0
100
AcDbDimension
 62
7
  6
CONTINUOUS
  2
*D2
 10
81.7657483509
 20
163.2795489592
 11
72.3219101635
 21
163.2795489592
 70
160
 71
3
 72
2
 41
0.9
 42
7.15
  3
DIMSTYLE_1
100
AcDbAlignedDimension
 13
88.9157483509
 23
147.1930833748
 14
81.7657483509
 24
149.3659232655
 50
180.0
100
AcDbRotatedDimension
  0
DIMENSION
  5
24C
100
AcDbEntity
  8
0
100
AcDbDimension
 62
7
  6
CONTINUOUS
  2
*D3
 10
81.7657483509
 20
174.448304342
 11
70.622861508
 21
174.448304342
 70
160
 71
3
 72
2
 41
0.9
 42
10.15
  3
DIMSTYLE_1
100
AcDbAlignedDimension
 13
91.9157483509
 23
131.9101485826
 14
81.7657483509
 24
149.3659232655
 50
180.0
100
AcDbRotatedDimension
  0
LINE
  5
24D
100
AcDbEntity
  8
0
100
AcDbLine
 62
7
  6
CONTINUOUS
 10
141.7744841025
 20
150.7798851776
 11
141.788909918
 21
150.7953543118
  0
LINE
  5
24E
100
AcDbEntity
  8
0
100
AcDbLine
 62
7
  6
CONTINUOUS
 10
140.5944695724
 20
149.9885770531
 11
141.5950783745
 21
150.9891858553
  0
LINE
  5
24F
100
AcDbEntity
  8
0
100
AcDbLine
 62
7
  6
CONTINUOUS
 10
141.7744841025
 20
150.7798851776
 11
140.80377025
 21
149.8091713252
  0
LINE
  5
250
100
AcDbEntity
  8
0
100
AcDbLine
 62
7
  6
CONTINUOUS
 10
142.2177321622
 20
149.7604548151
 11
141.8232006125
 21
149.3659232655
  0
LINE
  5
251
100
AcDbEntity
  8
0
100
AcDbLine
 62
7
  6
CONTINUOUS
 10
140.7883011158
 20
149.7947455097
 11
140.80377025
 21
149.8091713252
  0
LINE
  5
252
100
AcDbEntity
  8
0
100
AcDbLine
 62
7
  6
CONTINUOUS
 10
140.80377025
 20
62.1692003853
 11
140.7883011158
 21
62.1836262008
  0
LINE
  5
253
100
AcDbEntity
  8
0
100
AcDbLine
 62
7
  6
CONTINUOUS
 10
141.5950783745
 20
60.9891858553
 11
140.5944695724
 21
61.9897946574
  0
LINE
  5
254
100
AcDbEntity
  8
0
100
AcDbLine
 62
7
  6
CONTINUOUS
 10
140.80377025
 20
62.1692003853
 11
141.7744841025
 21
61.1984865329
  0
LINE
  5
255
100
AcDbEntity
  8
0
100
AcDbLine
 62
7
  6
CONTINUOUS
 10
141.8232006125
 20
62.6124484451
 11
142.2177321622
 21
62.2179168954
  0
LINE
  5
256
100
AcDbEntity
  8
0
100
AcDbLine
 62
7
  6
CONTINUOUS
 10
141.788909918
 20
61.1830173987
 11
141.7744841025
 21
61.1984865329
  0
LINE
  5
257
100
AcDbEntity
  8
0
100
AcDbLine
 62
7
  6
CONTINUOUS
 10
140.5944695724
 20
149.9885770531
 11
140.5944695724
 21
61.9897946574
  0
LINE
  5
258
100
AcDbEntity
  8
0
100
AcDbLine
 62
7
  6
CONTINUOUS
 10
140.7883011158
 20
149.7947455097
 11
140.7883011158
 21
62.1836262008
  0
LINE
  5
259
100
AcDbEntity
  8
0
100
AcDbLine
 62
7
  6
CONTINUOUS
 10
141.8232006125
 20
149.3659232655
 11
141.8232006125
 21
62.6124484451
  0
LWPOLYLINE
  5
25A
100
AcDbEntity
  8
0
100
AcDbPolyline
 62
7
  6
CONTINUOUS
 90
10
 70
0
 43
0.3500000006
 10
183.6658948975
 20
163.8144111328
 10
184.5230328369
 20
164.6715490723
 10
184.7373354492
 20
165.5286870117
 10
184.7373354492
 20
166.3858430786
 10
184.3087483521
 20
166.8144120483
 10
183.6658948975
 20
166.8144120483
 10
183.2373259277
 20
166.3858430786
 10
183.2373259277
 20
165.5286870117
 10
183.6658948975
 20
165.100118042
 10
184.5944730835
 20
165.100118042
  0
LINE
  5
25B
100
AcDbEntity
  8
0
100
AcDbLine
 62
7
  6
CONTINUOUS
 10
141.5950783745
 20
60.9891858553
 11
229.5938607703
 21
60.9891858553
  0
LINE
  5
25C
100
AcDbEntity
  8
0
100
AcDbLine
 62
7
  6
CONTINUOUS
 10
141.788909918
 20
61.1830173987
 11
229.4000292268
 21
61.1830173987
  0
LINE
  5
25D
100
AcDbEntity
  8
0
100
AcDbLine
 62
7
  6
CONTINUOUS
 10
142.2177321622
 20
62.2179168954
 11
228.9712069826
 21
62.2179168954
  0
LINE
  5
25E
100
AcDbEntity
  8
0
100
AcDbLine
 62
7
  6
CONTINUOUS
 10
142.2177321622
 20
62.2179168954
 11
141.7744841025
 21
61.1984865329
  0
LINE
  5
25F
100
AcDbEntity
  8
0
100
AcDbLine
 62
7
  6
CONTINUOUS
 10
229.3657385322
 20
149.3659232655
 11
230.3851688947
 21
149.8091713252
  0
LINE
  5
260
100
AcDbEntity
  8
0
100
AcDbLine
 62
7
  6
CONTINUOUS
 10
229.3657385322
 20
62.6124484451
 11
230.3851688947
 21
62.1692003853
  0
LINE
  5
261
100
AcDbEntity
  8
0
100
AcDbLine
 62
7
  6
CONTINUOUS
 10
142.2177321622
 20
149.7604548151
 11
141.7744841025
 21
150.7798851776
  0
LINE
  5
262
100
AcDbEntity
  8
0
100
AcDbLine
 62
7
  6
CONTINUOUS
 10
165.9444695724
 20
89.0391858553
 11
165.9444695724
 21
102.4391858553
  0
LINE
  5
263
100
AcDbEntity
  8
0
100
AcDbLine
 62
7
  6
CONTINUOUS
 10
165.9444695724
 20
109.5391858553
 11
165.9444695724
 21
122.9391858553
  0
LINE
  5
264
100
AcDbEntity
  8
0
100
AcDbLine
 62
7
  6
CONTINUOUS
 10
166.4444695724
 20
89.0391858553
 11
166.4444695724
 21
102.4391858553
  0
LINE
  5
265
100
AcDbEntity
  8
0
100
AcDbLine
 62
7
  6
CONTINUOUS
 10
166.4444695724
 20
109.5391858553
 11
166.4444695724
 21
122.9391858553
  0
LINE
  5
266
100
AcDbEntity
  8
0
100
AcDbLine
 62
250
  6
CONTINUOUS
 10
167.6444695724
 20
124.6391858553
 11
167.6444695724
 21
124.1391858553
  0
LINE
  5
267
100
AcDbEntity
  8
0
100
AcDbLine
 62
250
  6
CONTINUOUS
 10
167.6444695724
 20
104.1391858553
 11
167.6444695724
 21
103.6391858553
  0
LINE
  5
268
100
AcDbEntity
  8
0
100
AcDbLine
 62
250
  6
CONTINUOUS
 10
167.6444695724
 20
87.3391858553
 11
167.6444695724
 21
87.8391858553
  0
LINE
  5
269
100
AcDbEntity
  8
0
100
AcDbLine
 62
250
  6
CONTINUOUS
 10
167.6444695724
 20
107.8391858553
 11
167.6444695724
 21
108.3391858553
  0
LINE
  5
26A
100
AcDbEntity
  8
0
100
AcDbLine
 62
7
  6
CONTINUOUS
 10
203.5444695724
 20
87.3391858553
 11
190.1444695724
 21
87.3391858553
  0
LINE
  5
26B
100
AcDbEntity
  8
0
100
AcDbLine
 62
7
  6
CONTINUOUS
 10
181.0444695724
 20
87.3391858553
 11
167.6444695724
 21
87.3391858553
  0
LINE
  5
26C
100
AcDbEntity
  8
0
100
AcDbLine
 62
7
  6
CONTINUOUS
 10
203.5444695724
 20
87.8391858553
 11
190.1444695724
 21
87.8391858553
  0
LINE
  5
26D
100
AcDbEntity
  8
0
100
AcDbLine
 62
7
  6
CONTINUOUS
 10
181.0444695724
 20
87.8391858553
 11
167.6444695724
 21
87.8391858553
  0
LINE
  5
26E
100
AcDbEntity
  8
0
100
AcDbLine
 62
250
  6
CONTINUOUS
 10
205.2444695724
 20
89.0391858553
 11
204.7444695724
 21
89.0391858553
  0
LINE
  5
26F
100
AcDbEntity
  8
0
100
AcDbLine
 62
250
  6
CONTINUOUS
 10
182.7444695724
 20
89.0391858553
 11
182.2444695724
 21
89.0391858553
  0
LINE
  5
270
100
AcDbEntity
  8
0
100
AcDbLine
 62
250
  6
CONTINUOUS
 10
165.9444695724
 20
89.0391858553
 11
166.4444695724
 21
89.0391858553
  0
LINE
  5
271
100
AcDbEntity
  8
0
100
AcDbLine
 62
250
  6
CONTINUOUS
 10
188.4444695724
 20
89.0391858553
 11
188.9444695724
 21
89.0391858553
  0
LINE
  5
272
100
AcDbEntity
  8
0
100
AcDbLine
 62
250
  6
CONTINUOUS
 10
181.0444695724
 20
124.6391858553
 11
181.0444695724
 21
124.1391858553
  0
LINE
  5
273
100
AcDbEntity
  8
0
100
AcDbLine
 62
250
  6
CONTINUOUS
 10
181.0444695724
 20
104.1391858553
 11
181.0444695724
 21
103.6391858553
  0
LINE
  5
274
100
AcDbEntity
  8
0
100
AcDbLine
 62
250
  6
CONTINUOUS
 10
181.0444695724
 20
87.3391858553
 11
181.0444695724
 21
87.8391858553
  0
LINE
  5
275
100
AcDbEntity
  8
0
100
AcDbLine
 62
250
  6
CONTINUOUS
 10
181.0444695724
 20
107.8391858553
 11
181.0444695724
 21
108.3391858553
  0
LINE
  5
276
100
AcDbEntity
  8
0
100
AcDbLine
 62
7
  6
CONTINUOUS
 10
182.2444695724
 20
122.9391858553
 11
182.2444695724
 21
109.5391858553
  0
LINE
  5
277
100
AcDbEntity
  8
0
100
AcDbLine
 62
7
  6
CONTINUOUS
 10
182.2444695724
 20
102.4391858553
 11
182.2444695724
 21
89.0391858553
  0
LINE
  5
278
100
AcDbEntity
  8
0
100
AcDbLine
 62
7
  6
CONTINUOUS
 10
182.7444695724
 20
122.9391858553
 11
182.7444695724
 21
109.5391858553
  0
LINE
  5
279
100
AcDbEntity
  8
0
100
AcDbLine
 62
7
  6
CONTINUOUS
 10
182.7444695724
 20
102.4391858553
 11
182.7444695724
 21
89.0391858553
  0
LWPOLYLINE
  5
27A
100
AcDbEntity
  8
0
100
AcDbPolyline
 62
7
  6
CONTINUOUS
 90
13
 70
0
 43
0.3500000006
 10
185.5944733887
 20
164.6715490723
 10
185.5944733887
 20
165.9572559814
 10
185.8087578735
 20
166.3858430786
 10
186.2373268433
 20
166.8144120483
 10
186.4516113281
 20
166.8144120483
 10
186.8801802979
 20
166.3858430786
 10
187.0944647827
 20
165.9572559814
 10
187.0944647827
 20
164.6715490723
 10
186.8801802979
 20
164.2429801025
 10
186.4516113281
 20
163.8144111328
 10
186.2373268433
 20
163.8144111328
 10
185.8087578735
 20
164.2429801025
 10
185.5944733887
 20
164.6715490723
  0
LINE
  5
27B
100
AcDbEntity
  8
0
100
AcDbLine
 62
7
  6
CONTINUOUS
 10
140.7883011158
 20
62.1836262008
 11
140.5944695724
 21
61.9897946574
  0
LINE
  5
27C
100
AcDbEntity
  8
0
100
AcDbLine
 62
7
  6
CONTINUOUS
 10
229.4000292268
 20
150.7953543118
 11
229.5938607703
 21
150.9891858553
  0
LINE
  5
27D
100
AcDbEntity
  8
0
100
AcDbLine
 62
250
  6
CONTINUOUS
 10
205.2444695724
 20
102.4391858553
 11
204.7444695724
 21
102.4391858553
  0
LINE
  5
27E
100
AcDbEntity
  8
0
100
AcDbLine
 62
250
  6
CONTINUOUS
 10
182.7444695724
 20
102.4391858553
 11
182.2444695724
 21
102.4391858553
  0
LINE
  5
27F
100
AcDbEntity
  8
0
100
AcDbLine
 62
250
  6
CONTINUOUS
 10
165.9444695724
 20
102.4391858553
 11
166.4444695724
 21
102.4391858553
  0
LINE
  5
280
100
AcDbEntity
  8
0
100
AcDbLine
 62
250
  6
CONTINUOUS
 10
188.4444695724
 20
102.4391858553
 11
188.9444695724
 21
102.4391858553
  0
LINE
  5
281
100
AcDbEntity
  8
0
100
AcDbLine
 62
7
  6
CONTINUOUS
 10
167.6444695724
 20
103.6391858553
 11
181.0444695724
 21
103.6391858553
  0
LINE
  5
282
100
AcDbEntity
  8
0
100
AcDbLine
 62
7
  6
CONTINUOUS
 10
190.1444695724
 20
103.6391858553
 11
203.5444695724
 21
103.6391858553
  0
LINE
  5
283
100
AcDbEntity
  8
0
100
AcDbLine
 62
7
  6
CONTINUOUS
 10
167.6444695724
 20
104.1391858553
 11
181.0444695724
 21
104.1391858553
  0
LINE
  5
284
100
AcDbEntity
  8
0
100
AcDbLine
 62
7
  6
CONTINUOUS
 10
190.1444695724
 20
104.1391858553
 11
203.5444695724
 21
104.1391858553
  0
LWPOLYLINE
  5
285
100
AcDbEntity
  8
0
100
AcDbPolyline
 62
7
  6
CONTINUOUS
 90
13
 70
0
 43
0.3500000006
 10
242.1872215576
 20
105.9891872864
 10
240.9015146484
 20
105.9891872864
 10
240.4729456787
 20
106.2034717712
 10
240.044376709
 20
106.632040741
 10
240.044376709
 20
106.8463252258
 10
240.4729456787
 20
107.2749032593
 10
240.9015146484
 20
107.4891877441
 10
242.1872215576
 20
107.4891877441
 10
242.6157905273
 20
107.2749032593
 10
243.0443776245
 20
106.8463252258
 10
243.0443776245
 20
106.632040741
 10
242.6157905273
 20
106.2034717712
 10
242.1872215576
 20
105.9891872864
  0
LINE
  5
286
100
AcDbEntity
  8
0
100
AcDbLine
 62
7
  6
CONTINUOUS
 10
140.7883011158
 20
149.7947455097
 11
140.5944695724
 21
149.9885770531
  0
LINE
  5
287
100
AcDbEntity
  8
0
100
AcDbLine
 62
7
  6
CONTINUOUS
 10
229.4000292268
 20
61.1830173987
 11
229.5938607703
 21
60.9891858553
  0
LINE
  5
288
100
AcDbEntity
  8
0
100
AcDbLine
 62
7
  6
CONTINUOUS
 10
188.4444695724
 20
89.0391858553
 11
188.4444695724
 21
102.4391858553
  0
LINE
  5
289
100
AcDbEntity
  8
0
100
AcDbLine
 62
7
  6
CONTINUOUS
 10
188.4444695724
 20
109.5391858553
 11
188.4444695724
 21
122.9391858553
  0
LINE
  5
28A
100
AcDbEntity
  8
0
100
AcDbLine
 62
7
  6
CONTINUOUS
 10
188.9444695724
 20
89.0391858553
 11
188.9444695724
 21
102.4391858553
  0
LINE
  5
28B
100
AcDbEntity
  8
0
100
AcDbLine
 62
7
  6
CONTINUOUS
 10
188.9444695724
 20
109.5391858553
 11
188.9444695724
 21
122.9391858553
  0
LINE
  5
28C
100
AcDbEntity
  8
0
100
AcDbLine
 62
250
  6
CONTINUOUS
 10
190.1444695724
 20
124.6391858553
 11
190.1444695724
 21
124.1391858553
  0
LINE
  5
28D
100
AcDbEntity
  8
0
100
AcDbLine
 62
250
  6
CONTINUOUS
 10
190.1444695724
 20
104.1391858553
 11
190.1444695724
 21
103.6391858553
  0
LINE
  5
28E
100
AcDbEntity
  8
0
100
AcDbLine
 62
250
  6
CONTINUOUS
 10
190.1444695724
 20
87.3391858553
 11
190.1444695724
 21
87.8391858553
  0
LINE
  5
28F
100
AcDbEntity
  8
0
100
AcDbLine
 62
250
  6
CONTINUOUS
 10
190.1444695724
 20
107.8391858553
 11
190.1444695724
 21
108.3391858553
  0
LINE
  5
290
100
AcDbEntity
  8
0
100
AcDbLine
 62
7
  6
CONTINUOUS
 10
141.788909918
 20
61.1830173987
 11
141.5950783745
 21
60.9891858553
  0
LINE
  5
291
100
AcDbEntity
  8
0
100
AcDbLine
 62
7
  6
CONTINUOUS
 10
230.4006380289
 20
149.7947455097
 11
230.5944695724
 21
149.9885770531
  0
LINE
  5
292
100
AcDbEntity
  8
0
100
AcDbLine
 62
7
  6
CONTINUOUS
 10
203.5444695724
 20
107.8391858553
 11
190.1444695724
 21
107.8391858553
  0
LINE
  5
293
100
AcDbEntity
  8
0
100
AcDbLine
 62
7
  6
CONTINUOUS
 10
181.0444695724
 20
107.8391858553
 11
167.6444695724
 21
107.8391858553
  0
LINE
  5
294
100
AcDbEntity
  8
0
100
AcDbLine
 62
7
  6
CONTINUOUS
 10
203.5444695724
 20
108.3391858553
 11
190.1444695724
 21
108.3391858553
  0
LINE
  5
295
100
AcDbEntity
  8
0
100
AcDbLine
 62
7
  6
CONTINUOUS
 10
181.0444695724
 20
108.3391858553
 11
167.6444695724
 21
108.3391858553
  0
LINE
  5
296
100
AcDbEntity
  8
0
100
AcDbLine
 62
250
  6
CONTINUOUS
 10
205.2444695724
 20
109.5391858553
 11
204.7444695724
 21
109.5391858553
  0
LINE
  5
297
100
AcDbEntity
  8
0
100
AcDbLine
 62
250
  6
CONTINUOUS
 10
182.7444695724
 20
109.5391858553
 11
182.2444695724
 21
109.5391858553
  0
LINE
  5
298
100
AcDbEntity
  8
0
100
AcDbLine
 62
250
  6
CONTINUOUS
 10
165.9444695724
 20
109.5391858553
 11
166.4444695724
 21
109.5391858553
  0
LINE
  5
299
100
AcDbEntity
  8
0
100
AcDbLine
 62
250
  6
CONTINUOUS
 10
188.4444695724
 20
109.5391858553
 11
188.9444695724
 21
109.5391858553
  0
LINE
  5
29A
100
AcDbEntity
  8
0
100
AcDbLine
 62
7
  6
CONTINUOUS
 10
141.788909918
 20
150.7953543118
 11
141.5950783745
 21
150.9891858553
  0
LINE
  5
29B
100
AcDbEntity
  8
0
100
AcDbLine
 62
7
  6
CONTINUOUS
 10
230.4006380289
 20
62.1836262008
 11
230.5944695724
 21
61.9897946574
  0
LINE
  5
29C
100
AcDbEntity
  8
0
100
AcDbLine
 62
250
  6
CONTINUOUS
 10
205.2444695724
 20
122.9391858553
 11
204.7444695724
 21
122.9391858553
  0
LINE
  5
29D
100
AcDbEntity
  8
0
100
AcDbLine
 62
250
  6
CONTINUOUS
 10
182.7444695724
 20
122.9391858553
 11
182.2444695724
 21
122.9391858553
  0
LINE
  5
29E
100
AcDbEntity
  8
0
100
AcDbLine
 62
250
  6
CONTINUOUS
 10
165.9444695724
 20
122.9391858553
 11
166.4444695724
 21
122.9391858553
  0
LINE
  5
29F
100
AcDbEntity
  8
0
100
AcDbLine
 62
250
  6
CONTINUOUS
 10
188.4444695724
 20
122.9391858553
 11
188.9444695724
 21
122.9391858553
  0
LINE
  5
2A0
100
AcDbEntity
  8
0
100
AcDbLine
 62
250
  6
CONTINUOUS
 10
203.5444695724
 20
124.6391858553
 11
203.5444695724
 21
124.1391858553
  0
LINE
  5
2A1
100
AcDbEntity
  8
0
100
AcDbLine
 62
250
  6
CONTINUOUS
 10
203.5444695724
 20
104.1391858553
 11
203.5444695724
 21
103.6391858553
  0
LINE
  5
2A2
100
AcDbEntity
  8
0
100
AcDbLine
 62
250
  6
CONTINUOUS
 10
203.5444695724
 20
87.3391858553
 11
203.5444695724
 21
87.8391858553
  0
LINE
  5
2A3
100
AcDbEntity
  8
0
100
AcDbLine
 62
250
  6
CONTINUOUS
 10
203.5444695724
 20
107.8391858553
 11
203.5444695724
 21
108.3391858553
  0
LINE
  5
2A4
100
AcDbEntity
  8
0
100
AcDbLine
 62
7
  6
CONTINUOUS
 10
204.7444695724
 20
122.9391858553
 11
204.7444695724
 21
109.5391858553
  0
LINE
  5
2A5
100
AcDbEntity
  8
0
100
AcDbLine
 62
7
  6
CONTINUOUS
 10
204.7444695724
 20
102.4391858553
 11
204.7444695724
 21
89.0391858553
  0
LINE
  5
2A6
100
AcDbEntity
  8
0
100
AcDbLine
 62
7
  6
CONTINUOUS
 10
205.2444695724
 20
122.9391858553
 11
205.2444695724
 21
109.5391858553
  0
LINE
  5
2A7
100
AcDbEntity
  8
0
100
AcDbLine
 62
7
  6
CONTINUOUS
 10
205.2444695724
 20
102.4391858553
 11
205.2444695724
 21
89.0391858553
  0
LINE
  5
2A8
100
AcDbEntity
  8
0
100
AcDbLine
 62
7
  6
CONTINUOUS
 10
167.6444695724
 20
124.1391858553
 11
181.0444695724
 21
124.1391858553
  0
LINE
  5
2A9
100
AcDbEntity
  8
0
100
AcDbLine
 62
7
  6
CONTINUOUS
 10
190.1444695724
 20
124.1391858553
 11
203.5444695724
 21
124.1391858553
  0
LINE
  5
2AA
100
AcDbEntity
  8
0
100
AcDbLine
 62
7
  6
CONTINUOUS
 10
167.6444695724
 20
124.6391858553
 11
181.0444695724
 21
124.6391858553
  0
LINE
  5
2AB
100
AcDbEntity
  8
0
100
AcDbLine
 62
7
  6
CONTINUOUS
 10
190.1444695724
 20
124.6391858553
 11
203.5444695724
 21
124.6391858553
  0
LINE
  5
2AC
100
AcDbEntity
  8
0
100
AcDbLine
 62
7
  6
CONTINUOUS
 10
228.9712069826
 20
149.7604548151
 11
229.4144550423
 21
150.7798851776
  0
LINE
  5
2AD
100
AcDbEntity
  8
0
100
AcDbLine
 62
7
  6
CONTINUOUS
 10
141.8232006125
 20
62.6124484451
 11
140.80377025
 21
62.1692003853
  0
LINE
  5
2AE
100
AcDbEntity
  8
0
100
AcDbLine
 62
7
  6
CONTINUOUS
 10
141.8232006125
 20
149.3659232655
 11
140.80377025
 21
149.8091713252
  0
LINE
  5
2AF
100
AcDbEntity
  8
0
100
AcDbLine
 62
7
  6
CONTINUOUS
 10
228.9712069826
 20
62.2179168954
 11
229.4144550423
 21
61.1984865329
  0
LWPOLYLINE
  5
2B0
100
AcDbEntity
  8
0
100
AcDbPolyline
 62
7
  6
CONTINUOUS
 90
10
 70
0
 43
0.3500000006
 10
243.0443776245
 20
104.0606178589
 10
242.1872215576
 20
104.9177557983
 10
241.3300836182
 20
105.1320402832
 10
240.4729456787
 20
105.1320402832
 10
240.044376709
 20
104.7034713135
 10
240.044376709
 20
104.0606178589
 10
240.4729456787
 20
103.6320398254
 10
241.3300836182
 20
103.6320398254
 10
241.7586525879
 20
104.0606178589
 10
241.7586525879
 20
104.9891869812
  0
LINE
  5
2B1
100
AcDbEntity
  8
0
100
AcDbLine
 62
7
  6
CONTINUOUS
 10
229.3657385322
 20
62.6124484451
 11
229.3657385322
 21
149.3659232655
  0
LINE
  5
2B2
100
AcDbEntity
  8
0
100
AcDbLine
 62
7
  6
CONTINUOUS
 10
230.4006380289
 20
62.1836262008
 11
230.4006380289
 21
149.7947455097
  0
LINE
  5
2B3
100
AcDbEntity
  8
0
100
AcDbLine
 62
7
  6
CONTINUOUS
 10
230.5944695724
 20
61.9897946574
 11
230.5944695724
 21
149.9885770531
  0
LINE
  5
2B4
100
AcDbEntity
  8
0
100
AcDbLine
 62
7
  6
CONTINUOUS
 10
228.9712069826
 20
149.7604548151
 11
142.2177321622
 21
149.7604548151
  0
LINE
  5
2B5
100
AcDbEntity
  8
0
100
AcDbLine
 62
7
  6
CONTINUOUS
 10
229.4000292268
 20
150.7953543118
 11
141.788909918
 21
150.7953543118
  0
LINE
  5
2B6
100
AcDbEntity
  8
0
100
AcDbLine
 62
7
  6
CONTINUOUS
 10
229.5938607703
 20
150.9891858553
 11
141.5950783745
 21
150.9891858553
  0
LINE
  5
2B7
100
AcDbEntity
  8
0
100
AcDbLine
 62
7
  6
CONTINUOUS
 10
229.4144550423
 20
61.1984865329
 11
229.4000292268
 21
61.1830173987
  0
LINE
  5
2B8
100
AcDbEntity
  8
0
100
AcDbLine
 62
7
  6
CONTINUOUS
 10
228.9712069826
 20
62.2179168954
 11
229.3657385322
 21
62.6124484451
  0
LINE
  5
2B9
100
AcDbEntity
  8
0
100
AcDbLine
 62
7
  6
CONTINUOUS
 10
229.4144550423
 20
61.1984865329
 11
230.3851688947
 21
62.1692003853
  0
LINE
  5
2BA
100
AcDbEntity
  8
0
100
AcDbLine
 62
7
  6
CONTINUOUS
 10
230.5944695724
 20
61.9897946574
 11
229.5938607703
 21
60.9891858553
  0
LINE
  5
2BB
100
AcDbEntity
  8
0
100
AcDbLine
 62
7
  6
CONTINUOUS
 10
230.4006380289
 20
62.1836262008
 11
230.3851688947
 21
62.1692003853
  0
LINE
  5
2BC
100
AcDbEntity
  8
0
100
AcDbLine
 62
7
  6
CONTINUOUS
 10
230.3851688947
 20
149.8091713252
 11
230.4006380289
 21
149.7947455097
  0
LINE
  5
2BD
100
AcDbEntity
  8
0
100
AcDbLine
 62
7
  6
CONTINUOUS
 10
229.3657385322
 20
149.3659232655
 11
228.9712069826
 21
149.7604548151
  0
LINE
  5
2BE
100
AcDbEntity
  8
0
100
AcDbLine
 62
7
  6
CONTINUOUS
 10
230.3851688947
 20
149.8091713252
 11
229.4144550423
 21
150.7798851776
  0
LINE
  5
2BF
100
AcDbEntity
  8
0
100
AcDbLine
 62
7
  6
CONTINUOUS
 10
229.5938607703
 20
150.9891858553
 11
230.5944695724
 21
149.9885770531
  0
LINE
  5
2C0
100
AcDbEntity
  8
0
100
AcDbLine
 62
7
  6
CONTINUOUS
 10
229.4000292268
 20
150.7953543118
 11
229.4144550423
 21
150.7798851776
  0
LWPOLYLINE
  5
2C1
100
AcDbEntity
  8
0
100
AcDbPolyline
 62
7
  6
CONTINUOUS
 90
3
 70
0
 43
0.3500000006
 10
70.6228621216
 20
177.3411622925
 10
71.4800045929
 20
178.1983002319
 10
71.4800045929
 20
175.1982993164
  0
LWPOLYLINE
  5
2C2
100
AcDbEntity
  8
0
100
AcDbPolyline
 62
7
  6
CONTINUOUS
 90
3
 70
0
 43
0.3500000006
 10
76.4085794678
 20
177.3411622925
 10
77.2657174072
 20
178.1983002319
 10
77.2657174072
 20
175.1982993164
  0
LWPOLYLINE
  5
2C3
100
AcDbEntity
  8
0
100
AcDbPolyline
 62
7
  6
CONTINUOUS
 90
3
 70
0
 43
0.3500000006
 10
76.3933342896
 20
166.1724105835
 10
77.2504812927
 20
167.0295485229
 10
77.2504812927
 20
164.0295476074
  0
LINE
  5
2C4
100
AcDbEntity
  8
0
100
AcDbLine
 62
7
  6
CONTINUOUS
 10
82.7651391779
 20
61.1830173987
 11
88.3157483509
 21
60.9891858553
  0
LINE
  5
2C5
100
AcDbEntity
  8
0
100
AcDbLine
 62
7
  6
CONTINUOUS
 10
82.7651391779
 20
62.1836262008
 11
88.3157483509
 21
61.9897946574
  0
LINE
  5
2C6
100
AcDbEntity
  8
0
100
AcDbLine
 62
7
  6
CONTINUOUS
 10
88.3157483509
 20
63.2311419424
 11
88.9157483509
 21
63.1891858553
  0
LINE
  5
2C7
100
AcDbEntity
  8
0
100
AcDbLine
 62
7
  6
CONTINUOUS
 10
81.7657483509
 20
149.3659232655
 11
82.7502008087
 21
149.8091713252
  0
LINE
  5
2C8
100
AcDbEntity
  8
0
100
AcDbLine
 62
250
  6
CONTINUOUS
 10
88.3157483509
 20
64.8272444228
 11
88.9157483509
 21
64.7852883357
  0
LINE
  5
2C9
100
AcDbEntity
  8
0
100
AcDbLine
 62
7
  6
CONTINUOUS
 10
81.7657483509
 20
62.6124484451
 11
82.7502008087
 21
62.1692003853
  0
LWPOLYLINE
  5
2CA
100
AcDbEntity
  8
0
100
AcDbPolyline
 62
7
  6
CONTINUOUS
 90
3
 70
0
 43
0.3500000006
 10
75.4085746307
 20
175.4840240479
 10
75.3371479797
 20
175.269739563
 10
75.1942901459
 20
174.9840148315
  0
LINE
  5
2CB
100
AcDbEntity
  8
0
100
AcDbLine
 62
7
  6
CONTINUOUS
 10
81.7657483509
 20
149.7604548151
 11
82.7651391779
 21
150.7953543118
  0
LINE
  5
2CC
100
AcDbEntity
  8
0
100
AcDbLine
 62
7
  6
CONTINUOUS
 10
81.7657483509
 20
62.2179168954
 11
82.7651391779
 21
61.1830173987
  0
LWPOLYLINE
  5
2CD
100
AcDbEntity
  8
0
100
AcDbPolyline
 62
7
  6
CONTINUOUS
 90
3
 70
0
 43
0.3500000006
 10
75.3933385162
 20
164.3152542114
 10
75.3219118652
 20
164.1009697266
 10
75.1790540314
 20
163.8152631226
  0
LWPOLYLINE
  5
2CE
100
AcDbEntity
  8
0
100
AcDbPolyline
 62
250
  6
CONTINUOUS
 90
5
 70
0
 10
90.8749761842
 20
79.4417435192
 10
90.855384966
 20
79.4403013846
 10
90.83516963
 20
79.4392602239
 10
90.8142201894
 20
79.4385816308
 10
90.7925366441
 20
79.4382654871
  0
LINE
  5
2CF
100
AcDbEntity
  8
0
100
AcDbLine
 62
7
  6
CONTINUOUS
 10
89.8415855019
 20
78.8390564165
 11
88.9157483509
 21
78.8374405242
  0
LINE
  5
2D0
100
AcDbEntity
  8
0
100
AcDbLine
 62
250
  6
CONTINUOUS
 10
89.8415209346
 20
79.0615066114
 11
88.9157483509
 21
79.0610884168
  0
LWPOLYLINE
  5
2D1
100
AcDbEntity
  8
0
100
AcDbPolyline
 62
7
  6
CONTINUOUS
 90
15
 70
0
 10
90.7926916053
 20
79.4182717912
 10
90.816504171
 20
79.4185278041
 10
90.8448815302
 20
79.4194487138
 10
90.8727518673
 20
79.4210026056
 10
90.8999600828
 20
79.423154342
 10
90.9265908775
 20
79.4259113018
 10
90.9525840486
 20
79.4292740244
 10
90.977639683
 20
79.4332266151
 10
91.0017829652
 20
79.4378000616
 10
91.0251316768
 20
79.4430691304
 10
91.0477496447
 20
79.4491598113
 10
91.070170466
 20
79.4563613164
 10
91.092232872
 20
79.4649295255
 10
91.1130936026
 20
79.4747739243
 10
91.1157744708
 20
79.4761811777
  0
LINE
  5
2D2
100
AcDbEntity
  8
0
100
AcDbLine
 62
7
  6
CONTINUOUS
 10
88.9157483509
 20
79.4168183801
 11
90.7926915389
 21
79.4182717868
  0
LINE
  5
2D3
100
AcDbEntity
  8
0
100
AcDbLine
 62
250
  6
CONTINUOUS
 10
90.7925366441
 20
79.4382654871
 11
88.9157483509
 21
79.4368022801
  0
LINE
  5
2D4
100
AcDbEntity
  8
0
100
AcDbLine
 62
7
  6
CONTINUOUS
 10
89.8658727298
 20
80.7891858553
 11
88.9157483509
 21
80.7891858553
  0
LINE
  5
2D5
100
AcDbEntity
  8
0
100
AcDbLine
 62
7
  6
CONTINUOUS
 10
88.9157483509
 20
80.9391858553
 11
89.0657483509
 21
80.9391858553
  0
LINE
  5
2D6
100
AcDbEntity
  8
0
100
AcDbLine
 62
7
  6
CONTINUOUS
 10
89.3657483509
 20
80.9391858553
 11
89.5657483509
 21
80.9391858553
  0
LINE
  5
2D7
100
AcDbEntity
  8
0
100
AcDbLine
 62
7
  6
CONTINUOUS
 10
88.9157483509
 20
80.2333659807
 11
91.7262155421
 21
80.1091991876
  0
LINE
  5
2D8
100
AcDbEntity
  8
0
100
AcDbLine
 62
7
  6
CONTINUOUS
 10
89.9653764488
 20
80.7842230455
 11
91.9157483509
 21
80.5891858553
  0
LWPOLYLINE
  5
2D9
100
AcDbEntity
  8
0
100
AcDbPolyline
 62
7
  6
CONTINUOUS
 90
16
 70
0
 10
91.7626590824
 20
80.1041937604
 10
91.7787622125
 20
80.1016513305
 10
91.7945393447
 20
80.0983831946
 10
91.8098668464
 20
80.0943893526
 10
91.8246051914
 20
80.0896498821
 10
91.838646411
 20
80.0841847055
 10
91.8519063328
 20
80.0780535899
 10
91.8642582162
 20
80.0712376535
 10
91.8755679277
 20
80.0637557782
 10
91.8857276403
 20
80.0557243764
 10
91.8946385767
 20
80.0470848044
 10
91.9021334484
 20
80.0378957058
 10
91.9080464498
 20
80.028449424
 10
91.9123054348
 20
80.0188434067
 10
91.9148838689
 20
80.0089802061
 10
91.9157483509
 20
79.9988598223
  0
LINE
  5
2DA
100
AcDbEntity
  8
0
100
AcDbLine
 62
7
  6
CONTINUOUS
 10
89.0657483509
 20
131.0391858553
 11
89.2157483509
 21
131.1891858553
  0
LINE
  5
2DB
100
AcDbEntity
  8
0
100
AcDbLine
 62
7
  6
CONTINUOUS
 10
89.5657483509
 20
131.0391858553
 11
89.7157483509
 21
131.1891858553
  0
LINE
  5
2DC
100
AcDbEntity
  8
0
100
AcDbLine
 62
7
  6
CONTINUOUS
 10
89.0657483509
 20
80.9391858553
 11
89.2157483509
 21
80.7891858553
  0
LINE
  5
2DD
100
AcDbEntity
  8
0
100
AcDbLine
 62
7
  6
CONTINUOUS
 10
89.5657483509
 20
80.9391858553
 11
89.7157483509
 21
80.7891858553
  0
LWPOLYLINE
  5
2DE
100
AcDbEntity
  8
0
100
AcDbPolyline
 62
7
  6
CONTINUOUS
 90
4
 70
0
 43
0.3500000006
 10
72.3219109497
 20
166.3866950684
 10
72.3219109497
 20
167.0295485229
 10
73.8219114075
 20
167.0295485229
 10
72.9647689362
 20
164.0295476074
  0
LWPOLYLINE
  5
2DF
100
AcDbEntity
  8
0
100
AcDbPolyline
 62
7
  6
CONTINUOUS
 90
13
 70
0
 43
0.3500000006
 10
72.3371470642
 20
176.0554553833
 10
72.3371470642
 20
177.3411622925
 10
72.5514315491
 20
177.7697312622
 10
72.9800050507
 20
178.1983002319
 10
73.1942895355
 20
178.1983002319
 10
73.6228630371
 20
177.7697312622
 10
73.837147522
 20
177.3411622925
 10
73.837147522
 20
176.0554553833
 10
73.6228630371
 20
175.6268682861
 10
73.1942895355
 20
175.1982993164
 10
72.9800050507
 20
175.1982993164
 10
72.5514315491
 20
175.6268682861
 10
72.3371470642
 20
176.0554553833
  0
LWPOLYLINE
  5
2E0
100
AcDbEntity
  8
0
100
AcDbPolyline
 62
250
  6
CONTINUOUS
 90
9
 70
0
 10
89.9356810506
 20
78.9145858304
 10
89.9429417416
 20
78.9053906244
 10
89.94998765
 20
78.8969918782
 10
89.9567345859
 20
78.8895615777
 10
89.9630572334
 20
78.8833140567
 10
89.9688318846
 20
78.8784520723
 10
89.9739372195
 20
78.8751755341
 10
89.9782533996
 20
78.873683013
 10
89.9816545846
 20
78.8741700592
  0
LWPOLYLINE
  5
2E1
100
AcDbEntity
  8
0
100
AcDbPolyline
 62
250
  6
CONTINUOUS
 90
19
 70
0
 10
89.8415209346
 20
132.9168650992
 10
89.8494787927
 20
132.9306801715
 10
89.8577896259
 20
132.9448780951
 10
89.8664199608
 20
132.9593657376
 10
89.8753371494
 20
132.9740551379
 10
89.8844811881
 20
132.988801808
 10
89.8937661732
 20
133.003411837
 10
89.9031193259
 20
133.0177256418
 10
89.9124701619
 20
133.0315975193
 10
89.921725382
 20
133.0448434039
 10
89.9308210815
 20
133.057320555
 10
89.9396213073
 20
133.0687867111
 10
89.9479322958
 20
133.0789419076
 10
89.9556784284
 20
133.0876460782
 10
89.9627408842
 20
133.09472095
 10
89.9689204498
 20
133.0999498686
 10
89.9741397061
 20
133.1032753766
 10
89.9783960566
 20
133.1046986226
 10
89.9816545846
 20
133.1042016513
  0
LWPOLYLINE
  5
2E2
100
AcDbEntity
  8
0
100
AcDbPolyline
 62
250
  6
CONTINUOUS
 90
14
 70
0
 10
89.8415209346
 20
79.0615066114
 10
89.8482940922
 20
79.0497132349
 10
89.8551740228
 20
79.0378978857
 10
89.8621437412
 20
79.0260994794
 10
89.8691470971
 20
79.0144189286
 10
89.876201918
 20
79.0028378354
 10
89.8833959279
 20
78.9912352069
 10
89.8907146014
 20
78.9796580425
 10
89.8981097147
 20
78.9682020644
 10
89.9056049397
 20
78.9568564221
 10
89.9131616017
 20
78.9457108762
 10
89.9207186753
 20
78.9348887452
 10
89.9282497704
 20
78.9244654206
 10
89.9356810506
 20
78.9145858304
  0
LINE
  5
2E3
100
AcDbEntity
  8
0
100
AcDbLine
 62
7
  6
CONTINUOUS
 10
81.7657483509
 20
62.2179168954
 11
81.7657483509
 21
149.7604548151
  0
LINE
  5
2E4
100
AcDbEntity
  8
0
100
AcDbLine
 62
7
  6
CONTINUOUS
 10
82.7502008087
 20
61.1984865329
 11
82.7502008087
 21
62.1692003853
  0
LINE
  5
2E5
100
AcDbEntity
  8
0
100
AcDbLine
 62
7
  6
CONTINUOUS
 10
82.7502008087
 20
149.8091713252
 11
82.7502008087
 21
150.7798851776
  0
LINE
  5
2E6
100
AcDbEntity
  8
0
100
AcDbLine
 62
7
  6
CONTINUOUS
 10
82.7651391779
 20
62.1836262008
 11
82.7651391779
 21
149.7947455097
  0
LWPOLYLINE
  5
2E7
100
AcDbEntity
  8
0
100
AcDbPolyline
 62
250
  6
CONTINUOUS
 90
3
 70
0
 10
90.7926915389
 20
79.4182717868
 10
90.7926591759
 20
79.4192503795
 10
90.7926192802
 20
79.4229319
  0
LINE
  5
2E8
100
AcDbEntity
  8
0
100
AcDbLine
 62
7
  6
CONTINUOUS
 10
88.3157483509
 20
60.9891858553
 11
88.3157483509
 21
150.9891858553
  0
LINE
  5
2E9
100
AcDbEntity
  8
0
100
AcDbLine
 62
7
  6
CONTINUOUS
 10
88.9157483509
 20
63.1891858553
 11
88.9157483509
 21
148.7891858553
  0
LINE
  5
2EA
100
AcDbEntity
  8
0
100
AcDbLine
 62
250
  6
CONTINUOUS
 10
89.8415857096
 20
78.8394081434
 11
89.8415209346
 21
79.0615066114
  0
LINE
  5
2EB
100
AcDbEntity
  8
0
100
AcDbLine
 62
250
  6
CONTINUOUS
 10
89.8415209346
 20
132.9168650992
 11
89.8415855569
 21
133.1389619004
  0
LWPOLYLINE
  5
2EC
100
AcDbEntity
  8
0
100
AcDbPolyline
 62
250
  6
CONTINUOUS
 90
3
 70
0
 10
90.8757397236
 20
132.5178071741
 10
90.8757813097
 20
132.5168243829
 10
90.8757844175
 20
132.5131376743
  0
LINE
  5
2ED
100
AcDbEntity
  8
0
100
AcDbLine
 62
250
  6
CONTINUOUS
 10
90.7926192802
 20
79.4229319
 11
90.7925366441
 21
79.4382654871
  0
LINE
  5
2EE
100
AcDbEntity
  8
0
100
AcDbLine
 62
250
  6
CONTINUOUS
 10
91.7262155421
 20
131.8053960472
 11
91.7262155421
 21
131.3702325744
  0
LINE
  5
2EF
100
AcDbEntity
  8
0
100
AcDbLine
 62
250
  6
CONTINUOUS
 10
91.7262155421
 20
80.6081391361
 11
91.7262155421
 21
80.1091991876
  0
LINE
  5
2F0
100
AcDbEntity
  8
0
100
AcDbLine
 62
7
  6
CONTINUOUS
 10
91.9157483509
 20
132.0775501956
 11
91.9157483509
 21
131.3891858553
  0
LINE
  5
2F1
100
AcDbEntity
  8
0
100
AcDbLine
 62
7
  6
CONTINUOUS
 10
91.9157483509
 20
80.5891858553
 11
91.9157483509
 21
79.9008215149
  0
LINE
  5
2F2
100
AcDbEntity
  8
0
100
AcDbLine
 62
250
  6
CONTINUOUS
 10
90.8757844175
 20
132.5131376743
 11
90.8756412667
 21
132.4977933034
  0
LWPOLYLINE
  5
2F3
100
AcDbEntity
  8
0
100
AcDbPolyline
 62
7
  6
CONTINUOUS
 90
25
 70
0
 10
91.9157483509
 20
131.9101485826
 10
91.9153450555
 20
131.903277035
 10
91.9141484579
 20
131.8965397545
 10
91.9121806541
 20
131.889936741
 10
91.9094719337
 20
131.8834562752
 10
91.9060466375
 20
131.8771100765
 10
91.9019098061
 20
131.8709333029
 10
91.8970792574
 20
131.8649230173
 10
91.8915791551
 20
131.8590821568
 10
91.885407641
 20
131.8534546902
 10
91.8785832755
 20
131.8480382486
 10
91.8711286593
 20
131.8428352008
 10
91.8630369237
 20
131.8378966225
 10
91.8543228383
 20
131.8332176046
 10
91.8450162112
 20
131.8288030562
 10
91.8351281667
 20
131.8247187799
 10
91.824680385
 20
131.8209636435
 10
91.8137115102
 20
131.8175387792
 10
91.8022613708
 20
131.8145133854
 10
91.7903614452
 20
131.8118910775
 10
91.7780630715
 20
131.80966824
 10
91.7654435661
 20
131.8079032256
 10
91.7525646825
 20
131.8066154851
 10
91.7394700842
 20
131.8057855675
 10
91.7262155421
 20
131.805413473
  0
LWPOLYLINE
  5
2F4
100
AcDbEntity
  8
0
100
AcDbPolyline
 62
7
  6
CONTINUOUS
 90
10
 70
0
 43
0.3500000006
 10
75.3219118652
 20
164.5295568237
 10
75.3933385162
 20
164.386694458
 10
75.3933385162
 20
164.3152542114
 10
75.2504806824
 20
164.1724099731
 10
75.1790540314
 20
164.1724099731
 10
75.1076228485
 20
164.2438320923
 10
75.1076228485
 20
164.3152542114
 10
75.1790540314
 20
164.4581165771
 10
75.2504806824
 20
164.5295568237
 10
75.3219118652
 20
164.5295568237
  0
LINE
  5
2F5
100
AcDbEntity
  8
0
100
AcDbLine
 62
7
  6
CONTINUOUS
 10
89.2157483509
 20
80.7891858553
 11
89.3657483509
 21
80.9391858553
  0
LINE
  5
2F6
100
AcDbEntity
  8
0
100
AcDbLine
 62
7
  6
CONTINUOUS
 10
89.2157483509
 20
131.1891858553
 11
89.3657483509
 21
131.0391858553
  0
LWPOLYLINE
  5
2F7
100
AcDbEntity
  8
0
100
AcDbPolyline
 62
7
  6
CONTINUOUS
 90
10
 70
0
 43
0.3500000006
 10
75.3371479797
 20
175.6983085327
 10
75.4085746307
 20
175.555446167
 10
75.4085746307
 20
175.4840240479
 10
75.2657167969
 20
175.3411616821
 10
75.1942901459
 20
175.3411616821
 10
75.1228634949
 20
175.4125838013
 10
75.1228634949
 20
175.4840240479
 10
75.1942901459
 20
175.6268682861
 10
75.2657167969
 20
175.6983085327
 10
75.3371479797
 20
175.6983085327
  0
LINE
  5
2F8
100
AcDbEntity
  8
0
100
AcDbLine
 62
250
  6
CONTINUOUS
 10
91.9157483509
 20
79.9507198908
 11
91.0218360481
 21
79.472976363
  0
LINE
  5
2F9
100
AcDbEntity
  8
0
100
AcDbLine
 62
250
  6
CONTINUOUS
 10
89.8415209346
 20
79.0615066114
 11
90.5132179759
 21
79.4180553771
  0
LINE
  5
2FA
100
AcDbEntity
  8
0
100
AcDbLine
 62
7
  6
CONTINUOUS
 10
91.9157483509
 20
79.9008215149
 11
89.9807603126
 21
78.8736953637
  0
LWPOLYLINE
  5
2FB
100
AcDbEntity
  8
0
100
AcDbPolyline
 62
250
  6
CONTINUOUS
 90
12
 70
0
 10
91.0218360481
 20
79.472976363
 10
91.0138493855
 20
79.4692032612
 10
91.0048210606
 20
79.4656175711
 10
90.9947510733
 20
79.4622189763
 10
90.9836701606
 20
79.459012311
 10
90.9715475856
 20
79.4559921521
 10
90.9582911376
 20
79.4531428435
 10
90.9438468108
 20
79.4504327148
 10
90.928268611
 20
79.4478930132
 10
90.9116263459
 20
79.4456024069
 10
90.8938332977
 20
79.4435486702
 10
90.8749761842
 20
79.4417435192
  0
LWPOLYLINE
  5
2FC
100
AcDbEntity
  8
0
100
AcDbPolyline
 62
250
  6
CONTINUOUS
 90
10
 70
0
 10
91.1156075481
 20
79.4760925104
 10
91.1064763062
 20
79.4718422071
 10
91.0968990395
 20
79.468545449
 10
91.0869262141
 20
79.4662196106
 10
91.0766103568
 20
79.4648769372
 10
91.0660058529
 20
79.4645245172
 10
91.0551686428
 20
79.4651642339
 10
91.0441558357
 20
79.466792711
 10
91.0330254254
 20
79.4694013416
 10
91.0218360481
 20
79.472976363
  0
LINE
  5
2FD
100
AcDbEntity
  8
0
100
AcDbLine
 62
7
  6
CONTINUOUS
 10
89.9653764488
 20
131.1941486651
 11
91.9157483509
 21
131.3891858553
  0
LINE
  5
2FE
100
AcDbEntity
  8
0
100
AcDbLine
 62
7
  6
CONTINUOUS
 10
88.9157483509
 20
131.7450057298
 11
89.9176283798
 21
131.7892689152
  0
LINE
  5
2FF
100
AcDbEntity
  8
0
100
AcDbLine
 62
7
  6
CONTINUOUS
 10
88.9157483509
 20
131.0391858553
 11
89.0657483509
 21
131.0391858553
  0
LINE
  5
300
100
AcDbEntity
  8
0
100
AcDbLine
 62
7
  6
CONTINUOUS
 10
89.3657483509
 20
131.0391858553
 11
89.5657483509
 21
131.0391858553
  0
LINE
  5
301
100
AcDbEntity
  8
0
100
AcDbLine
 62
7
  6
CONTINUOUS
 10
88.9157483509
 20
131.1891858553
 11
89.8658727298
 21
131.1891858553
  0
LINE
  5
302
100
AcDbEntity
  8
0
100
AcDbLine
 62
250
  6
CONTINUOUS
 10
89.8415209346
 20
132.9168650992
 11
88.9157483509
 21
132.9172832937
  0
LINE
  5
303
100
AcDbEntity
  8
0
100
AcDbLine
 62
7
  6
CONTINUOUS
 10
89.8415855019
 20
133.139315294
 11
88.9157483509
 21
133.1409311863
  0
LINE
  5
304
100
AcDbEntity
  8
0
100
AcDbLine
 62
250
  6
CONTINUOUS
 10
88.9157483509
 20
132.5329866997
 11
90.8756412667
 21
132.4977933034
  0
LINE
  5
305
100
AcDbEntity
  8
0
100
AcDbLine
 62
7
  6
CONTINUOUS
 10
90.8757397187
 20
132.5178071742
 11
88.9157483509
 21
132.5529720053
  0
LWPOLYLINE
  5
306
100
AcDbEntity
  8
0
100
AcDbPolyline
 62
250
  6
CONTINUOUS
 90
3
 70
0
 10
90.8756412667
 20
132.4977933034
 10
90.8940759063
 20
132.4972572698
 10
90.9119417769
 20
132.4964845418
  0
LINE
  5
307
100
AcDbEntity
  8
0
100
AcDbLine
 62
7
  6
CONTINUOUS
 10
89.9176282708
 20
131.7892689104
 11
88.9157483509
 21
131.8236567549
  0
LWPOLYLINE
  5
308
100
AcDbEntity
  8
0
100
AcDbPolyline
 62
250
  6
CONTINUOUS
 90
4
 70
0
 10
90.9119417769
 20
132.4964845418
 10
90.9292388787
 20
132.4954750686
 10
90.9460445115
 20
132.4941995232
 10
90.9622813753
 20
132.4926870315
  0
LWPOLYLINE
  5
309
100
AcDbEntity
  8
0
100
AcDbPolyline
 62
250
  6
CONTINUOUS
 90
14
 70
0
 10
90.9622813753
 20
132.4926870315
 10
90.9777175704
 20
132.4910252241
 10
90.9922360869
 20
132.4892323272
 10
91.0059539345
 20
132.4872898943
 10
91.018990243
 20
132.4852306047
 10
91.0312779269
 20
132.4830907074
 10
91.0428840717
 20
132.4808337433
 10
91.0541290631
 20
132.4783832759
 10
91.0651934675
 20
132.4757310293
 10
91.0758967185
 20
132.4728848291
 10
91.0860175026
 20
132.4697922229
 10
91.0954820487
 20
132.4664354461
 10
91.1043641279
 20
132.4628315014
 10
91.1126637402
 20
132.4589799688
  0
LWPOLYLINE
  5
30A
100
AcDbEntity
  8
0
100
AcDbPolyline
 62
250
  6
CONTINUOUS
 90
10
 70
0
 10
91.2029447589
 20
132.4559190514
 10
91.1941760239
 20
132.4600007224
 10
91.1849771298
 20
132.4631677693
 10
91.1753946281
 20
132.4654041653
 10
91.1654770114
 20
132.4666985932
 10
91.1552744684
 20
132.4670445029
 10
91.1448386293
 20
132.4664401439
 10
91.1342223051
 20
132.464888575
 10
91.1234792202
 20
132.4623976481
 10
91.1126637402
 20
132.4589799688
  0
LWPOLYLINE
  5
30B
100
AcDbEntity
  8
0
100
AcDbPolyline
 62
7
  6
CONTINUOUS
 90
15
 70
0
 10
91.2028184928
 20
132.4559856563
 10
91.1939088847
 20
132.460525001
 10
91.1728915435
 20
132.4699042781
 10
91.1507442953
 20
132.478103725
 10
91.128175382
 20
132.4851205708
 10
91.1051965646
 20
132.4911726622
 10
91.0813621487
 20
132.4965093784
 10
91.0567500385
 20
132.5011979918
 10
91.0313139823
 20
132.5053008375
 10
91.0049945464
 20
132.5088540533
 10
90.9780605692
 20
132.51183868
 10
90.9505787312
 20
132.5142555022
 10
90.9224763373
 20
132.5161038955
 10
90.8938800504
 20
132.517350617
 10
90.875739625
 20
132.5178071732
  0
LINE
  5
30C
100
AcDbEntity
  8
0
100
AcDbLine
 62
250
  6
CONTINUOUS
 10
90.5834201397
 20
132.5230517732
 11
89.8415209346
 21
132.9168650992
  0
LINE
  5
30D
100
AcDbEntity
  8
0
100
AcDbLine
 62
7
  6
CONTINUOUS
 10
89.9807603126
 20
133.1046763468
 11
91.9157483509
 21
132.0775501956
  0
LINE
  5
30E
100
AcDbEntity
  8
0
100
AcDbLine
 62
250
  6
CONTINUOUS
 10
91.1126637402
 20
132.4589799688
 11
91.9157483497
 21
132.0298590263
  0
LINE
  5
30F
100
AcDbEntity
  8
0
100
AcDbLine
 62
7
  6
CONTINUOUS
 10
82.7651391779
 20
62.1836262008
 11
82.7502008087
 21
62.1692003853
  0
LINE
  5
310
100
AcDbEntity
  8
0
100
AcDbLine
 62
7
  6
CONTINUOUS
 10
82.7502008087
 20
149.8091713252
 11
82.7651391779
 21
149.7947455097
  0
LINE
  5
311
100
AcDbEntity
  8
0
100
AcDbLine
 62
250
  6
CONTINUOUS
 10
88.3157483509
 20
147.1511272877
 11
88.9157483509
 21
147.1930833748
  0
LINE
  5
312
100
AcDbEntity
  8
0
100
AcDbLine
 62
7
  6
CONTINUOUS
 10
88.3157483509
 20
148.7472297681
 11
88.9157483509
 21
148.7891858553
  0
LINE
  5
313
100
AcDbEntity
  8
0
100
AcDbLine
 62
7
  6
CONTINUOUS
 10
82.7651391779
 20
149.7947455097
 11
88.3157483509
 21
149.9885770531
  0
LINE
  5
314
100
AcDbEntity
  8
0
100
AcDbLine
 62
7
  6
CONTINUOUS
 10
82.7651391779
 20
150.7953543118
 11
88.3157483509
 21
150.9891858553
  0
LWPOLYLINE
  5
315
100
AcDbEntity
  8
0
100
AcDbPolyline
 62
7
  6
CONTINUOUS
 90
8
 70
0
 43
0.3500000006
 10
78.1076282959
 20
164.0295476074
 10
78.9647662354
 20
164.0295476074
 10
79.3933352051
 20
164.4581165771
 10
79.3933352051
 20
165.3152545166
 10
78.9647662354
 20
165.7438416138
 10
78.1076282959
 20
165.7438416138
 10
78.1076282959
 20
167.0295485229
 10
79.3933352051
 20
167.0295485229
  0
LWPOLYLINE
  5
316
100
AcDbEntity
  8
0
100
AcDbPolyline
 62
7
  6
CONTINUOUS
 90
8
 70
0
 43
0.3500000006
 10
78.1228644104
 20
175.1982993164
 10
78.9800023499
 20
175.1982993164
 10
79.4085713196
 20
175.6268682861
 10
79.4085713196
 20
176.484024353
 10
78.9800023499
 20
176.9125933228
 10
78.1228644104
 20
176.9125933228
 10
78.1228644104
 20
178.1983002319
 10
79.4085713196
 20
178.1983002319
  0
ARC
  5
317
100
AcDbEntity
  8
0
100
AcDbCircle
 62
7
  6
CONTINUOUS
 10
203.5444695724
 20
89.0391858553
 40
1.7
100
AcDbArc
 50
270.0
 51
360.0
  0
ARC
  5
318
100
AcDbEntity
  8
0
100
AcDbCircle
 62
7
  6
CONTINUOUS
 10
203.5444695724
 20
102.4391858553
 40
1.7
100
AcDbArc
 50
0.0
 51
90.0
  0
ARC
  5
319
100
AcDbEntity
  8
0
100
AcDbCircle
 62
7
  6
CONTINUOUS
 10
190.1444695724
 20
102.4391858553
 40
1.7
100
AcDbArc
 50
90.0
 51
180.0
  0
ARC
  5
31A
100
AcDbEntity
  8
0
100
AcDbCircle
 62
7
  6
CONTINUOUS
 10
190.1444695724
 20
89.0391858553
 40
1.7
100
AcDbArc
 50
180.0
 51
270.0
  0
ARC
  5
31B
100
AcDbEntity
  8
0
100
AcDbCircle
 62
7
  6
CONTINUOUS
 10
181.0444695724
 20
89.0391858553
 40
1.7
100
AcDbArc
 50
270.0
 51
360.0
  0
ARC
  5
31C
100
AcDbEntity
  8
0
100
AcDbCircle
 62
7
  6
CONTINUOUS
 10
181.0444695724
 20
102.4391858553
 40
1.7
100
AcDbArc
 50
0.0
 51
90.0
  0
ARC
  5
31D
100
AcDbEntity
  8
0
100
AcDbCircle
 62
7
  6
CONTINUOUS
 10
167.6444695724
 20
102.4391858553
 40
1.7
100
AcDbArc
 50
90.0
 51
180.0
  0
ARC
  5
31E
100
AcDbEntity
  8
0
100
AcDbCircle
 62
7
  6
CONTINUOUS
 10
167.6444695724
 20
89.0391858553
 40
1.7
100
AcDbArc
 50
180.0
 51
270.0
  0
ARC
  5
31F
100
AcDbEntity
  8
0
100
AcDbCircle
 62
7
  6
CONTINUOUS
 10
203.5444695724
 20
109.5391858553
 40
1.7
100
AcDbArc
 50
270.0
 51
360.0
  0
ARC
  5
320
100
AcDbEntity
  8
0
100
AcDbCircle
 62
7
  6
CONTINUOUS
 10
203.5444695724
 20
122.9391858553
 40
1.7
100
AcDbArc
 50
0.0
 51
90.0
  0
ARC
  5
321
100
AcDbEntity
  8
0
100
AcDbCircle
 62
7
  6
CONTINUOUS
 10
190.1444695724
 20
122.9391858553
 40
1.7
100
AcDbArc
 50
90.0
 51
180.0
  0
ARC
  5
322
100
AcDbEntity
  8
0
100
AcDbCircle
 62
7
  6
CONTINUOUS
 10
190.1444695724
 20
109.5391858553
 40
1.7
100
AcDbArc
 50
180.0
 51
270.0
  0
ARC
  5
323
100
AcDbEntity
  8
0
100
AcDbCircle
 62
7
  6
CONTINUOUS
 10
181.0444695724
 20
109.5391858553
 40
1.7
100
AcDbArc
 50
270.0
 51
360.0
  0
ARC
  5
324
100
AcDbEntity
  8
0
100
AcDbCircle
 62
7
  6
CONTINUOUS
 10
181.0444695724
 20
122.9391858553
 40
1.7
100
AcDbArc
 50
0.0
 51
90.0
  0
ARC
  5
325
100
AcDbEntity
  8
0
100
AcDbCircle
 62
7
  6
CONTINUOUS
 10
167.6444695724
 20
122.9391858553
 40
1.7
100
AcDbArc
 50
90.0
 51
180.0
  0
ARC
  5
326
100
AcDbEntity
  8
0
100
AcDbCircle
 62
7
  6
CONTINUOUS
 10
167.6444695724
 20
109.5391858553
 40
1.7
100
AcDbArc
 50
180.0
 51
270.0
  0
ARC
  5
327
100
AcDbEntity
  8
0
100
AcDbCircle
 62
7
  6
CONTINUOUS
 10
167.6444695724
 20
122.9391858553
 40
1.2
100
AcDbArc
 50
90.0
 51
180.0
  0
ARC
  5
328
100
AcDbEntity
  8
0
100
AcDbCircle
 62
7
  6
CONTINUOUS
 10
181.0444695724
 20
122.9391858553
 40
1.2
100
AcDbArc
 50
0.0
 51
90.0
  0
ARC
  5
329
100
AcDbEntity
  8
0
100
AcDbCircle
 62
7
  6
CONTINUOUS
 10
167.6444695724
 20
109.5391858553
 40
1.2
100
AcDbArc
 50
180.0
 51
270.0
  0
ARC
  5
32A
100
AcDbEntity
  8
0
100
AcDbCircle
 62
7
  6
CONTINUOUS
 10
181.0444695724
 20
109.5391858553
 40
1.2
100
AcDbArc
 50
270.0
 51
360.0
  0
ARC
  5
32B
100
AcDbEntity
  8
0
100
AcDbCircle
 62
7
  6
CONTINUOUS
 10
190.1444695724
 20
122.9391858553
 40
1.2
100
AcDbArc
 50
90.0
 51
180.0
  0
ARC
  5
32C
100
AcDbEntity
  8
0
100
AcDbCircle
 62
7
  6
CONTINUOUS
 10
203.5444695724
 20
122.9391858553
 40
1.2
100
AcDbArc
 50
0.0
 51
90.0
  0
ARC
  5
32D
100
AcDbEntity
  8
0
100
AcDbCircle
 62
7
  6
CONTINUOUS
 10
190.1444695724
 20
109.5391858553
 40
1.2
100
AcDbArc
 50
180.0
 51
270.0
  0
ARC
  5
32E
100
AcDbEntity
  8
0
100
AcDbCircle
 62
7
  6
CONTINUOUS
 10
203.5444695724
 20
109.5391858553
 40
1.2
100
AcDbArc
 50
270.0
 51
360.0
  0
ARC
  5
32F
100
AcDbEntity
  8
0
100
AcDbCircle
 62
7
  6
CONTINUOUS
 10
167.6444695724
 20
89.0391858553
 40
1.2
100
AcDbArc
 50
180.0
 51
270.0
  0
ARC
  5
330
100
AcDbEntity
  8
0
100
AcDbCircle
 62
7
  6
CONTINUOUS
 10
181.0444695724
 20
89.0391858553
 40
1.2
100
AcDbArc
 50
270.0
 51
360.0
  0
ARC
  5
331
100
AcDbEntity
  8
0
100
AcDbCircle
 62
7
  6
CONTINUOUS
 10
167.6444695724
 20
102.4391858553
 40
1.2
100
AcDbArc
 50
90.0
 51
180.0
  0
ARC
  5
332
100
AcDbEntity
  8
0
100
AcDbCircle
 62
7
  6
CONTINUOUS
 10
181.0444695724
 20
102.4391858553
 40
1.2
100
AcDbArc
 50
0.0
 51
90.0
  0
ARC
  5
333
100
AcDbEntity
  8
0
100
AcDbCircle
 62
7
  6
CONTINUOUS
 10
190.1444695724
 20
89.0391858553
 40
1.2
100
AcDbArc
 50
180.0
 51
270.0
  0
ARC
  5
334
100
AcDbEntity
  8
0
100
AcDbCircle
 62
7
  6
CONTINUOUS
 10
203.5444695724
 20
89.0391858553
 40
1.2
100
AcDbArc
 50
270.0
 51
360.0
  0
ARC
  5
335
100
AcDbEntity
  8
0
100
AcDbCircle
 62
7
  6
CONTINUOUS
 10
190.1444695724
 20
102.4391858553
 40
1.2
100
AcDbArc
 50
90.0
 51
180.0
  0
ARC
  5
336
100
AcDbEntity
  8
0
100
AcDbCircle
 62
7
  6
CONTINUOUS
 10
203.5444695724
 20
102.4391858553
 40
1.2
100
AcDbArc
 50
0.0
 51
90.0
  0
ARC
  5
337
100
AcDbEntity
  8
0
100
AcDbCircle
 62
7
  6
CONTINUOUS
 10
89.8658727298
 20
79.7891858553
 40
1.0
100
AcDbArc
 50
84.2894068625
 51
90.0
  0
ARC
  5
338
100
AcDbEntity
  8
0
100
AcDbCircle
 62
7
  6
CONTINUOUS
 10
89.8658727298
 20
132.1891858553
 40
1.0
100
AcDbArc
 50
270.0
 51
275.7105931375
  0
ARC
  5
339
100
AcDbEntity
  8
0
100
AcDbCircle
 62
7
  6
CONTINUOUS
 10
89.8410616758
 20
132.8391853513
 40
0.3
100
AcDbArc
 50
62.0510370175
 51
89.8999998573
  0
ARC
  5
33A
100
AcDbEntity
  8
0
100
AcDbCircle
 62
7
  6
CONTINUOUS
 10
89.8410616758
 20
79.1391863593
 40
0.3
100
AcDbArc
 50
270.1000001427
 51
297.9489629825
  0
ELLIPSE
  5
33B
100
AcDbEntity
  8
0
100
AcDbEllipse
 62
7
  6
CONTINUOUS
 10
91.7157483509
 20
79.9093871602
 30
0.0
 11
0.1417119467
 21
0.1422961243
 31
0.0
 40
0.9918061237
 41
0.5506956737
 42
0.7350951877
  0
ELLIPSE
  5
33C
100
AcDbEntity
  8
0
100
AcDbEllipse
 62
7
  6
CONTINUOUS
 10
4957.6460716397
 20
105.9891858553
 30
0.0
 11
5070.6192780382
 21
20.8600030618
 31
0.0
 40
0.0041137573
 41
-2.8584753448
 42
-2.856472503
  0
ELLIPSE
  5
33D
100
AcDbEntity
  8
0
100
AcDbEllipse
 62
7
  6
CONTINUOUS
 10
185.0645404158
 20
105.9891858553
 30
0.0
 11
530.7034459343
 21
0.0
 31
0.0
 40
0.0494155445
 41
1.7475925186
 42
1.7510554651
  0
ENDSEC
  0
SECTION
  2
OBJECTS
  0
DICTIONARY
  5
C
100
AcDbDictionary
280
0
281
1
  3
ACAD_GROUP
350
D
  3
ACAD_MLINESTYLE
350
17
  3
ACAD_LAYOUT
350
1A
  3
ACAD_PLOTSETTINGS
350
19
  3
ACAD_PLOTSTYLENAME
350
E
  0
DICTIONARY
  5
D
102
{ACAD_REACTORS
330
C
102
}
100
AcDbDictionary
280
0
281
1
  0
ACDBDICTIONARYWDFLT
  5
E
102
{ACAD_REACTORS
330
C
102
}
100
AcDbDictionary
281
1
  3
Normal
350
F
100
AcDbDictionaryWithDefault
340
F
  0
DICTIONARY
  5
17
102
{ACAD_REACTORS
330
C
102
}
100
AcDbDictionary
280
0
281
1
  3
Standard
350
18
  0
DICTIONARY
  5
19
102
{ACAD_REACTORS
330
C
102
}
100
AcDbDictionary
281
1
  0
DICTIONARY
  5
1A
102
{ACAD_REACTORS
330
C
102
}
100
AcDbDictionary
281
1
  3
Model
350
33E
  3
Layout1
350
33F
  0
ACDBPLACEHOLDER
  5
F
102
{ACAD_REACTORS
330
E
102
}
  0
MLINESTYLE
  5
18
102
{ACAD_REACTORS
330
17
102
}
100
AcDbMlineStyle
  2
STANDARD
 70
0
  3

 62
256
 51
90.0
 52
90.0
 71
2
 49
0.5
 62
256
  6
BYLAYER
 49
-0.5
 62
256
  6
BYLAYER
  0
LAYOUT
  5
33E
102
{ACAD_REACTORS
330
1A
102
}
100
AcDbPlotSettings
  1

  2
none_device
  4
ISO_A4_(297.00_x_210.00_MM)
  6

 40
0.0
 41
0.0
 42
0.0
 43
0.0
 44
297.0
 45
210.0
 46
0.0
 47
0.0
 48
0.0
 49
0.0
140
0.0
141
0.0
142
1.0
143
1.0
 70
1024
 72
1
 73
0
 74
0
  7

 75
0
147
1.0
148
0.0
149
0.0
100
AcDbLayout
  1
Model
 70
0
 71
0
 10
0.0
 20
0.0
 11
297.0
 21
210.0
 12
0.0
 22
0.0
 32
0.0
 14
0.0
 24
0.0
 34
0.0
 15
0.0
 25
0.0
 35
0.0
146
0.0
 13
0.0
 23
0.0
 33
0.0
 16
1.0
 26
0.0
 36
0.0
 17
0.0
 27
1.0
 37
0.0
 76
0
330
21B
345
0
346
0
  0
LAYOUT
  5
33F
102
{ACAD_REACTORS
330
1A
102
}
100
AcDbPlotSettings
  1

  2
none_device
  4
ISO_A4_(297.00_x_210.00_MM)
  6

 40
0.0
 41
0.0
 42
0.0
 43
0.0
 44
297.0
 45
210.0
 46
0.0
 47
0.0
 48
0.0
 49
0.0
140
0.0
141
0.0
142
1.0
143
1.0
 70
0
 72
1
 73
0
 74
0
  7

 75
0
147
1.0
148
0.0
149
0.0
100
AcDbLayout
  1
Layout1
 70
0
 71
1
 10
0.0
 20
0.0
 11
297.0
 21
210.0
 12
0.0
 22
0.0
 32
0.0
 14
0.0
 24
0.0
 34
0.0
 15
0.0
 25
0.0
 35
0.0
146
0.0
 13
0.0
 23
0.0
 33
0.0
 16
1.0
 26
0.0
 36
0.0
 17
0.0
 27
1.0
 37
0.0
 76
0
330
21C
345
0
346
0
  0
ENDSEC
  0
EOF
