  0
SECTION
  2
HEADER
  9
$ACADVER
  1
AC1024
  9
$DWGCODEPAGE
  3
ANSI_1252
  9
$EXTMAX
 10
297.0
 20
210.0
 30
0.0
  9
$EXTMIN
 10
0.0
 20
0.0
 30
0.0
  9
$LIMMIN
 10
0.0
 20
0.0
  9
$LIMMAX
 10
297.0
 20
210.0
  9
$VIEWCTR
 10
148.5
 20
105.0
  9
$VIEWSIZE
 40
210.0
  9
$CLAYER
  8
0
  9
$LTSCALE
 40
16.335
  9
$CELTYPE
  6
BYLAYER
  9
$DIMSCALE
 40
1.0
  9
$DIMASZ
 40
3.0
  9
$DIMEXO
 40
0.5
  9
$DIMDLI
 40
11.286
  9
$DIMEXE
 40
1.5
  9
$DIMCEN
 40
2.673
  9
$DIMLFAC
 40
1.0
  9
$DIMBLK
  1
_FILLED
  9
$DIMALT
 70
0
  9
$DIMALTF
 40
0.0393700787
  9
$DIMTXT
 40
3.0
  9
$DIMTOL
 70
1
  9
$DIMLIM
 70
0
  9
$DIMTFAC
 40
1.0
  9
$DIMTP
 40
0.01
  9
$DIMTM
 40
0.01
  9
$DIMGAP
 40
0.625
  9
$DIMDSEP
 70
44
  9
$AUNITS
 70
0
  9
$PDMODE
 70
3
  9
$PDSIZE
 40
3.0
  9
$HANDSEED
  5
36C
  9
$TILEMODE
 70
1
  9
$MEASUREMENT
 70
1
  9
$INSUNITS
 70
4
  0
ENDSEC
  0
SECTION
  2
CLASSES
  0
CLASS
  1
ACDBDICTIONARYWDFLT
  2
AcDbDictionaryWithDefault
  3
AutoCAD 2000
 90
0
 91
1
280
0
281
0
  0
CLASS
  1
ACDBPLACEHOLDER
  2
AcDbPlaceHolder
  3
AutoCAD 2000
 90
0
 91
1
280
0
281
0
  0
CLASS
  1
LAYOUT
  2
AcDbLayout
  3
AutoCAD 2000
 90
0
 91
0
280
0
281
0
  0
ENDSEC
  0
SECTION
  2
TABLES
  0
TABLE
  2
VPORT
  5
8
100
AcDbSymbolTable
 70
2
  0
VPORT
  5
1F4
100
AcDbSymbolTableRecord
100
AcDbViewportTableRecord
  2
*ACTIVE
 70
0
 10
0.0
 20
0.0
 11
1.0
 21
1.0
 12
148.5
 22
105.0
 13
0.0
 23
0.0
 14
1.0
 24
1.0
 15
0.0
 25
0.0
 16
0.0
 26
0.0
 36
1.0
 17
0.0
 27
0.0
 37
0.0
 40
210.0
 41
1.4142857143
 42
50.0
 43
0.0
 44
0.0
 50
0.0
 51
0.0
 71
0
 72
100
 73
1
 74
1
 75
0
 76
0
 77
0
 78
0
  0
ENDTAB
  0
TABLE
  2
LTYPE
  5
5
100
AcDbSymbolTable
 70
6
  0
LTYPE
  5
14
100
AcDbSymbolTableRecord
100
AcDbLinetypeTableRecord
  2
BYBLOCK
 70
0
  3

 72
65
 73
0
 40
0.0
  0
LTYPE
  5
15
100
AcDbSymbolTableRecord
100
AcDbLinetypeTableRecord
  2
BYLAYER
 70
0
  3

 72
65
 73
0
 40
0.0
  0
LTYPE
  5
16
100
AcDbSymbolTableRecord
100
AcDbLinetypeTableRecord
  2
CONTINUOUS
 70
64
  3
Solid line
 72
65
 73
0
 40
0.0
  0
LTYPE
  5
1F5
100
AcDbSymbolTableRecord
100
AcDbLinetypeTableRecord
  2
CENTER
 70
64
  3
____ _ ____ _ ____ _ ____ _ ____ _ ____ _ ____
 72
65
 73
4
 40
0.6
 49
0.375
 74
0
 49
-0.075
 74
0
 49
0.075
 74
0
 49
-0.075
 74
0
  0
LTYPE
  5
1F6
100
AcDbSymbolTableRecord
100
AcDbLinetypeTableRecord
  2
HIDDEN
 70
64
  3
- - - - - - - - - - - - - - - - - - - -
 72
65
 73
2
 40
0.2
 49
0.1
 74
0
 49
-0.1
 74
0
  0
LTYPE
  5
1F7
100
AcDbSymbolTableRecord
100
AcDbLinetypeTableRecord
  2
PHANTOM
 70
64
  3
_____ _ _ _____ _ _ _____ _ _ _____
 72
65
 73
6
 40
0.8
 49
0.45
 74
0
 49
-0.05
 74
0
 49
0.1
 74
0
 49
-0.05
 74
0
 49
0.1
 74
0
 49
-0.05
 74
0
  0
LTYPE
  5
1F8
100
AcDbSymbolTableRecord
100
AcDbLinetypeTableRecord
  2
DOT
 70
64
  3
. . . . . . . . . . . . . . . . . . . .
 72
65
 73
2
 40
0.2
 49
0.1
 74
0
 49
-0.1
 74
0
  0
LTYPE
  5
1F9
100
AcDbSymbolTableRecord
100
AcDbLinetypeTableRecord
  2
DASHED
 70
64
  3
- - - - - - - - - - - - - - - - - - - -
 72
65
 73
2
 40
0.2
 49
0.1
 74
0
 49
-0.1
 74
0
  0
ENDTAB
  0
TABLE
  2
LAYER
  5
2
100
AcDbSymbolTable
 70
36
  0
LAYER
  5
10
100
AcDbSymbolTableRecord
100
AcDbLayerTableRecord
  2
0
 70
0
 62
7
  6
CONTINUOUS
370
-3
390
F
  0
LAYER
  5
1FA
100
AcDbSymbolTableRecord
100
AcDbLayerTableRecord
  2
DEFAULT_1
 70
0
 62
7
  6
CENTER
370
-3
390
F
  0
LAYER
  5
1FB
100
AcDbSymbolTableRecord
100
AcDbLayerTableRecord
  2
DEFAULT_2
 70
0
 62
7
  6
HIDDEN
370
-3
390
F
  0
LAYER
  5
1FC
100
AcDbSymbolTableRecord
100
AcDbLayerTableRecord
  2
DEFAULT_3
 70
0
 62
7
  6
PHANTOM
370
-3
390
F
  0
LAYER
  5
1FD
100
AcDbSymbolTableRecord
100
AcDbLayerTableRecord
  2
ASSI
 70
0
 62
7
  6
CONTINUOUS
370
-3
390
F
  0
LAYER
  5
1FE
100
AcDbSymbolTableRecord
100
AcDbLayerTableRecord
  2
COORDINATE
 70
0
 62
7
  6
CONTINUOUS
370
-3
390
F
  0
LAYER
  5
1FF
100
AcDbSymbolTableRecord
100
AcDbLayerTableRecord
  2
COORD_ORIGINE
 70
0
 62
7
  6
CONTINUOUS
370
-3
390
F
  0
LAYER
  5
200
100
AcDbSymbolTableRecord
100
AcDbLayerTableRecord
  2
COPY_PUBLISH
 70
0
 62
7
  6
CONTINUOUS
370
-3
390
F
  0
LAYER
  5
201
100
AcDbSymbolTableRecord
100
AcDbLayerTableRecord
  2
COSMETIC
 70
0
 62
7
  6
CONTINUOUS
370
-3
390
F
  0
LAYER
  5
202
100
AcDbSymbolTableRecord
100
AcDbLayerTableRecord
  2
COSMETICI
 70
0
 62
7
  6
CONTINUOUS
370
-3
390
F
  0
LAYER
  5
203
100
AcDbSymbolTableRecord
100
AcDbLayerTableRecord
  2
CURVE
 70
0
 62
7
  6
CONTINUOUS
370
-3
390
F
  0
LAYER
  5
204
100
AcDbSymbolTableRecord
100
AcDbLayerTableRecord
  2
CURVE_COSTRUZIONE
 70
0
 62
7
  6
CONTINUOUS
370
-3
390
F
  0
LAYER
  5
205
100
AcDbSymbolTableRecord
100
AcDbLayerTableRecord
  2
CURVE_TASSELLI
 70
0
 62
7
  6
CONTINUOUS
370
-3
390
F
  0
LAYER
  5
206
100
AcDbSymbolTableRecord
100
AcDbLayerTableRecord
  2
DRAFT
 70
0
 62
7
  6
CONTINUOUS
370
-3
390
F
  0
LAYER
  5
207
100
AcDbSymbolTableRecord
100
AcDbLayerTableRecord
  2
IMPORT_IGES
 70
0
 62
7
  6
CONTINUOUS
370
-3
390
F
  0
LAYER
  5
208
100
AcDbSymbolTableRecord
100
AcDbLayerTableRecord
  2
INTFCLR_2
 70
0
 62
7
  6
CONTINUOUS
370
-3
390
F
  0
LAYER
  5
209
100
AcDbSymbolTableRecord
100
AcDbLayerTableRecord
  2
INTF_1
 70
0
 62
7
  6
CONTINUOUS
370
-3
390
F
  0
LAYER
  5
20A
100
AcDbSymbolTableRecord
100
AcDbLayerTableRecord
  2
INTF_7
 70
0
 62
7
  6
CONTINUOUS
370
-3
390
F
  0
LAYER
  5
20B
100
AcDbSymbolTableRecord
100
AcDbLayerTableRecord
  2
INTF_CYAN
 70
0
 62
7
  6
CONTINUOUS
370
-3
390
F
  0
LAYER
  5
20C
100
AcDbSymbolTableRecord
100
AcDbLayerTableRecord
  2
NOTE
 70
0
 62
7
  6
CONTINUOUS
370
-3
390
F
  0
LAYER
  5
20D
100
AcDbSymbolTableRecord
100
AcDbLayerTableRecord
  2
PIANI
 70
0
 62
7
  6
CONTINUOUS
370
-3
390
F
  0
LAYER
  5
20E
100
AcDbSymbolTableRecord
100
AcDbLayerTableRecord
  2
PIANI_ORIGINE
 70
0
 62
7
  6
CONTINUOUS
370
-3
390
F
  0
LAYER
  5
20F
100
AcDbSymbolTableRecord
100
AcDbLayerTableRecord
  2
PIANI_RIFERIMENTO
 70
0
 62
7
  6
CONTINUOUS
370
-3
390
F
  0
LAYER
  5
210
100
AcDbSymbolTableRecord
100
AcDbLayerTableRecord
  2
PUNTI
 70
0
 62
7
  6
CONTINUOUS
370
-3
390
F
  0
LAYER
  5
211
100
AcDbSymbolTableRecord
100
AcDbLayerTableRecord
  2
RACCORDO
 70
0
 62
7
  6
CONTINUOUS
370
-3
390
F
  0
LAYER
  5
212
100
AcDbSymbolTableRecord
100
AcDbLayerTableRecord
  2
RGB__255__255__255__
 70
0
 62
7
  6
CONTINUOUS
370
-3
390
F
  0
LAYER
  5
213
100
AcDbSymbolTableRecord
100
AcDbLayerTableRecord
  2
RGB____0____0____0__
 70
0
 62
7
  6
CONTINUOUS
370
-3
390
F
  0
LAYER
  5
214
100
AcDbSymbolTableRecord
100
AcDbLayerTableRecord
  2
SIMBOLI
 70
0
 62
7
  6
CONTINUOUS
370
-3
390
F
  0
LAYER
  5
215
100
AcDbSymbolTableRecord
100
AcDbLayerTableRecord
  2
SMUSSO
 70
0
 62
7
  6
CONTINUOUS
370
-3
390
F
  0
LAYER
  5
216
100
AcDbSymbolTableRecord
100
AcDbLayerTableRecord
  2
SUPERFICI
 70
0
 62
7
  6
CONTINUOUS
370
-3
390
F
  0
LAYER
  5
217
100
AcDbSymbolTableRecord
100
AcDbLayerTableRecord
  2
TRASH
 70
0
 62
7
  6
CONTINUOUS
370
-3
390
F
  0
LAYER
  5
218
100
AcDbSymbolTableRecord
100
AcDbLayerTableRecord
  2
XSEC_DATUMS
 70
0
 62
7
  6
CONTINUOUS
370
-3
390
F
  0
ENDTAB
  0
TABLE
  2
STYLE
  5
3
100
AcDbSymbolTable
 70
1
  0
STYLE
  5
11
100
AcDbSymbolTableRecord
100
AcDbTextStyleTableRecord
  2
STANDARD
 70
0
 40
0.0
 41
0.8
 50
0.0
 71
0
 42
0.2
  3
txt
  4

  0
STYLE
  5
219
100
AcDbSymbolTableRecord
100
AcDbTextStyleTableRecord
  2
TEXTSTYLE_1
 70
0
 40
0.0
 41
0.8
 50
0.0
 71
0
 42
0.2
  3
gdt
  4

  0
ENDTAB
  0
TABLE
  2
VIEW
  5
6
100
AcDbSymbolTable
 70
0
  0
ENDTAB
  0
TABLE
  2
UCS
  5
7
100
AcDbSymbolTable
 70
0
  0
ENDTAB
  0
TABLE
  2
APPID
  5
9
100
AcDbSymbolTable
 70
1
  0
APPID
  5
21A
100
AcDbSymbolTableRecord
100
AcDbRegAppTableRecord
  2
ACAD
 70
0
  0
ENDTAB
  0
TABLE
  2
BLOCK_RECORD
  5
1
100
AcDbSymbolTable
 70
0
  0
BLOCK_RECORD
  5
21B
100
AcDbSymbolTableRecord
100
AcDbBlockTableRecord
  2
*Model_Space
  0
BLOCK_RECORD
  5
21C
100
AcDbSymbolTableRecord
100
AcDbBlockTableRecord
  2
*Paper_Space
  0
BLOCK_RECORD
  5
21D
100
AcDbSymbolTableRecord
100
AcDbBlockTableRecord
  2
_FILLED
  0
BLOCK_RECORD
  5
21E
100
AcDbSymbolTableRecord
100
AcDbBlockTableRecord
  2
*D0
  0
BLOCK_RECORD
  5
21F
100
AcDbSymbolTableRecord
100
AcDbBlockTableRecord
  2
*D1
  0
BLOCK_RECORD
  5
220
100
AcDbSymbolTableRecord
100
AcDbBlockTableRecord
  2
*D2
  0
BLOCK_RECORD
  5
221
100
AcDbSymbolTableRecord
100
AcDbBlockTableRecord
  2
*D3
  0
ENDTAB
  0
TABLE
  2
DIMSTYLE
  5
A
100
AcDbSymbolTable
 70
1
100
AcDbDimStyleTable
 71
0
  0
DIMSTYLE
105
222
100
AcDbSymbolTableRecord
100
AcDbDimStyleTableRecord
  2
STANDARD
 70
0
  3

  4

 40
1.0
 41
3.0
 42
0.5
 43
0.38
 44
1.5
 45
0.0
 46
0.0
 47
0.01
 48
0.01
140
3.0
141
0.09
142
0.0
143
25.4
144
1.0
145
0.0
146
1.0
147
0.625
 71
1.0
 72
0.0
 73
0
 74
0
 75
0
 76
0
 77
1
 78
8
 79
2
170
0
171
1
172
0
173
0
174
0
175
0
176
0
177
0
178
0
270
2
179
2
271
2
272
2
273
2
274
2
275
0
280
0
281
0
282
0
283
1
284
8
285
0
286
0
287
3
288
0
340
11
278
44
341
21D
342
21D
343
21D
344
21D
  0
DIMSTYLE
105
223
100
AcDbSymbolTableRecord
100
AcDbDimStyleTableRecord
  2
DIMSTYLE_1
 70
0
  3

  4

 40
1.0
 41
3.0
 42
0.5
 43
0.38
 44
1.5
 45
0.0
 46
0.0
 47
0.0
 48
0.0
140
3.0
141
0.09
142
0.0
143
25.4
144
1.0
145
0.0
146
1.0
147
0.75
 71
0.0
 72
0.0
 73
0
 74
0
 75
0
 76
0
 77
1
 78
8
 79
2
170
0
171
1
172
0
173
0
174
0
175
0
176
0
177
0
178
0
270
2
179
2
271
2
272
2
273
2
274
2
275
0
280
0
281
0
282
0
283
1
284
8
285
0
286
0
287
3
288
0
340
11
278
44
341
21D
342
21D
343
21D
344
21D
  0
ENDTAB
  0
ENDSEC
  0
SECTION
  2
BLOCKS
  0
BLOCK
  5
20
100
AcDbEntity
  8
0
100
AcDbBlockBegin
  2
*Model_Space
 70
0
 10
0.0
 20
0.0
 30
0.0
  3
*Model_Space
  1

  0
ENDBLK
  5
21
100
AcDbEntity
  8
0
100
AcDbBlockEnd
  0
BLOCK
  5
1C
100
AcDbEntity
  8
0
100
AcDbBlockBegin
  2
*Paper_Space
 70
0
 10
0.0
 20
0.0
 30
0.0
  3
*Paper_Space
  1

  0
ENDBLK
  5
1D
100
AcDbEntity
  8
0
100
AcDbBlockEnd
  0
BLOCK
  5
224
100
AcDbEntity
  8
0
100
AcDbBlockBegin
  2
_FILLED
 70
64
 10
0.0
 20
0.0
  3
_FILLED
  1

  0
SOLID
  5
225
100
AcDbEntity
  8
0
  6
BYBLOCK
 62
0
100
AcDbTrace
 10
0.0
 20
0.0
 11
-1.0
 21
0.3166666667
 12
-1.0
 22
-0.3166666667
 13
-1.0
 23
-0.3166666667
  0
ENDBLK
  5
226
100
AcDbEntity
  8
0
  6
BYBLOCK
 62
0
100
AcDbBlockEnd
  0
BLOCK
  5
227
100
AcDbEntity
  8
0
100
AcDbBlockBegin
 62
7
  6
CONTINUOUS
  2
*D0
 70
65
 10
0.0
 20
0.0
  3
*D0
  1

  0
LINE
  5
228
100
AcDbEntity
  8
0
100
AcDbLine
 62
7
  6
CONTINUOUS
 10
232.1112212171
 20
151.9393829742
 11
232.1112212171
 21
163.4015804656
  0
LINE
  5
229
100
AcDbEntity
  8
0
100
AcDbLine
 62
7
  6
CONTINUOUS
 10
142.1112212171
 20
151.9393829742
 11
142.1112212171
 21
163.4015804656
  0
LINE
  5
22A
100
AcDbEntity
  8
0
100
AcDbLine
 62
7
  6
CONTINUOUS
 10
232.1112212171
 20
161.9015804656
 11
187.1112212171
 21
161.9015804656
  0
LINE
  5
22B
100
AcDbEntity
  8
0
100
AcDbLine
 62
7
  6
CONTINUOUS
 10
142.1112212171
 20
161.9015804656
 11
187.1112212171
 21
161.9015804656
  0
INSERT
  5
22C
100
AcDbEntity
  8
0
100
AcDbBlockReference
 62
7
  6
CONTINUOUS
  2
_FILLED
 10
232.1112212171
 20
161.9015804656
 41
3.0
 42
3.0
 43
3.0
  0
INSERT
  5
22D
100
AcDbEntity
  8
0
100
AcDbBlockReference
 62
7
  6
CONTINUOUS
  2
_FILLED
 10
142.1112212171
 20
161.9015804656
 41
3.0
 42
3.0
 43
3.0
 50
180.0
  0
ENDBLK
  5
22E
100
AcDbEntity
  8
0
  6
BYBLOCK
 62
0
100
AcDbBlockEnd
  0
BLOCK
  5
22F
100
AcDbEntity
  8
0
100
AcDbBlockBegin
 62
7
  6
CONTINUOUS
  2
*D1
 70
65
 10
0.0
 20
0.0
  3
*D1
  1

  0
LINE
  5
230
100
AcDbEntity
  8
0
100
AcDbLine
 62
7
  6
CONTINUOUS
 10
231.610612415
 20
152.4399917763
 11
245.7717848225
 21
152.4399917763
  0
LINE
  5
231
100
AcDbEntity
  8
0
100
AcDbLine
 62
7
  6
CONTINUOUS
 10
231.610612415
 20
62.4399917763
 11
245.7717848225
 21
62.4399917763
  0
LINE
  5
232
100
AcDbEntity
  8
0
100
AcDbLine
 62
7
  6
CONTINUOUS
 10
244.2717848225
 20
152.4399917763
 11
244.2717848225
 21
107.4399917763
  0
LINE
  5
233
100
AcDbEntity
  8
0
100
AcDbLine
 62
7
  6
CONTINUOUS
 10
244.2717848225
 20
62.4399917763
 11
244.2717848225
 21
107.4399917763
  0
INSERT
  5
234
100
AcDbEntity
  8
0
100
AcDbBlockReference
 62
7
  6
CONTINUOUS
  2
_FILLED
 10
244.2717848225
 20
152.4399917763
 41
3.0
 42
3.0
 43
3.0
 50
90.0
  0
INSERT
  5
235
100
AcDbEntity
  8
0
100
AcDbBlockReference
 62
7
  6
CONTINUOUS
  2
_FILLED
 10
244.2717848225
 20
62.4399917763
 41
3.0
 42
3.0
 43
3.0
 50
270.0
  0
ENDBLK
  5
236
100
AcDbEntity
  8
0
  6
BYBLOCK
 62
0
100
AcDbBlockEnd
  0
BLOCK
  5
237
100
AcDbEntity
  8
0
100
AcDbBlockBegin
 62
7
  6
CONTINUOUS
  2
*D2
 70
65
 10
0.0
 20
0.0
  3
*D2
  1

  0
LINE
  5
238
100
AcDbEntity
  8
0
100
AcDbLine
 62
7
  6
CONTINUOUS
 10
91.7016586513
 20
151.3167291865
 11
91.7016586513
 21
171.5873486086
  0
LINE
  5
239
100
AcDbEntity
  8
0
100
AcDbLine
 62
7
  6
CONTINUOUS
 10
101.8516586513
 20
133.9863085695
 11
101.8516586513
 21
171.5873486086
  0
LINE
  5
23A
100
AcDbEntity
  8
0
100
AcDbLine
 62
7
  6
CONTINUOUS
 10
91.7016586513
 20
170.0873486086
 11
96.7766586513
 21
170.0873486086
  0
LINE
  5
23B
100
AcDbEntity
  8
0
100
AcDbLine
 62
7
  6
CONTINUOUS
 10
96.7766586513
 20
170.0873486086
 11
79.9547923384
 21
170.0873486086
  0
LINE
  5
23C
100
AcDbEntity
  8
0
100
AcDbLine
 62
7
  6
CONTINUOUS
 10
101.8516586513
 20
170.0873486086
 11
96.7766586513
 21
170.0873486086
  0
INSERT
  5
23D
100
AcDbEntity
  8
0
100
AcDbBlockReference
 62
7
  6
CONTINUOUS
  2
_FILLED
 10
91.7016586513
 20
170.0873486086
 41
3.0
 42
3.0
 43
3.0
 50
180.0
  0
INSERT
  5
23E
100
AcDbEntity
  8
0
100
AcDbBlockReference
 62
7
  6
CONTINUOUS
  2
_FILLED
 10
101.8516586513
 20
170.0873486086
 41
3.0
 42
3.0
 43
3.0
  0
ENDBLK
  5
23F
100
AcDbEntity
  8
0
  6
BYBLOCK
 62
0
100
AcDbBlockEnd
  0
BLOCK
  5
240
100
AcDbEntity
  8
0
100
AcDbBlockBegin
 62
7
  6
CONTINUOUS
  2
*D3
 70
65
 10
0.0
 20
0.0
  3
*D3
  1

  0
LINE
  5
241
100
AcDbEntity
  8
0
100
AcDbLine
 62
7
  6
CONTINUOUS
 10
98.8516586513
 20
149.443158511
 11
98.8516586513
 21
164.0879564783
  0
LINE
  5
242
100
AcDbEntity
  8
0
100
AcDbLine
 62
7
  6
CONTINUOUS
 10
91.7016586513
 20
151.3167291865
 11
91.7016586513
 21
164.0879564783
  0
LINE
  5
243
100
AcDbEntity
  8
0
100
AcDbLine
 62
7
  6
CONTINUOUS
 10
98.8516586513
 20
162.5879564783
 11
95.2766586513
 21
162.5879564783
  0
LINE
  5
244
100
AcDbEntity
  8
0
100
AcDbLine
 62
7
  6
CONTINUOUS
 10
91.7016586513
 20
162.5879564783
 11
95.2766586513
 21
162.5879564783
  0
LINE
  5
245
100
AcDbEntity
  8
0
100
AcDbLine
 62
7
  6
CONTINUOUS
 10
95.2766586513
 20
162.5879564783
 11
82.564319353
 21
162.5879564783
  0
INSERT
  5
246
100
AcDbEntity
  8
0
100
AcDbBlockReference
 62
7
  6
CONTINUOUS
  2
_FILLED
 10
98.8516586513
 20
162.5879564783
 41
3.0
 42
3.0
 43
3.0
  0
INSERT
  5
247
100
AcDbEntity
  8
0
100
AcDbBlockReference
 62
7
  6
CONTINUOUS
  2
_FILLED
 10
91.7016586513
 20
162.5879564783
 41
3.0
 42
3.0
 43
3.0
 50
180.0
  0
ENDBLK
  5
248
100
AcDbEntity
  8
0
  6
BYBLOCK
 62
0
100
AcDbBlockEnd
  0
ENDSEC
  0
SECTION
  2
ENTITIES
  0
DIMENSION
  5
249
100
AcDbEntity
  8
0
100
AcDbDimension
 62
7
  6
CONTINUOUS
  2
*D0
 10
142.1112212171
 20
161.9015804656
 11
184.75407836
 21
161.9015804656
 70
160
 71
2
 72
2
 41
0.9
 42
90.0
  3
DIMSTYLE_1
100
AcDbAlignedDimension
 13
232.1112212171
 23
151.4393829742
 14
142.1112212171
 24
151.4393829742
 50
180.0
100
AcDbRotatedDimension
  0
DIMENSION
  5
24A
100
AcDbEntity
  8
0
100
AcDbDimension
 62
7
  6
CONTINUOUS
  2
*D1
 10
244.2717848225
 20
62.4399917763
 11
244.2717848225
 21
105.0828489192
 70
160
 71
2
 72
2
 41
0.9
 42
90.0
  3
DIMSTYLE_1
100
AcDbAlignedDimension
 13
231.110612415
 23
152.4399917763
 14
231.110612415
 24
62.4399917763
 50
270.0
100
AcDbRotatedDimension
  0
DIMENSION
  5
24B
100
AcDbEntity
  8
0
100
AcDbDimension
 62
7
  6
CONTINUOUS
  2
*D2
 10
101.8516586513
 20
170.0873486086
 11
79.9547923384
 21
170.0873486086
 70
160
 71
3
 72
2
 41
0.9
 42
10.15
  3
DIMSTYLE_1
100
AcDbAlignedDimension
 13
91.7016586513
 23
150.8167291865
 14
101.8516586513
 24
133.4863085695
100
AcDbRotatedDimension
  0
DIMENSION
  5
24C
100
AcDbEntity
  8
0
100
AcDbDimension
 62
7
  6
CONTINUOUS
  2
*D3
 10
91.7016586513
 20
162.5879564783
 11
82.564319353
 21
162.5879564783
 70
160
 71
3
 72
2
 41
0.9
 42
7.15
  3
DIMSTYLE_1
100
AcDbAlignedDimension
 13
98.8516586513
 23
148.943158511
 14
91.7016586513
 24
150.8167291865
 50
180.0
100
AcDbRotatedDimension
  0
LINE
  5
24D
100
AcDbEntity
  8
0
100
AcDbLine
 62
7
  6
CONTINUOUS
 10
143.2912357472
 20
152.2306910986
 11
143.3056615627
 21
152.2461602328
  0
LINE
  5
24E
100
AcDbEntity
  8
0
100
AcDbLine
 62
7
  6
CONTINUOUS
 10
142.1112212171
 20
151.4393829742
 11
143.1118300192
 21
152.4399917763
  0
LINE
  5
24F
100
AcDbEntity
  8
0
100
AcDbLine
 62
7
  6
CONTINUOUS
 10
143.2912357472
 20
152.2306910986
 11
142.3205218948
 21
151.2599772462
  0
LINE
  5
250
100
AcDbEntity
  8
0
100
AcDbLine
 62
7
  6
CONTINUOUS
 10
143.7344838069
 20
151.2112607361
 11
143.3399522573
 21
150.8167291865
  0
LINE
  5
251
100
AcDbEntity
  8
0
100
AcDbLine
 62
7
  6
CONTINUOUS
 10
142.3050527606
 20
151.2455514307
 11
142.3205218948
 21
151.2599772462
  0
LINE
  5
252
100
AcDbEntity
  8
0
100
AcDbLine
 62
7
  6
CONTINUOUS
 10
142.3205218948
 20
63.6200063064
 11
142.3050527606
 21
63.6344321219
  0
LINE
  5
253
100
AcDbEntity
  8
0
100
AcDbLine
 62
7
  6
CONTINUOUS
 10
143.1118300192
 20
62.4399917763
 11
142.1112212171
 21
63.4406005784
  0
LINE
  5
254
100
AcDbEntity
  8
0
100
AcDbLine
 62
7
  6
CONTINUOUS
 10
142.3205218948
 20
63.6200063064
 11
143.2912357472
 21
62.649292454
  0
LINE
  5
255
100
AcDbEntity
  8
0
100
AcDbLine
 62
7
  6
CONTINUOUS
 10
143.3399522573
 20
64.0632543661
 11
143.7344838069
 21
63.6687228165
  0
LINE
  5
256
100
AcDbEntity
  8
0
100
AcDbLine
 62
7
  6
CONTINUOUS
 10
143.3056615627
 20
62.6338233198
 11
143.2912357472
 21
62.649292454
  0
LINE
  5
257
100
AcDbEntity
  8
0
100
AcDbLine
 62
7
  6
CONTINUOUS
 10
142.1112212171
 20
151.4393829742
 11
142.1112212171
 21
63.4406005784
  0
LINE
  5
258
100
AcDbEntity
  8
0
100
AcDbLine
 62
7
  6
CONTINUOUS
 10
142.3050527606
 20
151.2455514307
 11
142.3050527606
 21
63.6344321219
  0
LINE
  5
259
100
AcDbEntity
  8
0
100
AcDbLine
 62
7
  6
CONTINUOUS
 10
143.3399522573
 20
150.8167291865
 11
143.3399522573
 21
64.0632543661
  0
LINE
  5
25A
100
AcDbEntity
  8
0
100
AcDbLine
 62
7
  6
CONTINUOUS
 10
143.1118300192
 20
62.4399917763
 11
231.110612415
 21
62.4399917763
  0
LINE
  5
25B
100
AcDbEntity
  8
0
100
AcDbLine
 62
7
  6
CONTINUOUS
 10
143.3056615627
 20
62.6338233198
 11
230.9167808715
 21
62.6338233198
  0
LINE
  5
25C
100
AcDbEntity
  8
0
100
AcDbLine
 62
7
  6
CONTINUOUS
 10
143.7344838069
 20
63.6687228165
 11
230.4879586273
 21
63.6687228165
  0
LWPOLYLINE
  5
25D
100
AcDbEntity
  8
0
100
AcDbPolyline
 62
7
  6
CONTINUOUS
 90
10
 70
0
 43
0.3500000006
 10
185.1826541748
 20
162.6515720215
 10
186.0397921143
 20
163.5087280884
 10
186.2540765991
 20
164.3658660278
 10
186.2540765991
 20
165.2230039673
 10
185.8255076294
 20
165.651572937
 10
185.1826541748
 20
165.651572937
 10
184.7540852051
 20
165.2230039673
 10
184.7540852051
 20
164.3658660278
 10
185.1826541748
 20
163.9372970581
 10
186.1112142334
 20
163.9372970581
  0
LINE
  5
25E
100
AcDbEntity
  8
0
100
AcDbLine
 62
7
  6
CONTINUOUS
 10
156.2112212171
 20
90.4899917763
 11
156.2112212171
 21
103.8899917763
  0
LINE
  5
25F
100
AcDbEntity
  8
0
100
AcDbLine
 62
7
  6
CONTINUOUS
 10
156.2112212171
 20
110.9899917763
 11
156.2112212171
 21
124.3899917763
  0
LINE
  5
260
100
AcDbEntity
  8
0
100
AcDbLine
 62
7
  6
CONTINUOUS
 10
156.7112212171
 20
90.4899917763
 11
156.7112212171
 21
103.8899917763
  0
LINE
  5
261
100
AcDbEntity
  8
0
100
AcDbLine
 62
7
  6
CONTINUOUS
 10
156.7112212171
 20
110.9899917763
 11
156.7112212171
 21
124.3899917763
  0
LINE
  5
262
100
AcDbEntity
  8
0
100
AcDbLine
 62
250
  6
CONTINUOUS
 10
157.9112212171
 20
126.0899917763
 11
157.9112212171
 21
125.5899917763
  0
LINE
  5
263
100
AcDbEntity
  8
0
100
AcDbLine
 62
250
  6
CONTINUOUS
 10
157.9112212171
 20
105.5899917763
 11
157.9112212171
 21
105.0899917763
  0
LINE
  5
264
100
AcDbEntity
  8
0
100
AcDbLine
 62
250
  6
CONTINUOUS
 10
157.9112212171
 20
88.7899917763
 11
157.9112212171
 21
89.2899917763
  0
LINE
  5
265
100
AcDbEntity
  8
0
100
AcDbLine
 62
250
  6
CONTINUOUS
 10
157.9112212171
 20
109.2899917763
 11
157.9112212171
 21
109.7899917763
  0
LINE
  5
266
100
AcDbEntity
  8
0
100
AcDbLine
 62
7
  6
CONTINUOUS
 10
143.7344838069
 20
63.6687228165
 11
143.2912357472
 21
62.649292454
  0
LINE
  5
267
100
AcDbEntity
  8
0
100
AcDbLine
 62
7
  6
CONTINUOUS
 10
230.8824901769
 20
150.8167291865
 11
231.9019205394
 21
151.2599772462
  0
LINE
  5
268
100
AcDbEntity
  8
0
100
AcDbLine
 62
7
  6
CONTINUOUS
 10
230.8824901769
 20
64.0632543661
 11
231.9019205394
 21
63.6200063064
  0
LINE
  5
269
100
AcDbEntity
  8
0
100
AcDbLine
 62
7
  6
CONTINUOUS
 10
143.7344838069
 20
151.2112607361
 11
143.2912357472
 21
152.2306910986
  0
LINE
  5
26A
100
AcDbEntity
  8
0
100
AcDbLine
 62
7
  6
CONTINUOUS
 10
216.3112212171
 20
88.7899917763
 11
202.9112212171
 21
88.7899917763
  0
LINE
  5
26B
100
AcDbEntity
  8
0
100
AcDbLine
 62
7
  6
CONTINUOUS
 10
193.8112212171
 20
88.7899917763
 11
180.4112212171
 21
88.7899917763
  0
LINE
  5
26C
100
AcDbEntity
  8
0
100
AcDbLine
 62
7
  6
CONTINUOUS
 10
171.3112212171
 20
88.7899917763
 11
157.9112212171
 21
88.7899917763
  0
LINE
  5
26D
100
AcDbEntity
  8
0
100
AcDbLine
 62
7
  6
CONTINUOUS
 10
216.3112212171
 20
89.2899917763
 11
202.9112212171
 21
89.2899917763
  0
LINE
  5
26E
100
AcDbEntity
  8
0
100
AcDbLine
 62
7
  6
CONTINUOUS
 10
193.8112212171
 20
89.2899917763
 11
180.4112212171
 21
89.2899917763
  0
LINE
  5
26F
100
AcDbEntity
  8
0
100
AcDbLine
 62
7
  6
CONTINUOUS
 10
171.3112212171
 20
89.2899917763
 11
157.9112212171
 21
89.2899917763
  0
LINE
  5
270
100
AcDbEntity
  8
0
100
AcDbLine
 62
250
  6
CONTINUOUS
 10
218.0112212171
 20
90.4899917763
 11
217.5112212171
 21
90.4899917763
  0
LINE
  5
271
100
AcDbEntity
  8
0
100
AcDbLine
 62
250
  6
CONTINUOUS
 10
195.5112212171
 20
90.4899917763
 11
195.0112212171
 21
90.4899917763
  0
LINE
  5
272
100
AcDbEntity
  8
0
100
AcDbLine
 62
250
  6
CONTINUOUS
 10
173.0112212171
 20
90.4899917763
 11
172.5112212171
 21
90.4899917763
  0
LINE
  5
273
100
AcDbEntity
  8
0
100
AcDbLine
 62
250
  6
CONTINUOUS
 10
156.2112212171
 20
90.4899917763
 11
156.7112212171
 21
90.4899917763
  0
LINE
  5
274
100
AcDbEntity
  8
0
100
AcDbLine
 62
250
  6
CONTINUOUS
 10
178.7112212171
 20
90.4899917763
 11
179.2112212171
 21
90.4899917763
  0
LINE
  5
275
100
AcDbEntity
  8
0
100
AcDbLine
 62
250
  6
CONTINUOUS
 10
201.2112212171
 20
90.4899917763
 11
201.7112212171
 21
90.4899917763
  0
LINE
  5
276
100
AcDbEntity
  8
0
100
AcDbLine
 62
250
  6
CONTINUOUS
 10
171.3112212171
 20
126.0899917763
 11
171.3112212171
 21
125.5899917763
  0
LINE
  5
277
100
AcDbEntity
  8
0
100
AcDbLine
 62
250
  6
CONTINUOUS
 10
171.3112212171
 20
105.5899917763
 11
171.3112212171
 21
105.0899917763
  0
LINE
  5
278
100
AcDbEntity
  8
0
100
AcDbLine
 62
250
  6
CONTINUOUS
 10
171.3112212171
 20
88.7899917763
 11
171.3112212171
 21
89.2899917763
  0
LINE
  5
279
100
AcDbEntity
  8
0
100
AcDbLine
 62
250
  6
CONTINUOUS
 10
171.3112212171
 20
109.2899917763
 11
171.3112212171
 21
109.7899917763
  0
LINE
  5
27A
100
AcDbEntity
  8
0
100
AcDbLine
 62
7
  6
CONTINUOUS
 10
172.5112212171
 20
124.3899917763
 11
172.5112212171
 21
110.9899917763
  0
LINE
  5
27B
100
AcDbEntity
  8
0
100
AcDbLine
 62
7
  6
CONTINUOUS
 10
172.5112212171
 20
103.8899917763
 11
172.5112212171
 21
90.4899917763
  0
LINE
  5
27C
100
AcDbEntity
  8
0
100
AcDbLine
 62
7
  6
CONTINUOUS
 10
173.0112212171
 20
124.3899917763
 11
173.0112212171
 21
110.9899917763
  0
LINE
  5
27D
100
AcDbEntity
  8
0
100
AcDbLine
 62
7
  6
CONTINUOUS
 10
173.0112212171
 20
103.8899917763
 11
173.0112212171
 21
90.4899917763
  0
LINE
  5
27E
100
AcDbEntity
  8
0
100
AcDbLine
 62
7
  6
CONTINUOUS
 10
178.7112212171
 20
90.4899917763
 11
178.7112212171
 21
103.8899917763
  0
LINE
  5
27F
100
AcDbEntity
  8
0
100
AcDbLine
 62
7
  6
CONTINUOUS
 10
178.7112212171
 20
110.9899917763
 11
178.7112212171
 21
124.3899917763
  0
LINE
  5
280
100
AcDbEntity
  8
0
100
AcDbLine
 62
7
  6
CONTINUOUS
 10
179.2112212171
 20
90.4899917763
 11
179.2112212171
 21
103.8899917763
  0
LINE
  5
281
100
AcDbEntity
  8
0
100
AcDbLine
 62
7
  6
CONTINUOUS
 10
179.2112212171
 20
110.9899917763
 11
179.2112212171
 21
124.3899917763
  0
LINE
  5
282
100
AcDbEntity
  8
0
100
AcDbLine
 62
250
  6
CONTINUOUS
 10
180.4112212171
 20
126.0899917763
 11
180.4112212171
 21
125.5899917763
  0
LINE
  5
283
100
AcDbEntity
  8
0
100
AcDbLine
 62
250
  6
CONTINUOUS
 10
180.4112212171
 20
105.5899917763
 11
180.4112212171
 21
105.0899917763
  0
LINE
  5
284
100
AcDbEntity
  8
0
100
AcDbLine
 62
250
  6
CONTINUOUS
 10
180.4112212171
 20
88.7899917763
 11
180.4112212171
 21
89.2899917763
  0
LINE
  5
285
100
AcDbEntity
  8
0
100
AcDbLine
 62
250
  6
CONTINUOUS
 10
180.4112212171
 20
109.2899917763
 11
180.4112212171
 21
109.7899917763
  0
LWPOLYLINE
  5
286
100
AcDbEntity
  8
0
100
AcDbPolyline
 62
7
  6
CONTINUOUS
 90
13
 70
0
 43
0.3500000006
 10
187.1112145386
 20
163.5087280884
 10
187.1112145386
 20
164.7944349976
 10
187.3254990234
 20
165.2230039673
 10
187.7540861206
 20
165.651572937
 10
187.9683706055
 20
165.651572937
 10
188.3969395752
 20
165.2230039673
 10
188.6112240601
 20
164.7944349976
 10
188.6112240601
 20
163.5087280884
 10
188.3969395752
 20
163.0801591187
 10
187.9683706055
 20
162.6515720215
 10
187.7540861206
 20
162.6515720215
 10
187.3254990234
 20
163.0801591187
 10
187.1112145386
 20
163.5087280884
  0
LINE
  5
287
100
AcDbEntity
  8
0
100
AcDbLine
 62
7
  6
CONTINUOUS
 10
142.3050527606
 20
63.6344321219
 11
142.1112212171
 21
63.4406005784
  0
LINE
  5
288
100
AcDbEntity
  8
0
100
AcDbLine
 62
7
  6
CONTINUOUS
 10
230.9167808715
 20
152.2461602328
 11
231.110612415
 21
152.4399917763
  0
LINE
  5
289
100
AcDbEntity
  8
0
100
AcDbLine
 62
250
  6
CONTINUOUS
 10
218.0112212171
 20
103.8899917763
 11
217.5112212171
 21
103.8899917763
  0
LINE
  5
28A
100
AcDbEntity
  8
0
100
AcDbLine
 62
250
  6
CONTINUOUS
 10
195.5112212171
 20
103.8899917763
 11
195.0112212171
 21
103.8899917763
  0
LINE
  5
28B
100
AcDbEntity
  8
0
100
AcDbLine
 62
250
  6
CONTINUOUS
 10
173.0112212171
 20
103.8899917763
 11
172.5112212171
 21
103.8899917763
  0
LINE
  5
28C
100
AcDbEntity
  8
0
100
AcDbLine
 62
250
  6
CONTINUOUS
 10
156.2112212171
 20
103.8899917763
 11
156.7112212171
 21
103.8899917763
  0
LINE
  5
28D
100
AcDbEntity
  8
0
100
AcDbLine
 62
250
  6
CONTINUOUS
 10
178.7112212171
 20
103.8899917763
 11
179.2112212171
 21
103.8899917763
  0
LINE
  5
28E
100
AcDbEntity
  8
0
100
AcDbLine
 62
250
  6
CONTINUOUS
 10
201.2112212171
 20
103.8899917763
 11
201.7112212171
 21
103.8899917763
  0
LINE
  5
28F
100
AcDbEntity
  8
0
100
AcDbLine
 62
7
  6
CONTINUOUS
 10
157.9112212171
 20
105.0899917763
 11
171.3112212171
 21
105.0899917763
  0
LINE
  5
290
100
AcDbEntity
  8
0
100
AcDbLine
 62
7
  6
CONTINUOUS
 10
180.4112212171
 20
105.0899917763
 11
193.8112212171
 21
105.0899917763
  0
LINE
  5
291
100
AcDbEntity
  8
0
100
AcDbLine
 62
7
  6
CONTINUOUS
 10
202.9112212171
 20
105.0899917763
 11
216.3112212171
 21
105.0899917763
  0
LINE
  5
292
100
AcDbEntity
  8
0
100
AcDbLine
 62
7
  6
CONTINUOUS
 10
157.9112212171
 20
105.5899917763
 11
171.3112212171
 21
105.5899917763
  0
LINE
  5
293
100
AcDbEntity
  8
0
100
AcDbLine
 62
7
  6
CONTINUOUS
 10
180.4112212171
 20
105.5899917763
 11
193.8112212171
 21
105.5899917763
  0
LINE
  5
294
100
AcDbEntity
  8
0
100
AcDbLine
 62
7
  6
CONTINUOUS
 10
202.9112212171
 20
105.5899917763
 11
216.3112212171
 21
105.5899917763
  0
LWPOLYLINE
  5
295
100
AcDbEntity
  8
0
100
AcDbPolyline
 62
7
  6
CONTINUOUS
 90
13
 70
0
 43
0.3500000006
 10
242.6646439819
 20
107.4399898682
 10
241.3789189453
 20
107.4399898682
 10
240.9503499756
 20
107.654274353
 10
240.5217810059
 20
108.0828523865
 10
240.5217810059
 20
108.2971368713
 10
240.9503499756
 20
108.7257058411
 10
241.3789189453
 20
108.9399903259
 10
242.6646439819
 20
108.9399903259
 10
243.0932129517
 20
108.7257058411
 10
243.5217819214
 20
108.2971368713
 10
243.5217819214
 20
108.0828523865
 10
243.0932129517
 20
107.654274353
 10
242.6646439819
 20
107.4399898682
  0
LINE
  5
296
100
AcDbEntity
  8
0
100
AcDbLine
 62
7
  6
CONTINUOUS
 10
142.3050527606
 20
151.2455514307
 11
142.1112212171
 21
151.4393829742
  0
LINE
  5
297
100
AcDbEntity
  8
0
100
AcDbLine
 62
7
  6
CONTINUOUS
 10
230.9167808715
 20
62.6338233198
 11
231.110612415
 21
62.4399917763
  0
LINE
  5
298
100
AcDbEntity
  8
0
100
AcDbLine
 62
7
  6
CONTINUOUS
 10
143.3056615627
 20
62.6338233198
 11
143.1118300192
 21
62.4399917763
  0
LINE
  5
299
100
AcDbEntity
  8
0
100
AcDbLine
 62
7
  6
CONTINUOUS
 10
231.9173896736
 20
151.2455514307
 11
232.1112212171
 21
151.4393829742
  0
LINE
  5
29A
100
AcDbEntity
  8
0
100
AcDbLine
 62
7
  6
CONTINUOUS
 10
216.3112212171
 20
109.2899917763
 11
202.9112212171
 21
109.2899917763
  0
LINE
  5
29B
100
AcDbEntity
  8
0
100
AcDbLine
 62
7
  6
CONTINUOUS
 10
193.8112212171
 20
109.2899917763
 11
180.4112212171
 21
109.2899917763
  0
LINE
  5
29C
100
AcDbEntity
  8
0
100
AcDbLine
 62
7
  6
CONTINUOUS
 10
171.3112212171
 20
109.2899917763
 11
157.9112212171
 21
109.2899917763
  0
LINE
  5
29D
100
AcDbEntity
  8
0
100
AcDbLine
 62
7
  6
CONTINUOUS
 10
216.3112212171
 20
109.7899917763
 11
202.9112212171
 21
109.7899917763
  0
LINE
  5
29E
100
AcDbEntity
  8
0
100
AcDbLine
 62
7
  6
CONTINUOUS
 10
193.8112212171
 20
109.7899917763
 11
180.4112212171
 21
109.7899917763
  0
LINE
  5
29F
100
AcDbEntity
  8
0
100
AcDbLine
 62
7
  6
CONTINUOUS
 10
171.3112212171
 20
109.7899917763
 11
157.9112212171
 21
109.7899917763
  0
LINE
  5
2A0
100
AcDbEntity
  8
0
100
AcDbLine
 62
250
  6
CONTINUOUS
 10
218.0112212171
 20
110.9899917763
 11
217.5112212171
 21
110.9899917763
  0
LINE
  5
2A1
100
AcDbEntity
  8
0
100
AcDbLine
 62
250
  6
CONTINUOUS
 10
195.5112212171
 20
110.9899917763
 11
195.0112212171
 21
110.9899917763
  0
LINE
  5
2A2
100
AcDbEntity
  8
0
100
AcDbLine
 62
250
  6
CONTINUOUS
 10
173.0112212171
 20
110.9899917763
 11
172.5112212171
 21
110.9899917763
  0
LINE
  5
2A3
100
AcDbEntity
  8
0
100
AcDbLine
 62
250
  6
CONTINUOUS
 10
156.2112212171
 20
110.9899917763
 11
156.7112212171
 21
110.9899917763
  0
LINE
  5
2A4
100
AcDbEntity
  8
0
100
AcDbLine
 62
250
  6
CONTINUOUS
 10
178.7112212171
 20
110.9899917763
 11
179.2112212171
 21
110.9899917763
  0
LINE
  5
2A5
100
AcDbEntity
  8
0
100
AcDbLine
 62
250
  6
CONTINUOUS
 10
201.2112212171
 20
110.9899917763
 11
201.7112212171
 21
110.9899917763
  0
LINE
  5
2A6
100
AcDbEntity
  8
0
100
AcDbLine
 62
7
  6
CONTINUOUS
 10
143.3056615627
 20
152.2461602328
 11
143.1118300192
 21
152.4399917763
  0
LINE
  5
2A7
100
AcDbEntity
  8
0
100
AcDbLine
 62
7
  6
CONTINUOUS
 10
231.9173896736
 20
63.6344321219
 11
232.1112212171
 21
63.4406005784
  0
LINE
  5
2A8
100
AcDbEntity
  8
0
100
AcDbLine
 62
250
  6
CONTINUOUS
 10
193.8112212171
 20
126.0899917763
 11
193.8112212171
 21
125.5899917763
  0
LINE
  5
2A9
100
AcDbEntity
  8
0
100
AcDbLine
 62
250
  6
CONTINUOUS
 10
193.8112212171
 20
105.5899917763
 11
193.8112212171
 21
105.0899917763
  0
LINE
  5
2AA
100
AcDbEntity
  8
0
100
AcDbLine
 62
250
  6
CONTINUOUS
 10
193.8112212171
 20
88.7899917763
 11
193.8112212171
 21
89.2899917763
  0
LINE
  5
2AB
100
AcDbEntity
  8
0
100
AcDbLine
 62
250
  6
CONTINUOUS
 10
193.8112212171
 20
109.2899917763
 11
193.8112212171
 21
109.7899917763
  0
LINE
  5
2AC
100
AcDbEntity
  8
0
100
AcDbLine
 62
7
  6
CONTINUOUS
 10
195.0112212171
 20
124.3899917763
 11
195.0112212171
 21
110.9899917763
  0
LINE
  5
2AD
100
AcDbEntity
  8
0
100
AcDbLine
 62
7
  6
CONTINUOUS
 10
195.0112212171
 20
103.8899917763
 11
195.0112212171
 21
90.4899917763
  0
LINE
  5
2AE
100
AcDbEntity
  8
0
100
AcDbLine
 62
7
  6
CONTINUOUS
 10
195.5112212171
 20
124.3899917763
 11
195.5112212171
 21
110.9899917763
  0
LINE
  5
2AF
100
AcDbEntity
  8
0
100
AcDbLine
 62
7
  6
CONTINUOUS
 10
195.5112212171
 20
103.8899917763
 11
195.5112212171
 21
90.4899917763
  0
LINE
  5
2B0
100
AcDbEntity
  8
0
100
AcDbLine
 62
7
  6
CONTINUOUS
 10
201.2112212171
 20
90.4899917763
 11
201.2112212171
 21
103.8899917763
  0
LINE
  5
2B1
100
AcDbEntity
  8
0
100
AcDbLine
 62
7
  6
CONTINUOUS
 10
201.2112212171
 20
110.9899917763
 11
201.2112212171
 21
124.3899917763
  0
LINE
  5
2B2
100
AcDbEntity
  8
0
100
AcDbLine
 62
7
  6
CONTINUOUS
 10
201.7112212171
 20
90.4899917763
 11
201.7112212171
 21
103.8899917763
  0
LINE
  5
2B3
100
AcDbEntity
  8
0
100
AcDbLine
 62
7
  6
CONTINUOUS
 10
201.7112212171
 20
110.9899917763
 11
201.7112212171
 21
124.3899917763
  0
LINE
  5
2B4
100
AcDbEntity
  8
0
100
AcDbLine
 62
250
  6
CONTINUOUS
 10
202.9112212171
 20
126.0899917763
 11
202.9112212171
 21
125.5899917763
  0
LINE
  5
2B5
100
AcDbEntity
  8
0
100
AcDbLine
 62
250
  6
CONTINUOUS
 10
202.9112212171
 20
105.5899917763
 11
202.9112212171
 21
105.0899917763
  0
LINE
  5
2B6
100
AcDbEntity
  8
0
100
AcDbLine
 62
250
  6
CONTINUOUS
 10
202.9112212171
 20
88.7899917763
 11
202.9112212171
 21
89.2899917763
  0
LINE
  5
2B7
100
AcDbEntity
  8
0
100
AcDbLine
 62
250
  6
CONTINUOUS
 10
202.9112212171
 20
109.2899917763
 11
202.9112212171
 21
109.7899917763
  0
LINE
  5
2B8
100
AcDbEntity
  8
0
100
AcDbLine
 62
250
  6
CONTINUOUS
 10
218.0112212171
 20
124.3899917763
 11
217.5112212171
 21
124.3899917763
  0
LINE
  5
2B9
100
AcDbEntity
  8
0
100
AcDbLine
 62
250
  6
CONTINUOUS
 10
195.5112212171
 20
124.3899917763
 11
195.0112212171
 21
124.3899917763
  0
LINE
  5
2BA
100
AcDbEntity
  8
0
100
AcDbLine
 62
250
  6
CONTINUOUS
 10
173.0112212171
 20
124.3899917763
 11
172.5112212171
 21
124.3899917763
  0
LINE
  5
2BB
100
AcDbEntity
  8
0
100
AcDbLine
 62
250
  6
CONTINUOUS
 10
156.2112212171
 20
124.3899917763
 11
156.7112212171
 21
124.3899917763
  0
LINE
  5
2BC
100
AcDbEntity
  8
0
100
AcDbLine
 62
250
  6
CONTINUOUS
 10
178.7112212171
 20
124.3899917763
 11
179.2112212171
 21
124.3899917763
  0
LINE
  5
2BD
100
AcDbEntity
  8
0
100
AcDbLine
 62
250
  6
CONTINUOUS
 10
201.2112212171
 20
124.3899917763
 11
201.7112212171
 21
124.3899917763
  0
LINE
  5
2BE
100
AcDbEntity
  8
0
100
AcDbLine
 62
7
  6
CONTINUOUS
 10
157.9112212171
 20
125.5899917763
 11
171.3112212171
 21
125.5899917763
  0
LINE
  5
2BF
100
AcDbEntity
  8
0
100
AcDbLine
 62
7
  6
CONTINUOUS
 10
180.4112212171
 20
125.5899917763
 11
193.8112212171
 21
125.5899917763
  0
LINE
  5
2C0
100
AcDbEntity
  8
0
100
AcDbLine
 62
7
  6
CONTINUOUS
 10
202.9112212171
 20
125.5899917763
 11
216.3112212171
 21
125.5899917763
  0
LINE
  5
2C1
100
AcDbEntity
  8
0
100
AcDbLine
 62
7
  6
CONTINUOUS
 10
157.9112212171
 20
126.0899917763
 11
171.3112212171
 21
126.0899917763
  0
LINE
  5
2C2
100
AcDbEntity
  8
0
100
AcDbLine
 62
7
  6
CONTINUOUS
 10
180.4112212171
 20
126.0899917763
 11
193.8112212171
 21
126.0899917763
  0
LINE
  5
2C3
100
AcDbEntity
  8
0
100
AcDbLine
 62
7
  6
CONTINUOUS
 10
202.9112212171
 20
126.0899917763
 11
216.3112212171
 21
126.0899917763
  0
LINE
  5
2C4
100
AcDbEntity
  8
0
100
AcDbLine
 62
7
  6
CONTINUOUS
 10
230.4879586273
 20
151.2112607361
 11
230.931206687
 21
152.2306910986
  0
LINE
  5
2C5
100
AcDbEntity
  8
0
100
AcDbLine
 62
7
  6
CONTINUOUS
 10
143.3399522573
 20
64.0632543661
 11
142.3205218948
 21
63.6200063064
  0
LINE
  5
2C6
100
AcDbEntity
  8
0
100
AcDbLine
 62
7
  6
CONTINUOUS
 10
143.3399522573
 20
150.8167291865
 11
142.3205218948
 21
151.2599772462
  0
LINE
  5
2C7
100
AcDbEntity
  8
0
100
AcDbLine
 62
7
  6
CONTINUOUS
 10
230.4879586273
 20
63.6687228165
 11
230.931206687
 21
62.649292454
  0
LINE
  5
2C8
100
AcDbEntity
  8
0
100
AcDbLine
 62
250
  6
CONTINUOUS
 10
216.3112212171
 20
126.0899917763
 11
216.3112212171
 21
125.5899917763
  0
LINE
  5
2C9
100
AcDbEntity
  8
0
100
AcDbLine
 62
250
  6
CONTINUOUS
 10
216.3112212171
 20
105.5899917763
 11
216.3112212171
 21
105.0899917763
  0
LINE
  5
2CA
100
AcDbEntity
  8
0
100
AcDbLine
 62
250
  6
CONTINUOUS
 10
216.3112212171
 20
88.7899917763
 11
216.3112212171
 21
89.2899917763
  0
LINE
  5
2CB
100
AcDbEntity
  8
0
100
AcDbLine
 62
250
  6
CONTINUOUS
 10
216.3112212171
 20
109.2899917763
 11
216.3112212171
 21
109.7899917763
  0
LINE
  5
2CC
100
AcDbEntity
  8
0
100
AcDbLine
 62
7
  6
CONTINUOUS
 10
217.5112212171
 20
124.3899917763
 11
217.5112212171
 21
110.9899917763
  0
LINE
  5
2CD
100
AcDbEntity
  8
0
100
AcDbLine
 62
7
  6
CONTINUOUS
 10
217.5112212171
 20
103.8899917763
 11
217.5112212171
 21
90.4899917763
  0
LINE
  5
2CE
100
AcDbEntity
  8
0
100
AcDbLine
 62
7
  6
CONTINUOUS
 10
218.0112212171
 20
124.3899917763
 11
218.0112212171
 21
110.9899917763
  0
LINE
  5
2CF
100
AcDbEntity
  8
0
100
AcDbLine
 62
7
  6
CONTINUOUS
 10
218.0112212171
 20
103.8899917763
 11
218.0112212171
 21
90.4899917763
  0
LWPOLYLINE
  5
2D0
100
AcDbEntity
  8
0
100
AcDbPolyline
 62
7
  6
CONTINUOUS
 90
10
 70
0
 43
0.3500000006
 10
243.5217819214
 20
105.5114204407
 10
242.6646439819
 20
106.3685674438
 10
241.8075060425
 20
106.5828519287
 10
240.9503499756
 20
106.5828519287
 10
240.5217810059
 20
106.1542738953
 10
240.5217810059
 20
105.5114204407
 10
240.9503499756
 20
105.0828514709
 10
241.8075060425
 20
105.0828514709
 10
242.2360750122
 20
105.5114204407
 10
242.2360750122
 20
106.439989563
  0
LINE
  5
2D1
100
AcDbEntity
  8
0
100
AcDbLine
 62
7
  6
CONTINUOUS
 10
230.8824901769
 20
64.0632543661
 11
230.8824901769
 21
150.8167291865
  0
LINE
  5
2D2
100
AcDbEntity
  8
0
100
AcDbLine
 62
7
  6
CONTINUOUS
 10
231.9173896736
 20
63.6344321219
 11
231.9173896736
 21
151.2455514307
  0
LINE
  5
2D3
100
AcDbEntity
  8
0
100
AcDbLine
 62
7
  6
CONTINUOUS
 10
232.1112212171
 20
63.4406005784
 11
232.1112212171
 21
151.4393829742
  0
LINE
  5
2D4
100
AcDbEntity
  8
0
100
AcDbLine
 62
7
  6
CONTINUOUS
 10
230.4879586273
 20
151.2112607361
 11
143.7344838069
 21
151.2112607361
  0
LINE
  5
2D5
100
AcDbEntity
  8
0
100
AcDbLine
 62
7
  6
CONTINUOUS
 10
230.9167808715
 20
152.2461602328
 11
143.3056615627
 21
152.2461602328
  0
LINE
  5
2D6
100
AcDbEntity
  8
0
100
AcDbLine
 62
7
  6
CONTINUOUS
 10
231.110612415
 20
152.4399917763
 11
143.1118300192
 21
152.4399917763
  0
LINE
  5
2D7
100
AcDbEntity
  8
0
100
AcDbLine
 62
7
  6
CONTINUOUS
 10
230.931206687
 20
62.649292454
 11
230.9167808715
 21
62.6338233198
  0
LINE
  5
2D8
100
AcDbEntity
  8
0
100
AcDbLine
 62
7
  6
CONTINUOUS
 10
230.4879586273
 20
63.6687228165
 11
230.8824901769
 21
64.0632543661
  0
LINE
  5
2D9
100
AcDbEntity
  8
0
100
AcDbLine
 62
7
  6
CONTINUOUS
 10
230.931206687
 20
62.649292454
 11
231.9019205394
 21
63.6200063064
  0
LINE
  5
2DA
100
AcDbEntity
  8
0
100
AcDbLine
 62
7
  6
CONTINUOUS
 10
232.1112212171
 20
63.4406005784
 11
231.110612415
 21
62.4399917763
  0
LINE
  5
2DB
100
AcDbEntity
  8
0
100
AcDbLine
 62
7
  6
CONTINUOUS
 10
231.9173896736
 20
63.6344321219
 11
231.9019205394
 21
63.6200063064
  0
LINE
  5
2DC
100
AcDbEntity
  8
0
100
AcDbLine
 62
7
  6
CONTINUOUS
 10
231.9019205394
 20
151.2599772462
 11
231.9173896736
 21
151.2455514307
  0
LINE
  5
2DD
100
AcDbEntity
  8
0
100
AcDbLine
 62
7
  6
CONTINUOUS
 10
230.8824901769
 20
150.8167291865
 11
230.4879586273
 21
151.2112607361
  0
LINE
  5
2DE
100
AcDbEntity
  8
0
100
AcDbLine
 62
7
  6
CONTINUOUS
 10
231.9019205394
 20
151.2599772462
 11
230.931206687
 21
152.2306910986
  0
LINE
  5
2DF
100
AcDbEntity
  8
0
100
AcDbLine
 62
7
  6
CONTINUOUS
 10
231.110612415
 20
152.4399917763
 11
232.1112212171
 21
151.4393829742
  0
LINE
  5
2E0
100
AcDbEntity
  8
0
100
AcDbLine
 62
7
  6
CONTINUOUS
 10
230.9167808715
 20
152.2461602328
 11
230.931206687
 21
152.2306910986
  0
LWPOLYLINE
  5
2E1
100
AcDbEntity
  8
0
100
AcDbPolyline
 62
7
  6
CONTINUOUS
 90
3
 70
0
 43
0.3500000006
 10
79.9547964478
 20
172.9802074585
 10
80.8119343872
 20
173.8373453979
 10
80.8119343872
 20
170.8373444824
  0
LWPOLYLINE
  5
2E2
100
AcDbEntity
  8
0
100
AcDbPolyline
 62
7
  6
CONTINUOUS
 90
3
 70
0
 43
0.3500000006
 10
85.7405047302
 20
172.9802074585
 10
86.5976517334
 20
173.8373453979
 10
86.5976517334
 20
170.8373444824
  0
LWPOLYLINE
  5
2E3
100
AcDbEntity
  8
0
100
AcDbPolyline
 62
7
  6
CONTINUOUS
 90
3
 70
0
 43
0.3500000006
 10
86.6357465515
 20
165.480812439
 10
87.4928935547
 20
166.3379503784
 10
87.4928935547
 20
163.3379494629
  0
LINE
  5
2E4
100
AcDbEntity
  8
0
100
AcDbLine
 62
7
  6
CONTINUOUS
 10
92.7010494783
 20
62.6338233198
 11
98.2516586513
 21
62.4399917763
  0
LINE
  5
2E5
100
AcDbEntity
  8
0
100
AcDbLine
 62
7
  6
CONTINUOUS
 10
92.7010494783
 20
63.6344321219
 11
98.2516586513
 21
63.4406005784
  0
LINE
  5
2E6
100
AcDbEntity
  8
0
100
AcDbLine
 62
7
  6
CONTINUOUS
 10
98.2516586513
 20
64.6819478635
 11
98.8516586513
 21
64.6399917763
  0
LINE
  5
2E7
100
AcDbEntity
  8
0
100
AcDbLine
 62
7
  6
CONTINUOUS
 10
91.7016586513
 20
150.8167291865
 11
92.6861111091
 21
151.2599772462
  0
LINE
  5
2E8
100
AcDbEntity
  8
0
100
AcDbLine
 62
250
  6
CONTINUOUS
 10
98.2516586513
 20
65.9787811288
 11
98.8516586513
 21
65.9368250417
  0
LINE
  5
2E9
100
AcDbEntity
  8
0
100
AcDbLine
 62
7
  6
CONTINUOUS
 10
91.7016586513
 20
64.0632543661
 11
92.6861111091
 21
63.6200063064
  0
LINE
  5
2EA
100
AcDbEntity
  8
0
100
AcDbLine
 62
7
  6
CONTINUOUS
 10
91.7016586513
 20
151.2112607361
 11
92.7010494783
 21
152.2461602328
  0
LINE
  5
2EB
100
AcDbEntity
  8
0
100
AcDbLine
 62
7
  6
CONTINUOUS
 10
91.7016586513
 20
63.6687228165
 11
92.7010494783
 21
62.6338233198
  0
LWPOLYLINE
  5
2EC
100
AcDbEntity
  8
0
100
AcDbPolyline
 62
7
  6
CONTINUOUS
 90
3
 70
0
 43
0.3500000006
 10
84.740504425
 20
171.1230692139
 10
84.6690823059
 20
170.908784729
 10
84.5262199402
 20
170.6230599976
  0
LWPOLYLINE
  5
2ED
100
AcDbEntity
  8
0
100
AcDbPolyline
 62
7
  6
CONTINUOUS
 90
3
 70
0
 43
0.3500000006
 10
85.6357462463
 20
163.6236741943
 10
85.5643150635
 20
163.4093897095
 10
85.4214617615
 20
163.123664978
  0
LINE
  5
2EE
100
AcDbEntity
  8
0
100
AcDbLine
 62
7
  6
CONTINUOUS
 10
99.7774958023
 20
80.2898623376
 11
98.8516586513
 21
80.2882464453
  0
LINE
  5
2EF
100
AcDbEntity
  8
0
100
AcDbLine
 62
250
  6
CONTINUOUS
 10
99.7774312351
 20
80.5123125324
 11
98.8516586513
 21
80.5118943379
  0
LINE
  5
2F0
100
AcDbEntity
  8
0
100
AcDbLine
 62
7
  6
CONTINUOUS
 10
101.3017078835
 20
81.098427916
 11
98.8516586513
 21
81.0841739465
  0
LINE
  5
2F1
100
AcDbEntity
  8
0
100
AcDbLine
 62
250
  6
CONTINUOUS
 10
101.3017078835
 20
81.1862943946
 11
98.8516586513
 21
81.1720404251
  0
LINE
  5
2F2
100
AcDbEntity
  8
0
100
AcDbLine
 62
7
  6
CONTINUOUS
 10
99.8017830302
 20
82.2399917763
 11
98.8516586513
 21
82.2399917763
  0
LINE
  5
2F3
100
AcDbEntity
  8
0
100
AcDbLine
 62
7
  6
CONTINUOUS
 10
98.8516586513
 20
82.3899917763
 11
99.0016586513
 21
82.3899917763
  0
LINE
  5
2F4
100
AcDbEntity
  8
0
100
AcDbLine
 62
7
  6
CONTINUOUS
 10
99.3016586513
 20
82.3899917763
 11
99.5016586513
 21
82.3899917763
  0
LINE
  5
2F5
100
AcDbEntity
  8
0
100
AcDbLine
 62
7
  6
CONTINUOUS
 10
98.8516586513
 20
81.6841719018
 11
101.6621258426
 21
81.5600051087
  0
LINE
  5
2F6
100
AcDbEntity
  8
0
100
AcDbLine
 62
7
  6
CONTINUOUS
 10
99.9012867492
 20
82.2350289665
 11
101.8516586513
 21
82.0399917763
  0
LWPOLYLINE
  5
2F7
100
AcDbEntity
  8
0
100
AcDbPolyline
 62
250
  6
CONTINUOUS
 90
4
 70
0
 10
101.3542732072
 20
133.7340886421
 10
101.3370961351
 20
133.7229858928
 10
101.3195171138
 20
133.7094797989
 10
101.3017078835
 20
133.693689158
  0
LWPOLYLINE
  5
2F8
100
AcDbEntity
  8
0
100
AcDbPolyline
 62
250
  6
CONTINUOUS
 90
4
 70
0
 10
101.3541898759
 20
81.1459435347
 10
101.3370071198
 20
81.157060703
 10
101.3194556423
 20
81.1705546489
 10
101.3017078835
 20
81.1862943946
  0
LWPOLYLINE
  5
2F9
100
AcDbEntity
  8
0
100
AcDbPolyline
 62
7
  6
CONTINUOUS
 90
13
 70
0
 43
0.3500000006
 10
81.6690813904
 20
171.6944824219
 10
81.6690813904
 20
172.9802074585
 10
81.8833658752
 20
173.4087764282
 10
82.311934845
 20
173.8373453979
 10
82.5262193298
 20
173.8373453979
 10
82.9547882996
 20
173.4087764282
 10
83.1690818481
 20
172.9802074585
 10
83.1690818481
 20
171.6944824219
 10
82.9547882996
 20
171.2659134521
 10
82.5262193298
 20
170.8373444824
 10
82.311934845
 20
170.8373444824
 10
81.8833658752
 20
171.2659134521
 10
81.6690813904
 20
171.6944824219
  0
LINE
  5
2FA
100
AcDbEntity
  8
0
100
AcDbLine
 62
7
  6
CONTINUOUS
 10
99.0016586513
 20
132.4899917763
 11
99.1516586513
 21
132.6399917763
  0
LINE
  5
2FB
100
AcDbEntity
  8
0
100
AcDbLine
 62
7
  6
CONTINUOUS
 10
99.5016586513
 20
132.4899917763
 11
99.6516586513
 21
132.6399917763
  0
LINE
  5
2FC
100
AcDbEntity
  8
0
100
AcDbLine
 62
7
  6
CONTINUOUS
 10
99.0016586513
 20
82.3899917763
 11
99.1516586513
 21
82.2399917763
  0
LINE
  5
2FD
100
AcDbEntity
  8
0
100
AcDbLine
 62
7
  6
CONTINUOUS
 10
99.5016586513
 20
82.3899917763
 11
99.6516586513
 21
82.2399917763
  0
LWPOLYLINE
  5
2FE
100
AcDbEntity
  8
0
100
AcDbPolyline
 62
7
  6
CONTINUOUS
 90
4
 70
0
 43
0.3500000006
 10
82.5643232117
 20
165.6950969238
 10
82.5643232117
 20
166.3379503784
 10
84.0643236694
 20
166.3379503784
 10
83.2071766663
 20
163.3379494629
  0
LWPOLYLINE
  5
2FF
100
AcDbEntity
  8
0
100
AcDbPolyline
 62
250
  6
CONTINUOUS
 90
9
 70
0
 10
99.8715914878
 20
80.3653915738
 10
99.8788521608
 20
80.3561963991
 10
99.8858980471
 20
80.3477976881
 10
99.8926449547
 20
80.3403674271
 10
99.8989675734
 20
80.3341199413
 10
99.9047422042
 20
80.329257979
 10
99.9098475278
 20
80.3259814511
 10
99.914163702
 20
80.3244889338
 10
99.917564885
 20
80.3249759802
  0
LWPOLYLINE
  5
300
100
AcDbEntity
  8
0
100
AcDbPolyline
 62
250
  6
CONTINUOUS
 90
19
 70
0
 10
99.7774312351
 20
134.3676710202
 10
99.785389123
 20
134.3814861442
 10
99.7936999757
 20
134.3956841001
 10
99.80233032
 20
134.4101717566
 10
99.8112475058
 20
134.4248611503
 10
99.8203915321
 20
134.4396077984
 10
99.829676501
 20
134.4542178005
 10
99.8390296344
 20
134.468531575
 10
99.8483804486
 20
134.4824034204
 10
99.8576356501
 20
134.4956492795
 10
99.8667313344
 20
134.5081264125
 10
99.8755315487
 20
134.5195925575
 10
99.8838425327
 20
134.529747754
 10
99.891588667
 20
134.5384519333
 10
99.8986511294
 20
134.5455268198
 10
99.9048307069
 20
134.5507557573
 10
99.9100499785
 20
134.5540812837
 10
99.9143063444
 20
134.5555045421
 10
99.917564885
 20
134.5550075724
  0
LWPOLYLINE
  5
301
100
AcDbEntity
  8
0
100
AcDbPolyline
 62
7
  6
CONTINUOUS
 90
7
 70
0
 10
101.8237997363
 20
81.4634300588
 10
101.8320696971
 20
81.4493778964
 10
101.8389808879
 20
81.4362962605
 10
101.8444566786
 20
81.4241851513
 10
101.8484302857
 20
81.4130445686
 10
101.8508457159
 20
81.4028745126
 10
101.8516586513
 20
81.3936749831
  0
LWPOLYLINE
  5
302
100
AcDbEntity
  8
0
100
AcDbPolyline
 62
250
  6
CONTINUOUS
 90
14
 70
0
 10
99.7774312351
 20
80.5123125324
 10
99.7842044139
 20
80.5005191191
 10
99.7910843659
 20
80.4887037339
 10
99.7980541058
 20
80.4769052926
 10
99.8050574837
 20
80.465224707
 10
99.8121123264
 20
80.4536435808
 10
99.8193063548
 20
80.4420409259
 10
99.8266250432
 20
80.4304637423
 10
99.834020168
 20
80.4190077513
 10
99.8415153996
 20
80.4076621048
 10
99.8490720635
 20
80.3965165626
 10
99.8566291345
 20
80.3856944426
 10
99.8641602212
 20
80.3752711375
 10
99.8715914878
 20
80.3653915738
  0
LINE
  5
303
100
AcDbEntity
  8
0
100
AcDbLine
 62
7
  6
CONTINUOUS
 10
91.7016586513
 20
63.6687228165
 11
91.7016586513
 21
151.2112607361
  0
LINE
  5
304
100
AcDbEntity
  8
0
100
AcDbLine
 62
7
  6
CONTINUOUS
 10
92.6861111091
 20
62.649292454
 11
92.6861111091
 21
63.6200063064
  0
LINE
  5
305
100
AcDbEntity
  8
0
100
AcDbLine
 62
7
  6
CONTINUOUS
 10
92.6861111091
 20
151.2599772462
 11
92.6861111091
 21
152.2306910986
  0
LINE
  5
306
100
AcDbEntity
  8
0
100
AcDbLine
 62
7
  6
CONTINUOUS
 10
92.7010494783
 20
63.6344321219
 11
92.7010494783
 21
151.2455514307
  0
LINE
  5
307
100
AcDbEntity
  8
0
100
AcDbLine
 62
7
  6
CONTINUOUS
 10
98.2516586513
 20
62.4399917763
 11
98.2516586513
 21
152.4399917763
  0
LINE
  5
308
100
AcDbEntity
  8
0
100
AcDbLine
 62
7
  6
CONTINUOUS
 10
98.8516586513
 20
64.6399917763
 11
98.8516586513
 21
150.2399917763
  0
LINE
  5
309
100
AcDbEntity
  8
0
100
AcDbLine
 62
250
  6
CONTINUOUS
 10
99.77749601
 20
80.2902140645
 11
99.7774312351
 21
80.5123125324
  0
LINE
  5
30A
100
AcDbEntity
  8
0
100
AcDbLine
 62
250
  6
CONTINUOUS
 10
99.7774312351
 20
134.3676710202
 11
99.7774958573
 21
134.5897678215
  0
LWPOLYLINE
  5
30B
100
AcDbEntity
  8
0
100
AcDbPolyline
 62
7
  6
CONTINUOUS
 90
7
 70
0
 10
101.8516586513
 20
133.4863085695
 10
101.8508458666
 20
133.4771101129
 10
101.8484307648
 20
133.4669407005
 10
101.8444574796
 20
133.4558003324
 10
101.838981826
 20
133.4436890086
 10
101.8320704194
 20
133.4306067291
 10
101.8237997363
 20
133.4165534938
  0
LWPOLYLINE
  5
30C
100
AcDbEntity
  8
0
100
AcDbPolyline
 62
250
  6
CONTINUOUS
 90
3
 70
0
 10
101.301806904
 20
133.7769970622
 10
101.3017642499
 20
133.7804136457
 10
101.3017078835
 20
133.7815556367
  0
LINE
  5
30D
100
AcDbEntity
  8
0
100
AcDbLine
 62
250
  6
CONTINUOUS
 10
101.3018498825
 20
133.7634608234
 11
101.301806904
 21
133.7769970622
  0
LINE
  5
30E
100
AcDbEntity
  8
0
100
AcDbLine
 62
250
  6
CONTINUOUS
 10
101.3018498825
 20
81.1165227292
 11
101.3017078835
 21
81.1862943946
  0
LINE
  5
30F
100
AcDbEntity
  8
0
100
AcDbLine
 62
250
  6
CONTINUOUS
 10
101.6621258426
 20
133.319978444
 11
101.6621258426
 21
132.8210384954
  0
LINE
  5
310
100
AcDbEntity
  8
0
100
AcDbLine
 62
250
  6
CONTINUOUS
 10
101.6621258426
 20
82.0589450572
 11
101.6621258426
 21
81.5600051087
  0
LINE
  5
311
100
AcDbEntity
  8
0
100
AcDbLine
 62
7
  6
CONTINUOUS
 10
101.8516586513
 20
133.5283561167
 11
101.8516586513
 21
132.8399917763
  0
LINE
  5
312
100
AcDbEntity
  8
0
100
AcDbLine
 62
7
  6
CONTINUOUS
 10
101.8516586513
 20
82.0399917763
 11
101.8516586513
 21
81.3516274359
  0
LINE
  5
313
100
AcDbEntity
  8
0
100
AcDbLine
 62
250
  6
CONTINUOUS
 10
101.3017078835
 20
133.693689158
 11
101.3018498825
 21
133.7634608234
  0
LWPOLYLINE
  5
314
100
AcDbEntity
  8
0
100
AcDbPolyline
 62
250
  6
CONTINUOUS
 90
4
 70
0
 10
101.3017078835
 20
81.098427916
 10
101.3017642499
 20
81.099569907
 10
101.301806904
 20
81.1029864904
 10
101.3018498825
 20
81.1165227292
  0
LWPOLYLINE
  5
315
100
AcDbEntity
  8
0
100
AcDbPolyline
 62
7
  6
CONTINUOUS
 90
10
 70
0
 43
0.3500000006
 10
85.5643150635
 20
163.8379586792
 10
85.6357462463
 20
163.6950963135
 10
85.6357462463
 20
163.6236741943
 10
85.4928929443
 20
163.4808118286
 10
85.4214617615
 20
163.4808118286
 10
85.3500305786
 20
163.5522339478
 10
85.3500305786
 20
163.6236741943
 10
85.4214617615
 20
163.7665365601
 10
85.4928929443
 20
163.8379586792
 10
85.5643150635
 20
163.8379586792
  0
LWPOLYLINE
  5
316
100
AcDbEntity
  8
0
100
AcDbPolyline
 62
7
  6
CONTINUOUS
 90
10
 70
0
 43
0.3500000006
 10
84.6690823059
 20
171.3373536987
 10
84.740504425
 20
171.194491333
 10
84.740504425
 20
171.1230692139
 10
84.597651123
 20
170.9802068481
 10
84.5262199402
 20
170.9802068481
 10
84.4547887573
 20
171.0516289673
 10
84.4547887573
 20
171.1230692139
 10
84.5262199402
 20
171.2659134521
 10
84.597651123
 20
171.3373536987
 10
84.6690823059
 20
171.3373536987
  0
LINE
  5
317
100
AcDbEntity
  8
0
100
AcDbLine
 62
7
  6
CONTINUOUS
 10
99.1516586513
 20
82.2399917763
 11
99.3016586513
 21
82.3899917763
  0
LINE
  5
318
100
AcDbEntity
  8
0
100
AcDbLine
 62
7
  6
CONTINUOUS
 10
99.1516586513
 20
132.6399917763
 11
99.3016586513
 21
132.4899917763
  0
LINE
  5
319
100
AcDbEntity
  8
0
100
AcDbLine
 62
250
  6
CONTINUOUS
 10
99.7774312351
 20
80.5123125324
 11
100.8769500949
 21
81.0959567474
  0
LINE
  5
31A
100
AcDbEntity
  8
0
100
AcDbLine
 62
250
  6
CONTINUOUS
 10
101.3017078835
 20
81.1862943946
 11
101.8237997363
 21
81.4634300588
  0
LINE
  5
31B
100
AcDbEntity
  8
0
100
AcDbLine
 62
7
  6
CONTINUOUS
 10
99.9166706131
 20
80.3245012848
 11
101.8516586513
 21
81.3516274359
  0
LWPOLYLINE
  5
31C
100
AcDbEntity
  8
0
100
AcDbPolyline
 62
250
  6
CONTINUOUS
 90
7
 70
0
 10
101.4406198126
 20
81.1334406916
 10
101.4289260366
 20
81.1289042613
 10
101.4159663262
 20
81.1270196602
 10
101.401868905
 20
81.1278037188
 10
101.3867754705
 20
81.1312462786
 10
101.3708327629
 20
81.1373117446
 10
101.3541898759
 20
81.1459435347
  0
LINE
  5
31D
100
AcDbEntity
  8
0
100
AcDbLine
 62
7
  6
CONTINUOUS
 10
99.9012867492
 20
132.6449545861
 11
101.8516586513
 21
132.8399917763
  0
LINE
  5
31E
100
AcDbEntity
  8
0
100
AcDbLine
 62
7
  6
CONTINUOUS
 10
98.8516586513
 20
133.1958116509
 11
101.6621258426
 21
133.319978444
  0
LINE
  5
31F
100
AcDbEntity
  8
0
100
AcDbLine
 62
7
  6
CONTINUOUS
 10
98.8516586513
 20
132.4899917763
 11
99.0016586513
 21
132.4899917763
  0
LINE
  5
320
100
AcDbEntity
  8
0
100
AcDbLine
 62
7
  6
CONTINUOUS
 10
99.3016586513
 20
132.4899917763
 11
99.5016586513
 21
132.4899917763
  0
LINE
  5
321
100
AcDbEntity
  8
0
100
AcDbLine
 62
7
  6
CONTINUOUS
 10
98.8516586513
 20
132.6399917763
 11
99.8017830302
 21
132.6399917763
  0
LINE
  5
322
100
AcDbEntity
  8
0
100
AcDbLine
 62
250
  6
CONTINUOUS
 10
99.7774312351
 20
134.3676710202
 11
98.8516586513
 21
134.3680892148
  0
LINE
  5
323
100
AcDbEntity
  8
0
100
AcDbLine
 62
7
  6
CONTINUOUS
 10
99.7774958023
 20
134.590121215
 11
98.8516586513
 21
134.5917371073
  0
LINE
  5
324
100
AcDbEntity
  8
0
100
AcDbLine
 62
250
  6
CONTINUOUS
 10
101.3017078835
 20
133.693689158
 11
98.8516586513
 21
133.7079431275
  0
LINE
  5
325
100
AcDbEntity
  8
0
100
AcDbLine
 62
7
  6
CONTINUOUS
 10
101.3017078835
 20
133.7815556367
 11
98.8516586513
 21
133.7958096061
  0
LWPOLYLINE
  5
326
100
AcDbEntity
  8
0
100
AcDbPolyline
 62
250
  6
CONTINUOUS
 90
7
 70
0
 10
101.4406198126
 20
133.746542861
 10
101.4288732292
 20
133.7510930164
 10
101.4158780165
 20
133.7529674248
 10
101.4017706877
 20
133.7521655528
 10
101.386719738
 20
133.7487201841
 10
101.3708586776
 20
133.7426834931
 10
101.3542732072
 20
133.7340886421
  0
LINE
  5
327
100
AcDbEntity
  8
0
100
AcDbLine
 62
250
  6
CONTINUOUS
 10
100.8769500949
 20
133.7840268052
 11
99.7774312351
 21
134.3676710202
  0
LINE
  5
328
100
AcDbEntity
  8
0
100
AcDbLine
 62
250
  6
CONTINUOUS
 10
101.8237997363
 20
133.4165534938
 11
101.3017078835
 21
133.693689158
  0
LINE
  5
329
100
AcDbEntity
  8
0
100
AcDbLine
 62
7
  6
CONTINUOUS
 10
99.9166706131
 20
134.5554822679
 11
101.8516586513
 21
133.5283561167
  0
LINE
  5
32A
100
AcDbEntity
  8
0
100
AcDbLine
 62
7
  6
CONTINUOUS
 10
92.7010494783
 20
63.6344321219
 11
92.6861111091
 21
63.6200063064
  0
LINE
  5
32B
100
AcDbEntity
  8
0
100
AcDbLine
 62
7
  6
CONTINUOUS
 10
92.6861111091
 20
151.2599772462
 11
92.7010494783
 21
151.2455514307
  0
LINE
  5
32C
100
AcDbEntity
  8
0
100
AcDbLine
 62
250
  6
CONTINUOUS
 10
98.2516586513
 20
148.9012024238
 11
98.8516586513
 21
148.943158511
  0
LINE
  5
32D
100
AcDbEntity
  8
0
100
AcDbLine
 62
7
  6
CONTINUOUS
 10
98.2516586513
 20
150.1980356891
 11
98.8516586513
 21
150.2399917763
  0
LINE
  5
32E
100
AcDbEntity
  8
0
100
AcDbLine
 62
7
  6
CONTINUOUS
 10
92.7010494783
 20
151.2455514307
 11
98.2516586513
 21
151.4393829742
  0
LINE
  5
32F
100
AcDbEntity
  8
0
100
AcDbLine
 62
7
  6
CONTINUOUS
 10
92.7010494783
 20
152.2461602328
 11
98.2516586513
 21
152.4399917763
  0
LWPOLYLINE
  5
330
100
AcDbEntity
  8
0
100
AcDbPolyline
 62
7
  6
CONTINUOUS
 90
8
 70
0
 43
0.3500000006
 10
88.3500314941
 20
163.3379494629
 10
89.2071784973
 20
163.3379494629
 10
89.635747467
 20
163.7665365601
 10
89.635747467
 20
164.6236744995
 10
89.2071784973
 20
165.0522434692
 10
88.3500314941
 20
165.0522434692
 10
88.3500314941
 20
166.3379503784
 10
89.635747467
 20
166.3379503784
  0
LWPOLYLINE
  5
331
100
AcDbEntity
  8
0
100
AcDbPolyline
 62
7
  6
CONTINUOUS
 90
8
 70
0
 43
0.3500000006
 10
87.4547896729
 20
170.8373444824
 10
88.311936676
 20
170.8373444824
 10
88.7405056458
 20
171.2659134521
 10
88.7405056458
 20
172.123069519
 10
88.311936676
 20
172.5516384888
 10
87.4547896729
 20
172.5516384888
 10
87.4547896729
 20
173.8373453979
 10
88.7405056458
 20
173.8373453979
  0
ARC
  5
332
100
AcDbEntity
  8
0
100
AcDbCircle
 62
7
  6
CONTINUOUS
 10
180.4112212171
 20
103.8899917763
 40
1.7
100
AcDbArc
 50
90.0
 51
180.0
  0
ARC
  5
333
100
AcDbEntity
  8
0
100
AcDbCircle
 62
7
  6
CONTINUOUS
 10
180.4112212171
 20
90.4899917763
 40
1.7
100
AcDbArc
 50
180.0
 51
270.0
  0
ARC
  5
334
100
AcDbEntity
  8
0
100
AcDbCircle
 62
7
  6
CONTINUOUS
 10
157.9112212171
 20
103.8899917763
 40
1.7
100
AcDbArc
 50
90.0
 51
180.0
  0
ARC
  5
335
100
AcDbEntity
  8
0
100
AcDbCircle
 62
7
  6
CONTINUOUS
 10
157.9112212171
 20
90.4899917763
 40
1.7
100
AcDbArc
 50
180.0
 51
270.0
  0
ARC
  5
336
100
AcDbEntity
  8
0
100
AcDbCircle
 62
7
  6
CONTINUOUS
 10
171.3112212171
 20
90.4899917763
 40
1.7
100
AcDbArc
 50
270.0
 51
360.0
  0
ARC
  5
337
100
AcDbEntity
  8
0
100
AcDbCircle
 62
7
  6
CONTINUOUS
 10
171.3112212171
 20
103.8899917763
 40
1.7
100
AcDbArc
 50
0.0
 51
90.0
  0
ARC
  5
338
100
AcDbEntity
  8
0
100
AcDbCircle
 62
7
  6
CONTINUOUS
 10
157.9112212171
 20
90.4899917763
 40
1.2
100
AcDbArc
 50
180.0
 51
270.0
  0
ARC
  5
339
100
AcDbEntity
  8
0
100
AcDbCircle
 62
7
  6
CONTINUOUS
 10
171.3112212171
 20
90.4899917763
 40
1.2
100
AcDbArc
 50
270.0
 51
360.0
  0
ARC
  5
33A
100
AcDbEntity
  8
0
100
AcDbCircle
 62
7
  6
CONTINUOUS
 10
157.9112212171
 20
103.8899917763
 40
1.2
100
AcDbArc
 50
90.0
 51
180.0
  0
ARC
  5
33B
100
AcDbEntity
  8
0
100
AcDbCircle
 62
7
  6
CONTINUOUS
 10
171.3112212171
 20
103.8899917763
 40
1.2
100
AcDbArc
 50
0.0
 51
90.0
  0
ARC
  5
33C
100
AcDbEntity
  8
0
100
AcDbCircle
 62
7
  6
CONTINUOUS
 10
180.4112212171
 20
90.4899917763
 40
1.2
100
AcDbArc
 50
180.0
 51
270.0
  0
ARC
  5
33D
100
AcDbEntity
  8
0
100
AcDbCircle
 62
7
  6
CONTINUOUS
 10
180.4112212171
 20
103.8899917763
 40
1.2
100
AcDbArc
 50
90.0
 51
180.0
  0
ARC
  5
33E
100
AcDbEntity
  8
0
100
AcDbCircle
 62
7
  6
CONTINUOUS
 10
157.9112212171
 20
124.3899917763
 40
1.7
100
AcDbArc
 50
90.0
 51
180.0
  0
ARC
  5
33F
100
AcDbEntity
  8
0
100
AcDbCircle
 62
7
  6
CONTINUOUS
 10
157.9112212171
 20
110.9899917763
 40
1.7
100
AcDbArc
 50
180.0
 51
270.0
  0
ARC
  5
340
100
AcDbEntity
  8
0
100
AcDbCircle
 62
7
  6
CONTINUOUS
 10
171.3112212171
 20
110.9899917763
 40
1.7
100
AcDbArc
 50
270.0
 51
360.0
  0
ARC
  5
341
100
AcDbEntity
  8
0
100
AcDbCircle
 62
7
  6
CONTINUOUS
 10
171.3112212171
 20
124.3899917763
 40
1.7
100
AcDbArc
 50
0.0
 51
90.0
  0
ARC
  5
342
100
AcDbEntity
  8
0
100
AcDbCircle
 62
7
  6
CONTINUOUS
 10
180.4112212171
 20
124.3899917763
 40
1.7
100
AcDbArc
 50
90.0
 51
180.0
  0
ARC
  5
343
100
AcDbEntity
  8
0
100
AcDbCircle
 62
7
  6
CONTINUOUS
 10
180.4112212171
 20
110.9899917763
 40
1.7
100
AcDbArc
 50
180.0
 51
270.0
  0
ARC
  5
344
100
AcDbEntity
  8
0
100
AcDbCircle
 62
7
  6
CONTINUOUS
 10
157.9112212171
 20
124.3899917763
 40
1.2
100
AcDbArc
 50
90.0
 51
180.0
  0
ARC
  5
345
100
AcDbEntity
  8
0
100
AcDbCircle
 62
7
  6
CONTINUOUS
 10
171.3112212171
 20
124.3899917763
 40
1.2
100
AcDbArc
 50
0.0
 51
90.0
  0
ARC
  5
346
100
AcDbEntity
  8
0
100
AcDbCircle
 62
7
  6
CONTINUOUS
 10
157.9112212171
 20
110.9899917763
 40
1.2
100
AcDbArc
 50
180.0
 51
270.0
  0
ARC
  5
347
100
AcDbEntity
  8
0
100
AcDbCircle
 62
7
  6
CONTINUOUS
 10
171.3112212171
 20
110.9899917763
 40
1.2
100
AcDbArc
 50
270.0
 51
360.0
  0
ARC
  5
348
100
AcDbEntity
  8
0
100
AcDbCircle
 62
7
  6
CONTINUOUS
 10
180.4112212171
 20
124.3899917763
 40
1.2
100
AcDbArc
 50
90.0
 51
180.0
  0
ARC
  5
349
100
AcDbEntity
  8
0
100
AcDbCircle
 62
7
  6
CONTINUOUS
 10
180.4112212171
 20
110.9899917763
 40
1.2
100
AcDbArc
 50
180.0
 51
270.0
  0
ARC
  5
34A
100
AcDbEntity
  8
0
100
AcDbCircle
 62
7
  6
CONTINUOUS
 10
202.9112212171
 20
103.8899917763
 40
1.7
100
AcDbArc
 50
90.0
 51
180.0
  0
ARC
  5
34B
100
AcDbEntity
  8
0
100
AcDbCircle
 62
7
  6
CONTINUOUS
 10
202.9112212171
 20
90.4899917763
 40
1.7
100
AcDbArc
 50
180.0
 51
270.0
  0
ARC
  5
34C
100
AcDbEntity
  8
0
100
AcDbCircle
 62
7
  6
CONTINUOUS
 10
216.3112212171
 20
90.4899917763
 40
1.7
100
AcDbArc
 50
270.0
 51
360.0
  0
ARC
  5
34D
100
AcDbEntity
  8
0
100
AcDbCircle
 62
7
  6
CONTINUOUS
 10
216.3112212171
 20
103.8899917763
 40
1.7
100
AcDbArc
 50
0.0
 51
90.0
  0
ARC
  5
34E
100
AcDbEntity
  8
0
100
AcDbCircle
 62
7
  6
CONTINUOUS
 10
193.8112212171
 20
90.4899917763
 40
1.7
100
AcDbArc
 50
270.0
 51
360.0
  0
ARC
  5
34F
100
AcDbEntity
  8
0
100
AcDbCircle
 62
7
  6
CONTINUOUS
 10
193.8112212171
 20
103.8899917763
 40
1.7
100
AcDbArc
 50
0.0
 51
90.0
  0
ARC
  5
350
100
AcDbEntity
  8
0
100
AcDbCircle
 62
7
  6
CONTINUOUS
 10
193.8112212171
 20
90.4899917763
 40
1.2
100
AcDbArc
 50
270.0
 51
360.0
  0
ARC
  5
351
100
AcDbEntity
  8
0
100
AcDbCircle
 62
7
  6
CONTINUOUS
 10
193.8112212171
 20
103.8899917763
 40
1.2
100
AcDbArc
 50
0.0
 51
90.0
  0
ARC
  5
352
100
AcDbEntity
  8
0
100
AcDbCircle
 62
7
  6
CONTINUOUS
 10
202.9112212171
 20
90.4899917763
 40
1.2
100
AcDbArc
 50
180.0
 51
270.0
  0
ARC
  5
353
100
AcDbEntity
  8
0
100
AcDbCircle
 62
7
  6
CONTINUOUS
 10
216.3112212171
 20
90.4899917763
 40
1.2
100
AcDbArc
 50
270.0
 51
360.0
  0
ARC
  5
354
100
AcDbEntity
  8
0
100
AcDbCircle
 62
7
  6
CONTINUOUS
 10
202.9112212171
 20
103.8899917763
 40
1.2
100
AcDbArc
 50
90.0
 51
180.0
  0
ARC
  5
355
100
AcDbEntity
  8
0
100
AcDbCircle
 62
7
  6
CONTINUOUS
 10
216.3112212171
 20
103.8899917763
 40
1.2
100
AcDbArc
 50
0.0
 51
90.0
  0
ARC
  5
356
100
AcDbEntity
  8
0
100
AcDbCircle
 62
7
  6
CONTINUOUS
 10
193.8112212171
 20
110.9899917763
 40
1.7
100
AcDbArc
 50
270.0
 51
360.0
  0
ARC
  5
357
100
AcDbEntity
  8
0
100
AcDbCircle
 62
7
  6
CONTINUOUS
 10
193.8112212171
 20
124.3899917763
 40
1.7
100
AcDbArc
 50
0.0
 51
90.0
  0
ARC
  5
358
100
AcDbEntity
  8
0
100
AcDbCircle
 62
7
  6
CONTINUOUS
 10
202.9112212171
 20
124.3899917763
 40
1.7
100
AcDbArc
 50
90.0
 51
180.0
  0
ARC
  5
359
100
AcDbEntity
  8
0
100
AcDbCircle
 62
7
  6
CONTINUOUS
 10
202.9112212171
 20
110.9899917763
 40
1.7
100
AcDbArc
 50
180.0
 51
270.0
  0
ARC
  5
35A
100
AcDbEntity
  8
0
100
AcDbCircle
 62
7
  6
CONTINUOUS
 10
216.3112212171
 20
110.9899917763
 40
1.7
100
AcDbArc
 50
270.0
 51
360.0
  0
ARC
  5
35B
100
AcDbEntity
  8
0
100
AcDbCircle
 62
7
  6
CONTINUOUS
 10
216.3112212171
 20
124.3899917763
 40
1.7
100
AcDbArc
 50
0.0
 51
90.0
  0
ARC
  5
35C
100
AcDbEntity
  8
0
100
AcDbCircle
 62
7
  6
CONTINUOUS
 10
193.8112212171
 20
124.3899917763
 40
1.2
100
AcDbArc
 50
0.0
 51
90.0
  0
ARC
  5
35D
100
AcDbEntity
  8
0
100
AcDbCircle
 62
7
  6
CONTINUOUS
 10
193.8112212171
 20
110.9899917763
 40
1.2
100
AcDbArc
 50
270.0
 51
360.0
  0
ARC
  5
35E
100
AcDbEntity
  8
0
100
AcDbCircle
 62
7
  6
CONTINUOUS
 10
202.9112212171
 20
124.3899917763
 40
1.2
100
AcDbArc
 50
90.0
 51
180.0
  0
ARC
  5
35F
100
AcDbEntity
  8
0
100
AcDbCircle
 62
7
  6
CONTINUOUS
 10
216.3112212171
 20
124.3899917763
 40
1.2
100
AcDbArc
 50
0.0
 51
90.0
  0
ARC
  5
360
100
AcDbEntity
  8
0
100
AcDbCircle
 62
7
  6
CONTINUOUS
 10
202.9112212171
 20
110.9899917763
 40
1.2
100
AcDbArc
 50
180.0
 51
270.0
  0
ARC
  5
361
100
AcDbEntity
  8
0
100
AcDbCircle
 62
7
  6
CONTINUOUS
 10
216.3112212171
 20
110.9899917763
 40
1.2
100
AcDbArc
 50
270.0
 51
360.0
  0
ARC
  5
362
100
AcDbEntity
  8
0
100
AcDbCircle
 62
7
  6
CONTINUOUS
 10
99.8017830302
 20
133.6399917763
 40
1.0
100
AcDbArc
 50
270.0
 51
275.7105931375
  0
ARC
  5
363
100
AcDbEntity
  8
0
100
AcDbCircle
 62
7
  6
CONTINUOUS
 10
99.8017830302
 20
81.2399917763
 40
1.0
100
AcDbArc
 50
84.2894068625
 51
90.0
  0
ARC
  5
364
100
AcDbEntity
  8
0
100
AcDbCircle
 62
7
  6
CONTINUOUS
 10
99.7769719762
 20
134.2899912723
 40
0.3
100
AcDbArc
 50
62.0510370175
 51
89.8999998573
  0
ARC
  5
365
100
AcDbEntity
  8
0
100
AcDbCircle
 62
7
  6
CONTINUOUS
 10
99.7769719762
 20
80.5899922803
 40
0.3
100
AcDbArc
 50
270.1000001427
 51
297.9489629825
  0
ARC
  5
366
100
AcDbEntity
  8
0
100
AcDbCircle
 62
7
  6
CONTINUOUS
 10
101.2999625641
 20
81.398422839
 40
0.3
100
AcDbArc
 50
270.3333333333
 51
297.9601595781
  0
ARC
  5
367
100
AcDbEntity
  8
0
100
AcDbCircle
 62
7
  6
CONTINUOUS
 10
101.2999625641
 20
133.4815607136
 40
0.3
100
AcDbArc
 50
62.0398404207
 51
89.6666666667
  0
ELLIPSE
  5
368
100
AcDbEntity
  8
0
100
AcDbEllipse
 62
7
  6
CONTINUOUS
 10
101.6516586513
 20
81.3601930813
 30
0.0
 11
0.1417119467
 21
0.1422961243
 31
0.0
 40
0.9918061237
 41
-0.2491986107
 42
0.7350951877
  0
ELLIPSE
  5
369
100
AcDbEntity
  8
0
100
AcDbEllipse
 62
7
  6
CONTINUOUS
 10
101.6516586513
 20
133.5197904713
 30
0.0
 11
-0.1417119467
 21
0.1422961243
 31
0.0
 40
0.9918061237
 41
-3.8766878413
 42
-2.8923940429
  0
ENDSEC
  0
SECTION
  2
OBJECTS
  0
DICTIONARY
  5
C
100
AcDbDictionary
280
0
281
1
  3
ACAD_GROUP
350
D
  3
ACAD_MLINESTYLE
350
17
  3
ACAD_LAYOUT
350
1A
  3
ACAD_PLOTSETTINGS
350
19
  3
ACAD_PLOTSTYLENAME
350
E
  0
DICTIONARY
  5
D
102
{ACAD_REACTORS
330
C
102
}
100
AcDbDictionary
280
0
281
1
  0
ACDBDICTIONARYWDFLT
  5
E
102
{ACAD_REACTORS
330
C
102
}
100
AcDbDictionary
281
1
  3
Normal
350
F
100
AcDbDictionaryWithDefault
340
F
  0
DICTIONARY
  5
17
102
{ACAD_REACTORS
330
C
102
}
100
AcDbDictionary
280
0
281
1
  3
Standard
350
18
  0
DICTIONARY
  5
19
102
{ACAD_REACTORS
330
C
102
}
100
AcDbDictionary
281
1
  0
DICTIONARY
  5
1A
102
{ACAD_REACTORS
330
C
102
}
100
AcDbDictionary
281
1
  3
Model
350
36A
  3
Layout1
350
36B
  0
ACDBPLACEHOLDER
  5
F
102
{ACAD_REACTORS
330
E
102
}
  0
MLINESTYLE
  5
18
102
{ACAD_REACTORS
330
17
102
}
100
AcDbMlineStyle
  2
STANDARD
 70
0
  3

 62
256
 51
90.0
 52
90.0
 71
2
 49
0.5
 62
256
  6
BYLAYER
 49
-0.5
 62
256
  6
BYLAYER
  0
LAYOUT
  5
36A
102
{ACAD_REACTORS
330
1A
102
}
100
AcDbPlotSettings
  1

  2
none_device
  4
ISO_A4_(297.00_x_210.00_MM)
  6

 40
0.0
 41
0.0
 42
0.0
 43
0.0
 44
297.0
 45
210.0
 46
0.0
 47
0.0
 48
0.0
 49
0.0
140
0.0
141
0.0
142
1.0
143
1.0
 70
1024
 72
1
 73
0
 74
0
  7

 75
0
147
1.0
148
0.0
149
0.0
100
AcDbLayout
  1
Model
 70
0
 71
0
 10
0.0
 20
0.0
 11
297.0
 21
210.0
 12
0.0
 22
0.0
 32
0.0
 14
0.0
 24
0.0
 34
0.0
 15
0.0
 25
0.0
 35
0.0
146
0.0
 13
0.0
 23
0.0
 33
0.0
 16
1.0
 26
0.0
 36
0.0
 17
0.0
 27
1.0
 37
0.0
 76
0
330
21B
345
0
346
0
  0
LAYOUT
  5
36B
102
{ACAD_REACTORS
330
1A
102
}
100
AcDbPlotSettings
  1

  2
none_device
  4
ISO_A4_(297.00_x_210.00_MM)
  6

 40
0.0
 41
0.0
 42
0.0
 43
0.0
 44
297.0
 45
210.0
 46
0.0
 47
0.0
 48
0.0
 49
0.0
140
0.0
141
0.0
142
1.0
143
1.0
 70
0
 72
1
 73
0
 74
0
  7

 75
0
147
1.0
148
0.0
149
0.0
100
AcDbLayout
  1
Layout1
 70
0
 71
1
 10
0.0
 20
0.0
 11
297.0
 21
210.0
 12
0.0
 22
0.0
 32
0.0
 14
0.0
 24
0.0
 34
0.0
 15
0.0
 25
0.0
 35
0.0
146
0.0
 13
0.0
 23
0.0
 33
0.0
 16
1.0
 26
0.0
 36
0.0
 17
0.0
 27
1.0
 37
0.0
 76
0
330
21C
345
0
346
0
  0
ENDSEC
  0
EOF
