  0
SECTION
  2
HEADER
  9
$ACADVER
  1
AC1024
  9
$DWGCODEPAGE
  3
ANSI_1252
  9
$EXTMAX
 10
297.0
 20
210.0
 30
0.0
  9
$EXTMIN
 10
0.0
 20
0.0
 30
0.0
  9
$LIMMIN
 10
0.0
 20
0.0
  9
$LIMMAX
 10
297.0
 20
210.0
  9
$VIEWCTR
 10
148.5
 20
105.0
  9
$VIEWSIZE
 40
210.0
  9
$CLAYER
  8
0
  9
$LTSCALE
 40
16.335
  9
$CELTYPE
  6
BYLAYER
  9
$DIMSCALE
 40
1.0
  9
$DIMASZ
 40
3.0
  9
$DIMEXO
 40
0.5
  9
$DIMDLI
 40
11.286
  9
$DIMEXE
 40
1.5
  9
$DIMCEN
 40
2.673
  9
$DIMLFAC
 40
1.0
  9
$DIMBLK
  1
_FILLED
  9
$DIMALT
 70
0
  9
$DIMALTF
 40
0.0393700787
  9
$DIMTXT
 40
3.0
  9
$DIMTOL
 70
1
  9
$DIMLIM
 70
0
  9
$DIMTFAC
 40
1.0
  9
$DIMTP
 40
0.01
  9
$DIMTM
 40
0.01
  9
$DIMGAP
 40
0.625
  9
$DIMDSEP
 70
44
  9
$AUNITS
 70
0
  9
$PDMODE
 70
3
  9
$PDSIZE
 40
3.0
  9
$HANDSEED
  5
538
  9
$TILEMODE
 70
1
  9
$MEASUREMENT
 70
1
  9
$INSUNITS
 70
4
  0
ENDSEC
  0
SECTION
  2
CLASSES
  0
CLASS
  1
ACDBDICTIONARYWDFLT
  2
AcDbDictionaryWithDefault
  3
AutoCAD 2000
 90
0
 91
1
280
0
281
0
  0
CLASS
  1
ACDBPLACEHOLDER
  2
AcDbPlaceHolder
  3
AutoCAD 2000
 90
0
 91
1
280
0
281
0
  0
CLASS
  1
LAYOUT
  2
AcDbLayout
  3
AutoCAD 2000
 90
0
 91
0
280
0
281
0
  0
ENDSEC
  0
SECTION
  2
TABLES
  0
TABLE
  2
VPORT
  5
8
100
AcDbSymbolTable
 70
2
  0
VPORT
  5
1F4
100
AcDbSymbolTableRecord
100
AcDbViewportTableRecord
  2
*ACTIVE
 70
0
 10
0.0
 20
0.0
 11
1.0
 21
1.0
 12
148.5
 22
105.0
 13
0.0
 23
0.0
 14
1.0
 24
1.0
 15
0.0
 25
0.0
 16
0.0
 26
0.0
 36
1.0
 17
0.0
 27
0.0
 37
0.0
 40
210.0
 41
1.4142857143
 42
50.0
 43
0.0
 44
0.0
 50
0.0
 51
0.0
 71
0
 72
100
 73
1
 74
1
 75
0
 76
0
 77
0
 78
0
  0
ENDTAB
  0
TABLE
  2
LTYPE
  5
5
100
AcDbSymbolTable
 70
6
  0
LTYPE
  5
14
100
AcDbSymbolTableRecord
100
AcDbLinetypeTableRecord
  2
BYBLOCK
 70
0
  3

 72
65
 73
0
 40
0.0
  0
LTYPE
  5
15
100
AcDbSymbolTableRecord
100
AcDbLinetypeTableRecord
  2
BYLAYER
 70
0
  3

 72
65
 73
0
 40
0.0
  0
LTYPE
  5
16
100
AcDbSymbolTableRecord
100
AcDbLinetypeTableRecord
  2
CONTINUOUS
 70
64
  3
Solid line
 72
65
 73
0
 40
0.0
  0
LTYPE
  5
1F5
100
AcDbSymbolTableRecord
100
AcDbLinetypeTableRecord
  2
CENTER
 70
64
  3
____ _ ____ _ ____ _ ____ _ ____ _ ____ _ ____
 72
65
 73
4
 40
0.6
 49
0.375
 74
0
 49
-0.075
 74
0
 49
0.075
 74
0
 49
-0.075
 74
0
  0
LTYPE
  5
1F6
100
AcDbSymbolTableRecord
100
AcDbLinetypeTableRecord
  2
HIDDEN
 70
64
  3
- - - - - - - - - - - - - - - - - - - -
 72
65
 73
2
 40
0.2
 49
0.1
 74
0
 49
-0.1
 74
0
  0
LTYPE
  5
1F7
100
AcDbSymbolTableRecord
100
AcDbLinetypeTableRecord
  2
PHANTOM
 70
64
  3
_____ _ _ _____ _ _ _____ _ _ _____
 72
65
 73
6
 40
0.8
 49
0.45
 74
0
 49
-0.05
 74
0
 49
0.1
 74
0
 49
-0.05
 74
0
 49
0.1
 74
0
 49
-0.05
 74
0
  0
LTYPE
  5
1F8
100
AcDbSymbolTableRecord
100
AcDbLinetypeTableRecord
  2
DOT
 70
64
  3
. . . . . . . . . . . . . . . . . . . .
 72
65
 73
2
 40
0.2
 49
0.1
 74
0
 49
-0.1
 74
0
  0
LTYPE
  5
1F9
100
AcDbSymbolTableRecord
100
AcDbLinetypeTableRecord
  2
DASHED
 70
64
  3
- - - - - - - - - - - - - - - - - - - -
 72
65
 73
2
 40
0.2
 49
0.1
 74
0
 49
-0.1
 74
0
  0
ENDTAB
  0
TABLE
  2
LAYER
  5
2
100
AcDbSymbolTable
 70
36
  0
LAYER
  5
10
100
AcDbSymbolTableRecord
100
AcDbLayerTableRecord
  2
0
 70
0
 62
7
  6
CONTINUOUS
370
-3
390
F
  0
LAYER
  5
1FA
100
AcDbSymbolTableRecord
100
AcDbLayerTableRecord
  2
DEFAULT_1
 70
0
 62
7
  6
CENTER
370
-3
390
F
  0
LAYER
  5
1FB
100
AcDbSymbolTableRecord
100
AcDbLayerTableRecord
  2
DEFAULT_2
 70
0
 62
7
  6
HIDDEN
370
-3
390
F
  0
LAYER
  5
1FC
100
AcDbSymbolTableRecord
100
AcDbLayerTableRecord
  2
DEFAULT_3
 70
0
 62
7
  6
PHANTOM
370
-3
390
F
  0
LAYER
  5
1FD
100
AcDbSymbolTableRecord
100
AcDbLayerTableRecord
  2
ASSI
 70
0
 62
7
  6
CONTINUOUS
370
-3
390
F
  0
LAYER
  5
1FE
100
AcDbSymbolTableRecord
100
AcDbLayerTableRecord
  2
COORDINATE
 70
0
 62
7
  6
CONTINUOUS
370
-3
390
F
  0
LAYER
  5
1FF
100
AcDbSymbolTableRecord
100
AcDbLayerTableRecord
  2
COORD_ORIGINE
 70
0
 62
7
  6
CONTINUOUS
370
-3
390
F
  0
LAYER
  5
200
100
AcDbSymbolTableRecord
100
AcDbLayerTableRecord
  2
COPY_PUBLISH
 70
0
 62
7
  6
CONTINUOUS
370
-3
390
F
  0
LAYER
  5
201
100
AcDbSymbolTableRecord
100
AcDbLayerTableRecord
  2
COSMETIC
 70
0
 62
7
  6
CONTINUOUS
370
-3
390
F
  0
LAYER
  5
202
100
AcDbSymbolTableRecord
100
AcDbLayerTableRecord
  2
COSMETICI
 70
0
 62
7
  6
CONTINUOUS
370
-3
390
F
  0
LAYER
  5
203
100
AcDbSymbolTableRecord
100
AcDbLayerTableRecord
  2
CURVE
 70
0
 62
7
  6
CONTINUOUS
370
-3
390
F
  0
LAYER
  5
204
100
AcDbSymbolTableRecord
100
AcDbLayerTableRecord
  2
DRAFT
 70
0
 62
7
  6
CONTINUOUS
370
-3
390
F
  0
LAYER
  5
205
100
AcDbSymbolTableRecord
100
AcDbLayerTableRecord
  2
IMPORT_IGES
 70
0
 62
7
  6
CONTINUOUS
370
-3
390
F
  0
LAYER
  5
206
100
AcDbSymbolTableRecord
100
AcDbLayerTableRecord
  2
INTFCLR_2
 70
0
 62
7
  6
CONTINUOUS
370
-3
390
F
  0
LAYER
  5
207
100
AcDbSymbolTableRecord
100
AcDbLayerTableRecord
  2
INTF_1
 70
0
 62
7
  6
CONTINUOUS
370
-3
390
F
  0
LAYER
  5
208
100
AcDbSymbolTableRecord
100
AcDbLayerTableRecord
  2
INTF_21
 70
0
 62
7
  6
CONTINUOUS
370
-3
390
F
  0
LAYER
  5
209
100
AcDbSymbolTableRecord
100
AcDbLayerTableRecord
  2
INTF_6
 70
0
 62
7
  6
CONTINUOUS
370
-3
390
F
  0
LAYER
  5
20A
100
AcDbSymbolTableRecord
100
AcDbLayerTableRecord
  2
INTF_7
 70
0
 62
7
  6
CONTINUOUS
370
-3
390
F
  0
LAYER
  5
20B
100
AcDbSymbolTableRecord
100
AcDbLayerTableRecord
  2
INTF_CYAN
 70
0
 62
7
  6
CONTINUOUS
370
-3
390
F
  0
LAYER
  5
20C
100
AcDbSymbolTableRecord
100
AcDbLayerTableRecord
  2
LINEA_CHIUSURA
 70
0
 62
7
  6
CONTINUOUS
370
-3
390
F
  0
LAYER
  5
20D
100
AcDbSymbolTableRecord
100
AcDbLayerTableRecord
  2
LIVELLO_1
 70
0
 62
7
  6
CONTINUOUS
370
-3
390
F
  0
LAYER
  5
20E
100
AcDbSymbolTableRecord
100
AcDbLayerTableRecord
  2
NOTE
 70
0
 62
7
  6
CONTINUOUS
370
-3
390
F
  0
LAYER
  5
20F
100
AcDbSymbolTableRecord
100
AcDbLayerTableRecord
  2
PIANI
 70
0
 62
7
  6
CONTINUOUS
370
-3
390
F
  0
LAYER
  5
210
100
AcDbSymbolTableRecord
100
AcDbLayerTableRecord
  2
PIANI_ORIGINE
 70
0
 62
7
  6
CONTINUOUS
370
-3
390
F
  0
LAYER
  5
211
100
AcDbSymbolTableRecord
100
AcDbLayerTableRecord
  2
PIANI_RIFERIMENTO
 70
0
 62
7
  6
CONTINUOUS
370
-3
390
F
  0
LAYER
  5
212
100
AcDbSymbolTableRecord
100
AcDbLayerTableRecord
  2
PUNTI
 70
0
 62
7
  6
CONTINUOUS
370
-3
390
F
  0
LAYER
  5
213
100
AcDbSymbolTableRecord
100
AcDbLayerTableRecord
  2
RACCORDO
 70
0
 62
7
  6
CONTINUOUS
370
-3
390
F
  0
LAYER
  5
214
100
AcDbSymbolTableRecord
100
AcDbLayerTableRecord
  2
RGB__255__255__255__
 70
0
 62
7
  6
CONTINUOUS
370
-3
390
F
  0
LAYER
  5
215
100
AcDbSymbolTableRecord
100
AcDbLayerTableRecord
  2
RGB____0____0____0__
 70
0
 62
7
  6
CONTINUOUS
370
-3
390
F
  0
LAYER
  5
216
100
AcDbSymbolTableRecord
100
AcDbLayerTableRecord
  2
SIMBOLI
 70
0
 62
7
  6
CONTINUOUS
370
-3
390
F
  0
LAYER
  5
217
100
AcDbSymbolTableRecord
100
AcDbLayerTableRecord
  2
SMUSSO
 70
0
 62
7
  6
CONTINUOUS
370
-3
390
F
  0
LAYER
  5
218
100
AcDbSymbolTableRecord
100
AcDbLayerTableRecord
  2
SUPERFICI
 70
0
 62
7
  6
CONTINUOUS
370
-3
390
F
  0
LAYER
  5
219
100
AcDbSymbolTableRecord
100
AcDbLayerTableRecord
  2
TRASH
 70
0
 62
7
  6
CONTINUOUS
370
-3
390
F
  0
LAYER
  5
21A
100
AcDbSymbolTableRecord
100
AcDbLayerTableRecord
  2
WHITE
 70
0
 62
7
  6
CONTINUOUS
370
-3
390
F
  0
LAYER
  5
21B
100
AcDbSymbolTableRecord
100
AcDbLayerTableRecord
  2
XSEC_DATUMS
 70
0
 62
7
  6
CONTINUOUS
370
-3
390
F
  0
ENDTAB
  0
TABLE
  2
STYLE
  5
3
100
AcDbSymbolTable
 70
1
  0
STYLE
  5
11
100
AcDbSymbolTableRecord
100
AcDbTextStyleTableRecord
  2
STANDARD
 70
0
 40
0.0
 41
0.8
 50
0.0
 71
0
 42
0.2
  3
txt
  4

  0
STYLE
  5
21C
100
AcDbSymbolTableRecord
100
AcDbTextStyleTableRecord
  2
TEXTSTYLE_1
 70
0
 40
0.0
 41
0.8
 50
0.0
 71
0
 42
0.2
  3
gdt
  4

  0
ENDTAB
  0
TABLE
  2
VIEW
  5
6
100
AcDbSymbolTable
 70
0
  0
ENDTAB
  0
TABLE
  2
UCS
  5
7
100
AcDbSymbolTable
 70
0
  0
ENDTAB
  0
TABLE
  2
APPID
  5
9
100
AcDbSymbolTable
 70
1
  0
APPID
  5
21D
100
AcDbSymbolTableRecord
100
AcDbRegAppTableRecord
  2
ACAD
 70
0
  0
ENDTAB
  0
TABLE
  2
BLOCK_RECORD
  5
1
100
AcDbSymbolTable
 70
0
  0
BLOCK_RECORD
  5
21E
100
AcDbSymbolTableRecord
100
AcDbBlockTableRecord
  2
*Model_Space
  0
BLOCK_RECORD
  5
21F
100
AcDbSymbolTableRecord
100
AcDbBlockTableRecord
  2
*Paper_Space
  0
BLOCK_RECORD
  5
220
100
AcDbSymbolTableRecord
100
AcDbBlockTableRecord
  2
_FILLED
  0
BLOCK_RECORD
  5
221
100
AcDbSymbolTableRecord
100
AcDbBlockTableRecord
  2
*D0
  0
BLOCK_RECORD
  5
222
100
AcDbSymbolTableRecord
100
AcDbBlockTableRecord
  2
*D1
  0
BLOCK_RECORD
  5
223
100
AcDbSymbolTableRecord
100
AcDbBlockTableRecord
  2
*D2
  0
BLOCK_RECORD
  5
224
100
AcDbSymbolTableRecord
100
AcDbBlockTableRecord
  2
*D3
  0
ENDTAB
  0
TABLE
  2
DIMSTYLE
  5
A
100
AcDbSymbolTable
 70
1
100
AcDbDimStyleTable
 71
0
  0
DIMSTYLE
105
225
100
AcDbSymbolTableRecord
100
AcDbDimStyleTableRecord
  2
STANDARD
 70
0
  3

  4

 40
1.0
 41
3.0
 42
0.5
 43
0.38
 44
1.5
 45
0.0
 46
0.0
 47
0.01
 48
0.01
140
3.0
141
0.09
142
0.0
143
25.4
144
1.0
145
0.0
146
1.0
147
0.625
 71
1
 72
0
 73
0
 74
0
 75
0
 76
0
 77
1
 78
8
 79
2
170
0
171
1
172
0
173
0
174
0
175
0
176
0
177
0
178
0
270
2
179
2
271
2
272
2
273
2
274
2
275
0
280
0
281
0
282
0
283
1
284
8
285
0
286
0
287
3
288
0
340
11
278
44
341
220
342
220
343
220
344
220
  0
DIMSTYLE
105
226
100
AcDbSymbolTableRecord
100
AcDbDimStyleTableRecord
  2
DIMSTYLE_1
 70
0
  3

  4

 40
1.0
 41
3.0
 42
0.5
 43
0.38
 44
1.5
 45
0.0
 46
0.0
 47
0.0
 48
0.0
140
3.0
141
0.09
142
0.0
143
25.4
144
1.0
145
0.0
146
1.0
147
0.75
 71
0
 72
0
 73
0
 74
0
 75
0
 76
0
 77
1
 78
8
 79
2
170
0
171
1
172
0
173
0
174
0
175
0
176
0
177
0
178
0
270
2
179
2
271
2
272
2
273
2
274
2
275
0
280
0
281
0
282
0
283
1
284
8
285
0
286
0
287
3
288
0
340
11
278
44
341
220
342
220
343
220
344
220
  0
ENDTAB
  0
ENDSEC
  0
SECTION
  2
BLOCKS
  0
BLOCK
  5
20
100
AcDbEntity
  8
0
100
AcDbBlockBegin
  2
*Model_Space
 70
0
 10
0.0
 20
0.0
 30
0.0
  3
*Model_Space
  1

  0
ENDBLK
  5
21
100
AcDbEntity
  8
0
100
AcDbBlockEnd
  0
BLOCK
  5
1C
100
AcDbEntity
  8
0
100
AcDbBlockBegin
  2
*Paper_Space
 70
0
 10
0.0
 20
0.0
 30
0.0
  3
*Paper_Space
  1

  0
ENDBLK
  5
1D
100
AcDbEntity
  8
0
100
AcDbBlockEnd
  0
BLOCK
  5
227
100
AcDbEntity
  8
0
100
AcDbBlockBegin
  2
_FILLED
 70
64
 10
0.0
 20
0.0
  3
_FILLED
  1

  0
SOLID
  5
228
100
AcDbEntity
  8
0
  6
BYBLOCK
 62
0
100
AcDbTrace
 10
0.0
 20
0.0
 11
-1.0
 21
0.3166666667
 12
-1.0
 22
-0.3166666667
 13
-1.0
 23
-0.3166666667
  0
ENDBLK
  5
229
100
AcDbEntity
  8
0
  6
BYBLOCK
 62
0
100
AcDbBlockEnd
  0
BLOCK
  5
22A
100
AcDbEntity
  8
0
100
AcDbBlockBegin
 62
7
  6
CONTINUOUS
  2
*D0
 70
65
 10
0.0
 20
0.0
  3
*D0
  1

  0
LINE
  5
22B
100
AcDbEntity
  8
0
100
AcDbLine
 62
7
  6
CONTINUOUS
 10
63.5991850329
 20
151.3200981775
 11
63.5991850329
 21
165.1494597312
  0
LINE
  5
22C
100
AcDbEntity
  8
0
100
AcDbLine
 62
7
  6
CONTINUOUS
 10
56.4491850329
 20
153.4929380681
 11
56.4491850329
 21
165.1494597312
  0
LINE
  5
22D
100
AcDbEntity
  8
0
100
AcDbLine
 62
7
  6
CONTINUOUS
 10
63.5991850329
 20
163.6494597312
 11
60.0241850329
 21
163.6494597312
  0
LINE
  5
22E
100
AcDbEntity
  8
0
100
AcDbLine
 62
7
  6
CONTINUOUS
 10
56.4491850329
 20
163.6494597312
 11
60.0241850329
 21
163.6494597312
  0
LINE
  5
22F
100
AcDbEntity
  8
0
100
AcDbLine
 62
7
  6
CONTINUOUS
 10
60.0241850329
 20
163.6494597312
 11
44.6629017479
 21
163.6494597312
  0
INSERT
  5
230
100
AcDbEntity
  8
0
100
AcDbBlockReference
 62
7
  6
CONTINUOUS
  2
_FILLED
 10
63.5991850329
 20
163.6494597312
 41
3.0
 42
3.0
 43
3.0
  0
INSERT
  5
231
100
AcDbEntity
  8
0
100
AcDbBlockReference
 62
7
  6
CONTINUOUS
  2
_FILLED
 10
56.4491850329
 20
163.6494597312
 41
3.0
 42
3.0
 43
3.0
 50
180.0
  0
ENDBLK
  5
232
100
AcDbEntity
  8
0
  6
BYBLOCK
 62
0
100
AcDbBlockEnd
  0
BLOCK
  5
233
100
AcDbEntity
  8
0
100
AcDbBlockBegin
 62
7
  6
CONTINUOUS
  2
*D1
 70
65
 10
0.0
 20
0.0
  3
*D1
  1

  0
LINE
  5
234
100
AcDbEntity
  8
0
100
AcDbLine
 62
7
  6
CONTINUOUS
 10
56.4491850329
 20
153.4929380681
 11
56.4491850329
 21
174.3661598277
  0
LINE
  5
235
100
AcDbEntity
  8
0
100
AcDbLine
 62
7
  6
CONTINUOUS
 10
66.5991850329
 20
136.1625174511
 11
66.5991850329
 21
174.3661598277
  0
LINE
  5
236
100
AcDbEntity
  8
0
100
AcDbLine
 62
7
  6
CONTINUOUS
 10
56.4491850329
 20
172.8661598277
 11
61.5241850329
 21
172.8661598277
  0
LINE
  5
237
100
AcDbEntity
  8
0
100
AcDbLine
 62
7
  6
CONTINUOUS
 10
61.5241850329
 20
172.8661598277
 11
43.0313494864
 21
172.8661598277
  0
LINE
  5
238
100
AcDbEntity
  8
0
100
AcDbLine
 62
7
  6
CONTINUOUS
 10
66.5991850329
 20
172.8661598277
 11
61.5241850329
 21
172.8661598277
  0
INSERT
  5
239
100
AcDbEntity
  8
0
100
AcDbBlockReference
 62
7
  6
CONTINUOUS
  2
_FILLED
 10
56.4491850329
 20
172.8661598277
 41
3.0
 42
3.0
 43
3.0
 50
180.0
  0
INSERT
  5
23A
100
AcDbEntity
  8
0
100
AcDbBlockReference
 62
7
  6
CONTINUOUS
  2
_FILLED
 10
66.5991850329
 20
172.8661598277
 41
3.0
 42
3.0
 43
3.0
  0
ENDBLK
  5
23B
100
AcDbEntity
  8
0
  6
BYBLOCK
 62
0
100
AcDbBlockEnd
  0
BLOCK
  5
23C
100
AcDbEntity
  8
0
100
AcDbBlockBegin
 62
7
  6
CONTINUOUS
  2
*D2
 70
65
 10
0.0
 20
0.0
  3
*D2
  1

  0
LINE
  5
23D
100
AcDbEntity
  8
0
100
AcDbLine
 62
7
  6
CONTINUOUS
 10
97.041796875
 20
154.1155918558
 11
97.041796875
 21
163.8125355198
  0
LINE
  5
23E
100
AcDbEntity
  8
0
100
AcDbLine
 62
7
  6
CONTINUOUS
 10
256.341796875
 20
154.1155918558
 11
256.341796875
 21
163.8125355198
  0
LINE
  5
23F
100
AcDbEntity
  8
0
100
AcDbLine
 62
7
  6
CONTINUOUS
 10
97.041796875
 20
162.3125355198
 11
176.691796875
 21
162.3125355198
  0
LINE
  5
240
100
AcDbEntity
  8
0
100
AcDbLine
 62
7
  6
CONTINUOUS
 10
256.341796875
 20
162.3125355198
 11
176.691796875
 21
162.3125355198
  0
INSERT
  5
241
100
AcDbEntity
  8
0
100
AcDbBlockReference
 62
7
  6
CONTINUOUS
  2
_FILLED
 10
97.041796875
 20
162.3125355198
 41
3.0
 42
3.0
 43
3.0
 50
180.0
  0
INSERT
  5
242
100
AcDbEntity
  8
0
100
AcDbBlockReference
 62
7
  6
CONTINUOUS
  2
_FILLED
 10
256.341796875
 20
162.3125355198
 41
3.0
 42
3.0
 43
3.0
  0
ENDBLK
  5
243
100
AcDbEntity
  8
0
  6
BYBLOCK
 62
0
100
AcDbBlockEnd
  0
BLOCK
  5
244
100
AcDbEntity
  8
0
100
AcDbBlockBegin
 62
7
  6
CONTINUOUS
  2
*D3
 70
65
 10
0.0
 20
0.0
  3
*D3
  1

  0
LINE
  5
245
100
AcDbEntity
  8
0
100
AcDbLine
 62
7
  6
CONTINUOUS
 10
255.8411880729
 20
154.6162006579
 11
274.1320211668
 21
154.6162006579
  0
LINE
  5
246
100
AcDbEntity
  8
0
100
AcDbLine
 62
7
  6
CONTINUOUS
 10
255.8411880729
 20
64.6162006579
 11
274.1320211668
 21
64.6162006579
  0
LINE
  5
247
100
AcDbEntity
  8
0
100
AcDbLine
 62
7
  6
CONTINUOUS
 10
272.6320211668
 20
154.6162006579
 11
272.6320211668
 21
109.6162006579
  0
LINE
  5
248
100
AcDbEntity
  8
0
100
AcDbLine
 62
7
  6
CONTINUOUS
 10
272.6320211668
 20
64.6162006579
 11
272.6320211668
 21
109.6162006579
  0
INSERT
  5
249
100
AcDbEntity
  8
0
100
AcDbBlockReference
 62
7
  6
CONTINUOUS
  2
_FILLED
 10
272.6320211668
 20
154.6162006579
 41
3.0
 42
3.0
 43
3.0
 50
90.0
  0
INSERT
  5
24A
100
AcDbEntity
  8
0
100
AcDbBlockReference
 62
7
  6
CONTINUOUS
  2
_FILLED
 10
272.6320211668
 20
64.6162006579
 41
3.0
 42
3.0
 43
3.0
 50
270.0
  0
ENDBLK
  5
24B
100
AcDbEntity
  8
0
  6
BYBLOCK
 62
0
100
AcDbBlockEnd
  0
ENDSEC
  0
SECTION
  2
ENTITIES
  0
DIMENSION
  5
24C
100
AcDbEntity
  8
0
100
AcDbDimension
 62
7
  6
CONTINUOUS
  2
*D0
 10
56.4491850329
 20
163.6494597312
 11
44.6629017479
 21
163.6494597312
 70
160
 71
3
 72
2
 41
0.9
 42
7.15
  3
DIMSTYLE_1
100
AcDbAlignedDimension
 13
63.5991850329
 23
150.8200981775
 14
56.4491850329
 24
152.9929380681
 50
180.0
100
AcDbRotatedDimension
  0
DIMENSION
  5
24D
100
AcDbEntity
  8
0
100
AcDbDimension
 62
7
  6
CONTINUOUS
  2
*D1
 10
66.5991850329
 20
172.8661598277
 11
43.0313494864
 21
172.8661598277
 70
160
 71
3
 72
2
 41
0.9
 42
10.15
  3
DIMSTYLE_1
100
AcDbAlignedDimension
 13
56.4491850329
 23
152.9929380681
 14
66.5991850329
 24
135.6625174511
100
AcDbRotatedDimension
  0
DIMENSION
  5
24E
100
AcDbEntity
  8
0
100
AcDbDimension
 62
7
  6
CONTINUOUS
  2
*D2
 10
256.341796875
 20
162.3125355198
 11
171.6560825893
 21
162.3125355198
 70
160
 71
2
 72
2
 41
0.9
 42
159.3
  3
DIMSTYLE_1
100
AcDbAlignedDimension
 13
97.041796875
 23
153.6155918558
 14
256.341796875
 24
153.6155918558
100
AcDbRotatedDimension
  0
DIMENSION
  5
24F
100
AcDbEntity
  8
0
100
AcDbDimension
 62
7
  6
CONTINUOUS
  2
*D3
 10
272.6320211668
 20
64.6162006579
 11
272.6320211668
 21
107.2590578008
 70
160
 71
2
 72
2
 41
0.9
 42
90.0
  3
DIMSTYLE_1
100
AcDbAlignedDimension
 13
255.3411880729
 23
154.6162006579
 14
255.3411880729
 24
64.6162006579
 50
270.0
100
AcDbRotatedDimension
  0
LINE
  5
250
100
AcDbEntity
  8
ASSI
100
AcDbLine
 62
7
  6
CONTINUOUS
 10
98.2218114051
 20
154.4068999802
 11
98.2362372206
 21
154.4223691144
  0
LINE
  5
251
100
AcDbEntity
  8
ASSI
100
AcDbLine
 62
7
  6
CONTINUOUS
 10
97.041796875
 20
153.6155918558
 11
98.0424056771
 21
154.6162006579
  0
LINE
  5
252
100
AcDbEntity
  8
ASSI
100
AcDbLine
 62
7
  6
CONTINUOUS
 10
98.2218114051
 20
154.4068999802
 11
97.2510975527
 21
153.4361861278
  0
LINE
  5
253
100
AcDbEntity
  8
ASSI
100
AcDbLine
 62
7
  6
CONTINUOUS
 10
98.6650594648
 20
153.3874696177
 11
98.2705279152
 21
152.9929380681
  0
LINE
  5
254
100
AcDbEntity
  8
ASSI
100
AcDbLine
 62
7
  6
CONTINUOUS
 10
97.2356284185
 20
153.4217603123
 11
97.2510975527
 21
153.4361861278
  0
LINE
  5
255
100
AcDbEntity
  8
ASSI
100
AcDbLine
 62
7
  6
CONTINUOUS
 10
97.2510975527
 20
65.796215188
 11
97.2356284185
 21
65.8106410035
  0
LINE
  5
256
100
AcDbEntity
  8
ASSI
100
AcDbLine
 62
7
  6
CONTINUOUS
 10
98.0424056771
 20
64.6162006579
 11
97.041796875
 21
65.61680946
  0
LINE
  5
257
100
AcDbEntity
  8
ASSI
100
AcDbLine
 62
7
  6
CONTINUOUS
 10
97.2510975527
 20
65.796215188
 11
98.2218114051
 21
64.8255013356
  0
LINE
  5
258
100
AcDbEntity
  8
ASSI
100
AcDbLine
 62
7
  6
CONTINUOUS
 10
98.2705279152
 20
66.2394632477
 11
98.6650594648
 21
65.8449316981
  0
LINE
  5
259
100
AcDbEntity
  8
ASSI
100
AcDbLine
 62
7
  6
CONTINUOUS
 10
98.2362372206
 20
64.8100322014
 11
98.2218114051
 21
64.8255013356
  0
LINE
  5
25A
100
AcDbEntity
  8
ASSI
100
AcDbLine
 62
7
  6
CONTINUOUS
 10
97.041796875
 20
153.6155918558
 11
97.041796875
 21
65.61680946
  0
LINE
  5
25B
100
AcDbEntity
  8
ASSI
100
AcDbLine
 62
7
  6
CONTINUOUS
 10
97.2356284185
 20
153.4217603123
 11
97.2356284185
 21
65.8106410035
  0
LINE
  5
25C
100
AcDbEntity
  8
ASSI
100
AcDbLine
 62
7
  6
CONTINUOUS
 10
98.2705279152
 20
152.9929380681
 11
98.2705279152
 21
66.2394632477
  0
LINE
  5
25D
100
AcDbEntity
  8
ASSI
100
AcDbLine
 62
7
  6
CONTINUOUS
 10
98.6650594648
 20
65.8449316981
 11
98.2218114051
 21
64.8255013356
  0
LINE
  5
25E
100
AcDbEntity
  8
ASSI
100
AcDbLine
 62
7
  6
CONTINUOUS
 10
98.6650594648
 20
153.3874696177
 11
98.2218114051
 21
154.4068999802
  0
LINE
  5
25F
100
AcDbEntity
  8
SMUSSO
100
AcDbLine
 62
7
  6
CONTINUOUS
 10
123.291796875
 20
92.6662006579
 11
123.291796875
 21
106.0662006579
  0
LINE
  5
260
100
AcDbEntity
  8
ASSI
100
AcDbLine
 62
7
  6
CONTINUOUS
 10
123.291796875
 20
92.6662006579
 11
123.291796875
 21
106.0662006579
  0
LINE
  5
261
100
AcDbEntity
  8
SMUSSO
100
AcDbLine
 62
7
  6
CONTINUOUS
 10
123.291796875
 20
113.1662006579
 11
123.291796875
 21
126.5662006579
  0
LINE
  5
262
100
AcDbEntity
  8
ASSI
100
AcDbLine
 62
7
  6
CONTINUOUS
 10
123.291796875
 20
113.1662006579
 11
123.291796875
 21
126.5662006579
  0
LINE
  5
263
100
AcDbEntity
  8
SMUSSO
100
AcDbLine
 62
7
  6
CONTINUOUS
 10
123.791796875
 20
92.6662006579
 11
123.791796875
 21
106.0662006579
  0
LINE
  5
264
100
AcDbEntity
  8
ASSI
100
AcDbLine
 62
7
  6
CONTINUOUS
 10
123.791796875
 20
92.6662006579
 11
123.791796875
 21
106.0662006579
  0
LINE
  5
265
100
AcDbEntity
  8
SMUSSO
100
AcDbLine
 62
7
  6
CONTINUOUS
 10
123.791796875
 20
113.1662006579
 11
123.791796875
 21
126.5662006579
  0
LINE
  5
266
100
AcDbEntity
  8
ASSI
100
AcDbLine
 62
7
  6
CONTINUOUS
 10
123.791796875
 20
113.1662006579
 11
123.791796875
 21
126.5662006579
  0
LINE
  5
267
100
AcDbEntity
  8
SMUSSO
100
AcDbLine
 62
250
  6
CONTINUOUS
 10
124.991796875
 20
128.2662006579
 11
124.991796875
 21
127.7662006579
  0
LINE
  5
268
100
AcDbEntity
  8
ASSI
100
AcDbLine
 62
250
  6
CONTINUOUS
 10
124.991796875
 20
128.2662006579
 11
124.991796875
 21
127.7662006579
  0
LINE
  5
269
100
AcDbEntity
  8
SMUSSO
100
AcDbLine
 62
250
  6
CONTINUOUS
 10
124.991796875
 20
107.7662006579
 11
124.991796875
 21
107.2662006579
  0
LINE
  5
26A
100
AcDbEntity
  8
ASSI
100
AcDbLine
 62
250
  6
CONTINUOUS
 10
124.991796875
 20
107.7662006579
 11
124.991796875
 21
107.2662006579
  0
LINE
  5
26B
100
AcDbEntity
  8
SMUSSO
100
AcDbLine
 62
250
  6
CONTINUOUS
 10
124.991796875
 20
90.9662006579
 11
124.991796875
 21
91.4662006579
  0
LINE
  5
26C
100
AcDbEntity
  8
ASSI
100
AcDbLine
 62
250
  6
CONTINUOUS
 10
124.991796875
 20
90.9662006579
 11
124.991796875
 21
91.4662006579
  0
LINE
  5
26D
100
AcDbEntity
  8
SMUSSO
100
AcDbLine
 62
250
  6
CONTINUOUS
 10
124.991796875
 20
111.4662006579
 11
124.991796875
 21
111.9662006579
  0
LINE
  5
26E
100
AcDbEntity
  8
ASSI
100
AcDbLine
 62
250
  6
CONTINUOUS
 10
124.991796875
 20
111.4662006579
 11
124.991796875
 21
111.9662006579
  0
LWPOLYLINE
  5
26F
100
AcDbEntity
  8
CURVE
100
AcDbPolyline
 62
250
  6
CONTINUOUS
 90
73
 70
0
 10
251.697152008
 20
69.8925377669
 10
251.7023452818
 20
69.893583795
 10
251.7073820765
 20
69.8952580919
 10
251.7122895797
 20
69.8974090705
 10
251.717094979
 20
69.8998851436
 10
251.7218254618
 20
69.9025347241
 10
251.7364256219
 20
69.911136157
 10
251.7505944698
 20
69.92008416
 10
251.7643754811
 20
69.929507249
 10
251.7782959372
 20
69.9398815848
 10
251.7918493182
 20
69.9508277063
 10
251.8050388763
 20
69.9622682829
 10
251.8178678638
 20
69.9741259838
 10
251.8330798319
 20
69.9891154591
 10
251.8477429843
 20
70.0046070382
 10
251.8618437281
 20
70.0205938525
 10
251.8753684704
 20
70.0370690332
 10
251.887338489
 20
70.0527139942
 10
251.8987931621
 20
70.0687497588
 10
251.9097202837
 20
70.0851562372
 10
251.9201076476
 20
70.1019133395
 10
251.9299430478
 20
70.1190009758
 10
251.9403569218
 20
70.1386395312
 10
251.9500444195
 20
70.1586455251
 10
251.9589964175
 20
70.1789917157
 10
251.9672037925
 20
70.1996508608
 10
251.9746574212
 20
70.2205957185
 10
251.9809646346
 20
70.2404998745
 10
251.986603894
 20
70.260605829
 10
251.9915799997
 20
70.2808874421
 10
251.9958977517
 20
70.3013185743
 10
251.9995619505
 20
70.3218730856
 10
252.0025773963
 20
70.3425248364
 10
252.0051608488
 20
70.3653990338
 10
252.0069844439
 20
70.3883391841
 10
252.0080725488
 20
70.4113246531
 10
252.0084463384
 20
70.4360444671
 10
252.0080086647
 20
70.4607653554
 10
252.0067687788
 20
70.4854599041
 10
252.005185631
 20
70.5053430765
 10
252.0030637248
 20
70.5251735249
 10
252.0003803599
 20
70.5449335081
 10
251.9973126113
 20
70.5635115264
 10
251.9937162451
 20
70.5819964171
 10
251.9895834984
 20
70.6003736999
 10
251.9843623386
 20
70.6206185151
 10
251.9784685428
 20
70.6406840624
 10
251.9718993268
 20
70.6605413665
 10
251.9646519066
 20
70.6801614524
 10
251.9567234978
 20
70.699515345
 10
251.948903414
 20
70.7168993764
 10
251.9405235085
 20
70.7340194233
 10
251.9315919828
 20
70.7508567037
 10
251.9221170385
 20
70.7673924353
 10
251.9121068772
 20
70.7836078358
 10
251.8999870223
 20
70.8017756614
 10
251.8871926706
 20
70.8194748002
 10
251.8737416371
 20
70.8366820401
 10
251.8596517365
 20
70.8533741691
 10
251.8451781768
 20
70.8692784957
 10
251.8301243432
 20
70.8846446798
 10
251.8145115853
 20
70.899456061
 10
251.7983612523
 20
70.9136959788
 10
251.7816946934
 20
70.9273477731
 10
251.7645332581
 20
70.9403947833
 10
251.7468982957
 20
70.9528203491
 10
251.7337564257
 20
70.9614695907
 10
251.7203733819
 20
70.9697332413
 10
251.7067482335
 20
70.977564736
 10
251.6928800496
 20
70.9849175098
 10
251.6787678993
 20
70.9917449979
 10
251.6644108518
 20
70.9980006354
 10
251.6498079762
 20
71.0036378574
  0
LWPOLYLINE
  5
270
100
AcDbEntity
  8
CURVE
100
AcDbPolyline
 62
250
  6
CONTINUOUS
 90
23
 70
0
 10
250.9587170818
 20
70.6777393586
 10
250.9754185141
 20
70.680521287
 10
250.9921495427
 20
70.6831631449
 10
251.0089084634
 20
70.6856506944
 10
251.0256935723
 20
70.6879696972
 10
251.0425031651
 20
70.6901059152
 10
251.0593355379
 20
70.6920451105
 10
251.0761889866
 20
70.6937730448
 10
251.093061807
 20
70.6952754801
 10
251.1099522952
 20
70.6965381782
 10
251.1268587469
 20
70.6975469011
 10
251.1437794583
 20
70.6982874107
 10
251.1596784861
 20
70.6987287746
 10
251.1755848183
 20
70.6989267628
 10
251.1914946896
 20
70.6988870244
 10
251.2074043349
 20
70.6986152085
 10
251.2233099888
 20
70.6981169644
 10
251.2392078863
 20
70.6973979411
 10
251.2550942619
 20
70.6964637879
 10
251.2709653506
 20
70.6953201539
 10
251.286817387
 20
70.6939726882
 10
251.302646606
 20
70.69242704
 10
251.3184492424
 20
70.6906888585
  0
LWPOLYLINE
  5
271
100
AcDbEntity
  8
0
100
AcDbPolyline
 62
7
  6
CONTINUOUS
 90
3
 70
0
 43
0.3500000006
 10
171.6560842896
 20
165.2053840942
 10
172.513222229
 20
166.0625401611
 10
172.513222229
 20
163.0625392456
  0
LWPOLYLINE
  5
272
100
AcDbEntity
  8
0
100
AcDbPolyline
 62
7
  6
CONTINUOUS
 90
5
 70
0
 43
0.3500000006
 10
180.4418025513
 20
164.7768151245
 10
180.7989312744
 20
164.9910996094
 10
180.7989312744
 20
165.6339711914
 10
180.4418025513
 20
166.0625401611
 10
179.5846464844
 20
166.0625401611
  0
LINE
  5
273
100
AcDbEntity
  8
ASSI
100
AcDbLine
 62
7
  6
CONTINUOUS
 10
98.0424056771
 20
64.6162006579
 11
255.3411880729
 21
64.6162006579
  0
LINE
  5
274
100
AcDbEntity
  8
ASSI
100
AcDbLine
 62
7
  6
CONTINUOUS
 10
98.2362372206
 20
64.8100322014
 11
255.1473565294
 21
64.8100322014
  0
LINE
  5
275
100
AcDbEntity
  8
ASSI
100
AcDbLine
 62
7
  6
CONTINUOUS
 10
98.6650594648
 20
65.8449316981
 11
254.7185342852
 21
65.8449316981
  0
LINE
  5
276
100
AcDbEntity
  8
SMUSSO
100
AcDbLine
 62
250
  6
CONTINUOUS
 10
138.391796875
 20
128.2662006579
 11
138.391796875
 21
127.7662006579
  0
LINE
  5
277
100
AcDbEntity
  8
ASSI
100
AcDbLine
 62
250
  6
CONTINUOUS
 10
138.391796875
 20
128.2662006579
 11
138.391796875
 21
127.7662006579
  0
LINE
  5
278
100
AcDbEntity
  8
SMUSSO
100
AcDbLine
 62
250
  6
CONTINUOUS
 10
138.391796875
 20
107.7662006579
 11
138.391796875
 21
107.2662006579
  0
LINE
  5
279
100
AcDbEntity
  8
ASSI
100
AcDbLine
 62
250
  6
CONTINUOUS
 10
138.391796875
 20
107.7662006579
 11
138.391796875
 21
107.2662006579
  0
LINE
  5
27A
100
AcDbEntity
  8
SMUSSO
100
AcDbLine
 62
250
  6
CONTINUOUS
 10
138.391796875
 20
90.9662006579
 11
138.391796875
 21
91.4662006579
  0
LINE
  5
27B
100
AcDbEntity
  8
ASSI
100
AcDbLine
 62
250
  6
CONTINUOUS
 10
138.391796875
 20
90.9662006579
 11
138.391796875
 21
91.4662006579
  0
LINE
  5
27C
100
AcDbEntity
  8
SMUSSO
100
AcDbLine
 62
250
  6
CONTINUOUS
 10
138.391796875
 20
111.4662006579
 11
138.391796875
 21
111.9662006579
  0
LINE
  5
27D
100
AcDbEntity
  8
ASSI
100
AcDbLine
 62
250
  6
CONTINUOUS
 10
138.391796875
 20
111.4662006579
 11
138.391796875
 21
111.9662006579
  0
LINE
  5
27E
100
AcDbEntity
  8
SMUSSO
100
AcDbLine
 62
7
  6
CONTINUOUS
 10
139.591796875
 20
126.5662006579
 11
139.591796875
 21
113.1662006579
  0
LINE
  5
27F
100
AcDbEntity
  8
ASSI
100
AcDbLine
 62
7
  6
CONTINUOUS
 10
139.591796875
 20
126.5662006579
 11
139.591796875
 21
113.1662006579
  0
LINE
  5
280
100
AcDbEntity
  8
SMUSSO
100
AcDbLine
 62
7
  6
CONTINUOUS
 10
139.591796875
 20
106.0662006579
 11
139.591796875
 21
92.6662006579
  0
LINE
  5
281
100
AcDbEntity
  8
ASSI
100
AcDbLine
 62
7
  6
CONTINUOUS
 10
139.591796875
 20
106.0662006579
 11
139.591796875
 21
92.6662006579
  0
LINE
  5
282
100
AcDbEntity
  8
SMUSSO
100
AcDbLine
 62
7
  6
CONTINUOUS
 10
140.091796875
 20
126.5662006579
 11
140.091796875
 21
113.1662006579
  0
LINE
  5
283
100
AcDbEntity
  8
ASSI
100
AcDbLine
 62
7
  6
CONTINUOUS
 10
140.091796875
 20
126.5662006579
 11
140.091796875
 21
113.1662006579
  0
LINE
  5
284
100
AcDbEntity
  8
SMUSSO
100
AcDbLine
 62
7
  6
CONTINUOUS
 10
140.091796875
 20
106.0662006579
 11
140.091796875
 21
92.6662006579
  0
LINE
  5
285
100
AcDbEntity
  8
ASSI
100
AcDbLine
 62
7
  6
CONTINUOUS
 10
140.091796875
 20
106.0662006579
 11
140.091796875
 21
92.6662006579
  0
LWPOLYLINE
  5
286
100
AcDbEntity
  8
0
100
AcDbPolyline
 62
7
  6
CONTINUOUS
 90
10
 70
0
 43
0.3500000006
 10
175.9417921143
 20
163.0625392456
 10
176.7989481812
 20
163.9196771851
 10
177.013232666
 20
164.7768151245
 10
177.013232666
 20
165.6339711914
 10
176.5846455688
 20
166.0625401611
 10
175.9417921143
 20
166.0625401611
 10
175.5132231445
 20
165.6339711914
 10
175.5132231445
 20
164.7768151245
 10
175.9417921143
 20
164.3482461548
 10
176.8703703003
 20
164.3482461548
  0
LINE
  5
287
100
AcDbEntity
  8
CURVE
100
AcDbLine
 62
250
  6
CONTINUOUS
 10
250.3817630475
 20
68.8526850872
 11
249.8977986886
 21
68.8526850872
  0
LINE
  5
288
100
AcDbEntity
  8
CURVE
100
AcDbLine
 62
250
  6
CONTINUOUS
 10
249.026799871
 20
68.8526850872
 11
248.5725941774
 21
68.8526850872
  0
LINE
  5
289
100
AcDbEntity
  8
CURVE
100
AcDbLine
 62
250
  6
CONTINUOUS
 10
248.5004897045
 20
68.8526850872
 11
248.0512822011
 21
68.8526850872
  0
LINE
  5
28A
100
AcDbEntity
  8
CURVE
100
AcDbLine
 62
250
  6
CONTINUOUS
 10
247.4109659445
 20
68.8526850872
 11
247.3465656617
 21
68.8526850872
  0
LINE
  5
28B
100
AcDbEntity
  8
CURVE
100
AcDbLine
 62
250
  6
CONTINUOUS
 10
246.7087898812
 20
68.8526850872
 11
246.269497044
 21
68.8526850872
  0
LINE
  5
28C
100
AcDbEntity
  8
CURVE
100
AcDbLine
 62
250
  6
CONTINUOUS
 10
244.6855997826
 20
68.8526850872
 11
244.280940182
 21
68.8526850872
  0
LINE
  5
28D
100
AcDbEntity
  8
CURVE
100
AcDbLine
 62
250
  6
CONTINUOUS
 10
245.5631137428
 20
68.8526850872
 11
246.0223019124
 21
68.8526850872
  0
LINE
  5
28E
100
AcDbEntity
  8
CURVE
100
AcDbLine
 62
250
  6
CONTINUOUS
 10
250.5166030068
 20
68.8526846705
 11
250.9739430544
 21
68.8526846705
  0
LINE
  5
28F
100
AcDbEntity
  8
CURVE
100
AcDbLine
 62
250
  6
CONTINUOUS
 10
251.6771256475
 20
68.8526846705
 11
252.1188108219
 21
68.8526846705
  0
LINE
  5
290
100
AcDbEntity
  8
CURVE
100
AcDbLine
 62
250
  6
CONTINUOUS
 10
249.778844694
 20
69.2918459244
 11
249.1535072938
 21
69.2918459244
  0
LINE
  5
291
100
AcDbEntity
  8
CURVE
100
AcDbLine
 62
250
  6
CONTINUOUS
 10
249.2474368134
 20
69.6316673375
 11
249.6870764124
 21
69.6316673375
  0
LINE
  5
292
100
AcDbEntity
  8
CURVE
100
AcDbLine
 62
250
  6
CONTINUOUS
 10
250.9739430544
 20
69.7135707283
 11
251.2201485158
 21
69.7135707283
  0
LINE
  5
293
100
AcDbEntity
  8
CURVE
100
AcDbLine
 62
250
  6
CONTINUOUS
 10
251.2211382865
 20
70.0738472628
 11
250.9587170818
 21
70.0738472628
  0
LINE
  5
294
100
AcDbEntity
  8
CURVE
100
AcDbLine
 62
250
  6
CONTINUOUS
 10
243.583555928
 20
71.0524995586
 11
244.0823755243
 21
71.0524995586
  0
LINE
  5
295
100
AcDbEntity
  8
CURVE
100
AcDbLine
 62
250
  6
CONTINUOUS
 10
244.9338341523
 20
71.0524995586
 11
245.3927090838
 21
71.0524995586
  0
LINE
  5
296
100
AcDbEntity
  8
CURVE
100
AcDbLine
 62
250
  6
CONTINUOUS
 10
246.4681277016
 20
71.0524995586
 11
246.9269355855
 21
71.0524995586
  0
LINE
  5
297
100
AcDbEntity
  8
CURVE
100
AcDbLine
 62
250
  6
CONTINUOUS
 10
247.8404614488
 20
71.0524995586
 11
248.2947823805
 21
71.0524995586
  0
LINE
  5
298
100
AcDbEntity
  8
CURVE
100
AcDbLine
 62
250
  6
CONTINUOUS
 10
249.2625969079
 20
71.0524995586
 11
249.7068051735
 21
71.0524995586
  0
LINE
  5
299
100
AcDbEntity
  8
CURVE
100
AcDbLine
 62
250
  6
CONTINUOUS
 10
246.0223019124
 20
71.0526315586
 11
245.5631137428
 21
71.0526315586
  0
LWPOLYLINE
  5
29A
100
AcDbEntity
  8
CURVE
100
AcDbPolyline
 62
250
  6
CONTINUOUS
 90
46
 70
0
 10
251.2201485158
 20
69.7135707283
 10
251.2276600339
 20
69.7134649176
 10
251.2351834546
 20
69.7131474991
 10
251.242710455
 20
69.7126184935
 10
251.2502327119
 20
69.7118779214
 10
251.2577419025
 20
69.7109258035
 10
251.2652297036
 20
69.7097621603
 10
251.2726877924
 20
69.7083870124
 10
251.2801078456
 20
69.7068003806
 10
251.2874815404
 20
69.7050022853
 10
251.2948005537
 20
69.7029927473
 10
251.3020565626
 20
69.7007717871
 10
251.3092412439
 20
69.6983394254
 10
251.3163462747
 20
69.6956956828
 10
251.323363332
 20
69.6928405799
 10
251.3302840928
 20
69.6897741373
 10
251.337100234
 20
69.6864963757
 10
251.3436341582
 20
69.6831000736
 10
251.350057528
 20
69.6795083702
 10
251.3563670268
 20
69.6757264901
 10
251.362559338
 20
69.6717596578
 10
251.3686311452
 20
69.6676130977
 10
251.3745791317
 20
69.6632920346
 10
251.3803999809
 20
69.6588016929
 10
251.3860903765
 20
69.6541472972
 10
251.3916470017
 20
69.649334072
 10
251.39706654
 20
69.6443672418
 10
251.402345675
 20
69.6392520313
 10
251.40748109
 20
69.633993665
 10
251.4124694684
 20
69.6285973673
 10
251.4176839738
 20
69.622626566
 10
251.4227255619
 20
69.6165089464
 10
251.4275963447
 20
69.6102521768
 10
251.4322984342
 20
69.6038639256
 10
251.4368339422
 20
69.5973518612
 10
251.4412049806
 20
69.590723652
 10
251.4454136615
 20
69.5839869662
 10
251.4494620967
 20
69.5771494723
 10
251.4533523982
 20
69.5702188387
 10
251.4570866778
 20
69.5632027337
 10
251.4606670475
 20
69.5561088256
 10
251.4640956193
 20
69.548944783
 10
251.467374505
 20
69.541718274
 10
251.4705058166
 20
69.5344369671
 10
251.4734916659
 20
69.5271085307
 10
251.476334165
 20
69.5197406331
  0
LINE
  5
29B
100
AcDbEntity
  8
SMUSSO
100
AcDbLine
 62
7
  6
CONTINUOUS
 10
145.791796875
 20
92.6662006579
 11
145.791796875
 21
106.0662006579
  0
LINE
  5
29C
100
AcDbEntity
  8
ASSI
100
AcDbLine
 62
7
  6
CONTINUOUS
 10
145.791796875
 20
92.6662006579
 11
145.791796875
 21
106.0662006579
  0
LINE
  5
29D
100
AcDbEntity
  8
SMUSSO
100
AcDbLine
 62
7
  6
CONTINUOUS
 10
145.791796875
 20
113.1662006579
 11
145.791796875
 21
126.5662006579
  0
LINE
  5
29E
100
AcDbEntity
  8
ASSI
100
AcDbLine
 62
7
  6
CONTINUOUS
 10
145.791796875
 20
113.1662006579
 11
145.791796875
 21
126.5662006579
  0
LINE
  5
29F
100
AcDbEntity
  8
SMUSSO
100
AcDbLine
 62
7
  6
CONTINUOUS
 10
146.291796875
 20
92.6662006579
 11
146.291796875
 21
106.0662006579
  0
LINE
  5
2A0
100
AcDbEntity
  8
ASSI
100
AcDbLine
 62
7
  6
CONTINUOUS
 10
146.291796875
 20
92.6662006579
 11
146.291796875
 21
106.0662006579
  0
LINE
  5
2A1
100
AcDbEntity
  8
SMUSSO
100
AcDbLine
 62
7
  6
CONTINUOUS
 10
146.291796875
 20
113.1662006579
 11
146.291796875
 21
126.5662006579
  0
LINE
  5
2A2
100
AcDbEntity
  8
ASSI
100
AcDbLine
 62
7
  6
CONTINUOUS
 10
146.291796875
 20
113.1662006579
 11
146.291796875
 21
126.5662006579
  0
LINE
  5
2A3
100
AcDbEntity
  8
SMUSSO
100
AcDbLine
 62
250
  6
CONTINUOUS
 10
147.491796875
 20
128.2662006579
 11
147.491796875
 21
127.7662006579
  0
LINE
  5
2A4
100
AcDbEntity
  8
ASSI
100
AcDbLine
 62
250
  6
CONTINUOUS
 10
147.491796875
 20
128.2662006579
 11
147.491796875
 21
127.7662006579
  0
LINE
  5
2A5
100
AcDbEntity
  8
SMUSSO
100
AcDbLine
 62
250
  6
CONTINUOUS
 10
147.491796875
 20
107.7662006579
 11
147.491796875
 21
107.2662006579
  0
LINE
  5
2A6
100
AcDbEntity
  8
ASSI
100
AcDbLine
 62
250
  6
CONTINUOUS
 10
147.491796875
 20
107.7662006579
 11
147.491796875
 21
107.2662006579
  0
LINE
  5
2A7
100
AcDbEntity
  8
SMUSSO
100
AcDbLine
 62
250
  6
CONTINUOUS
 10
147.491796875
 20
90.9662006579
 11
147.491796875
 21
91.4662006579
  0
LINE
  5
2A8
100
AcDbEntity
  8
ASSI
100
AcDbLine
 62
250
  6
CONTINUOUS
 10
147.491796875
 20
90.9662006579
 11
147.491796875
 21
91.4662006579
  0
LINE
  5
2A9
100
AcDbEntity
  8
SMUSSO
100
AcDbLine
 62
250
  6
CONTINUOUS
 10
147.491796875
 20
111.4662006579
 11
147.491796875
 21
111.9662006579
  0
LINE
  5
2AA
100
AcDbEntity
  8
ASSI
100
AcDbLine
 62
250
  6
CONTINUOUS
 10
147.491796875
 20
111.4662006579
 11
147.491796875
 21
111.9662006579
  0
LINE
  5
2AB
100
AcDbEntity
  8
ASSI
100
AcDbLine
 62
7
  6
CONTINUOUS
 10
97.2356284185
 20
65.8106410035
 11
97.041796875
 21
65.61680946
  0
LINE
  5
2AC
100
AcDbEntity
  8
ASSI
100
AcDbLine
 62
7
  6
CONTINUOUS
 10
98.2362372206
 20
64.8100322014
 11
98.0424056771
 21
64.6162006579
  0
LWPOLYLINE
  5
2AD
100
AcDbEntity
  8
CURVE
100
AcDbPolyline
 62
250
  6
CONTINUOUS
 90
49
 70
0
 10
251.3184492424
 20
70.6906888585
 10
251.3268650212
 20
70.6895982246
 10
251.3352813738
 20
70.6882801049
 10
251.3436890306
 20
70.6867351391
 10
251.3520787224
 20
70.6849639667
 10
251.3604411794
 20
70.6829672272
 10
251.3687671324
 20
70.68074556
 10
251.3770473117
 20
70.6782996048
 10
251.385272448
 20
70.675630001
 10
251.3934332718
 20
70.6727373882
 10
251.4015205136
 20
70.6696224058
 10
251.4095249039
 20
70.6662856934
 10
251.4174371732
 20
70.6627278906
 10
251.4252480522
 20
70.6589496367
 10
251.4329482712
 20
70.6549515713
 10
251.440528561
 20
70.6507343341
 10
251.4479796518
 20
70.6462985643
 10
251.4552922744
 20
70.6416449017
 10
251.4624571592
 20
70.6367739857
 10
251.4694650368
 20
70.6316864557
 10
251.4763066377
 20
70.6263829514
 10
251.4829726923
 20
70.6208641123
 10
251.4894539314
 20
70.6151305778
 10
251.4957410853
 20
70.6091829875
 10
251.5018248846
 20
70.6030219809
 10
251.5076660792
 20
70.5966846709
 10
251.5132942725
 20
70.5901468132
 10
251.5187068013
 20
70.5834183497
 10
251.5239010026
 20
70.5765092221
 10
251.5288742134
 20
70.5694293722
 10
251.5336237706
 20
70.5621887419
 10
251.5381470111
 20
70.5547972729
 10
251.5424412719
 20
70.5472649069
 10
251.5465038899
 20
70.5396015858
 10
251.5503322021
 20
70.5318172514
 10
251.5539235454
 20
70.5239218453
 10
251.5572752568
 20
70.5159253095
 10
251.5603846731
 20
70.5078375857
 10
251.5632491315
 20
70.4996686157
 10
251.5658659687
 20
70.4914283413
 10
251.5682325218
 20
70.4831267042
 10
251.5703461277
 20
70.4747736462
 10
251.5722041233
 20
70.4663791091
 10
251.5738038456
 20
70.4579530348
 10
251.5751426315
 20
70.4495053649
 10
251.5762178179
 20
70.4410460413
 10
251.5770267419
 20
70.4325850058
 10
251.5775667404
 20
70.4241322001
 10
251.5778351502
 20
70.415697566
  0
LINE
  5
2AE
100
AcDbEntity
  8
ASSI
100
AcDbLine
 62
7
  6
CONTINUOUS
 10
97.2356284185
 20
153.4217603123
 11
97.041796875
 21
153.6155918558
  0
LINE
  5
2AF
100
AcDbEntity
  8
ASSI
100
AcDbLine
 62
7
  6
CONTINUOUS
 10
98.2362372206
 20
154.4223691144
 11
98.0424056771
 21
154.6162006579
  0
LINE
  5
2B0
100
AcDbEntity
  8
SMUSSO
100
AcDbLine
 62
7
  6
CONTINUOUS
 10
228.391796875
 20
90.9662006579
 11
214.991796875
 21
90.9662006579
  0
LINE
  5
2B1
100
AcDbEntity
  8
ASSI
100
AcDbLine
 62
7
  6
CONTINUOUS
 10
228.391796875
 20
90.9662006579
 11
214.991796875
 21
90.9662006579
  0
LINE
  5
2B2
100
AcDbEntity
  8
SMUSSO
100
AcDbLine
 62
7
  6
CONTINUOUS
 10
205.891796875
 20
90.9662006579
 11
192.491796875
 21
90.9662006579
  0
LINE
  5
2B3
100
AcDbEntity
  8
ASSI
100
AcDbLine
 62
7
  6
CONTINUOUS
 10
205.891796875
 20
90.9662006579
 11
192.491796875
 21
90.9662006579
  0
LINE
  5
2B4
100
AcDbEntity
  8
SMUSSO
100
AcDbLine
 62
7
  6
CONTINUOUS
 10
183.391796875
 20
90.9662006579
 11
169.991796875
 21
90.9662006579
  0
LINE
  5
2B5
100
AcDbEntity
  8
ASSI
100
AcDbLine
 62
7
  6
CONTINUOUS
 10
183.391796875
 20
90.9662006579
 11
169.991796875
 21
90.9662006579
  0
LINE
  5
2B6
100
AcDbEntity
  8
SMUSSO
100
AcDbLine
 62
7
  6
CONTINUOUS
 10
160.891796875
 20
90.9662006579
 11
147.491796875
 21
90.9662006579
  0
LINE
  5
2B7
100
AcDbEntity
  8
ASSI
100
AcDbLine
 62
7
  6
CONTINUOUS
 10
160.891796875
 20
90.9662006579
 11
147.491796875
 21
90.9662006579
  0
LINE
  5
2B8
100
AcDbEntity
  8
SMUSSO
100
AcDbLine
 62
7
  6
CONTINUOUS
 10
138.391796875
 20
90.9662006579
 11
124.991796875
 21
90.9662006579
  0
LINE
  5
2B9
100
AcDbEntity
  8
ASSI
100
AcDbLine
 62
7
  6
CONTINUOUS
 10
138.391796875
 20
90.9662006579
 11
124.991796875
 21
90.9662006579
  0
LINE
  5
2BA
100
AcDbEntity
  8
SMUSSO
100
AcDbLine
 62
7
  6
CONTINUOUS
 10
228.391796875
 20
91.4662006579
 11
214.991796875
 21
91.4662006579
  0
LINE
  5
2BB
100
AcDbEntity
  8
ASSI
100
AcDbLine
 62
7
  6
CONTINUOUS
 10
228.391796875
 20
91.4662006579
 11
214.991796875
 21
91.4662006579
  0
LINE
  5
2BC
100
AcDbEntity
  8
SMUSSO
100
AcDbLine
 62
7
  6
CONTINUOUS
 10
205.891796875
 20
91.4662006579
 11
192.491796875
 21
91.4662006579
  0
LINE
  5
2BD
100
AcDbEntity
  8
ASSI
100
AcDbLine
 62
7
  6
CONTINUOUS
 10
205.891796875
 20
91.4662006579
 11
192.491796875
 21
91.4662006579
  0
LINE
  5
2BE
100
AcDbEntity
  8
SMUSSO
100
AcDbLine
 62
7
  6
CONTINUOUS
 10
183.391796875
 20
91.4662006579
 11
169.991796875
 21
91.4662006579
  0
LINE
  5
2BF
100
AcDbEntity
  8
ASSI
100
AcDbLine
 62
7
  6
CONTINUOUS
 10
183.391796875
 20
91.4662006579
 11
169.991796875
 21
91.4662006579
  0
LINE
  5
2C0
100
AcDbEntity
  8
SMUSSO
100
AcDbLine
 62
7
  6
CONTINUOUS
 10
160.891796875
 20
91.4662006579
 11
147.491796875
 21
91.4662006579
  0
LINE
  5
2C1
100
AcDbEntity
  8
ASSI
100
AcDbLine
 62
7
  6
CONTINUOUS
 10
160.891796875
 20
91.4662006579
 11
147.491796875
 21
91.4662006579
  0
LINE
  5
2C2
100
AcDbEntity
  8
SMUSSO
100
AcDbLine
 62
7
  6
CONTINUOUS
 10
138.391796875
 20
91.4662006579
 11
124.991796875
 21
91.4662006579
  0
LINE
  5
2C3
100
AcDbEntity
  8
ASSI
100
AcDbLine
 62
7
  6
CONTINUOUS
 10
138.391796875
 20
91.4662006579
 11
124.991796875
 21
91.4662006579
  0
LINE
  5
2C4
100
AcDbEntity
  8
SMUSSO
100
AcDbLine
 62
250
  6
CONTINUOUS
 10
160.891796875
 20
128.2662006579
 11
160.891796875
 21
127.7662006579
  0
LINE
  5
2C5
100
AcDbEntity
  8
ASSI
100
AcDbLine
 62
250
  6
CONTINUOUS
 10
160.891796875
 20
128.2662006579
 11
160.891796875
 21
127.7662006579
  0
LINE
  5
2C6
100
AcDbEntity
  8
SMUSSO
100
AcDbLine
 62
250
  6
CONTINUOUS
 10
160.891796875
 20
107.7662006579
 11
160.891796875
 21
107.2662006579
  0
LINE
  5
2C7
100
AcDbEntity
  8
ASSI
100
AcDbLine
 62
250
  6
CONTINUOUS
 10
160.891796875
 20
107.7662006579
 11
160.891796875
 21
107.2662006579
  0
LINE
  5
2C8
100
AcDbEntity
  8
SMUSSO
100
AcDbLine
 62
250
  6
CONTINUOUS
 10
160.891796875
 20
90.9662006579
 11
160.891796875
 21
91.4662006579
  0
LINE
  5
2C9
100
AcDbEntity
  8
ASSI
100
AcDbLine
 62
250
  6
CONTINUOUS
 10
160.891796875
 20
90.9662006579
 11
160.891796875
 21
91.4662006579
  0
LINE
  5
2CA
100
AcDbEntity
  8
SMUSSO
100
AcDbLine
 62
250
  6
CONTINUOUS
 10
160.891796875
 20
111.4662006579
 11
160.891796875
 21
111.9662006579
  0
LINE
  5
2CB
100
AcDbEntity
  8
ASSI
100
AcDbLine
 62
250
  6
CONTINUOUS
 10
160.891796875
 20
111.4662006579
 11
160.891796875
 21
111.9662006579
  0
LINE
  5
2CC
100
AcDbEntity
  8
SMUSSO
100
AcDbLine
 62
7
  6
CONTINUOUS
 10
162.091796875
 20
126.5662006579
 11
162.091796875
 21
113.1662006579
  0
LINE
  5
2CD
100
AcDbEntity
  8
ASSI
100
AcDbLine
 62
7
  6
CONTINUOUS
 10
162.091796875
 20
126.5662006579
 11
162.091796875
 21
113.1662006579
  0
LINE
  5
2CE
100
AcDbEntity
  8
SMUSSO
100
AcDbLine
 62
7
  6
CONTINUOUS
 10
162.091796875
 20
106.0662006579
 11
162.091796875
 21
92.6662006579
  0
LINE
  5
2CF
100
AcDbEntity
  8
ASSI
100
AcDbLine
 62
7
  6
CONTINUOUS
 10
162.091796875
 20
106.0662006579
 11
162.091796875
 21
92.6662006579
  0
LINE
  5
2D0
100
AcDbEntity
  8
SMUSSO
100
AcDbLine
 62
7
  6
CONTINUOUS
 10
162.591796875
 20
126.5662006579
 11
162.591796875
 21
113.1662006579
  0
LINE
  5
2D1
100
AcDbEntity
  8
ASSI
100
AcDbLine
 62
7
  6
CONTINUOUS
 10
162.591796875
 20
126.5662006579
 11
162.591796875
 21
113.1662006579
  0
LINE
  5
2D2
100
AcDbEntity
  8
SMUSSO
100
AcDbLine
 62
7
  6
CONTINUOUS
 10
162.591796875
 20
106.0662006579
 11
162.591796875
 21
92.6662006579
  0
LINE
  5
2D3
100
AcDbEntity
  8
ASSI
100
AcDbLine
 62
7
  6
CONTINUOUS
 10
162.591796875
 20
106.0662006579
 11
162.591796875
 21
92.6662006579
  0
LWPOLYLINE
  5
2D4
100
AcDbEntity
  8
0
100
AcDbPolyline
 62
7
  6
CONTINUOUS
 90
3
 70
0
 43
0.3500000006
 10
178.5846461792
 20
163.3482458496
 10
178.5132240601
 20
163.1339613647
 10
178.3703616943
 20
162.8482547607
  0
LINE
  5
2D5
100
AcDbEntity
  8
SMUSSO
100
AcDbLine
 62
250
  6
CONTINUOUS
 10
230.091796875
 20
92.6662006579
 11
229.591796875
 21
92.6662006579
  0
LINE
  5
2D6
100
AcDbEntity
  8
ASSI
100
AcDbLine
 62
250
  6
CONTINUOUS
 10
230.091796875
 20
92.6662006579
 11
229.591796875
 21
92.6662006579
  0
LINE
  5
2D7
100
AcDbEntity
  8
SMUSSO
100
AcDbLine
 62
250
  6
CONTINUOUS
 10
207.591796875
 20
92.6662006579
 11
207.091796875
 21
92.6662006579
  0
LINE
  5
2D8
100
AcDbEntity
  8
ASSI
100
AcDbLine
 62
250
  6
CONTINUOUS
 10
207.591796875
 20
92.6662006579
 11
207.091796875
 21
92.6662006579
  0
LINE
  5
2D9
100
AcDbEntity
  8
SMUSSO
100
AcDbLine
 62
250
  6
CONTINUOUS
 10
185.091796875
 20
92.6662006579
 11
184.591796875
 21
92.6662006579
  0
LINE
  5
2DA
100
AcDbEntity
  8
ASSI
100
AcDbLine
 62
250
  6
CONTINUOUS
 10
185.091796875
 20
92.6662006579
 11
184.591796875
 21
92.6662006579
  0
LINE
  5
2DB
100
AcDbEntity
  8
SMUSSO
100
AcDbLine
 62
250
  6
CONTINUOUS
 10
162.591796875
 20
92.6662006579
 11
162.091796875
 21
92.6662006579
  0
LINE
  5
2DC
100
AcDbEntity
  8
ASSI
100
AcDbLine
 62
250
  6
CONTINUOUS
 10
162.591796875
 20
92.6662006579
 11
162.091796875
 21
92.6662006579
  0
LINE
  5
2DD
100
AcDbEntity
  8
SMUSSO
100
AcDbLine
 62
250
  6
CONTINUOUS
 10
140.091796875
 20
92.6662006579
 11
139.591796875
 21
92.6662006579
  0
LINE
  5
2DE
100
AcDbEntity
  8
ASSI
100
AcDbLine
 62
250
  6
CONTINUOUS
 10
140.091796875
 20
92.6662006579
 11
139.591796875
 21
92.6662006579
  0
LINE
  5
2DF
100
AcDbEntity
  8
SMUSSO
100
AcDbLine
 62
250
  6
CONTINUOUS
 10
123.291796875
 20
92.6662006579
 11
123.791796875
 21
92.6662006579
  0
LINE
  5
2E0
100
AcDbEntity
  8
ASSI
100
AcDbLine
 62
250
  6
CONTINUOUS
 10
123.291796875
 20
92.6662006579
 11
123.791796875
 21
92.6662006579
  0
LINE
  5
2E1
100
AcDbEntity
  8
SMUSSO
100
AcDbLine
 62
250
  6
CONTINUOUS
 10
145.791796875
 20
92.6662006579
 11
146.291796875
 21
92.6662006579
  0
LINE
  5
2E2
100
AcDbEntity
  8
ASSI
100
AcDbLine
 62
250
  6
CONTINUOUS
 10
145.791796875
 20
92.6662006579
 11
146.291796875
 21
92.6662006579
  0
LINE
  5
2E3
100
AcDbEntity
  8
SMUSSO
100
AcDbLine
 62
250
  6
CONTINUOUS
 10
168.291796875
 20
92.6662006579
 11
168.791796875
 21
92.6662006579
  0
LINE
  5
2E4
100
AcDbEntity
  8
ASSI
100
AcDbLine
 62
250
  6
CONTINUOUS
 10
168.291796875
 20
92.6662006579
 11
168.791796875
 21
92.6662006579
  0
LINE
  5
2E5
100
AcDbEntity
  8
SMUSSO
100
AcDbLine
 62
250
  6
CONTINUOUS
 10
190.791796875
 20
92.6662006579
 11
191.291796875
 21
92.6662006579
  0
LINE
  5
2E6
100
AcDbEntity
  8
ASSI
100
AcDbLine
 62
250
  6
CONTINUOUS
 10
190.791796875
 20
92.6662006579
 11
191.291796875
 21
92.6662006579
  0
LINE
  5
2E7
100
AcDbEntity
  8
SMUSSO
100
AcDbLine
 62
250
  6
CONTINUOUS
 10
213.291796875
 20
92.6662006579
 11
213.791796875
 21
92.6662006579
  0
LINE
  5
2E8
100
AcDbEntity
  8
ASSI
100
AcDbLine
 62
250
  6
CONTINUOUS
 10
213.291796875
 20
92.6662006579
 11
213.791796875
 21
92.6662006579
  0
LWPOLYLINE
  5
2E9
100
AcDbEntity
  8
CURVE
100
AcDbPolyline
 62
250
  6
CONTINUOUS
 90
30
 70
0
 10
251.6498079762
 20
71.0036378574
 10
251.6232255893
 20
71.0127925486
 10
251.596385077
 20
71.0211713822
 10
251.569309955
 20
71.0288089458
 10
251.5420237389
 20
71.0357398269
 10
251.5145499443
 20
71.0419986132
 10
251.486912087
 20
71.0476198923
 10
251.4591336825
 20
71.0526382517
 10
251.4312382465
 20
71.0570882791
 10
251.4032492946
 20
71.0610045619
 10
251.3751903424
 20
71.0644216879
 10
251.3470849056
 20
71.0673742446
 10
251.3189564999
 20
71.0698968196
 10
251.2776125962
 20
71.0728863419
 10
251.2362716125
 20
71.0750710768
 10
251.194935288
 20
71.0765002587
 10
251.153605362
 20
71.0772231219
 10
251.1122835737
 20
71.0772889004
 10
251.0709716624
 20
71.0767468288
 10
251.0296713672
 20
71.0756461411
 10
250.9883844275
 20
71.0740360716
 10
250.9357730448
 20
71.0713116524
 10
250.8831931763
 20
71.067874434
 10
250.8306518043
 20
71.0637594516
 10
250.7781559112
 20
71.0590017406
 10
250.7257124791
 20
71.0536363363
 10
250.6733284903
 20
71.047698274
 10
250.6210109271
 20
71.0412225889
 10
250.5687667719
 20
71.0342443164
 10
250.5166030068
 20
71.0267984917
  0
LINE
  5
2EA
100
AcDbEntity
  8
SMUSSO
100
AcDbLine
 62
7
  6
CONTINUOUS
 10
168.291796875
 20
92.6662006579
 11
168.291796875
 21
106.0662006579
  0
LINE
  5
2EB
100
AcDbEntity
  8
ASSI
100
AcDbLine
 62
7
  6
CONTINUOUS
 10
168.291796875
 20
92.6662006579
 11
168.291796875
 21
106.0662006579
  0
LINE
  5
2EC
100
AcDbEntity
  8
SMUSSO
100
AcDbLine
 62
7
  6
CONTINUOUS
 10
168.291796875
 20
113.1662006579
 11
168.291796875
 21
126.5662006579
  0
LINE
  5
2ED
100
AcDbEntity
  8
ASSI
100
AcDbLine
 62
7
  6
CONTINUOUS
 10
168.291796875
 20
113.1662006579
 11
168.291796875
 21
126.5662006579
  0
LINE
  5
2EE
100
AcDbEntity
  8
SMUSSO
100
AcDbLine
 62
7
  6
CONTINUOUS
 10
168.791796875
 20
92.6662006579
 11
168.791796875
 21
106.0662006579
  0
LINE
  5
2EF
100
AcDbEntity
  8
ASSI
100
AcDbLine
 62
7
  6
CONTINUOUS
 10
168.791796875
 20
92.6662006579
 11
168.791796875
 21
106.0662006579
  0
LINE
  5
2F0
100
AcDbEntity
  8
SMUSSO
100
AcDbLine
 62
7
  6
CONTINUOUS
 10
168.791796875
 20
113.1662006579
 11
168.791796875
 21
126.5662006579
  0
LINE
  5
2F1
100
AcDbEntity
  8
ASSI
100
AcDbLine
 62
7
  6
CONTINUOUS
 10
168.791796875
 20
113.1662006579
 11
168.791796875
 21
126.5662006579
  0
LINE
  5
2F2
100
AcDbEntity
  8
SMUSSO
100
AcDbLine
 62
250
  6
CONTINUOUS
 10
169.991796875
 20
128.2662006579
 11
169.991796875
 21
127.7662006579
  0
LINE
  5
2F3
100
AcDbEntity
  8
ASSI
100
AcDbLine
 62
250
  6
CONTINUOUS
 10
169.991796875
 20
128.2662006579
 11
169.991796875
 21
127.7662006579
  0
LINE
  5
2F4
100
AcDbEntity
  8
SMUSSO
100
AcDbLine
 62
250
  6
CONTINUOUS
 10
169.991796875
 20
107.7662006579
 11
169.991796875
 21
107.2662006579
  0
LINE
  5
2F5
100
AcDbEntity
  8
ASSI
100
AcDbLine
 62
250
  6
CONTINUOUS
 10
169.991796875
 20
107.7662006579
 11
169.991796875
 21
107.2662006579
  0
LINE
  5
2F6
100
AcDbEntity
  8
SMUSSO
100
AcDbLine
 62
250
  6
CONTINUOUS
 10
169.991796875
 20
90.9662006579
 11
169.991796875
 21
91.4662006579
  0
LINE
  5
2F7
100
AcDbEntity
  8
ASSI
100
AcDbLine
 62
250
  6
CONTINUOUS
 10
169.991796875
 20
90.9662006579
 11
169.991796875
 21
91.4662006579
  0
LINE
  5
2F8
100
AcDbEntity
  8
SMUSSO
100
AcDbLine
 62
250
  6
CONTINUOUS
 10
169.991796875
 20
111.4662006579
 11
169.991796875
 21
111.9662006579
  0
LINE
  5
2F9
100
AcDbEntity
  8
ASSI
100
AcDbLine
 62
250
  6
CONTINUOUS
 10
169.991796875
 20
111.4662006579
 11
169.991796875
 21
111.9662006579
  0
LINE
  5
2FA
100
AcDbEntity
  8
ASSI
100
AcDbLine
 62
7
  6
CONTINUOUS
 10
255.1130658348
 20
152.9929380681
 11
256.1324961973
 21
153.4361861278
  0
LINE
  5
2FB
100
AcDbEntity
  8
ASSI
100
AcDbLine
 62
7
  6
CONTINUOUS
 10
255.1130658348
 20
66.2394632477
 11
256.1324961973
 21
65.796215188
  0
LINE
  5
2FC
100
AcDbEntity
  8
SMUSSO
100
AcDbLine
 62
250
  6
CONTINUOUS
 10
230.091796875
 20
106.0662006579
 11
229.591796875
 21
106.0662006579
  0
LINE
  5
2FD
100
AcDbEntity
  8
ASSI
100
AcDbLine
 62
250
  6
CONTINUOUS
 10
230.091796875
 20
106.0662006579
 11
229.591796875
 21
106.0662006579
  0
LINE
  5
2FE
100
AcDbEntity
  8
SMUSSO
100
AcDbLine
 62
250
  6
CONTINUOUS
 10
207.591796875
 20
106.0662006579
 11
207.091796875
 21
106.0662006579
  0
LINE
  5
2FF
100
AcDbEntity
  8
ASSI
100
AcDbLine
 62
250
  6
CONTINUOUS
 10
207.591796875
 20
106.0662006579
 11
207.091796875
 21
106.0662006579
  0
LINE
  5
300
100
AcDbEntity
  8
SMUSSO
100
AcDbLine
 62
250
  6
CONTINUOUS
 10
185.091796875
 20
106.0662006579
 11
184.591796875
 21
106.0662006579
  0
LINE
  5
301
100
AcDbEntity
  8
ASSI
100
AcDbLine
 62
250
  6
CONTINUOUS
 10
185.091796875
 20
106.0662006579
 11
184.591796875
 21
106.0662006579
  0
LINE
  5
302
100
AcDbEntity
  8
SMUSSO
100
AcDbLine
 62
250
  6
CONTINUOUS
 10
162.591796875
 20
106.0662006579
 11
162.091796875
 21
106.0662006579
  0
LINE
  5
303
100
AcDbEntity
  8
ASSI
100
AcDbLine
 62
250
  6
CONTINUOUS
 10
162.591796875
 20
106.0662006579
 11
162.091796875
 21
106.0662006579
  0
LINE
  5
304
100
AcDbEntity
  8
SMUSSO
100
AcDbLine
 62
250
  6
CONTINUOUS
 10
140.091796875
 20
106.0662006579
 11
139.591796875
 21
106.0662006579
  0
LINE
  5
305
100
AcDbEntity
  8
ASSI
100
AcDbLine
 62
250
  6
CONTINUOUS
 10
140.091796875
 20
106.0662006579
 11
139.591796875
 21
106.0662006579
  0
LINE
  5
306
100
AcDbEntity
  8
SMUSSO
100
AcDbLine
 62
250
  6
CONTINUOUS
 10
123.291796875
 20
106.0662006579
 11
123.791796875
 21
106.0662006579
  0
LINE
  5
307
100
AcDbEntity
  8
ASSI
100
AcDbLine
 62
250
  6
CONTINUOUS
 10
123.291796875
 20
106.0662006579
 11
123.791796875
 21
106.0662006579
  0
LINE
  5
308
100
AcDbEntity
  8
SMUSSO
100
AcDbLine
 62
250
  6
CONTINUOUS
 10
145.791796875
 20
106.0662006579
 11
146.291796875
 21
106.0662006579
  0
LINE
  5
309
100
AcDbEntity
  8
ASSI
100
AcDbLine
 62
250
  6
CONTINUOUS
 10
145.791796875
 20
106.0662006579
 11
146.291796875
 21
106.0662006579
  0
LINE
  5
30A
100
AcDbEntity
  8
SMUSSO
100
AcDbLine
 62
250
  6
CONTINUOUS
 10
168.291796875
 20
106.0662006579
 11
168.791796875
 21
106.0662006579
  0
LINE
  5
30B
100
AcDbEntity
  8
ASSI
100
AcDbLine
 62
250
  6
CONTINUOUS
 10
168.291796875
 20
106.0662006579
 11
168.791796875
 21
106.0662006579
  0
LINE
  5
30C
100
AcDbEntity
  8
SMUSSO
100
AcDbLine
 62
250
  6
CONTINUOUS
 10
190.791796875
 20
106.0662006579
 11
191.291796875
 21
106.0662006579
  0
LINE
  5
30D
100
AcDbEntity
  8
ASSI
100
AcDbLine
 62
250
  6
CONTINUOUS
 10
190.791796875
 20
106.0662006579
 11
191.291796875
 21
106.0662006579
  0
LINE
  5
30E
100
AcDbEntity
  8
SMUSSO
100
AcDbLine
 62
250
  6
CONTINUOUS
 10
213.291796875
 20
106.0662006579
 11
213.791796875
 21
106.0662006579
  0
LINE
  5
30F
100
AcDbEntity
  8
ASSI
100
AcDbLine
 62
250
  6
CONTINUOUS
 10
213.291796875
 20
106.0662006579
 11
213.791796875
 21
106.0662006579
  0
LINE
  5
310
100
AcDbEntity
  8
SMUSSO
100
AcDbLine
 62
7
  6
CONTINUOUS
 10
124.991796875
 20
107.2662006579
 11
138.391796875
 21
107.2662006579
  0
LINE
  5
311
100
AcDbEntity
  8
ASSI
100
AcDbLine
 62
7
  6
CONTINUOUS
 10
124.991796875
 20
107.2662006579
 11
138.391796875
 21
107.2662006579
  0
LINE
  5
312
100
AcDbEntity
  8
SMUSSO
100
AcDbLine
 62
7
  6
CONTINUOUS
 10
147.491796875
 20
107.2662006579
 11
160.891796875
 21
107.2662006579
  0
LINE
  5
313
100
AcDbEntity
  8
ASSI
100
AcDbLine
 62
7
  6
CONTINUOUS
 10
147.491796875
 20
107.2662006579
 11
160.891796875
 21
107.2662006579
  0
LINE
  5
314
100
AcDbEntity
  8
SMUSSO
100
AcDbLine
 62
7
  6
CONTINUOUS
 10
169.991796875
 20
107.2662006579
 11
183.391796875
 21
107.2662006579
  0
LINE
  5
315
100
AcDbEntity
  8
ASSI
100
AcDbLine
 62
7
  6
CONTINUOUS
 10
169.991796875
 20
107.2662006579
 11
183.391796875
 21
107.2662006579
  0
LINE
  5
316
100
AcDbEntity
  8
SMUSSO
100
AcDbLine
 62
7
  6
CONTINUOUS
 10
192.491796875
 20
107.2662006579
 11
205.891796875
 21
107.2662006579
  0
LINE
  5
317
100
AcDbEntity
  8
ASSI
100
AcDbLine
 62
7
  6
CONTINUOUS
 10
192.491796875
 20
107.2662006579
 11
205.891796875
 21
107.2662006579
  0
LINE
  5
318
100
AcDbEntity
  8
SMUSSO
100
AcDbLine
 62
7
  6
CONTINUOUS
 10
214.991796875
 20
107.2662006579
 11
228.391796875
 21
107.2662006579
  0
LINE
  5
319
100
AcDbEntity
  8
ASSI
100
AcDbLine
 62
7
  6
CONTINUOUS
 10
214.991796875
 20
107.2662006579
 11
228.391796875
 21
107.2662006579
  0
LINE
  5
31A
100
AcDbEntity
  8
SMUSSO
100
AcDbLine
 62
7
  6
CONTINUOUS
 10
124.991796875
 20
107.7662006579
 11
138.391796875
 21
107.7662006579
  0
LINE
  5
31B
100
AcDbEntity
  8
ASSI
100
AcDbLine
 62
7
  6
CONTINUOUS
 10
124.991796875
 20
107.7662006579
 11
138.391796875
 21
107.7662006579
  0
LINE
  5
31C
100
AcDbEntity
  8
SMUSSO
100
AcDbLine
 62
7
  6
CONTINUOUS
 10
147.491796875
 20
107.7662006579
 11
160.891796875
 21
107.7662006579
  0
LINE
  5
31D
100
AcDbEntity
  8
ASSI
100
AcDbLine
 62
7
  6
CONTINUOUS
 10
147.491796875
 20
107.7662006579
 11
160.891796875
 21
107.7662006579
  0
LINE
  5
31E
100
AcDbEntity
  8
SMUSSO
100
AcDbLine
 62
7
  6
CONTINUOUS
 10
169.991796875
 20
107.7662006579
 11
183.391796875
 21
107.7662006579
  0
LINE
  5
31F
100
AcDbEntity
  8
ASSI
100
AcDbLine
 62
7
  6
CONTINUOUS
 10
169.991796875
 20
107.7662006579
 11
183.391796875
 21
107.7662006579
  0
LINE
  5
320
100
AcDbEntity
  8
SMUSSO
100
AcDbLine
 62
7
  6
CONTINUOUS
 10
192.491796875
 20
107.7662006579
 11
205.891796875
 21
107.7662006579
  0
LINE
  5
321
100
AcDbEntity
  8
ASSI
100
AcDbLine
 62
7
  6
CONTINUOUS
 10
192.491796875
 20
107.7662006579
 11
205.891796875
 21
107.7662006579
  0
LINE
  5
322
100
AcDbEntity
  8
SMUSSO
100
AcDbLine
 62
7
  6
CONTINUOUS
 10
214.991796875
 20
107.7662006579
 11
228.391796875
 21
107.7662006579
  0
LINE
  5
323
100
AcDbEntity
  8
ASSI
100
AcDbLine
 62
7
  6
CONTINUOUS
 10
214.991796875
 20
107.7662006579
 11
228.391796875
 21
107.7662006579
  0
LWPOLYLINE
  5
324
100
AcDbEntity
  8
0
100
AcDbPolyline
 62
7
  6
CONTINUOUS
 90
13
 70
0
 43
0.3500000006
 10
271.0248810425
 20
109.6161982727
 10
269.7391560059
 20
109.6161982727
 10
269.3105870361
 20
109.8304827576
 10
268.8820180664
 20
110.259060791
 10
268.8820180664
 20
110.4733452759
 10
269.3105870361
 20
110.9019142456
 10
269.7391560059
 20
111.1161987305
 10
271.0248810425
 20
111.1161987305
 10
271.4534500122
 20
110.9019142456
 10
271.8820189819
 20
110.4733452759
 10
271.8820189819
 20
110.259060791
 10
271.4534500122
 20
109.8304827576
 10
271.0248810425
 20
109.6161982727
  0
LINE
  5
325
100
AcDbEntity
  8
SMUSSO
100
AcDbLine
 62
250
  6
CONTINUOUS
 10
183.391796875
 20
128.2662006579
 11
183.391796875
 21
127.7662006579
  0
LINE
  5
326
100
AcDbEntity
  8
ASSI
100
AcDbLine
 62
250
  6
CONTINUOUS
 10
183.391796875
 20
128.2662006579
 11
183.391796875
 21
127.7662006579
  0
LINE
  5
327
100
AcDbEntity
  8
SMUSSO
100
AcDbLine
 62
250
  6
CONTINUOUS
 10
183.391796875
 20
107.7662006579
 11
183.391796875
 21
107.2662006579
  0
LINE
  5
328
100
AcDbEntity
  8
ASSI
100
AcDbLine
 62
250
  6
CONTINUOUS
 10
183.391796875
 20
107.7662006579
 11
183.391796875
 21
107.2662006579
  0
LINE
  5
329
100
AcDbEntity
  8
SMUSSO
100
AcDbLine
 62
250
  6
CONTINUOUS
 10
183.391796875
 20
90.9662006579
 11
183.391796875
 21
91.4662006579
  0
LINE
  5
32A
100
AcDbEntity
  8
ASSI
100
AcDbLine
 62
250
  6
CONTINUOUS
 10
183.391796875
 20
90.9662006579
 11
183.391796875
 21
91.4662006579
  0
LINE
  5
32B
100
AcDbEntity
  8
SMUSSO
100
AcDbLine
 62
250
  6
CONTINUOUS
 10
183.391796875
 20
111.4662006579
 11
183.391796875
 21
111.9662006579
  0
LINE
  5
32C
100
AcDbEntity
  8
ASSI
100
AcDbLine
 62
250
  6
CONTINUOUS
 10
183.391796875
 20
111.4662006579
 11
183.391796875
 21
111.9662006579
  0
LINE
  5
32D
100
AcDbEntity
  8
SMUSSO
100
AcDbLine
 62
7
  6
CONTINUOUS
 10
228.391796875
 20
111.4662006579
 11
214.991796875
 21
111.4662006579
  0
LINE
  5
32E
100
AcDbEntity
  8
ASSI
100
AcDbLine
 62
7
  6
CONTINUOUS
 10
228.391796875
 20
111.4662006579
 11
214.991796875
 21
111.4662006579
  0
LINE
  5
32F
100
AcDbEntity
  8
SMUSSO
100
AcDbLine
 62
7
  6
CONTINUOUS
 10
205.891796875
 20
111.4662006579
 11
192.491796875
 21
111.4662006579
  0
LINE
  5
330
100
AcDbEntity
  8
ASSI
100
AcDbLine
 62
7
  6
CONTINUOUS
 10
205.891796875
 20
111.4662006579
 11
192.491796875
 21
111.4662006579
  0
LINE
  5
331
100
AcDbEntity
  8
SMUSSO
100
AcDbLine
 62
7
  6
CONTINUOUS
 10
183.391796875
 20
111.4662006579
 11
169.991796875
 21
111.4662006579
  0
LINE
  5
332
100
AcDbEntity
  8
ASSI
100
AcDbLine
 62
7
  6
CONTINUOUS
 10
183.391796875
 20
111.4662006579
 11
169.991796875
 21
111.4662006579
  0
LINE
  5
333
100
AcDbEntity
  8
SMUSSO
100
AcDbLine
 62
7
  6
CONTINUOUS
 10
160.891796875
 20
111.4662006579
 11
147.491796875
 21
111.4662006579
  0
LINE
  5
334
100
AcDbEntity
  8
ASSI
100
AcDbLine
 62
7
  6
CONTINUOUS
 10
160.891796875
 20
111.4662006579
 11
147.491796875
 21
111.4662006579
  0
LINE
  5
335
100
AcDbEntity
  8
SMUSSO
100
AcDbLine
 62
7
  6
CONTINUOUS
 10
138.391796875
 20
111.4662006579
 11
124.991796875
 21
111.4662006579
  0
LINE
  5
336
100
AcDbEntity
  8
ASSI
100
AcDbLine
 62
7
  6
CONTINUOUS
 10
138.391796875
 20
111.4662006579
 11
124.991796875
 21
111.4662006579
  0
LINE
  5
337
100
AcDbEntity
  8
SMUSSO
100
AcDbLine
 62
7
  6
CONTINUOUS
 10
228.391796875
 20
111.9662006579
 11
214.991796875
 21
111.9662006579
  0
LINE
  5
338
100
AcDbEntity
  8
ASSI
100
AcDbLine
 62
7
  6
CONTINUOUS
 10
228.391796875
 20
111.9662006579
 11
214.991796875
 21
111.9662006579
  0
LINE
  5
339
100
AcDbEntity
  8
SMUSSO
100
AcDbLine
 62
7
  6
CONTINUOUS
 10
205.891796875
 20
111.9662006579
 11
192.491796875
 21
111.9662006579
  0
LINE
  5
33A
100
AcDbEntity
  8
ASSI
100
AcDbLine
 62
7
  6
CONTINUOUS
 10
205.891796875
 20
111.9662006579
 11
192.491796875
 21
111.9662006579
  0
LINE
  5
33B
100
AcDbEntity
  8
SMUSSO
100
AcDbLine
 62
7
  6
CONTINUOUS
 10
183.391796875
 20
111.9662006579
 11
169.991796875
 21
111.9662006579
  0
LINE
  5
33C
100
AcDbEntity
  8
ASSI
100
AcDbLine
 62
7
  6
CONTINUOUS
 10
183.391796875
 20
111.9662006579
 11
169.991796875
 21
111.9662006579
  0
LINE
  5
33D
100
AcDbEntity
  8
SMUSSO
100
AcDbLine
 62
7
  6
CONTINUOUS
 10
160.891796875
 20
111.9662006579
 11
147.491796875
 21
111.9662006579
  0
LINE
  5
33E
100
AcDbEntity
  8
ASSI
100
AcDbLine
 62
7
  6
CONTINUOUS
 10
160.891796875
 20
111.9662006579
 11
147.491796875
 21
111.9662006579
  0
LINE
  5
33F
100
AcDbEntity
  8
SMUSSO
100
AcDbLine
 62
7
  6
CONTINUOUS
 10
138.391796875
 20
111.9662006579
 11
124.991796875
 21
111.9662006579
  0
LINE
  5
340
100
AcDbEntity
  8
ASSI
100
AcDbLine
 62
7
  6
CONTINUOUS
 10
138.391796875
 20
111.9662006579
 11
124.991796875
 21
111.9662006579
  0
LINE
  5
341
100
AcDbEntity
  8
SMUSSO
100
AcDbLine
 62
250
  6
CONTINUOUS
 10
230.091796875
 20
113.1662006579
 11
229.591796875
 21
113.1662006579
  0
LINE
  5
342
100
AcDbEntity
  8
ASSI
100
AcDbLine
 62
250
  6
CONTINUOUS
 10
230.091796875
 20
113.1662006579
 11
229.591796875
 21
113.1662006579
  0
LINE
  5
343
100
AcDbEntity
  8
SMUSSO
100
AcDbLine
 62
250
  6
CONTINUOUS
 10
207.591796875
 20
113.1662006579
 11
207.091796875
 21
113.1662006579
  0
LINE
  5
344
100
AcDbEntity
  8
ASSI
100
AcDbLine
 62
250
  6
CONTINUOUS
 10
207.591796875
 20
113.1662006579
 11
207.091796875
 21
113.1662006579
  0
LINE
  5
345
100
AcDbEntity
  8
SMUSSO
100
AcDbLine
 62
250
  6
CONTINUOUS
 10
185.091796875
 20
113.1662006579
 11
184.591796875
 21
113.1662006579
  0
LINE
  5
346
100
AcDbEntity
  8
ASSI
100
AcDbLine
 62
250
  6
CONTINUOUS
 10
185.091796875
 20
113.1662006579
 11
184.591796875
 21
113.1662006579
  0
LINE
  5
347
100
AcDbEntity
  8
SMUSSO
100
AcDbLine
 62
250
  6
CONTINUOUS
 10
162.591796875
 20
113.1662006579
 11
162.091796875
 21
113.1662006579
  0
LINE
  5
348
100
AcDbEntity
  8
ASSI
100
AcDbLine
 62
250
  6
CONTINUOUS
 10
162.591796875
 20
113.1662006579
 11
162.091796875
 21
113.1662006579
  0
LINE
  5
349
100
AcDbEntity
  8
SMUSSO
100
AcDbLine
 62
250
  6
CONTINUOUS
 10
140.091796875
 20
113.1662006579
 11
139.591796875
 21
113.1662006579
  0
LINE
  5
34A
100
AcDbEntity
  8
ASSI
100
AcDbLine
 62
250
  6
CONTINUOUS
 10
140.091796875
 20
113.1662006579
 11
139.591796875
 21
113.1662006579
  0
LINE
  5
34B
100
AcDbEntity
  8
SMUSSO
100
AcDbLine
 62
250
  6
CONTINUOUS
 10
123.291796875
 20
113.1662006579
 11
123.791796875
 21
113.1662006579
  0
LINE
  5
34C
100
AcDbEntity
  8
ASSI
100
AcDbLine
 62
250
  6
CONTINUOUS
 10
123.291796875
 20
113.1662006579
 11
123.791796875
 21
113.1662006579
  0
LINE
  5
34D
100
AcDbEntity
  8
SMUSSO
100
AcDbLine
 62
250
  6
CONTINUOUS
 10
145.791796875
 20
113.1662006579
 11
146.291796875
 21
113.1662006579
  0
LINE
  5
34E
100
AcDbEntity
  8
ASSI
100
AcDbLine
 62
250
  6
CONTINUOUS
 10
145.791796875
 20
113.1662006579
 11
146.291796875
 21
113.1662006579
  0
LINE
  5
34F
100
AcDbEntity
  8
SMUSSO
100
AcDbLine
 62
250
  6
CONTINUOUS
 10
168.291796875
 20
113.1662006579
 11
168.791796875
 21
113.1662006579
  0
LINE
  5
350
100
AcDbEntity
  8
ASSI
100
AcDbLine
 62
250
  6
CONTINUOUS
 10
168.291796875
 20
113.1662006579
 11
168.791796875
 21
113.1662006579
  0
LINE
  5
351
100
AcDbEntity
  8
SMUSSO
100
AcDbLine
 62
250
  6
CONTINUOUS
 10
190.791796875
 20
113.1662006579
 11
191.291796875
 21
113.1662006579
  0
LINE
  5
352
100
AcDbEntity
  8
ASSI
100
AcDbLine
 62
250
  6
CONTINUOUS
 10
190.791796875
 20
113.1662006579
 11
191.291796875
 21
113.1662006579
  0
LINE
  5
353
100
AcDbEntity
  8
SMUSSO
100
AcDbLine
 62
250
  6
CONTINUOUS
 10
213.291796875
 20
113.1662006579
 11
213.791796875
 21
113.1662006579
  0
LINE
  5
354
100
AcDbEntity
  8
ASSI
100
AcDbLine
 62
250
  6
CONTINUOUS
 10
213.291796875
 20
113.1662006579
 11
213.791796875
 21
113.1662006579
  0
LINE
  5
355
100
AcDbEntity
  8
SMUSSO
100
AcDbLine
 62
7
  6
CONTINUOUS
 10
184.591796875
 20
126.5662006579
 11
184.591796875
 21
113.1662006579
  0
LINE
  5
356
100
AcDbEntity
  8
ASSI
100
AcDbLine
 62
7
  6
CONTINUOUS
 10
184.591796875
 20
126.5662006579
 11
184.591796875
 21
113.1662006579
  0
LINE
  5
357
100
AcDbEntity
  8
SMUSSO
100
AcDbLine
 62
7
  6
CONTINUOUS
 10
184.591796875
 20
106.0662006579
 11
184.591796875
 21
92.6662006579
  0
LINE
  5
358
100
AcDbEntity
  8
ASSI
100
AcDbLine
 62
7
  6
CONTINUOUS
 10
184.591796875
 20
106.0662006579
 11
184.591796875
 21
92.6662006579
  0
LINE
  5
359
100
AcDbEntity
  8
SMUSSO
100
AcDbLine
 62
7
  6
CONTINUOUS
 10
185.091796875
 20
126.5662006579
 11
185.091796875
 21
113.1662006579
  0
LINE
  5
35A
100
AcDbEntity
  8
ASSI
100
AcDbLine
 62
7
  6
CONTINUOUS
 10
185.091796875
 20
126.5662006579
 11
185.091796875
 21
113.1662006579
  0
LINE
  5
35B
100
AcDbEntity
  8
SMUSSO
100
AcDbLine
 62
7
  6
CONTINUOUS
 10
185.091796875
 20
106.0662006579
 11
185.091796875
 21
92.6662006579
  0
LINE
  5
35C
100
AcDbEntity
  8
ASSI
100
AcDbLine
 62
7
  6
CONTINUOUS
 10
185.091796875
 20
106.0662006579
 11
185.091796875
 21
92.6662006579
  0
LINE
  5
35D
100
AcDbEntity
  8
ASSI
100
AcDbLine
 62
7
  6
CONTINUOUS
 10
98.2705279152
 20
66.2394632477
 11
97.2510975527
 21
65.796215188
  0
LINE
  5
35E
100
AcDbEntity
  8
ASSI
100
AcDbLine
 62
7
  6
CONTINUOUS
 10
98.2705279152
 20
152.9929380681
 11
97.2510975527
 21
153.4361861278
  0
LINE
  5
35F
100
AcDbEntity
  8
SMUSSO
100
AcDbLine
 62
7
  6
CONTINUOUS
 10
190.791796875
 20
92.6662006579
 11
190.791796875
 21
106.0662006579
  0
LINE
  5
360
100
AcDbEntity
  8
ASSI
100
AcDbLine
 62
7
  6
CONTINUOUS
 10
190.791796875
 20
92.6662006579
 11
190.791796875
 21
106.0662006579
  0
LINE
  5
361
100
AcDbEntity
  8
SMUSSO
100
AcDbLine
 62
7
  6
CONTINUOUS
 10
190.791796875
 20
113.1662006579
 11
190.791796875
 21
126.5662006579
  0
LINE
  5
362
100
AcDbEntity
  8
ASSI
100
AcDbLine
 62
7
  6
CONTINUOUS
 10
190.791796875
 20
113.1662006579
 11
190.791796875
 21
126.5662006579
  0
LINE
  5
363
100
AcDbEntity
  8
SMUSSO
100
AcDbLine
 62
7
  6
CONTINUOUS
 10
191.291796875
 20
92.6662006579
 11
191.291796875
 21
106.0662006579
  0
LINE
  5
364
100
AcDbEntity
  8
ASSI
100
AcDbLine
 62
7
  6
CONTINUOUS
 10
191.291796875
 20
92.6662006579
 11
191.291796875
 21
106.0662006579
  0
LINE
  5
365
100
AcDbEntity
  8
SMUSSO
100
AcDbLine
 62
7
  6
CONTINUOUS
 10
191.291796875
 20
113.1662006579
 11
191.291796875
 21
126.5662006579
  0
LINE
  5
366
100
AcDbEntity
  8
ASSI
100
AcDbLine
 62
7
  6
CONTINUOUS
 10
191.291796875
 20
113.1662006579
 11
191.291796875
 21
126.5662006579
  0
LINE
  5
367
100
AcDbEntity
  8
SMUSSO
100
AcDbLine
 62
250
  6
CONTINUOUS
 10
192.491796875
 20
128.2662006579
 11
192.491796875
 21
127.7662006579
  0
LINE
  5
368
100
AcDbEntity
  8
ASSI
100
AcDbLine
 62
250
  6
CONTINUOUS
 10
192.491796875
 20
128.2662006579
 11
192.491796875
 21
127.7662006579
  0
LINE
  5
369
100
AcDbEntity
  8
SMUSSO
100
AcDbLine
 62
250
  6
CONTINUOUS
 10
192.491796875
 20
107.7662006579
 11
192.491796875
 21
107.2662006579
  0
LINE
  5
36A
100
AcDbEntity
  8
ASSI
100
AcDbLine
 62
250
  6
CONTINUOUS
 10
192.491796875
 20
107.7662006579
 11
192.491796875
 21
107.2662006579
  0
LINE
  5
36B
100
AcDbEntity
  8
SMUSSO
100
AcDbLine
 62
250
  6
CONTINUOUS
 10
192.491796875
 20
90.9662006579
 11
192.491796875
 21
91.4662006579
  0
LINE
  5
36C
100
AcDbEntity
  8
ASSI
100
AcDbLine
 62
250
  6
CONTINUOUS
 10
192.491796875
 20
90.9662006579
 11
192.491796875
 21
91.4662006579
  0
LINE
  5
36D
100
AcDbEntity
  8
SMUSSO
100
AcDbLine
 62
250
  6
CONTINUOUS
 10
192.491796875
 20
111.4662006579
 11
192.491796875
 21
111.9662006579
  0
LINE
  5
36E
100
AcDbEntity
  8
ASSI
100
AcDbLine
 62
250
  6
CONTINUOUS
 10
192.491796875
 20
111.4662006579
 11
192.491796875
 21
111.9662006579
  0
LINE
  5
36F
100
AcDbEntity
  8
SMUSSO
100
AcDbLine
 62
250
  6
CONTINUOUS
 10
230.091796875
 20
126.5662006579
 11
229.591796875
 21
126.5662006579
  0
LINE
  5
370
100
AcDbEntity
  8
ASSI
100
AcDbLine
 62
250
  6
CONTINUOUS
 10
230.091796875
 20
126.5662006579
 11
229.591796875
 21
126.5662006579
  0
LINE
  5
371
100
AcDbEntity
  8
SMUSSO
100
AcDbLine
 62
250
  6
CONTINUOUS
 10
207.591796875
 20
126.5662006579
 11
207.091796875
 21
126.5662006579
  0
LINE
  5
372
100
AcDbEntity
  8
ASSI
100
AcDbLine
 62
250
  6
CONTINUOUS
 10
207.591796875
 20
126.5662006579
 11
207.091796875
 21
126.5662006579
  0
LINE
  5
373
100
AcDbEntity
  8
SMUSSO
100
AcDbLine
 62
250
  6
CONTINUOUS
 10
185.091796875
 20
126.5662006579
 11
184.591796875
 21
126.5662006579
  0
LINE
  5
374
100
AcDbEntity
  8
ASSI
100
AcDbLine
 62
250
  6
CONTINUOUS
 10
185.091796875
 20
126.5662006579
 11
184.591796875
 21
126.5662006579
  0
LINE
  5
375
100
AcDbEntity
  8
SMUSSO
100
AcDbLine
 62
250
  6
CONTINUOUS
 10
162.591796875
 20
126.5662006579
 11
162.091796875
 21
126.5662006579
  0
LINE
  5
376
100
AcDbEntity
  8
ASSI
100
AcDbLine
 62
250
  6
CONTINUOUS
 10
162.591796875
 20
126.5662006579
 11
162.091796875
 21
126.5662006579
  0
LINE
  5
377
100
AcDbEntity
  8
SMUSSO
100
AcDbLine
 62
250
  6
CONTINUOUS
 10
140.091796875
 20
126.5662006579
 11
139.591796875
 21
126.5662006579
  0
LINE
  5
378
100
AcDbEntity
  8
ASSI
100
AcDbLine
 62
250
  6
CONTINUOUS
 10
140.091796875
 20
126.5662006579
 11
139.591796875
 21
126.5662006579
  0
LINE
  5
379
100
AcDbEntity
  8
SMUSSO
100
AcDbLine
 62
250
  6
CONTINUOUS
 10
123.291796875
 20
126.5662006579
 11
123.791796875
 21
126.5662006579
  0
LINE
  5
37A
100
AcDbEntity
  8
ASSI
100
AcDbLine
 62
250
  6
CONTINUOUS
 10
123.291796875
 20
126.5662006579
 11
123.791796875
 21
126.5662006579
  0
LINE
  5
37B
100
AcDbEntity
  8
SMUSSO
100
AcDbLine
 62
250
  6
CONTINUOUS
 10
145.791796875
 20
126.5662006579
 11
146.291796875
 21
126.5662006579
  0
LINE
  5
37C
100
AcDbEntity
  8
ASSI
100
AcDbLine
 62
250
  6
CONTINUOUS
 10
145.791796875
 20
126.5662006579
 11
146.291796875
 21
126.5662006579
  0
LINE
  5
37D
100
AcDbEntity
  8
SMUSSO
100
AcDbLine
 62
250
  6
CONTINUOUS
 10
168.291796875
 20
126.5662006579
 11
168.791796875
 21
126.5662006579
  0
LINE
  5
37E
100
AcDbEntity
  8
ASSI
100
AcDbLine
 62
250
  6
CONTINUOUS
 10
168.291796875
 20
126.5662006579
 11
168.791796875
 21
126.5662006579
  0
LINE
  5
37F
100
AcDbEntity
  8
SMUSSO
100
AcDbLine
 62
250
  6
CONTINUOUS
 10
190.791796875
 20
126.5662006579
 11
191.291796875
 21
126.5662006579
  0
LINE
  5
380
100
AcDbEntity
  8
ASSI
100
AcDbLine
 62
250
  6
CONTINUOUS
 10
190.791796875
 20
126.5662006579
 11
191.291796875
 21
126.5662006579
  0
LINE
  5
381
100
AcDbEntity
  8
SMUSSO
100
AcDbLine
 62
250
  6
CONTINUOUS
 10
213.291796875
 20
126.5662006579
 11
213.791796875
 21
126.5662006579
  0
LINE
  5
382
100
AcDbEntity
  8
ASSI
100
AcDbLine
 62
250
  6
CONTINUOUS
 10
213.291796875
 20
126.5662006579
 11
213.791796875
 21
126.5662006579
  0
LINE
  5
383
100
AcDbEntity
  8
SMUSSO
100
AcDbLine
 62
7
  6
CONTINUOUS
 10
124.991796875
 20
127.7662006579
 11
138.391796875
 21
127.7662006579
  0
LINE
  5
384
100
AcDbEntity
  8
ASSI
100
AcDbLine
 62
7
  6
CONTINUOUS
 10
124.991796875
 20
127.7662006579
 11
138.391796875
 21
127.7662006579
  0
LINE
  5
385
100
AcDbEntity
  8
SMUSSO
100
AcDbLine
 62
7
  6
CONTINUOUS
 10
147.491796875
 20
127.7662006579
 11
160.891796875
 21
127.7662006579
  0
LINE
  5
386
100
AcDbEntity
  8
ASSI
100
AcDbLine
 62
7
  6
CONTINUOUS
 10
147.491796875
 20
127.7662006579
 11
160.891796875
 21
127.7662006579
  0
LINE
  5
387
100
AcDbEntity
  8
SMUSSO
100
AcDbLine
 62
7
  6
CONTINUOUS
 10
169.991796875
 20
127.7662006579
 11
183.391796875
 21
127.7662006579
  0
LINE
  5
388
100
AcDbEntity
  8
ASSI
100
AcDbLine
 62
7
  6
CONTINUOUS
 10
169.991796875
 20
127.7662006579
 11
183.391796875
 21
127.7662006579
  0
LINE
  5
389
100
AcDbEntity
  8
SMUSSO
100
AcDbLine
 62
7
  6
CONTINUOUS
 10
192.491796875
 20
127.7662006579
 11
205.891796875
 21
127.7662006579
  0
LINE
  5
38A
100
AcDbEntity
  8
ASSI
100
AcDbLine
 62
7
  6
CONTINUOUS
 10
192.491796875
 20
127.7662006579
 11
205.891796875
 21
127.7662006579
  0
LINE
  5
38B
100
AcDbEntity
  8
SMUSSO
100
AcDbLine
 62
7
  6
CONTINUOUS
 10
214.991796875
 20
127.7662006579
 11
228.391796875
 21
127.7662006579
  0
LINE
  5
38C
100
AcDbEntity
  8
ASSI
100
AcDbLine
 62
7
  6
CONTINUOUS
 10
214.991796875
 20
127.7662006579
 11
228.391796875
 21
127.7662006579
  0
LINE
  5
38D
100
AcDbEntity
  8
SMUSSO
100
AcDbLine
 62
7
  6
CONTINUOUS
 10
124.991796875
 20
128.2662006579
 11
138.391796875
 21
128.2662006579
  0
LINE
  5
38E
100
AcDbEntity
  8
ASSI
100
AcDbLine
 62
7
  6
CONTINUOUS
 10
124.991796875
 20
128.2662006579
 11
138.391796875
 21
128.2662006579
  0
LINE
  5
38F
100
AcDbEntity
  8
SMUSSO
100
AcDbLine
 62
7
  6
CONTINUOUS
 10
147.491796875
 20
128.2662006579
 11
160.891796875
 21
128.2662006579
  0
LINE
  5
390
100
AcDbEntity
  8
ASSI
100
AcDbLine
 62
7
  6
CONTINUOUS
 10
147.491796875
 20
128.2662006579
 11
160.891796875
 21
128.2662006579
  0
LINE
  5
391
100
AcDbEntity
  8
SMUSSO
100
AcDbLine
 62
7
  6
CONTINUOUS
 10
169.991796875
 20
128.2662006579
 11
183.391796875
 21
128.2662006579
  0
LINE
  5
392
100
AcDbEntity
  8
ASSI
100
AcDbLine
 62
7
  6
CONTINUOUS
 10
169.991796875
 20
128.2662006579
 11
183.391796875
 21
128.2662006579
  0
LINE
  5
393
100
AcDbEntity
  8
SMUSSO
100
AcDbLine
 62
7
  6
CONTINUOUS
 10
192.491796875
 20
128.2662006579
 11
205.891796875
 21
128.2662006579
  0
LINE
  5
394
100
AcDbEntity
  8
ASSI
100
AcDbLine
 62
7
  6
CONTINUOUS
 10
192.491796875
 20
128.2662006579
 11
205.891796875
 21
128.2662006579
  0
LINE
  5
395
100
AcDbEntity
  8
SMUSSO
100
AcDbLine
 62
7
  6
CONTINUOUS
 10
214.991796875
 20
128.2662006579
 11
228.391796875
 21
128.2662006579
  0
LINE
  5
396
100
AcDbEntity
  8
ASSI
100
AcDbLine
 62
7
  6
CONTINUOUS
 10
214.991796875
 20
128.2662006579
 11
228.391796875
 21
128.2662006579
  0
LINE
  5
397
100
AcDbEntity
  8
ASSI
100
AcDbLine
 62
7
  6
CONTINUOUS
 10
255.1473565294
 20
154.4223691144
 11
255.3411880729
 21
154.6162006579
  0
LINE
  5
398
100
AcDbEntity
  8
ASSI
100
AcDbLine
 62
7
  6
CONTINUOUS
 10
256.1479653315
 20
153.4217603123
 11
256.341796875
 21
153.6155918558
  0
LINE
  5
399
100
AcDbEntity
  8
ASSI
100
AcDbLine
 62
7
  6
CONTINUOUS
 10
255.1473565294
 20
64.8100322014
 11
255.3411880729
 21
64.6162006579
  0
LINE
  5
39A
100
AcDbEntity
  8
ASSI
100
AcDbLine
 62
7
  6
CONTINUOUS
 10
256.1479653315
 20
65.8106410035
 11
256.341796875
 21
65.61680946
  0
LINE
  5
39B
100
AcDbEntity
  8
SMUSSO
100
AcDbLine
 62
250
  6
CONTINUOUS
 10
205.891796875
 20
128.2662006579
 11
205.891796875
 21
127.7662006579
  0
LINE
  5
39C
100
AcDbEntity
  8
ASSI
100
AcDbLine
 62
250
  6
CONTINUOUS
 10
205.891796875
 20
128.2662006579
 11
205.891796875
 21
127.7662006579
  0
LINE
  5
39D
100
AcDbEntity
  8
SMUSSO
100
AcDbLine
 62
250
  6
CONTINUOUS
 10
205.891796875
 20
107.7662006579
 11
205.891796875
 21
107.2662006579
  0
LINE
  5
39E
100
AcDbEntity
  8
ASSI
100
AcDbLine
 62
250
  6
CONTINUOUS
 10
205.891796875
 20
107.7662006579
 11
205.891796875
 21
107.2662006579
  0
LINE
  5
39F
100
AcDbEntity
  8
SMUSSO
100
AcDbLine
 62
250
  6
CONTINUOUS
 10
205.891796875
 20
90.9662006579
 11
205.891796875
 21
91.4662006579
  0
LINE
  5
3A0
100
AcDbEntity
  8
ASSI
100
AcDbLine
 62
250
  6
CONTINUOUS
 10
205.891796875
 20
90.9662006579
 11
205.891796875
 21
91.4662006579
  0
LINE
  5
3A1
100
AcDbEntity
  8
SMUSSO
100
AcDbLine
 62
250
  6
CONTINUOUS
 10
205.891796875
 20
111.4662006579
 11
205.891796875
 21
111.9662006579
  0
LINE
  5
3A2
100
AcDbEntity
  8
ASSI
100
AcDbLine
 62
250
  6
CONTINUOUS
 10
205.891796875
 20
111.4662006579
 11
205.891796875
 21
111.9662006579
  0
LINE
  5
3A3
100
AcDbEntity
  8
SMUSSO
100
AcDbLine
 62
7
  6
CONTINUOUS
 10
207.091796875
 20
126.5662006579
 11
207.091796875
 21
113.1662006579
  0
LINE
  5
3A4
100
AcDbEntity
  8
ASSI
100
AcDbLine
 62
7
  6
CONTINUOUS
 10
207.091796875
 20
126.5662006579
 11
207.091796875
 21
113.1662006579
  0
LINE
  5
3A5
100
AcDbEntity
  8
SMUSSO
100
AcDbLine
 62
7
  6
CONTINUOUS
 10
207.091796875
 20
106.0662006579
 11
207.091796875
 21
92.6662006579
  0
LINE
  5
3A6
100
AcDbEntity
  8
ASSI
100
AcDbLine
 62
7
  6
CONTINUOUS
 10
207.091796875
 20
106.0662006579
 11
207.091796875
 21
92.6662006579
  0
LINE
  5
3A7
100
AcDbEntity
  8
SMUSSO
100
AcDbLine
 62
7
  6
CONTINUOUS
 10
207.591796875
 20
126.5662006579
 11
207.591796875
 21
113.1662006579
  0
LINE
  5
3A8
100
AcDbEntity
  8
ASSI
100
AcDbLine
 62
7
  6
CONTINUOUS
 10
207.591796875
 20
126.5662006579
 11
207.591796875
 21
113.1662006579
  0
LINE
  5
3A9
100
AcDbEntity
  8
SMUSSO
100
AcDbLine
 62
7
  6
CONTINUOUS
 10
207.591796875
 20
106.0662006579
 11
207.591796875
 21
92.6662006579
  0
LINE
  5
3AA
100
AcDbEntity
  8
ASSI
100
AcDbLine
 62
7
  6
CONTINUOUS
 10
207.591796875
 20
106.0662006579
 11
207.591796875
 21
92.6662006579
  0
LWPOLYLINE
  5
3AB
100
AcDbEntity
  8
0
100
AcDbPolyline
 62
7
  6
CONTINUOUS
 90
10
 70
0
 43
0.3500000006
 10
178.5132240601
 20
163.5625303345
 10
178.5846461792
 20
163.4196860962
 10
178.5846461792
 20
163.3482458496
 10
178.4418019409
 20
163.2054016113
 10
178.3703616943
 20
163.2054016113
 10
178.2989395752
 20
163.2768237305
 10
178.2989395752
 20
163.3482458496
 10
178.3703616943
 20
163.4911082153
 10
178.4418019409
 20
163.5625303345
 10
178.5132240601
 20
163.5625303345
  0
LINE
  5
3AC
100
AcDbEntity
  8
SMUSSO
100
AcDbLine
 62
7
  6
CONTINUOUS
 10
213.291796875
 20
92.6662006579
 11
213.291796875
 21
106.0662006579
  0
LINE
  5
3AD
100
AcDbEntity
  8
ASSI
100
AcDbLine
 62
7
  6
CONTINUOUS
 10
213.291796875
 20
92.6662006579
 11
213.291796875
 21
106.0662006579
  0
LINE
  5
3AE
100
AcDbEntity
  8
SMUSSO
100
AcDbLine
 62
7
  6
CONTINUOUS
 10
213.291796875
 20
113.1662006579
 11
213.291796875
 21
126.5662006579
  0
LINE
  5
3AF
100
AcDbEntity
  8
ASSI
100
AcDbLine
 62
7
  6
CONTINUOUS
 10
213.291796875
 20
113.1662006579
 11
213.291796875
 21
126.5662006579
  0
LINE
  5
3B0
100
AcDbEntity
  8
SMUSSO
100
AcDbLine
 62
7
  6
CONTINUOUS
 10
213.791796875
 20
92.6662006579
 11
213.791796875
 21
106.0662006579
  0
LINE
  5
3B1
100
AcDbEntity
  8
ASSI
100
AcDbLine
 62
7
  6
CONTINUOUS
 10
213.791796875
 20
92.6662006579
 11
213.791796875
 21
106.0662006579
  0
LINE
  5
3B2
100
AcDbEntity
  8
SMUSSO
100
AcDbLine
 62
7
  6
CONTINUOUS
 10
213.791796875
 20
113.1662006579
 11
213.791796875
 21
126.5662006579
  0
LINE
  5
3B3
100
AcDbEntity
  8
ASSI
100
AcDbLine
 62
7
  6
CONTINUOUS
 10
213.791796875
 20
113.1662006579
 11
213.791796875
 21
126.5662006579
  0
LINE
  5
3B4
100
AcDbEntity
  8
SMUSSO
100
AcDbLine
 62
250
  6
CONTINUOUS
 10
214.991796875
 20
128.2662006579
 11
214.991796875
 21
127.7662006579
  0
LINE
  5
3B5
100
AcDbEntity
  8
ASSI
100
AcDbLine
 62
250
  6
CONTINUOUS
 10
214.991796875
 20
128.2662006579
 11
214.991796875
 21
127.7662006579
  0
LINE
  5
3B6
100
AcDbEntity
  8
SMUSSO
100
AcDbLine
 62
250
  6
CONTINUOUS
 10
214.991796875
 20
107.7662006579
 11
214.991796875
 21
107.2662006579
  0
LINE
  5
3B7
100
AcDbEntity
  8
ASSI
100
AcDbLine
 62
250
  6
CONTINUOUS
 10
214.991796875
 20
107.7662006579
 11
214.991796875
 21
107.2662006579
  0
LINE
  5
3B8
100
AcDbEntity
  8
SMUSSO
100
AcDbLine
 62
250
  6
CONTINUOUS
 10
214.991796875
 20
90.9662006579
 11
214.991796875
 21
91.4662006579
  0
LINE
  5
3B9
100
AcDbEntity
  8
ASSI
100
AcDbLine
 62
250
  6
CONTINUOUS
 10
214.991796875
 20
90.9662006579
 11
214.991796875
 21
91.4662006579
  0
LINE
  5
3BA
100
AcDbEntity
  8
SMUSSO
100
AcDbLine
 62
250
  6
CONTINUOUS
 10
214.991796875
 20
111.4662006579
 11
214.991796875
 21
111.9662006579
  0
LINE
  5
3BB
100
AcDbEntity
  8
ASSI
100
AcDbLine
 62
250
  6
CONTINUOUS
 10
214.991796875
 20
111.4662006579
 11
214.991796875
 21
111.9662006579
  0
LINE
  5
3BC
100
AcDbEntity
  8
ASSI
100
AcDbLine
 62
7
  6
CONTINUOUS
 10
254.7185342852
 20
153.3874696177
 11
98.6650594648
 21
153.3874696177
  0
LINE
  5
3BD
100
AcDbEntity
  8
ASSI
100
AcDbLine
 62
7
  6
CONTINUOUS
 10
255.1473565294
 20
154.4223691144
 11
98.2362372206
 21
154.4223691144
  0
LINE
  5
3BE
100
AcDbEntity
  8
ASSI
100
AcDbLine
 62
7
  6
CONTINUOUS
 10
255.3411880729
 20
154.6162006579
 11
98.0424056771
 21
154.6162006579
  0
LINE
  5
3BF
100
AcDbEntity
  8
SMUSSO
100
AcDbLine
 62
250
  6
CONTINUOUS
 10
228.391796875
 20
128.2662006579
 11
228.391796875
 21
127.7662006579
  0
LINE
  5
3C0
100
AcDbEntity
  8
ASSI
100
AcDbLine
 62
250
  6
CONTINUOUS
 10
228.391796875
 20
128.2662006579
 11
228.391796875
 21
127.7662006579
  0
LINE
  5
3C1
100
AcDbEntity
  8
SMUSSO
100
AcDbLine
 62
250
  6
CONTINUOUS
 10
228.391796875
 20
107.7662006579
 11
228.391796875
 21
107.2662006579
  0
LINE
  5
3C2
100
AcDbEntity
  8
ASSI
100
AcDbLine
 62
250
  6
CONTINUOUS
 10
228.391796875
 20
107.7662006579
 11
228.391796875
 21
107.2662006579
  0
LINE
  5
3C3
100
AcDbEntity
  8
SMUSSO
100
AcDbLine
 62
250
  6
CONTINUOUS
 10
228.391796875
 20
90.9662006579
 11
228.391796875
 21
91.4662006579
  0
LINE
  5
3C4
100
AcDbEntity
  8
ASSI
100
AcDbLine
 62
250
  6
CONTINUOUS
 10
228.391796875
 20
90.9662006579
 11
228.391796875
 21
91.4662006579
  0
LINE
  5
3C5
100
AcDbEntity
  8
SMUSSO
100
AcDbLine
 62
250
  6
CONTINUOUS
 10
228.391796875
 20
111.4662006579
 11
228.391796875
 21
111.9662006579
  0
LINE
  5
3C6
100
AcDbEntity
  8
ASSI
100
AcDbLine
 62
250
  6
CONTINUOUS
 10
228.391796875
 20
111.4662006579
 11
228.391796875
 21
111.9662006579
  0
LINE
  5
3C7
100
AcDbEntity
  8
SMUSSO
100
AcDbLine
 62
7
  6
CONTINUOUS
 10
229.591796875
 20
126.5662006579
 11
229.591796875
 21
113.1662006579
  0
LINE
  5
3C8
100
AcDbEntity
  8
ASSI
100
AcDbLine
 62
7
  6
CONTINUOUS
 10
229.591796875
 20
126.5662006579
 11
229.591796875
 21
113.1662006579
  0
LINE
  5
3C9
100
AcDbEntity
  8
SMUSSO
100
AcDbLine
 62
7
  6
CONTINUOUS
 10
229.591796875
 20
106.0662006579
 11
229.591796875
 21
92.6662006579
  0
LINE
  5
3CA
100
AcDbEntity
  8
ASSI
100
AcDbLine
 62
7
  6
CONTINUOUS
 10
229.591796875
 20
106.0662006579
 11
229.591796875
 21
92.6662006579
  0
LINE
  5
3CB
100
AcDbEntity
  8
SMUSSO
100
AcDbLine
 62
7
  6
CONTINUOUS
 10
230.091796875
 20
126.5662006579
 11
230.091796875
 21
113.1662006579
  0
LINE
  5
3CC
100
AcDbEntity
  8
ASSI
100
AcDbLine
 62
7
  6
CONTINUOUS
 10
230.091796875
 20
126.5662006579
 11
230.091796875
 21
113.1662006579
  0
LINE
  5
3CD
100
AcDbEntity
  8
SMUSSO
100
AcDbLine
 62
7
  6
CONTINUOUS
 10
230.091796875
 20
106.0662006579
 11
230.091796875
 21
92.6662006579
  0
LINE
  5
3CE
100
AcDbEntity
  8
ASSI
100
AcDbLine
 62
7
  6
CONTINUOUS
 10
230.091796875
 20
106.0662006579
 11
230.091796875
 21
92.6662006579
  0
LINE
  5
3CF
100
AcDbEntity
  8
ASSI
100
AcDbLine
 62
7
  6
CONTINUOUS
 10
254.7185342852
 20
153.3874696177
 11
255.1617823449
 21
154.4068999802
  0
LWPOLYLINE
  5
3D0
100
AcDbEntity
  8
0
100
AcDbPolyline
 62
7
  6
CONTINUOUS
 90
8
 70
0
 43
0.3500000006
 10
173.3703601685
 20
163.0625392456
 10
174.2275162354
 20
163.0625392456
 10
174.6560852051
 20
163.4911082153
 10
174.6560852051
 20
164.3482461548
 10
174.2275162354
 20
164.7768151245
 10
173.3703601685
 20
164.7768151245
 10
173.3703601685
 20
166.0625401611
 10
174.6560852051
 20
166.0625401611
  0
LWPOLYLINE
  5
3D1
100
AcDbEntity
  8
0
100
AcDbPolyline
 62
7
  6
CONTINUOUS
 90
6
 70
0
 43
0.3500000006
 10
179.5846464844
 20
163.0625392456
 10
180.6560870361
 20
163.0625392456
 10
180.870371521
 20
163.2768237305
 10
180.870371521
 20
164.3482461548
 10
180.4418025513
 20
164.7768151245
 10
180.0132335815
 20
164.7768151245
  0
LINE
  5
3D2
100
AcDbEntity
  8
ASSI
100
AcDbLine
 62
7
  6
CONTINUOUS
 10
254.7185342852
 20
65.8449316981
 11
255.1617823449
 21
64.8255013356
  0
LINE
  5
3D3
100
AcDbEntity
  8
CURVE
100
AcDbLine
 62
250
  6
CONTINUOUS
 10
247.3465656617
 20
68.8526850872
 11
246.8078831147
 21
70.2891226409
  0
LINE
  5
3D4
100
AcDbEntity
  8
CURVE
100
AcDbLine
 62
250
  6
CONTINUOUS
 10
246.9269355855
 20
71.0524995586
 11
247.3812732792
 21
69.8311559951
  0
LINE
  5
3D5
100
AcDbEntity
  8
CURVE
100
AcDbLine
 62
250
  6
CONTINUOUS
 10
244.280940182
 20
68.8526850872
 11
243.583555928
 21
71.0524995586
  0
LINE
  5
3D6
100
AcDbEntity
  8
CURVE
100
AcDbLine
 62
250
  6
CONTINUOUS
 10
244.0823755243
 20
71.0524995586
 11
244.5017007434
 21
69.5382993417
  0
LWPOLYLINE
  5
3D7
100
AcDbEntity
  8
CURVE
100
AcDbPolyline
 62
250
  6
CONTINUOUS
 90
6
 70
0
 10
251.476334165
 20
69.5197406331
 10
251.4839086076
 20
69.4989642137
 10
251.4911174798
 20
69.4780592739
 10
251.4980243216
 20
69.4570486795
 10
251.5046926729
 20
69.4359552968
 10
251.5111860738
 20
69.4148019917
  0
LINE
  5
3D8
100
AcDbEntity
  8
CURVE
100
AcDbLine
 62
250
  6
CONTINUOUS
 10
249.7068051735
 20
71.0524995586
 11
250.3817630475
 21
68.8526850872
  0
LINE
  5
3D9
100
AcDbEntity
  8
CURVE
100
AcDbLine
 62
250
  6
CONTINUOUS
 10
251.5111860738
 20
69.4148019917
 11
251.5911248839
 21
69.1478961536
  0
LWPOLYLINE
  5
3DA
100
AcDbEntity
  8
CURVE
100
AcDbPolyline
 62
250
  6
CONTINUOUS
 90
3
 70
0
 10
251.5911248839
 20
69.1478961536
 10
251.651150095
 20
68.9425434779
 10
251.6771256475
 20
68.8526846705
  0
LWPOLYLINE
  5
3DB
100
AcDbEntity
  8
CURVE
100
AcDbPolyline
 62
250
  6
CONTINUOUS
 90
39
 70
0
 10
251.9490122361
 20
69.4949214653
 10
251.9446435572
 20
69.510529328
 10
251.9401887532
 20
69.526116115
 10
251.9356246573
 20
69.5416708451
 10
251.9309281029
 20
69.5571825374
 10
251.9260759232
 20
69.5726402105
 10
251.9210449515
 20
69.5880328835
 10
251.9158120212
 20
69.603349575
 10
251.9103539654
 20
69.6185793041
 10
251.9046476175
 20
69.6337110896
 10
251.8986698107
 20
69.6487339503
 10
251.8923973784
 20
69.663636905
 10
251.8858071539
 20
69.6784089728
 10
251.8788759703
 20
69.6930391724
 10
251.8739132438
 20
69.7029830334
 10
251.8687696803
 20
69.7128418037
 10
251.8634356914
 20
69.7226022775
 10
251.8579016884
 20
69.7322512492
 10
251.8521580828
 20
69.741775513
 10
251.8461952859
 20
69.7511618632
 10
251.8400037092
 20
69.7603970942
 10
251.8335737642
 20
69.7694680002
 10
251.8268958622
 20
69.7783613754
 10
251.8199604146
 20
69.7870640143
 10
251.8127578329
 20
69.795562711
 10
251.8052785285
 20
69.8038442599
 10
251.798179665
 20
69.8112270057
 10
251.7908485616
 20
69.8184021982
 10
251.7832931674
 20
69.8253555298
 10
251.7755214313
 20
69.8320726926
 10
251.7675413024
 20
69.8385393788
 10
251.7593607296
 20
69.8447412806
 10
251.750987662
 20
69.8506640904
 10
251.7424300485
 20
69.8562935002
 10
251.7336958381
 20
69.8616152024
 10
251.7247929799
 20
69.866614889
 10
251.7157294228
 20
69.8712782525
 10
251.7065131158
 20
69.8755909848
 10
251.697152008
 20
69.8795387784
  0
LINE
  5
3DC
100
AcDbEntity
  8
CURVE
100
AcDbLine
 62
250
  6
CONTINUOUS
 10
249.8977986886
 20
68.8526850872
 11
249.778844694
 21
69.2918459244
  0
LINE
  5
3DD
100
AcDbEntity
  8
CURVE
100
AcDbLine
 62
250
  6
CONTINUOUS
 10
249.6870764124
 20
69.6316673375
 11
249.4760733744
 21
70.4480464432
  0
LINE
  5
3DE
100
AcDbEntity
  8
CURVE
100
AcDbLine
 62
250
  6
CONTINUOUS
 10
248.2947823805
 20
71.0524995586
 11
248.5004897045
 21
68.8526850872
  0
LWPOLYLINE
  5
3DF
100
AcDbEntity
  8
0
100
AcDbPolyline
 62
7
  6
CONTINUOUS
 90
10
 70
0
 43
0.3500000006
 10
271.8820189819
 20
107.6876288452
 10
271.0248810425
 20
108.5447758484
 10
270.167743103
 20
108.7590603333
 10
269.3105870361
 20
108.7590603333
 10
268.8820180664
 20
108.3304822998
 10
268.8820180664
 20
107.6876288452
 10
269.3105870361
 20
107.2590598755
 10
270.167743103
 20
107.2590598755
 10
270.5963120728
 20
107.6876288452
 10
270.5963120728
 20
108.6161979675
  0
LINE
  5
3E0
100
AcDbEntity
  8
CURVE
100
AcDbLine
 62
250
  6
CONTINUOUS
 10
251.9618331891
 20
69.4480812345
 11
251.9490122361
 21
69.4949214653
  0
LINE
  5
3E1
100
AcDbEntity
  8
CURVE
100
AcDbLine
 62
250
  6
CONTINUOUS
 10
252.0044101254
 20
69.2890791458
 11
251.9618331891
 21
69.4480812345
  0
LINE
  5
3E2
100
AcDbEntity
  8
CURVE
100
AcDbLine
 62
250
  6
CONTINUOUS
 10
252.1188108219
 20
68.8526846705
 11
252.0978606683
 21
68.9312220531
  0
LINE
  5
3E3
100
AcDbEntity
  8
CURVE
100
AcDbLine
 62
250
  6
CONTINUOUS
 10
252.0978606683
 20
68.9312220531
 11
252.0044101254
 21
69.2890791458
  0
LINE
  5
3E4
100
AcDbEntity
  8
CURVE
100
AcDbLine
 62
250
  6
CONTINUOUS
 10
248.0512822011
 20
68.8526850872
 11
247.9569409673
 21
70.2831344507
  0
LINE
  5
3E5
100
AcDbEntity
  8
CURVE
100
AcDbLine
 62
250
  6
CONTINUOUS
 10
245.5631137428
 20
71.0526315586
 11
245.5631137428
 21
68.8526850872
  0
LINE
  5
3E6
100
AcDbEntity
  8
CURVE
100
AcDbLine
 62
250
  6
CONTINUOUS
 10
246.0223019124
 20
68.8526850872
 11
246.0223019124
 21
71.0526315586
  0
LINE
  5
3E7
100
AcDbEntity
  8
CURVE
100
AcDbLine
 62
250
  6
CONTINUOUS
 10
250.5166030068
 20
71.0267984917
 11
250.5166030068
 21
68.8526846705
  0
LINE
  5
3E8
100
AcDbEntity
  8
CURVE
100
AcDbLine
 62
250
  6
CONTINUOUS
 10
246.8078831147
 20
70.2891226409
 11
246.7087898812
 21
68.8526850872
  0
LINE
  5
3E9
100
AcDbEntity
  8
CURVE
100
AcDbLine
 62
250
  6
CONTINUOUS
 10
246.269497044
 20
68.8526850872
 11
246.4681277016
 21
71.0524995586
  0
LWPOLYLINE
  5
3EA
100
AcDbEntity
  8
CURVE
100
AcDbPolyline
 62
250
  6
CONTINUOUS
 90
58
 70
0
 10
251.5778351502
 20
70.415697566
 10
251.5779043272
 20
70.4054986683
 10
251.577790094
 20
70.3952703305
 10
251.5774810711
 20
70.3850234572
 10
251.5769658792
 20
70.3747689529
 10
251.5762331388
 20
70.3645177224
 10
251.5752714704
 20
70.3542806701
 10
251.5740694945
 20
70.3440687008
 10
251.5726158317
 20
70.333892719
 10
251.5708991026
 20
70.3237636293
 10
251.5689079276
 20
70.3136923365
 10
251.5666309273
 20
70.303689745
 10
251.5640567223
 20
70.2937667595
 10
251.5611739332
 20
70.2839342846
 10
251.5579711803
 20
70.2742032249
 10
251.5544370844
 20
70.264584485
 10
251.5505602659
 20
70.2550889697
 10
251.5467029228
 20
70.2465128116
 10
251.5425550515
 20
70.2380607387
 10
251.5381229737
 20
70.2297443938
 10
251.5334130108
 20
70.2215754194
 10
251.5284314845
 20
70.2135654581
 10
251.5231847162
 20
70.2057261526
 10
251.5176790276
 20
70.1980691454
 10
251.5119207401
 20
70.1906060792
 10
251.5059161754
 20
70.1833485967
 10
251.4996716549
 20
70.1763083404
 10
251.4931935002
 20
70.1694969529
 10
251.486488033
 20
70.1629260769
 10
251.4795615746
 20
70.1566073551
 10
251.4724204467
 20
70.1505524299
 10
251.4647450165
 20
70.1445230961
 10
251.4568534639
 20
70.1387879833
 10
251.4487566652
 20
70.1333412164
 10
251.4404654969
 20
70.1281769201
 10
251.4319908353
 20
70.1232892194
 10
251.4233435567
 20
70.1186722393
 10
251.4145345377
 20
70.1143201045
 10
251.4055746546
 20
70.11022694
 10
251.3964747837
 20
70.1063868706
 10
251.3872458015
 20
70.1027940213
 10
251.3778985843
 20
70.0994425169
 10
251.3684440085
 20
70.0963264823
 10
251.3588929506
 20
70.0934400424
 10
251.3492562868
 20
70.090777322
 10
251.3395448937
 20
70.0883324462
 10
251.3297696475
 20
70.0860995397
 10
251.3199414247
 20
70.0840727274
 10
251.3100711016
 20
70.0822461343
 10
251.3001695547
 20
70.0806138851
 10
251.2902476603
 20
70.0791701049
 10
251.2803162948
 20
70.0779089184
 10
251.2703863346
 20
70.0768244506
 10
251.260468656
 20
70.0759108264
 10
251.2505741356
 20
70.0751621706
 10
251.2407136496
 20
70.0745726082
 10
251.2308980744
 20
70.0741362639
 10
251.2211382865
 20
70.0738472628
  0
LINE
  5
3EB
100
AcDbEntity
  8
CURVE
100
AcDbLine
 62
250
  6
CONTINUOUS
 10
250.9587170818
 20
70.0738472628
 11
250.9587170818
 21
70.6777393586
  0
LINE
  5
3EC
100
AcDbEntity
  8
CURVE
100
AcDbLine
 62
250
  6
CONTINUOUS
 10
250.9739430544
 20
68.8526846705
 11
250.9739430544
 21
69.7135707283
  0
LINE
  5
3ED
100
AcDbEntity
  8
CURVE
100
AcDbLine
 62
250
  6
CONTINUOUS
 10
251.697152008
 20
69.8795387784
 11
251.697152008
 21
69.8925377669
  0
LINE
  5
3EE
100
AcDbEntity
  8
ASSI
100
AcDbLine
 62
7
  6
CONTINUOUS
 10
255.1130658348
 20
66.2394632477
 11
255.1130658348
 21
152.9929380681
  0
LINE
  5
3EF
100
AcDbEntity
  8
ASSI
100
AcDbLine
 62
7
  6
CONTINUOUS
 10
256.1479653315
 20
65.8106410035
 11
256.1479653315
 21
153.4217603123
  0
LINE
  5
3F0
100
AcDbEntity
  8
ASSI
100
AcDbLine
 62
7
  6
CONTINUOUS
 10
256.341796875
 20
65.61680946
 11
256.341796875
 21
153.6155918558
  0
LINE
  5
3F1
100
AcDbEntity
  8
CURVE
100
AcDbLine
 62
250
  6
CONTINUOUS
 10
244.5017007434
 20
69.5382993417
 11
244.9338341523
 21
71.0524995586
  0
LINE
  5
3F2
100
AcDbEntity
  8
CURVE
100
AcDbLine
 62
250
  6
CONTINUOUS
 10
245.3927090838
 20
71.0524995586
 11
244.6855997826
 21
68.8526850872
  0
LINE
  5
3F3
100
AcDbEntity
  8
CURVE
100
AcDbLine
 62
7
  6
CONTINUOUS
 10
243.6706226837
 20
70.7778579845
 11
243.9452642579
 21
71.0524995586
  0
LINE
  5
3F4
100
AcDbEntity
  8
CURVE
100
AcDbLine
 62
7
  6
CONTINUOUS
 10
243.7717259763
 20
70.458939849
 11
244.143730479
 21
70.8309443517
  0
LINE
  5
3F5
100
AcDbEntity
  8
CURVE
100
AcDbLine
 62
7
  6
CONTINUOUS
 10
243.8728292688
 20
70.1400217135
 11
244.2348208645
 21
70.5020133092
  0
LINE
  5
3F6
100
AcDbEntity
  8
CURVE
100
AcDbLine
 62
7
  6
CONTINUOUS
 10
243.9739325613
 20
69.821103578
 11
244.32591125
 21
70.1730822666
  0
LINE
  5
3F7
100
AcDbEntity
  8
CURVE
100
AcDbLine
 62
7
  6
CONTINUOUS
 10
244.8254103514
 20
70.6725813681
 11
245.205328542
 21
71.0524995586
  0
LINE
  5
3F8
100
AcDbEntity
  8
CURVE
100
AcDbLine
 62
7
  6
CONTINUOUS
 10
244.0750358539
 20
69.5021854425
 11
244.4170016355
 21
69.8441512241
  0
LINE
  5
3F9
100
AcDbEntity
  8
CURVE
100
AcDbLine
 62
7
  6
CONTINUOUS
 10
244.6576709012
 20
70.0848204898
 11
245.2825047798
 21
70.7096543684
  0
LINE
  5
3FA
100
AcDbEntity
  8
CURVE
100
AcDbLine
 62
7
  6
CONTINUOUS
 10
245.5631137428
 20
70.9902633314
 11
245.62548197
 21
71.0526315586
  0
LINE
  5
3FB
100
AcDbEntity
  8
CURVE
100
AcDbLine
 62
7
  6
CONTINUOUS
 10
244.1761391464
 20
69.183267307
 11
245.0835364474
 21
70.090664608
  0
LINE
  5
3FC
100
AcDbEntity
  8
CURVE
100
AcDbLine
 62
7
  6
CONTINUOUS
 10
245.5631137428
 20
70.5702419034
 11
246.0223019124
 21
71.029430073
  0
LINE
  5
3FD
100
AcDbEntity
  8
CURVE
100
AcDbLine
 62
7
  6
CONTINUOUS
 10
244.2772424389
 20
68.8643491715
 11
244.884568115
 21
69.4716748476
  0
LINE
  5
3FE
100
AcDbEntity
  8
CURVE
100
AcDbLine
 62
7
  6
CONTINUOUS
 10
245.5631137428
 20
70.1502204753
 11
246.0223019124
 21
70.6094086449
  0
LINE
  5
3FF
100
AcDbEntity
  8
CURVE
100
AcDbLine
 62
7
  6
CONTINUOUS
 10
245.5631137428
 20
69.7301990473
 11
246.0223019124
 21
70.1893872169
  0
LINE
  5
400
100
AcDbEntity
  8
CURVE
100
AcDbLine
 62
7
  6
CONTINUOUS
 10
246.4267092663
 20
70.5937945709
 11
246.8854142541
 21
71.0524995586
  0
LINE
  5
401
100
AcDbEntity
  8
CURVE
100
AcDbLine
 62
7
  6
CONTINUOUS
 10
245.5631137428
 20
69.3101776193
 11
246.0223019124
 21
69.7693657889
  0
LINE
  5
402
100
AcDbEntity
  8
CURVE
100
AcDbLine
 62
7
  6
CONTINUOUS
 10
246.3850193766
 20
70.1320832531
 11
247.0295606284
 21
70.776624505
  0
LINE
  5
403
100
AcDbEntity
  8
CURVE
100
AcDbLine
 62
7
  6
CONTINUOUS
 10
245.5631137428
 20
68.8901561913
 11
246.0223019124
 21
69.3493443609
  0
LINE
  5
404
100
AcDbEntity
  8
CURVE
100
AcDbLine
 62
7
  6
CONTINUOUS
 10
246.3433294869
 20
69.6703719354
 11
246.7964575702
 21
70.1235000187
  0
LINE
  5
405
100
AcDbEntity
  8
CURVE
100
AcDbLine
 62
7
  6
CONTINUOUS
 10
246.8499379116
 20
70.1769803601
 11
247.1434436035
 21
70.470486052
  0
LINE
  5
406
100
AcDbEntity
  8
CURVE
100
AcDbLine
 62
7
  6
CONTINUOUS
 10
245.9456640667
 20
68.8526850872
 11
246.0223019124
 21
68.9293229328
  0
LINE
  5
407
100
AcDbEntity
  8
CURVE
100
AcDbLine
 62
7
  6
CONTINUOUS
 10
246.3016395972
 20
69.2086606177
 11
246.7653352326
 21
69.6723562531
  0
LINE
  5
408
100
AcDbEntity
  8
CURVE
100
AcDbLine
 62
7
  6
CONTINUOUS
 10
246.9644920658
 20
69.8715130863
 11
247.2573265786
 21
70.1643475991
  0
LINE
  5
409
100
AcDbEntity
  8
CURVE
100
AcDbLine
 62
7
  6
CONTINUOUS
 10
247.6566928366
 20
70.5637138571
 11
248.1454785382
 21
71.0524995586
  0
LINE
  5
40A
100
AcDbEntity
  8
CURVE
100
AcDbLine
 62
7
  6
CONTINUOUS
 10
246.3656854947
 20
68.8526850872
 11
246.734212895
 21
69.2212124874
  0
LINE
  5
40B
100
AcDbEntity
  8
CURVE
100
AcDbLine
 62
7
  6
CONTINUOUS
 10
247.07904622
 20
69.5660458125
 11
247.3712095537
 21
69.8582091462
  0
LINE
  5
40C
100
AcDbEntity
  8
CURVE
100
AcDbLine
 62
7
  6
CONTINUOUS
 10
247.4036356881
 20
69.8906352805
 11
248.3179326967
 21
70.8049322891
  0
LINE
  5
40D
100
AcDbEntity
  8
CURVE
100
AcDbLine
 62
7
  6
CONTINUOUS
 10
247.1936003742
 20
69.2605785387
 11
247.796930571
 21
69.8639087355
  0
LINE
  5
40E
100
AcDbEntity
  8
CURVE
100
AcDbLine
 62
7
  6
CONTINUOUS
 10
247.9729790338
 20
70.0399571982
 11
248.3538506768
 21
70.4208288412
  0
LINE
  5
40F
100
AcDbEntity
  8
CURVE
100
AcDbLine
 62
7
  6
CONTINUOUS
 10
247.3081545285
 20
68.9551112649
 11
247.5376565614
 21
69.1846132978
  0
LINE
  5
410
100
AcDbEntity
  8
CURVE
100
AcDbLine
 62
7
  6
CONTINUOUS
 10
247.9989664315
 20
69.6459231679
 11
248.3897686569
 21
70.0367253933
  0
LINE
  5
411
100
AcDbEntity
  8
CURVE
100
AcDbLine
 62
7
  6
CONTINUOUS
 10
249.1972688485
 20
70.8442255849
 11
249.4055428222
 21
71.0524995586
  0
LINE
  5
412
100
AcDbEntity
  8
CURVE
100
AcDbLine
 62
7
  6
CONTINUOUS
 10
248.0249538293
 20
69.2518891377
 11
248.425686637
 21
69.6526219453
  0
LINE
  5
413
100
AcDbEntity
  8
CURVE
100
AcDbLine
 62
7
  6
CONTINUOUS
 10
249.0053138356
 20
70.2322491439
 11
249.7346882071
 21
70.9616235155
  0
LINE
  5
414
100
AcDbEntity
  8
CURVE
100
AcDbLine
 62
7
  6
CONTINUOUS
 10
248.0509412271
 20
68.8578551074
 11
248.4616046171
 21
69.2685184974
  0
LINE
  5
415
100
AcDbEntity
  8
CURVE
100
AcDbLine
 62
7
  6
CONTINUOUS
 10
248.8133588226
 20
69.620272703
 11
249.411864027
 21
70.2187779074
  0
LINE
  5
416
100
AcDbEntity
  8
CURVE
100
AcDbLine
 62
7
  6
CONTINUOUS
 10
249.509973117
 20
70.3168869974
 11
249.8333035881
 21
70.6402174684
  0
LINE
  5
417
100
AcDbEntity
  8
CURVE
100
AcDbLine
 62
7
  6
CONTINUOUS
 10
248.4657926349
 20
68.8526850872
 11
248.4975225971
 21
68.8844150495
  0
LINE
  5
418
100
AcDbEntity
  8
CURVE
100
AcDbLine
 62
7
  6
CONTINUOUS
 10
248.6214038097
 20
69.008296262
 11
249.2484723248
 21
69.6353647771
  0
LINE
  5
419
100
AcDbEntity
  8
CURVE
100
AcDbLine
 62
7
  6
CONTINUOUS
 10
249.596236829
 20
69.9831292813
 11
249.9319189691
 21
70.3188114214
  0
LINE
  5
41A
100
AcDbEntity
  8
CURVE
100
AcDbLine
 62
7
  6
CONTINUOUS
 10
250.5166030068
 20
70.9034954591
 11
250.6588789327
 21
71.045771385
  0
LINE
  5
41B
100
AcDbEntity
  8
CURVE
100
AcDbLine
 62
7
  6
CONTINUOUS
 10
248.8858140629
 20
68.8526850872
 11
249.0839730289
 21
69.0508440532
  0
LINE
  5
41C
100
AcDbEntity
  8
CURVE
100
AcDbLine
 62
7
  6
CONTINUOUS
 10
249.3249749001
 20
69.2918459244
 11
249.6647963132
 21
69.6316673375
  0
LINE
  5
41D
100
AcDbEntity
  8
CURVE
100
AcDbLine
 62
7
  6
CONTINUOUS
 10
249.682500541
 20
69.6493715653
 11
250.0305343501
 21
69.9974053744
  0
LINE
  5
41E
100
AcDbEntity
  8
CURVE
100
AcDbLine
 62
7
  6
CONTINUOUS
 10
250.5166030068
 20
70.4834740311
 11
251.1101890672
 21
71.0770600915
  0
LINE
  5
41F
100
AcDbEntity
  8
CURVE
100
AcDbLine
 62
250
  6
CONTINUOUS
 10
249.4760733744
 20
70.4480464432
 11
249.2474368134
 21
69.6316673375
  0
LINE
  5
420
100
AcDbEntity
  8
CURVE
100
AcDbLine
 62
250
  6
CONTINUOUS
 10
249.1535072938
 20
69.2918459244
 11
249.026799871
 21
68.8526850872
  0
LINE
  5
421
100
AcDbEntity
  8
CURVE
100
AcDbLine
 62
250
  6
CONTINUOUS
 10
248.5725941774
 20
68.8526850872
 11
249.2625969079
 21
71.0524995586
  0
LINE
  5
422
100
AcDbEntity
  8
CURVE
100
AcDbLine
 62
250
  6
CONTINUOUS
 10
247.3812732792
 20
69.8311559951
 11
247.8404614488
 21
71.0524995586
  0
LINE
  5
423
100
AcDbEntity
  8
CURVE
100
AcDbLine
 62
250
  6
CONTINUOUS
 10
247.9569409673
 20
70.2831344507
 11
247.4109659445
 21
68.8526850872
  0
LINE
  5
424
100
AcDbEntity
  8
ASSI
100
AcDbLine
 62
7
  6
CONTINUOUS
 10
255.1617823449
 20
64.8255013356
 11
255.1473565294
 21
64.8100322014
  0
LINE
  5
425
100
AcDbEntity
  8
CURVE
100
AcDbLine
 62
7
  6
CONTINUOUS
 10
249.7449963281
 20
69.2918459244
 11
250.1291497311
 21
69.6759993273
  0
LINE
  5
426
100
AcDbEntity
  8
CURVE
100
AcDbLine
 62
7
  6
CONTINUOUS
 10
250.5166030068
 20
70.063452603
 11
250.9587170818
 21
70.5055666781
  0
LINE
  5
427
100
AcDbEntity
  8
CURVE
100
AcDbLine
 62
7
  6
CONTINUOUS
 10
251.1515500132
 20
70.6983996095
 11
251.4981945715
 21
71.0450441677
  0
LINE
  5
428
100
AcDbEntity
  8
CURVE
100
AcDbLine
 62
7
  6
CONTINUOUS
 10
249.861151821
 20
68.9879799892
 11
250.2277651121
 21
69.3545932803
  0
LINE
  5
429
100
AcDbEntity
  8
CURVE
100
AcDbLine
 62
7
  6
CONTINUOUS
 10
250.5166030068
 20
69.643431175
 11
250.9587170818
 21
70.0855452501
  0
LINE
  5
42A
100
AcDbEntity
  8
CURVE
100
AcDbLine
 62
7
  6
CONTINUOUS
 10
251.4886565837
 20
70.6154847519
 11
251.7919451253
 21
70.9187732936
  0
LINE
  5
42B
100
AcDbEntity
  8
CURVE
100
AcDbLine
 62
7
  6
CONTINUOUS
 10
250.145878347
 20
68.8526850872
 11
250.3263804931
 21
69.0331872333
  0
LINE
  5
42C
100
AcDbEntity
  8
CURVE
100
AcDbLine
 62
7
  6
CONTINUOUS
 10
250.5166030068
 20
69.223409747
 11
250.9739430544
 21
69.6807497946
  0
LINE
  5
42D
100
AcDbEntity
  8
CURVE
100
AcDbLine
 62
7
  6
CONTINUOUS
 10
251.0067639881
 20
69.7135707283
 11
251.4021961402
 21
70.1090028804
  0
LINE
  5
42E
100
AcDbEntity
  8
CURVE
100
AcDbLine
 62
7
  6
CONTINUOUS
 10
251.5518645571
 20
70.2586712973
 11
251.9666218499
 21
70.6734285902
  0
LINE
  5
42F
100
AcDbEntity
  8
CURVE
100
AcDbLine
 62
7
  6
CONTINUOUS
 10
250.5658993583
 20
68.8526846705
 11
250.9739430544
 21
69.2607283666
  0
LINE
  5
430
100
AcDbEntity
  8
CURVE
100
AcDbLine
 62
7
  6
CONTINUOUS
 10
251.3756083951
 20
69.6623937073
 11
251.990595868
 21
70.2773811802
  0
LINE
  5
431
100
AcDbEntity
  8
CURVE
100
AcDbLine
 62
7
  6
CONTINUOUS
 10
251.519682089
 20
69.3864459732
 11
251.8605758546
 21
69.7273397388
  0
LINE
  5
432
100
AcDbEntity
  8
CURVE
100
AcDbLine
 62
7
  6
CONTINUOUS
 10
251.616012047
 20
69.0627545032
 11
251.9701349012
 21
69.4168773574
  0
LINE
  5
433
100
AcDbEntity
  8
CURVE
100
AcDbLine
 62
7
  6
CONTINUOUS
 10
251.8259636424
 20
68.8526846705
 11
252.0578513747
 21
69.0845724028
  0
LINE
  5
434
100
AcDbEntity
  8
ASSI
100
AcDbLine
 62
7
  6
CONTINUOUS
 10
254.7185342852
 20
65.8449316981
 11
255.1130658348
 21
66.2394632477
  0
LINE
  5
435
100
AcDbEntity
  8
ASSI
100
AcDbLine
 62
7
  6
CONTINUOUS
 10
255.1617823449
 20
64.8255013356
 11
256.1324961973
 21
65.796215188
  0
LINE
  5
436
100
AcDbEntity
  8
ASSI
100
AcDbLine
 62
7
  6
CONTINUOUS
 10
256.341796875
 20
65.61680946
 11
255.3411880729
 21
64.6162006579
  0
LINE
  5
437
100
AcDbEntity
  8
ASSI
100
AcDbLine
 62
7
  6
CONTINUOUS
 10
256.1479653315
 20
65.8106410035
 11
256.1324961973
 21
65.796215188
  0
LINE
  5
438
100
AcDbEntity
  8
ASSI
100
AcDbLine
 62
7
  6
CONTINUOUS
 10
256.1324961973
 20
153.4361861278
 11
256.1479653315
 21
153.4217603123
  0
LINE
  5
439
100
AcDbEntity
  8
ASSI
100
AcDbLine
 62
7
  6
CONTINUOUS
 10
255.1130658348
 20
152.9929380681
 11
254.7185342852
 21
153.3874696177
  0
LINE
  5
43A
100
AcDbEntity
  8
ASSI
100
AcDbLine
 62
7
  6
CONTINUOUS
 10
256.1324961973
 20
153.4361861278
 11
255.1617823449
 21
154.4068999802
  0
LINE
  5
43B
100
AcDbEntity
  8
ASSI
100
AcDbLine
 62
7
  6
CONTINUOUS
 10
255.3411880729
 20
154.6162006579
 11
256.341796875
 21
153.6155918558
  0
LINE
  5
43C
100
AcDbEntity
  8
ASSI
100
AcDbLine
 62
7
  6
CONTINUOUS
 10
255.1473565294
 20
154.4223691144
 11
255.1617823449
 21
154.4068999802
  0
LWPOLYLINE
  5
43D
100
AcDbEntity
  8
0
100
AcDbPolyline
 62
7
  6
CONTINUOUS
 90
3
 70
0
 43
0.3500000006
 10
43.0313509369
 20
175.759017334
 10
43.8884934082
 20
176.6161552734
 10
43.8884934082
 20
173.6161543579
  0
LWPOLYLINE
  5
43E
100
AcDbEntity
  8
0
100
AcDbPolyline
 62
7
  6
CONTINUOUS
 90
3
 70
0
 43
0.3500000006
 10
48.8170637512
 20
175.759017334
 10
49.6742062225
 20
176.6161552734
 10
49.6742062225
 20
173.6161543579
  0
LWPOLYLINE
  5
43F
100
AcDbEntity
  8
0
100
AcDbPolyline
 62
7
  6
CONTINUOUS
 90
3
 70
0
 43
0.3500000006
 10
48.7343301086
 20
166.5423191528
 10
49.59147258
 20
167.3994570923
 10
49.59147258
 20
164.3994561768
  0
LINE
  5
440
100
AcDbEntity
  8
ASSI
100
AcDbLine
 62
7
  6
CONTINUOUS
 10
57.4485758599
 20
64.8100322014
 11
62.9991850329
 21
64.6162006579
  0
LINE
  5
441
100
AcDbEntity
  8
ASSI
100
AcDbLine
 62
7
  6
CONTINUOUS
 10
57.4485758599
 20
65.8106410035
 11
62.9991850329
 21
65.61680946
  0
LINE
  5
442
100
AcDbEntity
  8
0
100
AcDbLine
 62
7
  6
CONTINUOUS
 10
62.9991850329
 20
66.8581567451
 11
63.5991850329
 21
66.8162006579
  0
LINE
  5
443
100
AcDbEntity
  8
ASSI
100
AcDbLine
 62
7
  6
CONTINUOUS
 10
56.4491850329
 20
152.9929380681
 11
57.4336374907
 21
153.4361861278
  0
LINE
  5
444
100
AcDbEntity
  8
0
100
AcDbLine
 62
250
  6
CONTINUOUS
 10
62.9991850329
 20
68.4542592255
 11
63.5991850329
 21
68.4123031383
  0
LINE
  5
445
100
AcDbEntity
  8
ASSI
100
AcDbLine
 62
7
  6
CONTINUOUS
 10
56.4491850329
 20
66.2394632477
 11
57.4336374907
 21
65.796215188
  0
LWPOLYLINE
  5
446
100
AcDbEntity
  8
0
100
AcDbPolyline
 62
7
  6
CONTINUOUS
 90
3
 70
0
 43
0.3500000006
 10
47.817063446
 20
173.9018790894
 10
47.745636795
 20
173.6875946045
 10
47.6027789612
 20
173.401869873
  0
LINE
  5
447
100
AcDbEntity
  8
ASSI
100
AcDbLine
 62
7
  6
CONTINUOUS
 10
56.4491850329
 20
153.3874696177
 11
57.4485758599
 21
154.4223691144
  0
LINE
  5
448
100
AcDbEntity
  8
ASSI
100
AcDbLine
 62
7
  6
CONTINUOUS
 10
56.4491850329
 20
65.8449316981
 11
57.4485758599
 21
64.8100322014
  0
LWPOLYLINE
  5
449
100
AcDbEntity
  8
0
100
AcDbPolyline
 62
7
  6
CONTINUOUS
 90
3
 70
0
 43
0.3500000006
 10
47.7343298035
 20
164.6851809082
 10
47.6629031525
 20
164.4708964233
 10
47.5200453186
 20
164.1851716919
  0
LINE
  5
44A
100
AcDbEntity
  8
0
100
AcDbLine
 62
7
  6
CONTINUOUS
 10
64.5250221839
 20
82.4660712192
 11
63.5991850329
 21
82.4644553269
  0
LINE
  5
44B
100
AcDbEntity
  8
0
100
AcDbLine
 62
250
  6
CONTINUOUS
 10
64.5249576166
 20
82.688521414
 11
63.5991850329
 21
82.6881032195
  0
LINE
  5
44C
100
AcDbEntity
  8
0
100
AcDbLine
 62
7
  6
CONTINUOUS
 10
66.0492342651
 20
83.2746367975
 11
63.5991850329
 21
83.2603828281
  0
LINE
  5
44D
100
AcDbEntity
  8
0
100
AcDbLine
 62
250
  6
CONTINUOUS
 10
66.0492342651
 20
83.3625032762
 11
63.5991850329
 21
83.3482493067
  0
LINE
  5
44E
100
AcDbEntity
  8
0
100
AcDbLine
 62
7
  6
CONTINUOUS
 10
64.5493094118
 20
84.4162006579
 11
63.5991850329
 21
84.4162006579
  0
LINE
  5
44F
100
AcDbEntity
  8
0
100
AcDbLine
 62
7
  6
CONTINUOUS
 10
63.5991850329
 20
84.5662006579
 11
63.7491850329
 21
84.5662006579
  0
LINE
  5
450
100
AcDbEntity
  8
0
100
AcDbLine
 62
7
  6
CONTINUOUS
 10
64.0491850329
 20
84.5662006579
 11
64.2491850329
 21
84.5662006579
  0
LINE
  5
451
100
AcDbEntity
  8
0
100
AcDbLine
 62
7
  6
CONTINUOUS
 10
63.5991850329
 20
83.8603807834
 11
66.4096522241
 21
83.7362139902
  0
LINE
  5
452
100
AcDbEntity
  8
0
100
AcDbLine
 62
7
  6
CONTINUOUS
 10
64.6488131308
 20
84.4112378481
 11
66.5991850329
 21
84.2162006579
  0
LWPOLYLINE
  5
453
100
AcDbEntity
  8
0
100
AcDbPolyline
 62
250
  6
CONTINUOUS
 90
4
 70
0
 10
66.0888578501
 20
135.9021299303
 10
66.0757823582
 20
135.8926659133
 10
66.0625500952
 20
135.8819021213
 10
66.0492342651
 20
135.8698980396
  0
LWPOLYLINE
  5
454
100
AcDbEntity
  8
0
100
AcDbPolyline
 62
250
  6
CONTINUOUS
 90
4
 70
0
 10
66.0888678566
 20
83.3302646011
 10
66.075790308
 20
83.3397292902
 10
66.0625547015
 20
83.3504952441
 10
66.0492342651
 20
83.3625032762
  0
LWPOLYLINE
  5
455
100
AcDbEntity
  8
0
100
AcDbPolyline
 62
7
  6
CONTINUOUS
 90
4
 70
0
 43
0.3500000006
 10
44.6629022369
 20
166.7566036377
 10
44.6629022369
 20
167.3994570923
 10
46.1629026947
 20
167.3994570923
 10
45.3057602234
 20
164.3994561768
  0
LWPOLYLINE
  5
456
100
AcDbEntity
  8
0
100
AcDbPolyline
 62
7
  6
CONTINUOUS
 90
13
 70
0
 43
0.3500000006
 10
44.7456358795
 20
174.4733104248
 10
44.7456358795
 20
175.759017334
 10
44.9599203644
 20
176.1875863037
 10
45.388493866
 20
176.6161552734
 10
45.6027783508
 20
176.6161552734
 10
46.0313473206
 20
176.1875863037
 10
46.2456363373
 20
175.759017334
 10
46.2456363373
 20
174.4733104248
 10
46.0313473206
 20
174.0447233276
 10
45.6027783508
 20
173.6161543579
 10
45.388493866
 20
173.6161543579
 10
44.9599203644
 20
174.0447233276
 10
44.7456358795
 20
174.4733104248
  0
LINE
  5
457
100
AcDbEntity
  8
0
100
AcDbLine
 62
7
  6
CONTINUOUS
 10
63.7491850329
 20
134.6662006579
 11
63.8991850329
 21
134.8162006579
  0
LINE
  5
458
100
AcDbEntity
  8
0
100
AcDbLine
 62
7
  6
CONTINUOUS
 10
64.2491850329
 20
134.6662006579
 11
64.3991850329
 21
134.8162006579
  0
LINE
  5
459
100
AcDbEntity
  8
0
100
AcDbLine
 62
7
  6
CONTINUOUS
 10
63.7491850329
 20
84.5662006579
 11
63.8991850329
 21
84.4162006579
  0
LINE
  5
45A
100
AcDbEntity
  8
0
100
AcDbLine
 62
7
  6
CONTINUOUS
 10
64.2491850329
 20
84.5662006579
 11
64.3991850329
 21
84.4162006579
  0
LWPOLYLINE
  5
45B
100
AcDbEntity
  8
0
100
AcDbPolyline
 62
250
  6
CONTINUOUS
 90
9
 70
0
 10
64.6185117191
 20
82.5423896925
 10
64.6259014053
 20
82.5329939463
 10
64.6330853248
 20
82.5243971536
 10
64.6399919245
 20
82.5167647604
 10
64.6464641432
 20
82.5103562528
 10
64.6523183117
 20
82.5054295742
 10
64.6574333541
 20
82.5021601753
 10
64.6617263012
 20
82.5006929811
 10
64.6650912666
 20
82.5011848618
  0
LWPOLYLINE
  5
45C
100
AcDbEntity
  8
0
100
AcDbPolyline
 62
250
  6
CONTINUOUS
 90
19
 70
0
 10
64.5249576166
 20
136.5438799018
 10
64.5334193128
 20
136.5585659061
 10
64.5419652121
 20
136.5731470164
 10
64.5505633423
 20
136.5875568642
 10
64.5591174737
 20
136.6016301403
 10
64.5676547295
 20
136.6153972499
 10
64.5763154856
 20
136.6290473538
 10
64.5850540584
 20
136.642470293
 10
64.5938003032
 20
136.6555280108
 10
64.6026233233
 20
136.6682764793
 10
64.611474853
 20
136.6805800788
 10
64.6201928619
 20
136.6921412596
 10
64.6286440759
 20
136.7027092212
 10
64.6367479399
 20
136.7120904766
 10
64.6442984012
 20
136.7199498889
 10
64.6510130521
 20
136.7259274879
 10
64.6567557595
 20
136.7298613624
 10
64.6614791894
 20
136.7316635667
 10
64.6650912666
 20
136.731216454
  0
LWPOLYLINE
  5
45D
100
AcDbEntity
  8
0
100
AcDbPolyline
 62
7
  6
CONTINUOUS
 90
7
 70
0
 10
66.5713261179
 20
83.6396389404
 10
66.5795972631
 20
83.6255850186
 10
66.5865088079
 20
83.6125023271
 10
66.5919843737
 20
83.600390866
 10
66.595957453
 20
83.5892506352
 10
66.5983723447
 20
83.5790816348
 10
66.5991850329
 20
83.5698838647
  0
LWPOLYLINE
  5
45E
100
AcDbEntity
  8
0
100
AcDbPolyline
 62
250
  6
CONTINUOUS
 90
14
 70
0
 10
64.5249576166
 20
82.688521414
 10
64.5315491673
 20
82.6770430826
 10
64.538269022
 20
82.6654967923
 10
64.5451011223
 20
82.6539211682
 10
64.5519905492
 20
82.6424165059
 10
64.5589550447
 20
82.6309659977
 10
64.5660810995
 20
82.6194518717
 10
64.5733540874
 20
82.6079226644
 10
64.5807258596
 20
82.5964755501
 10
64.5882189917
 20
82.5851028036
 10
64.5957878176
 20
82.5739061784
 10
64.6033768584
 20
82.5630024062
 10
64.6109749713
 20
82.5524482214
 10
64.6185117191
 20
82.5423896925
  0
LINE
  5
45F
100
AcDbEntity
  8
ASSI
100
AcDbLine
 62
7
  6
CONTINUOUS
 10
56.4491850329
 20
65.8449316981
 11
56.4491850329
 21
153.3874696177
  0
LINE
  5
460
100
AcDbEntity
  8
ASSI
100
AcDbLine
 62
7
  6
CONTINUOUS
 10
57.4336374907
 20
64.8255013356
 11
57.4336374907
 21
65.796215188
  0
LINE
  5
461
100
AcDbEntity
  8
ASSI
100
AcDbLine
 62
7
  6
CONTINUOUS
 10
57.4336374907
 20
153.4361861278
 11
57.4336374907
 21
154.4068999802
  0
LINE
  5
462
100
AcDbEntity
  8
ASSI
100
AcDbLine
 62
7
  6
CONTINUOUS
 10
57.4485758599
 20
65.8106410035
 11
57.4485758599
 21
153.4217603123
  0
LINE
  5
463
100
AcDbEntity
  8
ASSI
100
AcDbLine
 62
7
  6
CONTINUOUS
 10
62.9991850329
 20
64.6162006579
 11
62.9991850329
 21
154.6162006579
  0
LINE
  5
464
100
AcDbEntity
  8
0
100
AcDbLine
 62
7
  6
CONTINUOUS
 10
63.5991850329
 20
66.8162006579
 11
63.5991850329
 21
152.4162006579
  0
LINE
  5
465
100
AcDbEntity
  8
0
100
AcDbLine
 62
250
  6
CONTINUOUS
 10
64.5250221646
 20
82.4660712191
 11
64.5249576166
 21
82.688521414
  0
LINE
  5
466
100
AcDbEntity
  8
0
100
AcDbLine
 62
250
  6
CONTINUOUS
 10
64.5249576166
 20
136.5438799018
 11
64.525022162
 21
136.7651863723
  0
LWPOLYLINE
  5
467
100
AcDbEntity
  8
0
100
AcDbPolyline
 62
7
  6
CONTINUOUS
 90
7
 70
0
 10
66.5991850329
 20
135.6625174511
 10
66.5983724733
 20
135.6533205969
 10
66.5959578619
 20
135.643152146
 10
66.5919850575
 20
135.6320120984
 10
66.5865096086
 20
135.6199004541
 10
66.5795978797
 20
135.6068172131
 10
66.5713261179
 20
135.5927623754
  0
LWPOLYLINE
  5
468
100
AcDbEntity
  8
0
100
AcDbPolyline
 62
250
  6
CONTINUOUS
 90
3
 70
0
 10
66.0493332856
 20
135.9532059438
 10
66.0492906315
 20
135.9566225273
 10
66.0492342651
 20
135.9577645182
  0
LINE
  5
469
100
AcDbEntity
  8
0
100
AcDbLine
 62
250
  6
CONTINUOUS
 10
66.0493762641
 20
135.939669705
 11
66.0493332856
 21
135.9532059438
  0
LINE
  5
46A
100
AcDbEntity
  8
0
100
AcDbLine
 62
250
  6
CONTINUOUS
 10
66.0493762641
 20
83.2927316108
 11
66.0492342651
 21
83.3625032762
  0
LINE
  5
46B
100
AcDbEntity
  8
0
100
AcDbLine
 62
250
  6
CONTINUOUS
 10
66.4096522241
 20
135.4961873255
 11
66.4096522241
 21
134.997247377
  0
LINE
  5
46C
100
AcDbEntity
  8
0
100
AcDbLine
 62
250
  6
CONTINUOUS
 10
66.4096522241
 20
84.2351539388
 11
66.4096522241
 21
83.7362139902
  0
LINE
  5
46D
100
AcDbEntity
  8
0
100
AcDbLine
 62
7
  6
CONTINUOUS
 10
66.5991850329
 20
135.7045649983
 11
66.5991850329
 21
135.0162006579
  0
LINE
  5
46E
100
AcDbEntity
  8
0
100
AcDbLine
 62
7
  6
CONTINUOUS
 10
66.5991850329
 20
84.2162006579
 11
66.5991850329
 21
83.5278363175
  0
LINE
  5
46F
100
AcDbEntity
  8
0
100
AcDbLine
 62
250
  6
CONTINUOUS
 10
66.0492342651
 20
135.8698980396
 11
66.0493762641
 21
135.939669705
  0
LWPOLYLINE
  5
470
100
AcDbEntity
  8
0
100
AcDbPolyline
 62
250
  6
CONTINUOUS
 90
4
 70
0
 10
66.0492342651
 20
83.2746367975
 10
66.0492906315
 20
83.2757787885
 10
66.0493332856
 20
83.279195372
 10
66.0493762641
 20
83.2927316108
  0
LWPOLYLINE
  5
471
100
AcDbEntity
  8
0
100
AcDbPolyline
 62
7
  6
CONTINUOUS
 90
10
 70
0
 43
0.3500000006
 10
47.6629031525
 20
164.8994653931
 10
47.7343298035
 20
164.7566030273
 10
47.7343298035
 20
164.6851809082
 10
47.5914719696
 20
164.5423185425
 10
47.5200453186
 20
164.5423185425
 10
47.4486141357
 20
164.6137406616
 10
47.4486141357
 20
164.6851809082
 10
47.5200453186
 20
164.8280251465
 10
47.5914719696
 20
164.8994653931
 10
47.6629031525
 20
164.8994653931
  0
LWPOLYLINE
  5
472
100
AcDbEntity
  8
0
100
AcDbPolyline
 62
7
  6
CONTINUOUS
 90
10
 70
0
 43
0.3500000006
 10
47.745636795
 20
174.1161635742
 10
47.817063446
 20
173.9733012085
 10
47.817063446
 20
173.9018790894
 10
47.6742056122
 20
173.7590167236
 10
47.6027789612
 20
173.7590167236
 10
47.5313477783
 20
173.8304388428
 10
47.5313477783
 20
173.9018790894
 10
47.6027789612
 20
174.0447233276
 10
47.6742056122
 20
174.1161635742
 10
47.745636795
 20
174.1161635742
  0
LINE
  5
473
100
AcDbEntity
  8
0
100
AcDbLine
 62
7
  6
CONTINUOUS
 10
63.8991850329
 20
84.4162006579
 11
64.0491850329
 21
84.5662006579
  0
LINE
  5
474
100
AcDbEntity
  8
0
100
AcDbLine
 62
7
  6
CONTINUOUS
 10
63.8991850329
 20
134.8162006579
 11
64.0491850329
 21
134.6662006579
  0
LINE
  5
475
100
AcDbEntity
  8
0
100
AcDbLine
 62
250
  6
CONTINUOUS
 10
64.5249576166
 20
82.688521414
 11
65.6244764765
 21
83.272165629
  0
LINE
  5
476
100
AcDbEntity
  8
0
100
AcDbLine
 62
250
  6
CONTINUOUS
 10
66.0492342651
 20
83.3625032762
 11
66.5713261179
 21
83.6396389404
  0
LINE
  5
477
100
AcDbEntity
  8
0
100
AcDbLine
 62
7
  6
CONTINUOUS
 10
64.6641969946
 20
82.5007101663
 11
66.5991850329
 21
83.5278363175
  0
LWPOLYLINE
  5
478
100
AcDbEntity
  8
0
100
AcDbPolyline
 62
250
  6
CONTINUOUS
 90
10
 70
0
 10
66.1881461941
 20
83.3096495732
 10
66.1794925899
 20
83.3059977146
 10
66.1701121925
 20
83.3038361169
 10
66.1600580754
 20
83.3031743885
 10
66.1493900005
 20
83.3040133661
 10
66.1381650889
 20
83.306345643
 10
66.1264359715
 20
83.3101598532
 10
66.1142625897
 20
83.3154384696
 10
66.1017159333
 20
83.3221526055
 10
66.0888678566
 20
83.3302646011
  0
LINE
  5
479
100
AcDbEntity
  8
0
100
AcDbLine
 62
7
  6
CONTINUOUS
 10
64.6488131308
 20
134.8211634677
 11
66.5991850329
 21
135.0162006579
  0
LINE
  5
47A
100
AcDbEntity
  8
0
100
AcDbLine
 62
7
  6
CONTINUOUS
 10
63.5991850329
 20
135.3720205324
 11
66.4096522241
 21
135.4961873255
  0
LINE
  5
47B
100
AcDbEntity
  8
0
100
AcDbLine
 62
7
  6
CONTINUOUS
 10
63.5991850329
 20
134.6662006579
 11
63.7491850329
 21
134.6662006579
  0
LINE
  5
47C
100
AcDbEntity
  8
0
100
AcDbLine
 62
7
  6
CONTINUOUS
 10
64.0491850329
 20
134.6662006579
 11
64.2491850329
 21
134.6662006579
  0
LINE
  5
47D
100
AcDbEntity
  8
0
100
AcDbLine
 62
7
  6
CONTINUOUS
 10
63.5991850329
 20
134.8162006579
 11
64.5493094118
 21
134.8162006579
  0
LINE
  5
47E
100
AcDbEntity
  8
0
100
AcDbLine
 62
250
  6
CONTINUOUS
 10
64.5249576166
 20
136.5438799018
 11
63.5991850329
 21
136.5442980963
  0
LINE
  5
47F
100
AcDbEntity
  8
0
100
AcDbLine
 62
7
  6
CONTINUOUS
 10
64.5250221839
 20
136.7663300966
 11
63.5991850329
 21
136.7679459889
  0
LINE
  5
480
100
AcDbEntity
  8
0
100
AcDbLine
 62
250
  6
CONTINUOUS
 10
66.0492342651
 20
135.8698980396
 11
63.5991850329
 21
135.8841520091
  0
LINE
  5
481
100
AcDbEntity
  8
0
100
AcDbLine
 62
7
  6
CONTINUOUS
 10
66.0492342651
 20
135.9577645182
 11
63.5991850329
 21
135.9720184877
  0
LWPOLYLINE
  5
482
100
AcDbEntity
  8
0
100
AcDbPolyline
 62
250
  6
CONTINUOUS
 90
10
 70
0
 10
66.1881461941
 20
135.9227517426
 10
66.1795018576
 20
135.9264006132
 10
66.1701277032
 20
135.9285629443
 10
66.160075739
 20
135.9292270772
 10
66.1494021464
 20
135.9283897086
 10
66.138165687
 20
135.926055833
 10
66.1264271581
 20
135.9222381099
 10
66.114250762
 20
135.9169571077
 10
66.1017043889
 20
135.9102419699
 10
66.0888578501
 20
135.9021299303
  0
LINE
  5
483
100
AcDbEntity
  8
0
100
AcDbLine
 62
250
  6
CONTINUOUS
 10
65.6244764765
 20
135.9602356868
 11
64.5249576166
 21
136.5438799018
  0
LINE
  5
484
100
AcDbEntity
  8
0
100
AcDbLine
 62
250
  6
CONTINUOUS
 10
66.5713261179
 20
135.5927623754
 11
66.0492342651
 21
135.8698980396
  0
LINE
  5
485
100
AcDbEntity
  8
0
100
AcDbLine
 62
7
  6
CONTINUOUS
 10
66.5991850329
 20
135.7045649983
 11
64.6641969946
 21
136.7316911494
  0
LINE
  5
486
100
AcDbEntity
  8
ASSI
100
AcDbLine
 62
7
  6
CONTINUOUS
 10
57.4485758599
 20
65.8106410035
 11
57.4336374907
 21
65.796215188
  0
LINE
  5
487
100
AcDbEntity
  8
ASSI
100
AcDbLine
 62
7
  6
CONTINUOUS
 10
57.4336374907
 20
153.4361861278
 11
57.4485758599
 21
153.4217603123
  0
LINE
  5
488
100
AcDbEntity
  8
0
100
AcDbLine
 62
250
  6
CONTINUOUS
 10
62.9991850329
 20
150.7781420903
 11
63.5991850329
 21
150.8200981775
  0
LINE
  5
489
100
AcDbEntity
  8
0
100
AcDbLine
 62
7
  6
CONTINUOUS
 10
62.9991850329
 20
152.3742445707
 11
63.5991850329
 21
152.4162006579
  0
LINE
  5
48A
100
AcDbEntity
  8
ASSI
100
AcDbLine
 62
7
  6
CONTINUOUS
 10
57.4485758599
 20
153.4217603123
 11
62.9991850329
 21
153.6155918558
  0
LINE
  5
48B
100
AcDbEntity
  8
ASSI
100
AcDbLine
 62
7
  6
CONTINUOUS
 10
57.4485758599
 20
154.4223691144
 11
62.9991850329
 21
154.6162006579
  0
LWPOLYLINE
  5
48C
100
AcDbEntity
  8
0
100
AcDbPolyline
 62
7
  6
CONTINUOUS
 90
8
 70
0
 43
0.3500000006
 10
50.4486150513
 20
164.3994561768
 10
51.3057575226
 20
164.3994561768
 10
51.7343310242
 20
164.8280251465
 10
51.7343310242
 20
165.6851812134
 10
51.3057575226
 20
166.1137501831
 10
50.4486150513
 20
166.1137501831
 10
50.4486150513
 20
167.3994570923
 10
51.7343310242
 20
167.3994570923
  0
LWPOLYLINE
  5
48D
100
AcDbEntity
  8
0
100
AcDbPolyline
 62
7
  6
CONTINUOUS
 90
8
 70
0
 43
0.3500000006
 10
50.5313486938
 20
173.6161543579
 10
51.3884911652
 20
173.6161543579
 10
51.8170646667
 20
174.0447233276
 10
51.8170646667
 20
174.9018793945
 10
51.3884911652
 20
175.3304483643
 10
50.5313486938
 20
175.3304483643
 10
50.5313486938
 20
176.6161552734
 10
51.8170646667
 20
176.6161552734
  0
ARC
  5
48E
100
AcDbEntity
  8
SMUSSO
100
AcDbCircle
 62
7
  6
CONTINUOUS
 10
124.991796875
 20
92.6662006579
 40
1.7
100
AcDbArc
 50
180.0
 51
270.0
  0
ARC
  5
48F
100
AcDbEntity
  8
SMUSSO
100
AcDbCircle
 62
7
  6
CONTINUOUS
 10
138.391796875
 20
92.6662006579
 40
1.7
100
AcDbArc
 50
270.0
 51
360.0
  0
ARC
  5
490
100
AcDbEntity
  8
ASSI
100
AcDbCircle
 62
7
  6
CONTINUOUS
 10
124.991796875
 20
92.6662006579
 40
1.7
100
AcDbArc
 50
180.0
 51
270.0
  0
ARC
  5
491
100
AcDbEntity
  8
ASSI
100
AcDbCircle
 62
7
  6
CONTINUOUS
 10
138.391796875
 20
92.6662006579
 40
1.7
100
AcDbArc
 50
270.0
 51
360.0
  0
ARC
  5
492
100
AcDbEntity
  8
SMUSSO
100
AcDbCircle
 62
7
  6
CONTINUOUS
 10
124.991796875
 20
92.6662006579
 40
1.2
100
AcDbArc
 50
180.0
 51
270.0
  0
ARC
  5
493
100
AcDbEntity
  8
SMUSSO
100
AcDbCircle
 62
7
  6
CONTINUOUS
 10
138.391796875
 20
92.6662006579
 40
1.2
100
AcDbArc
 50
270.0
 51
360.0
  0
ARC
  5
494
100
AcDbEntity
  8
ASSI
100
AcDbCircle
 62
7
  6
CONTINUOUS
 10
124.991796875
 20
92.6662006579
 40
1.2
100
AcDbArc
 50
180.0
 51
270.0
  0
ARC
  5
495
100
AcDbEntity
  8
ASSI
100
AcDbCircle
 62
7
  6
CONTINUOUS
 10
138.391796875
 20
92.6662006579
 40
1.2
100
AcDbArc
 50
270.0
 51
360.0
  0
ARC
  5
496
100
AcDbEntity
  8
SMUSSO
100
AcDbCircle
 62
7
  6
CONTINUOUS
 10
124.991796875
 20
106.0662006579
 40
1.7
100
AcDbArc
 50
90.0
 51
180.0
  0
ARC
  5
497
100
AcDbEntity
  8
SMUSSO
100
AcDbCircle
 62
7
  6
CONTINUOUS
 10
138.391796875
 20
106.0662006579
 40
1.7
100
AcDbArc
 50
0.0
 51
90.0
  0
ARC
  5
498
100
AcDbEntity
  8
ASSI
100
AcDbCircle
 62
7
  6
CONTINUOUS
 10
124.991796875
 20
106.0662006579
 40
1.7
100
AcDbArc
 50
90.0
 51
180.0
  0
ARC
  5
499
100
AcDbEntity
  8
ASSI
100
AcDbCircle
 62
7
  6
CONTINUOUS
 10
138.391796875
 20
106.0662006579
 40
1.7
100
AcDbArc
 50
0.0
 51
90.0
  0
ARC
  5
49A
100
AcDbEntity
  8
SMUSSO
100
AcDbCircle
 62
7
  6
CONTINUOUS
 10
124.991796875
 20
106.0662006579
 40
1.2
100
AcDbArc
 50
90.0
 51
180.0
  0
ARC
  5
49B
100
AcDbEntity
  8
SMUSSO
100
AcDbCircle
 62
7
  6
CONTINUOUS
 10
138.391796875
 20
106.0662006579
 40
1.2
100
AcDbArc
 50
0.0
 51
90.0
  0
ARC
  5
49C
100
AcDbEntity
  8
ASSI
100
AcDbCircle
 62
7
  6
CONTINUOUS
 10
124.991796875
 20
106.0662006579
 40
1.2
100
AcDbArc
 50
90.0
 51
180.0
  0
ARC
  5
49D
100
AcDbEntity
  8
ASSI
100
AcDbCircle
 62
7
  6
CONTINUOUS
 10
138.391796875
 20
106.0662006579
 40
1.2
100
AcDbArc
 50
0.0
 51
90.0
  0
ARC
  5
49E
100
AcDbEntity
  8
SMUSSO
100
AcDbCircle
 62
7
  6
CONTINUOUS
 10
169.991796875
 20
92.6662006579
 40
1.7
100
AcDbArc
 50
180.0
 51
270.0
  0
ARC
  5
49F
100
AcDbEntity
  8
SMUSSO
100
AcDbCircle
 62
7
  6
CONTINUOUS
 10
147.491796875
 20
92.6662006579
 40
1.7
100
AcDbArc
 50
180.0
 51
270.0
  0
ARC
  5
4A0
100
AcDbEntity
  8
SMUSSO
100
AcDbCircle
 62
7
  6
CONTINUOUS
 10
160.891796875
 20
92.6662006579
 40
1.7
100
AcDbArc
 50
270.0
 51
360.0
  0
ARC
  5
4A1
100
AcDbEntity
  8
ASSI
100
AcDbCircle
 62
7
  6
CONTINUOUS
 10
169.991796875
 20
92.6662006579
 40
1.7
100
AcDbArc
 50
180.0
 51
270.0
  0
ARC
  5
4A2
100
AcDbEntity
  8
ASSI
100
AcDbCircle
 62
7
  6
CONTINUOUS
 10
147.491796875
 20
92.6662006579
 40
1.7
100
AcDbArc
 50
180.0
 51
270.0
  0
ARC
  5
4A3
100
AcDbEntity
  8
ASSI
100
AcDbCircle
 62
7
  6
CONTINUOUS
 10
160.891796875
 20
92.6662006579
 40
1.7
100
AcDbArc
 50
270.0
 51
360.0
  0
ARC
  5
4A4
100
AcDbEntity
  8
SMUSSO
100
AcDbCircle
 62
7
  6
CONTINUOUS
 10
147.491796875
 20
92.6662006579
 40
1.2
100
AcDbArc
 50
180.0
 51
270.0
  0
ARC
  5
4A5
100
AcDbEntity
  8
SMUSSO
100
AcDbCircle
 62
7
  6
CONTINUOUS
 10
160.891796875
 20
92.6662006579
 40
1.2
100
AcDbArc
 50
270.0
 51
360.0
  0
ARC
  5
4A6
100
AcDbEntity
  8
SMUSSO
100
AcDbCircle
 62
7
  6
CONTINUOUS
 10
169.991796875
 20
92.6662006579
 40
1.2
100
AcDbArc
 50
180.0
 51
270.0
  0
ARC
  5
4A7
100
AcDbEntity
  8
ASSI
100
AcDbCircle
 62
7
  6
CONTINUOUS
 10
147.491796875
 20
92.6662006579
 40
1.2
100
AcDbArc
 50
180.0
 51
270.0
  0
ARC
  5
4A8
100
AcDbEntity
  8
ASSI
100
AcDbCircle
 62
7
  6
CONTINUOUS
 10
160.891796875
 20
92.6662006579
 40
1.2
100
AcDbArc
 50
270.0
 51
360.0
  0
ARC
  5
4A9
100
AcDbEntity
  8
ASSI
100
AcDbCircle
 62
7
  6
CONTINUOUS
 10
169.991796875
 20
92.6662006579
 40
1.2
100
AcDbArc
 50
180.0
 51
270.0
  0
ARC
  5
4AA
100
AcDbEntity
  8
SMUSSO
100
AcDbCircle
 62
7
  6
CONTINUOUS
 10
169.991796875
 20
106.0662006579
 40
1.7
100
AcDbArc
 50
90.0
 51
180.0
  0
ARC
  5
4AB
100
AcDbEntity
  8
SMUSSO
100
AcDbCircle
 62
7
  6
CONTINUOUS
 10
147.491796875
 20
106.0662006579
 40
1.7
100
AcDbArc
 50
90.0
 51
180.0
  0
ARC
  5
4AC
100
AcDbEntity
  8
SMUSSO
100
AcDbCircle
 62
7
  6
CONTINUOUS
 10
160.891796875
 20
106.0662006579
 40
1.7
100
AcDbArc
 50
0.0
 51
90.0
  0
ARC
  5
4AD
100
AcDbEntity
  8
ASSI
100
AcDbCircle
 62
7
  6
CONTINUOUS
 10
169.991796875
 20
106.0662006579
 40
1.7
100
AcDbArc
 50
90.0
 51
180.0
  0
ARC
  5
4AE
100
AcDbEntity
  8
ASSI
100
AcDbCircle
 62
7
  6
CONTINUOUS
 10
147.491796875
 20
106.0662006579
 40
1.7
100
AcDbArc
 50
90.0
 51
180.0
  0
ARC
  5
4AF
100
AcDbEntity
  8
ASSI
100
AcDbCircle
 62
7
  6
CONTINUOUS
 10
160.891796875
 20
106.0662006579
 40
1.7
100
AcDbArc
 50
0.0
 51
90.0
  0
ARC
  5
4B0
100
AcDbEntity
  8
SMUSSO
100
AcDbCircle
 62
7
  6
CONTINUOUS
 10
147.491796875
 20
106.0662006579
 40
1.2
100
AcDbArc
 50
90.0
 51
180.0
  0
ARC
  5
4B1
100
AcDbEntity
  8
SMUSSO
100
AcDbCircle
 62
7
  6
CONTINUOUS
 10
160.891796875
 20
106.0662006579
 40
1.2
100
AcDbArc
 50
0.0
 51
90.0
  0
ARC
  5
4B2
100
AcDbEntity
  8
SMUSSO
100
AcDbCircle
 62
7
  6
CONTINUOUS
 10
169.991796875
 20
106.0662006579
 40
1.2
100
AcDbArc
 50
90.0
 51
180.0
  0
ARC
  5
4B3
100
AcDbEntity
  8
ASSI
100
AcDbCircle
 62
7
  6
CONTINUOUS
 10
147.491796875
 20
106.0662006579
 40
1.2
100
AcDbArc
 50
90.0
 51
180.0
  0
ARC
  5
4B4
100
AcDbEntity
  8
ASSI
100
AcDbCircle
 62
7
  6
CONTINUOUS
 10
160.891796875
 20
106.0662006579
 40
1.2
100
AcDbArc
 50
0.0
 51
90.0
  0
ARC
  5
4B5
100
AcDbEntity
  8
ASSI
100
AcDbCircle
 62
7
  6
CONTINUOUS
 10
169.991796875
 20
106.0662006579
 40
1.2
100
AcDbArc
 50
90.0
 51
180.0
  0
ARC
  5
4B6
100
AcDbEntity
  8
SMUSSO
100
AcDbCircle
 62
7
  6
CONTINUOUS
 10
124.991796875
 20
113.1662006579
 40
1.7
100
AcDbArc
 50
180.0
 51
270.0
  0
ARC
  5
4B7
100
AcDbEntity
  8
SMUSSO
100
AcDbCircle
 62
7
  6
CONTINUOUS
 10
138.391796875
 20
113.1662006579
 40
1.7
100
AcDbArc
 50
270.0
 51
360.0
  0
ARC
  5
4B8
100
AcDbEntity
  8
ASSI
100
AcDbCircle
 62
7
  6
CONTINUOUS
 10
124.991796875
 20
113.1662006579
 40
1.7
100
AcDbArc
 50
180.0
 51
270.0
  0
ARC
  5
4B9
100
AcDbEntity
  8
ASSI
100
AcDbCircle
 62
7
  6
CONTINUOUS
 10
138.391796875
 20
113.1662006579
 40
1.7
100
AcDbArc
 50
270.0
 51
360.0
  0
ARC
  5
4BA
100
AcDbEntity
  8
SMUSSO
100
AcDbCircle
 62
7
  6
CONTINUOUS
 10
124.991796875
 20
113.1662006579
 40
1.2
100
AcDbArc
 50
180.0
 51
270.0
  0
ARC
  5
4BB
100
AcDbEntity
  8
SMUSSO
100
AcDbCircle
 62
7
  6
CONTINUOUS
 10
138.391796875
 20
113.1662006579
 40
1.2
100
AcDbArc
 50
270.0
 51
360.0
  0
ARC
  5
4BC
100
AcDbEntity
  8
ASSI
100
AcDbCircle
 62
7
  6
CONTINUOUS
 10
124.991796875
 20
113.1662006579
 40
1.2
100
AcDbArc
 50
180.0
 51
270.0
  0
ARC
  5
4BD
100
AcDbEntity
  8
ASSI
100
AcDbCircle
 62
7
  6
CONTINUOUS
 10
138.391796875
 20
113.1662006579
 40
1.2
100
AcDbArc
 50
270.0
 51
360.0
  0
ARC
  5
4BE
100
AcDbEntity
  8
SMUSSO
100
AcDbCircle
 62
7
  6
CONTINUOUS
 10
124.991796875
 20
126.5662006579
 40
1.7
100
AcDbArc
 50
90.0
 51
180.0
  0
ARC
  5
4BF
100
AcDbEntity
  8
SMUSSO
100
AcDbCircle
 62
7
  6
CONTINUOUS
 10
138.391796875
 20
126.5662006579
 40
1.7
100
AcDbArc
 50
0.0
 51
90.0
  0
ARC
  5
4C0
100
AcDbEntity
  8
ASSI
100
AcDbCircle
 62
7
  6
CONTINUOUS
 10
124.991796875
 20
126.5662006579
 40
1.7
100
AcDbArc
 50
90.0
 51
180.0
  0
ARC
  5
4C1
100
AcDbEntity
  8
ASSI
100
AcDbCircle
 62
7
  6
CONTINUOUS
 10
138.391796875
 20
126.5662006579
 40
1.7
100
AcDbArc
 50
0.0
 51
90.0
  0
ARC
  5
4C2
100
AcDbEntity
  8
SMUSSO
100
AcDbCircle
 62
7
  6
CONTINUOUS
 10
124.991796875
 20
126.5662006579
 40
1.2
100
AcDbArc
 50
90.0
 51
180.0
  0
ARC
  5
4C3
100
AcDbEntity
  8
SMUSSO
100
AcDbCircle
 62
7
  6
CONTINUOUS
 10
138.391796875
 20
126.5662006579
 40
1.2
100
AcDbArc
 50
0.0
 51
90.0
  0
ARC
  5
4C4
100
AcDbEntity
  8
ASSI
100
AcDbCircle
 62
7
  6
CONTINUOUS
 10
124.991796875
 20
126.5662006579
 40
1.2
100
AcDbArc
 50
90.0
 51
180.0
  0
ARC
  5
4C5
100
AcDbEntity
  8
ASSI
100
AcDbCircle
 62
7
  6
CONTINUOUS
 10
138.391796875
 20
126.5662006579
 40
1.2
100
AcDbArc
 50
0.0
 51
90.0
  0
ARC
  5
4C6
100
AcDbEntity
  8
SMUSSO
100
AcDbCircle
 62
7
  6
CONTINUOUS
 10
160.891796875
 20
113.1662006579
 40
1.7
100
AcDbArc
 50
270.0
 51
360.0
  0
ARC
  5
4C7
100
AcDbEntity
  8
SMUSSO
100
AcDbCircle
 62
7
  6
CONTINUOUS
 10
169.991796875
 20
113.1662006579
 40
1.7
100
AcDbArc
 50
180.0
 51
270.0
  0
ARC
  5
4C8
100
AcDbEntity
  8
SMUSSO
100
AcDbCircle
 62
7
  6
CONTINUOUS
 10
147.491796875
 20
113.1662006579
 40
1.7
100
AcDbArc
 50
180.0
 51
270.0
  0
ARC
  5
4C9
100
AcDbEntity
  8
ASSI
100
AcDbCircle
 62
7
  6
CONTINUOUS
 10
160.891796875
 20
113.1662006579
 40
1.7
100
AcDbArc
 50
270.0
 51
360.0
  0
ARC
  5
4CA
100
AcDbEntity
  8
ASSI
100
AcDbCircle
 62
7
  6
CONTINUOUS
 10
169.991796875
 20
113.1662006579
 40
1.7
100
AcDbArc
 50
180.0
 51
270.0
  0
ARC
  5
4CB
100
AcDbEntity
  8
ASSI
100
AcDbCircle
 62
7
  6
CONTINUOUS
 10
147.491796875
 20
113.1662006579
 40
1.7
100
AcDbArc
 50
180.0
 51
270.0
  0
ARC
  5
4CC
100
AcDbEntity
  8
SMUSSO
100
AcDbCircle
 62
7
  6
CONTINUOUS
 10
147.491796875
 20
113.1662006579
 40
1.2
100
AcDbArc
 50
180.0
 51
270.0
  0
ARC
  5
4CD
100
AcDbEntity
  8
SMUSSO
100
AcDbCircle
 62
7
  6
CONTINUOUS
 10
160.891796875
 20
113.1662006579
 40
1.2
100
AcDbArc
 50
270.0
 51
360.0
  0
ARC
  5
4CE
100
AcDbEntity
  8
SMUSSO
100
AcDbCircle
 62
7
  6
CONTINUOUS
 10
169.991796875
 20
113.1662006579
 40
1.2
100
AcDbArc
 50
180.0
 51
270.0
  0
ARC
  5
4CF
100
AcDbEntity
  8
ASSI
100
AcDbCircle
 62
7
  6
CONTINUOUS
 10
147.491796875
 20
113.1662006579
 40
1.2
100
AcDbArc
 50
180.0
 51
270.0
  0
ARC
  5
4D0
100
AcDbEntity
  8
ASSI
100
AcDbCircle
 62
7
  6
CONTINUOUS
 10
160.891796875
 20
113.1662006579
 40
1.2
100
AcDbArc
 50
270.0
 51
360.0
  0
ARC
  5
4D1
100
AcDbEntity
  8
ASSI
100
AcDbCircle
 62
7
  6
CONTINUOUS
 10
169.991796875
 20
113.1662006579
 40
1.2
100
AcDbArc
 50
180.0
 51
270.0
  0
ARC
  5
4D2
100
AcDbEntity
  8
SMUSSO
100
AcDbCircle
 62
7
  6
CONTINUOUS
 10
160.891796875
 20
126.5662006579
 40
1.7
100
AcDbArc
 50
0.0
 51
90.0
  0
ARC
  5
4D3
100
AcDbEntity
  8
SMUSSO
100
AcDbCircle
 62
7
  6
CONTINUOUS
 10
169.991796875
 20
126.5662006579
 40
1.7
100
AcDbArc
 50
90.0
 51
180.0
  0
ARC
  5
4D4
100
AcDbEntity
  8
SMUSSO
100
AcDbCircle
 62
7
  6
CONTINUOUS
 10
147.491796875
 20
126.5662006579
 40
1.7
100
AcDbArc
 50
90.0
 51
180.0
  0
ARC
  5
4D5
100
AcDbEntity
  8
ASSI
100
AcDbCircle
 62
7
  6
CONTINUOUS
 10
160.891796875
 20
126.5662006579
 40
1.7
100
AcDbArc
 50
0.0
 51
90.0
  0
ARC
  5
4D6
100
AcDbEntity
  8
ASSI
100
AcDbCircle
 62
7
  6
CONTINUOUS
 10
169.991796875
 20
126.5662006579
 40
1.7
100
AcDbArc
 50
90.0
 51
180.0
  0
ARC
  5
4D7
100
AcDbEntity
  8
ASSI
100
AcDbCircle
 62
7
  6
CONTINUOUS
 10
147.491796875
 20
126.5662006579
 40
1.7
100
AcDbArc
 50
90.0
 51
180.0
  0
ARC
  5
4D8
100
AcDbEntity
  8
SMUSSO
100
AcDbCircle
 62
7
  6
CONTINUOUS
 10
147.491796875
 20
126.5662006579
 40
1.2
100
AcDbArc
 50
90.0
 51
180.0
  0
ARC
  5
4D9
100
AcDbEntity
  8
SMUSSO
100
AcDbCircle
 62
7
  6
CONTINUOUS
 10
160.891796875
 20
126.5662006579
 40
1.2
100
AcDbArc
 50
0.0
 51
90.0
  0
ARC
  5
4DA
100
AcDbEntity
  8
SMUSSO
100
AcDbCircle
 62
7
  6
CONTINUOUS
 10
169.991796875
 20
126.5662006579
 40
1.2
100
AcDbArc
 50
90.0
 51
180.0
  0
ARC
  5
4DB
100
AcDbEntity
  8
ASSI
100
AcDbCircle
 62
7
  6
CONTINUOUS
 10
147.491796875
 20
126.5662006579
 40
1.2
100
AcDbArc
 50
90.0
 51
180.0
  0
ARC
  5
4DC
100
AcDbEntity
  8
ASSI
100
AcDbCircle
 62
7
  6
CONTINUOUS
 10
160.891796875
 20
126.5662006579
 40
1.2
100
AcDbArc
 50
0.0
 51
90.0
  0
ARC
  5
4DD
100
AcDbEntity
  8
ASSI
100
AcDbCircle
 62
7
  6
CONTINUOUS
 10
169.991796875
 20
126.5662006579
 40
1.2
100
AcDbArc
 50
90.0
 51
180.0
  0
ARC
  5
4DE
100
AcDbEntity
  8
SMUSSO
100
AcDbCircle
 62
7
  6
CONTINUOUS
 10
192.491796875
 20
92.6662006579
 40
1.7
100
AcDbArc
 50
180.0
 51
270.0
  0
ARC
  5
4DF
100
AcDbEntity
  8
SMUSSO
100
AcDbCircle
 62
7
  6
CONTINUOUS
 10
183.391796875
 20
92.6662006579
 40
1.7
100
AcDbArc
 50
270.0
 51
360.0
  0
ARC
  5
4E0
100
AcDbEntity
  8
ASSI
100
AcDbCircle
 62
7
  6
CONTINUOUS
 10
192.491796875
 20
92.6662006579
 40
1.7
100
AcDbArc
 50
180.0
 51
270.0
  0
ARC
  5
4E1
100
AcDbEntity
  8
ASSI
100
AcDbCircle
 62
7
  6
CONTINUOUS
 10
183.391796875
 20
92.6662006579
 40
1.7
100
AcDbArc
 50
270.0
 51
360.0
  0
ARC
  5
4E2
100
AcDbEntity
  8
SMUSSO
100
AcDbCircle
 62
7
  6
CONTINUOUS
 10
183.391796875
 20
92.6662006579
 40
1.2
100
AcDbArc
 50
270.0
 51
360.0
  0
ARC
  5
4E3
100
AcDbEntity
  8
SMUSSO
100
AcDbCircle
 62
7
  6
CONTINUOUS
 10
192.491796875
 20
92.6662006579
 40
1.2
100
AcDbArc
 50
180.0
 51
270.0
  0
ARC
  5
4E4
100
AcDbEntity
  8
ASSI
100
AcDbCircle
 62
7
  6
CONTINUOUS
 10
183.391796875
 20
92.6662006579
 40
1.2
100
AcDbArc
 50
270.0
 51
360.0
  0
ARC
  5
4E5
100
AcDbEntity
  8
ASSI
100
AcDbCircle
 62
7
  6
CONTINUOUS
 10
192.491796875
 20
92.6662006579
 40
1.2
100
AcDbArc
 50
180.0
 51
270.0
  0
ARC
  5
4E6
100
AcDbEntity
  8
SMUSSO
100
AcDbCircle
 62
7
  6
CONTINUOUS
 10
192.491796875
 20
106.0662006579
 40
1.7
100
AcDbArc
 50
90.0
 51
180.0
  0
ARC
  5
4E7
100
AcDbEntity
  8
SMUSSO
100
AcDbCircle
 62
7
  6
CONTINUOUS
 10
183.391796875
 20
106.0662006579
 40
1.7
100
AcDbArc
 50
0.0
 51
90.0
  0
ARC
  5
4E8
100
AcDbEntity
  8
ASSI
100
AcDbCircle
 62
7
  6
CONTINUOUS
 10
192.491796875
 20
106.0662006579
 40
1.7
100
AcDbArc
 50
90.0
 51
180.0
  0
ARC
  5
4E9
100
AcDbEntity
  8
ASSI
100
AcDbCircle
 62
7
  6
CONTINUOUS
 10
183.391796875
 20
106.0662006579
 40
1.7
100
AcDbArc
 50
0.0
 51
90.0
  0
ARC
  5
4EA
100
AcDbEntity
  8
SMUSSO
100
AcDbCircle
 62
7
  6
CONTINUOUS
 10
183.391796875
 20
106.0662006579
 40
1.2
100
AcDbArc
 50
0.0
 51
90.0
  0
ARC
  5
4EB
100
AcDbEntity
  8
SMUSSO
100
AcDbCircle
 62
7
  6
CONTINUOUS
 10
192.491796875
 20
106.0662006579
 40
1.2
100
AcDbArc
 50
90.0
 51
180.0
  0
ARC
  5
4EC
100
AcDbEntity
  8
ASSI
100
AcDbCircle
 62
7
  6
CONTINUOUS
 10
183.391796875
 20
106.0662006579
 40
1.2
100
AcDbArc
 50
0.0
 51
90.0
  0
ARC
  5
4ED
100
AcDbEntity
  8
ASSI
100
AcDbCircle
 62
7
  6
CONTINUOUS
 10
192.491796875
 20
106.0662006579
 40
1.2
100
AcDbArc
 50
90.0
 51
180.0
  0
ARC
  5
4EE
100
AcDbEntity
  8
SMUSSO
100
AcDbCircle
 62
7
  6
CONTINUOUS
 10
214.991796875
 20
92.6662006579
 40
1.7
100
AcDbArc
 50
180.0
 51
270.0
  0
ARC
  5
4EF
100
AcDbEntity
  8
SMUSSO
100
AcDbCircle
 62
7
  6
CONTINUOUS
 10
228.391796875
 20
92.6662006579
 40
1.7
100
AcDbArc
 50
270.0
 51
360.0
  0
ARC
  5
4F0
100
AcDbEntity
  8
SMUSSO
100
AcDbCircle
 62
7
  6
CONTINUOUS
 10
205.891796875
 20
92.6662006579
 40
1.7
100
AcDbArc
 50
270.0
 51
360.0
  0
ARC
  5
4F1
100
AcDbEntity
  8
ASSI
100
AcDbCircle
 62
7
  6
CONTINUOUS
 10
214.991796875
 20
92.6662006579
 40
1.7
100
AcDbArc
 50
180.0
 51
270.0
  0
ARC
  5
4F2
100
AcDbEntity
  8
ASSI
100
AcDbCircle
 62
7
  6
CONTINUOUS
 10
228.391796875
 20
92.6662006579
 40
1.7
100
AcDbArc
 50
270.0
 51
360.0
  0
ARC
  5
4F3
100
AcDbEntity
  8
ASSI
100
AcDbCircle
 62
7
  6
CONTINUOUS
 10
205.891796875
 20
92.6662006579
 40
1.7
100
AcDbArc
 50
270.0
 51
360.0
  0
ARC
  5
4F4
100
AcDbEntity
  8
SMUSSO
100
AcDbCircle
 62
7
  6
CONTINUOUS
 10
205.891796875
 20
92.6662006579
 40
1.2
100
AcDbArc
 50
270.0
 51
360.0
  0
ARC
  5
4F5
100
AcDbEntity
  8
SMUSSO
100
AcDbCircle
 62
7
  6
CONTINUOUS
 10
214.991796875
 20
92.6662006579
 40
1.2
100
AcDbArc
 50
180.0
 51
270.0
  0
ARC
  5
4F6
100
AcDbEntity
  8
SMUSSO
100
AcDbCircle
 62
7
  6
CONTINUOUS
 10
228.391796875
 20
92.6662006579
 40
1.2
100
AcDbArc
 50
270.0
 51
360.0
  0
ARC
  5
4F7
100
AcDbEntity
  8
ASSI
100
AcDbCircle
 62
7
  6
CONTINUOUS
 10
205.891796875
 20
92.6662006579
 40
1.2
100
AcDbArc
 50
270.0
 51
360.0
  0
ARC
  5
4F8
100
AcDbEntity
  8
ASSI
100
AcDbCircle
 62
7
  6
CONTINUOUS
 10
214.991796875
 20
92.6662006579
 40
1.2
100
AcDbArc
 50
180.0
 51
270.0
  0
ARC
  5
4F9
100
AcDbEntity
  8
ASSI
100
AcDbCircle
 62
7
  6
CONTINUOUS
 10
228.391796875
 20
92.6662006579
 40
1.2
100
AcDbArc
 50
270.0
 51
360.0
  0
ARC
  5
4FA
100
AcDbEntity
  8
SMUSSO
100
AcDbCircle
 62
7
  6
CONTINUOUS
 10
214.991796875
 20
106.0662006579
 40
1.7
100
AcDbArc
 50
90.0
 51
180.0
  0
ARC
  5
4FB
100
AcDbEntity
  8
SMUSSO
100
AcDbCircle
 62
7
  6
CONTINUOUS
 10
228.391796875
 20
106.0662006579
 40
1.7
100
AcDbArc
 50
0.0
 51
90.0
  0
ARC
  5
4FC
100
AcDbEntity
  8
SMUSSO
100
AcDbCircle
 62
7
  6
CONTINUOUS
 10
205.891796875
 20
106.0662006579
 40
1.7
100
AcDbArc
 50
0.0
 51
90.0
  0
ARC
  5
4FD
100
AcDbEntity
  8
ASSI
100
AcDbCircle
 62
7
  6
CONTINUOUS
 10
214.991796875
 20
106.0662006579
 40
1.7
100
AcDbArc
 50
90.0
 51
180.0
  0
ARC
  5
4FE
100
AcDbEntity
  8
ASSI
100
AcDbCircle
 62
7
  6
CONTINUOUS
 10
228.391796875
 20
106.0662006579
 40
1.7
100
AcDbArc
 50
0.0
 51
90.0
  0
ARC
  5
4FF
100
AcDbEntity
  8
ASSI
100
AcDbCircle
 62
7
  6
CONTINUOUS
 10
205.891796875
 20
106.0662006579
 40
1.7
100
AcDbArc
 50
0.0
 51
90.0
  0
ARC
  5
500
100
AcDbEntity
  8
SMUSSO
100
AcDbCircle
 62
7
  6
CONTINUOUS
 10
205.891796875
 20
106.0662006579
 40
1.2
100
AcDbArc
 50
0.0
 51
90.0
  0
ARC
  5
501
100
AcDbEntity
  8
SMUSSO
100
AcDbCircle
 62
7
  6
CONTINUOUS
 10
214.991796875
 20
106.0662006579
 40
1.2
100
AcDbArc
 50
90.0
 51
180.0
  0
ARC
  5
502
100
AcDbEntity
  8
SMUSSO
100
AcDbCircle
 62
7
  6
CONTINUOUS
 10
228.391796875
 20
106.0662006579
 40
1.2
100
AcDbArc
 50
0.0
 51
90.0
  0
ARC
  5
503
100
AcDbEntity
  8
ASSI
100
AcDbCircle
 62
7
  6
CONTINUOUS
 10
205.891796875
 20
106.0662006579
 40
1.2
100
AcDbArc
 50
0.0
 51
90.0
  0
ARC
  5
504
100
AcDbEntity
  8
ASSI
100
AcDbCircle
 62
7
  6
CONTINUOUS
 10
214.991796875
 20
106.0662006579
 40
1.2
100
AcDbArc
 50
90.0
 51
180.0
  0
ARC
  5
505
100
AcDbEntity
  8
ASSI
100
AcDbCircle
 62
7
  6
CONTINUOUS
 10
228.391796875
 20
106.0662006579
 40
1.2
100
AcDbArc
 50
0.0
 51
90.0
  0
ARC
  5
506
100
AcDbEntity
  8
SMUSSO
100
AcDbCircle
 62
7
  6
CONTINUOUS
 10
192.491796875
 20
113.1662006579
 40
1.7
100
AcDbArc
 50
180.0
 51
270.0
  0
ARC
  5
507
100
AcDbEntity
  8
SMUSSO
100
AcDbCircle
 62
7
  6
CONTINUOUS
 10
183.391796875
 20
113.1662006579
 40
1.7
100
AcDbArc
 50
270.0
 51
360.0
  0
ARC
  5
508
100
AcDbEntity
  8
ASSI
100
AcDbCircle
 62
7
  6
CONTINUOUS
 10
192.491796875
 20
113.1662006579
 40
1.7
100
AcDbArc
 50
180.0
 51
270.0
  0
ARC
  5
509
100
AcDbEntity
  8
ASSI
100
AcDbCircle
 62
7
  6
CONTINUOUS
 10
183.391796875
 20
113.1662006579
 40
1.7
100
AcDbArc
 50
270.0
 51
360.0
  0
ARC
  5
50A
100
AcDbEntity
  8
SMUSSO
100
AcDbCircle
 62
7
  6
CONTINUOUS
 10
183.391796875
 20
113.1662006579
 40
1.2
100
AcDbArc
 50
270.0
 51
360.0
  0
ARC
  5
50B
100
AcDbEntity
  8
SMUSSO
100
AcDbCircle
 62
7
  6
CONTINUOUS
 10
192.491796875
 20
113.1662006579
 40
1.2
100
AcDbArc
 50
180.0
 51
270.0
  0
ARC
  5
50C
100
AcDbEntity
  8
ASSI
100
AcDbCircle
 62
7
  6
CONTINUOUS
 10
183.391796875
 20
113.1662006579
 40
1.2
100
AcDbArc
 50
270.0
 51
360.0
  0
ARC
  5
50D
100
AcDbEntity
  8
ASSI
100
AcDbCircle
 62
7
  6
CONTINUOUS
 10
192.491796875
 20
113.1662006579
 40
1.2
100
AcDbArc
 50
180.0
 51
270.0
  0
ARC
  5
50E
100
AcDbEntity
  8
SMUSSO
100
AcDbCircle
 62
7
  6
CONTINUOUS
 10
192.491796875
 20
126.5662006579
 40
1.7
100
AcDbArc
 50
90.0
 51
180.0
  0
ARC
  5
50F
100
AcDbEntity
  8
SMUSSO
100
AcDbCircle
 62
7
  6
CONTINUOUS
 10
183.391796875
 20
126.5662006579
 40
1.7
100
AcDbArc
 50
0.0
 51
90.0
  0
ARC
  5
510
100
AcDbEntity
  8
ASSI
100
AcDbCircle
 62
7
  6
CONTINUOUS
 10
192.491796875
 20
126.5662006579
 40
1.7
100
AcDbArc
 50
90.0
 51
180.0
  0
ARC
  5
511
100
AcDbEntity
  8
ASSI
100
AcDbCircle
 62
7
  6
CONTINUOUS
 10
183.391796875
 20
126.5662006579
 40
1.7
100
AcDbArc
 50
0.0
 51
90.0
  0
ARC
  5
512
100
AcDbEntity
  8
SMUSSO
100
AcDbCircle
 62
7
  6
CONTINUOUS
 10
183.391796875
 20
126.5662006579
 40
1.2
100
AcDbArc
 50
0.0
 51
90.0
  0
ARC
  5
513
100
AcDbEntity
  8
SMUSSO
100
AcDbCircle
 62
7
  6
CONTINUOUS
 10
192.491796875
 20
126.5662006579
 40
1.2
100
AcDbArc
 50
90.0
 51
180.0
  0
ARC
  5
514
100
AcDbEntity
  8
ASSI
100
AcDbCircle
 62
7
  6
CONTINUOUS
 10
183.391796875
 20
126.5662006579
 40
1.2
100
AcDbArc
 50
0.0
 51
90.0
  0
ARC
  5
515
100
AcDbEntity
  8
ASSI
100
AcDbCircle
 62
7
  6
CONTINUOUS
 10
192.491796875
 20
126.5662006579
 40
1.2
100
AcDbArc
 50
90.0
 51
180.0
  0
ARC
  5
516
100
AcDbEntity
  8
SMUSSO
100
AcDbCircle
 62
7
  6
CONTINUOUS
 10
214.991796875
 20
113.1662006579
 40
1.7
100
AcDbArc
 50
180.0
 51
270.0
  0
ARC
  5
517
100
AcDbEntity
  8
SMUSSO
100
AcDbCircle
 62
7
  6
CONTINUOUS
 10
228.391796875
 20
113.1662006579
 40
1.7
100
AcDbArc
 50
270.0
 51
360.0
  0
ARC
  5
518
100
AcDbEntity
  8
SMUSSO
100
AcDbCircle
 62
7
  6
CONTINUOUS
 10
205.891796875
 20
113.1662006579
 40
1.7
100
AcDbArc
 50
270.0
 51
360.0
  0
ARC
  5
519
100
AcDbEntity
  8
ASSI
100
AcDbCircle
 62
7
  6
CONTINUOUS
 10
214.991796875
 20
113.1662006579
 40
1.7
100
AcDbArc
 50
180.0
 51
270.0
  0
ARC
  5
51A
100
AcDbEntity
  8
ASSI
100
AcDbCircle
 62
7
  6
CONTINUOUS
 10
228.391796875
 20
113.1662006579
 40
1.7
100
AcDbArc
 50
270.0
 51
360.0
  0
ARC
  5
51B
100
AcDbEntity
  8
ASSI
100
AcDbCircle
 62
7
  6
CONTINUOUS
 10
205.891796875
 20
113.1662006579
 40
1.7
100
AcDbArc
 50
270.0
 51
360.0
  0
ARC
  5
51C
100
AcDbEntity
  8
SMUSSO
100
AcDbCircle
 62
7
  6
CONTINUOUS
 10
205.891796875
 20
113.1662006579
 40
1.2
100
AcDbArc
 50
270.0
 51
360.0
  0
ARC
  5
51D
100
AcDbEntity
  8
SMUSSO
100
AcDbCircle
 62
7
  6
CONTINUOUS
 10
214.991796875
 20
113.1662006579
 40
1.2
100
AcDbArc
 50
180.0
 51
270.0
  0
ARC
  5
51E
100
AcDbEntity
  8
SMUSSO
100
AcDbCircle
 62
7
  6
CONTINUOUS
 10
228.391796875
 20
113.1662006579
 40
1.2
100
AcDbArc
 50
270.0
 51
360.0
  0
ARC
  5
51F
100
AcDbEntity
  8
ASSI
100
AcDbCircle
 62
7
  6
CONTINUOUS
 10
205.891796875
 20
113.1662006579
 40
1.2
100
AcDbArc
 50
270.0
 51
360.0
  0
ARC
  5
520
100
AcDbEntity
  8
ASSI
100
AcDbCircle
 62
7
  6
CONTINUOUS
 10
214.991796875
 20
113.1662006579
 40
1.2
100
AcDbArc
 50
180.0
 51
270.0
  0
ARC
  5
521
100
AcDbEntity
  8
ASSI
100
AcDbCircle
 62
7
  6
CONTINUOUS
 10
228.391796875
 20
113.1662006579
 40
1.2
100
AcDbArc
 50
270.0
 51
360.0
  0
ARC
  5
522
100
AcDbEntity
  8
SMUSSO
100
AcDbCircle
 62
7
  6
CONTINUOUS
 10
214.991796875
 20
126.5662006579
 40
1.7
100
AcDbArc
 50
90.0
 51
180.0
  0
ARC
  5
523
100
AcDbEntity
  8
SMUSSO
100
AcDbCircle
 62
7
  6
CONTINUOUS
 10
228.391796875
 20
126.5662006579
 40
1.7
100
AcDbArc
 50
0.0
 51
90.0
  0
ARC
  5
524
100
AcDbEntity
  8
SMUSSO
100
AcDbCircle
 62
7
  6
CONTINUOUS
 10
205.891796875
 20
126.5662006579
 40
1.7
100
AcDbArc
 50
0.0
 51
90.0
  0
ARC
  5
525
100
AcDbEntity
  8
ASSI
100
AcDbCircle
 62
7
  6
CONTINUOUS
 10
214.991796875
 20
126.5662006579
 40
1.7
100
AcDbArc
 50
90.0
 51
180.0
  0
ARC
  5
526
100
AcDbEntity
  8
ASSI
100
AcDbCircle
 62
7
  6
CONTINUOUS
 10
228.391796875
 20
126.5662006579
 40
1.7
100
AcDbArc
 50
0.0
 51
90.0
  0
ARC
  5
527
100
AcDbEntity
  8
ASSI
100
AcDbCircle
 62
7
  6
CONTINUOUS
 10
205.891796875
 20
126.5662006579
 40
1.7
100
AcDbArc
 50
0.0
 51
90.0
  0
ARC
  5
528
100
AcDbEntity
  8
SMUSSO
100
AcDbCircle
 62
7
  6
CONTINUOUS
 10
205.891796875
 20
126.5662006579
 40
1.2
100
AcDbArc
 50
0.0
 51
90.0
  0
ARC
  5
529
100
AcDbEntity
  8
SMUSSO
100
AcDbCircle
 62
7
  6
CONTINUOUS
 10
214.991796875
 20
126.5662006579
 40
1.2
100
AcDbArc
 50
90.0
 51
180.0
  0
ARC
  5
52A
100
AcDbEntity
  8
SMUSSO
100
AcDbCircle
 62
7
  6
CONTINUOUS
 10
228.391796875
 20
126.5662006579
 40
1.2
100
AcDbArc
 50
0.0
 51
90.0
  0
ARC
  5
52B
100
AcDbEntity
  8
ASSI
100
AcDbCircle
 62
7
  6
CONTINUOUS
 10
205.891796875
 20
126.5662006579
 40
1.2
100
AcDbArc
 50
0.0
 51
90.0
  0
ARC
  5
52C
100
AcDbEntity
  8
ASSI
100
AcDbCircle
 62
7
  6
CONTINUOUS
 10
214.991796875
 20
126.5662006579
 40
1.2
100
AcDbArc
 50
90.0
 51
180.0
  0
ARC
  5
52D
100
AcDbEntity
  8
ASSI
100
AcDbCircle
 62
7
  6
CONTINUOUS
 10
228.391796875
 20
126.5662006579
 40
1.2
100
AcDbArc
 50
0.0
 51
90.0
  0
ARC
  5
52E
100
AcDbEntity
  8
0
100
AcDbCircle
 62
7
  6
CONTINUOUS
 10
64.5493094118
 20
135.8162006579
 40
1.0
100
AcDbArc
 50
270.0
 51
275.7105931375
  0
ARC
  5
52F
100
AcDbEntity
  8
0
100
AcDbCircle
 62
7
  6
CONTINUOUS
 10
64.5493094118
 20
83.4162006579
 40
1.0
100
AcDbArc
 50
84.2894068625
 51
90.0
  0
ARC
  5
530
100
AcDbEntity
  8
0
100
AcDbCircle
 62
7
  6
CONTINUOUS
 10
64.5244983578
 20
82.7662011619
 40
0.3
100
AcDbArc
 50
270.1000001427
 51
297.9489684598
  0
ARC
  5
531
100
AcDbEntity
  8
0
100
AcDbCircle
 62
7
  6
CONTINUOUS
 10
64.5244983578
 20
136.4662001539
 40
0.3
100
AcDbArc
 50
62.0510315402
 51
89.8999998573
  0
ARC
  5
532
100
AcDbEntity
  8
0
100
AcDbCircle
 62
7
  6
CONTINUOUS
 10
66.0474889457
 20
83.5746317206
 40
0.3
100
AcDbArc
 50
270.3333333333
 51
297.9601595792
  0
ARC
  5
533
100
AcDbEntity
  8
0
100
AcDbCircle
 62
7
  6
CONTINUOUS
 10
66.0474889457
 20
135.6577695952
 40
0.3
100
AcDbArc
 50
62.0398404207
 51
89.6666666667
  0
ELLIPSE
  5
534
100
AcDbEntity
  8
0
100
AcDbEllipse
 62
7
  6
CONTINUOUS
 10
66.3991850329
 20
135.6959993529
 30
0.0
 11
-0.1417119467
 21
0.1422961243
 31
0.0
 40
0.9918061237
 41
-3.8766878413
 42
-2.8923940429
  0
ELLIPSE
  5
535
100
AcDbEntity
  8
0
100
AcDbEllipse
 62
7
  6
CONTINUOUS
 10
66.3991850329
 20
83.5364019629
 30
0.0
 11
0.1417119467
 21
0.1422961243
 31
0.0
 40
0.9918061237
 41
-0.2491986107
 42
0.7350951877
  0
ENDSEC
  0
SECTION
  2
OBJECTS
  0
DICTIONARY
  5
C
100
AcDbDictionary
280
0
281
1
  3
ACAD_GROUP
350
D
  3
ACAD_MLINESTYLE
350
17
  3
ACAD_LAYOUT
350
1A
  3
ACAD_PLOTSETTINGS
350
19
  3
ACAD_PLOTSTYLENAME
350
E
  0
DICTIONARY
  5
D
102
{ACAD_REACTORS
330
C
102
}
100
AcDbDictionary
280
0
281
1
  0
ACDBDICTIONARYWDFLT
  5
E
102
{ACAD_REACTORS
330
C
102
}
100
AcDbDictionary
281
1
  3
Normal
350
F
100
AcDbDictionaryWithDefault
340
F
  0
DICTIONARY
  5
17
102
{ACAD_REACTORS
330
C
102
}
100
AcDbDictionary
280
0
281
1
  3
Standard
350
18
  0
DICTIONARY
  5
19
102
{ACAD_REACTORS
330
C
102
}
100
AcDbDictionary
281
1
  0
DICTIONARY
  5
1A
102
{ACAD_REACTORS
330
C
102
}
100
AcDbDictionary
281
1
  3
Model
350
536
  3
Layout1
350
537
  0
ACDBPLACEHOLDER
  5
F
102
{ACAD_REACTORS
330
E
102
}
  0
MLINESTYLE
  5
18
102
{ACAD_REACTORS
330
17
102
}
100
AcDbMlineStyle
  2
STANDARD
 70
0
  3

 62
256
 51
90.0
 52
90.0
 71
2
 49
0.5
 62
256
  6
BYLAYER
 49
-0.5
 62
256
  6
BYLAYER
  0
LAYOUT
  5
536
102
{ACAD_REACTORS
330
1A
102
}
100
AcDbPlotSettings
  1

  2
none_device
  4
ISO_A4_(297.00_x_210.00_MM)
  6

 40
0.0
 41
0.0
 42
0.0
 43
0.0
 44
297.0
 45
210.0
 46
0.0
 47
0.0
 48
0.0
 49
0.0
140
0.0
141
0.0
142
1.0
143
1.0
 70
1024
 72
1
 73
0
 74
0
  7

 75
0
147
1.0
148
0.0
149
0.0
100
AcDbLayout
  1
Model
 70
0
 71
0
 10
0.0
 20
0.0
 11
297.0
 21
210.0
 12
0.0
 22
0.0
 32
0.0
 14
0.0
 24
0.0
 34
0.0
 15
0.0
 25
0.0
 35
0.0
146
0.0
 13
0.0
 23
0.0
 33
0.0
 16
1.0
 26
0.0
 36
0.0
 17
0.0
 27
1.0
 37
0.0
 76
0
330
21E
345
0
346
0
  0
LAYOUT
  5
537
102
{ACAD_REACTORS
330
1A
102
}
100
AcDbPlotSettings
  1

  2
none_device
  4
ISO_A4_(297.00_x_210.00_MM)
  6

 40
0.0
 41
0.0
 42
0.0
 43
0.0
 44
297.0
 45
210.0
 46
0.0
 47
0.0
 48
0.0
 49
0.0
140
0.0
141
0.0
142
1.0
143
1.0
 70
0
 72
1
 73
0
 74
0
  7

 75
0
147
1.0
148
0.0
149
0.0
100
AcDbLayout
  1
Layout1
 70
0
 71
1
 10
0.0
 20
0.0
 11
297.0
 21
210.0
 12
0.0
 22
0.0
 32
0.0
 14
0.0
 24
0.0
 34
0.0
 15
0.0
 25
0.0
 35
0.0
146
0.0
 13
0.0
 23
0.0
 33
0.0
 16
1.0
 26
0.0
 36
0.0
 17
0.0
 27
1.0
 37
0.0
 76
0
330
21F
345
0
346
0
  0
ENDSEC
  0
EOF
