  0
SECTION
  2
HEADER
  9
$ACADVER
  1
AC1024
  9
$DWGCODEPAGE
  3
ANSI_1252
  9
$EXTMAX
 10
297.0
 20
210.0
 30
0.0
  9
$EXTMIN
 10
0.0
 20
0.0
 30
0.0
  9
$LIMMIN
 10
0.0
 20
0.0
  9
$LIMMAX
 10
297.0
 20
210.0
  9
$VIEWCTR
 10
148.5
 20
105.0
  9
$VIEWSIZE
 40
210.0
  9
$CLAYER
  8
0
  9
$LTSCALE
 40
16.335
  9
$CELTYPE
  6
BYLAYER
  9
$DIMSCALE
 40
1.0
  9
$DIMASZ
 40
3.0
  9
$DIMEXO
 40
0.5
  9
$DIMDLI
 40
11.286
  9
$DIMEXE
 40
1.5
  9
$DIMCEN
 40
2.673
  9
$DIMLFAC
 40
1.0
  9
$DIMBLK
  1
_FILLED
  9
$DIMALT
 70
0
  9
$DIMALTF
 40
0.0393700787
  9
$DIMTXT
 40
3.0
  9
$DIMTOL
 70
1
  9
$DIMLIM
 70
0
  9
$DIMTFAC
 40
1.0
  9
$DIMTP
 40
0.01
  9
$DIMTM
 40
0.01
  9
$DIMGAP
 40
0.625
  9
$DIMDSEP
 70
44
  9
$AUNITS
 70
0
  9
$PDMODE
 70
3
  9
$PDSIZE
 40
3.0
  9
$HANDSEED
  5
4D3
  9
$TILEMODE
 70
1
  9
$MEASUREMENT
 70
1
  9
$INSUNITS
 70
4
  0
ENDSEC
  0
SECTION
  2
CLASSES
  0
CLASS
  1
ACDBDICTIONARYWDFLT
  2
AcDbDictionaryWithDefault
  3
AutoCAD 2000
 90
0
 91
1
280
0
281
0
  0
CLASS
  1
ACDBPLACEHOLDER
  2
AcDbPlaceHolder
  3
AutoCAD 2000
 90
0
 91
1
280
0
281
0
  0
CLASS
  1
LAYOUT
  2
AcDbLayout
  3
AutoCAD 2000
 90
0
 91
0
280
0
281
0
  0
ENDSEC
  0
SECTION
  2
TABLES
  0
TABLE
  2
VPORT
  5
8
100
AcDbSymbolTable
 70
2
  0
VPORT
  5
1F4
100
AcDbSymbolTableRecord
100
AcDbViewportTableRecord
  2
*ACTIVE
 70
0
 10
0.0
 20
0.0
 11
1.0
 21
1.0
 12
148.5
 22
105.0
 13
0.0
 23
0.0
 14
1.0
 24
1.0
 15
0.0
 25
0.0
 16
0.0
 26
0.0
 36
1.0
 17
0.0
 27
0.0
 37
0.0
 40
210.0
 41
1.4142857143
 42
50.0
 43
0.0
 44
0.0
 50
0.0
 51
0.0
 71
0
 72
100
 73
1
 74
1
 75
0
 76
0
 77
0
 78
0
  0
ENDTAB
  0
TABLE
  2
LTYPE
  5
5
100
AcDbSymbolTable
 70
6
  0
LTYPE
  5
14
100
AcDbSymbolTableRecord
100
AcDbLinetypeTableRecord
  2
BYBLOCK
 70
0
  3

 72
65
 73
0
 40
0.0
  0
LTYPE
  5
15
100
AcDbSymbolTableRecord
100
AcDbLinetypeTableRecord
  2
BYLAYER
 70
0
  3

 72
65
 73
0
 40
0.0
  0
LTYPE
  5
16
100
AcDbSymbolTableRecord
100
AcDbLinetypeTableRecord
  2
CONTINUOUS
 70
64
  3
Solid line
 72
65
 73
0
 40
0.0
  0
LTYPE
  5
1F5
100
AcDbSymbolTableRecord
100
AcDbLinetypeTableRecord
  2
CENTER
 70
64
  3
____ _ ____ _ ____ _ ____ _ ____ _ ____ _ ____
 72
65
 73
4
 40
0.6
 49
0.375
 74
0
 49
-0.075
 74
0
 49
0.075
 74
0
 49
-0.075
 74
0
  0
LTYPE
  5
1F6
100
AcDbSymbolTableRecord
100
AcDbLinetypeTableRecord
  2
HIDDEN
 70
64
  3
- - - - - - - - - - - - - - - - - - - -
 72
65
 73
2
 40
0.2
 49
0.1
 74
0
 49
-0.1
 74
0
  0
LTYPE
  5
1F7
100
AcDbSymbolTableRecord
100
AcDbLinetypeTableRecord
  2
PHANTOM
 70
64
  3
_____ _ _ _____ _ _ _____ _ _ _____
 72
65
 73
6
 40
0.8
 49
0.45
 74
0
 49
-0.05
 74
0
 49
0.1
 74
0
 49
-0.05
 74
0
 49
0.1
 74
0
 49
-0.05
 74
0
  0
LTYPE
  5
1F8
100
AcDbSymbolTableRecord
100
AcDbLinetypeTableRecord
  2
DOT
 70
64
  3
. . . . . . . . . . . . . . . . . . . .
 72
65
 73
2
 40
0.2
 49
0.1
 74
0
 49
-0.1
 74
0
  0
LTYPE
  5
1F9
100
AcDbSymbolTableRecord
100
AcDbLinetypeTableRecord
  2
DASHED
 70
64
  3
- - - - - - - - - - - - - - - - - - - -
 72
65
 73
2
 40
0.2
 49
0.1
 74
0
 49
-0.1
 74
0
  0
ENDTAB
  0
TABLE
  2
LAYER
  5
2
100
AcDbSymbolTable
 70
36
  0
LAYER
  5
10
100
AcDbSymbolTableRecord
100
AcDbLayerTableRecord
  2
0
 70
0
 62
7
  6
CONTINUOUS
370
-3
390
F
  0
LAYER
  5
1FA
100
AcDbSymbolTableRecord
100
AcDbLayerTableRecord
  2
DEFAULT_1
 70
0
 62
7
  6
CENTER
370
-3
390
F
  0
LAYER
  5
1FB
100
AcDbSymbolTableRecord
100
AcDbLayerTableRecord
  2
DEFAULT_2
 70
0
 62
7
  6
HIDDEN
370
-3
390
F
  0
LAYER
  5
1FC
100
AcDbSymbolTableRecord
100
AcDbLayerTableRecord
  2
DEFAULT_3
 70
0
 62
7
  6
PHANTOM
370
-3
390
F
  0
LAYER
  5
1FD
100
AcDbSymbolTableRecord
100
AcDbLayerTableRecord
  2
ASSI
 70
0
 62
7
  6
CONTINUOUS
370
-3
390
F
  0
LAYER
  5
1FE
100
AcDbSymbolTableRecord
100
AcDbLayerTableRecord
  2
COORDINATE
 70
0
 62
7
  6
CONTINUOUS
370
-3
390
F
  0
LAYER
  5
1FF
100
AcDbSymbolTableRecord
100
AcDbLayerTableRecord
  2
COPY_PUBLISH
 70
0
 62
7
  6
CONTINUOUS
370
-3
390
F
  0
LAYER
  5
200
100
AcDbSymbolTableRecord
100
AcDbLayerTableRecord
  2
COSMETICI
 70
0
 62
7
  6
CONTINUOUS
370
-3
390
F
  0
LAYER
  5
201
100
AcDbSymbolTableRecord
100
AcDbLayerTableRecord
  2
CURVE
 70
0
 62
7
  6
CONTINUOUS
370
-3
390
F
  0
LAYER
  5
202
100
AcDbSymbolTableRecord
100
AcDbLayerTableRecord
  2
DRAFT
 70
0
 62
7
  6
CONTINUOUS
370
-3
390
F
  0
LAYER
  5
203
100
AcDbSymbolTableRecord
100
AcDbLayerTableRecord
  2
IMPORT_IGES
 70
0
 62
7
  6
CONTINUOUS
370
-3
390
F
  0
LAYER
  5
204
100
AcDbSymbolTableRecord
100
AcDbLayerTableRecord
  2
INTF_11
 70
0
 62
7
  6
CONTINUOUS
370
-3
390
F
  0
LAYER
  5
205
100
AcDbSymbolTableRecord
100
AcDbLayerTableRecord
  2
INTF_9
 70
0
 62
7
  6
CONTINUOUS
370
-3
390
F
  0
LAYER
  5
206
100
AcDbSymbolTableRecord
100
AcDbLayerTableRecord
  2
NOTE
 70
0
 62
7
  6
CONTINUOUS
370
-3
390
F
  0
LAYER
  5
207
100
AcDbSymbolTableRecord
100
AcDbLayerTableRecord
  2
PIANI
 70
0
 62
7
  6
CONTINUOUS
370
-3
390
F
  0
LAYER
  5
208
100
AcDbSymbolTableRecord
100
AcDbLayerTableRecord
  2
PUNTI
 70
0
 62
7
  6
CONTINUOUS
370
-3
390
F
  0
LAYER
  5
209
100
AcDbSymbolTableRecord
100
AcDbLayerTableRecord
  2
RACCORDO
 70
0
 62
7
  6
CONTINUOUS
370
-3
390
F
  0
LAYER
  5
20A
100
AcDbSymbolTableRecord
100
AcDbLayerTableRecord
  2
SIMBOLI
 70
0
 62
7
  6
CONTINUOUS
370
-3
390
F
  0
LAYER
  5
20B
100
AcDbSymbolTableRecord
100
AcDbLayerTableRecord
  2
SMUSSO
 70
0
 62
7
  6
CONTINUOUS
370
-3
390
F
  0
LAYER
  5
20C
100
AcDbSymbolTableRecord
100
AcDbLayerTableRecord
  2
SUPERFICI
 70
0
 62
7
  6
CONTINUOUS
370
-3
390
F
  0
LAYER
  5
20D
100
AcDbSymbolTableRecord
100
AcDbLayerTableRecord
  2
TRASH
 70
0
 62
7
  6
CONTINUOUS
370
-3
390
F
  0
ENDTAB
  0
TABLE
  2
STYLE
  5
3
100
AcDbSymbolTable
 70
1
  0
STYLE
  5
11
100
AcDbSymbolTableRecord
100
AcDbTextStyleTableRecord
  2
STANDARD
 70
0
 40
0.0
 41
0.8
 50
0.0
 71
0
 42
0.2
  3
txt
  4

  0
STYLE
  5
20E
100
AcDbSymbolTableRecord
100
AcDbTextStyleTableRecord
  2
TEXTSTYLE_1
 70
0
 40
0.0
 41
0.8
 50
0.0
 71
0
 42
0.2
  3
gdt
  4

  0
ENDTAB
  0
TABLE
  2
VIEW
  5
6
100
AcDbSymbolTable
 70
0
  0
ENDTAB
  0
TABLE
  2
UCS
  5
7
100
AcDbSymbolTable
 70
0
  0
ENDTAB
  0
TABLE
  2
APPID
  5
9
100
AcDbSymbolTable
 70
1
  0
APPID
  5
20F
100
AcDbSymbolTableRecord
100
AcDbRegAppTableRecord
  2
ACAD
 70
0
  0
ENDTAB
  0
TABLE
  2
BLOCK_RECORD
  5
1
100
AcDbSymbolTable
 70
0
  0
BLOCK_RECORD
  5
210
100
AcDbSymbolTableRecord
100
AcDbBlockTableRecord
  2
*Model_Space
  0
BLOCK_RECORD
  5
211
100
AcDbSymbolTableRecord
100
AcDbBlockTableRecord
  2
*Paper_Space
  0
BLOCK_RECORD
  5
212
100
AcDbSymbolTableRecord
100
AcDbBlockTableRecord
  2
_FILLED
  0
BLOCK_RECORD
  5
213
100
AcDbSymbolTableRecord
100
AcDbBlockTableRecord
  2
*D0
  0
BLOCK_RECORD
  5
214
100
AcDbSymbolTableRecord
100
AcDbBlockTableRecord
  2
*D1
  0
BLOCK_RECORD
  5
215
100
AcDbSymbolTableRecord
100
AcDbBlockTableRecord
  2
*D2
  0
BLOCK_RECORD
  5
216
100
AcDbSymbolTableRecord
100
AcDbBlockTableRecord
  2
*D3
  0
ENDTAB
  0
TABLE
  2
DIMSTYLE
  5
A
100
AcDbSymbolTable
 70
1
100
AcDbDimStyleTable
 71
0
  0
DIMSTYLE
105
217
100
AcDbSymbolTableRecord
100
AcDbDimStyleTableRecord
  2
STANDARD
 70
0
  3

  4

 40
1.0
 41
3.0
 42
0.5
 43
0.38
 44
1.5
 45
0.0
 46
0.0
 47
0.01
 48
0.01
140
3.0
141
0.09
142
0.0
143
25.4
144
1.0
145
0.0
146
1.0
147
0.625
 71
1
 72
0
 73
0
 74
0
 75
0
 76
0
 77
1
 78
8
 79
2
170
0
171
1
172
0
173
0
174
0
175
0
176
0
177
0
178
0
270
2
179
2
271
2
272
2
273
2
274
2
275
0
280
0
281
0
282
0
283
1
284
8
285
0
286
0
287
3
288
0
340
11
278
44
341
212
342
212
343
212
344
212
  0
DIMSTYLE
105
218
100
AcDbSymbolTableRecord
100
AcDbDimStyleTableRecord
  2
DIMSTYLE_1
 70
0
  3

  4

 40
1.0
 41
3.0
 42
0.5
 43
0.38
 44
1.5
 45
0.0
 46
0.0
 47
0.0
 48
0.0
140
3.0
141
0.09
142
0.0
143
25.4
144
1.0
145
0.0
146
1.0
147
0.75
 71
0
 72
0
 73
0
 74
0
 75
0
 76
0
 77
1
 78
8
 79
2
170
0
171
1
172
0
173
0
174
0
175
0
176
0
177
0
178
0
270
2
179
2
271
2
272
2
273
2
274
2
275
0
280
0
281
0
282
0
283
1
284
8
285
0
286
0
287
3
288
0
340
11
278
44
341
212
342
212
343
212
344
212
  0
ENDTAB
  0
ENDSEC
  0
SECTION
  2
BLOCKS
  0
BLOCK
  5
20
100
AcDbEntity
  8
0
100
AcDbBlockBegin
  2
*Model_Space
 70
0
 10
0.0
 20
0.0
 30
0.0
  3
*Model_Space
  1

  0
ENDBLK
  5
21
100
AcDbEntity
  8
0
100
AcDbBlockEnd
  0
BLOCK
  5
1C
100
AcDbEntity
  8
0
100
AcDbBlockBegin
  2
*Paper_Space
 70
0
 10
0.0
 20
0.0
 30
0.0
  3
*Paper_Space
  1

  0
ENDBLK
  5
1D
100
AcDbEntity
  8
0
100
AcDbBlockEnd
  0
BLOCK
  5
219
100
AcDbEntity
  8
0
100
AcDbBlockBegin
  2
_FILLED
 70
64
 10
0.0
 20
0.0
  3
_FILLED
  1

  0
SOLID
  5
21A
100
AcDbEntity
  8
0
  6
BYBLOCK
 62
0
100
AcDbTrace
 10
0.0
 20
0.0
 11
-1.0
 21
0.3166666667
 12
-1.0
 22
-0.3166666667
 13
-1.0
 23
-0.3166666667
  0
ENDBLK
  5
21B
100
AcDbEntity
  8
0
  6
BYBLOCK
 62
0
100
AcDbBlockEnd
  0
BLOCK
  5
21C
100
AcDbEntity
  8
0
100
AcDbBlockBegin
 62
7
  6
CONTINUOUS
  2
*D0
 70
65
 10
0.0
 20
0.0
  3
*D0
  1

  0
LINE
  5
21D
100
AcDbEntity
  8
0
100
AcDbLine
 62
7
  6
CONTINUOUS
 10
122.1746730639
 20
127.8109873709
 11
122.1746730639
 21
144.4566776142
  0
LINE
  5
21E
100
AcDbEntity
  8
0
100
AcDbLine
 62
7
  6
CONTINUOUS
 10
131.3746730639
 20
127.8109873709
 11
131.3746730639
 21
144.4566776142
  0
LINE
  5
21F
100
AcDbEntity
  8
0
100
AcDbLine
 62
7
  6
CONTINUOUS
 10
122.1746730639
 20
142.9566776142
 11
118.1746730639
 21
142.9566776142
  0
LINE
  5
220
100
AcDbEntity
  8
0
100
AcDbLine
 62
7
  6
CONTINUOUS
 10
118.1746730639
 20
142.9566776142
 11
126.7746730639
 21
142.9566776142
  0
LINE
  5
221
100
AcDbEntity
  8
0
100
AcDbLine
 62
7
  6
CONTINUOUS
 10
131.3746730639
 20
142.9566776142
 11
135.3746730639
 21
142.9566776142
  0
LINE
  5
222
100
AcDbEntity
  8
0
100
AcDbLine
 62
7
  6
CONTINUOUS
 10
135.3746730639
 20
142.9566776142
 11
126.7746730639
 21
142.9566776142
  0
INSERT
  5
223
100
AcDbEntity
  8
0
100
AcDbBlockReference
 62
7
  6
CONTINUOUS
  2
_FILLED
 10
122.1746730639
 20
142.9566776142
 41
3.0
 42
3.0
 43
3.0
  0
INSERT
  5
224
100
AcDbEntity
  8
0
100
AcDbBlockReference
 62
7
  6
CONTINUOUS
  2
_FILLED
 10
131.3746730639
 20
142.9566776142
 41
3.0
 42
3.0
 43
3.0
 50
180.0
  0
ENDBLK
  5
225
100
AcDbEntity
  8
0
  6
BYBLOCK
 62
0
100
AcDbBlockEnd
  0
BLOCK
  5
226
100
AcDbEntity
  8
0
100
AcDbBlockBegin
 62
7
  6
CONTINUOUS
  2
*D1
 70
65
 10
0.0
 20
0.0
  3
*D1
  1

  0
LINE
  5
227
100
AcDbEntity
  8
0
100
AcDbLine
 62
7
  6
CONTINUOUS
 10
131.3746730639
 20
127.8109873709
 11
131.3746730639
 21
152.1931662286
  0
LINE
  5
228
100
AcDbEntity
  8
0
100
AcDbLine
 62
7
  6
CONTINUOUS
 10
115.5746730639
 20
133.0158182555
 11
115.5746730639
 21
152.1931662286
  0
LINE
  5
229
100
AcDbEntity
  8
0
100
AcDbLine
 62
7
  6
CONTINUOUS
 10
131.3746730639
 20
150.6931662286
 11
135.3746730639
 21
150.6931662286
  0
LINE
  5
22A
100
AcDbEntity
  8
0
100
AcDbLine
 62
7
  6
CONTINUOUS
 10
135.3746730639
 20
150.6931662286
 11
123.4746730639
 21
150.6931662286
  0
LINE
  5
22B
100
AcDbEntity
  8
0
100
AcDbLine
 62
7
  6
CONTINUOUS
 10
115.5746730639
 20
150.6931662286
 11
111.5746730639
 21
150.6931662286
  0
LINE
  5
22C
100
AcDbEntity
  8
0
100
AcDbLine
 62
7
  6
CONTINUOUS
 10
111.5746730639
 20
150.6931662286
 11
123.4746730639
 21
150.6931662286
  0
INSERT
  5
22D
100
AcDbEntity
  8
0
100
AcDbBlockReference
 62
7
  6
CONTINUOUS
  2
_FILLED
 10
131.3746730639
 20
150.6931662286
 41
3.0
 42
3.0
 43
3.0
 50
180.0
  0
INSERT
  5
22E
100
AcDbEntity
  8
0
100
AcDbBlockReference
 62
7
  6
CONTINUOUS
  2
_FILLED
 10
115.5746730639
 20
150.6931662286
 41
3.0
 42
3.0
 43
3.0
  0
ENDBLK
  5
22F
100
AcDbEntity
  8
0
  6
BYBLOCK
 62
0
100
AcDbBlockEnd
  0
BLOCK
  5
230
100
AcDbEntity
  8
0
100
AcDbBlockBegin
 62
7
  6
CONTINUOUS
  2
*D2
 70
65
 10
0.0
 20
0.0
  3
*D2
  1

  0
LINE
  5
231
100
AcDbEntity
  8
0
100
AcDbLine
 62
7
  6
CONTINUOUS
 10
145.4012950068
 20
133.1025745304
 11
145.4012950068
 21
144.1965707996
  0
LINE
  5
232
100
AcDbEntity
  8
0
100
AcDbLine
 62
7
  6
CONTINUOUS
 10
167.6012950068
 20
133.1025745304
 11
167.6012950068
 21
144.1965707996
  0
LINE
  5
233
100
AcDbEntity
  8
0
100
AcDbLine
 62
7
  6
CONTINUOUS
 10
145.4012950068
 20
142.6965707996
 11
156.5012950068
 21
142.6965707996
  0
LINE
  5
234
100
AcDbEntity
  8
0
100
AcDbLine
 62
7
  6
CONTINUOUS
 10
167.6012950068
 20
142.6965707996
 11
156.5012950068
 21
142.6965707996
  0
INSERT
  5
235
100
AcDbEntity
  8
0
100
AcDbBlockReference
 62
7
  6
CONTINUOUS
  2
_FILLED
 10
145.4012950068
 20
142.6965707996
 41
3.0
 42
3.0
 43
3.0
 50
180.0
  0
INSERT
  5
236
100
AcDbEntity
  8
0
100
AcDbBlockReference
 62
7
  6
CONTINUOUS
  2
_FILLED
 10
167.6012950068
 20
142.6965707996
 41
3.0
 42
3.0
 43
3.0
  0
ENDBLK
  5
237
100
AcDbEntity
  8
0
  6
BYBLOCK
 62
0
100
AcDbBlockEnd
  0
BLOCK
  5
238
100
AcDbEntity
  8
0
100
AcDbBlockBegin
 62
7
  6
CONTINUOUS
  2
*D3
 70
65
 10
0.0
 20
0.0
  3
*D3
  1

  0
LINE
  5
239
100
AcDbEntity
  8
0
100
AcDbLine
 62
7
  6
CONTINUOUS
 10
167.6014663443
 20
133.1024031929
 11
180.8536543781
 21
133.1024031929
  0
LINE
  5
23A
100
AcDbEntity
  8
0
100
AcDbLine
 62
7
  6
CONTINUOUS
 10
167.6014663443
 20
80.3024031929
 11
180.8536543781
 21
80.3024031929
  0
LINE
  5
23B
100
AcDbEntity
  8
0
100
AcDbLine
 62
7
  6
CONTINUOUS
 10
179.3536543781
 20
133.1024031929
 11
179.3536543781
 21
106.7024031929
  0
LINE
  5
23C
100
AcDbEntity
  8
0
100
AcDbLine
 62
7
  6
CONTINUOUS
 10
179.3536543781
 20
80.3024031929
 11
179.3536543781
 21
106.7024031929
  0
INSERT
  5
23D
100
AcDbEntity
  8
0
100
AcDbBlockReference
 62
7
  6
CONTINUOUS
  2
_FILLED
 10
179.3536543781
 20
133.1024031929
 41
3.0
 42
3.0
 43
3.0
 50
90.0
  0
INSERT
  5
23E
100
AcDbEntity
  8
0
100
AcDbBlockReference
 62
7
  6
CONTINUOUS
  2
_FILLED
 10
179.3536543781
 20
80.3024031929
 41
3.0
 42
3.0
 43
3.0
 50
270.0
  0
ENDBLK
  5
23F
100
AcDbEntity
  8
0
  6
BYBLOCK
 62
0
100
AcDbBlockEnd
  0
ENDSEC
  0
SECTION
  2
ENTITIES
  0
DIMENSION
  5
240
100
AcDbEntity
  8
0
100
AcDbDimension
 62
7
  6
CONTINUOUS
  2
*D0
 10
131.3746730639
 20
142.9566776142
 11
123.5603873496
 21
142.9566776142
 70
160
 71
2
 72
2
 41
0.9
 42
9.2
  3
DIMSTYLE_1
100
AcDbAlignedDimension
 13
122.1746730639
 23
127.3109873709
 14
131.3746730639
 24
127.3109873709
100
AcDbRotatedDimension
  0
DIMENSION
  5
241
100
AcDbEntity
  8
0
100
AcDbDimension
 62
7
  6
CONTINUOUS
  2
*D1
 10
115.5746730639
 20
150.6931662286
 11
119.5103873496
 21
150.6931662286
 70
160
 71
2
 72
2
 41
0.9
 42
15.8
  3
DIMSTYLE_1
100
AcDbAlignedDimension
 13
131.3746730639
 23
127.3109873709
 14
115.5746730639
 24
132.5158182555
 50
180.0
100
AcDbRotatedDimension
  0
DIMENSION
  5
242
100
AcDbEntity
  8
0
100
AcDbDimension
 62
7
  6
CONTINUOUS
  2
*D2
 10
167.6012950068
 20
142.6965707996
 11
152.1084378639
 21
142.6965707996
 70
160
 71
2
 72
2
 41
0.9
 42
22.2
  3
DIMSTYLE_1
100
AcDbAlignedDimension
 13
145.4012950068
 23
132.6025745304
 14
167.6012950068
 24
132.6025745304
100
AcDbRotatedDimension
  0
DIMENSION
  5
243
100
AcDbEntity
  8
0
100
AcDbDimension
 62
7
  6
CONTINUOUS
  2
*D3
 10
179.3536543781
 20
80.3024031929
 11
179.3536543781
 21
102.4166889072
 70
160
 71
2
 72
2
 41
0.9
 42
52.8
  3
DIMSTYLE_1
100
AcDbAlignedDimension
 13
167.1014663443
 23
133.1024031929
 14
167.1014663443
 24
80.3024031929
 50
270.0
100
AcDbRotatedDimension
  0
LINE
  5
244
100
AcDbEntity
  8
0
100
AcDbLine
 62
7
  6
CONTINUOUS
 10
153.2512950068
 20
80.3277966565
 11
152.9914546942
 21
80.3024031929
  0
LINE
  5
245
100
AcDbEntity
  8
0
100
AcDbLine
 62
7
  6
CONTINUOUS
 10
145.9011236693
 20
80.3024031929
 11
152.9914546942
 21
80.3024031929
  0
LINE
  5
246
100
AcDbEntity
  8
0
100
AcDbLine
 62
7
  6
CONTINUOUS
 10
160.0111353194
 20
80.3024031929
 11
167.1014663443
 21
80.3024031929
  0
LINE
  5
247
100
AcDbEntity
  8
0
100
AcDbLine
 62
7
  6
CONTINUOUS
 10
153.2512950068
 20
80.3277966565
 11
159.7512950068
 21
80.3277966565
  0
LINE
  5
248
100
AcDbEntity
  8
0
100
AcDbLine
 62
250
  6
CONTINUOUS
 10
145.9878799442
 20
80.3891594679
 11
167.0147100694
 21
80.3891594679
  0
LINE
  5
249
100
AcDbEntity
  8
0
100
AcDbLine
 62
250
  6
CONTINUOUS
 10
145.4880512817
 20
80.8889881304
 11
167.5145387319
 21
80.8889881304
  0
LINE
  5
24A
100
AcDbEntity
  8
0
100
AcDbLine
 62
7
  6
CONTINUOUS
 10
159.7512950068
 20
80.3277966565
 11
160.0111353194
 21
80.3024031929
  0
LWPOLYLINE
  5
24B
100
AcDbEntity
  8
0
100
AcDbPolyline
 62
250
  6
CONTINUOUS
 90
16
 70
0
 10
145.4880512817
 20
80.8889881304
 10
145.4908396168
 20
80.8366056615
 10
145.4991020885
 20
80.7848002757
 10
145.5127476455
 20
80.7341425217
 10
145.5316284411
 20
80.6851847344
 10
145.5555351623
 20
80.6384721682
 10
145.5841936282
 20
80.5945341493
 10
145.6172756856
 20
80.553859851
 10
145.6544189537
 20
80.5168827573
 10
145.6952247999
 20
80.4839952584
 10
145.7393085888
 20
80.4555215122
 10
145.7861293654
 20
80.4318240531
 10
145.8349761789
 20
80.4132261785
 10
145.8852254174
 20
80.3998849401
 10
145.9363795954
 20
80.391855031
 10
145.9878799444
 20
80.389159468
  0
LWPOLYLINE
  5
24C
100
AcDbEntity
  8
0
100
AcDbPolyline
 62
250
  6
CONTINUOUS
 90
16
 70
0
 10
145.4880512817
 20
132.5158182555
 10
145.4908392462
 20
132.5681972305
 10
145.4991006556
 20
132.6199994082
 10
145.5127445357
 20
132.6706543394
 10
145.5316232253
 20
132.7196099888
 10
145.5555274581
 20
132.7663209316
 10
145.5841827379
 20
132.8102573124
 10
145.6172601171
 20
132.8509293199
 10
145.6543977456
 20
132.8879046192
 10
145.6951990776
 20
132.9207925304
 10
145.7392805808
 20
132.9492687984
 10
145.7861011601
 20
132.9729698689
 10
145.834950552
 20
132.9915719547
 10
145.8852054513
 20
133.0049172417
 10
145.9363682276
 20
133.0129501695
 10
145.9878799442
 20
133.015646918
  0
LINE
  5
24D
100
AcDbEntity
  8
0
100
AcDbLine
 62
7
  6
CONTINUOUS
 10
145.4012950068
 20
132.6025745304
 11
145.4012950068
 21
80.8022318554
  0
LINE
  5
24E
100
AcDbEntity
  8
0
100
AcDbLine
 62
250
  6
CONTINUOUS
 10
145.4880512817
 20
80.8889881304
 11
145.4880512817
 21
132.5158182555
  0
LINE
  5
24F
100
AcDbEntity
  8
0
100
AcDbLine
 62
250
  6
CONTINUOUS
 10
145.9878799442
 20
80.3891594679
 11
145.9878799442
 21
133.015646918
  0
LWPOLYLINE
  5
250
100
AcDbEntity
  8
0
100
AcDbPolyline
 62
7
  6
CONTINUOUS
 90
3
 70
0
 43
0.3500000006
 10
157.5370008545
 20
143.7322877197
 10
157.4655787354
 20
143.5180032349
 10
157.3227163696
 20
143.2322785034
  0
LINE
  5
251
100
AcDbEntity
  8
0
100
AcDbLine
 62
250
  6
CONTINUOUS
 10
167.1014663443
 20
133.1024031929
 11
167.0147100694
 21
133.015646918
  0
LINE
  5
252
100
AcDbEntity
  8
0
100
AcDbLine
 62
250
  6
CONTINUOUS
 10
167.6012950068
 20
132.6025745304
 11
167.5145387319
 21
132.5158182555
  0
LINE
  5
253
100
AcDbEntity
  8
0
100
AcDbLine
 62
250
  6
CONTINUOUS
 10
167.0147100694
 20
80.3891594679
 11
167.1014663443
 21
80.3024031929
  0
LINE
  5
254
100
AcDbEntity
  8
0
100
AcDbLine
 62
250
  6
CONTINUOUS
 10
167.5145387319
 20
80.8889881304
 11
167.6012950068
 21
80.8022318554
  0
LWPOLYLINE
  5
255
100
AcDbEntity
  8
0
100
AcDbPolyline
 62
7
  6
CONTINUOUS
 90
4
 70
0
 43
0.3500000006
 10
178.1750747681
 20
108.6309718323
 10
177.3179368286
 20
108.6309718323
 10
176.8893678589
 20
109.0595498657
 10
176.8893678589
 20
109.7024033203
  0
LWPOLYLINE
  5
256
100
AcDbEntity
  8
0
100
AcDbPolyline
 62
7
  6
CONTINUOUS
 90
3
 70
0
 43
0.3500000006
 10
178.3179371338
 20
107.6309715271
 10
178.5322216187
 20
107.559549408
 10
178.8179463501
 20
107.4166870422
  0
LWPOLYLINE
  5
257
100
AcDbEntity
  8
0
100
AcDbPolyline
 62
7
  6
CONTINUOUS
 90
10
 70
0
 43
0.3500000006
 10
178.1036526489
 20
107.559549408
 10
178.2465150146
 20
107.6309715271
 10
178.3179371338
 20
107.6309715271
 10
178.4607994995
 20
107.4881182251
 10
178.4607994995
 20
107.4166870422
 10
178.3893773804
 20
107.3452558594
 10
178.3179371338
 20
107.3452558594
 10
178.1750747681
 20
107.4166870422
 10
178.1036526489
 20
107.4881182251
 10
178.1036526489
 20
107.559549408
  0
LINE
  5
258
100
AcDbEntity
  8
0
100
AcDbLine
 62
250
  6
CONTINUOUS
 10
167.0147100694
 20
133.015646918
 11
167.0147100694
 21
80.3891594679
  0
LINE
  5
259
100
AcDbEntity
  8
0
100
AcDbLine
 62
250
  6
CONTINUOUS
 10
167.5145387319
 20
132.5158182555
 11
167.5145387319
 21
80.8889881304
  0
LINE
  5
25A
100
AcDbEntity
  8
0
100
AcDbLine
 62
7
  6
CONTINUOUS
 10
167.6012950068
 20
80.8022318554
 11
167.6012950068
 21
132.6025745304
  0
LINE
  5
25B
100
AcDbEntity
  8
0
100
AcDbLine
 62
250
  6
CONTINUOUS
 10
145.4012950068
 20
80.8022318554
 11
145.4880512817
 21
80.8889881304
  0
LINE
  5
25C
100
AcDbEntity
  8
0
100
AcDbLine
 62
250
  6
CONTINUOUS
 10
145.9011236693
 20
80.3024031929
 11
145.9878799442
 21
80.3891594679
  0
LINE
  5
25D
100
AcDbEntity
  8
0
100
AcDbLine
 62
250
  6
CONTINUOUS
 10
145.4880512817
 20
132.5158182555
 11
145.4012950068
 21
132.6025745304
  0
LINE
  5
25E
100
AcDbEntity
  8
0
100
AcDbLine
 62
250
  6
CONTINUOUS
 10
145.9878799442
 20
133.015646918
 11
145.9011236693
 21
133.1024031929
  0
LWPOLYLINE
  5
25F
100
AcDbEntity
  8
0
100
AcDbPolyline
 62
250
  6
CONTINUOUS
 90
16
 70
0
 10
167.5145387319
 20
132.5158182555
 10
167.5117503968
 20
132.5682007244
 10
167.5034879251
 20
132.6200061101
 10
167.489842368
 20
132.6706638642
 10
167.4709615725
 20
132.7196216515
 10
167.4470548513
 20
132.7663342177
 10
167.4183963854
 20
132.8102722366
 10
167.385314328
 20
132.8509465349
 10
167.3481710599
 20
132.8879236286
 10
167.3073652137
 20
132.9208111275
 10
167.2632814248
 20
132.9492848737
 10
167.2164606482
 20
132.9729823328
 10
167.1676138347
 20
132.9915802073
 10
167.1173645962
 20
133.0049214458
 10
167.0662104182
 20
133.0129513548
 10
167.0147100692
 20
133.0156469178
  0
LWPOLYLINE
  5
260
100
AcDbEntity
  8
0
100
AcDbPolyline
 62
250
  6
CONTINUOUS
 90
16
 70
0
 10
167.5145387319
 20
80.8889881304
 10
167.5117507674
 20
80.8366091553
 10
167.503489358
 20
80.7848069777
 10
167.4898454779
 20
80.7341520465
 10
167.4709667883
 20
80.6851963971
 10
167.4470625555
 20
80.6384854543
 10
167.4184072756
 20
80.5945490735
 10
167.3853298965
 20
80.553877066
 10
167.3481922679
 20
80.5169017667
 10
167.307390936
 20
80.4840138554
 10
167.2633094328
 20
80.4555375874
 10
167.2164888535
 20
80.431836517
 10
167.1676394616
 20
80.4132344312
 10
167.1173845623
 20
80.3998891441
 10
167.066221786
 20
80.3918562164
 10
167.0147100694
 20
80.3891594679
  0
LWPOLYLINE
  5
261
100
AcDbEntity
  8
0
100
AcDbPolyline
 62
7
  6
CONTINUOUS
 90
13
 70
0
 43
0.3500000006
 10
176.8893678589
 20
109.0595498657
 10
176.675083374
 20
108.773834198
 10
176.0322299194
 20
108.773834198
 10
175.6036609497
 20
109.0595498657
 10
175.6036609497
 20
109.7024033203
 10
176.0322299194
 20
109.988118988
 10
176.675083374
 20
109.988118988
 10
176.8893678589
 20
109.7024033203
 10
177.3179368286
 20
110.13097229
 10
178.1750747681
 20
110.13097229
 10
178.6036618652
 20
109.7024033203
 10
178.6036618652
 20
109.0595498657
 10
178.1750747681
 20
108.6309718323
  0
LWPOLYLINE
  5
262
100
AcDbEntity
  8
0
100
AcDbPolyline
 62
7
  6
CONTINUOUS
 90
10
 70
0
 43
0.3500000006
 10
157.4655787354
 20
143.9465722046
 10
157.5370008545
 20
143.8037098389
 10
157.5370008545
 20
143.7322877197
 10
157.3941566162
 20
143.589425354
 10
157.3227163696
 20
143.589425354
 10
157.2512942505
 20
143.6608474731
 10
157.2512942505
 20
143.7322877197
 10
157.3227163696
 20
143.8751500854
 10
157.3941566162
 20
143.9465722046
 10
157.4655787354
 20
143.9465722046
  0
LWPOLYLINE
  5
263
100
AcDbEntity
  8
0
100
AcDbPolyline
 62
7
  6
CONTINUOUS
 90
7
 70
0
 43
0.3500000006
 10
178.6036618652
 20
106.0595489502
 10
178.6036618652
 20
104.5595484924
 10
176.4607988892
 20
106.0595489502
 10
176.0322299194
 20
106.0595489502
 10
175.6036609497
 20
105.6309709167
 10
175.6036609497
 20
104.9881174622
 10
176.2465144043
 20
104.5595484924
  0
LWPOLYLINE
  5
264
100
AcDbEntity
  8
0
100
AcDbPolyline
 62
7
  6
CONTINUOUS
 90
8
 70
0
 43
0.3500000006
 10
178.6036618652
 20
102.4166855164
 10
178.6036618652
 20
103.2738325195
 10
178.1750747681
 20
103.7024014893
 10
177.3179368286
 20
103.7024014893
 10
176.8893678589
 20
103.2738325195
 10
176.8893678589
 20
102.4166855164
 10
175.6036609497
 20
102.4166855164
 10
175.6036609497
 20
103.7024014893
  0
LINE
  5
265
100
AcDbEntity
  8
0
100
AcDbLine
 62
7
  6
CONTINUOUS
 10
159.7512950068
 20
133.0770097294
 11
160.0111353194
 21
133.1024031929
  0
LINE
  5
266
100
AcDbEntity
  8
0
100
AcDbLine
 62
250
  6
CONTINUOUS
 10
145.4880512817
 20
132.5158182555
 11
167.5145387319
 21
132.5158182555
  0
LINE
  5
267
100
AcDbEntity
  8
0
100
AcDbLine
 62
250
  6
CONTINUOUS
 10
167.0147100694
 20
133.015646918
 11
145.9878799442
 21
133.015646918
  0
LINE
  5
268
100
AcDbEntity
  8
0
100
AcDbLine
 62
7
  6
CONTINUOUS
 10
153.2512950068
 20
133.0770097294
 11
159.7512950068
 21
133.0770097294
  0
LINE
  5
269
100
AcDbEntity
  8
0
100
AcDbLine
 62
7
  6
CONTINUOUS
 10
167.1014663443
 20
133.1024031929
 11
160.0111353194
 21
133.1024031929
  0
LINE
  5
26A
100
AcDbEntity
  8
0
100
AcDbLine
 62
7
  6
CONTINUOUS
 10
152.9914546942
 20
133.1024031929
 11
145.9011236693
 21
133.1024031929
  0
LWPOLYLINE
  5
26B
100
AcDbEntity
  8
0
100
AcDbPolyline
 62
7
  6
CONTINUOUS
 90
7
 70
0
 43
0.3500000006
 10
160.0370106812
 20
143.4465629883
 10
158.5370011597
 20
143.4465629883
 10
160.0370106812
 20
145.5894259644
 10
160.0370106812
 20
146.0179949341
 10
159.6084417114
 20
146.4465639038
 10
158.9655882568
 20
146.4465639038
 10
158.5370011597
 20
145.8037104492
  0
LWPOLYLINE
  5
26C
100
AcDbEntity
  8
0
100
AcDbPolyline
 62
7
  6
CONTINUOUS
 90
7
 70
0
 43
0.3500000006
 10
155.9655873413
 20
143.4465629883
 10
154.4655778198
 20
143.4465629883
 10
155.9655873413
 20
145.5894259644
 10
155.9655873413
 20
146.0179949341
 10
155.5370002441
 20
146.4465639038
 10
154.8941467896
 20
146.4465639038
 10
154.4655778198
 20
145.8037104492
  0
LWPOLYLINE
  5
26D
100
AcDbEntity
  8
0
100
AcDbPolyline
 62
7
  6
CONTINUOUS
 90
7
 70
0
 43
0.3500000006
 10
153.6084398804
 20
143.4465629883
 10
152.1084303589
 20
143.4465629883
 10
153.6084398804
 20
145.5894259644
 10
153.6084398804
 20
146.0179949341
 10
153.1798709106
 20
146.4465639038
 10
152.5370174561
 20
146.4465639038
 10
152.1084303589
 20
145.8037104492
  0
LINE
  5
26E
100
AcDbEntity
  8
0
100
AcDbLine
 62
7
  6
CONTINUOUS
 10
153.2512950068
 20
133.0770097294
 11
152.9914546942
 21
133.1024031929
  0
LWPOLYLINE
  5
26F
100
AcDbEntity
  8
0
100
AcDbPolyline
 62
7
  6
CONTINUOUS
 90
3
 70
0
 43
0.3500000006
 10
119.5103872375
 20
153.5860204468
 10
120.3675342407
 20
154.4431583862
 10
120.3675342407
 20
151.4431574707
  0
LWPOLYLINE
  5
270
100
AcDbEntity
  8
0
100
AcDbPolyline
 62
7
  6
CONTINUOUS
 90
10
 70
0
 43
0.3500000006
 10
123.9889619751
 20
143.706673645
 10
124.8460999146
 20
144.5638115845
 10
125.0603843994
 20
145.4209676514
 10
125.0603843994
 20
146.2781055908
 10
124.6318154297
 20
146.7066745605
 10
123.9889619751
 20
146.7066745605
 10
123.5603839417
 20
146.2781055908
 10
123.5603839417
 20
145.4209676514
 10
123.9889619751
 20
144.9923986816
 10
124.9175310974
 20
144.9923986816
  0
LINE
  5
271
100
AcDbEntity
  8
0
100
AcDbLine
 62
250
  6
CONTINUOUS
 10
116.0615845897
 20
80.8889881304
 11
115.5746730639
 21
80.8889881304
  0
LINE
  5
272
100
AcDbEntity
  8
0
100
AcDbLine
 62
7
  6
CONTINUOUS
 10
116.0615845897
 20
80.3891594679
 11
119.3746730639
 21
80.3024031929
  0
LINE
  5
273
100
AcDbEntity
  8
0
100
AcDbLine
 62
250
  6
CONTINUOUS
 10
116.0615845897
 20
80.8889881304
 11
119.3746730639
 21
80.8022318554
  0
LINE
  5
274
100
AcDbEntity
  8
RACCORDO
100
AcDbLine
 62
7
  6
CONTINUOUS
 10
129.6377759488
 20
83.8638156201
 11
126.2539732978
 21
83.0093644388
  0
LINE
  5
275
100
AcDbEntity
  8
RACCORDO
100
AcDbLine
 62
7
  6
CONTINUOUS
 10
120.8746730639
 20
82.7250947773
 11
122.7272909248
 21
82.7574323424
  0
LINE
  5
276
100
AcDbEntity
  8
RACCORDO
100
AcDbLine
 62
250
  6
CONTINUOUS
 10
120.8746730639
 20
82.8749805974
 11
122.7325234573
 21
82.9074094967
  0
LINE
  5
277
100
AcDbEntity
  8
ASSI
100
AcDbLine
 62
7
  6
CONTINUOUS
 10
122.8732217595
 20
82.9905546674
 11
122.9177204154
 21
82.9913313943
  0
LINE
  5
278
100
AcDbEntity
  8
RACCORDO
100
AcDbLine
 62
7
  6
CONTINUOUS
 10
123.552023333
 20
81.9524031929
 11
123.9746730639
 21
81.9524031929
  0
LINE
  5
279
100
AcDbEntity
  8
RACCORDO
100
AcDbLine
 62
250
  6
CONTINUOUS
 10
123.552023333
 20
82.1524031929
 11
123.9408013226
 21
82.1524031929
  0
LINE
  5
27A
100
AcDbEntity
  8
ASSI
100
AcDbLine
 62
250
  6
CONTINUOUS
 10
119.3746730639
 20
82.3129066975
 11
119.5607217691
 21
82.3129066975
  0
LINE
  5
27B
100
AcDbEntity
  8
RACCORDO
100
AcDbLine
 62
250
  6
CONTINUOUS
 10
122.8746730639
 20
82.9074094967
 11
122.7325234573
 21
82.9074094967
  0
LINE
  5
27C
100
AcDbEntity
  8
RACCORDO
100
AcDbLine
 62
250
  6
CONTINUOUS
 10
120.0575157763
 20
82.9681946453
 11
119.9160944201
 21
82.9681946453
  0
LINE
  5
27D
100
AcDbEntity
  8
ASSI
100
AcDbLine
 62
7
  6
CONTINUOUS
 10
120.1746730639
 20
82.1024031929
 11
119.5711825826
 21
82.1129371585
  0
LINE
  5
27E
100
AcDbEntity
  8
ASSI
100
AcDbLine
 62
250
  6
CONTINUOUS
 10
120.1746730639
 20
82.3021901378
 11
119.5607217691
 21
82.3129066975
  0
LINE
  5
27F
100
AcDbEntity
  8
RACCORDO
100
AcDbLine
 62
7
  6
CONTINUOUS
 10
119.5168226704
 20
82.7962567011
 11
120.8746730639
 21
82.7250947773
  0
LINE
  5
280
100
AcDbEntity
  8
RACCORDO
100
AcDbLine
 62
250
  6
CONTINUOUS
 10
119.9160944201
 20
82.9681946453
 11
119.4332517076
 21
82.9934993596
  0
LINE
  5
281
100
AcDbEntity
  8
RACCORDO
100
AcDbLine
 62
250
  6
CONTINUOUS
 10
120.0575157763
 20
82.9681946453
 11
120.8746730639
 21
82.9253692465
  0
LWPOLYLINE
  5
282
100
AcDbEntity
  8
RACCORDO
100
AcDbPolyline
 62
250
  6
CONTINUOUS
 90
13
 70
0
 10
120.0470485851
 20
82.7684687384
 10
120.0293234649
 20
82.77099856
 10
120.0119957472
 20
82.7767036969
 10
119.9953497553
 20
82.7855216837
 10
119.9796483457
 20
82.7973510382
 10
119.9651751725
 20
82.8120183921
 10
119.9522163368
 20
82.8292539159
 10
119.9409937424
 20
82.8487595091
 10
119.9316816465
 20
82.8702288807
 10
119.9244373808
 20
82.8932974373
 10
119.9193781174
 20
82.9175806435
 10
119.9165827287
 20
82.9426836061
 10
119.9160944201
 20
82.9681946453
  0
LINE
  5
283
100
AcDbEntity
  8
RACCORDO
100
AcDbLine
 62
250
  6
CONTINUOUS
 10
119.4328147618
 20
130.5433728412
 11
119.4468956283
 21
130.5513697018
  0
LINE
  5
284
100
AcDbEntity
  8
RACCORDO
100
AcDbLine
 62
250
  6
CONTINUOUS
 10
122.6996244645
 20
129.9454600695
 11
122.2628173761
 21
129.7864752913
  0
LINE
  5
285
100
AcDbEntity
  8
RACCORDO
100
AcDbLine
 62
7
  6
CONTINUOUS
 10
122.7430770925
 20
129.8045061764
 11
122.3062690352
 21
129.6455210455
  0
LWPOLYLINE
  5
286
100
AcDbEntity
  8
RACCORDO
100
AcDbPolyline
 62
250
  6
CONTINUOUS
 90
10
 70
0
 10
126.2154750207
 20
83.2032777775
 10
126.2053056685
 20
83.2005949601
 10
126.1952088309
 20
83.1977040896
 10
126.185184508
 20
83.1946051662
 10
126.1752320264
 20
83.1912979745
 10
126.1653520594
 20
83.1877827298
 10
126.1555466273
 20
83.1840600778
 10
126.1458164035
 20
83.1801302339
 10
126.1361607146
 20
83.1759929827
 10
126.1265795605
 20
83.1716483243
  0
LINE
  5
287
100
AcDbEntity
  8
RACCORDO
100
AcDbLine
 62
250
  6
CONTINUOUS
 10
129.5992776718
 20
84.0577289588
 11
126.2154750207
 21
83.2032777775
  0
LINE
  5
288
100
AcDbEntity
  8
ASSI
100
AcDbLine
 62
7
  6
CONTINUOUS
 10
128.3460522028
 20
85.084722565
 11
126.3926071108
 21
84.5914540035
  0
LINE
  5
289
100
AcDbEntity
  8
ASSI
100
AcDbLine
 62
7
  6
CONTINUOUS
 10
122.1746730639
 20
84.4783614546
 11
126.0515447085
 21
84.5460325008
  0
LINE
  5
28A
100
AcDbEntity
  8
RACCORDO
100
AcDbLine
 62
250
  6
CONTINUOUS
 10
122.7325234573
 20
83.4123616853
 11
122.8746730639
 21
83.4123616852
  0
LINE
  5
28B
100
AcDbEntity
  8
RACCORDO
100
AcDbLine
 62
250
  6
CONTINUOUS
 10
122.0325234573
 20
83.9472238646
 11
122.1746730639
 21
83.9472238646
  0
LWPOLYLINE
  5
28C
100
AcDbEntity
  8
ASSI
100
AcDbPolyline
 62
7
  6
CONTINUOUS
 90
24
 70
0
 10
126.9246730639
 20
84.1901499444
 10
126.9495495758
 20
84.1887730937
 10
126.9730976859
 20
84.1855814985
 10
126.9953173941
 20
84.1805751586
 10
127.0162960071
 20
84.1734766055
 10
127.0359462181
 20
84.1645633077
 10
127.0540061076
 20
84.1546676711
 10
127.0703042417
 20
84.1439102757
 10
127.0850120543
 20
84.1321705415
 10
127.098381927
 20
84.1199191348
 10
127.1104282656
 20
84.1072156351
 10
127.1211366642
 20
84.0940004629
 10
127.1307162873
 20
84.0805655455
 10
127.1391832951
 20
84.0669129609
 10
127.1465215273
 20
84.053040631
 10
127.1528916667
 20
84.0392342493
 10
127.1582797889
 20
84.0255139896
 10
127.1626998184
 20
84.0118596781
 10
127.1663542116
 20
83.9984964862
 10
127.1692339374
 20
83.9854619066
 10
127.171348027
 20
83.9727184465
 10
127.1729260295
 20
83.9603787999
 10
127.1740444613
 20
83.9484805312
 10
127.1746268061
 20
83.936986076
  0
LINE
  5
28D
100
AcDbEntity
  8
RACCORDO
100
AcDbLine
 62
250
  6
CONTINUOUS
 10
122.6996244645
 20
83.4593463163
 11
122.2628164071
 21
83.6183314473
  0
LINE
  5
28E
100
AcDbEntity
  8
RACCORDO
100
AcDbLine
 62
7
  6
CONTINUOUS
 10
122.7430770925
 20
83.6003002095
 11
122.3062690352
 21
83.7592853404
  0
LWPOLYLINE
  5
28F
100
AcDbEntity
  8
RACCORDO
100
AcDbPolyline
 62
250
  6
CONTINUOUS
 90
10
 70
0
 10
119.4468956282
 20
82.8534366841
 10
119.4328147516
 20
82.8614335372
 10
119.4199255971
 20
82.8707017479
 10
119.4083953924
 20
82.8811210821
 10
119.3983737334
 20
82.892556386
 10
119.3899906512
 20
82.9048592925
 10
119.3833549202
 20
82.9178701562
 10
119.3785526384
 20
82.9314201836
 10
119.3756461146
 20
82.9453336113
 10
119.3755922055
 20
82.9461145784
  0
LINE
  5
290
100
AcDbEntity
  8
RACCORDO
100
AcDbLine
 62
250
  6
CONTINUOUS
 10
122.9327826815
 20
130.2841358006
 11
122.9195845171
 21
130.2754774557
  0
LWPOLYLINE
  5
291
100
AcDbEntity
  8
RACCORDO
100
AcDbPolyline
 62
250
  6
CONTINUOUS
 90
11
 70
0
 10
122.9195845171
 20
130.2754774557
 10
122.9078591354
 20
130.2678793338
 10
122.9025594387
 20
130.2644148116
 10
122.8976777545
 20
130.261170329
 10
122.8931795925
 20
130.2581288146
 10
122.8889860596
 20
130.2551788811
 10
122.8850767824
 20
130.2522946896
 10
122.8814721345
 20
130.249502079
 10
122.8781543438
 20
130.2467671781
 10
122.8751767945
 20
130.2441454047
 10
122.8746730639
 20
130.2436653804
  0
LWPOLYLINE
  5
292
100
AcDbEntity
  8
RACCORDO
100
AcDbPolyline
 62
250
  6
CONTINUOUS
 90
13
 70
0
 10
122.2628173761
 20
129.7864752913
 10
122.2278417339
 20
129.770957692
 10
122.1957316927
 20
129.7531165095
 10
122.1664872524
 20
129.7329517439
 10
122.1401497153
 20
129.7103196001
 10
122.1166777793
 20
129.6853638731
 10
122.0959475376
 20
129.6585159482
 10
122.0777832588
 20
129.6299556723
 10
122.0623606745
 20
129.5995031985
 10
122.0500830733
 20
129.567050371
 10
122.0410848848
 20
129.5325611377
 10
122.0352316795
 20
129.4960715506
 10
122.0325234573
 20
129.4575816097
  0
LINE
  5
293
100
AcDbEntity
  8
RACCORDO
100
AcDbLine
 62
7
  6
CONTINUOUS
 10
124.6851402551
 20
85.0339712034
 11
122.1746730639
 21
84.9024031929
  0
LINE
  5
294
100
AcDbEntity
  8
RACCORDO
100
AcDbLine
 62
250
  6
CONTINUOUS
 10
124.6851402551
 20
85.0811074695
 11
122.1746730639
 21
84.9493197937
  0
LINE
  5
295
100
AcDbEntity
  8
RACCORDO
100
AcDbLine
 62
250
  6
CONTINUOUS
 10
122.0325234573
 20
85.5909518643
 11
120.8746730639
 21
85.5638704789
  0
LINE
  5
296
100
AcDbEntity
  8
RACCORDO
100
AcDbLine
 62
250
  6
CONTINUOUS
 10
122.0325234573
 20
85.4426886914
 11
120.8746730639
 21
85.4157331941
  0
LINE
  5
297
100
AcDbEntity
  8
RACCORDO
100
AcDbLine
 62
250
  6
CONTINUOUS
 10
122.0325234573
 20
85.4426886914
 11
122.1694234022
 21
85.4426886925
  0
LINE
  5
298
100
AcDbEntity
  8
RACCORDO
100
AcDbLine
 62
250
  6
CONTINUOUS
 10
131.3746730639
 20
86.0938190149
 11
131.1851402551
 21
86.0938190149
  0
LINE
  5
299
100
AcDbEntity
  8
RACCORDO
100
AcDbLine
 62
250
  6
CONTINUOUS
 10
131.3746730639
 20
86.2816128904
 11
131.1851402551
 21
86.2816128904
  0
LWPOLYLINE
  5
29A
100
AcDbEntity
  8
RACCORDO
100
AcDbPolyline
 62
250
  6
CONTINUOUS
 90
16
 70
0
 10
122.2628164071
 20
83.6183314473
 10
122.2347331032
 20
83.6302054912
 10
122.2083694911
 20
83.6438158378
 10
122.1837255711
 20
83.6591624872
 10
122.1607160082
 20
83.6764776287
 10
122.1394261372
 20
83.6955290729
 10
122.1201119625
 20
83.7156202512
 10
122.1029262289
 20
83.7365122178
 10
122.0877161915
 20
83.7584439184
 10
122.0742796192
 20
83.7814356217
 10
122.0624741027
 20
83.8052889941
 10
122.0524420513
 20
83.8302023691
 10
122.0444084614
 20
83.8567910167
 10
122.0384483318
 20
83.8852600268
 10
122.0344866638
 20
83.9154043094
 10
122.0325234573
 20
83.9472238646
  0
LINE
  5
29B
100
AcDbEntity
  8
RACCORDO
100
AcDbLine
 62
250
  6
CONTINUOUS
 10
122.9086904496
 20
83.1363931486
 11
122.9184949018
 21
83.1300460119
  0
LWPOLYLINE
  5
29C
100
AcDbEntity
  8
RACCORDO
100
AcDbPolyline
 62
250
  6
CONTINUOUS
 90
22
 70
0
 10
122.9184949018
 20
83.1300460119
 10
122.9294631156
 20
83.1228592379
 10
122.9354004644
 20
83.118920203
 10
122.9416141198
 20
83.1146901597
 10
122.9480932434
 20
83.110186873
 10
122.9548486736
 20
83.1053925778
 10
122.9618935012
 20
83.1001914463
 10
122.9692692672
 20
83.0945656074
 10
122.9769344307
 20
83.0885329321
 10
122.9847774593
 20
83.0820312061
 10
122.9928242067
 20
83.0750374892
 10
123.0010488192
 20
83.0675747215
 10
123.0092622029
 20
83.0596495095
 10
123.0174281523
 20
83.0512990466
 10
123.025582873
 20
83.0424861393
 10
123.0336458879
 20
83.0331058131
 10
123.0416093873
 20
83.0232068161
 10
123.0494811808
 20
83.0127404002
 10
123.0572042202
 20
83.0014553467
 10
123.0647594895
 20
82.9892679159
 10
123.0721660047
 20
82.9762618474
 10
123.0794237658
 20
82.9624371414
  0
LWPOLYLINE
  5
29D
100
AcDbEntity
  8
ASSI
100
AcDbPolyline
 62
250
  6
CONTINUOUS
 90
13
 70
0
 10
119.5711825826
 20
82.1129371585
 10
119.5693933482
 20
82.1146770234
 10
119.5676943111
 20
82.1198033917
 10
119.566114497
 20
82.1282286863
 10
119.5646808957
 20
82.1398089674
 10
119.5634179978
 20
82.1543464033
 10
119.5623473773
 20
82.1715926608
 10
119.5614873247
 20
82.1912531306
 10
119.5608525343
 20
82.2129919339
 10
119.5604538519
 20
82.2364376743
 10
119.5602980888
 20
82.2611898018
 10
119.5603879059
 20
82.2868254616
 10
119.5607217691
 20
82.3129066975
  0
LINE
  5
29E
100
AcDbEntity
  8
RACCORDO
100
AcDbLine
 62
250
  6
CONTINUOUS
 10
124.6851402551
 20
87.2932613728
 11
120.8746730639
 21
87.2145627268
  0
LINE
  5
29F
100
AcDbEntity
  8
RACCORDO
100
AcDbLine
 62
250
  6
CONTINUOUS
 10
124.6851402551
 20
87.430239009
 11
120.8746730639
 21
87.3511320816
  0
LINE
  5
2A0
100
AcDbEntity
  8
RACCORDO
100
AcDbLine
 62
250
  6
CONTINUOUS
 10
124.8746730639
 20
87.430239009
 11
124.6851402551
 21
87.430239009
  0
LINE
  5
2A1
100
AcDbEntity
  8
RACCORDO
100
AcDbLine
 62
250
  6
CONTINUOUS
 10
119.3746730639
 20
87.4935486091
 11
119.4332517076
 21
87.4935486091
  0
LINE
  5
2A2
100
AcDbEntity
  8
RACCORDO
100
AcDbLine
 62
250
  6
CONTINUOUS
 10
120.0575157763
 20
87.7763913216
 11
119.9160944201
 21
87.7763913216
  0
LINE
  5
2A3
100
AcDbEntity
  8
RACCORDO
100
AcDbLine
 62
250
  6
CONTINUOUS
 10
119.4343932977
 20
87.8780380284
 11
119.3746730642
 21
87.8780414112
  0
LINE
  5
2A4
100
AcDbEntity
  8
RACCORDO
100
AcDbLine
 62
7
  6
CONTINUOUS
 10
128.1868897484
 20
87.1215012987
 11
124.8746730639
 21
87.179316256
  0
LINE
  5
2A5
100
AcDbEntity
  8
RACCORDO
100
AcDbLine
 62
250
  6
CONTINUOUS
 10
124.8746730639
 20
88.4554267575
 11
129.1217903086
 21
88.3812930503
  0
LWPOLYLINE
  5
2A6
100
AcDbEntity
  8
RACCORDO
100
AcDbPolyline
 62
250
  6
CONTINUOUS
 90
7
 70
0
 10
122.904652057
 20
130.3732889744
 10
122.8988620011
 20
130.3674079867
 10
122.8932243473
 20
130.3615316311
 10
122.8877673478
 20
130.3556218895
 10
122.8825077984
 20
130.3496508206
 10
122.8775227824
 20
130.3436539113
 10
122.8746730639
 20
130.3399942358
  0
LINE
  5
2A7
100
AcDbEntity
  8
RACCORDO
100
AcDbLine
 62
250
  6
CONTINUOUS
 10
122.9221800144
 20
130.3908077293
 11
122.904652057
 21
130.3732889744
  0
LINE
  5
2A8
100
AcDbEntity
  8
RACCORDO
100
AcDbLine
 62
250
  6
CONTINUOUS
 10
120.0575157763
 20
87.7763913216
 11
120.8746730639
 21
87.9953479569
  0
LINE
  5
2A9
100
AcDbEntity
  8
RACCORDO
100
AcDbLine
 62
250
  6
CONTINUOUS
 10
119.5814878986
 20
87.6867337744
 11
119.9160944201
 21
87.7763913216
  0
LINE
  5
2AA
100
AcDbEntity
  8
RACCORDO
100
AcDbLine
 62
7
  6
CONTINUOUS
 10
119.6711454458
 20
87.8799189396
 11
120.8746730639
 21
88.2024031929
  0
LINE
  5
2AB
100
AcDbEntity
  8
RACCORDO
100
AcDbLine
 62
250
  6
CONTINUOUS
 10
119.6806085203
 20
88.0885745272
 11
120.8746730639
 21
88.4085231574
  0
LWPOLYLINE
  5
2AC
100
AcDbEntity
  8
0
100
AcDbPolyline
 62
250
  6
CONTINUOUS
 90
10
 70
0
 10
119.8537338975
 20
88.6541323844
 10
119.7925821232
 20
88.64907687
 10
119.7332121531
 20
88.6392403329
 10
119.675623987
 20
88.6246227732
 10
119.6195524318
 20
88.6050629759
 10
119.5652626806
 20
88.5807221559
 10
119.5135503134
 20
88.5520839586
 10
119.4646805235
 20
88.5193095989
 10
119.4183881174
 20
88.482237862
 10
119.3746730954
 20
88.4408687476
  0
LINE
  5
2AD
100
AcDbEntity
  8
0
100
AcDbLine
 62
7
  6
CONTINUOUS
 10
121.2270223089
 20
88.5020886539
 11
119.8572233155
 21
88.454254219
  0
LINE
  5
2AE
100
AcDbEntity
  8
0
100
AcDbLine
 62
250
  6
CONTINUOUS
 10
121.2235328909
 20
88.7019668193
 11
119.8537338975
 21
88.6541323844
  0
LINE
  5
2AF
100
AcDbEntity
  8
0
100
AcDbLine
 62
250
  6
CONTINUOUS
 10
122.6746730639
 20
90.0011748945
 11
122.4781635451
 21
90.0011748945
  0
LINE
  5
2B0
100
AcDbEntity
  8
0
100
AcDbLine
 62
7
  6
CONTINUOUS
 10
119.8775857449
 20
90.3019431379
 11
120.3080383281
 21
90.3015493679
  0
LINE
  5
2B1
100
AcDbEntity
  8
RACCORDO
100
AcDbLine
 62
7
  6
CONTINUOUS
 10
124.8746730639
 20
88.6552745176
 11
129.1148135987
 21
88.5812625893
  0
LINE
  5
2B2
100
AcDbEntity
  8
RACCORDO
100
AcDbLine
 62
250
  6
CONTINUOUS
 10
124.8746730639
 20
88.8552440567
 11
128.2277616095
 21
88.7967156784
  0
LWPOLYLINE
  5
2B3
100
AcDbEntity
  8
RACCORDO
100
AcDbPolyline
 62
250
  6
CONTINUOUS
 90
25
 70
0
 10
129.1217903086
 20
88.3812930503
 10
129.2685822845
 20
88.3727766804
 10
129.4112958927
 20
88.3555227333
 10
129.5499311332
 20
88.329531209
 10
129.684311071
 20
88.2946604124
 10
129.8146126411
 20
88.2510520386
 10
129.941366649
 20
88.1991311726
 10
130.0653363299
 20
88.1387125421
 10
130.1857584486
 20
88.0699814194
 10
130.3008741043
 20
87.9939187066
 10
130.4105034801
 20
87.9104978435
 10
130.5148263929
 20
87.8197453904
 10
130.612623393
 20
87.7227219298
 10
130.7037775965
 20
87.6195525638
 10
130.7884058872
 20
87.5101121903
 10
130.8656394667
 20
87.3950860861
 10
130.9357727013
 20
87.2732298409
 10
130.9985112247
 20
87.145787865
 10
131.0521031398
 20
87.0171786659
 10
131.0957026964
 20
86.8869578908
 10
131.1301556447
 20
86.7555698925
 10
131.1562473393
 20
86.6287662367
 10
131.174239565
 20
86.508464112
 10
131.1838705369
 20
86.39274633
 10
131.1851402551
 20
86.2816128904
  0
LWPOLYLINE
  5
2B4
100
AcDbEntity
  8
RACCORDO
100
AcDbPolyline
 62
250
  6
CONTINUOUS
 90
11
 70
0
 10
122.8746730639
 20
83.1611550783
 10
122.8749020285
 20
83.1609289006
 10
122.8773041718
 20
83.1587211278
 10
122.8797930505
 20
83.156592158
 10
122.8823902777
 20
83.15452129
 10
122.8852787833
 20
83.1523323956
 10
122.8885344354
 20
83.1499658422
 10
122.8920813659
 20
83.1474812625
 10
122.8958749
 20
83.1448814263
 10
122.8998965883
 20
83.1421782852
 10
122.9086904496
 20
83.1363931486
  0
LWPOLYLINE
  5
2B5
100
AcDbEntity
  8
RACCORDO
100
AcDbPolyline
 62
250
  6
CONTINUOUS
 90
14
 70
0
 10
122.9256238936
 20
83.0105299653
 10
122.9311611423
 20
83.0048902049
 10
122.9367544676
 20
82.9990809682
 10
122.9423797536
 20
82.9930783051
 10
122.9479807849
 20
82.986899684
 10
122.9535064676
 20
82.9805648803
 10
122.958959693
 20
82.9740337791
 10
122.9643621627
 20
82.967234953
 10
122.96966806
 20
82.9601766623
 10
122.9748629298
 20
82.952830994
 10
122.9799990443
 20
82.9450580006
 10
122.9850563142
 20
82.9367956338
 10
122.9899548554
 20
82.9280734566
 10
122.9946414189
 20
82.918881747
  0
LWPOLYLINE
  5
2B6
100
AcDbEntity
  8
RACCORDO
100
AcDbPolyline
 62
250
  6
CONTINUOUS
 90
13
 70
0
 10
119.4468956281
 20
130.5513697016
 10
119.4512798669
 20
130.5593804037
 10
119.4559359664
 20
130.5668750454
 10
119.4608433536
 20
130.5738254611
 10
119.4659432574
 20
130.5801669247
 10
119.4712463139
 20
130.5859207714
 10
119.4768490058
 20
130.591156526
 10
119.4827535562
 20
130.595827331
 10
119.4889294776
 20
130.5998618924
 10
119.4954396146
 20
130.6032343998
 10
119.5022918265
 20
130.6058693775
 10
119.5094311667
 20
130.6076691265
 10
119.5168226704
 20
130.6085496848
  0
LWPOLYLINE
  5
2B7
100
AcDbEntity
  8
RACCORDO
100
AcDbPolyline
 62
250
  6
CONTINUOUS
 90
9
 70
0
 10
122.9683645991
 20
130.4428561607
 10
122.9627103056
 20
130.4354536311
 10
122.956993391
 20
130.4283817997
 10
122.9512489803
 20
130.4216216851
 10
122.9454581458
 20
130.4150970843
 10
122.9396556833
 20
130.4088012004
 10
122.9338634909
 20
130.4027073122
 10
122.9280351113
 20
130.3967187057
 10
122.9221800144
 20
130.3908077293
  0
LWPOLYLINE
  5
2B8
100
AcDbEntity
  8
RACCORDO
100
AcDbPolyline
 62
250
  6
CONTINUOUS
 90
6
 70
0
 10
128.811223907
 20
124.8173462677
 10
128.8121126872
 20
124.8176868951
 10
128.8127865015
 20
124.81795029
 10
128.8132514633
 20
124.8181376091
 10
128.8135013889
 20
124.8182489077
 10
128.8135362404
 20
124.8182849807
  0
LINE
  5
2B9
100
AcDbEntity
  8
RACCORDO
100
AcDbLine
 62
250
  6
CONTINUOUS
 10
128.8071655332
 20
124.8158293823
 11
128.811223907
 21
124.8173462677
  0
LINE
  5
2BA
100
AcDbEntity
  8
RACCORDO
100
AcDbLine
 62
250
  6
CONTINUOUS
 10
128.2277616095
 20
124.6080907075
 11
128.8071655332
 21
124.8158293823
  0
LINE
  5
2BB
100
AcDbEntity
  8
RACCORDO
100
AcDbLine
 62
250
  6
CONTINUOUS
 10
119.6806085203
 20
90.5732685128
 11
119.5637359969
 21
90.5732685128
  0
LINE
  5
2BC
100
AcDbEntity
  8
RACCORDO
100
AcDbLine
 62
250
  6
CONTINUOUS
 10
120.4277906399
 20
90.9101730937
 11
120.3109181166
 21
90.9101730937
  0
LINE
  5
2BD
100
AcDbEntity
  8
RACCORDO
100
AcDbLine
 62
250
  6
CONTINUOUS
 10
120.7684856452
 20
90.5542795469
 11
119.6806085203
 21
90.5732685128
  0
LINE
  5
2BE
100
AcDbEntity
  8
RACCORDO
100
AcDbLine
 62
7
  6
CONTINUOUS
 10
120.8248231559
 20
90.7032733263
 11
120.1560156331
 21
90.714947405
  0
LINE
  5
2BF
100
AcDbEntity
  8
RACCORDO
100
AcDbLine
 62
250
  6
CONTINUOUS
 10
120.3109181166
 20
90.9101730937
 11
120.0391431098
 21
90.9149169441
  0
LINE
  5
2C0
100
AcDbEntity
  8
RACCORDO
100
AcDbLine
 62
250
  6
CONTINUOUS
 10
120.8339439931
 20
90.9030836605
 11
120.4277906399
 21
90.9101730937
  0
LWPOLYLINE
  5
2C1
100
AcDbEntity
  8
RACCORDO
100
AcDbPolyline
 62
250
  6
CONTINUOUS
 90
13
 70
0
 10
120.1560156331
 20
90.714947405
 10
120.1404429209
 20
90.7169077393
 10
120.1251920439
 20
90.7222109727
 10
120.1105204757
 20
90.7307675731
 10
120.0966759097
 20
90.7424330833
 10
120.0838920774
 20
90.7570105599
 10
120.0723848024
 20
90.7742538979
 10
120.0623483567
 20
90.793871986
 10
120.0539521812
 20
90.8155336209
 10
120.0473380246
 20
90.8388730992
 10
120.0426175507
 20
90.863496391
 10
120.0398704531
 20
90.8889877925
 10
120.0391431098
 20
90.9149169441
  0
LWPOLYLINE
  5
2C2
100
AcDbEntity
  8
RACCORDO
100
AcDbPolyline
 62
250
  6
CONTINUOUS
 90
13
 70
0
 10
120.4277906399
 20
90.7102035547
 10
120.4122127376
 20
90.7121651122
 10
120.3969571553
 20
90.7174717065
 10
120.3822815964
 20
90.7260335717
 10
120.3684344468
 20
90.7377054672
 10
120.3556490122
 20
90.7522903882
 10
120.344140004
 20
90.7695439425
 10
120.3340997882
 20
90.789180951
 10
120.325701845
 20
90.8108657889
 10
120.3190926324
 20
90.8342156276
 10
120.3143813759
 20
90.8588276432
 10
120.3116423421
 20
90.8842901327
 10
120.3109181166
 20
90.9101730937
  0
LINE
  5
2C3
100
AcDbEntity
  8
RACCORDO
100
AcDbLine
 62
250
  6
CONTINUOUS
 10
128.7711884356
 20
88.60208225
 11
128.2277616095
 21
88.7967156784
  0
LINE
  5
2C4
100
AcDbEntity
  8
RACCORDO
100
AcDbLine
 62
250
  6
CONTINUOUS
 10
128.8105652039
 20
88.5877264965
 11
128.7711884356
 21
88.60208225
  0
LWPOLYLINE
  5
2C5
100
AcDbEntity
  8
RACCORDO
100
AcDbPolyline
 62
250
  6
CONTINUOUS
 90
9
 70
0
 10
122.8746730639
 20
83.064749649
 10
122.8781290761
 20
83.0603507087
 10
122.8821250991
 20
83.0555628207
 10
122.8863024147
 20
83.0507967334
 10
122.8906378084
 20
83.0460455165
 10
122.8951340326
 20
83.041281158
 10
122.8998109682
 20
83.0364505519
 10
122.9046591534
 20
83.0315219073
 10
122.9256238936
 20
83.0105299653
  0
LWPOLYLINE
  5
2C6
100
AcDbEntity
  8
RACCORDO
100
AcDbPolyline
 62
250
  6
CONTINUOUS
 90
13
 70
0
 10
119.4468956281
 20
82.8534366843
 10
119.4512286295
 20
82.8455158853
 10
119.4558395592
 20
82.8380786448
 10
119.4607111602
 20
82.8311568739
 10
119.4657898237
 20
82.8248176971
 10
119.4710868197
 20
82.8190467154
 10
119.4766939137
 20
82.8137838605
 10
119.4826164222
 20
82.8090780176
 10
119.4888232032
 20
82.8050067535
 10
119.4953644489
 20
82.8016060505
 10
119.5022429286
 20
82.7989526955
 10
119.5094074964
 20
82.7971417064
 10
119.5168226704
 20
82.7962567011
  0
LWPOLYLINE
  5
2C7
100
AcDbEntity
  8
0
100
AcDbPolyline
 62
7
  6
CONTINUOUS
 90
3
 70
0
 43
0.3500000006
 10
124.0818197937
 20
151.7288822021
 10
124.0103886108
 20
151.5145977173
 10
123.8675262451
 20
151.2288729858
  0
LINE
  5
2C8
100
AcDbEntity
  8
RACCORDO
100
AcDbLine
 62
250
  6
CONTINUOUS
 10
122.9739168651
 20
130.4506010453
 11
122.9683645991
 21
130.4428561607
  0
LINE
  5
2C9
100
AcDbEntity
  8
RACCORDO
100
AcDbLine
 62
250
  6
CONTINUOUS
 10
120.4277906399
 20
93.4946332922
 11
120.8339439931
 21
93.5017227253
  0
LINE
  5
2CA
100
AcDbEntity
  8
RACCORDO
100
AcDbLine
 62
250
  6
CONTINUOUS
 10
120.0391431098
 20
93.4898894418
 11
120.3109181166
 21
93.4946332922
  0
LINE
  5
2CB
100
AcDbEntity
  8
RACCORDO
100
AcDbLine
 62
7
  6
CONTINUOUS
 10
120.1560156331
 20
93.6898589808
 11
120.8248231559
 21
93.7015330596
  0
LINE
  5
2CC
100
AcDbEntity
  8
RACCORDO
100
AcDbLine
 62
250
  6
CONTINUOUS
 10
119.6806085203
 20
93.8315378731
 11
120.7684856452
 21
93.8505268389
  0
LWPOLYLINE
  5
2CD
100
AcDbEntity
  8
RACCORDO
100
AcDbPolyline
 62
250
  6
CONTINUOUS
 90
28
 70
0
 10
120.1560164219
 20
93.6898589946
 10
120.1240901533
 20
93.6896320649
 10
120.093241891
 20
93.6900531044
 10
120.0634718423
 20
93.6910738934
 10
120.0347966851
 20
93.6926383629
 10
120.0072005593
 20
93.6947010889
 10
119.9806346727
 20
93.6972446014
 10
119.9550916609
 20
93.7002373281
 10
119.9305793969
 20
93.7036431757
 10
119.907071416
 20
93.7074632747
 10
119.8845585337
 20
93.711673724
 10
119.8630502028
 20
93.7162493588
 10
119.8425474328
 20
93.7212081517
 10
119.8230156017
 20
93.7265382389
 10
119.804489271
 20
93.7322163595
 10
119.7870728482
 20
93.7382553488
 10
119.770749279
 20
93.7446404118
 10
119.7555354681
 20
93.7513525295
 10
119.7415865202
 20
93.7584038263
 10
119.7288794538
 20
93.7657934471
 10
119.7174370288
 20
93.7734857203
 10
119.7074829955
 20
93.7814390649
 10
119.6990503896
 20
93.7896776862
 10
119.6921063601
 20
93.7981276728
 10
119.6867766645
 20
93.8065885145
 10
119.6831041024
 20
93.8149686949
 10
119.6810477711
 20
93.8232945003
 10
119.6806085203
 20
93.8315378731
  0
LINE
  5
2CE
100
AcDbEntity
  8
RACCORDO
100
AcDbLine
 62
250
  6
CONTINUOUS
 10
120.3109181166
 20
93.4946332922
 11
120.4277906399
 21
93.4946332922
  0
LINE
  5
2CF
100
AcDbEntity
  8
RACCORDO
100
AcDbLine
 62
250
  6
CONTINUOUS
 10
119.6806085203
 20
93.8315378731
 11
119.5637359969
 21
93.8315378731
  0
LWPOLYLINE
  5
2D0
100
AcDbEntity
  8
RACCORDO
100
AcDbPolyline
 62
250
  6
CONTINUOUS
 90
28
 70
0
 10
120.0391431098
 20
93.4898894418
 10
120.0074397831
 20
93.4902965165
 10
119.9767948147
 20
93.4919629629
 10
119.9472082045
 20
93.494888781
 10
119.9186950803
 20
93.4991520173
 10
119.8912403143
 20
93.5046746252
 10
119.8647985237
 20
93.5112224651
 10
119.8393627716
 20
93.5187623864
 10
119.8149399948
 20
93.5273275395
 10
119.791505621
 20
93.5367832369
 10
119.7690508933
 20
93.5471039331
 10
119.7475845686
 20
93.5583151734
 10
119.7271083454
 20
93.5703589066
 10
119.707588119
 20
93.5832340874
 10
119.6890579941
 20
93.5969417609
 10
119.671621983
 20
93.6114270114
 10
119.6552634483
 20
93.6266915875
 10
119.6399990274
 20
93.6427337406
 10
119.6259826445
 20
93.6594933094
 10
119.6131908154
 20
93.6770179485
 10
119.6016470244
 20
93.6952600033
 10
119.5915756481
 20
93.7140163481
 10
119.5830063251
 20
93.7334196589
 10
119.5759094168
 20
93.7533372596
 10
119.5704203838
 20
93.7731679968
 10
119.5665843796
 20
93.7927114858
 10
119.5643562506
 20
93.8121681112
 10
119.5637359969
 20
93.8315378731
  0
LWPOLYLINE
  5
2D1
100
AcDbEntity
  8
RACCORDO
100
AcDbPolyline
 62
250
  6
CONTINUOUS
 90
3
 70
0
 10
128.8135362404
 20
88.5865214051
 10
128.81296441
 20
88.5868160708
 10
128.8105652039
 20
88.5877264965
  0
LWPOLYLINE
  5
2D2
100
AcDbEntity
  8
RACCORDO
100
AcDbPolyline
 62
250
  6
CONTINUOUS
 90
5
 70
0
 10
122.9946424798
 20
130.4859271543
 10
122.9897895826
 20
130.4764265724
 10
122.9846799352
 20
130.4673735051
 10
122.9793672409
 20
130.4587617148
 10
122.9739168651
 20
130.4506010453
  0
LWPOLYLINE
  5
2D3
100
AcDbEntity
  8
RACCORDO
100
AcDbPolyline
 62
250
  6
CONTINUOUS
 90
20
 70
0
 10
123.0794240558
 20
130.4423700058
 10
123.0723706377
 20
130.4288737101
 10
123.0651207785
 20
130.4161056105
 10
123.0576744783
 20
130.404065707
 10
123.0499863433
 20
130.3927958732
 10
123.0421017672
 20
130.3822542354
 10
123.034156931
 20
130.3723151727
 10
123.0261714746
 20
130.3629778514
 10
123.018125758
 20
130.3542431051
 10
123.0100970426
 20
130.3459878133
 10
123.0021048197
 20
130.3382128858
 10
122.9941295979
 20
130.3309174128
 10
122.9861901648
 20
130.323975545
 10
122.978274361
 20
130.3173671832
 10
122.970394346
 20
130.3111124266
 10
122.9626053851
 20
130.3051457222
 10
122.9548632992
 20
130.2994372945
 10
122.9472122675
 20
130.294016919
 10
122.9398400931
 20
130.28890837
 10
122.9327826815
 20
130.2841358006
  0
LWPOLYLINE
  5
2D4
100
AcDbEntity
  8
RACCORDO
100
AcDbPolyline
 62
250
  6
CONTINUOUS
 90
10
 70
0
 10
123.0828369279
 20
130.4488133544
 10
123.082434555
 20
130.4481098521
 10
123.0820379574
 20
130.4474032265
 10
123.0816471349
 20
130.4466934778
 10
123.0812620662
 20
130.4459805834
 10
123.0808827727
 20
130.4452645659
 10
123.0805093185
 20
130.4445454926
 10
123.0801417249
 20
130.4438233861
 10
123.0797799707
 20
130.4430982238
 10
123.0794240558
 20
130.4423700058
  0
LINE
  5
2D5
100
AcDbEntity
  8
RACCORDO
100
AcDbLine
 62
7
  6
CONTINUOUS
 10
123.552023333
 20
131.4524031929
 11
123.0014679831
 21
130.4988133544
  0
LINE
  5
2D6
100
AcDbEntity
  8
RACCORDO
100
AcDbLine
 62
7
  6
CONTINUOUS
 10
123.552023333
 20
131.2535386321
 11
123.0828369279
 21
130.4488133544
  0
LINE
  5
2D7
100
AcDbEntity
  8
RACCORDO
100
AcDbLine
 62
250
  6
CONTINUOUS
 10
124.9766600397
 20
122.3316448808
 11
128.2277616095
 21
124.6080907075
  0
LINE
  5
2D8
100
AcDbEntity
  8
RACCORDO
100
AcDbLine
 62
7
  6
CONTINUOUS
 10
125.0878848457
 20
122.167814472
 11
128.8746731283
 21
124.8193521731
  0
LINE
  5
2D9
100
AcDbEntity
  8
RACCORDO
100
AcDbLine
 62
250
  6
CONTINUOUS
 10
119.6517403192
 20
117.0731041049
 11
119.6806085203
 21
117.0885745272
  0
LWPOLYLINE
  5
2DA
100
AcDbEntity
  8
RACCORDO
100
AcDbPolyline
 62
250
  6
CONTINUOUS
 90
10
 70
0
 10
119.6711454458
 20
116.8799189396
 10
119.6511602421
 20
116.8721108737
 10
119.6328751033
 20
116.8599103693
 10
119.6167232888
 20
116.8436065128
 10
119.6030875096
 20
116.8235856176
 10
119.5922908601
 20
116.8003220711
 10
119.5845891627
 20
116.774367094
 10
119.5801649063
 20
116.7463356795
 10
119.5791229218
 20
116.7168920209
 10
119.5814878986
 20
116.6867337744
  0
LWPOLYLINE
  5
2DB
100
AcDbEntity
  8
RACCORDO
100
AcDbPolyline
 62
250
  6
CONTINUOUS
 90
13
 70
0
 10
119.9912040331
 20
116.9656783796
 10
119.9763358325
 20
116.9603621143
 10
119.9622561747
 20
116.9525825768
 10
119.949162671
 20
116.9424045644
 10
119.9372309492
 20
116.9299105285
 10
119.9266563016
 20
116.9152449359
 10
119.9176327229
 20
116.898637975
 10
119.9102917044
 20
116.8803156279
 10
119.9047344029
 20
116.8605106452
 10
119.901049189
 20
116.8395303786
 10
119.8992823234
 20
116.8176759847
 10
119.8994502336
 20
116.7952292858
 10
119.9015464858
 20
116.7724932143
  0
LWPOLYLINE
  5
2DC
100
AcDbEntity
  8
RACCORDO
100
AcDbPolyline
 62
250
  6
CONTINUOUS
 90
13
 70
0
 10
120.4277906399
 20
93.6946028312
 10
120.4122126829
 20
93.6926412608
 10
120.3969570492
 20
93.6873346302
 10
120.3822814449
 20
93.6787727067
 10
120.3684342503
 20
93.667100725
 10
120.3556487829
 20
93.6525156972
 10
120.344139776
 20
93.635262053
 10
120.3340995968
 20
93.6156250059
 10
120.3257017059
 20
93.5939401795
 10
120.3190925459
 20
93.5705903918
 10
120.314381334
 20
93.5459784613
 10
120.3116423315
 20
93.5205160954
 10
120.3109181166
 20
93.4946332922
  0
LWPOLYLINE
  5
2DD
100
AcDbEntity
  8
RACCORDO
100
AcDbPolyline
 62
250
  6
CONTINUOUS
 90
13
 70
0
 10
120.1560156331
 20
93.6898589808
 10
120.1404429209
 20
93.6878986466
 10
120.1251920439
 20
93.6825954132
 10
120.1105204757
 20
93.6740388128
 10
120.0966759097
 20
93.6623733026
 10
120.0838920774
 20
93.647795826
 10
120.0723848024
 20
93.630552488
 10
120.0623483567
 20
93.6109343999
 10
120.0539521812
 20
93.5892727649
 10
120.0473380246
 20
93.5659332867
 10
120.0426175507
 20
93.5413099949
 10
120.0398704531
 20
93.5158185934
 10
120.0391431098
 20
93.4898894418
  0
LINE
  5
2DE
100
AcDbEntity
  8
0
100
AcDbLine
 62
7
  6
CONTINUOUS
 10
119.8775857449
 20
94.102863248
 11
120.3080383281
 21
94.1032570179
  0
LINE
  5
2DF
100
AcDbEntity
  8
0
100
AcDbLine
 62
250
  6
CONTINUOUS
 10
122.6746730639
 20
94.4036314914
 11
122.4781635451
 21
94.4036314914
  0
LINE
  5
2E0
100
AcDbEntity
  8
0
100
AcDbLine
 62
250
  6
CONTINUOUS
 10
119.8537338975
 20
95.7506740014
 11
121.2235328909
 21
95.7028395665
  0
LINE
  5
2E1
100
AcDbEntity
  8
0
100
AcDbLine
 62
7
  6
CONTINUOUS
 10
119.8572233155
 20
95.9505521668
 11
121.2270223089
 21
95.9027177319
  0
LWPOLYLINE
  5
2E2
100
AcDbEntity
  8
0
100
AcDbPolyline
 62
250
  6
CONTINUOUS
 90
22
 70
0
 10
121.2235328909
 20
95.7028395665
 10
121.3232228921
 20
95.69511918
 10
121.4203035305
 20
95.6806045915
 10
121.514774806
 20
95.6592958013
 10
121.6068349177
 20
95.6310357563
 10
121.6962856666
 20
95.5959815095
 10
121.7825324552
 20
95.5546042194
 10
121.8658646236
 20
95.5067332514
 10
121.9459928317
 20
95.4525392401
 10
122.021454462
 20
95.3930052477
 10
122.0923578048
 20
95.3275115056
 10
122.1585945697
 20
95.2566777824
 10
122.2183772678
 20
95.1833464465
 10
122.2708571444
 20
95.1084759824
 10
122.3168829541
 20
95.0311079056
 10
122.3572134717
 20
94.9512091304
 10
122.3922108609
 20
94.8693232265
 10
122.4215129581
 20
94.7849066243
 10
122.4447920467
 20
94.6962955292
 10
122.461938888
 20
94.6029353429
 10
122.4730627208
 20
94.5053806636
 10
122.4781635451
 20
94.4036314914
  0
LINE
  5
2E3
100
AcDbEntity
  8
RACCORDO
100
AcDbLine
 62
250
  6
CONTINUOUS
 10
119.6806085203
 20
96.3162318587
 11
120.8746730639
 21
95.9962832285
  0
LINE
  5
2E4
100
AcDbEntity
  8
RACCORDO
100
AcDbLine
 62
7
  6
CONTINUOUS
 10
119.6711454458
 20
96.5248874463
 11
120.8746730639
 21
96.2024031929
  0
LWPOLYLINE
  5
2E5
100
AcDbEntity
  8
RACCORDO
100
AcDbPolyline
 62
250
  6
CONTINUOUS
 90
13
 70
0
 10
119.9912040331
 20
96.4391280063
 10
119.9761989273
 20
96.4445062645
 10
119.9620342991
 20
96.4523707167
 10
119.9489043529
 20
96.4626363485
 10
119.9369830265
 20
96.4751957521
 10
119.9264504519
 20
96.4898908315
 10
119.9174785715
 20
96.5064983374
 10
119.9101931026
 20
96.5247829433
 10
119.9046856045
 20
96.5445116404
 10
119.9010314927
 20
96.5654154496
 10
119.899279386
 20
96.5872122271
 10
119.8994519607
 20
96.609611502
 10
119.9015464858
 20
96.6323131715
  0
LWPOLYLINE
  5
2E6
100
AcDbEntity
  8
RACCORDO
100
AcDbPolyline
 62
250
  6
CONTINUOUS
 90
10
 70
0
 10
119.6711454458
 20
96.5248874463
 10
119.6511602477
 20
96.5326955094
 10
119.6328751123
 20
96.5448960095
 10
119.616723299
 20
96.5611998616
 10
119.6030875191
 20
96.581220753
 10
119.5922908677
 20
96.6044842972
 10
119.5845891676
 20
96.6304392744
 10
119.5801649084
 20
96.658470692
 10
119.579122922
 20
96.6879143564
 10
119.5814878986
 20
96.7180726115
  0
LINE
  5
2E7
100
AcDbEntity
  8
RACCORDO
100
AcDbLine
 62
250
  6
CONTINUOUS
 10
119.6517403192
 20
96.331702281
 11
119.6806085203
 21
96.3162318587
  0
LINE
  5
2E8
100
AcDbEntity
  8
RACCORDO
100
AcDbLine
 62
250
  6
CONTINUOUS
 10
128.2277616095
 20
88.7967156784
 11
124.9766600397
 21
91.073161505
  0
LINE
  5
2E9
100
AcDbEntity
  8
RACCORDO
100
AcDbLine
 62
7
  6
CONTINUOUS
 10
128.8746732987
 20
88.5854540935
 11
125.0878848457
 21
91.2369919139
  0
LWPOLYLINE
  5
2EA
100
AcDbEntity
  8
RACCORDO
100
AcDbPolyline
 62
250
  6
CONTINUOUS
 90
4
 70
0
 10
124.9766600397
 20
91.073161505
 10
124.9345225947
 20
91.1048901768
 10
124.895043845
 20
91.1397983711
 10
124.8746730639
 20
91.1608704894
  0
LINE
  5
2EB
100
AcDbEntity
  8
RACCORDO
100
AcDbLine
 62
7
  6
CONTINUOUS
 10
123.0828369279
 20
82.9559930314
 11
123.552023333
 21
82.1512677537
  0
LINE
  5
2EC
100
AcDbEntity
  8
RACCORDO
100
AcDbLine
 62
7
  6
CONTINUOUS
 10
123.0014679831
 20
82.9059930314
 11
123.552023333
 21
81.9524031929
  0
LWPOLYLINE
  5
2ED
100
AcDbEntity
  8
RACCORDO
100
AcDbPolyline
 62
250
  6
CONTINUOUS
 90
10
 70
0
 10
123.0794237658
 20
82.9624371414
 10
123.0797796228
 20
82.9617089509
 10
123.0801413471
 20
82.960983781
 10
123.0805089387
 20
82.9602616318
 10
123.0808824261
 20
82.9595424713
 10
123.0812617808
 20
82.9588263314
 10
123.0816469169
 20
82.9581133079
 10
123.0820378058
 20
82.9574034327
 10
123.0824344761
 20
82.9566966739
 10
123.0828369279
 20
82.9559930314
  0
LWPOLYLINE
  5
2EE
100
AcDbEntity
  8
RACCORDO
100
AcDbPolyline
 62
7
  6
CONTINUOUS
 90
10
 70
0
 10
122.1694234009
 20
127.9621176891
 10
122.1626241795
 20
127.9451567605
 10
122.1535621078
 20
127.9283275657
 10
122.1422371858
 20
127.9116300936
 10
122.1284362409
 20
127.8950775385
 10
122.1123724458
 20
127.8786566813
 10
122.094685318
 20
127.8623279057
 10
122.0755880303
 20
127.846078016
 10
122.0548674101
 20
127.8299202199
 10
122.0325234573
 20
127.8138545216
  0
LWPOLYLINE
  5
2EF
100
AcDbEntity
  8
RACCORDO
100
AcDbPolyline
 62
250
  6
CONTINUOUS
 90
10
 70
0
 10
119.5637359969
 20
116.993788814
 10
119.5711053289
 20
117.0033957755
 10
119.5789897194
 20
117.0128309092
 10
119.5873972369
 20
117.0220942152
 10
119.5962319888
 20
117.0312213068
 10
119.6055899952
 20
117.0401765706
 10
119.6157827126
 20
117.0488531664
 10
119.6269266793
 20
117.0572154806
 10
119.6389174065
 20
117.0652991268
 10
119.6517403192
 20
117.0731041049
  0
LWPOLYLINE
  5
2F0
100
AcDbEntity
  8
RACCORDO
100
AcDbPolyline
 62
250
  6
CONTINUOUS
 90
7
 70
0
 10
119.4344057524
 20
116.8780257267
 10
119.4543039876
 20
116.9005509334
 10
119.4748649451
 20
116.9217835966
 10
119.4960886247
 20
116.9417237162
 10
119.5179750266
 20
116.9603712923
 10
119.5405241507
 20
116.9777263249
 10
119.5637359969
 20
116.993788814
  0
LWPOLYLINE
  5
2F1
100
AcDbEntity
  8
RACCORDO
100
AcDbPolyline
 62
250
  6
CONTINUOUS
 90
4
 70
0
 10
124.8746730639
 20
122.2436279381
 10
124.8853839463
 20
122.2550793798
 10
124.9290056824
 20
122.294709993
 10
124.9766600397
 20
122.3316448808
  0
LWPOLYLINE
  5
2F2
100
AcDbEntity
  8
RACCORDO
100
AcDbPolyline
 62
250
  6
CONTINUOUS
 90
10
 70
0
 10
119.5538063499
 20
116.8270420793
 10
119.5648786048
 20
116.8366191786
 10
119.5736775016
 20
116.8491370219
 10
119.5800383731
 20
116.8643614417
 10
119.5838421666
 20
116.8820076323
 10
119.5850176645
 20
116.901745448
 10
119.5835428338
 20
116.9232055678
 10
119.5794452437
 20
116.9459864521
 10
119.5728015365
 20
116.9696618653
 10
119.563735997
 20
116.993788814
  0
LWPOLYLINE
  5
2F3
100
AcDbEntity
  8
RACCORDO
100
AcDbPolyline
 62
250
  6
CONTINUOUS
 90
6
 70
0
 10
119.6711454463
 20
116.8799189397
 10
119.6745654992
 20
116.8825136895
 10
119.6770909269
 20
116.8881981947
 10
119.6786807966
 20
116.8968802731
 10
119.6793093429
 20
116.9084191467
 10
119.6789663855
 20
116.9226277312
  0
LINE
  5
2F4
100
AcDbEntity
  8
RACCORDO
100
AcDbLine
 62
250
  6
CONTINUOUS
 10
120.8734673717
 20
96.0026140983
 11
124.6851402551
 21
96.2023754095
  0
LINE
  5
2F5
100
AcDbEntity
  8
RACCORDO
100
AcDbLine
 62
7
  6
CONTINUOUS
 10
124.6851402551
 20
96.4021013165
 11
120.8746730639
 21
96.2024031929
  0
LINE
  5
2F6
100
AcDbEntity
  8
RACCORDO
100
AcDbLine
 62
250
  6
CONTINUOUS
 10
124.6781635451
 20
96.6018272234
 11
120.8746730639
 21
96.4024947338
  0
LINE
  5
2F7
100
AcDbEntity
  8
RACCORDO
100
AcDbLine
 62
250
  6
CONTINUOUS
 10
124.8746730639
 20
96.2023754095
 11
124.6851402551
 21
96.2023754095
  0
LINE
  5
2F8
100
AcDbEntity
  8
RACCORDO
100
AcDbLine
 62
250
  6
CONTINUOUS
 10
119.4343916017
 20
96.5267837632
 11
119.374673064
 21
96.5267770231
  0
LINE
  5
2F9
100
AcDbEntity
  8
RACCORDO
100
AcDbLine
 62
250
  6
CONTINUOUS
 10
124.8746730639
 20
96.6018272234
 11
124.6781635451
 21
96.6018272234
  0
LINE
  5
2FA
100
AcDbEntity
  8
RACCORDO
100
AcDbLine
 62
250
  6
CONTINUOUS
 10
120.0394773608
 20
96.6323131715
 11
119.9015464858
 21
96.6323131715
  0
LINE
  5
2FB
100
AcDbEntity
  8
RACCORDO
100
AcDbLine
 62
250
  6
CONTINUOUS
 10
119.3746730639
 20
96.9112577768
 11
119.4332517076
 21
96.9112577768
  0
LINE
  5
2FC
100
AcDbEntity
  8
RACCORDO
100
AcDbLine
 62
250
  6
CONTINUOUS
 10
119.9015464858
 20
96.6323131715
 11
119.5814878986
 21
96.7180726115
  0
LINE
  5
2FD
100
AcDbEntity
  8
RACCORDO
100
AcDbLine
 62
250
  6
CONTINUOUS
 10
120.0394773608
 20
96.6323131715
 11
120.8746730639
 21
96.4085231574
  0
LWPOLYLINE
  5
2FE
100
AcDbEntity
  8
RACCORDO
100
AcDbPolyline
 62
250
  6
CONTINUOUS
 90
34
 70
0
 10
119.5814878986
 20
96.7180726115
 10
119.5711639328
 20
96.7212105733
 10
119.5612771158
 20
96.7247140217
 10
119.5518274474
 20
96.7285829568
 10
119.5428229327
 20
96.7328513337
 10
119.5342555668
 20
96.7374851974
 10
119.5261013348
 20
96.7423826821
 10
119.5183605314
 20
96.7475366258
 10
119.5110328619
 20
96.7529541906
 10
119.5040934283
 20
96.7585549972
 10
119.497541606
 20
96.7643353479
 10
119.4913780196
 20
96.7702989405
 10
119.4855796443
 20
96.7763764893
 10
119.480145798
 20
96.7825676012
 10
119.4750771629
 20
96.7888726693
 10
119.4703527608
 20
96.7952235873
 10
119.4659754548
 20
96.8016167422
 10
119.4619423819
 20
96.808055747
 10
119.4582239748
 20
96.8144833341
 10
119.4548227527
 20
96.820893711
 10
119.4517361965
 20
96.8272926703
 10
119.4489271822
 20
96.8336403217
 10
119.4463983234
 20
96.8399212553
 10
119.4441470064
 20
96.846150881
 10
119.4421282662
 20
96.8523355386
 10
119.4403421156
 20
96.8584292371
 10
119.4387885419
 20
96.8644779675
 10
119.4374225418
 20
96.8706260427
 10
119.4362225913
 20
96.8768708851
 10
119.4352102145
 20
96.8832150724
 10
119.4344049808
 20
96.8898106506
 10
119.4338134133
 20
96.8967083017
 10
119.4334289889
 20
96.9038573438
 10
119.4332517076
 20
96.9112577768
  0
LWPOLYLINE
  5
2FF
100
AcDbEntity
  8
0
100
AcDbPolyline
 62
250
  6
CONTINUOUS
 90
10
 70
0
 10
119.3746730918
 20
95.9639376409
 10
119.4162457788
 20
95.9240805619
 10
119.4608757952
 20
95.8880317834
 10
119.5085631411
 20
95.8557913052
 10
119.5594988255
 20
95.8270498216
 10
119.6134918393
 20
95.8021166384
 10
119.6699691561
 20
95.781919673
 10
119.728739767
 20
95.7667682313
 10
119.7899946808
 20
95.7563530074
 10
119.8537338975
 20
95.7506740014
  0
LWPOLYLINE
  5
300
100
AcDbEntity
  8
RACCORDO
100
AcDbPolyline
 62
250
  6
CONTINUOUS
 90
7
 70
0
 10
119.4343916014
 20
96.5267838734
 10
119.4532464999
 20
96.505203948
 10
119.4731823987
 20
96.4845382393
 10
119.4941992978
 20
96.4647867473
 10
119.5162971972
 20
96.4459494721
 10
119.5394760969
 20
96.4280264136
 10
119.5637359969
 20
96.4110175719
  0
LWPOLYLINE
  5
301
100
AcDbEntity
  8
RACCORDO
100
AcDbPolyline
 62
250
  6
CONTINUOUS
 90
10
 70
0
 10
119.5637359969
 20
96.4110175719
 10
119.5712321197
 20
96.4012627515
 10
119.5792093804
 20
96.3917294454
 10
119.5876716829
 20
96.3824176538
 10
119.5965062632
 20
96.3733087255
 10
119.6058180149
 20
96.3644213116
 10
119.6159560101
 20
96.355811365
 10
119.6270503573
 20
96.3474975364
 10
119.6389832604
 20
96.3394611751
 10
119.6517403192
 20
96.331702281
  0
LWPOLYLINE
  5
302
100
AcDbEntity
  8
RACCORDO
100
AcDbPolyline
 62
7
  6
CONTINUOUS
 90
12
 70
0
 10
122.1646559915
 20
85.4553979636
 10
122.1585413503
 20
85.4680530401
 10
122.1510794787
 20
85.4806539851
 10
122.1421937347
 20
85.49321641
 10
122.1319607603
 20
85.5057248628
 10
122.120610481
 20
85.5181326654
 10
122.1081077535
 20
85.5304025341
 10
122.0944877211
 20
85.5425715329
 10
122.0800857397
 20
85.5547044544
 10
122.0650135946
 20
85.5668229482
 10
122.0491595004
 20
85.5789054136
 10
122.0325234573
 20
85.5909518643
  0
LWPOLYLINE
  5
303
100
AcDbEntity
  8
0
100
AcDbPolyline
 62
250
  6
CONTINUOUS
 90
10
 70
0
 10
116.056791726
 20
132.7663342177
 10
116.056192807
 20
132.8509465349
 10
116.0561971584
 20
132.8879236286
 10
116.0564045076
 20
132.9208111275
 10
116.0568132712
 20
132.9492848737
 10
116.0574187768
 20
132.9729823328
 10
116.0582108727
 20
132.9915802073
 10
116.0591773412
 20
133.0049214458
 10
116.0603065877
 20
133.0129513548
 10
116.0615845831
 20
133.0156469178
  0
LINE
  5
304
100
AcDbEntity
  8
0
100
AcDbLine
 62
7
  6
CONTINUOUS
 10
115.5746730639
 20
132.5158182555
 11
115.5746730639
 21
80.8889881304
  0
LWPOLYLINE
  5
305
100
AcDbEntity
  8
0
100
AcDbPolyline
 62
250
  6
CONTINUOUS
 90
9
 70
0
 10
116.0561928501
 20
80.553877066
 10
116.0561971008
 20
80.5169017667
 10
116.056404321
 20
80.4840138554
 10
116.0568129585
 20
80.4555375874
 10
116.0574183642
 20
80.431836517
 10
116.0582104177
 20
80.4132344312
 10
116.0591769299
 20
80.3998891441
 10
116.0603063248
 20
80.3918562164
 10
116.0615845897
 20
80.3891594679
  0
LINE
  5
306
100
AcDbEntity
  8
0
100
AcDbLine
 62
250
  6
CONTINUOUS
 10
116.0615845897
 20
132.5158182555
 11
116.0615845897
 21
80.8889881304
  0
LINE
  5
307
100
AcDbEntity
  8
0
100
AcDbLine
 62
250
  6
CONTINUOUS
 10
116.0567918721
 20
80.6384854543
 11
116.0561928501
 21
80.553877066
  0
LINE
  5
308
100
AcDbEntity
  8
RACCORDO
100
AcDbLine
 62
250
  6
CONTINUOUS
 10
119.7161009893
 20
125.4525277733
 11
119.7059505097
 21
125.4125742827
  0
LINE
  5
309
100
AcDbEntity
  8
RACCORDO
100
AcDbLine
 62
250
  6
CONTINUOUS
 10
119.7059505097
 20
125.4125742827
 11
119.6938462964
 21
125.3660924513
  0
LINE
  5
30A
100
AcDbEntity
  8
RACCORDO
100
AcDbLine
 62
250
  6
CONTINUOUS
 10
119.6938462964
 20
125.3660924513
 11
119.6806085203
 21
125.3162318587
  0
LINE
  5
30B
100
AcDbEntity
  8
RACCORDO
100
AcDbLine
 62
250
  6
CONTINUOUS
 10
120.0575157763
 20
125.6284150643
 11
120.0057519673
 21
125.435229899
  0
LWPOLYLINE
  5
30C
100
AcDbEntity
  8
RACCORDO
100
AcDbPolyline
 62
250
  6
CONTINUOUS
 90
13
 70
0
 10
122.3062690352
 20
129.6455210455
 10
122.3067347703
 20
129.6470253007
 10
122.3063347622
 20
129.6508616079
 10
122.305075703
 20
129.6569658049
 10
122.3029786502
 20
129.6652358052
 10
122.3000786755
 20
129.675533301
 10
122.2964242806
 20
129.6876860723
 10
122.2920765818
 20
129.7014908777
 10
122.2871082888
 20
129.7167168524
 10
122.2816024911
 20
129.7331093604
 10
122.2756512654
 20
129.7503942627
 10
122.2693541349
 20
129.7682825035
 10
122.2628164071
 20
129.7864749386
  0
LWPOLYLINE
  5
30D
100
AcDbEntity
  8
RACCORDO
100
AcDbPolyline
 62
250
  6
CONTINUOUS
 90
13
 70
0
 10
122.7430770925
 20
129.8045061764
 10
122.7435428276
 20
129.8060104134
 10
122.7431428307
 20
129.8098466754
 10
122.7418837909
 20
129.8159508084
 10
122.7397867631
 20
129.8242207327
 10
122.7368868162
 20
129.8345181498
 10
122.7332324462
 20
129.8466708553
 10
122.7288847652
 20
129.8604756189
 10
122.7239164798
 20
129.8757015827
 10
122.7184106749
 20
129.8920941218
 10
122.7124594245
 20
129.9093791029
 10
122.7061622517
 20
129.9272674682
 10
122.6996244645
 20
129.9454600695
  0
LWPOLYLINE
  5
30E
100
AcDbEntity
  8
0
100
AcDbPolyline
 62
7
  6
CONTINUOUS
 90
3
 70
0
 43
0.3500000006
 10
126.63181604
 20
143.9923983765
 10
126.5603848572
 20
143.7781138916
 10
126.4175315552
 20
143.4923891602
  0
LWPOLYLINE
  5
30F
100
AcDbEntity
  8
RACCORDO
100
AcDbPolyline
 62
250
  6
CONTINUOUS
 90
13
 70
0
 10
126.1265795605
 20
130.2331580616
 10
126.137343432
 20
130.2564918447
 10
126.1477541791
 20
130.2794375301
 10
126.1576386456
 20
130.3016134749
 10
126.1668324287
 20
130.3226508391
 10
126.1751826134
 20
130.34219972
 10
126.1825503158
 20
130.3599349718
 10
126.188812993
 20
130.3755616142
 10
126.1938664814
 20
130.3888197378
 10
126.197626729
 20
130.3994888278
 10
126.2000311938
 20
130.4073914311
 10
126.2010398837
 20
130.4123961082
 10
126.2006360216
 20
130.414419619
  0
LWPOLYLINE
  5
310
100
AcDbEntity
  8
RACCORDO
100
AcDbPolyline
 62
250
  6
CONTINUOUS
 90
16
 70
0
 10
124.6851389051
 20
96.4021012457
 10
124.6860483127
 20
96.4013500832
 10
124.6868438928
 20
96.3990022366
 10
124.6875319677
 20
96.3950779177
 10
124.6881240148
 20
96.3895941065
 10
124.6886193805
 20
96.3826038607
 10
124.6890024439
 20
96.3742334193
 10
124.6892606962
 20
96.3645708713
 10
124.6894065945
 20
96.3537306695
 10
124.6894543568
 20
96.3419614034
 10
124.6893969935
 20
96.3295585965
 10
124.689226598
 20
96.3165379709
 10
124.6889582929
 20
96.3027048792
 10
124.6886087438
 20
96.2881879084
 10
124.6881584123
 20
96.2730389243
 10
124.6875828079
 20
96.2568509713
  0
LINE
  5
311
100
AcDbEntity
  8
RACCORDO
100
AcDbLine
 62
7
  6
CONTINUOUS
 10
122.1694234022
 20
85.4426886925
 11
122.1646559915
 21
85.4553979636
  0
LINE
  5
312
100
AcDbEntity
  8
RACCORDO
100
AcDbLine
 62
250
  6
CONTINUOUS
 10
120.0057519673
 20
87.9695764868
 11
120.0575157763
 21
87.7763913216
  0
LINE
  5
313
100
AcDbEntity
  8
RACCORDO
100
AcDbLine
 62
250
  6
CONTINUOUS
 10
119.6938461451
 20
88.0387145142
 11
119.6806085203
 21
88.0885745272
  0
LINE
  5
314
100
AcDbEntity
  8
RACCORDO
100
AcDbLine
 62
250
  6
CONTINUOUS
 10
119.7059502869
 20
87.9922329758
 11
119.6938461451
 21
88.0387145142
  0
LINE
  5
315
100
AcDbEntity
  8
0
100
AcDbLine
 62
250
  6
CONTINUOUS
 10
116.0615845897
 20
132.5158182555
 11
116.0591457103
 21
132.6200061101
  0
LWPOLYLINE
  5
316
100
AcDbEntity
  8
0
100
AcDbPolyline
 62
250
  6
CONTINUOUS
 90
3
 70
0
 10
116.0591457103
 20
132.6200061101
 10
116.057388918
 20
132.7196216515
 10
116.056791726
 20
132.7663342177
  0
LINE
  5
317
100
AcDbEntity
  8
0
100
AcDbLine
 62
250
  6
CONTINUOUS
 10
116.0581766798
 20
80.7341520465
 11
116.0567918721
 21
80.6384854543
  0
LWPOLYLINE
  5
318
100
AcDbEntity
  8
0
100
AcDbPolyline
 62
250
  6
CONTINUOUS
 90
3
 70
0
 10
116.0615845897
 20
80.8889881304
 10
116.0602860034
 20
80.8366091553
 10
116.0581766798
 20
80.7341520465
  0
LWPOLYLINE
  5
319
100
AcDbEntity
  8
RACCORDO
100
AcDbPolyline
 62
250
  6
CONTINUOUS
 90
9
 70
0
 10
119.3746730639
 20
130.445376439
 10
119.3756461157
 20
130.4594727726
 10
119.3785526425
 20
130.4733861956
 10
119.3833549281
 20
130.4869362175
 10
119.3899906634
 20
130.4999470786
 10
119.3983737494
 20
130.5122499859
 10
119.40839541
 20
130.5236852912
 10
119.419925613
 20
130.5341046267
 10
119.4328147618
 20
130.5433728412
  0
LWPOLYLINE
  5
31A
100
AcDbEntity
  8
RACCORDO
100
AcDbPolyline
 62
250
  6
CONTINUOUS
 90
20
 70
0
 10
119.3956999667
 20
116.6869089612
 10
119.3936654418
 20
116.6752893496
 10
119.3917292196
 20
116.6639015687
 10
119.3898926519
 20
116.6527459631
 10
119.3881574014
 20
116.6418131289
 10
119.3865233603
 20
116.6310943891
 10
119.3849919384
 20
116.6205921385
 10
119.3835661582
 20
116.610312699
 10
119.3822481284
 20
116.6002636739
 10
119.3810351879
 20
116.5904258952
 10
119.3799240018
 20
116.5807653029
 10
119.3789227718
 20
116.5713372858
 10
119.3780250491
 20
116.5620724373
 10
119.3772160064
 20
116.5527576892
 10
119.376506351
 20
116.543411055
 10
119.3759021744
 20
116.5340202987
 10
119.3754004054
 20
116.5243458305
 10
119.3750166898
 20
116.5143225205
 10
119.3747730908
 20
116.5040483481
 10
119.3746861382
 20
116.4935398097
  0
LINE
  5
31B
100
AcDbEntity
  8
RACCORDO
100
AcDbLine
 62
250
  6
CONTINUOUS
 10
119.4000596621
 20
116.7108652039
 11
119.3956999667
 21
116.6869089612
  0
LINE
  5
31C
100
AcDbEntity
  8
RACCORDO
100
AcDbLine
 62
250
  6
CONTINUOUS
 10
119.4047981528
 20
116.735827392
 11
119.4000596621
 21
116.7108652039
  0
LINE
  5
31D
100
AcDbEntity
  8
RACCORDO
100
AcDbLine
 62
250
  6
CONTINUOUS
 10
119.4099207834
 20
116.7618794672
 11
119.4047981528
 21
116.735827392
  0
LINE
  5
31E
100
AcDbEntity
  8
RACCORDO
100
AcDbLine
 62
250
  6
CONTINUOUS
 10
119.4154312912
 20
116.7890701083
 11
119.4099207834
 21
116.7618794672
  0
LINE
  5
31F
100
AcDbEntity
  8
RACCORDO
100
AcDbLine
 62
250
  6
CONTINUOUS
 10
119.4213397871
 20
116.8174522288
 11
119.4154312912
 21
116.7890701083
  0
LINE
  5
320
100
AcDbEntity
  8
RACCORDO
100
AcDbLine
 62
250
  6
CONTINUOUS
 10
119.4276636122
 20
116.8471204955
 11
119.4213397871
 21
116.8174522288
  0
LINE
  5
321
100
AcDbEntity
  8
RACCORDO
100
AcDbLine
 62
250
  6
CONTINUOUS
 10
119.4344118846
 20
116.8780317942
 11
119.4276636122
 21
116.8471204955
  0
LWPOLYLINE
  5
322
100
AcDbEntity
  8
0
100
AcDbPolyline
 62
250
  6
CONTINUOUS
 90
8
 70
0
 10
119.8572233155
 20
117.454254219
 10
119.8576184998
 20
117.4559785955
 10
119.8578876061
 20
117.4610905252
 10
119.8580260311
 20
117.4695026854
 10
119.8580314058
 20
117.4810713104
 10
119.8579036359
 20
117.4955986956
 10
119.8576449015
 20
117.5128366158
 10
119.856754379
 20
117.5542242681
  0
LWPOLYLINE
  5
323
100
AcDbEntity
  8
RACCORDO
100
AcDbPolyline
 62
250
  6
CONTINUOUS
 90
8
 70
0
 10
120.4277906399
 20
122.6946028312
 10
120.4273649298
 20
122.6928831455
 10
120.4270062741
 20
122.6877696327
 10
120.4267208065
 20
122.6793501242
 10
120.4265134127
 20
122.6677694742
 10
120.4263876243
 20
122.6532259317
 10
120.4263455871
 20
122.6359667602
 10
120.4265143639
 20
122.5945100145
  0
LWPOLYLINE
  5
324
100
AcDbEntity
  8
RACCORDO
100
AcDbPolyline
 62
7
  6
CONTINUOUS
 90
7
 70
0
 10
120.8765103346
 20
117.0022153648
 10
120.875966322
 20
117.0011570784
 10
120.8755174298
 20
117.0001266308
 10
120.8751636578
 20
116.999124022
 10
120.8749050062
 20
116.9981492521
 10
120.8747414748
 20
116.9972023209
 10
120.8746730639
 20
116.9962832285
  0
LWPOLYLINE
  5
325
100
AcDbEntity
  8
RACCORDO
100
AcDbPolyline
 62
250
  6
CONTINUOUS
 90
13
 70
0
 10
129.1148135987
 20
88.5812625893
 10
129.1161488293
 20
88.5795299299
 10
129.1174015816
 20
88.5744092321
 10
129.1185504455
 20
88.5659880327
 10
129.1195757874
 20
88.5544102687
 10
129.1204600834
 20
88.5398738343
 10
129.12118822
 20
88.522627212
 10
129.1217477546
 20
88.5029651868
 10
129.1221291266
 20
88.4812238119
 10
129.1223258199
 20
88.4577746984
 10
129.1223344755
 20
88.4330186243
 10
129.1221549482
 20
88.4073786777
 10
129.1217903086
 20
88.3812930503
  0
LWPOLYLINE
  5
326
100
AcDbEntity
  8
RACCORDO
100
AcDbPolyline
 62
7
  6
CONTINUOUS
 90
3
 70
0
 10
120.8746730639
 20
96.2024035235
 10
120.8745977775
 20
96.2025574219
 10
120.8745588637
 20
96.2029827854
  0
LWPOLYLINE
  5
327
100
AcDbEntity
  8
RACCORDO
100
AcDbPolyline
 62
7
  6
CONTINUOUS
 90
7
 70
0
 10
122.1694234022
 20
85.4426886925
 10
122.1709874253
 20
85.4371991101
 10
122.1722891625
 20
85.4316054479
 10
122.1733183287
 20
85.425907706
 10
122.174064985
 20
85.4201058843
 10
122.174519592
 20
85.4141999829
 10
122.1746730639
 20
85.4081900017
  0
LWPOLYLINE
  5
328
100
AcDbEntity
  8
RACCORDO
100
AcDbPolyline
 62
250
  6
CONTINUOUS
 90
7
 70
0
 10
120.4277906399
 20
90.7102035547
 10
120.4273649282
 20
90.7119232541
 10
120.4270062715
 20
90.7170368077
 10
120.4267208035
 20
90.7254563831
 10
120.4265134098
 20
90.7370371329
 10
120.4263876225
 20
90.7515808004
 10
120.4263455871
 20
90.7688400785
  0
LWPOLYLINE
  5
329
100
AcDbEntity
  8
0
100
AcDbPolyline
 62
250
  6
CONTINUOUS
 90
7
 70
0
 10
119.8572233155
 20
95.9505521668
 10
119.8576185167
 20
95.9488276209
 10
119.8578876256
 20
95.9437152366
 10
119.8580260412
 20
95.9353024205
 10
119.858031397
 20
95.9237330068
 10
119.8579036015
 20
95.9092047983
 10
119.8576448396
 20
95.8919661841
  0
LINE
  5
32A
100
AcDbEntity
  8
RACCORDO
100
AcDbLine
 62
250
  6
CONTINUOUS
 10
119.4259024867
 20
96.5658974715
 11
119.4343931143
 21
96.5267905093
  0
LINE
  5
32B
100
AcDbEntity
  8
RACCORDO
100
AcDbLine
 62
250
  6
CONTINUOUS
 10
119.4179586806
 20
96.6035689787
 11
119.4259024867
 21
96.5658974715
  0
LINE
  5
32C
100
AcDbEntity
  8
RACCORDO
100
AcDbLine
 62
250
  6
CONTINUOUS
 10
119.4105726297
 20
96.6397302862
 11
119.4179586806
 21
96.6035689787
  0
LWPOLYLINE
  5
32D
100
AcDbEntity
  8
RACCORDO
100
AcDbPolyline
 62
250
  6
CONTINUOUS
 90
4
 70
0
 10
119.6786807617
 20
96.5079264708
 10
119.6770908752
 20
96.5166083821
 10
119.6745654567
 20
96.5222927574
 10
119.6711454458
 20
96.5248874463
  0
LWPOLYLINE
  5
32E
100
AcDbEntity
  8
RACCORDO
100
AcDbPolyline
 62
250
  6
CONTINUOUS
 90
8
 70
0
 10
119.6789664582
 20
87.9226263967
 10
119.6776576488
 20
87.9392741294
 10
119.6754041139
 20
87.9580914453
 10
119.6722423792
 20
87.9787733062
 10
119.6682236965
 20
88.0009844327
 10
119.6634132102
 20
88.0243647562
 10
119.6578889
 20
88.0485352587
 10
119.6517403192
 20
88.0731041049
  0
LINE
  5
32F
100
AcDbEntity
  8
0
100
AcDbLine
 62
250
  6
CONTINUOUS
 10
119.8554204419
 20
88.6024166671
 11
119.8537338975
 21
88.6541323844
  0
LINE
  5
330
100
AcDbEntity
  8
0
100
AcDbLine
 62
250
  6
CONTINUOUS
 10
119.856754379
 20
88.5542242681
 11
119.8554204419
 21
88.6024166671
  0
LWPOLYLINE
  5
331
100
AcDbEntity
  8
ASSI
100
AcDbPolyline
 62
250
  6
CONTINUOUS
 90
13
 70
0
 10
119.5607217691
 20
131.0918996884
 10
119.5603879069
 20
131.1179807988
 10
119.5602980885
 20
131.1436163533
 10
119.5604538484
 20
131.1683684003
 10
119.5608525257
 20
131.1918140765
 10
119.5614873099
 20
131.213552846
 10
119.5623473572
 20
131.2332133394
 10
119.5634179758
 20
131.250459683
 10
119.5646808758
 20
131.2649972256
 10
119.566114481
 20
131.2765775931
 10
119.5676942994
 20
131.2850029458
 10
119.569393342
 20
131.2901293502
 10
119.5711825826
 20
131.2918692274
  0
LWPOLYLINE
  5
332
100
AcDbEntity
  8
RACCORDO
100
AcDbPolyline
 62
250
  6
CONTINUOUS
 90
18
 70
0
 10
119.3746767407
 20
96.9112658538
 10
119.3748065608
 20
96.8982529753
 10
119.3752026867
 20
96.8850705266
 10
119.3758553228
 20
96.8717082383
 10
119.376750155
 20
96.8581769264
 10
119.3778765756
 20
96.8444469965
 10
119.3792325229
 20
96.8304453199
 10
119.380817069
 20
96.816135712
 10
119.3826215877
 20
96.8015377453
 10
119.3846356619
 20
96.7866622859
 10
119.3868475077
 20
96.771504037
 10
119.3892477838
 20
96.7560537599
 10
119.3918280629
 20
96.7403226318
 10
119.3945718461
 20
96.7243230248
 10
119.397469562
 20
96.7080352742
 10
119.4005272057
 20
96.6914297554
 10
119.4037355181
 20
96.6745192244
 10
119.4105726297
 20
96.6397302862
  0
LWPOLYLINE
  5
333
100
AcDbEntity
  8
RACCORDO
100
AcDbPolyline
 62
250
  6
CONTINUOUS
 90
8
 70
0
 10
119.728881848
 20
87.895389362
 10
119.72886541
 20
87.897146185
 10
119.7279686377
 20
87.9021596163
 10
119.7262067873
 20
87.9103443664
 10
119.7236098316
 20
87.9215611953
 10
119.7202219503
 20
87.9356192804
 10
119.7161007788
 20
87.9522794635
 10
119.7059502869
 20
87.9922329758
  0
LWPOLYLINE
  5
334
100
AcDbEntity
  8
RACCORDO
100
AcDbPolyline
 62
250
  6
CONTINUOUS
 90
8
 70
0
 10
119.728881848
 20
116.895389362
 10
119.7288654099
 20
116.897146185
 10
119.7279686375
 20
116.9021596162
 10
119.7262067871
 20
116.9103443664
 10
119.7236098314
 20
116.9215611952
 10
119.7202219502
 20
116.9356192803
 10
119.7161007787
 20
116.9522794634
 10
119.7059502869
 20
116.9922329758
  0
LWPOLYLINE
  5
335
100
AcDbEntity
  8
RACCORDO
100
AcDbPolyline
 62
250
  6
CONTINUOUS
 90
21
 70
0
 10
119.3746858178
 20
125.911278097
 10
119.374787051
 20
125.8995503771
 10
119.3750965672
 20
125.8878842605
 10
119.3756016893
 20
125.8762856935
 10
119.3762781426
 20
125.8648576217
 10
119.377109046
 20
125.8535081626
 10
119.3781064577
 20
125.8419364098
 10
119.3792794963
 20
125.8300390428
 10
119.3806172984
 20
125.8178986143
 10
119.3821203771
 20
125.8054790773
 10
119.3837909936
 20
125.7927569644
 10
119.3856261053
 20
125.7797418057
 10
119.3876173353
 20
125.7664476069
 10
119.3897571909
 20
125.7528805341
 10
119.3920440697
 20
125.7390211874
 10
119.3944768623
 20
125.7248465877
 10
119.3970499288
 20
125.7103565371
 10
119.3997601103
 20
125.6955401524
 10
119.402612671
 20
125.6803599611
 10
119.4056064743
 20
125.6648147098
 10
119.4120041133
 20
125.6326060476
  0
LINE
  5
336
100
AcDbEntity
  8
0
100
AcDbLine
 62
7
  6
CONTINUOUS
 10
119.3746730639
 20
80.3024031929
 11
119.3746730639
 21
133.1024031929
  0
LINE
  5
337
100
AcDbEntity
  8
RACCORDO
100
AcDbLine
 62
250
  6
CONTINUOUS
 10
119.4332517076
 20
82.9934993596
 11
119.4332517076
 21
87.4935486091
  0
LINE
  5
338
100
AcDbEntity
  8
RACCORDO
100
AcDbLine
 62
250
  6
CONTINUOUS
 10
119.4332517076
 20
96.9112577768
 11
119.4332517076
 21
116.4935486091
  0
LINE
  5
339
100
AcDbEntity
  8
RACCORDO
100
AcDbLine
 62
250
  6
CONTINUOUS
 10
119.4332517076
 20
125.9112577768
 11
119.4332517076
 21
130.4113070263
  0
LINE
  5
33A
100
AcDbEntity
  8
RACCORDO
100
AcDbLine
 62
250
  6
CONTINUOUS
 10
119.4343916014
 20
96.5267838734
 11
119.4343929337
 21
96.213975696
  0
LINE
  5
33B
100
AcDbEntity
  8
RACCORDO
100
AcDbLine
 62
250
  6
CONTINUOUS
 10
119.4344003917
 20
93.8404818119
 11
119.4344004688
 21
90.5643244233
  0
LINE
  5
33C
100
AcDbEntity
  8
RACCORDO
100
AcDbLine
 62
250
  6
CONTINUOUS
 10
119.4343951429
 20
125.5267775424
 11
119.4343955267
 21
125.2139708772
  0
LINE
  5
33D
100
AcDbEntity
  8
RACCORDO
100
AcDbLine
 62
250
  6
CONTINUOUS
 10
119.4343984382
 20
122.8404779937
 11
119.4344024571
 21
119.5643205371
  0
LINE
  5
33E
100
AcDbEntity
  8
RACCORDO
100
AcDbLine
 62
250
  6
CONTINUOUS
 10
119.4344053686
 20
117.1908568466
 11
119.4344057524
 21
116.8780257267
  0
LINE
  5
33F
100
AcDbEntity
  8
RACCORDO
100
AcDbLine
 62
250
  6
CONTINUOUS
 10
119.4343943844
 20
88.1908352604
 11
119.4343932975
 21
87.8780378034
  0
LINE
  5
340
100
AcDbEntity
  8
ASSI
100
AcDbLine
 62
250
  6
CONTINUOUS
 10
119.5607217691
 20
82.3129066975
 11
119.5607217691
 21
82.7962567011
  0
LINE
  5
341
100
AcDbEntity
  8
ASSI
100
AcDbLine
 62
250
  6
CONTINUOUS
 10
119.5607217691
 20
130.6085496848
 11
119.5607217691
 21
131.0918996884
  0
LINE
  5
342
100
AcDbEntity
  8
RACCORDO
100
AcDbLine
 62
250
  6
CONTINUOUS
 10
119.5637359969
 20
87.993788814
 11
119.5637359969
 21
88.3455445514
  0
LINE
  5
343
100
AcDbEntity
  8
RACCORDO
100
AcDbLine
 62
250
  6
CONTINUOUS
 10
119.5637359969
 20
90.4109003432
 11
119.5637359969
 21
90.5732685128
  0
LINE
  5
344
100
AcDbEntity
  8
RACCORDO
100
AcDbLine
 62
250
  6
CONTINUOUS
 10
119.5637359969
 20
93.8315378731
 11
119.5637359969
 21
93.9939060426
  0
LINE
  5
345
100
AcDbEntity
  8
RACCORDO
100
AcDbLine
 62
250
  6
CONTINUOUS
 10
119.5637359969
 20
96.0588977811
 11
119.5637359969
 21
96.4110175719
  0
LINE
  5
346
100
AcDbEntity
  8
RACCORDO
100
AcDbLine
 62
250
  6
CONTINUOUS
 10
119.5637359969
 20
116.993788814
 11
119.5637359969
 21
117.3455445514
  0
LINE
  5
347
100
AcDbEntity
  8
RACCORDO
100
AcDbLine
 62
250
  6
CONTINUOUS
 10
119.5637359969
 20
119.4109003432
 11
119.5637359969
 21
119.5732685128
  0
LINE
  5
348
100
AcDbEntity
  8
RACCORDO
100
AcDbLine
 62
250
  6
CONTINUOUS
 10
119.5637359969
 20
122.8315378731
 11
119.5637359969
 21
122.9939060426
  0
LINE
  5
349
100
AcDbEntity
  8
RACCORDO
100
AcDbLine
 62
250
  6
CONTINUOUS
 10
119.5637359969
 20
125.0588977811
 11
119.5637359969
 21
125.4110175719
  0
LINE
  5
34A
100
AcDbEntity
  8
RACCORDO
100
AcDbLine
 62
250
  6
CONTINUOUS
 10
119.6806085203
 20
119.5732685128
 11
119.6806085203
 21
119.3419791144
  0
LINE
  5
34B
100
AcDbEntity
  8
RACCORDO
100
AcDbLine
 62
250
  6
CONTINUOUS
 10
119.6806085203
 20
117.4150164423
 11
119.6806085203
 21
117.0885745272
  0
LINE
  5
34C
100
AcDbEntity
  8
RACCORDO
100
AcDbLine
 62
250
  6
CONTINUOUS
 10
119.6806085203
 20
96.3162318587
 11
119.6806085203
 21
95.9895321735
  0
LINE
  5
34D
100
AcDbEntity
  8
RACCORDO
100
AcDbLine
 62
250
  6
CONTINUOUS
 10
119.6806085203
 20
94.0628272714
 11
119.6806085203
 21
93.8315378731
  0
LINE
  5
34E
100
AcDbEntity
  8
RACCORDO
100
AcDbLine
 62
250
  6
CONTINUOUS
 10
119.6806085203
 20
90.5732685128
 11
119.6806085203
 21
90.3419791144
  0
LINE
  5
34F
100
AcDbEntity
  8
RACCORDO
100
AcDbLine
 62
250
  6
CONTINUOUS
 10
119.6806085203
 20
88.4150164423
 11
119.6806085203
 21
88.0885745272
  0
LINE
  5
350
100
AcDbEntity
  8
RACCORDO
100
AcDbLine
 62
250
  6
CONTINUOUS
 10
119.6806085203
 20
122.8315378731
 11
119.6806085203
 21
123.0628272714
  0
LINE
  5
351
100
AcDbEntity
  8
RACCORDO
100
AcDbLine
 62
250
  6
CONTINUOUS
 10
119.6806085203
 20
124.9895321735
 11
119.6806085203
 21
125.3162318587
  0
LINE
  5
352
100
AcDbEntity
  8
RACCORDO
100
AcDbLine
 62
250
  6
CONTINUOUS
 10
119.9015464858
 20
116.7724932143
 11
119.9015464858
 21
96.6323131715
  0
LINE
  5
353
100
AcDbEntity
  8
RACCORDO
100
AcDbLine
 62
250
  6
CONTINUOUS
 10
119.9160944201
 20
130.4366117406
 11
119.9160944201
 21
125.6284150643
  0
LINE
  5
354
100
AcDbEntity
  8
RACCORDO
100
AcDbLine
 62
250
  6
CONTINUOUS
 10
119.9160944201
 20
87.7763913216
 11
119.9160944201
 21
82.9681946453
  0
LINE
  5
355
100
AcDbEntity
  8
RACCORDO
100
AcDbLine
 62
250
  6
CONTINUOUS
 10
120.0394773608
 20
116.7724932143
 11
120.0394773608
 21
96.6323131715
  0
LWPOLYLINE
  5
356
100
AcDbEntity
  8
RACCORDO
100
AcDbPolyline
 62
250
  6
CONTINUOUS
 90
7
 70
0
 10
119.728881848
 20
125.5094170239
 10
119.7288654165
 20
125.5076602542
 10
119.7279686743
 20
125.5026469569
 10
119.7262068683
 20
125.494462387
 10
119.7236099618
 20
125.4832457487
 10
119.720222126
 20
125.4691878325
 10
119.7161009893
 20
125.4525277733
  0
LINE
  5
357
100
AcDbEntity
  8
0
100
AcDbLine
 62
250
  6
CONTINUOUS
 10
119.8576448396
 20
124.8919661841
 11
119.8567542763
 21
124.8505779567
  0
LWPOLYLINE
  5
358
100
AcDbEntity
  8
RACCORDO
100
AcDbPolyline
 62
250
  6
CONTINUOUS
 90
49
 70
0
 10
119.5637359969
 20
119.5732685128
 10
119.5640838507
 20
119.5854481871
 10
119.5649092652
 20
119.5973256629
 10
119.5662122405
 20
119.6089009401
 10
119.5680173697
 20
119.6201546687
 10
119.5703000597
 20
119.6311061987
 10
119.5729865306
 20
119.6418135804
 10
119.5760673627
 20
119.6522849092
 10
119.5795519758
 20
119.6625120896
 10
119.5833948493
 20
119.6725288851
 10
119.5875916234
 20
119.6823412903
 10
119.5921466579
 20
119.6919433106
 10
119.5970275118
 20
119.7013507252
 10
119.6022282517
 20
119.7105622787
 10
119.607754811
 20
119.7195792265
 10
119.6135925485
 20
119.7284211141
 10
119.6197286044
 20
119.737081145
 10
119.6261758386
 20
119.7455661157
 10
119.6329581893
 20
119.7539159618
 10
119.6400711936
 20
119.7621375238
 10
119.6475193143
 20
119.7702239612
 10
119.6553398782
 20
119.7781946878
 10
119.6635337327
 20
119.7860585189
 10
119.6721000302
 20
119.7938066392
 10
119.6810735556
 20
119.8014320175
 10
119.6904574559
 20
119.8089416304
 10
119.700248584
 20
119.8163285012
 10
119.7104722833
 20
119.8235646687
 10
119.7211290444
 20
119.8306533043
 10
119.7322183767
 20
119.8375912365
 10
119.7437641517
 20
119.8443409889
 10
119.7557673986
 20
119.8509058401
 10
119.7682270883
 20
119.8572825116
 10
119.7811640054
 20
119.8634236915
 10
119.7945785287
 20
119.8693325511
 10
119.8084702794
 20
119.8750059191
 10
119.8228589058
 20
119.8803869699
 10
119.8377336862
 20
119.885477756
 10
119.8531053422
 20
119.8902762249
 10
119.8690256869
 20
119.8947193939
 10
119.8854924641
 20
119.8988164583
 10
119.90250793
 20
119.9025582226
 10
119.9201306662
 20
119.9058541185
 10
119.9383651556
 20
119.908717222
 10
119.9572069152
 20
119.911134457
 10
119.9767010772
 20
119.9129760264
 10
119.9968626857
 20
119.9141986646
 10
120.0176766965
 20
119.9148456371
 10
120.0391431098
 20
119.9149169441
  0
LWPOLYLINE
  5
359
100
AcDbEntity
  8
RACCORDO
100
AcDbPolyline
 62
250
  6
CONTINUOUS
 90
49
 70
0
 10
119.5637359969
 20
90.5732685128
 10
119.5640838507
 20
90.5854481871
 10
119.5649092652
 20
90.5973256629
 10
119.5662122405
 20
90.6089009401
 10
119.5680173697
 20
90.6201546687
 10
119.5703000597
 20
90.6311061987
 10
119.5729865306
 20
90.6418135804
 10
119.5760673627
 20
90.6522849092
 10
119.5795519758
 20
90.6625120896
 10
119.5833948493
 20
90.6725288851
 10
119.5875916234
 20
90.6823412903
 10
119.5921466579
 20
90.6919433106
 10
119.5970275118
 20
90.7013507252
 10
119.6022282517
 20
90.7105622787
 10
119.607754811
 20
90.7195792265
 10
119.6135925485
 20
90.7284211141
 10
119.6197286044
 20
90.737081145
 10
119.6261758386
 20
90.7455661157
 10
119.6329581893
 20
90.7539159618
 10
119.6400711936
 20
90.7621375238
 10
119.6475193143
 20
90.7702239612
 10
119.6553398782
 20
90.7781946878
 10
119.6635337327
 20
90.7860585189
 10
119.6721000302
 20
90.7938066392
 10
119.6810735556
 20
90.8014320175
 10
119.6904574559
 20
90.8089416304
 10
119.700248584
 20
90.8163285012
 10
119.7104722833
 20
90.8235646687
 10
119.7211290444
 20
90.8306533043
 10
119.7322183767
 20
90.8375912365
 10
119.7437641517
 20
90.8443409889
 10
119.7557673986
 20
90.8509058401
 10
119.7682270883
 20
90.8572825116
 10
119.7811640054
 20
90.8634236915
 10
119.7945785287
 20
90.8693325511
 10
119.8084702794
 20
90.8750059191
 10
119.8228589058
 20
90.8803869699
 10
119.8377336862
 20
90.885477756
 10
119.8531053422
 20
90.8902762249
 10
119.8690256869
 20
90.8947193939
 10
119.8854924641
 20
90.8988164583
 10
119.90250793
 20
90.9025582226
 10
119.9201306662
 20
90.9058541185
 10
119.9383651556
 20
90.908717222
 10
119.9572069152
 20
90.911134457
 10
119.9767010772
 20
90.9129760264
 10
119.9968626857
 20
90.9141986646
 10
120.0176766965
 20
90.9148456371
 10
120.0391431098
 20
90.9149169441
  0
LINE
  5
35A
100
AcDbEntity
  8
0
100
AcDbLine
 62
250
  6
CONTINUOUS
 10
119.8567542763
 20
124.8505779567
 11
119.8554203507
 21
124.8023866882
  0
LINE
  5
35B
100
AcDbEntity
  8
0
100
AcDbLine
 62
250
  6
CONTINUOUS
 10
119.8554203507
 20
124.8023866882
 11
119.8537338975
 21
124.7506740014
  0
LWPOLYLINE
  5
35C
100
AcDbEntity
  8
RACCORDO
100
AcDbPolyline
 62
250
  6
CONTINUOUS
 90
16
 70
0
 10
119.4332517076
 20
116.4935486091
 10
119.4339326969
 20
116.510384694
 10
119.436032808
 20
116.5269860298
 10
119.4395520411
 20
116.5433526167
 10
119.4444673577
 20
116.5595731821
 10
119.4508017962
 20
116.5755589985
 10
119.4586244716
 20
116.5910438829
 10
119.4680507981
 20
116.6061412164
 10
119.4789653614
 20
116.620737618
 10
119.4910910332
 20
116.6342267618
 10
119.5046034444
 20
116.6465533092
 10
119.519326964
 20
116.6577725988
 10
119.5344575714
 20
116.6674443211
 10
119.5497272594
 20
116.6754217062
 10
119.5654040352
 20
116.6818515239
 10
119.5814878986
 20
116.6867337744
  0
LWPOLYLINE
  5
35D
100
AcDbEntity
  8
RACCORDO
100
AcDbPolyline
 62
250
  6
CONTINUOUS
 90
49
 70
0
 10
119.6806085203
 20
119.5732685128
 10
119.6808387482
 20
119.5784790078
 10
119.6815523258
 20
119.5835646536
 10
119.6827493617
 20
119.5885201269
 10
119.6844548215
 20
119.5933287567
 10
119.6866440041
 20
119.5979988754
 10
119.6892424658
 20
119.60256322
 10
119.6922410024
 20
119.6070226282
 10
119.6956489769
 20
119.6113701747
 10
119.6994196939
 20
119.6156265848
 10
119.7035485246
 20
119.6197922344
 10
119.7080402011
 20
119.6238617384
 10
119.7128620043
 20
119.6278466915
 10
119.7180080682
 20
119.6317442483
 10
119.7234843366
 20
119.6355529486
 10
119.7292757501
 20
119.6392857979
 10
119.7353693663
 20
119.6429369968
 10
119.7417781649
 20
119.6465079983
 10
119.7485258833
 20
119.650021134
 10
119.755607861
 20
119.6534746769
 10
119.7630286865
 20
119.6568639364
 10
119.7708258676
 20
119.6602045145
 10
119.7790000345
 20
119.6634942298
 10
119.7875503945
 20
119.666726347
 10
119.7965122402
 20
119.6699075416
 10
119.8058885292
 20
119.6730338638
 10
119.815676083
 20
119.6760979895
 10
119.8259009382
 20
119.6790999152
 10
119.8365634105
 20
119.6820331709
 10
119.8476629352
 20
119.6848909768
 10
119.8592241902
 20
119.6876714425
 10
119.8712480212
 20
119.6903668438
 10
119.8837333071
 20
119.6929693562
 10
119.8967017393
 20
119.6954753479
 10
119.9101534995
 20
119.6978755223
 10
119.92408811
 20
119.7001610766
 10
119.9385262328
 20
119.7023271781
 10
119.9534568513
 20
119.7043615403
 10
119.9688906717
 20
119.7062554687
 10
119.9848808625
 20
119.7080058836
 10
120.0014248028
 20
119.70959857
 10
120.0185247251
 20
119.7110203667
 10
120.0362409581
 20
119.7122637032
 10
120.0545775684
 20
119.7133104342
 10
120.0735300204
 20
119.7141427763
 10
120.093145602
 20
119.714745875
 10
120.1134398635
 20
119.7150974822
 10
120.1343967153
 20
119.7151725361
 10
120.156015939
 20
119.7149473997
  0
LWPOLYLINE
  5
35E
100
AcDbEntity
  8
RACCORDO
100
AcDbPolyline
 62
250
  6
CONTINUOUS
 90
8
 70
0
 10
119.6789632942
 20
125.4821798731
 10
119.6776543301
 20
125.4655320364
 10
119.6754008837
 20
125.4467146481
 10
119.6722394169
 20
125.4260327824
 10
119.668221147
 20
125.4038217027
 10
119.6634112394
 20
125.3804414573
 10
119.6578877537
 20
125.3562710489
 10
119.6517403193
 20
125.3317022809
  0
LWPOLYLINE
  5
35F
100
AcDbEntity
  8
RACCORDO
100
AcDbPolyline
 62
7
  6
CONTINUOUS
 90
13
 70
0
 10
123.9408013226
 20
131.2524031929
 10
123.9467294759
 20
131.278961472
 10
123.9521530017
 20
131.3048746711
 10
123.9570803485
 20
131.3297041257
 10
123.9615902252
 20
131.3530057657
 10
123.9656292819
 20
131.3744599141
 10
123.9690092079
 20
131.3938432584
 10
123.9717260143
 20
131.4108090924
 10
123.9738170486
 20
131.4251362768
 10
123.9751530253
 20
131.436724046
 10
123.9757023244
 20
131.4453132891
 10
123.9755346992
 20
131.4506050873
 10
123.9746730639
 20
131.4524031929
  0
LWPOLYLINE
  5
360
100
AcDbEntity
  8
0
100
AcDbPolyline
 62
250
  6
CONTINUOUS
 90
8
 70
0
 10
121.2270223089
 20
117.5020886539
 10
121.2274175101
 20
117.5038131998
 10
121.227686619
 20
117.5089255839
 10
121.2278250346
 20
117.5173383998
 10
121.2278303904
 20
117.5289078132
 10
121.2277025949
 20
117.5434360216
 10
121.227443833
 20
117.5606746358
 10
121.2265532697
 20
117.602062864
  0
LWPOLYLINE
  5
361
100
AcDbEntity
  8
RACCORDO
100
AcDbPolyline
 62
7
  6
CONTINUOUS
 90
14
 70
0
 10
120.8734673717
 20
117.4021922875
 10
120.8710191195
 20
117.3929620774
 10
120.8691179344
 20
117.3831200695
 10
120.867754713
 20
117.3726936368
 10
120.8669897425
 20
117.3617153866
 10
120.8667349099
 20
117.350242002
 10
120.8667543375
 20
117.3383528505
 10
120.8669734005
 20
117.3260735663
 10
120.8674170271
 20
117.3135500488
 10
120.8679982011
 20
117.3010470358
 10
120.8686695147
 20
117.2886913954
 10
120.8694170231
 20
117.2765784647
 10
120.8702081157
 20
117.2649142954
 10
120.8717523075
 20
117.2435668553
  0
LWPOLYLINE
  5
362
100
AcDbEntity
  8
RACCORDO
100
AcDbPolyline
 62
7
  6
CONTINUOUS
 90
11
 70
0
 10
120.8734673717
 20
96.0026140983
 10
120.871048793
 20
96.011854937
 10
120.8691409988
 20
96.0217153357
 10
120.8677503512
 20
96.0321638448
 10
120.8669841467
 20
96.0431616488
 10
120.8667499125
 20
96.0546530253
 10
120.8667554972
 20
96.0665637338
 10
120.8669664602
 20
96.07886367
 10
120.8674369873
 20
96.0914043534
 10
120.8680066076
 20
96.1039248267
 10
120.8686665008
 20
96.1162947525
  0
LWPOLYLINE
  5
363
100
AcDbEntity
  8
0
100
AcDbPolyline
 62
250
  6
CONTINUOUS
 90
7
 70
0
 10
121.2270223089
 20
95.9027177319
 10
121.2274175193
 20
95.9009931009
 10
121.2276866303
 20
95.8958804874
 10
121.2278250419
 20
95.8874673385
 10
121.2278303891
 20
95.8758975207
 10
121.2277025815
 20
95.8613688852
 10
121.2274438059
 20
95.8441299082
  0
LWPOLYLINE
  5
364
100
AcDbEntity
  8
RACCORDO
100
AcDbPolyline
 62
7
  6
CONTINUOUS
 90
11
 70
0
 10
123.9408013226
 20
82.1524031929
 10
123.9571178493
 20
82.0749139574
 10
123.9616790466
 20
82.0516923072
 10
123.9656037657
 20
82.0303199487
 10
123.9689997957
 20
82.0110188914
 10
123.9717908626
 20
81.9940126175
 10
123.9738292123
 20
81.9796267147
 10
123.9751437622
 20
81.968177778
 10
123.9757407791
 20
81.959810828
 10
123.9755791995
 20
81.9545475504
 10
123.9746730639
 20
81.9524031929
  0
LWPOLYLINE
  5
365
100
AcDbEntity
  8
RACCORDO
100
AcDbPolyline
 62
250
  6
CONTINUOUS
 90
8
 70
0
 10
119.6789663855
 20
116.9226277312
 10
119.6776574922
 20
116.9392756744
 10
119.6754038892
 20
116.9580930744
 10
119.6722421165
 20
116.9787748681
 10
119.6682234324
 20
117.0009857915
 10
119.6634129858
 20
117.0243657857
 10
119.657888763
 20
117.0485358299
 10
119.6517403195
 20
117.073104105
  0
LWPOLYLINE
  5
366
100
AcDbEntity
  8
RACCORDO
100
AcDbPolyline
 62
7
  6
CONTINUOUS
 90
5
 70
0
 10
120.8717523075
 20
117.2435668553
 10
120.8742775928
 20
117.2111938276
 10
120.8746244722
 20
117.2064681735
 10
120.8747711429
 20
117.203479008
 10
120.8746730639
 20
117.2024031929
  0
LWPOLYLINE
  5
367
100
AcDbEntity
  8
RACCORDO
100
AcDbPolyline
 62
250
  6
CONTINUOUS
 90
13
 70
0
 10
122.7325234573
 20
83.4123616853
 10
122.7322259015
 20
83.4174515
 10
122.7314892093
 20
83.4223518765
 10
122.7303133808
 20
83.4270628147
 10
122.7287012576
 20
83.4315882874
 10
122.7266499981
 20
83.4359243219
 10
122.7241510776
 20
83.4400589998
 10
122.7212059197
 20
83.4440353271
 10
122.7178131008
 20
83.447810298
 10
122.7139598254
 20
83.4512429759
 10
122.7096418283
 20
83.4542863823
 10
122.7048633746
 20
83.4569874957
 10
122.6996244645
 20
83.4593463163
  0
LINE
  5
368
100
AcDbEntity
  8
RACCORDO
100
AcDbLine
 62
250
  6
CONTINUOUS
 10
120.0470485851
 20
130.6363376475
 11
120.0575157763
 21
130.4366117406
  0
LINE
  5
369
100
AcDbEntity
  8
0
100
AcDbLine
 62
250
  6
CONTINUOUS
 10
119.8554204419
 20
117.6024166671
 11
119.8537338975
 21
117.6541323844
  0
LINE
  5
36A
100
AcDbEntity
  8
0
100
AcDbLine
 62
250
  6
CONTINUOUS
 10
121.225219344
 20
88.650254133
 11
121.2235328909
 21
88.7019668193
  0
LINE
  5
36B
100
AcDbEntity
  8
0
100
AcDbLine
 62
250
  6
CONTINUOUS
 10
121.225219344
 20
117.650254133
 11
121.2235328909
 21
117.7019668193
  0
LINE
  5
36C
100
AcDbEntity
  8
0
100
AcDbLine
 62
250
  6
CONTINUOUS
 10
119.856754379
 20
117.5542242681
 11
119.8554204419
 21
117.6024166671
  0
LINE
  5
36D
100
AcDbEntity
  8
0
100
AcDbLine
 62
250
  6
CONTINUOUS
 10
121.2265532697
 20
88.602062864
 11
121.225219344
 21
88.650254133
  0
LINE
  5
36E
100
AcDbEntity
  8
0
100
AcDbLine
 62
250
  6
CONTINUOUS
 10
121.2265532697
 20
117.602062864
 11
121.225219344
 21
117.650254133
  0
LINE
  5
36F
100
AcDbEntity
  8
RACCORDO
100
AcDbLine
 62
250
  6
CONTINUOUS
 10
120.4270076793
 20
93.5462927931
 11
120.4277906399
 21
93.4946332922
  0
LINE
  5
370
100
AcDbEntity
  8
RACCORDO
100
AcDbLine
 62
250
  6
CONTINUOUS
 10
120.4270076793
 20
122.5462927931
 11
120.4277906399
 21
122.4946332922
  0
LWPOLYLINE
  5
371
100
AcDbEntity
  8
RACCORDO
100
AcDbPolyline
 62
250
  6
CONTINUOUS
 90
8
 70
0
 10
119.9912040331
 20
116.9656783796
 10
119.991220506
 20
116.9639212983
 10
119.992117426
 20
116.9589072191
 10
119.9938794931
 20
116.9507215985
 10
119.9964767193
 20
116.9395037181
 10
119.9998648665
 20
116.9254446336
 10
120.0039861231
 20
116.9087841932
 10
120.0141354039
 20
116.8688355047
  0
LINE
  5
372
100
AcDbEntity
  8
RACCORDO
100
AcDbLine
 62
250
  6
CONTINUOUS
 10
120.4265143639
 20
93.5945100145
 11
120.4270076793
 21
93.5462927931
  0
LINE
  5
373
100
AcDbEntity
  8
RACCORDO
100
AcDbLine
 62
250
  6
CONTINUOUS
 10
120.4265143639
 20
122.5945100145
 11
120.4270076793
 21
122.5462927931
  0
LINE
  5
374
100
AcDbEntity
  8
RACCORDO
100
AcDbLine
 62
7
  6
CONTINUOUS
 10
120.874712119
 20
96.4085126926
 11
120.8748547313
 21
96.3827337019
  0
LINE
  5
375
100
AcDbEntity
  8
RACCORDO
100
AcDbLine
 62
250
  6
CONTINUOUS
 10
120.0575157763
 20
130.4366117406
 11
120.0575157763
 21
125.6284150643
  0
LINE
  5
376
100
AcDbEntity
  8
RACCORDO
100
AcDbLine
 62
250
  6
CONTINUOUS
 10
120.0575157763
 20
87.7763913216
 11
120.0575157763
 21
82.9681946453
  0
LINE
  5
377
100
AcDbEntity
  8
ASSI
100
AcDbLine
 62
7
  6
CONTINUOUS
 10
120.1746730639
 20
131.3024031929
 11
120.1746730639
 21
130.643026163
  0
LINE
  5
378
100
AcDbEntity
  8
ASSI
100
AcDbLine
 62
7
  6
CONTINUOUS
 10
120.1746730639
 20
82.1024031929
 11
120.1746730639
 21
82.7617802228
  0
LINE
  5
379
100
AcDbEntity
  8
RACCORDO
100
AcDbLine
 62
250
  6
CONTINUOUS
 10
120.3109181166
 20
90.9101730937
 11
120.3109181166
 21
93.4946332922
  0
LINE
  5
37A
100
AcDbEntity
  8
RACCORDO
100
AcDbLine
 62
250
  6
CONTINUOUS
 10
120.3109181166
 20
119.9101730937
 11
120.3109181166
 21
122.4946332922
  0
LINE
  5
37B
100
AcDbEntity
  8
RACCORDO
100
AcDbLine
 62
250
  6
CONTINUOUS
 10
120.4277906399
 20
90.9101730937
 11
120.4277906399
 21
93.4946332922
  0
LINE
  5
37C
100
AcDbEntity
  8
RACCORDO
100
AcDbLine
 62
250
  6
CONTINUOUS
 10
120.4277906399
 20
119.9101730937
 11
120.4277906399
 21
122.4946332922
  0
LINE
  5
37D
100
AcDbEntity
  8
0
100
AcDbLine
 62
7
  6
CONTINUOUS
 10
120.8339439931
 20
122.6120141916
 11
120.8339439931
 21
119.7927921942
  0
LINE
  5
37E
100
AcDbEntity
  8
0
100
AcDbLine
 62
7
  6
CONTINUOUS
 10
120.8339439931
 20
90.7927921942
 11
120.8339439931
 21
93.6120141916
  0
LINE
  5
37F
100
AcDbEntity
  8
RACCORDO
100
AcDbLine
 62
7
  6
CONTINUOUS
 10
120.8746730639
 20
117.4897843472
 11
120.8746730639
 21
117.4085231574
  0
LINE
  5
380
100
AcDbEntity
  8
RACCORDO
100
AcDbLine
 62
7
  6
CONTINUOUS
 10
120.8746730639
 20
95.9962832285
 11
120.8746730639
 21
95.9150220387
  0
LINE
  5
381
100
AcDbEntity
  8
RACCORDO
100
AcDbLine
 62
7
  6
CONTINUOUS
 10
120.8746730639
 20
82.7250947773
 11
120.8746730639
 21
88.4897843472
  0
LINE
  5
382
100
AcDbEntity
  8
RACCORDO
100
AcDbLine
 62
7
  6
CONTINUOUS
 10
120.8746730639
 20
96.4085231574
 11
120.8746730639
 21
116.9962832285
  0
LINE
  5
383
100
AcDbEntity
  8
RACCORDO
100
AcDbLine
 62
7
  6
CONTINUOUS
 10
120.8746730639
 20
124.9150220387
 11
120.8746730639
 21
130.6797116085
  0
LINE
  5
384
100
AcDbEntity
  8
RACCORDO
100
AcDbLine
 62
7
  6
CONTINUOUS
 10
120.8746730639
 20
117.0023116521
 11
120.8746730639
 21
117.2024031929
  0
LINE
  5
385
100
AcDbEntity
  8
RACCORDO
100
AcDbLine
 62
7
  6
CONTINUOUS
 10
120.8748547313
 20
96.3827337019
 11
120.8749345931
 21
96.2758257195
  0
LINE
  5
386
100
AcDbEntity
  8
RACCORDO
100
AcDbLine
 62
7
  6
CONTINUOUS
 10
120.874670637
 20
96.2129673196
 11
120.8746624052
 21
96.2069985883
  0
LWPOLYLINE
  5
387
100
AcDbEntity
  8
RACCORDO
100
AcDbPolyline
 62
7
  6
CONTINUOUS
 90
3
 70
0
 10
120.8749345931
 20
96.2758257195
 10
120.8748157764
 20
96.2318670777
 10
120.874670637
 20
96.2129673196
  0
LINE
  5
388
100
AcDbEntity
  8
RACCORDO
100
AcDbLine
 62
250
  6
CONTINUOUS
 10
120.4263455871
 20
119.7688400785
 11
120.4265143676
 21
119.810296865
  0
LINE
  5
389
100
AcDbEntity
  8
RACCORDO
100
AcDbLine
 62
250
  6
CONTINUOUS
 10
120.4263455871
 20
90.7688400785
 11
120.4265143676
 21
90.810296865
  0
LINE
  5
38A
100
AcDbEntity
  8
RACCORDO
100
AcDbLine
 62
250
  6
CONTINUOUS
 10
120.4265143676
 20
119.810296865
 11
120.4270076837
 21
119.8585139305
  0
LINE
  5
38B
100
AcDbEntity
  8
RACCORDO
100
AcDbLine
 62
250
  6
CONTINUOUS
 10
120.4265143676
 20
90.810296865
 11
120.4270076837
 21
90.8585139305
  0
LINE
  5
38C
100
AcDbEntity
  8
RACCORDO
100
AcDbLine
 62
250
  6
CONTINUOUS
 10
120.4270076837
 20
119.8585139305
 11
120.4277906399
 21
119.9101730937
  0
LINE
  5
38D
100
AcDbEntity
  8
RACCORDO
100
AcDbLine
 62
250
  6
CONTINUOUS
 10
120.4270076837
 20
90.8585139305
 11
120.4277906399
 21
90.9101730937
  0
LWPOLYLINE
  5
38E
100
AcDbEntity
  8
RACCORDO
100
AcDbPolyline
 62
7
  6
CONTINUOUS
 90
4
 70
0
 10
120.8745510558
 20
96.2036593802
 10
120.8745691324
 20
96.2045672347
 10
120.8746079386
 20
96.2056867144
 10
120.8746624052
 20
96.2069985883
  0
LINE
  5
38F
100
AcDbEntity
  8
0
100
AcDbLine
 62
250
  6
CONTINUOUS
 10
119.8576448396
 20
95.8919661841
 11
119.8567542763
 21
95.8505779567
  0
LINE
  5
390
100
AcDbEntity
  8
0
100
AcDbLine
 62
250
  6
CONTINUOUS
 10
121.2274438059
 20
124.8441299082
 11
121.2265532209
 21
124.8027413663
  0
LINE
  5
391
100
AcDbEntity
  8
0
100
AcDbLine
 62
250
  6
CONTINUOUS
 10
121.2274438059
 20
95.8441299082
 11
121.2265532209
 21
95.8027413663
  0
LWPOLYLINE
  5
392
100
AcDbEntity
  8
RACCORDO
100
AcDbPolyline
 62
7
  6
CONTINUOUS
 90
7
 70
0
 10
122.1746730639
 20
127.9966163842
 10
122.174519982
 20
127.9906139013
 10
122.1740662261
 20
127.9847124986
 10
122.1733204104
 20
127.9789121761
 10
122.1722916131
 20
127.9732129336
 10
122.1709893253
 20
127.9676147713
 10
122.1694234009
 20
127.9621176891
  0
LINE
  5
393
100
AcDbEntity
  8
0
100
AcDbLine
 62
250
  6
CONTINUOUS
 10
119.8567542763
 20
95.8505779567
 11
119.8554203507
 21
95.8023866882
  0
LINE
  5
394
100
AcDbEntity
  8
0
100
AcDbLine
 62
250
  6
CONTINUOUS
 10
121.2265532209
 20
124.8027413663
 11
121.2252192994
 21
124.754550674
  0
LINE
  5
395
100
AcDbEntity
  8
0
100
AcDbLine
 62
250
  6
CONTINUOUS
 10
121.2265532209
 20
95.8027413663
 11
121.2252192994
 21
95.754550674
  0
LINE
  5
396
100
AcDbEntity
  8
0
100
AcDbLine
 62
250
  6
CONTINUOUS
 10
119.8554203507
 20
95.8023866882
 11
119.8537338975
 21
95.7506740014
  0
LINE
  5
397
100
AcDbEntity
  8
0
100
AcDbLine
 62
250
  6
CONTINUOUS
 10
121.2252192994
 20
124.754550674
 11
121.2235328909
 21
124.7028395665
  0
LINE
  5
398
100
AcDbEntity
  8
0
100
AcDbLine
 62
250
  6
CONTINUOUS
 10
121.2252192994
 20
95.754550674
 11
121.2235328909
 21
95.7028395665
  0
LWPOLYLINE
  5
399
100
AcDbEntity
  8
RACCORDO
100
AcDbPolyline
 62
250
  6
CONTINUOUS
 90
16
 70
0
 10
119.4332517076
 20
87.4935486091
 10
119.4339421173
 20
87.5106198397
 10
119.4361050523
 20
87.5274636233
 10
119.4397405126
 20
87.5440799599
 10
119.444822881
 20
87.5605690916
 10
119.4513777748
 20
87.5768307763
 10
119.4594820455
 20
87.5925642873
 10
119.4693025055
 20
87.6079069963
 10
119.4806723425
 20
87.6227215316
 10
119.493167971
 20
87.6362950512
 10
119.5069981331
 20
87.6485201405
 10
119.5219540867
 20
87.659504214
 10
119.5369860211
 20
87.668856674
 10
119.5517439995
 20
87.676447321
 10
119.5665779586
 20
87.6824063545
 10
119.5814878986
 20
87.6867337744
  0
LWPOLYLINE
  5
39A
100
AcDbEntity
  8
RACCORDO
100
AcDbPolyline
 62
250
  6
CONTINUOUS
 90
49
 70
0
 10
119.6806085203
 20
90.5732685128
 10
119.6808387482
 20
90.5784790078
 10
119.6815523258
 20
90.5835646536
 10
119.6827493617
 20
90.5885201269
 10
119.6844548215
 20
90.5933287567
 10
119.6866440041
 20
90.5979988754
 10
119.6892424658
 20
90.60256322
 10
119.6922410024
 20
90.6070226282
 10
119.6956489769
 20
90.6113701747
 10
119.6994196939
 20
90.6156265848
 10
119.7035485246
 20
90.6197922344
 10
119.7080402011
 20
90.6238617384
 10
119.7128620043
 20
90.6278466915
 10
119.7180080682
 20
90.6317442483
 10
119.7234843366
 20
90.6355529486
 10
119.7292757501
 20
90.6392857979
 10
119.7353693663
 20
90.6429369968
 10
119.7417781649
 20
90.6465079983
 10
119.7485258833
 20
90.650021134
 10
119.755607861
 20
90.6534746769
 10
119.7630286865
 20
90.6568639364
 10
119.7708258676
 20
90.6602045145
 10
119.7790000345
 20
90.6634942298
 10
119.7875503945
 20
90.666726347
 10
119.7965122402
 20
90.6699075416
 10
119.8058885292
 20
90.6730338638
 10
119.815676083
 20
90.6760979895
 10
119.8259009382
 20
90.6790999152
 10
119.8365634105
 20
90.6820331709
 10
119.8476629352
 20
90.6848909768
 10
119.8592241902
 20
90.6876714425
 10
119.8712480212
 20
90.6903668438
 10
119.8837333071
 20
90.6929693562
 10
119.8967017393
 20
90.6954753479
 10
119.9101534995
 20
90.6978755223
 10
119.92408811
 20
90.7001610766
 10
119.9385262328
 20
90.7023271781
 10
119.9534568513
 20
90.7043615403
 10
119.9688906717
 20
90.7062554687
 10
119.9848808625
 20
90.7080058836
 10
120.0014248028
 20
90.70959857
 10
120.0185247251
 20
90.7110203667
 10
120.0362409581
 20
90.7122637032
 10
120.0545775684
 20
90.7133104342
 10
120.0735300204
 20
90.7141427763
 10
120.093145602
 20
90.714745875
 10
120.1134398635
 20
90.7150974822
 10
120.1343967153
 20
90.7151725361
 10
120.156015939
 20
90.7149473997
  0
LINE
  5
39B
100
AcDbEntity
  8
RACCORDO
100
AcDbLine
 62
250
  6
CONTINUOUS
 10
120.0575157763
 20
82.9681946453
 11
120.0470485851
 21
82.7684687384
  0
LWPOLYLINE
  5
39C
100
AcDbEntity
  8
RACCORDO
100
AcDbPolyline
 62
7
  6
CONTINUOUS
 90
4
 70
0
 10
120.8686665008
 20
96.1162947525
 10
120.8702214378
 20
96.1400834305
 10
120.8710016132
 20
96.1510988877
 10
120.8731947458
 20
96.1797648829
  0
LWPOLYLINE
  5
39D
100
AcDbEntity
  8
RACCORDO
100
AcDbPolyline
 62
7
  6
CONTINUOUS
 90
6
 70
0
 10
120.8731947458
 20
96.1797648829
 10
120.8738163658
 20
96.1873894187
 10
120.8742817407
 20
96.1936690543
 10
120.8745586511
 20
96.1983953688
 10
120.8746885368
 20
96.2013721511
 10
120.8746730639
 20
96.2024031929
  0
LWPOLYLINE
  5
39E
100
AcDbEntity
  8
RACCORDO
100
AcDbPolyline
 62
250
  6
CONTINUOUS
 90
13
 70
0
 10
126.2154750207
 20
130.2015286084
 10
126.2217094407
 20
130.2266358331
 10
126.2276627495
 20
130.2513205073
 10
126.2332347364
 20
130.2751671257
 10
126.238331609
 20
130.2977742875
 10
126.2428675694
 20
130.3187614434
 10
126.2467662598
 20
130.3377753038
 10
126.2499620508
 20
130.3544958034
 10
126.2524011439
 20
130.3686414738
 10
126.2540424765
 20
130.3799741799
 10
126.2548584171
 20
130.3883031473
 10
126.2548352285
 20
130.3934881667
 10
126.2539732978
 20
130.395441947
  0
LWPOLYLINE
  5
39F
100
AcDbEntity
  8
RACCORDO
100
AcDbPolyline
 62
250
  6
CONTINUOUS
 90
13
 70
0
 10
122.7325234573
 20
82.9074094967
 10
122.7327977563
 20
82.8877672262
 10
122.7329321083
 20
82.8684584499
 10
122.7329240892
 20
82.8498163562
 10
122.7327737037
 20
82.8321611683
 10
122.7324834318
 20
82.8158005549
 10
122.7320583429
 20
82.8010227246
 10
122.7315046104
 20
82.7880591357
 10
122.7308325559
 20
82.7771643981
 10
122.7300589507
 20
82.7685727995
 10
122.7292007627
 20
82.7623984552
 10
122.7282725174
 20
82.7586798857
 10
122.7272909248
 20
82.7574323424
  0
LINE
  5
3A0
100
AcDbEntity
  8
RACCORDO
100
AcDbLine
 62
250
  6
CONTINUOUS
 10
122.0325234573
 20
127.9621176945
 11
122.0330332687
 21
127.9252087455
  0
LWPOLYLINE
  5
3A1
100
AcDbEntity
  8
RACCORDO
100
AcDbPolyline
 62
250
  6
CONTINUOUS
 90
5
 70
0
 10
122.0332505834
 20
85.5321519056
 10
122.0331787211
 20
85.5483115762
 10
122.0330345382
 20
85.5635938156
 10
122.0328168235
 20
85.5778499195
 10
122.0325234573
 20
85.5909518642
  0
LWPOLYLINE
  5
3A2
100
AcDbEntity
  8
RACCORDO
100
AcDbPolyline
 62
250
  6
CONTINUOUS
 90
7
 70
0
 10
122.0330332687
 20
127.9252087455
 10
122.0332494582
 20
127.8896203097
 10
122.0332507702
 20
127.8727045299
 10
122.0331796803
 20
127.856532982
 10
122.0330355034
 20
127.8412388214
 10
122.0328174552
 20
127.8269697099
 10
122.0325234573
 20
127.8138545216
  0
LINE
  5
3A3
100
AcDbEntity
  8
RACCORDO
100
AcDbLine
 62
250
  6
CONTINUOUS
 10
122.0325234573
 20
129.4575816097
 11
122.0325234573
 21
127.9621176945
  0
LINE
  5
3A4
100
AcDbEntity
  8
RACCORDO
100
AcDbLine
 62
250
  6
CONTINUOUS
 10
122.0325234573
 20
83.9472238646
 11
122.0325234573
 21
85.4426886914
  0
LINE
  5
3A5
100
AcDbEntity
  8
RACCORDO
100
AcDbLine
 62
7
  6
CONTINUOUS
 10
122.1746730639
 20
129.4575825213
 11
122.1746730639
 21
127.9966163842
  0
LINE
  5
3A6
100
AcDbEntity
  8
RACCORDO
100
AcDbLine
 62
7
  6
CONTINUOUS
 10
122.1746730639
 20
83.9472238646
 11
122.1746730639
 21
85.4081900017
  0
LINE
  5
3A7
100
AcDbEntity
  8
0
100
AcDbLine
 62
250
  6
CONTINUOUS
 10
122.4781635451
 20
123.4036314914
 11
122.4781635451
 21
119.0011748945
  0
LINE
  5
3A8
100
AcDbEntity
  8
0
100
AcDbLine
 62
250
  6
CONTINUOUS
 10
122.4781635451
 20
94.4036314914
 11
122.4781635451
 21
90.0011748945
  0
LINE
  5
3A9
100
AcDbEntity
  8
0
100
AcDbLine
 62
7
  6
CONTINUOUS
 10
122.6746730639
 20
123.4036314914
 11
122.6746730639
 21
119.0011748945
  0
LINE
  5
3AA
100
AcDbEntity
  8
0
100
AcDbLine
 62
7
  6
CONTINUOUS
 10
122.6746730639
 20
94.4036314914
 11
122.6746730639
 21
90.0011748945
  0
LINE
  5
3AB
100
AcDbEntity
  8
RACCORDO
100
AcDbLine
 62
250
  6
CONTINUOUS
 10
122.7325234573
 20
130.4973968892
 11
122.7325234573
 21
129.9924447006
  0
LINE
  5
3AC
100
AcDbEntity
  8
RACCORDO
100
AcDbLine
 62
250
  6
CONTINUOUS
 10
122.7325234573
 20
82.9074094967
 11
122.7325234573
 21
83.4123616853
  0
LINE
  5
3AD
100
AcDbEntity
  8
RACCORDO
100
AcDbLine
 62
7
  6
CONTINUOUS
 10
122.8746730639
 20
130.4973968892
 11
122.8746730639
 21
129.9924447006
  0
LINE
  5
3AE
100
AcDbEntity
  8
RACCORDO
100
AcDbLine
 62
7
  6
CONTINUOUS
 10
122.8746730639
 20
82.9074094967
 11
122.8746730639
 21
83.4123616853
  0
LINE
  5
3AF
100
AcDbEntity
  8
RACCORDO
100
AcDbLine
 62
7
  6
CONTINUOUS
 10
123.552023333
 20
131.4524031929
 11
123.552023333
 21
129.8928769439
  0
LINE
  5
3B0
100
AcDbEntity
  8
RACCORDO
100
AcDbLine
 62
7
  6
CONTINUOUS
 10
123.552023333
 20
81.9524031929
 11
123.552023333
 21
83.511929442
  0
LINE
  5
3B1
100
AcDbEntity
  8
ASSI
100
AcDbLine
 62
7
  6
CONTINUOUS
 10
123.552023333
 20
83.511929442
 11
123.552023333
 21
84.5024031929
  0
LINE
  5
3B2
100
AcDbEntity
  8
ASSI
100
AcDbLine
 62
7
  6
CONTINUOUS
 10
123.552023333
 20
128.9024031929
 11
123.552023333
 21
129.8928769439
  0
LINE
  5
3B3
100
AcDbEntity
  8
RACCORDO
100
AcDbLine
 62
250
  6
CONTINUOUS
 10
122.0331785555
 20
85.4976993492
 11
122.0332505834
 21
85.5321519056
  0
LWPOLYLINE
  5
3B4
100
AcDbEntity
  8
RACCORDO
100
AcDbPolyline
 62
250
  6
CONTINUOUS
 90
3
 70
0
 10
122.0325234573
 20
85.4426886914
 10
122.0328169707
 20
85.4612583024
 10
122.0331785555
 20
85.4976993492
  0
LWPOLYLINE
  5
3B5
100
AcDbEntity
  8
RACCORDO
100
AcDbPolyline
 62
250
  6
CONTINUOUS
 90
25
 70
0
 10
122.7325234573
 20
129.9924447006
 10
122.7324755578
 20
129.9903071566
 10
122.7323404468
 20
129.9881892698
 10
122.7321181243
 20
129.9860910401
 10
122.7318111671
 20
129.98401983
 10
122.7314169983
 20
129.9819682771
 10
122.730927888
 20
129.9799142939
 10
122.730346373
 20
129.9778510269
 10
122.7296699164
 20
129.9757853296
 10
122.7288831772
 20
129.9737156757
 10
122.727988141
 20
129.9716389487
 10
122.7269828222
 20
129.9695582651
 10
122.7258459223
 20
129.9674814471
 10
122.7245788617
 20
129.9654045122
 10
122.7231802201
 20
129.9633314429
 10
122.7216244381
 20
129.9612820098
 10
122.7199114475
 20
129.9592505992
 10
122.7180413166
 20
129.9572428248
 10
122.7159886917
 20
129.9552952983
 10
122.7137512473
 20
129.9534012791
 10
122.7113313088
 20
129.9515675078
 10
122.7087104991
 20
129.9498508179
 10
122.7058826922
 20
129.9482701538
 10
122.702854014
 20
129.946806571
 10
122.6996244645
 20
129.9454600695
  0
LWPOLYLINE
  5
3B6
100
AcDbEntity
  8
0
100
AcDbPolyline
 62
250
  6
CONTINUOUS
 90
22
 70
0
 10
122.4781635451
 20
119.0011748945
 10
122.4739619646
 20
118.9016450598
 10
122.4629230426
 20
118.8044586002
 10
122.4450467792
 20
118.7096155158
 10
122.4201872008
 20
118.6169155276
 10
122.388490281
 20
118.5265589145
 10
122.3503939399
 20
118.439146513
 10
122.3057342636
 20
118.3543786203
 10
122.254675166
 20
118.2725549392
 10
122.198146309
 20
118.1951754146
 10
122.135587076
 20
118.1221395729
 10
122.0675580835
 20
118.0535478876
 10
121.9966708431
 20
117.9912017249
 10
121.9238210803
 20
117.9359267172
 10
121.8481130695
 20
117.8868972321
 10
121.7694711447
 20
117.8434377383
 10
121.6883264983
 20
117.8051872332
 10
121.6042479379
 20
117.7725067194
 10
121.5158662212
 20
117.7458036734
 10
121.4227249341
 20
117.7252139209
 10
121.3252804906
 20
117.7106016362
 10
121.2235328909
 20
117.7019668193
  0
LWPOLYLINE
  5
3B7
100
AcDbEntity
  8
0
100
AcDbPolyline
 62
250
  6
CONTINUOUS
 90
22
 70
0
 10
122.4781635451
 20
90.0011748945
 10
122.4739619646
 20
89.9016450598
 10
122.4629230426
 20
89.8044586002
 10
122.4450467792
 20
89.7096155158
 10
122.4201872008
 20
89.6169155276
 10
122.388490281
 20
89.5265589145
 10
122.3503939399
 20
89.439146513
 10
122.3057342636
 20
89.3543786203
 10
122.254675166
 20
89.2725549392
 10
122.198146309
 20
89.1951754146
 10
122.135587076
 20
89.1221395729
 10
122.0675580835
 20
89.0535478876
 10
121.9966708431
 20
88.9912017249
 10
121.9238210803
 20
88.9359267172
 10
121.8481130695
 20
88.8868972321
 10
121.7694711447
 20
88.8434377383
 10
121.6883264983
 20
88.8051872332
 10
121.6042479379
 20
88.7725067194
 10
121.5158662212
 20
88.7458036734
 10
121.4227249341
 20
88.7252139209
 10
121.3252804906
 20
88.7106016362
 10
121.2235328909
 20
88.7019668193
  0
LWPOLYLINE
  5
3B8
100
AcDbEntity
  8
RACCORDO
100
AcDbPolyline
 62
250
  6
CONTINUOUS
 90
13
 70
0
 10
119.4075851589
 20
87.7500817347
 10
119.4033323935
 20
87.7282719657
 10
119.3992423144
 20
87.7064562328
 10
119.3953779454
 20
87.6850724828
 10
119.3918290992
 20
87.6644548324
 10
119.3885517113
 20
87.644259328
 10
119.3854531147
 20
87.6238857185
 10
119.3826359373
 20
87.6033599847
 10
119.3801520164
 20
87.5827203107
 10
119.3779737112
 20
87.5614193441
 10
119.3762247494
 20
87.5393332812
 10
119.3750821298
 20
87.5167447639
 10
119.3746753823
 20
87.4937389376
  0
LWPOLYLINE
  5
3B9
100
AcDbEntity
  8
RACCORDO
100
AcDbPolyline
 62
250
  6
CONTINUOUS
 90
3
 70
0
 10
119.4207556765
 20
87.8145978183
 10
119.4162923158
 20
87.7931811305
 10
119.4075851589
 20
87.7500817347
  0
LINE
  5
3BA
100
AcDbEntity
  8
RACCORDO
100
AcDbLine
 62
250
  6
CONTINUOUS
 10
119.4343999341
 20
87.8780341232
 11
119.4207556765
 21
87.8145978183
  0
LWPOLYLINE
  5
3BB
100
AcDbEntity
  8
RACCORDO
100
AcDbPolyline
 62
250
  6
CONTINUOUS
 90
7
 70
0
 10
119.7161007788
 20
96.4525269224
 10
119.7202219502
 20
96.4691871055
 10
119.7236098314
 20
96.4832451907
 10
119.7262067871
 20
96.4944620195
 10
119.7279686376
 20
96.5026467696
 10
119.7288654098
 20
96.5076602009
 10
119.728881848
 20
96.5094170239
  0
LWPOLYLINE
  5
3BC
100
AcDbEntity
  8
RACCORDO
100
AcDbPolyline
 62
250
  6
CONTINUOUS
 90
7
 70
0
 10
120.0039864503
 20
96.4960235023
 10
119.9998650273
 20
96.4793624102
 10
119.9964767762
 20
96.4653029079
 10
119.993879499
 20
96.4540848139
 10
119.9921174184
 20
96.4458991289
 10
119.991220503
 20
96.440885065
 10
119.9912040331
 20
96.4391280063
  0
LWPOLYLINE
  5
3BD
100
AcDbEntity
  8
RACCORDO
100
AcDbPolyline
 62
250
  6
CONTINUOUS
 90
8
 70
0
 10
120.4277906399
 20
93.6946028312
 10
120.4273649298
 20
93.6928831455
 10
120.4270062741
 20
93.6877696327
 10
120.4267208065
 20
93.6793501242
 10
120.4265134127
 20
93.6677694742
 10
120.4263876243
 20
93.6532259317
 10
120.4263455871
 20
93.6359667602
 10
120.4265143639
 20
93.5945100145
  0
LWPOLYLINE
  5
3BE
100
AcDbEntity
  8
RACCORDO
100
AcDbPolyline
 62
250
  6
CONTINUOUS
 90
10
 70
0
 10
119.6517403192
 20
96.331702281
 10
119.6578888318
 20
96.3562708361
 10
119.6634130993
 20
96.3804411067
 10
119.6682235671
 20
96.4038212655
 10
119.6722422521
 20
96.4260322938
 10
119.6754040071
 20
96.4467141263
 10
119.6776575767
 20
96.4655314881
 10
119.6789664278
 20
96.4821793287
 10
119.6793093425
 20
96.4963877678
 10
119.6787483397
 20
96.5066859578
  0
LINE
  5
3BF
100
AcDbEntity
  8
RACCORDO
100
AcDbLine
 62
250
  6
CONTINUOUS
 10
119.7059502869
 20
96.4125734101
 11
119.7161007788
 21
96.4525269224
  0
LINE
  5
3C0
100
AcDbEntity
  8
RACCORDO
100
AcDbLine
 62
250
  6
CONTINUOUS
 10
120.0141364383
 20
96.5359748985
 11
120.0039864503
 21
96.4960235023
  0
LINE
  5
3C1
100
AcDbEntity
  8
RACCORDO
100
AcDbLine
 62
250
  6
CONTINUOUS
 10
119.6938461451
 20
96.3660918716
 11
119.7059502869
 21
96.4125734101
  0
LINE
  5
3C2
100
AcDbEntity
  8
RACCORDO
100
AcDbLine
 62
250
  6
CONTINUOUS
 10
120.0262399329
 20
96.5824539074
 11
120.0141364383
 21
96.5359748985
  0
LINE
  5
3C3
100
AcDbEntity
  8
RACCORDO
100
AcDbLine
 62
250
  6
CONTINUOUS
 10
119.6806085203
 20
96.3162318587
 11
119.6938461451
 21
96.3660918716
  0
LINE
  5
3C4
100
AcDbEntity
  8
RACCORDO
100
AcDbLine
 62
250
  6
CONTINUOUS
 10
120.0394773608
 20
96.6323131715
 11
120.0262399329
 21
96.5824539074
  0
LWPOLYLINE
  5
3C5
100
AcDbEntity
  8
RACCORDO
100
AcDbPolyline
 62
250
  6
CONTINUOUS
 90
10
 70
0
 10
119.563735997
 20
96.4110175718
 10
119.5728017264
 20
96.4351446848
 10
119.5794455331
 20
96.458820227
 10
119.5835431472
 20
96.4816011957
 10
119.5850179394
 20
96.5030613724
 10
119.5838423524
 20
96.5227991987
 10
119.5800384533
 20
96.5404453146
 10
119.5736775008
 20
96.5556695954
 10
119.5648785702
 20
96.5681872985
 10
119.5538063493
 20
96.577764307
  0
LINE
  5
3C6
100
AcDbEntity
  8
RACCORDO
100
AcDbLine
 62
250
  6
CONTINUOUS
 10
119.6938461451
 20
117.0387145143
 11
119.6806085203
 21
117.0885745272
  0
LINE
  5
3C7
100
AcDbEntity
  8
RACCORDO
100
AcDbLine
 62
250
  6
CONTINUOUS
 10
120.0262388171
 20
116.8223567204
 11
120.0394773608
 21
116.7724932143
  0
LINE
  5
3C8
100
AcDbEntity
  8
RACCORDO
100
AcDbLine
 62
250
  6
CONTINUOUS
 10
119.7059502869
 20
116.9922329758
 11
119.6938461451
 21
117.0387145143
  0
LINE
  5
3C9
100
AcDbEntity
  8
RACCORDO
100
AcDbLine
 62
250
  6
CONTINUOUS
 10
120.0141354039
 20
116.8688355047
 11
120.0262388171
 21
116.8223567204
  0
LWPOLYLINE
  5
3CA
100
AcDbEntity
  8
RACCORDO
100
AcDbPolyline
 62
250
  6
CONTINUOUS
 90
7
 70
0
 10
120.4277906399
 20
119.7102035547
 10
120.4273649282
 20
119.7119232541
 10
120.4270062715
 20
119.7170368077
 10
120.4267208035
 20
119.7254563831
 10
120.4265134098
 20
119.7370371329
 10
120.4263876225
 20
119.7515808004
 10
120.4263455871
 20
119.7688400785
  0
LINE
  5
3CB
100
AcDbEntity
  8
RACCORDO
100
AcDbLine
 62
250
  6
CONTINUOUS
 10
119.4264093104
 20
125.563546172
 11
119.434399422
 21
125.5267805008
  0
LINE
  5
3CC
100
AcDbEntity
  8
RACCORDO
100
AcDbLine
 62
250
  6
CONTINUOUS
 10
119.4189433408
 20
125.598850211
 11
119.4264093104
 21
125.563546172
  0
LINE
  5
3CD
100
AcDbEntity
  8
RACCORDO
100
AcDbLine
 62
250
  6
CONTINUOUS
 10
119.4120041133
 20
125.6326060476
 11
119.4189433408
 21
125.598850211
  0
LWPOLYLINE
  5
3CE
100
AcDbEntity
  8
RACCORDO
100
AcDbPolyline
 62
250
  6
CONTINUOUS
 90
19
 70
0
 10
124.6851389051
 20
117.2024310471
 10
124.6860483127
 20
117.1845158521
 10
124.6868438928
 20
117.1667565982
 10
124.6875319677
 20
117.1492941291
 10
124.6881240148
 20
117.1322237625
 10
124.6886193805
 20
117.1157267522
 10
124.6890024439
 20
117.100053262
 10
124.6892606962
 20
117.0852954197
 10
124.6894065945
 20
117.0715626559
 10
124.6894543568
 20
117.0590686917
 10
124.6893969935
 20
117.0479687816
 10
124.689226598
 20
117.0381346828
 10
124.6889582929
 20
117.0293748534
 10
124.6886087438
 20
117.0217780066
 10
124.6881584123
 20
117.0153810679
 10
124.6875828079
 20
117.0100979442
 10
124.6868810316
 20
117.0060738678
 10
124.6860656443
 20
117.0035504013
 10
124.6851391259
 20
117.0027051286
  0
LINE
  5
3CF
100
AcDbEntity
  8
RACCORDO
100
AcDbLine
 62
250
  6
CONTINUOUS
 10
124.6781635451
 20
96.6018272234
 11
124.680751488
 21
96.5501638095
  0
LINE
  5
3D0
100
AcDbEntity
  8
RACCORDO
100
AcDbLine
 62
250
  6
CONTINUOUS
 10
124.680751488
 20
96.5501638095
 11
124.6829256777
 21
96.5020170678
  0
LWPOLYLINE
  5
3D1
100
AcDbEntity
  8
RACCORDO
100
AcDbPolyline
 62
250
  6
CONTINUOUS
 90
8
 70
0
 10
124.6829256777
 20
96.5020170678
 10
124.6845381183
 20
96.4606643097
 10
124.6850976654
 20
96.4434388826
 10
124.6854790516
 20
96.4289203707
 10
124.6856757584
 20
96.4173569193
 10
124.6856844239
 20
96.4089461553
 10
124.6855049001
 20
96.4038318189
 10
124.6851402551
 20
96.4021013165
  0
LWPOLYLINE
  5
3D2
100
AcDbEntity
  8
RACCORDO
100
AcDbPolyline
 62
250
  6
CONTINUOUS
 90
10
 70
0
 10
124.6851402551
 20
85.0811074695
 10
124.6854057337
 20
85.0715518033
 10
124.6856062613
 20
85.0629773923
 10
124.6857406244
 20
85.0554361266
 10
124.6858080099
 20
85.0489736439
 10
124.6858080099
 20
85.0436290534
 10
124.6857406245
 20
85.0394346993
 10
124.6856062614
 20
85.0364159646
 10
124.6854057338
 20
85.0345911181
 10
124.6851402551
 20
85.0339712034
  0
LWPOLYLINE
  5
3D3
100
AcDbEntity
  8
RACCORDO
100
AcDbPolyline
 62
250
  6
CONTINUOUS
 90
10
 70
0
 10
124.6851402551
 20
126.111545013
 10
124.68545091
 20
126.0988635568
 10
124.6856858317
 20
126.0853087003
 10
124.6858433693
 20
126.0709756903
 10
124.6859224158
 20
126.0559652409
 10
124.6859224159
 20
126.040382827
 10
124.6858433694
 20
126.0243379424
 10
124.6856858319
 20
126.0079433305
 10
124.6854509102
 20
125.9913141923
 10
124.6851402551
 20
125.9745673768
  0
LWPOLYLINE
  5
3D4
100
AcDbEntity
  8
RACCORDO
100
AcDbPolyline
 62
250
  6
CONTINUOUS
 90
10
 70
0
 10
124.6851402551
 20
87.430239009
 10
124.68545091
 20
87.4134922039
 10
124.6856858317
 20
87.3968630734
 10
124.6858433693
 20
87.3804684662
 10
124.6859224158
 20
87.3644235834
 10
124.6859224159
 20
87.3488411686
 10
124.6858433694
 20
87.3338307159
 10
124.6856858319
 20
87.3194977005
 10
124.6854509102
 20
87.3059428372
 10
124.6851402551
 20
87.2932613728
  0
LINE
  5
3D5
100
AcDbEntity
  8
RACCORDO
100
AcDbLine
 62
250
  6
CONTINUOUS
 10
124.6781635451
 20
116.8029791625
 11
124.6781635451
 21
96.6018272234
  0
LINE
  5
3D6
100
AcDbEntity
  8
RACCORDO
100
AcDbLine
 62
250
  6
CONTINUOUS
 10
124.6851402551
 20
128.3236989163
 11
124.6851402551
 21
126.111545013
  0
LINE
  5
3D7
100
AcDbEntity
  8
RACCORDO
100
AcDbLine
 62
250
  6
CONTINUOUS
 10
124.6851402551
 20
125.9745673769
 11
124.6851402551
 21
117.2024309764
  0
LINE
  5
3D8
100
AcDbEntity
  8
RACCORDO
100
AcDbLine
 62
250
  6
CONTINUOUS
 10
124.6851402551
 20
96.2023754095
 11
124.6851402551
 21
87.430239009
  0
LINE
  5
3D9
100
AcDbEntity
  8
RACCORDO
100
AcDbLine
 62
250
  6
CONTINUOUS
 10
124.6851402551
 20
87.2932613728
 11
124.6851402551
 21
85.0811074695
  0
LINE
  5
3DA
100
AcDbEntity
  8
RACCORDO
100
AcDbLine
 62
7
  6
CONTINUOUS
 10
124.8746730639
 20
128.1711092755
 11
124.8746730639
 21
85.2336971103
  0
LWPOLYLINE
  5
3DB
100
AcDbEntity
  8
0
100
AcDbPolyline
 62
7
  6
CONTINUOUS
 90
4
 70
0
 43
0.3500000006
 10
125.0818200989
 20
151.8717445679
 10
125.0818200989
 20
152.7288825073
 10
125.5103890686
 20
153.1574514771
 10
126.1532425232
 20
153.1574514771
  0
LINE
  5
3DC
100
AcDbEntity
  8
RACCORDO
100
AcDbLine
 62
250
  6
CONTINUOUS
 10
124.684538132
 20
116.9441424665
 11
124.6829256937
 21
116.9027896979
  0
LWPOLYLINE
  5
3DD
100
AcDbEntity
  8
RACCORDO
100
AcDbPolyline
 62
250
  6
CONTINUOUS
 90
3
 70
0
 10
124.6875828079
 20
96.2568509713
 10
124.6860656443
 20
96.221321746
 10
124.6851391259
 20
96.2023753503
  0
LINE
  5
3DE
100
AcDbEntity
  8
RACCORDO
100
AcDbLine
 62
250
  6
CONTINUOUS
 10
124.6829256937
 20
116.9027896979
 11
124.6807514991
 21
116.8546428096
  0
LINE
  5
3DF
100
AcDbEntity
  8
RACCORDO
100
AcDbLine
 62
250
  6
CONTINUOUS
 10
124.6807514991
 20
116.8546428096
 11
124.6781635451
 21
116.8029791625
  0
LWPOLYLINE
  5
3E0
100
AcDbEntity
  8
RACCORDO
100
AcDbPolyline
 62
250
  6
CONTINUOUS
 90
19
 70
0
 10
119.433273723
 20
82.9934982058
 10
119.4314517842
 20
82.9834684501
 10
119.4300371985
 20
82.9737141927
 10
119.4290027345
 20
82.964256635
 10
119.4283196514
 20
82.9551112357
 10
119.4279626867
 20
82.946294352
 10
119.4279095037
 20
82.9378232395
 10
119.4281326527
 20
82.9297433483
 10
119.4286047936
 20
82.9220209137
 10
119.4293137192
 20
82.9145548541
 10
119.4302374857
 20
82.9073836997
 10
119.4313659716
 20
82.9004776226
 10
119.4327315507
 20
82.8936476527
 10
119.4343338017
 20
82.8869077283
 10
119.436176306
 20
82.8802747591
 10
119.438329634
 20
82.8735915219
 10
119.4408348674
 20
82.86683582
 10
119.4436855783
 20
82.8601041928
 10
119.4468956281
 20
82.8534366843
  0
LWPOLYLINE
  5
3E1
100
AcDbEntity
  8
0
100
AcDbPolyline
 62
250
  6
CONTINUOUS
 90
8
 70
0
 10
119.8572233155
 20
88.454254219
 10
119.8576184998
 20
88.4559785955
 10
119.8578876061
 20
88.4610905252
 10
119.8580260311
 20
88.4695026854
 10
119.8580314058
 20
88.4810713104
 10
119.8579036359
 20
88.4955986956
 10
119.8576449015
 20
88.5128366158
 10
119.856754379
 20
88.5542242681
  0
LWPOLYLINE
  5
3E2
100
AcDbEntity
  8
0
100
AcDbPolyline
 62
250
  6
CONTINUOUS
 90
8
 70
0
 10
121.2270223089
 20
88.5020886539
 10
121.2274175101
 20
88.5038131998
 10
121.227686619
 20
88.5089255839
 10
121.2278250346
 20
88.5173383998
 10
121.2278303904
 20
88.5289078132
 10
121.2277025949
 20
88.5434360216
 10
121.227443833
 20
88.5606746358
 10
121.2265532697
 20
88.602062864
  0
LWPOLYLINE
  5
3E3
100
AcDbEntity
  8
RACCORDO
100
AcDbPolyline
 62
250
  6
CONTINUOUS
 90
13
 70
0
 10
129.5992776718
 20
129.3470774271
 10
129.6055121659
 20
129.372184954
 10
129.6114655262
 20
129.3968698545
 10
129.617037542
 20
129.4207166163
 10
129.6221344214
 20
129.4433238349
 10
129.6266703703
 20
129.4643109709
 10
129.6305690368
 20
129.4833247551
 10
129.6337647959
 20
129.5000451349
 10
129.6362038544
 20
129.514190662
 10
129.6378451567
 20
129.5255232296
 10
129.6386610751
 20
129.5338520805
 10
129.6386378757
 20
129.539037018
 10
129.6377759488
 20
129.5409907658
  0
LWPOLYLINE
  5
3E4
100
AcDbEntity
  8
0
100
AcDbPolyline
 62
250
  6
CONTINUOUS
 90
7
 70
0
 10
119.8572233155
 20
124.9505521668
 10
119.8576185167
 20
124.9488276209
 10
119.8578876256
 20
124.9437152366
 10
119.8580260412
 20
124.9353024205
 10
119.858031397
 20
124.9237330068
 10
119.8579036015
 20
124.9092047983
 10
119.8576448396
 20
124.8919661841
  0
LWPOLYLINE
  5
3E5
100
AcDbEntity
  8
0
100
AcDbPolyline
 62
250
  6
CONTINUOUS
 90
7
 70
0
 10
121.2270223089
 20
124.9027177319
 10
121.2274175193
 20
124.9009931009
 10
121.2276866303
 20
124.8958804874
 10
121.2278250419
 20
124.8874673385
 10
121.2278303891
 20
124.8758975207
 10
121.2277025815
 20
124.8613688852
 10
121.2274438059
 20
124.8441299082
  0
LWPOLYLINE
  5
3E6
100
AcDbEntity
  8
RACCORDO
100
AcDbPolyline
 62
250
  6
CONTINUOUS
 90
19
 70
0
 10
119.4332633834
 20
130.4113076382
 10
119.4317763068
 20
130.419352718
 10
119.4305402144
 20
130.4273135561
 10
119.4295487241
 20
130.4351776561
 10
119.428797389
 20
130.4428824967
 10
119.4282742249
 20
130.4504685135
 10
119.4279739117
 20
130.4580754818
 10
119.4279009044
 20
130.4657115569
 10
119.4280622082
 20
130.4733393448
 10
119.4284755696
 20
130.4810230033
 10
119.4291495968
 20
130.4887423172
 10
119.430097416
 20
130.4964758489
 10
119.4313570613
 20
130.5042760026
 10
119.4329421038
 20
130.5121067425
 10
119.4348708934
 20
130.5199408057
 10
119.4372035898
 20
130.5278273151
 10
119.4399788244
 20
130.5357452703
 10
119.4432032624
 20
130.5436120734
 10
119.4468956281
 20
130.5513697016
  0
LWPOLYLINE
  5
3E7
100
AcDbEntity
  8
RACCORDO
100
AcDbPolyline
 62
250
  6
CONTINUOUS
 90
13
 70
0
 10
124.8746730639
 20
125.9745673769
 10
124.8730787554
 20
125.99203714
 10
124.8683047306
 20
126.0090524636
 10
124.8604165862
 20
126.0254267152
 10
124.8495508927
 20
126.0410801371
 10
124.8359016577
 20
126.0557544429
 10
124.819686836
 20
126.0690300964
 10
124.8011044881
 20
126.0808009706
 10
124.7804857349
 20
126.0909634271
 10
124.7582708917
 20
126.0991757591
 10
124.734804536
 20
126.1053194646
 10
124.7103311276
 20
126.1094538306
 10
124.6851402551
 20
126.111545013
  0
LWPOLYLINE
  5
3E8
100
AcDbEntity
  8
RACCORDO
100
AcDbPolyline
 62
250
  6
CONTINUOUS
 90
13
 70
0
 10
124.8746730639
 20
128.1711092755
 10
124.8730722887
 20
128.190402955
 10
124.8682958059
 20
128.2093871427
 10
124.8604203935
 20
128.2277580127
 10
124.8495728994
 20
128.2452209382
 10
124.835926964
 20
128.2614973048
 10
124.8196991593
 20
128.2763284555
 10
124.8011423206
 20
128.2894805359
 10
124.7805579252
 20
128.3007374437
 10
124.7582946007
 20
128.309911543
 10
124.7347186705
 20
128.3168593137
 10
124.7102030616
 20
128.3214778602
 10
124.6851402551
 20
128.3236989163
  0
LINE
  5
3E9
100
AcDbEntity
  8
ASSI
100
AcDbLine
 62
250
  6
CONTINUOUS
 10
126.9246730639
 20
129.9901499444
 11
126.9246730639
 21
129.2146564415
  0
LINE
  5
3EA
100
AcDbEntity
  8
ASSI
100
AcDbLine
 62
250
  6
CONTINUOUS
 10
126.9246730639
 20
84.1901499444
 11
126.9246730639
 21
83.4146564415
  0
LINE
  5
3EB
100
AcDbEntity
  8
ASSI
100
AcDbLine
 62
7
  6
CONTINUOUS
 10
127.1746268061
 20
129.736986076
 11
127.1746730639
 21
129.4789109516
  0
LINE
  5
3EC
100
AcDbEntity
  8
ASSI
100
AcDbLine
 62
7
  6
CONTINUOUS
 10
127.1746268061
 20
83.936986076
 11
127.1746730639
 21
83.6789109516
  0
LWPOLYLINE
  5
3ED
100
AcDbEntity
  8
ASSI
100
AcDbPolyline
 62
7
  6
CONTINUOUS
 90
25
 70
0
 10
127.1746730639
 20
129.4789109516
 10
127.174627844
 20
129.4678365363
 10
127.1740468202
 20
129.4563546807
 10
127.1729299923
 20
129.4444653848
 10
127.1713540143
 20
129.4321302738
 10
127.1692422322
 20
129.4193877225
 10
127.1663646842
 20
129.4063528554
 10
127.1627123929
 20
129.3929889377
 10
127.1582943356
 20
129.3793327042
 10
127.1529074828
 20
129.3656094836
 10
127.1465376071
 20
129.3517986969
 10
127.1391989358
 20
129.3379209231
 10
127.1307311214
 20
129.3242632279
 10
127.1211499737
 20
129.3108236956
 10
127.1104396828
 20
129.2976042418
 10
127.098392472
 20
129.2848976787
 10
127.0850242536
 20
129.2726454259
 10
127.0703191152
 20
129.2609060639
 10
127.0540215432
 20
129.2501481459
 10
127.0359578814
 20
129.2402497687
 10
127.016301786
 20
129.2313328355
 10
126.995318711
 20
129.2242316099
 10
126.9730971414
 20
129.2192241796
 10
126.9495485924
 20
129.2160324568
 10
126.9246730639
 20
129.2146564415
  0
LWPOLYLINE
  5
3EE
100
AcDbEntity
  8
ASSI
100
AcDbPolyline
 62
7
  6
CONTINUOUS
 90
25
 70
0
 10
127.1746730639
 20
83.6789109516
 10
127.174627844
 20
83.6678365363
 10
127.1740468202
 20
83.6563546807
 10
127.1729299923
 20
83.6444653848
 10
127.1713540143
 20
83.6321302738
 10
127.1692422322
 20
83.6193877225
 10
127.1663646842
 20
83.6063528554
 10
127.1627123929
 20
83.5929889377
 10
127.1582943356
 20
83.5793327042
 10
127.1529074828
 20
83.5656094836
 10
127.1465376071
 20
83.5517986969
 10
127.1391989358
 20
83.5379209231
 10
127.1307311214
 20
83.5242632279
 10
127.1211499737
 20
83.5108236956
 10
127.1104396828
 20
83.4976042418
 10
127.098392472
 20
83.4848976787
 10
127.0850242536
 20
83.4726454259
 10
127.0703191152
 20
83.4609060639
 10
127.0540215432
 20
83.4501481459
 10
127.0359578814
 20
83.4402497687
 10
127.016301786
 20
83.4313328355
 10
126.995318711
 20
83.4242316099
 10
126.9730971414
 20
83.4192241796
 10
126.9495485924
 20
83.4160324568
 10
126.9246730639
 20
83.4146564415
  0
LWPOLYLINE
  5
3EF
100
AcDbEntity
  8
RACCORDO
100
AcDbPolyline
 62
250
  6
CONTINUOUS
 90
13
 70
0
 10
124.8746730639
 20
85.2336971103
 10
124.8730783154
 20
85.2145922445
 10
124.8683050477
 20
85.1955672114
 10
124.8604202616
 20
85.1770481207
 10
124.8495588407
 20
85.159530287
 10
124.8359120899
 20
85.1433120229
 10
124.8196986609
 20
85.1284775295
 10
124.8011243986
 20
85.1152762987
 10
124.7805144258
 20
85.1040482673
 10
124.7582941116
 20
85.0948946709
 10
124.7348099443
 20
85.0879149763
 10
124.7103239954
 20
85.0832800448
 10
124.6851402551
 20
85.0811074695
  0
LWPOLYLINE
  5
3F0
100
AcDbEntity
  8
RACCORDO
100
AcDbPolyline
 62
250
  6
CONTINUOUS
 90
13
 70
0
 10
124.8746730639
 20
87.430239009
 10
124.8730718391
 20
87.4129169139
 10
124.8682940959
 20
87.3958729586
 10
124.8604167621
 20
87.3793799728
 10
124.8495669231
 20
87.3637025923
 10
124.8359183557
 20
87.3490908636
 10
124.8196875034
 20
87.3357767713
 10
124.8011261368
 20
87.3239696865
 10
124.7805367173
 20
87.3138644975
 10
124.7582715698
 20
87.3056308407
 10
124.7346989681
 20
87.2993969384
 10
124.7101910515
 20
87.2952536979
 10
124.6851402551
 20
87.2932613728
  0
LWPOLYLINE
  5
3F1
100
AcDbEntity
  8
RACCORDO
100
AcDbPolyline
 62
250
  6
CONTINUOUS
 90
7
 70
0
 10
124.6851402551
 20
117.0027050694
 10
124.6855048991
 20
117.0009745795
 10
124.6856844232
 20
116.9958602796
 10
124.6856757595
 20
116.9874495745
 10
124.685479056
 20
116.9758862105
 10
124.6850976744
 20
116.9613678065
 10
124.684538132
 20
116.9441424665
  0
LINE
  5
3F2
100
AcDbEntity
  8
ASSI
100
AcDbLine
 62
7
  6
CONTINUOUS
 10
128.8746730639
 20
127.6413871354
 11
128.8746730639
 21
126.9831984738
  0
LINE
  5
3F3
100
AcDbEntity
  8
ASSI
100
AcDbLine
 62
7
  6
CONTINUOUS
 10
128.8746730639
 20
86.4216079121
 11
128.8746730639
 21
85.7634192504
  0
LWPOLYLINE
  5
3F4
100
AcDbEntity
  8
RACCORDO
100
AcDbPolyline
 62
250
  6
CONTINUOUS
 90
13
 70
0
 10
129.1217903086
 20
125.0235133356
 10
129.1221549441
 20
124.9974280825
 10
129.122334473
 20
124.9717884144
 10
129.1223258229
 20
124.947032514
 10
129.1221291374
 20
124.9235834645
 10
129.1217477736
 20
124.901842058
 10
129.121188246
 20
124.8821799339
 10
129.1204601138
 20
124.8649331616
 10
129.1195758187
 20
124.8503965507
 10
129.1185504741
 20
124.8388186199
 10
129.1174016038
 20
124.8303972833
 10
129.1161488413
 20
124.8252764911
 10
129.1148135969
 20
124.8235437965
  0
LWPOLYLINE
  5
3F5
100
AcDbEntity
  8
RACCORDO
100
AcDbPolyline
 62
250
  6
CONTINUOUS
 90
13
 70
0
 10
126.2006360216
 20
82.9903867669
 10
126.2010398836
 20
82.9924102777
 10
126.2000311937
 20
82.9974149547
 10
126.1976267288
 20
83.005317558
 10
126.1938664812
 20
83.015986648
 10
126.1888129929
 20
83.0292447717
 10
126.1825503158
 20
83.044871414
 10
126.1751826134
 20
83.0626066659
 10
126.1668324287
 20
83.0821555467
 10
126.1576386455
 20
83.1031929109
 10
126.147754179
 20
83.1253688558
 10
126.137343432
 20
83.1483145412
 10
126.1265795605
 20
83.1716483243
  0
LWPOLYLINE
  5
3F6
100
AcDbEntity
  8
RACCORDO
100
AcDbPolyline
 62
250
  6
CONTINUOUS
 90
13
 70
0
 10
122.2628164071
 20
83.6183314473
 10
122.2693542244
 20
83.6365241338
 10
122.2756514188
 20
83.6544125634
 10
122.2816026819
 20
83.6716975858
 10
122.2871084907
 20
83.6880901422
 10
122.2920767725
 20
83.7033161018
 10
122.2964244446
 20
83.7171208447
 10
122.3000788019
 20
83.7292735168
 10
122.3029787345
 20
83.7395708932
 10
122.3050757491
 20
83.7478407773
 10
122.3063347787
 20
83.7539448761
 10
122.30673477
 20
83.7577811135
 10
122.3062690352
 20
83.7592853404
  0
LWPOLYLINE
  5
3F7
100
AcDbEntity
  8
RACCORDO
100
AcDbPolyline
 62
250
  6
CONTINUOUS
 90
13
 70
0
 10
122.6996244645
 20
83.4593463163
 10
122.7061622517
 20
83.4775389176
 10
122.7124594245
 20
83.495427283
 10
122.7184106749
 20
83.5127122641
 10
122.7239164798
 20
83.5291048032
 10
122.7288847652
 20
83.5443307669
 10
122.7332324462
 20
83.5581355305
 10
122.7368868162
 20
83.5702882361
 10
122.7397867631
 20
83.5805856532
 10
122.7418837909
 20
83.5888555775
 10
122.7431428307
 20
83.5949597105
 10
122.7435428276
 20
83.5987959725
 10
122.7430770925
 20
83.6003002095
  0
LWPOLYLINE
  5
3F8
100
AcDbEntity
  8
RACCORDO
100
AcDbPolyline
 62
250
  6
CONTINUOUS
 90
25
 70
0
 10
131.1851402551
 20
127.3109873709
 10
131.1835577306
 20
127.4050310037
 10
131.1769836928
 20
127.500741165
 10
131.1654181416
 20
127.598117855
 10
131.1493236454
 20
127.6971030816
 10
131.1282376358
 20
127.7977548369
 10
131.1007724081
 20
127.9002470963
 10
131.0665293364
 20
128.0056591819
 10
131.0259070465
 20
128.1129117718
 10
130.9787137113
 20
128.2189408752
 10
130.9245189915
 20
128.3236286817
 10
130.8637532264
 20
128.4270930017
 10
130.7975156067
 20
128.5266232767
 10
130.7256445809
 20
128.6217980392
 10
130.6483017005
 20
128.7130387566
 10
130.5670708112
 20
128.7988992725
 10
130.4829641693
 20
128.8785735449
 10
130.3949695184
 20
128.9528676157
 10
130.3016339349
 20
129.0227534552
 10
130.2034833821
 20
129.0887166141
 10
130.0999918966
 20
129.1502715417
 10
129.9881286643
 20
129.206933555
 10
129.8668834137
 20
129.2585410932
 10
129.7372664162
 20
129.3052557173
 10
129.5992776718
 20
129.3470774271
  0
LINE
  5
3F9
100
AcDbEntity
  8
RACCORDO
100
AcDbLine
 62
250
  6
CONTINUOUS
 10
131.1851402551
 20
86.2816128904
 11
131.1851402551
 21
86.0938190149
  0
LINE
  5
3FA
100
AcDbEntity
  8
RACCORDO
100
AcDbLine
 62
250
  6
CONTINUOUS
 10
131.1851402551
 20
127.1231934954
 11
131.1851402551
 21
127.3109873709
  0
LINE
  5
3FB
100
AcDbEntity
  8
RACCORDO
100
AcDbLine
 62
7
  6
CONTINUOUS
 10
131.3746730639
 20
86.2816128904
 11
131.3746730639
 21
86.0938190149
  0
LINE
  5
3FC
100
AcDbEntity
  8
RACCORDO
100
AcDbLine
 62
7
  6
CONTINUOUS
 10
131.3746730639
 20
127.1231934954
 11
131.3746730639
 21
127.3109873709
  0
LWPOLYLINE
  5
3FD
100
AcDbEntity
  8
RACCORDO
100
AcDbPolyline
 62
250
  6
CONTINUOUS
 90
25
 70
0
 10
131.1851402551
 20
86.0938190149
 10
131.1835672614
 20
85.9996885279
 10
131.1769744824
 20
85.9038426832
 10
131.1653619179
 20
85.8062814809
 10
131.1491707961
 20
85.706996327
 10
131.1279598889
 20
85.6059958155
 10
131.1004055126
 20
85.5033057282
 10
131.0661118896
 20
85.3979302665
 10
131.0254747974
 20
85.2908652291
 10
130.978357885
 20
85.1851237932
 10
130.9243450755
 20
85.0808345034
 10
130.8638524458
 20
84.9778688152
 10
130.7979918759
 20
84.8788542726
 10
130.7266599114
 20
84.7842391833
 10
130.6499600066
 20
84.6935752397
 10
130.5693144049
 20
84.6081450624
 10
130.485732072
 20
84.5287022308
 10
130.3982040422
 20
84.4544931655
 10
130.3051256612
 20
84.384539749
 10
130.2069846747
 20
84.3183123376
 10
130.1032933372
 20
84.256340575
 10
129.9909837572
 20
84.1992352744
 10
129.8690333044
 20
84.1472000404
 10
129.7384646093
 20
84.1000312686
 10
129.5992776718
 20
84.0577289588
  0
LWPOLYLINE
  5
3FE
100
AcDbEntity
  8
RACCORDO
100
AcDbPolyline
 62
250
  6
CONTINUOUS
 90
16
 70
0
 10
119.5637359969
 20
87.993788814
 10
119.5690600731
 20
88.0006994511
 10
119.5744785794
 20
88.0073872845
 10
119.5799837062
 20
88.0138523143
 10
119.5855607751
 20
88.0200968928
 10
119.5912088495
 20
88.0261186676
 10
119.5969419748
 20
88.0319105815
 10
119.6027567527
 20
88.0374750978
 10
119.6086437613
 20
88.0428097531
 10
119.6146096072
 20
88.0479000996
 10
119.6206527654
 20
88.0527479394
 10
119.6267626665
 20
88.0573514703
 10
119.6329327418
 20
88.0616908378
 10
119.639156572
 20
88.0657594236
 10
119.6454279048
 20
88.0695638459
 10
119.6517403192
 20
88.0731041049
  0
LWPOLYLINE
  5
3FF
100
AcDbEntity
  8
RACCORDO
100
AcDbPolyline
 62
250
  6
CONTINUOUS
 90
6
 70
0
 10
125.0658887067
 20
91.2025599623
 10
125.0738716647
 20
91.2145008977
 10
125.0801534632
 20
91.2240541854
 10
125.0846280062
 20
91.231058474
 10
125.0872197207
 20
91.2353954618
 10
125.0878848457
 20
91.2369919139
  0
LINE
  5
400
100
AcDbEntity
  8
RACCORDO
100
AcDbLine
 62
250
  6
CONTINUOUS
 10
125.0453850487
 20
91.1723587386
 11
125.0658887067
 21
91.2025599623
  0
LINE
  5
401
100
AcDbEntity
  8
RACCORDO
100
AcDbLine
 62
250
  6
CONTINUOUS
 10
125.0200219058
 20
91.1354823661
 11
125.0453850487
 21
91.1723587386
  0
LINE
  5
402
100
AcDbEntity
  8
RACCORDO
100
AcDbLine
 62
250
  6
CONTINUOUS
 10
124.9766600397
 20
91.073161505
 11
125.0200219058
 21
91.1354823661
  0
LWPOLYLINE
  5
403
100
AcDbEntity
  8
RACCORDO
100
AcDbPolyline
 62
250
  6
CONTINUOUS
 90
7
 70
0
 10
119.4343932975
 20
87.8780378034
 10
119.455368281
 20
87.9014953627
 10
119.4765761177
 20
87.9232866323
 10
119.4980168077
 20
87.9434116122
 10
119.5196903509
 20
87.9618703025
 10
119.5415967473
 20
87.9786627031
 10
119.5637359969
 20
87.993788814
  0
LINE
  5
404
100
AcDbEntity
  8
RACCORDO
100
AcDbLine
 62
250
  6
CONTINUOUS
 10
120.8746730639
 20
116.9962832285
 11
120.0394773608
 21
116.7724932143
  0
LINE
  5
405
100
AcDbEntity
  8
RACCORDO
100
AcDbLine
 62
250
  6
CONTINUOUS
 10
119.5814878986
 20
116.6867337744
 11
119.9015464858
 21
116.7724932143
  0
LINE
  5
406
100
AcDbEntity
  8
RACCORDO
100
AcDbLine
 62
7
  6
CONTINUOUS
 10
119.6711454458
 20
116.8799189396
 11
120.8746730639
 21
117.2024031929
  0
LINE
  5
407
100
AcDbEntity
  8
RACCORDO
100
AcDbLine
 62
250
  6
CONTINUOUS
 10
119.6806085203
 20
117.0885745272
 11
120.8746730639
 21
117.4085231574
  0
LWPOLYLINE
  5
408
100
AcDbEntity
  8
0
100
AcDbPolyline
 62
250
  6
CONTINUOUS
 90
10
 70
0
 10
119.8537338975
 20
117.6541323844
 10
119.7925821232
 20
117.64907687
 10
119.7332121531
 20
117.6392403329
 10
119.675623987
 20
117.6246227732
 10
119.6195524318
 20
117.6050629759
 10
119.5652626806
 20
117.5807221559
 10
119.5135503134
 20
117.5520839586
 10
119.4646805235
 20
117.5193095989
 10
119.4183881174
 20
117.482237862
 10
119.3746730954
 20
117.4408687476
  0
LINE
  5
409
100
AcDbEntity
  8
0
100
AcDbLine
 62
7
  6
CONTINUOUS
 10
121.2270223089
 20
117.5020886539
 11
119.8572233155
 21
117.454254219
  0
LINE
  5
40A
100
AcDbEntity
  8
0
100
AcDbLine
 62
250
  6
CONTINUOUS
 10
121.2235328909
 20
117.7019668193
 11
119.8537338975
 21
117.6541323844
  0
LINE
  5
40B
100
AcDbEntity
  8
RACCORDO
100
AcDbLine
 62
250
  6
CONTINUOUS
 10
119.3746730639
 20
116.4935486091
 11
119.4332517076
 21
116.4935486091
  0
LINE
  5
40C
100
AcDbEntity
  8
RACCORDO
100
AcDbLine
 62
250
  6
CONTINUOUS
 10
120.0394773608
 20
116.7724932143
 11
119.9015464858
 21
116.7724932143
  0
LINE
  5
40D
100
AcDbEntity
  8
RACCORDO
100
AcDbLine
 62
250
  6
CONTINUOUS
 10
124.8746730639
 20
116.8029791625
 11
124.6781635451
 21
116.8029791625
  0
LINE
  5
40E
100
AcDbEntity
  8
RACCORDO
100
AcDbLine
 62
250
  6
CONTINUOUS
 10
119.4344057524
 20
116.8780246738
 11
119.3746730639
 21
116.8780182225
  0
LINE
  5
40F
100
AcDbEntity
  8
RACCORDO
100
AcDbLine
 62
250
  6
CONTINUOUS
 10
124.8746730639
 20
117.2024309764
 11
124.6851402551
 21
117.2024309764
  0
LINE
  5
410
100
AcDbEntity
  8
RACCORDO
100
AcDbLine
 62
250
  6
CONTINUOUS
 10
120.8765103346
 20
117.0022153648
 11
124.6781635451
 21
116.8029791625
  0
LINE
  5
411
100
AcDbEntity
  8
RACCORDO
100
AcDbLine
 62
7
  6
CONTINUOUS
 10
120.8746730639
 20
117.2024031929
 11
124.6851402551
 21
117.0027050694
  0
LINE
  5
412
100
AcDbEntity
  8
RACCORDO
100
AcDbLine
 62
250
  6
CONTINUOUS
 10
124.6851402551
 20
117.2024309764
 11
120.8734673717
 21
117.4021922875
  0
LWPOLYLINE
  5
413
100
AcDbEntity
  8
0
100
AcDbPolyline
 62
250
  6
CONTINUOUS
 90
10
 70
0
 10
119.3746730918
 20
124.9639376409
 10
119.4162457788
 20
124.9240805619
 10
119.4608757952
 20
124.8880317834
 10
119.5085631411
 20
124.8557913052
 10
119.5594988255
 20
124.8270498216
 10
119.6134918393
 20
124.8021166384
 10
119.6699691561
 20
124.781919673
 10
119.728739767
 20
124.7667682313
 10
119.7899946808
 20
124.7563530074
 10
119.8537338975
 20
124.7506740014
  0
LINE
  5
414
100
AcDbEntity
  8
RACCORDO
100
AcDbLine
 62
250
  6
CONTINUOUS
 10
124.9766600397
 20
122.3316448808
 11
125.0200208386
 21
122.2693255657
  0
LINE
  5
415
100
AcDbEntity
  8
RACCORDO
100
AcDbLine
 62
250
  6
CONTINUOUS
 10
125.0200208386
 20
122.2693255657
 11
125.0453839385
 21
122.2324492733
  0
LWPOLYLINE
  5
416
100
AcDbEntity
  8
RACCORDO
100
AcDbPolyline
 62
250
  6
CONTINUOUS
 90
7
 70
0
 10
125.0453839385
 20
122.2324492733
 10
125.0658879202
 20
122.2022475959
 10
125.0738711076
 20
122.190306331
 10
125.080153124
 20
122.180752726
 10
125.0846278461
 20
122.1737481717
 10
125.0872196814
 20
122.1694109974
 10
125.0878848457
 20
122.167814472
  0
LWPOLYLINE
  5
417
100
AcDbEntity
  8
RACCORDO
100
AcDbPolyline
 62
250
  6
CONTINUOUS
 90
10
 70
0
 10
124.6851402551
 20
128.3708351825
 10
124.6854057337
 20
128.3702152682
 10
124.6856062613
 20
128.3683904229
 10
124.6857406244
 20
128.3653716898
 10
124.6858080099
 20
128.3611773371
 10
124.6858080099
 20
128.3558327478
 10
124.6857406245
 20
128.3493702655
 10
124.6856062614
 20
128.3418289991
 10
124.6854057338
 20
128.3332545862
 10
124.6851402551
 20
128.3236989163
  0
LWPOLYLINE
  5
418
100
AcDbEntity
  8
RACCORDO
100
AcDbPolyline
 62
250
  6
CONTINUOUS
 90
13
 70
0
 10
126.2539732978
 20
83.0093644388
 10
126.2548352256
 20
83.0113181947
 10
126.2548584224
 20
83.0165031526
 10
126.2540424985
 20
83.0248320324
 10
126.2524011887
 20
83.0361646342
 10
126.2499621216
 20
83.0503101967
 10
126.2467663547
 20
83.067030606
 10
126.2428676823
 20
83.0860444089
 10
126.2383317306
 20
83.1070315496
 10
126.2332348529
 20
83.129638754
 10
126.2276628442
 20
83.1534854803
 10
126.2217094966
 20
83.178170325
 10
126.2154750207
 20
83.2032777775
  0
LWPOLYLINE
  5
419
100
AcDbEntity
  8
RACCORDO
100
AcDbPolyline
 62
250
  6
CONTINUOUS
 90
10
 70
0
 10
119.5538063476
 20
87.8270420778
 10
119.5648784527
 20
87.8366190723
 10
119.5736772531
 20
87.8491368382
 10
119.5800380718
 20
87.8643612066
 10
119.5838418444
 20
87.8820073702
 10
119.5850173485
 20
87.9017451839
 10
119.5835425533
 20
87.9232053283
 10
119.5794450283
 20
87.9459862642
 10
119.5728014136
 20
87.9696617563
 10
119.5637359969
 20
87.9937888139
  0
LWPOLYLINE
  5
41A
100
AcDbEntity
  8
RACCORDO
100
AcDbPolyline
 62
250
  6
CONTINUOUS
 90
6
 70
0
 10
119.6711454456
 20
87.8799189396
 10
119.6745654132
 20
87.8825135698
 10
119.6770908201
 20
87.8881978208
 10
119.6786807203
 20
87.8968795709
 10
119.6793093324
 20
87.9084181058
 10
119.6789664582
 20
87.9226263967
  0
LINE
  5
41B
100
AcDbEntity
  8
0
100
AcDbLine
 62
250
  6
CONTINUOUS
 10
122.6746730639
 20
119.0011748945
 11
122.4781635451
 21
119.0011748945
  0
LINE
  5
41C
100
AcDbEntity
  8
RACCORDO
100
AcDbLine
 62
250
  6
CONTINUOUS
 10
119.6806085203
 20
119.5732685128
 11
119.5637359969
 21
119.5732685128
  0
LINE
  5
41D
100
AcDbEntity
  8
0
100
AcDbLine
 62
7
  6
CONTINUOUS
 10
119.8775857449
 20
119.3019431379
 11
120.3080383281
 21
119.3015493679
  0
LINE
  5
41E
100
AcDbEntity
  8
RACCORDO
100
AcDbLine
 62
250
  6
CONTINUOUS
 10
120.7684856452
 20
119.5542795469
 11
119.6806085203
 21
119.5732685128
  0
LINE
  5
41F
100
AcDbEntity
  8
RACCORDO
100
AcDbLine
 62
7
  6
CONTINUOUS
 10
120.8248231559
 20
119.7032733263
 11
120.1560156331
 21
119.714947405
  0
LWPOLYLINE
  5
420
100
AcDbEntity
  8
RACCORDO
100
AcDbPolyline
 62
250
  6
CONTINUOUS
 90
13
 70
0
 10
120.1560156331
 20
119.714947405
 10
120.1404429209
 20
119.7169077393
 10
120.1251920439
 20
119.7222109727
 10
120.1105204757
 20
119.7307675731
 10
120.0966759097
 20
119.7424330833
 10
120.0838920774
 20
119.7570105599
 10
120.0723848024
 20
119.7742538979
 10
120.0623483567
 20
119.793871986
 10
120.0539521812
 20
119.8155336209
 10
120.0473380246
 20
119.8388730992
 10
120.0426175507
 20
119.863496391
 10
120.0398704531
 20
119.8889877925
 10
120.0391431098
 20
119.9149169441
  0
LWPOLYLINE
  5
421
100
AcDbEntity
  8
RACCORDO
100
AcDbPolyline
 62
250
  6
CONTINUOUS
 90
13
 70
0
 10
120.4277906399
 20
119.7102035547
 10
120.4122127376
 20
119.7121651122
 10
120.3969571553
 20
119.7174717065
 10
120.3822815964
 20
119.7260335717
 10
120.3684344468
 20
119.7377054672
 10
120.3556490122
 20
119.7522903882
 10
120.344140004
 20
119.7695439425
 10
120.3340997882
 20
119.789180951
 10
120.325701845
 20
119.8108657889
 10
120.3190926324
 20
119.8342156276
 10
120.3143813759
 20
119.8588276432
 10
120.3116423421
 20
119.8842901327
 10
120.3109181166
 20
119.9101730937
  0
LWPOLYLINE
  5
422
100
AcDbEntity
  8
RACCORDO
100
AcDbPolyline
 62
250
  6
CONTINUOUS
 90
6
 70
0
 10
119.6711454462
 20
125.5248874462
 10
119.6745644206
 20
125.5222930094
 10
119.6770890708
 20
125.5166087763
 10
119.6786783999
 20
125.5079269334
 10
119.6793065345
 20
125.4963882756
 10
119.6789632942
 20
125.4821798731
  0
LWPOLYLINE
  5
423
100
AcDbEntity
  8
RACCORDO
100
AcDbPolyline
 62
250
  6
CONTINUOUS
 90
10
 70
0
 10
119.5538057851
 20
125.577763458
 10
119.5648790492
 20
125.5681854113
 10
119.5736784082
 20
125.5556664455
 10
119.5800393121
 20
125.540440954
 10
119.5838428541
 20
125.5227939212
 10
119.5850179698
 20
125.503055681
 10
119.5835428124
 20
125.4815957672
 10
119.579445159
 20
125.4588158388
 10
119.5728018339
 20
125.4351421257
 10
119.5637372789
 20
125.4110175718
  0
LWPOLYLINE
  5
424
100
AcDbEntity
  8
RACCORDO
100
AcDbPolyline
 62
250
  6
CONTINUOUS
 90
13
 70
0
 10
129.6377759488
 20
83.8638156201
 10
129.6386378757
 20
83.8657693679
 10
129.6386610751
 20
83.8709543054
 10
129.6378451567
 20
83.8792831562
 10
129.6362038544
 20
83.8906157238
 10
129.6337647959
 20
83.9047612509
 10
129.6305690368
 20
83.9214816308
 10
129.6266703703
 20
83.9404954149
 10
129.6221344214
 20
83.961482551
 10
129.617037542
 20
83.9840897696
 10
129.6114655262
 20
84.0079365314
 10
129.6055121659
 20
84.0326214319
 10
129.5992776718
 20
84.0577289588
  0
LWPOLYLINE
  5
425
100
AcDbEntity
  8
RACCORDO
100
AcDbPolyline
 62
250
  6
CONTINUOUS
 90
6
 70
0
 10
128.31698949
 20
88.9261129633
 10
128.3249726774
 20
88.9380542282
 10
128.3312546938
 20
88.9476078333
 10
128.3357294159
 20
88.9546123876
 10
128.3383212512
 20
88.9589495618
 10
128.3389864155
 20
88.9605460872
  0
LINE
  5
426
100
AcDbEntity
  8
RACCORDO
100
AcDbLine
 62
250
  6
CONTINUOUS
 10
128.2964855083
 20
88.8959112859
 11
128.31698949
 21
88.9261129633
  0
LINE
  5
427
100
AcDbEntity
  8
RACCORDO
100
AcDbLine
 62
250
  6
CONTINUOUS
 10
128.2711224083
 20
88.8590349935
 11
128.2964855083
 21
88.8959112859
  0
LINE
  5
428
100
AcDbEntity
  8
RACCORDO
100
AcDbLine
 62
250
  6
CONTINUOUS
 10
128.2277616095
 20
88.7967156784
 11
128.2711224083
 21
88.8590349935
  0
LINE
  5
429
100
AcDbEntity
  8
RACCORDO
100
AcDbLine
 62
250
  6
CONTINUOUS
 10
119.6517403192
 20
88.0731041049
 11
119.6806085203
 21
88.0885745272
  0
LINE
  5
42A
100
AcDbEntity
  8
RACCORDO
100
AcDbLine
 62
250
  6
CONTINUOUS
 10
120.4277906399
 20
119.9101730937
 11
120.3109181166
 21
119.9101730937
  0
LINE
  5
42B
100
AcDbEntity
  8
RACCORDO
100
AcDbLine
 62
250
  6
CONTINUOUS
 10
120.3109181166
 20
119.9101730937
 11
120.0391431098
 21
119.9149169441
  0
LINE
  5
42C
100
AcDbEntity
  8
RACCORDO
100
AcDbLine
 62
250
  6
CONTINUOUS
 10
120.8339439931
 20
119.9030836605
 11
120.4277906399
 21
119.9101730937
  0
LINE
  5
42D
100
AcDbEntity
  8
RACCORDO
100
AcDbLine
 62
250
  6
CONTINUOUS
 10
119.6806085203
 20
125.3162318587
 11
119.6517403192
 21
125.331702281
  0
LWPOLYLINE
  5
42E
100
AcDbEntity
  8
RACCORDO
100
AcDbPolyline
 62
250
  6
CONTINUOUS
 90
16
 70
0
 10
119.6517403192
 20
125.331702281
 10
119.6429866202
 20
125.3368042627
 10
119.6347044886
 20
125.3420236222
 10
119.6268973291
 20
125.3473603595
 10
119.6195867909
 20
125.3528566505
 10
119.6127472374
 20
125.3584703194
 10
119.6063090991
 20
125.3640748385
 10
119.600261365
 20
125.3696551001
 10
119.5946033299
 20
125.3752262119
 10
119.5892830918
 20
125.3807069693
 10
119.5842875429
 20
125.3860893443
 10
119.5796153004
 20
125.3913813649
 10
119.575234078
 20
125.3965259101
 10
119.5711284056
 20
125.4015039395
 10
119.5672984373
 20
125.4063344934
 10
119.5637359969
 20
125.4110175719
  0
LWPOLYLINE
  5
42F
100
AcDbEntity
  8
RACCORDO
100
AcDbPolyline
 62
250
  6
CONTINUOUS
 90
7
 70
0
 10
119.5637359969
 20
125.4110175719
 10
119.5412915983
 20
125.4264110032
 10
119.5192022355
 20
125.4433643933
 10
119.4974679086
 20
125.4618777423
 10
119.4760886175
 20
125.4819510502
 10
119.4550643623
 20
125.5035843168
 10
119.4343951429
 20
125.5267775424
  0
LWPOLYLINE
  5
430
100
AcDbEntity
  8
RACCORDO
100
AcDbPolyline
 62
250
  6
CONTINUOUS
 90
13
 70
0
 10
122.7272909248
 20
130.6473740435
 10
122.7282923327
 20
130.6460745876
 10
122.7292318858
 20
130.6422341685
 10
122.7300935267
 20
130.6359184205
 10
122.7308625297
 20
130.6272352824
 10
122.7315257521
 20
130.6163331525
 10
122.7320718593
 20
130.6033983528
 10
122.732491518
 20
130.5886519443
 10
122.7327775561
 20
130.5723459493
 10
122.7329250851
 20
130.5547590438
 10
122.7329315837
 20
130.5361917955
 10
122.7327969407
 20
130.5169615262
 10
122.7325234573
 20
130.4973968892
  0
LINE
  5
431
100
AcDbEntity
  8
RACCORDO
100
AcDbLine
 62
250
  6
CONTINUOUS
 10
128.2277616095
 20
124.6080907075
 11
128.2711224748
 21
124.5457712962
  0
LINE
  5
432
100
AcDbEntity
  8
RACCORDO
100
AcDbLine
 62
250
  6
CONTINUOUS
 10
128.2711224748
 20
124.5457712962
 11
128.2964855867
 21
124.5088949854
  0
LWPOLYLINE
  5
433
100
AcDbEntity
  8
RACCORDO
100
AcDbPolyline
 62
250
  6
CONTINUOUS
 90
7
 70
0
 10
128.2964855867
 20
124.5088949854
 10
128.3169895524
 20
124.4786933299
 10
128.3249727249
 20
124.4667520862
 10
128.3312547246
 20
124.4571985053
 10
128.335729431
 20
124.450193974
 10
128.3383212551
 20
124.445856817
 10
128.3389864155
 20
124.4442602986
  0
LINE
  5
434
100
AcDbEntity
  8
RACCORDO
100
AcDbLine
 62
250
  6
CONTINUOUS
 10
123.0024880592
 20
82.9070921979
 11
123.0014679831
 21
82.9059930314
  0
LWPOLYLINE
  5
435
100
AcDbEntity
  8
RACCORDO
100
AcDbPolyline
 62
250
  6
CONTINUOUS
 90
10
 70
0
 10
119.6711454458
 20
87.8799189396
 10
119.6511602421
 20
87.8721108737
 10
119.6328751033
 20
87.8599103693
 10
119.6167232888
 20
87.8436065128
 10
119.6030875096
 20
87.8235856176
 10
119.5922908601
 20
87.8003220711
 10
119.5845891627
 20
87.774367094
 10
119.5801649063
 20
87.7463356795
 10
119.5791229218
 20
87.7168920209
 10
119.5814878986
 20
87.6867337744
  0
LWPOLYLINE
  5
436
100
AcDbEntity
  8
RACCORDO
100
AcDbPolyline
 62
250
  6
CONTINUOUS
 90
13
 70
0
 10
120.0057519673
 20
87.9695764868
 10
119.9908840863
 20
87.9642603659
 10
119.9768042525
 20
87.9564807788
 10
119.9637101796
 20
87.9463022864
 10
119.9517774129
 20
87.9338068623
 10
119.9412016916
 20
87.9191389839
 10
119.9321776874
 20
87.9025297439
 10
119.9248368454
 20
87.8842054798
 10
119.9192801297
 20
87.8643990086
 10
119.9155958671
 20
87.8434186103
 10
119.9138299623
 20
87.8215658976
 10
119.9139984128
 20
87.799122508
 10
119.9160944201
 20
87.7763913216
  0
LWPOLYLINE
  5
437
100
AcDbEntity
  8
RACCORDO
100
AcDbPolyline
 62
250
  6
CONTINUOUS
 90
13
 70
0
 10
120.4277906399
 20
122.6946028312
 10
120.4122126829
 20
122.6926412608
 10
120.3969570492
 20
122.6873346302
 10
120.3822814449
 20
122.6787727067
 10
120.3684342503
 20
122.667100725
 10
120.3556487829
 20
122.6525156972
 10
120.344139776
 20
122.635262053
 10
120.3340995968
 20
122.6156250059
 10
120.3257017059
 20
122.5939401795
 10
120.3190925459
 20
122.5705903918
 10
120.314381334
 20
122.5459784613
 10
120.3116423315
 20
122.5205160954
 10
120.3109181166
 20
122.4946332922
  0
LWPOLYLINE
  5
438
100
AcDbEntity
  8
RACCORDO
100
AcDbPolyline
 62
250
  6
CONTINUOUS
 90
13
 70
0
 10
120.1560156331
 20
122.6898589808
 10
120.1404429209
 20
122.6878986466
 10
120.1251920439
 20
122.6825954132
 10
120.1105204757
 20
122.6740388128
 10
120.0966759097
 20
122.6623733026
 10
120.0838920774
 20
122.647795826
 10
120.0723848024
 20
122.630552488
 10
120.0623483567
 20
122.6109343999
 10
120.0539521812
 20
122.5892727649
 10
120.0473380246
 20
122.5659332867
 10
120.0426175507
 20
122.5413099949
 10
120.0398704531
 20
122.5158185934
 10
120.0391431098
 20
122.4898894418
  0
LINE
  5
439
100
AcDbEntity
  8
RACCORDO
100
AcDbLine
 62
250
  6
CONTINUOUS
 10
120.4277906399
 20
122.4946332922
 11
120.8339439931
 21
122.5017227253
  0
LINE
  5
43A
100
AcDbEntity
  8
RACCORDO
100
AcDbLine
 62
250
  6
CONTINUOUS
 10
120.0391431098
 20
122.4898894418
 11
120.3109181166
 21
122.4946332922
  0
LINE
  5
43B
100
AcDbEntity
  8
RACCORDO
100
AcDbLine
 62
7
  6
CONTINUOUS
 10
120.1560156331
 20
122.6898589808
 11
120.8248231559
 21
122.7015330596
  0
LINE
  5
43C
100
AcDbEntity
  8
RACCORDO
100
AcDbLine
 62
250
  6
CONTINUOUS
 10
119.6806085203
 20
122.8315378731
 11
120.7684856452
 21
122.8505268389
  0
LWPOLYLINE
  5
43D
100
AcDbEntity
  8
RACCORDO
100
AcDbPolyline
 62
250
  6
CONTINUOUS
 90
28
 70
0
 10
120.1560164219
 20
122.6898589946
 10
120.1240901533
 20
122.6896320649
 10
120.093241891
 20
122.6900531044
 10
120.0634718423
 20
122.6910738934
 10
120.0347966851
 20
122.6926383629
 10
120.0072005593
 20
122.6947010889
 10
119.9806346727
 20
122.6972446014
 10
119.9550916609
 20
122.7002373281
 10
119.9305793969
 20
122.7036431757
 10
119.907071416
 20
122.7074632747
 10
119.8845585337
 20
122.711673724
 10
119.8630502028
 20
122.7162493588
 10
119.8425474328
 20
122.7212081517
 10
119.8230156017
 20
122.7265382389
 10
119.804489271
 20
122.7322163595
 10
119.7870728482
 20
122.7382553488
 10
119.770749279
 20
122.7446404118
 10
119.7555354681
 20
122.7513525295
 10
119.7415865202
 20
122.7584038263
 10
119.7288794538
 20
122.7657934471
 10
119.7174370288
 20
122.7734857203
 10
119.7074829955
 20
122.7814390649
 10
119.6990503896
 20
122.7896776862
 10
119.6921063601
 20
122.7981276728
 10
119.6867766645
 20
122.8065885145
 10
119.6831041024
 20
122.8149686949
 10
119.6810477711
 20
122.8232945003
 10
119.6806085203
 20
122.8315378731
  0
LINE
  5
43E
100
AcDbEntity
  8
0
100
AcDbLine
 62
7
  6
CONTINUOUS
 10
119.8775857449
 20
123.102863248
 11
120.3080383281
 21
123.1032570179
  0
LINE
  5
43F
100
AcDbEntity
  8
RACCORDO
100
AcDbLine
 62
250
  6
CONTINUOUS
 10
120.3109181166
 20
122.4946332922
 11
120.4277906399
 21
122.4946332922
  0
LINE
  5
440
100
AcDbEntity
  8
RACCORDO
100
AcDbLine
 62
250
  6
CONTINUOUS
 10
119.6806085203
 20
122.8315378731
 11
119.5637359969
 21
122.8315378731
  0
LINE
  5
441
100
AcDbEntity
  8
0
100
AcDbLine
 62
250
  6
CONTINUOUS
 10
122.6746730639
 20
123.4036314914
 11
122.4781635451
 21
123.4036314914
  0
LWPOLYLINE
  5
442
100
AcDbEntity
  8
RACCORDO
100
AcDbPolyline
 62
250
  6
CONTINUOUS
 90
28
 70
0
 10
120.0391431098
 20
122.4898894418
 10
120.0074397831
 20
122.4902965165
 10
119.9767948147
 20
122.4919629629
 10
119.9472082045
 20
122.494888781
 10
119.9186950803
 20
122.4991520173
 10
119.8912403143
 20
122.5046746252
 10
119.8647985237
 20
122.5112224651
 10
119.8393627716
 20
122.5187623864
 10
119.8149399948
 20
122.5273275395
 10
119.791505621
 20
122.5367832369
 10
119.7690508933
 20
122.5471039331
 10
119.7475845686
 20
122.5583151734
 10
119.7271083454
 20
122.5703589066
 10
119.707588119
 20
122.5832340874
 10
119.6890579941
 20
122.5969417609
 10
119.671621983
 20
122.6114270114
 10
119.6552634483
 20
122.6266915875
 10
119.6399990274
 20
122.6427337406
 10
119.6259826445
 20
122.6594933094
 10
119.6131908154
 20
122.6770179485
 10
119.6016470244
 20
122.6952600033
 10
119.5915756481
 20
122.7140163481
 10
119.5830063251
 20
122.7334196589
 10
119.5759094168
 20
122.7533372596
 10
119.5704203838
 20
122.7731679968
 10
119.5665843796
 20
122.7927114858
 10
119.5643562506
 20
122.8121681112
 10
119.5637359969
 20
122.8315378731
  0
LWPOLYLINE
  5
443
100
AcDbEntity
  8
RACCORDO
100
AcDbPolyline
 62
250
  6
CONTINUOUS
 90
13
 70
0
 10
120.0057519673
 20
125.435229899
 10
119.9907453194
 20
125.440608857
 10
119.976579831
 20
125.4484742045
 10
119.9634496434
 20
125.458740649
 10
119.9515287148
 20
125.4713003701
 10
119.9409968774
 20
125.4859951457
 10
119.9320256244
 20
125.502602122
 10
119.9247406068
 20
125.5208861141
 10
119.9192334252
 20
125.5406140365
 10
119.9155794394
 20
125.5615172438
 10
119.913827333
 20
125.5833137629
 10
119.9139998784
 20
125.6057130651
 10
119.9160944201
 20
125.6284150643
  0
LWPOLYLINE
  5
444
100
AcDbEntity
  8
RACCORDO
100
AcDbPolyline
 62
250
  6
CONTINUOUS
 90
10
 70
0
 10
119.6711454458
 20
125.5248874463
 10
119.6511602406
 20
125.5326955132
 10
119.632875101
 20
125.5448960192
 10
119.6167232864
 20
125.5611998777
 10
119.6030875074
 20
125.5812207749
 10
119.5922908586
 20
125.6044843231
 10
119.5845891624
 20
125.6304393006
 10
119.5801649069
 20
125.6584707139
 10
119.5791229226
 20
125.6879143695
 10
119.5814878986
 20
125.7180726115
  0
LINE
  5
445
100
AcDbEntity
  8
RACCORDO
100
AcDbLine
 62
250
  6
CONTINUOUS
 10
123.0024880592
 20
130.4977141879
 11
123.0014679831
 21
130.4988133544
  0
LWPOLYLINE
  5
446
100
AcDbEntity
  8
RACCORDO
100
AcDbPolyline
 62
250
  6
CONTINUOUS
 90
25
 70
0
 10
129.1217903086
 20
125.0235133356
 10
129.2701058161
 20
125.0320972981
 10
129.4144912231
 20
125.0497328266
 10
129.5549465295
 20
125.0764199211
 10
129.6913965058
 20
125.1123083894
 10
129.8239163816
 20
125.1572484236
 10
129.9527318451
 20
125.2107906004
 10
130.078539991
 20
125.2731346949
 10
130.2006437246
 20
125.344080932
 10
130.3171774513
 20
125.4225805626
 10
130.4279530469
 20
125.5086737536
 10
130.5331586356
 20
125.6023203383
 10
130.6314929945
 20
125.7023510674
 10
130.7229658964
 20
125.8090376377
 10
130.8075675684
 20
125.9221083526
 10
130.8839674701
 20
126.0395788727
 10
130.9520378147
 20
126.1622803004
 10
131.011906389
 20
126.2893815333
 10
131.0626260115
 20
126.416404925
 10
131.103428405
 20
126.543515772
 10
131.1350818469
 20
126.6705487777
 10
131.1589439878
 20
126.7925304065
 10
131.1754673779
 20
126.9078028131
 10
131.184199467
 20
127.0180238427
 10
131.1851402551
 20
127.1231934954
  0
LINE
  5
447
100
AcDbEntity
  8
RACCORDO
100
AcDbLine
 62
250
  6
CONTINUOUS
 10
128.2277616095
 20
124.6080907075
 11
124.8746730639
 21
124.5495623292
  0
LINE
  5
448
100
AcDbEntity
  8
RACCORDO
100
AcDbLine
 62
7
  6
CONTINUOUS
 10
124.8746730639
 20
124.7495318682
 11
129.1148135987
 21
124.8235437966
  0
LINE
  5
449
100
AcDbEntity
  8
RACCORDO
100
AcDbLine
 62
250
  6
CONTINUOUS
 10
124.8746730639
 20
124.9493796283
 11
129.1217903086
 21
125.0235133356
  0
LINE
  5
44A
100
AcDbEntity
  8
0
100
AcDbLine
 62
250
  6
CONTINUOUS
 10
119.8537338975
 20
124.7506740014
 11
121.2235328909
 21
124.7028395665
  0
LINE
  5
44B
100
AcDbEntity
  8
0
100
AcDbLine
 62
7
  6
CONTINUOUS
 10
119.8572233155
 20
124.9505521668
 11
121.2270223089
 21
124.9027177319
  0
LWPOLYLINE
  5
44C
100
AcDbEntity
  8
0
100
AcDbPolyline
 62
250
  6
CONTINUOUS
 90
22
 70
0
 10
121.2235328909
 20
124.7028395665
 10
121.3232228921
 20
124.69511918
 10
121.4203035305
 20
124.6806045915
 10
121.514774806
 20
124.6592958013
 10
121.6068349177
 20
124.6310357563
 10
121.6962856666
 20
124.5959815095
 10
121.7825324552
 20
124.5546042194
 10
121.8658646236
 20
124.5067332514
 10
121.9459928317
 20
124.4525392401
 10
122.021454462
 20
124.3930052477
 10
122.0923578048
 20
124.3275115056
 10
122.1585945697
 20
124.2566777824
 10
122.2183772678
 20
124.1833464465
 10
122.2708571444
 20
124.1084759824
 10
122.3168829541
 20
124.0311079056
 10
122.3572134717
 20
123.9512091304
 10
122.3922108609
 20
123.8693232265
 10
122.4215129581
 20
123.7849066243
 10
122.4447920467
 20
123.6962955292
 10
122.461938888
 20
123.6029353429
 10
122.4730627208
 20
123.5053806636
 10
122.4781635451
 20
123.4036314914
  0
LINE
  5
44D
100
AcDbEntity
  8
RACCORDO
100
AcDbLine
 62
250
  6
CONTINUOUS
 10
120.8746730639
 20
124.9962832285
 11
119.6806085203
 21
125.3162318587
  0
LINE
  5
44E
100
AcDbEntity
  8
RACCORDO
100
AcDbLine
 62
7
  6
CONTINUOUS
 10
119.6711454458
 20
125.5248874463
 11
120.8746730639
 21
125.2024031929
  0
LINE
  5
44F
100
AcDbEntity
  8
RACCORDO
100
AcDbLine
 62
250
  6
CONTINUOUS
 10
119.9160944201
 20
125.6284150643
 11
119.5814878986
 21
125.7180726115
  0
LINE
  5
450
100
AcDbEntity
  8
RACCORDO
100
AcDbLine
 62
250
  6
CONTINUOUS
 10
120.0575157763
 20
125.6284150643
 11
120.8746730639
 21
125.409458429
  0
LWPOLYLINE
  5
451
100
AcDbEntity
  8
RACCORDO
100
AcDbPolyline
 62
250
  6
CONTINUOUS
 90
31
 70
0
 10
119.5814878986
 20
125.7180726115
 10
119.5705226861
 20
125.7214321051
 10
119.5600428274
 20
125.7252033688
 10
119.5500483225
 20
125.7293864027
 10
119.5405458068
 20
125.7340220441
 10
119.5315286449
 20
125.7390694556
 10
119.5229769307
 20
125.7444061254
 10
119.514893474
 20
125.7500230282
 10
119.507275465
 20
125.7559291893
 10
119.5000945687
 20
125.7620291724
 10
119.4933503906
 20
125.7683187956
 10
119.4870433252
 20
125.7748022408
 10
119.4811462207
 20
125.7813966169
 10
119.4756598867
 20
125.7880995064
 10
119.4705835136
 20
125.7949133268
 10
119.4658875202
 20
125.8017624401
 10
119.4615717832
 20
125.8086501374
 10
119.457636426
 20
125.8155731274
 10
119.4540522369
 20
125.8224458986
 10
119.450835927
 20
125.8292180546
 10
119.4479707852
 20
125.8359399917
 10
119.4453774673
 20
125.8426773873
 10
119.44304559
 20
125.8493847837
 10
119.4409855364
 20
125.8561076387
 10
119.439149112
 20
125.8630480021
 10
119.4375009437
 20
125.8702141198
 10
119.4360764045
 20
125.877597746
 10
119.4349334189
 20
125.8853761936
 10
119.4340912949
 20
125.8936085667
 10
119.4335307245
 20
125.9022357611
 10
119.4332517076
 20
125.9112577768
  0
LWPOLYLINE
  5
452
100
AcDbEntity
  8
RACCORDO
100
AcDbPolyline
 62
250
  6
CONTINUOUS
 90
9
 70
0
 10
123.0828369279
 20
82.9559930314
 10
123.0683284215
 20
82.9475501161
 10
123.0543857218
 20
82.939349174
 10
123.0414084252
 20
82.9316252431
 10
123.0297684597
 20
82.9245996907
 10
123.0197994255
 20
82.9184738682
 10
123.0117870342
 20
82.9134233413
 10
123.0059609202
 20
82.9095928574
 10
123.0024880592
 20
82.9070921979
  0
LINE
  5
453
100
AcDbEntity
  8
RACCORDO
100
AcDbLine
 62
7
  6
CONTINUOUS
 10
124.8746730639
 20
126.2254901299
 11
128.1868897484
 21
126.2833050871
  0
LINE
  5
454
100
AcDbEntity
  8
RACCORDO
100
AcDbLine
 62
250
  6
CONTINUOUS
 10
119.434395143
 20
125.5267775206
 11
119.374673064
 21
125.5267746977
  0
LINE
  5
455
100
AcDbEntity
  8
RACCORDO
100
AcDbLine
 62
250
  6
CONTINUOUS
 10
120.0575157763
 20
125.6284150643
 11
119.9160944201
 21
125.6284150643
  0
LINE
  5
456
100
AcDbEntity
  8
RACCORDO
100
AcDbLine
 62
250
  6
CONTINUOUS
 10
119.3746730639
 20
125.9112577768
 11
119.4332517076
 21
125.9112577768
  0
LINE
  5
457
100
AcDbEntity
  8
RACCORDO
100
AcDbLine
 62
250
  6
CONTINUOUS
 10
124.8746730639
 20
125.9745673769
 11
124.6851402551
 21
125.9745673769
  0
LINE
  5
458
100
AcDbEntity
  8
RACCORDO
100
AcDbLine
 62
250
  6
CONTINUOUS
 10
131.1851402551
 20
127.1231934954
 11
131.3746730639
 21
127.1231934954
  0
LINE
  5
459
100
AcDbEntity
  8
RACCORDO
100
AcDbLine
 62
250
  6
CONTINUOUS
 10
120.8746730639
 20
126.0536743043
 11
124.6851402551
 21
125.9745673769
  0
LINE
  5
45A
100
AcDbEntity
  8
RACCORDO
100
AcDbLine
 62
250
  6
CONTINUOUS
 10
120.8746730639
 20
126.190243659
 11
124.6851402551
 21
126.111545013
  0
LWPOLYLINE
  5
45B
100
AcDbEntity
  8
RACCORDO
100
AcDbPolyline
 62
250
  6
CONTINUOUS
 90
9
 70
0
 10
123.0828369279
 20
130.4488133544
 10
123.0683284221
 20
130.4572562694
 10
123.0543857227
 20
130.4654572113
 10
123.0414084263
 20
130.473181142
 10
123.0297684607
 20
130.4802066945
 10
123.0197994263
 20
130.4863325171
 10
123.0117870348
 20
130.4913830442
 10
123.0059609204
 20
130.4952135282
 10
123.0024880592
 20
130.4977141879
  0
LWPOLYLINE
  5
45C
100
AcDbEntity
  8
0
100
AcDbPolyline
 62
7
  6
CONTINUOUS
 90
10
 70
0
 43
0.3500000006
 10
126.5603848572
 20
144.2066828613
 10
126.63181604
 20
144.0638204956
 10
126.63181604
 20
143.9923983765
 10
126.488962738
 20
143.8495360107
 10
126.4175315552
 20
143.8495360107
 10
126.3461003723
 20
143.9209581299
 10
126.3461003723
 20
143.9923983765
 10
126.4175315552
 20
144.1352426147
 10
126.488962738
 20
144.2066828613
 10
126.5603848572
 20
144.2066828613
  0
LWPOLYLINE
  5
45D
100
AcDbEntity
  8
RACCORDO
100
AcDbPolyline
 62
250
  6
CONTINUOUS
 90
8
 70
0
 10
123.0498701203
 20
82.9479536547
 10
123.0363781772
 20
82.9412310691
 10
123.024266653
 20
82.9351148299
 10
123.0138818427
 20
82.9297798161
 10
123.0055206728
 20
82.9253785624
 10
122.9994222088
 20
82.9220369091
 10
122.9957608182
 20
82.9198504049
 10
122.9946411875
 20
82.9188815669
  0
LINE
  5
45E
100
AcDbEntity
  8
RACCORDO
100
AcDbLine
 62
250
  6
CONTINUOUS
 10
123.0794237658
 20
82.9624371414
 11
123.0498701203
 21
82.9479536547
  0
LWPOLYLINE
  5
45F
100
AcDbEntity
  8
RACCORDO
100
AcDbPolyline
 62
250
  6
CONTINUOUS
 90
19
 70
0
 10
119.4332517076
 20
82.993530518
 10
119.4262717134
 20
82.9910706855
 10
119.4198330943
 20
82.9886896563
 10
119.4139230654
 20
82.9863874302
 10
119.4085251607
 20
82.9841614385
 10
119.4036235211
 20
82.9820142499
 10
119.3992023421
 20
82.9799535711
 10
119.3952580669
 20
82.9779898425
 10
119.3917474282
 20
82.9761126237
 10
119.3886053494
 20
82.9742982997
 10
119.3858325805
 20
82.9725519752
 10
119.3834022287
 20
82.9708685456
 10
119.3812445847
 20
82.9692090816
 10
119.3793714193
 20
82.9675697838
 10
119.3777951512
 20
82.9659544516
 10
119.3764978293
 20
82.9643355549
 10
119.3755116095
 20
82.9627039168
 10
119.3748896396
 20
82.9610687141
 10
119.3746730639
 20
82.9594299468
  0
LINE
  5
460
100
AcDbEntity
  8
RACCORDO
100
AcDbLine
 62
250
  6
CONTINUOUS
 10
131.1851402551
 20
127.3109873709
 11
131.3746730639
 21
127.3109873709
  0
LINE
  5
461
100
AcDbEntity
  8
RACCORDO
100
AcDbLine
 62
250
  6
CONTINUOUS
 10
122.1694234009
 20
127.9621176891
 11
122.0325234573
 21
127.9621176945
  0
LINE
  5
462
100
AcDbEntity
  8
ASSI
100
AcDbLine
 62
7
  6
CONTINUOUS
 10
122.1746730639
 20
128.9264449313
 11
126.0515447085
 21
128.858773885
  0
LINE
  5
463
100
AcDbEntity
  8
RACCORDO
100
AcDbLine
 62
250
  6
CONTINUOUS
 10
120.8746730639
 20
127.840935907
 11
122.0325234573
 21
127.8138545216
  0
LINE
  5
464
100
AcDbEntity
  8
RACCORDO
100
AcDbLine
 62
250
  6
CONTINUOUS
 10
120.8746730639
 20
127.9890731918
 11
122.0325234573
 21
127.9621176945
  0
LINE
  5
465
100
AcDbEntity
  8
RACCORDO
100
AcDbLine
 62
7
  6
CONTINUOUS
 10
124.6851402551
 20
128.3708351825
 11
122.1746730639
 21
128.5024031929
  0
LINE
  5
466
100
AcDbEntity
  8
RACCORDO
100
AcDbLine
 62
250
  6
CONTINUOUS
 10
124.6851402551
 20
128.3236989163
 11
122.1746730639
 21
128.4554865922
  0
LINE
  5
467
100
AcDbEntity
  8
ASSI
100
AcDbLine
 62
7
  6
CONTINUOUS
 10
126.3926071108
 20
128.8133523824
 11
128.3460522028
 21
128.3200838208
  0
LWPOLYLINE
  5
468
100
AcDbEntity
  8
RACCORDO
100
AcDbPolyline
 62
250
  6
CONTINUOUS
 90
19
 70
0
 10
119.4332517076
 20
130.4112905086
 10
119.4276241948
 20
130.4132591177
 10
119.4222861074
 20
130.4151998963
 10
119.4172395782
 20
130.4171128444
 10
119.4125162722
 20
130.4189884312
 10
119.4080831428
 20
130.4208361874
 10
119.4038590973
 20
130.4226847058
 10
119.3998476335
 20
130.4245407761
 10
119.396076635
 20
130.4263976084
 10
119.3925258016
 20
130.4282634255
 10
119.3892199197
 20
130.4301416356
 10
119.3861843264
 20
130.4320288303
 10
119.3834198134
 20
130.4339230081
 10
119.3809652928
 20
130.4358255115
 10
119.37885689
 20
130.4377349979
 10
119.3771173773
 20
130.4396454369
 10
119.3757983971
 20
130.4415548184
 10
119.3749642042
 20
130.4434651524
 10
119.3746730639
 20
130.445376439
  0
LWPOLYLINE
  5
469
100
AcDbEntity
  8
RACCORDO
100
AcDbPolyline
 62
250
  6
CONTINUOUS
 90
9
 70
0
 10
123.0794240558
 20
130.4423700058
 10
123.0498699336
 20
130.4568543427
 10
123.0363778401
 20
130.4635772955
 10
123.024266261
 20
130.4696938443
 10
123.0138815083
 20
130.4750290957
 10
123.0055205155
 20
130.479430497
 10
122.9994223536
 20
130.4827721961
 10
122.9957613929
 20
130.4849586411
 10
122.994642313
 20
130.4859273134
  0
LWPOLYLINE
  5
46A
100
AcDbEntity
  8
0
100
AcDbPolyline
 62
7
  6
CONTINUOUS
 90
10
 70
0
 43
0.3500000006
 10
124.0103886108
 20
151.943166687
 10
124.0818197937
 20
151.8003043213
 10
124.0818197937
 20
151.7288822021
 10
123.938957428
 20
151.5860198364
 10
123.8675262451
 20
151.5860198364
 10
123.796104126
 20
151.657460083
 10
123.796104126
 20
151.7288822021
 10
123.8675262451
 20
151.8717445679
 10
123.938957428
 20
151.943166687
 10
124.0103886108
 20
151.943166687
  0
LINE
  5
46B
100
AcDbEntity
  8
RACCORDO
100
AcDbLine
 62
250
  6
CONTINUOUS
 10
126.1265795605
 20
83.1716483243
 11
123.9408013226
 21
82.1524031929
  0
LINE
  5
46C
100
AcDbEntity
  8
RACCORDO
100
AcDbLine
 62
7
  6
CONTINUOUS
 10
126.2006360216
 20
82.9903867669
 11
123.9746730639
 21
81.9524031929
  0
LINE
  5
46D
100
AcDbEntity
  8
RACCORDO
100
AcDbLine
 62
250
  6
CONTINUOUS
 10
120.0575157763
 20
130.4366117406
 11
120.8746730639
 21
130.4794371393
  0
LINE
  5
46E
100
AcDbEntity
  8
RACCORDO
100
AcDbLine
 62
250
  6
CONTINUOUS
 10
119.4332517076
 20
130.4113070263
 11
119.9160944201
 21
130.4366117406
  0
LINE
  5
46F
100
AcDbEntity
  8
RACCORDO
100
AcDbLine
 62
7
  6
CONTINUOUS
 10
119.5168226704
 20
130.6085496848
 11
120.8746730639
 21
130.6797116085
  0
LINE
  5
470
100
AcDbEntity
  8
RACCORDO
100
AcDbLine
 62
250
  6
CONTINUOUS
 10
122.1746730639
 20
129.4575825213
 11
122.0325234573
 21
129.4575825213
  0
LINE
  5
471
100
AcDbEntity
  8
RACCORDO
100
AcDbLine
 62
250
  6
CONTINUOUS
 10
122.8746730639
 20
129.9924447006
 11
122.7325234573
 21
129.9924447006
  0
LINE
  5
472
100
AcDbEntity
  8
RACCORDO
100
AcDbLine
 62
250
  6
CONTINUOUS
 10
120.0575157763
 20
130.4366117406
 11
119.9160944201
 21
130.4366117406
  0
LINE
  5
473
100
AcDbEntity
  8
RACCORDO
100
AcDbLine
 62
250
  6
CONTINUOUS
 10
122.7325234573
 20
130.4973968892
 11
122.8746730639
 21
130.4973968892
  0
LINE
  5
474
100
AcDbEntity
  8
ASSI
100
AcDbLine
 62
7
  6
CONTINUOUS
 10
122.8732217595
 20
130.4142517185
 11
122.9177204154
 21
130.4134749915
  0
LINE
  5
475
100
AcDbEntity
  8
RACCORDO
100
AcDbLine
 62
250
  6
CONTINUOUS
 10
122.7325234573
 20
130.4973968892
 11
120.8746730639
 21
130.5298257884
  0
LINE
  5
476
100
AcDbEntity
  8
RACCORDO
100
AcDbLine
 62
7
  6
CONTINUOUS
 10
122.7272909248
 20
130.6473740435
 11
120.8746730639
 21
130.6797116085
  0
LWPOLYLINE
  5
477
100
AcDbEntity
  8
ASSI
100
AcDbPolyline
 62
7
  6
CONTINUOUS
 90
24
 70
0
 10
126.9246730639
 20
129.9901499444
 10
126.9495495758
 20
129.9887730937
 10
126.9730976859
 20
129.9855814985
 10
126.9953173941
 20
129.9805751586
 10
127.0162960071
 20
129.9734766055
 10
127.0359462181
 20
129.9645633077
 10
127.0540061076
 20
129.9546676711
 10
127.0703042417
 20
129.9439102757
 10
127.0850120543
 20
129.9321705415
 10
127.098381927
 20
129.9199191348
 10
127.1104282656
 20
129.9072156351
 10
127.1211366642
 20
129.8940004629
 10
127.1307162873
 20
129.8805655455
 10
127.1391832951
 20
129.8669129609
 10
127.1465215273
 20
129.853040631
 10
127.1528916667
 20
129.8392342493
 10
127.1582797889
 20
129.8255139896
 10
127.1626998184
 20
129.8118596781
 10
127.1663542116
 20
129.7984964862
 10
127.1692339374
 20
129.7854619066
 10
127.171348027
 20
129.7727184465
 10
127.1729260295
 20
129.7603787999
 10
127.1740444613
 20
129.7484805312
 10
127.1746268061
 20
129.736986076
  0
LINE
  5
478
100
AcDbEntity
  8
RACCORDO
100
AcDbLine
 62
250
  6
CONTINUOUS
 10
129.5992776718
 20
129.3470774271
 11
126.2154750207
 21
130.2015286084
  0
LINE
  5
479
100
AcDbEntity
  8
RACCORDO
100
AcDbLine
 62
7
  6
CONTINUOUS
 10
129.6377759488
 20
129.5409907658
 11
126.2539732978
 21
130.395441947
  0
LWPOLYLINE
  5
47A
100
AcDbEntity
  8
RACCORDO
100
AcDbPolyline
 62
250
  6
CONTINUOUS
 90
10
 70
0
 10
126.2154750207
 20
130.2015286084
 10
126.2053056685
 20
130.2042114258
 10
126.1952088309
 20
130.2071022962
 10
126.185184508
 20
130.2102012197
 10
126.1752320264
 20
130.2135084114
 10
126.1653520594
 20
130.2170236561
 10
126.1555466273
 20
130.2207463081
 10
126.1458164035
 20
130.224676152
 10
126.1361607146
 20
130.2288134032
 10
126.1265795605
 20
130.2331580616
  0
LINE
  5
47B
100
AcDbEntity
  8
RACCORDO
100
AcDbLine
 62
250
  6
CONTINUOUS
 10
126.1265795605
 20
130.2331580616
 11
123.9408013226
 21
131.2524031929
  0
LINE
  5
47C
100
AcDbEntity
  8
RACCORDO
100
AcDbLine
 62
7
  6
CONTINUOUS
 10
126.2006360216
 20
130.414419619
 11
123.9746730639
 21
131.4524031929
  0
LWPOLYLINE
  5
47D
100
AcDbEntity
  8
RACCORDO
100
AcDbPolyline
 62
250
  6
CONTINUOUS
 90
13
 70
0
 10
120.0470485851
 20
130.6363376475
 10
120.029326082
 20
130.6338084398
 10
120.0120001319
 20
130.6281045619
 10
119.9953550382
 20
130.6192880716
 10
119.9796535751
 20
130.6074599374
 10
119.9651796695
 20
130.5927932234
 10
119.9522199231
 20
130.5755579192
 10
119.9409963774
 20
130.5560521345
 10
119.9316833306
 20
130.5345820355
 10
119.9244383031
 20
130.5115124987
 10
119.9193785115
 20
130.4872282203
 10
119.9165828114
 20
130.4621240543
 10
119.9160944201
 20
130.4366117406
  0
LINE
  5
47E
100
AcDbEntity
  8
0
100
AcDbLine
 62
250
  6
CONTINUOUS
 10
119.3746730639
 20
132.6025745304
 11
116.0615845897
 21
132.5158182555
  0
LINE
  5
47F
100
AcDbEntity
  8
0
100
AcDbLine
 62
7
  6
CONTINUOUS
 10
119.3746730639
 20
133.1024031929
 11
116.0615845897
 21
133.015646918
  0
LINE
  5
480
100
AcDbEntity
  8
ASSI
100
AcDbLine
 62
250
  6
CONTINUOUS
 10
119.5607217691
 20
131.0918996884
 11
120.1746730639
 21
131.1026162481
  0
LINE
  5
481
100
AcDbEntity
  8
ASSI
100
AcDbLine
 62
7
  6
CONTINUOUS
 10
119.5711825826
 20
131.2918692274
 11
120.1746730639
 21
131.3024031929
  0
LINE
  5
482
100
AcDbEntity
  8
ASSI
100
AcDbLine
 62
250
  6
CONTINUOUS
 10
119.3746730639
 20
131.0918996884
 11
119.5607217691
 21
131.0918996884
  0
LINE
  5
483
100
AcDbEntity
  8
RACCORDO
100
AcDbLine
 62
250
  6
CONTINUOUS
 10
123.9408013226
 20
131.2524031929
 11
123.552023333
 21
131.2524031929
  0
LINE
  5
484
100
AcDbEntity
  8
RACCORDO
100
AcDbLine
 62
7
  6
CONTINUOUS
 10
123.9746730639
 20
131.4524031929
 11
123.552023333
 21
131.4524031929
  0
LINE
  5
485
100
AcDbEntity
  8
0
100
AcDbLine
 62
250
  6
CONTINUOUS
 10
116.0615845897
 20
132.5158182555
 11
115.5746730639
 21
132.5158182555
  0
LWPOLYLINE
  5
486
100
AcDbEntity
  8
0
100
AcDbPolyline
 62
7
  6
CONTINUOUS
 90
7
 70
0
 43
0.3500000006
 10
129.131816803
 20
143.706673645
 10
127.6318163452
 20
143.706673645
 10
129.131816803
 20
145.8495366211
 10
129.131816803
 20
146.2781055908
 10
128.7032478333
 20
146.7066745605
 10
128.0603853149
 20
146.7066745605
 10
127.6318163452
 20
146.063821106
  0
LWPOLYLINE
  5
487
100
AcDbEntity
  8
0
100
AcDbPolyline
 62
7
  6
CONTINUOUS
 90
8
 70
0
 43
0.3500000006
 10
121.2246721802
 20
151.4431574707
 10
122.0818191833
 20
151.4431574707
 10
122.5103881531
 20
151.8717445679
 10
122.5103881531
 20
152.7288825073
 10
122.0818191833
 20
153.1574514771
 10
121.2246721802
 20
153.1574514771
 10
121.2246721802
 20
154.4431583862
 10
122.5103881531
 20
154.4431583862
  0
LWPOLYLINE
  5
488
100
AcDbEntity
  8
0
100
AcDbPolyline
 62
7
  6
CONTINUOUS
 90
13
 70
0
 43
0.3500000006
 10
125.5103890686
 20
153.1574514771
 10
125.2246734009
 20
153.3717359619
 10
125.2246734009
 20
154.0145894165
 10
125.5103890686
 20
154.4431583862
 10
126.1532425232
 20
154.4431583862
 10
126.4389581909
 20
154.0145894165
 10
126.4389581909
 20
153.3717359619
 10
126.1532425232
 20
153.1574514771
 10
126.5818114929
 20
152.7288825073
 10
126.5818114929
 20
151.8717445679
 10
126.1532425232
 20
151.4431574707
 10
125.5103890686
 20
151.4431574707
 10
125.0818200989
 20
151.8717445679
  0
ARC
  5
489
100
AcDbEntity
  8
0
100
AcDbCircle
 62
7
  6
CONTINUOUS
 10
121.1746730639
 20
90.0011748945
 40
1.5
100
AcDbArc
 50
272.0
 51
360.0
  0
ARC
  5
48A
100
AcDbEntity
  8
0
100
AcDbCircle
 62
7
  6
CONTINUOUS
 10
121.1746730639
 20
94.4036314914
 40
1.5
100
AcDbArc
 50
0.0
 51
88.0
  0
ARC
  5
48B
100
AcDbEntity
  8
0
100
AcDbCircle
 62
7
  6
CONTINUOUS
 10
116.0746730639
 20
80.8889881304
 40
0.5
100
AcDbArc
 50
180.0
 51
268.5
  0
ARC
  5
48C
100
AcDbEntity
  8
RACCORDO
100
AcDbCircle
 62
7
  6
CONTINUOUS
 10
119.8746730639
 20
96.4502475803
 40
0.5
100
AcDbArc
 50
247.4315931641
 51
263.1921347836
  0
ARC
  5
48D
100
AcDbEntity
  8
0
100
AcDbCircle
 62
7
  6
CONTINUOUS
 10
119.8746730639
 20
96.4502475803
 40
0.5
100
AcDbArc
 50
180.0
 51
268.0
  0
ARC
  5
48E
100
AcDbEntity
  8
RACCORDO
100
AcDbCircle
 62
7
  6
CONTINUOUS
 10
119.8746730639
 20
87.9545588055
 40
0.5
100
AcDbArc
 50
96.9883357808
 51
111.7278736292
  0
ARC
  5
48F
100
AcDbEntity
  8
0
100
AcDbCircle
 62
7
  6
CONTINUOUS
 10
119.8746730639
 20
87.9545588055
 40
0.5
100
AcDbArc
 50
92.0
 51
180.0
  0
ARC
  5
490
100
AcDbEntity
  8
RACCORDO
100
AcDbCircle
 62
7
  6
CONTINUOUS
 10
119.7746730639
 20
96.9112577768
 40
0.4
100
AcDbArc
 50
180.0
 51
255.0
  0
ARC
  5
491
100
AcDbEntity
  8
RACCORDO
100
AcDbCircle
 62
7
  6
CONTINUOUS
 10
119.7746730639
 20
87.4935486091
 40
0.4
100
AcDbArc
 50
105.0
 51
180.0
  0
ARC
  5
492
100
AcDbEntity
  8
RACCORDO
100
AcDbCircle
 62
7
  6
CONTINUOUS
 10
122.3746730639
 20
83.9472238646
 40
0.2
100
AcDbArc
 50
180.0
 51
250.0
  0
ARC
  5
493
100
AcDbEntity
  8
ASSI
100
AcDbCircle
 62
7
  6
CONTINUOUS
 10
119.5746730639
 20
82.3129066975
 40
0.2
100
AcDbArc
 50
180.0
 51
269.0
  0
ARC
  5
494
100
AcDbEntity
  8
RACCORDO
100
AcDbCircle
 62
7
  6
CONTINUOUS
 10
119.5246730639
 20
82.9460511313
 40
0.15
100
AcDbArc
 50
180.0
 51
267.0
  0
ARC
  5
495
100
AcDbEntity
  8
0
100
AcDbCircle
 62
7
  6
CONTINUOUS
 10
121.1746730639
 20
119.0011748945
 40
1.5
100
AcDbArc
 50
272.0
 51
360.0
  0
ARC
  5
496
100
AcDbEntity
  8
0
100
AcDbCircle
 62
7
  6
CONTINUOUS
 10
121.1746730639
 20
123.4036314914
 40
1.5
100
AcDbArc
 50
0.0
 51
88.0
  0
ARC
  5
497
100
AcDbEntity
  8
0
100
AcDbCircle
 62
7
  6
CONTINUOUS
 10
116.0746730639
 20
132.5158182555
 40
0.5
100
AcDbArc
 50
91.5
 51
180.0
  0
ARC
  5
498
100
AcDbEntity
  8
RACCORDO
100
AcDbCircle
 62
7
  6
CONTINUOUS
 10
119.8746730639
 20
125.4502475803
 40
0.5
100
AcDbArc
 50
247.4315931641
 51
263.1921347836
  0
ARC
  5
499
100
AcDbEntity
  8
0
100
AcDbCircle
 62
7
  6
CONTINUOUS
 10
119.8746730639
 20
125.4502475803
 40
0.5
100
AcDbArc
 50
180.0
 51
268.0
  0
ARC
  5
49A
100
AcDbEntity
  8
RACCORDO
100
AcDbCircle
 62
7
  6
CONTINUOUS
 10
119.8746730639
 20
116.9545588055
 40
0.5
100
AcDbArc
 50
96.9883357808
 51
111.7278736292
  0
ARC
  5
49B
100
AcDbEntity
  8
0
100
AcDbCircle
 62
7
  6
CONTINUOUS
 10
119.8746730639
 20
116.9545588055
 40
0.5
100
AcDbArc
 50
92.0
 51
180.0
  0
ARC
  5
49C
100
AcDbEntity
  8
RACCORDO
100
AcDbCircle
 62
7
  6
CONTINUOUS
 10
119.7746730639
 20
116.4935486091
 40
0.4
100
AcDbArc
 50
105.0
 51
180.0
  0
ARC
  5
49D
100
AcDbEntity
  8
RACCORDO
100
AcDbCircle
 62
7
  6
CONTINUOUS
 10
119.7746730639
 20
125.9112577768
 40
0.4
100
AcDbArc
 50
180.0
 51
255.0
  0
ARC
  5
49E
100
AcDbEntity
  8
RACCORDO
100
AcDbCircle
 62
7
  6
CONTINUOUS
 10
122.3746730639
 20
129.4575825213
 40
0.2
100
AcDbArc
 50
110.0
 51
180.0
  0
ARC
  5
49F
100
AcDbEntity
  8
ASSI
100
AcDbCircle
 62
7
  6
CONTINUOUS
 10
119.5746730639
 20
131.0918996884
 40
0.2
100
AcDbArc
 50
91.0
 51
180.0
  0
ARC
  5
4A0
100
AcDbEntity
  8
RACCORDO
100
AcDbCircle
 62
7
  6
CONTINUOUS
 10
119.5246730639
 20
130.4587552546
 40
0.15
100
AcDbArc
 50
93.0
 51
170.3333333334
  0
ARC
  5
4A1
100
AcDbEntity
  8
RACCORDO
100
AcDbCircle
 62
7
  6
CONTINUOUS
 10
129.0746730639
 20
86.0938190149
 40
2.3
100
AcDbArc
 50
284.1716303686
 51
360.0
  0
ARC
  5
4A2
100
AcDbEntity
  8
RACCORDO
100
AcDbCircle
 62
7
  6
CONTINUOUS
 10
129.0746730639
 20
86.2816128904
 40
2.3
100
AcDbArc
 50
0.0
 51
89.0
  0
ARC
  5
4A3
100
AcDbEntity
  8
ASSI
100
AcDbCircle
 62
7
  6
CONTINUOUS
 10
126.0253660989
 20
86.0458040436
 40
1.5
100
AcDbArc
 50
271.0
 51
284.1716303686
  0
ARC
  5
4A4
100
AcDbEntity
  8
ASSI
100
AcDbCircle
 62
7
  6
CONTINUOUS
 10
128.1746730639
 20
85.7634192504
 40
0.7
100
AcDbArc
 50
284.1716303686
 51
360.0
  0
ARC
  5
4A5
100
AcDbEntity
  8
ASSI
100
AcDbCircle
 62
7
  6
CONTINUOUS
 10
128.1746730639
 20
86.4216079121
 40
0.7
100
AcDbArc
 50
0.0
 51
89.0
  0
ARC
  5
4A6
100
AcDbEntity
  8
RACCORDO
100
AcDbCircle
 62
7
  6
CONTINUOUS
 10
125.3746730639
 20
91.646567936
 40
0.5
100
AcDbArc
 50
180.0
 51
235.0
  0
ARC
  5
4A7
100
AcDbEntity
  8
ASSI
100
AcDbCircle
 62
7
  6
CONTINUOUS
 10
126.3274215001
 20
82.7184944308
 40
0.3
100
AcDbArc
 50
104.1716303686
 51
107.8182725185
  0
ARC
  5
4A8
100
AcDbEntity
  8
ASSI
100
AcDbCircle
 62
7
  6
CONTINUOUS
 10
126.3274215001
 20
82.7184944308
 40
0.3
100
AcDbArc
 50
111.3526752189
 51
115.0
  0
ARC
  5
4A9
100
AcDbEntity
  8
RACCORDO
100
AcDbCircle
 62
7
  6
CONTINUOUS
 10
126.3274215001
 20
82.7184944308
 40
0.3
100
AcDbArc
 50
104.1716303686
 51
115.0
  0
ARC
  5
4AA
100
AcDbEntity
  8
RACCORDO
100
AcDbCircle
 62
7
  6
CONTINUOUS
 10
122.6746730639
 20
83.4123616853
 40
0.2
100
AcDbArc
 50
0.0
 51
70.0
  0
ARC
  5
4AB
100
AcDbEntity
  8
RACCORDO
100
AcDbCircle
 62
7
  6
CONTINUOUS
 10
123.1746730639
 20
83.0059930314
 40
0.2
100
AcDbArc
 50
205.8208388395
 51
210.0
  0
ARC
  5
4AC
100
AcDbEntity
  8
ASSI
100
AcDbCircle
 62
7
  6
CONTINUOUS
 10
122.8231649692
 20
82.8150949974
 40
0.2
100
AcDbArc
 50
28.505628224
 51
75.0678539279
  0
ARC
  5
4AD
100
AcDbEntity
  8
RACCORDO
100
AcDbCircle
 62
7
  6
CONTINUOUS
 10
124.6746730639
 20
96.6018272234
 40
0.2
100
AcDbArc
 50
273.0
 51
360.0
  0
ARC
  5
4AE
100
AcDbEntity
  8
RACCORDO
100
AcDbCircle
 62
7
  6
CONTINUOUS
 10
124.6746730639
 20
85.2336971103
 40
0.2
100
AcDbArc
 50
273.0
 51
360.0
  0
ARC
  5
4AF
100
AcDbEntity
  8
RACCORDO
100
AcDbCircle
 62
7
  6
CONTINUOUS
 10
122.7246730639
 20
82.9074094967
 40
0.15
100
AcDbArc
 50
271.0
 51
360.0
  0
ARC
  5
4B0
100
AcDbEntity
  8
RACCORDO
100
AcDbCircle
 62
7
  6
CONTINUOUS
 10
129.0746730639
 20
127.1231934954
 40
2.3
100
AcDbArc
 50
271.0
 51
360.0
  0
ARC
  5
4B1
100
AcDbEntity
  8
RACCORDO
100
AcDbCircle
 62
7
  6
CONTINUOUS
 10
129.0746730639
 20
127.3109873709
 40
2.3
100
AcDbArc
 50
0.0
 51
75.8283696314
  0
ARC
  5
4B2
100
AcDbEntity
  8
ASSI
100
AcDbCircle
 62
7
  6
CONTINUOUS
 10
126.0253660989
 20
127.3590023423
 40
1.5
100
AcDbArc
 50
75.8283696314
 51
89.0
  0
ARC
  5
4B3
100
AcDbEntity
  8
ASSI
100
AcDbCircle
 62
7
  6
CONTINUOUS
 10
128.1746730639
 20
126.9831984738
 40
0.7
100
AcDbArc
 50
271.0
 51
360.0
  0
ARC
  5
4B4
100
AcDbEntity
  8
ASSI
100
AcDbCircle
 62
7
  6
CONTINUOUS
 10
128.1746730639
 20
127.6413871354
 40
0.7
100
AcDbArc
 50
0.0
 51
75.8283696314
  0
ARC
  5
4B5
100
AcDbEntity
  8
RACCORDO
100
AcDbCircle
 62
7
  6
CONTINUOUS
 10
125.3746730639
 20
121.7582384498
 40
0.5
100
AcDbArc
 50
125.0
 51
180.0
  0
ARC
  5
4B6
100
AcDbEntity
  8
ASSI
100
AcDbCircle
 62
7
  6
CONTINUOUS
 10
126.3274215001
 20
130.6863119551
 40
0.3
100
AcDbArc
 50
245.0
 51
248.6473247811
  0
ARC
  5
4B7
100
AcDbEntity
  8
ASSI
100
AcDbCircle
 62
7
  6
CONTINUOUS
 10
126.3274215001
 20
130.6863119551
 40
0.3
100
AcDbArc
 50
252.1817274814
 51
255.8283696314
  0
ARC
  5
4B8
100
AcDbEntity
  8
RACCORDO
100
AcDbCircle
 62
7
  6
CONTINUOUS
 10
126.3274215001
 20
130.6863119551
 40
0.3
100
AcDbArc
 50
245.0
 51
255.8283696314
  0
ARC
  5
4B9
100
AcDbEntity
  8
RACCORDO
100
AcDbCircle
 62
7
  6
CONTINUOUS
 10
122.6746730639
 20
129.9924447006
 40
0.2
100
AcDbArc
 50
290.0
 51
360.0
  0
ARC
  5
4BA
100
AcDbEntity
  8
RACCORDO
100
AcDbCircle
 62
7
  6
CONTINUOUS
 10
123.1746730639
 20
130.3988133544
 40
0.2
100
AcDbArc
 50
150.0
 51
154.1784836436
  0
ARC
  5
4BB
100
AcDbEntity
  8
ASSI
100
AcDbCircle
 62
7
  6
CONTINUOUS
 10
122.8231649691
 20
130.5897113886
 40
0.2000000001
100
AcDbArc
 50
284.932175708
 51
331.4943717533
  0
ARC
  5
4BC
100
AcDbEntity
  8
RACCORDO
100
AcDbCircle
 62
7
  6
CONTINUOUS
 10
124.6746730639
 20
116.8029791625
 40
0.2
100
AcDbArc
 50
0.0
 51
87.0
  0
ARC
  5
4BD
100
AcDbEntity
  8
RACCORDO
100
AcDbCircle
 62
7
  6
CONTINUOUS
 10
124.6746730639
 20
128.1711092755
 40
0.2
100
AcDbArc
 50
0.0
 51
87.0
  0
ARC
  5
4BE
100
AcDbEntity
  8
RACCORDO
100
AcDbCircle
 62
7
  6
CONTINUOUS
 10
122.7246730639
 20
130.4973968892
 40
0.15
100
AcDbArc
 50
0.0
 51
89.0
  0
ELLIPSE
  5
4BF
100
AcDbEntity
  8
0
100
AcDbEllipse
 62
7
  6
CONTINUOUS
 10
145.901466403
 20
80.8025745892
 30
0.0
 11
0.35379574
 21
0.35379574
 31
0.0
 40
0.999315002
 41
2.3565371065
 42
3.9266482006
  0
ELLIPSE
  5
4C0
100
AcDbEntity
  8
0
100
AcDbEllipse
 62
7
  6
CONTINUOUS
 10
167.1011236105
 20
80.8025745892
 30
0.0
 11
-0.35379574
 21
0.35379574
 31
0.0
 40
0.999315002
 41
-3.9266482006
 42
-2.3565371065
  0
ELLIPSE
  5
4C1
100
AcDbEntity
  8
0
100
AcDbEllipse
 62
7
  6
CONTINUOUS
 10
167.1011236105
 20
132.6022317967
 30
0.0
 11
-0.35379574
 21
-0.35379574
 31
0.0
 40
0.999315002
 41
2.3565371065
 42
3.9266482006
  0
ELLIPSE
  5
4C2
100
AcDbEntity
  8
0
100
AcDbEllipse
 62
7
  6
CONTINUOUS
 10
145.901466403
 20
132.6022317967
 30
0.0
 11
0.35379574
 21
-0.35379574
 31
0.0
 40
0.999315002
 41
2.3565371065
 42
3.9266482006
  0
ELLIPSE
  5
4C3
100
AcDbEntity
  8
0
100
AcDbEllipse
 62
7
  6
CONTINUOUS
 10
120.2984530666
 20
122.6025620765
 30
0.0
 11
0.5311280834
 21
0.0731475918
 31
0.0
 40
0.9325871428
 41
-0.1277376849
 42
1.4251577346
  0
ELLIPSE
  5
4C4
100
AcDbEntity
  8
0
100
AcDbEllipse
 62
7
  6
CONTINUOUS
 10
120.2984530666
 20
119.8022443094
 30
0.0
 11
0.5311280834
 21
-0.0731475918
 31
0.0
 40
0.9325871428
 41
-1.4251577346
 42
0.1277376849
  0
ELLIPSE
  5
4C5
100
AcDbEntity
  8
0
100
AcDbEllipse
 62
7
  6
CONTINUOUS
 10
120.2984530666
 20
90.8022443094
 30
0.0
 11
0.5311280834
 21
-0.0731475918
 31
0.0
 40
0.9325871428
 41
-1.4251577346
 42
0.1277376849
  0
ELLIPSE
  5
4C6
100
AcDbEntity
  8
0
100
AcDbEllipse
 62
7
  6
CONTINUOUS
 10
120.2984530666
 20
93.6025620765
 30
0.0
 11
0.5311280834
 21
0.0731475918
 31
0.0
 40
0.9325871428
 41
-0.1277376849
 42
1.4251577346
  0
ELLIPSE
  5
4C7
100
AcDbEntity
  8
0
100
AcDbEllipse
 62
7
  6
CONTINUOUS
 10
119.8828011335
 20
90.8026245399
 30
0.0
 11
0.4887171296
 21
0.1415543443
 31
0.0
 40
0.9826841313
 41
2.8642963944
 42
4.4248286156
  0
ELLIPSE
  5
4C8
100
AcDbEntity
  8
0
100
AcDbEllipse
 62
7
  6
CONTINUOUS
 10
119.8828011335
 20
93.6021818459
 30
0.0
 11
0.4887171296
 21
-0.1415543443
 31
0.0
 40
0.9826841313
 41
1.8583566916
 42
3.4188889127
  0
ELLIPSE
  5
4C9
100
AcDbEntity
  8
0
100
AcDbEllipse
 62
7
  6
CONTINUOUS
 10
119.8828011335
 20
122.6021818459
 30
0.0
 11
0.4887171296
 21
-0.1415543443
 31
0.0
 40
0.9826841313
 41
1.8583566916
 42
3.4188889127
  0
ELLIPSE
  5
4CA
100
AcDbEntity
  8
0
100
AcDbEllipse
 62
7
  6
CONTINUOUS
 10
119.8828011335
 20
119.8026245399
 30
0.0
 11
0.4887171296
 21
0.1415543443
 31
0.0
 40
0.9826841313
 41
2.8642963944
 42
4.4248286156
  0
ELLIPSE
  5
4CB
100
AcDbEntity
  8
RACCORDO
100
AcDbEllipse
 62
7
  6
CONTINUOUS
 10
118.0114849434
 20
96.7625369015
 30
0.0
 11
2.8627170326
 21
-0.7698834209
 31
0.0
 40
0.067460271
 41
0.0181404053
 42
0.0471621501
  0
ELLIPSE
  5
4CC
100
AcDbEntity
  8
RACCORDO
100
AcDbEllipse
 62
7
  6
CONTINUOUS
 10
118.0114849434
 20
116.6422694844
 30
0.0
 11
2.8627170326
 21
0.7698834209
 31
0.0
 40
0.067460271
 41
-0.0471621501
 42
-0.0181404053
  0
ELLIPSE
  5
4CD
100
AcDbEntity
  8
ASSI
100
AcDbEllipse
 62
7
  6
CONTINUOUS
 10
128.7993359222
 20
83.8024031929
 30
0.0
 11
7.6324546751
 21
0.0
 31
0.0
 40
0.0524077793
 41
-2.3288370922
 42
-1.8189527685
  0
ELLIPSE
  5
4CE
100
AcDbEntity
  8
ASSI
100
AcDbEllipse
 62
7
  6
CONTINUOUS
 10
128.7993359222
 20
83.8024031929
 30
0.0
 11
7.6324546751
 21
0.0
 31
0.0
 40
0.0524077793
 41
1.8189527685
 42
2.3288370922
  0
ELLIPSE
  5
4CF
100
AcDbEntity
  8
ASSI
100
AcDbEllipse
 62
7
  6
CONTINUOUS
 10
128.7993359222
 20
129.6024031929
 30
0.0
 11
7.6324546751
 21
0.0
 31
0.0
 40
0.0524077793
 41
-2.3288370922
 42
-1.8189527685
  0
ELLIPSE
  5
4D0
100
AcDbEntity
  8
ASSI
100
AcDbEllipse
 62
7
  6
CONTINUOUS
 10
128.7993359222
 20
129.6024031929
 30
0.0
 11
7.6324546751
 21
0.0
 31
0.0
 40
0.0524077793
 41
1.8189527685
 42
2.3288370922
  0
ENDSEC
  0
SECTION
  2
OBJECTS
  0
DICTIONARY
  5
C
100
AcDbDictionary
280
0
281
1
  3
ACAD_GROUP
350
D
  3
ACAD_MLINESTYLE
350
17
  3
ACAD_LAYOUT
350
1A
  3
ACAD_PLOTSETTINGS
350
19
  3
ACAD_PLOTSTYLENAME
350
E
  0
DICTIONARY
  5
D
102
{ACAD_REACTORS
330
C
102
}
100
AcDbDictionary
280
0
281
1
  0
ACDBDICTIONARYWDFLT
  5
E
102
{ACAD_REACTORS
330
C
102
}
100
AcDbDictionary
281
1
  3
Normal
350
F
100
AcDbDictionaryWithDefault
340
F
  0
DICTIONARY
  5
17
102
{ACAD_REACTORS
330
C
102
}
100
AcDbDictionary
280
0
281
1
  3
Standard
350
18
  0
DICTIONARY
  5
19
102
{ACAD_REACTORS
330
C
102
}
100
AcDbDictionary
281
1
  0
DICTIONARY
  5
1A
102
{ACAD_REACTORS
330
C
102
}
100
AcDbDictionary
281
1
  3
Model
350
4D1
  3
Layout1
350
4D2
  0
ACDBPLACEHOLDER
  5
F
102
{ACAD_REACTORS
330
E
102
}
  0
MLINESTYLE
  5
18
102
{ACAD_REACTORS
330
17
102
}
100
AcDbMlineStyle
  2
STANDARD
 70
0
  3

 62
256
 51
90.0
 52
90.0
 71
2
 49
0.5
 62
256
  6
BYLAYER
 49
-0.5
 62
256
  6
BYLAYER
  0
LAYOUT
  5
4D1
102
{ACAD_REACTORS
330
1A
102
}
100
AcDbPlotSettings
  1

  2
none_device
  4
ISO_A4_(297.00_x_210.00_MM)
  6

 40
0.0
 41
0.0
 42
0.0
 43
0.0
 44
297.0
 45
210.0
 46
0.0
 47
0.0
 48
0.0
 49
0.0
140
0.0
141
0.0
142
1.0
143
1.0
 70
1024
 72
1
 73
0
 74
0
  7

 75
0
147
1.0
148
0.0
149
0.0
100
AcDbLayout
  1
Model
 70
0
 71
0
 10
0.0
 20
0.0
 11
297.0
 21
210.0
 12
0.0
 22
0.0
 32
0.0
 14
0.0
 24
0.0
 34
0.0
 15
0.0
 25
0.0
 35
0.0
146
0.0
 13
0.0
 23
0.0
 33
0.0
 16
1.0
 26
0.0
 36
0.0
 17
0.0
 27
1.0
 37
0.0
 76
0
330
210
345
0
346
0
  0
LAYOUT
  5
4D2
102
{ACAD_REACTORS
330
1A
102
}
100
AcDbPlotSettings
  1

  2
none_device
  4
ISO_A4_(297.00_x_210.00_MM)
  6

 40
0.0
 41
0.0
 42
0.0
 43
0.0
 44
297.0
 45
210.0
 46
0.0
 47
0.0
 48
0.0
 49
0.0
140
0.0
141
0.0
142
1.0
143
1.0
 70
0
 72
1
 73
0
 74
0
  7

 75
0
147
1.0
148
0.0
149
0.0
100
AcDbLayout
  1
Layout1
 70
0
 71
1
 10
0.0
 20
0.0
 11
297.0
 21
210.0
 12
0.0
 22
0.0
 32
0.0
 14
0.0
 24
0.0
 34
0.0
 15
0.0
 25
0.0
 35
0.0
146
0.0
 13
0.0
 23
0.0
 33
0.0
 16
1.0
 26
0.0
 36
0.0
 17
0.0
 27
1.0
 37
0.0
 76
0
330
211
345
0
346
0
  0
ENDSEC
  0
EOF
