  0
SECTION
  2
HEADER
  9
$ACADVER
  1
AC1024
  9
$DWGCODEPAGE
  3
ANSI_1252
  9
$EXTMAX
 10
297.0
 20
210.0
 30
0.0
  9
$EXTMIN
 10
0.0
 20
0.0
 30
0.0
  9
$LIMMIN
 10
0.0
 20
0.0
  9
$LIMMAX
 10
297.0
 20
210.0
  9
$VIEWCTR
 10
148.5
 20
105.0
  9
$VIEWSIZE
 40
210.0
  9
$CLAYER
  8
0
  9
$LTSCALE
 40
16.335
  9
$CELTYPE
  6
BYLAYER
  9
$DIMSCALE
 40
1.0
  9
$DIMASZ
 40
3.0
  9
$DIMEXO
 40
0.5
  9
$DIMDLI
 40
11.286
  9
$DIMEXE
 40
1.5
  9
$DIMCEN
 40
2.673
  9
$DIMLFAC
 40
1.0
  9
$DIMBLK
  1
_FILLED
  9
$DIMALT
 70
0
  9
$DIMALTF
 40
0.0393700787
  9
$DIMTXT
 40
3.0
  9
$DIMTOL
 70
1
  9
$DIMLIM
 70
0
  9
$DIMTFAC
 40
1.0
  9
$DIMTP
 40
0.01
  9
$DIMTM
 40
0.01
  9
$DIMGAP
 40
0.625
  9
$DIMDSEP
 70
44
  9
$AUNITS
 70
0
  9
$PDMODE
 70
3
  9
$PDSIZE
 40
3.0
  9
$HANDSEED
  5
437
  9
$TILEMODE
 70
1
  9
$MEASUREMENT
 70
1
  9
$INSUNITS
 70
4
  0
ENDSEC
  0
SECTION
  2
CLASSES
  0
CLASS
  1
ACDBDICTIONARYWDFLT
  2
AcDbDictionaryWithDefault
  3
AutoCAD 2000
 90
0
 91
1
280
0
281
0
  0
CLASS
  1
ACDBPLACEHOLDER
  2
AcDbPlaceHolder
  3
AutoCAD 2000
 90
0
 91
1
280
0
281
0
  0
CLASS
  1
LAYOUT
  2
AcDbLayout
  3
AutoCAD 2000
 90
0
 91
0
280
0
281
0
  0
ENDSEC
  0
SECTION
  2
TABLES
  0
TABLE
  2
VPORT
  5
8
100
AcDbSymbolTable
 70
2
  0
VPORT
  5
1F4
100
AcDbSymbolTableRecord
100
AcDbViewportTableRecord
  2
*ACTIVE
 70
0
 10
0.0
 20
0.0
 11
1.0
 21
1.0
 12
148.5
 22
105.0
 13
0.0
 23
0.0
 14
1.0
 24
1.0
 15
0.0
 25
0.0
 16
0.0
 26
0.0
 36
1.0
 17
0.0
 27
0.0
 37
0.0
 40
210.0
 41
1.4142857143
 42
50.0
 43
0.0
 44
0.0
 50
0.0
 51
0.0
 71
0
 72
100
 73
1
 74
1
 75
0
 76
0
 77
0
 78
0
  0
ENDTAB
  0
TABLE
  2
LTYPE
  5
5
100
AcDbSymbolTable
 70
6
  0
LTYPE
  5
14
100
AcDbSymbolTableRecord
100
AcDbLinetypeTableRecord
  2
BYBLOCK
 70
0
  3

 72
65
 73
0
 40
0.0
  0
LTYPE
  5
15
100
AcDbSymbolTableRecord
100
AcDbLinetypeTableRecord
  2
BYLAYER
 70
0
  3

 72
65
 73
0
 40
0.0
  0
LTYPE
  5
16
100
AcDbSymbolTableRecord
100
AcDbLinetypeTableRecord
  2
CONTINUOUS
 70
64
  3
Solid line
 72
65
 73
0
 40
0.0
  0
LTYPE
  5
1F5
100
AcDbSymbolTableRecord
100
AcDbLinetypeTableRecord
  2
CENTER
 70
64
  3
____ _ ____ _ ____ _ ____ _ ____ _ ____ _ ____
 72
65
 73
4
 40
0.6
 49
0.375
 74
0
 49
-0.075
 74
0
 49
0.075
 74
0
 49
-0.075
 74
0
  0
LTYPE
  5
1F6
100
AcDbSymbolTableRecord
100
AcDbLinetypeTableRecord
  2
HIDDEN
 70
64
  3
- - - - - - - - - - - - - - - - - - - -
 72
65
 73
2
 40
0.2
 49
0.1
 74
0
 49
-0.1
 74
0
  0
LTYPE
  5
1F7
100
AcDbSymbolTableRecord
100
AcDbLinetypeTableRecord
  2
PHANTOM
 70
64
  3
_____ _ _ _____ _ _ _____ _ _ _____
 72
65
 73
6
 40
0.8
 49
0.45
 74
0
 49
-0.05
 74
0
 49
0.1
 74
0
 49
-0.05
 74
0
 49
0.1
 74
0
 49
-0.05
 74
0
  0
LTYPE
  5
1F8
100
AcDbSymbolTableRecord
100
AcDbLinetypeTableRecord
  2
DOT
 70
64
  3
. . . . . . . . . . . . . . . . . . . .
 72
65
 73
2
 40
0.2
 49
0.1
 74
0
 49
-0.1
 74
0
  0
LTYPE
  5
1F9
100
AcDbSymbolTableRecord
100
AcDbLinetypeTableRecord
  2
DASHED
 70
64
  3
- - - - - - - - - - - - - - - - - - - -
 72
65
 73
2
 40
0.2
 49
0.1
 74
0
 49
-0.1
 74
0
  0
ENDTAB
  0
TABLE
  2
LAYER
  5
2
100
AcDbSymbolTable
 70
36
  0
LAYER
  5
10
100
AcDbSymbolTableRecord
100
AcDbLayerTableRecord
  2
0
 70
0
 62
7
  6
CONTINUOUS
370
-3
390
F
  0
LAYER
  5
1FA
100
AcDbSymbolTableRecord
100
AcDbLayerTableRecord
  2
DEFAULT_1
 70
0
 62
7
  6
CENTER
370
-3
390
F
  0
LAYER
  5
1FB
100
AcDbSymbolTableRecord
100
AcDbLayerTableRecord
  2
DEFAULT_2
 70
0
 62
7
  6
HIDDEN
370
-3
390
F
  0
LAYER
  5
1FC
100
AcDbSymbolTableRecord
100
AcDbLayerTableRecord
  2
DEFAULT_3
 70
0
 62
7
  6
PHANTOM
370
-3
390
F
  0
LAYER
  5
1FD
100
AcDbSymbolTableRecord
100
AcDbLayerTableRecord
  2
ASSI
 70
0
 62
7
  6
CONTINUOUS
370
-3
390
F
  0
LAYER
  5
1FE
100
AcDbSymbolTableRecord
100
AcDbLayerTableRecord
  2
COORDINATE
 70
0
 62
7
  6
CONTINUOUS
370
-3
390
F
  0
LAYER
  5
1FF
100
AcDbSymbolTableRecord
100
AcDbLayerTableRecord
  2
COPY_PUBLISH
 70
0
 62
7
  6
CONTINUOUS
370
-3
390
F
  0
LAYER
  5
200
100
AcDbSymbolTableRecord
100
AcDbLayerTableRecord
  2
COSMETICI
 70
0
 62
7
  6
CONTINUOUS
370
-3
390
F
  0
LAYER
  5
201
100
AcDbSymbolTableRecord
100
AcDbLayerTableRecord
  2
CURVE
 70
0
 62
7
  6
CONTINUOUS
370
-3
390
F
  0
LAYER
  5
202
100
AcDbSymbolTableRecord
100
AcDbLayerTableRecord
  2
DRAFT
 70
0
 62
7
  6
CONTINUOUS
370
-3
390
F
  0
LAYER
  5
203
100
AcDbSymbolTableRecord
100
AcDbLayerTableRecord
  2
IMPORT_IGES
 70
0
 62
7
  6
CONTINUOUS
370
-3
390
F
  0
LAYER
  5
204
100
AcDbSymbolTableRecord
100
AcDbLayerTableRecord
  2
INTF_11
 70
0
 62
7
  6
CONTINUOUS
370
-3
390
F
  0
LAYER
  5
205
100
AcDbSymbolTableRecord
100
AcDbLayerTableRecord
  2
INTF_9
 70
0
 62
7
  6
CONTINUOUS
370
-3
390
F
  0
LAYER
  5
206
100
AcDbSymbolTableRecord
100
AcDbLayerTableRecord
  2
NOTE
 70
0
 62
7
  6
CONTINUOUS
370
-3
390
F
  0
LAYER
  5
207
100
AcDbSymbolTableRecord
100
AcDbLayerTableRecord
  2
PIANI
 70
0
 62
7
  6
CONTINUOUS
370
-3
390
F
  0
LAYER
  5
208
100
AcDbSymbolTableRecord
100
AcDbLayerTableRecord
  2
PUNTI
 70
0
 62
7
  6
CONTINUOUS
370
-3
390
F
  0
LAYER
  5
209
100
AcDbSymbolTableRecord
100
AcDbLayerTableRecord
  2
RACCORDO
 70
0
 62
7
  6
CONTINUOUS
370
-3
390
F
  0
LAYER
  5
20A
100
AcDbSymbolTableRecord
100
AcDbLayerTableRecord
  2
SIMBOLI
 70
0
 62
7
  6
CONTINUOUS
370
-3
390
F
  0
LAYER
  5
20B
100
AcDbSymbolTableRecord
100
AcDbLayerTableRecord
  2
SMUSSO
 70
0
 62
7
  6
CONTINUOUS
370
-3
390
F
  0
LAYER
  5
20C
100
AcDbSymbolTableRecord
100
AcDbLayerTableRecord
  2
SNAPLINE
 70
0
 62
7
  6
CONTINUOUS
370
-3
390
F
  0
LAYER
  5
20D
100
AcDbSymbolTableRecord
100
AcDbLayerTableRecord
  2
SUPERFICI
 70
0
 62
7
  6
CONTINUOUS
370
-3
390
F
  0
LAYER
  5
20E
100
AcDbSymbolTableRecord
100
AcDbLayerTableRecord
  2
TRASH
 70
0
 62
7
  6
CONTINUOUS
370
-3
390
F
  0
ENDTAB
  0
TABLE
  2
STYLE
  5
3
100
AcDbSymbolTable
 70
1
  0
STYLE
  5
11
100
AcDbSymbolTableRecord
100
AcDbTextStyleTableRecord
  2
STANDARD
 70
0
 40
0.0
 41
0.8
 50
0.0
 71
0
 42
0.2
  3
txt
  4

  0
STYLE
  5
20F
100
AcDbSymbolTableRecord
100
AcDbTextStyleTableRecord
  2
TEXTSTYLE_1
 70
0
 40
0.0
 41
0.8
 50
0.0
 71
0
 42
0.2
  3
gdt
  4

  0
ENDTAB
  0
TABLE
  2
VIEW
  5
6
100
AcDbSymbolTable
 70
0
  0
ENDTAB
  0
TABLE
  2
UCS
  5
7
100
AcDbSymbolTable
 70
0
  0
ENDTAB
  0
TABLE
  2
APPID
  5
9
100
AcDbSymbolTable
 70
1
  0
APPID
  5
210
100
AcDbSymbolTableRecord
100
AcDbRegAppTableRecord
  2
ACAD
 70
0
  0
ENDTAB
  0
TABLE
  2
BLOCK_RECORD
  5
1
100
AcDbSymbolTable
 70
0
  0
BLOCK_RECORD
  5
211
100
AcDbSymbolTableRecord
100
AcDbBlockTableRecord
  2
*Model_Space
  0
BLOCK_RECORD
  5
212
100
AcDbSymbolTableRecord
100
AcDbBlockTableRecord
  2
*Paper_Space
  0
BLOCK_RECORD
  5
213
100
AcDbSymbolTableRecord
100
AcDbBlockTableRecord
  2
_FILLED
  0
BLOCK_RECORD
  5
214
100
AcDbSymbolTableRecord
100
AcDbBlockTableRecord
  2
*D0
  0
BLOCK_RECORD
  5
215
100
AcDbSymbolTableRecord
100
AcDbBlockTableRecord
  2
*D1
  0
BLOCK_RECORD
  5
216
100
AcDbSymbolTableRecord
100
AcDbBlockTableRecord
  2
*D2
  0
BLOCK_RECORD
  5
217
100
AcDbSymbolTableRecord
100
AcDbBlockTableRecord
  2
*D3
  0
BLOCK_RECORD
  5
218
100
AcDbSymbolTableRecord
100
AcDbBlockTableRecord
  2
*D4
  0
ENDTAB
  0
TABLE
  2
DIMSTYLE
  5
A
100
AcDbSymbolTable
 70
1
100
AcDbDimStyleTable
 71
0
  0
DIMSTYLE
105
219
100
AcDbSymbolTableRecord
100
AcDbDimStyleTableRecord
  2
STANDARD
 70
0
  3

  4

 40
1.0
 41
3.0
 42
0.5
 43
0.38
 44
1.5
 45
0.0
 46
0.0
 47
0.01
 48
0.01
140
3.0
141
0.0
142
0.0
143
25.4
144
1.0
145
0.0
146
1.0
147
0.625
 71
1
 72
0
 73
0
 74
0
 75
0
 76
0
 77
1
 78
8
 79
2
170
0
171
1
172
0
173
0
174
0
175
0
176
0
177
0
178
0
270
2
179
1
271
2
272
2
273
2
274
2
275
0
280
0
281
0
282
0
283
1
284
8
285
0
286
0
287
3
288
0
340
11
278
44
341
213
342
213
343
213
344
213
  0
DIMSTYLE
105
21A
100
AcDbSymbolTableRecord
100
AcDbDimStyleTableRecord
  2
DIMSTYLE_1
 70
0
  3

  4

 40
1.0
 41
3.0
 42
0.5
 43
0.38
 44
1.5
 45
0.0
 46
0.0
 47
0.0
 48
0.0
140
3.0
141
0.0
142
0.0
143
25.4
144
1.0
145
0.0
146
1.0
147
0.75
 71
0
 72
0
 73
0
 74
0
 75
0
 76
0
 77
1
 78
8
 79
2
170
0
171
1
172
0
173
0
174
0
175
0
176
0
177
0
178
0
270
2
179
2
271
2
272
2
273
2
274
2
275
0
280
0
281
0
282
0
283
1
284
8
285
0
286
0
287
3
288
0
340
11
278
44
341
213
342
213
343
213
344
213
  0
ENDTAB
  0
ENDSEC
  0
SECTION
  2
BLOCKS
  0
BLOCK
  5
20
100
AcDbEntity
  8
0
100
AcDbBlockBegin
  2
*Model_Space
 70
0
 10
0.0
 20
0.0
 30
0.0
  3
*Model_Space
  1

  0
ENDBLK
  5
21
100
AcDbEntity
  8
0
100
AcDbBlockEnd
  0
BLOCK
  5
1C
100
AcDbEntity
  8
0
100
AcDbBlockBegin
  2
*Paper_Space
 70
0
 10
0.0
 20
0.0
 30
0.0
  3
*Paper_Space
  1

  0
ENDBLK
  5
1D
100
AcDbEntity
  8
0
100
AcDbBlockEnd
  0
BLOCK
  5
21B
100
AcDbEntity
  8
0
100
AcDbBlockBegin
  2
_FILLED
 70
64
 10
0.0
 20
0.0
 30
0.0
  3
_FILLED
  1

  0
SOLID
  5
21C
100
AcDbEntity
  8
0
  6
BYBLOCK
 62
0
100
AcDbTrace
 10
0.0
 20
0.0
 30
0.0
 11
-1.0
 21
0.3166666667
 31
0.0
 12
-1.0
 22
-0.3166666667
 32
0.0
 13
-1.0
 23
-0.3166666667
 33
0.0
  0
ENDBLK
  5
21D
100
AcDbEntity
  8
0
  6
BYBLOCK
 62
0
100
AcDbBlockEnd
  0
BLOCK
  5
21E
100
AcDbEntity
  8
0
100
AcDbBlockBegin
 62
7
  6
CONTINUOUS
  2
*D0
 70
65
 10
0.0
 20
0.0
 30
0.0
  3
*D0
  1

  0
MTEXT
  5
21F
100
AcDbEntity
  8
0
100
AcDbMText
 62
7
  6
CONTINUOUS
  7
STANDARD
 71
2
 72
1
 10
-0.0
 20
40.2775681357
 30
0.0
 11
1.0
 21
0.0
 31
0.0
 73
2
 44
0.9
  1
{\ftxt;\W0.0001;\H0.0001;\~}{\ftxt;\W2.9285714286;\H3.0; }{\ftxt;\W0.0001;\H0.0001;\~}
 40
3.0
 41
13.1785714286
  0
LINE
  5
220
100
AcDbEntity
  8
0
100
AcDbLine
 62
7
  6
CONTINUOUS
 10
-22.35
 20
26.4001713375
 30
0.0
 11
-22.35
 21
38.0275681357
 31
0.0
  0
LINE
  5
221
100
AcDbEntity
  8
0
100
AcDbLine
 62
7
  6
CONTINUOUS
 10
22.35
 20
26.4001713375
 30
0.0
 11
22.35
 21
38.0275681357
 31
0.0
  0
LINE
  5
222
100
AcDbEntity
  8
0
100
AcDbLine
 62
7
  6
CONTINUOUS
 10
-22.35
 20
36.5275681357
 30
0.0
 11
-0.0
 21
36.5275681357
 31
0.0
  0
LINE
  5
223
100
AcDbEntity
  8
0
100
AcDbLine
 62
7
  6
CONTINUOUS
 10
22.35
 20
36.5275681357
 30
0.0
 11
-0.0
 21
36.5275681357
 31
0.0
  0
INSERT
  5
224
100
AcDbEntity
  8
0
100
AcDbBlockReference
 62
7
  6
CONTINUOUS
  2
_FILLED
 10
-22.35
 20
36.5275681357
 30
0.0
 41
3.0
 42
3.0
 43
3.0
 50
180.0
  0
INSERT
  5
225
100
AcDbEntity
  8
0
100
AcDbBlockReference
 62
7
  6
CONTINUOUS
  2
_FILLED
 10
22.35
 20
36.5275681357
 30
0.0
 41
3.0
 42
3.0
 43
3.0
  0
ENDBLK
  5
226
100
AcDbEntity
  8
0
  6
BYBLOCK
 62
0
100
AcDbBlockEnd
  0
BLOCK
  5
227
100
AcDbEntity
  8
0
100
AcDbBlockBegin
 62
7
  6
CONTINUOUS
  2
*D1
 70
65
 10
0.0
 20
0.0
 30
0.0
  3
*D1
  1

  0
MTEXT
  5
228
100
AcDbEntity
  8
0
100
AcDbMText
 62
7
  6
CONTINUOUS
  7
STANDARD
 71
2
 72
1
 10
30.4709943357
 20
0.0
 30
0.0
 11
0.0
 21
1.0
 31
0.0
 73
2
 44
0.9
  1
{\ftxt;\W0.0001;\H0.0001;\~}{\ftxt;\W2.8571428571;\H3.0; }{\ftxt;\W0.0001;\H0.0001;\~}
 40
3.0
 41
12.8571428571
  0
LINE
  5
229
100
AcDbEntity
  8
0
100
AcDbLine
 62
7
  6
CONTINUOUS
 10
22.3501713375
 20
26.4
 30
0.0
 11
35.7209943357
 21
26.4
 31
0.0
  0
LINE
  5
22A
100
AcDbEntity
  8
0
100
AcDbLine
 62
7
  6
CONTINUOUS
 10
22.3501713375
 20
-26.4
 30
0.0
 11
35.7209943357
 21
-26.4
 31
0.0
  0
LINE
  5
22B
100
AcDbEntity
  8
0
100
AcDbLine
 62
7
  6
CONTINUOUS
 10
34.2209943357
 20
26.4
 30
0.0
 11
34.2209943357
 21
0.0
 31
0.0
  0
LINE
  5
22C
100
AcDbEntity
  8
0
100
AcDbLine
 62
7
  6
CONTINUOUS
 10
34.2209943357
 20
-26.4
 30
0.0
 11
34.2209943357
 21
0.0
 31
0.0
  0
INSERT
  5
22D
100
AcDbEntity
  8
0
100
AcDbBlockReference
 62
7
  6
CONTINUOUS
  2
_FILLED
 10
34.2209943357
 20
26.4
 30
0.0
 41
3.0
 42
3.0
 43
3.0
 50
90.0
  0
INSERT
  5
22E
100
AcDbEntity
  8
0
100
AcDbBlockReference
 62
7
  6
CONTINUOUS
  2
_FILLED
 10
34.2209943357
 20
-26.4
 30
0.0
 41
3.0
 42
3.0
 43
3.0
 50
270.0
  0
ENDBLK
  5
22F
100
AcDbEntity
  8
0
  6
BYBLOCK
 62
0
100
AcDbBlockEnd
  0
BLOCK
  5
230
100
AcDbEntity
  8
0
100
AcDbBlockBegin
 62
7
  6
CONTINUOUS
  2
*D2
 70
65
 10
0.0
 20
0.0
 30
0.0
  3
*D2
  1

  0
MTEXT
  5
231
100
AcDbEntity
  8
0
100
AcDbMText
 62
7
  6
CONTINUOUS
  7
STANDARD
 71
3
 72
1
 10
-75.988871681
 20
42.2775681357
 30
0.0
 11
1.0
 21
0.0
 31
0.0
 73
2
 44
0.9
  1
{\ftxt;\W0.0001;\H0.0001;\~}{\ftxt;\W2.0714285714;\H3.0; }{\ftxt;\W0.0001;\H0.0001;\~}
 40
3.0
 41
9.3214285714
  0
LINE
  5
232
100
AcDbEntity
  8
0
100
AcDbLine
 62
7
  6
CONTINUOUS
 10
-63.9743828213
 20
26.3134150626
 30
0.0
 11
-63.9743828213
 21
40.0275681357
 31
0.0
  0
LINE
  5
233
100
AcDbEntity
  8
0
100
AcDbLine
 62
7
  6
CONTINUOUS
 10
-69.6743828213
 20
26.3134150626
 30
0.0
 11
-69.6743828213
 21
40.0275681357
 31
0.0
  0
LINE
  5
234
100
AcDbEntity
  8
0
100
AcDbLine
 62
7
  6
CONTINUOUS
 10
-63.9743828213
 20
38.5275681357
 30
0.0
 11
-59.9743828213
 21
38.5275681357
 31
0.0
  0
LINE
  5
235
100
AcDbEntity
  8
0
100
AcDbLine
 62
7
  6
CONTINUOUS
 10
-59.9743828213
 20
38.5275681357
 30
0.0
 11
-66.8243828213
 21
38.5275681357
 31
0.0
  0
LINE
  5
236
100
AcDbEntity
  8
0
100
AcDbLine
 62
7
  6
CONTINUOUS
 10
-69.6743828213
 20
38.5275681357
 30
0.0
 11
-82.2031573953
 21
38.5275681357
 31
0.0
  0
LINE
  5
237
100
AcDbEntity
  8
0
100
AcDbLine
 62
7
  6
CONTINUOUS
 10
-82.2031573953
 20
38.5275681357
 30
0.0
 11
-66.8243828213
 21
38.5275681357
 31
0.0
  0
INSERT
  5
238
100
AcDbEntity
  8
0
100
AcDbBlockReference
 62
7
  6
CONTINUOUS
  2
_FILLED
 10
-63.9743828213
 20
38.5275681357
 30
0.0
 41
3.0
 42
3.0
 43
3.0
 50
180.0
  0
INSERT
  5
239
100
AcDbEntity
  8
0
100
AcDbBlockReference
 62
7
  6
CONTINUOUS
  2
_FILLED
 10
-69.6743828213
 20
38.5275681357
 30
0.0
 41
3.0
 42
3.0
 43
3.0
  0
ENDBLK
  5
23A
100
AcDbEntity
  8
0
  6
BYBLOCK
 62
0
100
AcDbBlockEnd
  0
BLOCK
  5
23B
100
AcDbEntity
  8
0
100
AcDbBlockBegin
 62
7
  6
CONTINUOUS
  2
*D3
 70
65
 10
0.0
 20
0.0
 30
0.0
  3
*D3
  1

  0
MTEXT
  5
23C
100
AcDbEntity
  8
0
100
AcDbMText
 62
7
  6
CONTINUOUS
  7
STANDARD
 71
2
 72
1
 10
-59.7743828213
 20
58.2775681357
 30
0.0
 11
1.0
 21
0.0
 31
0.0
 73
2
 44
0.9
  1
{\ftxt;\W0.0001;\H0.0001;\~}{\ftxt;\W2.7142857143;\H3.0; }{\ftxt;\W0.0001;\H0.0001;\~}
 40
3.0
 41
12.2142857143
  0
LINE
  5
23D
100
AcDbEntity
  8
0
100
AcDbLine
 62
7
  6
CONTINUOUS
 10
-69.6743828213
 20
26.3134150626
 30
0.0
 11
-69.6743828213
 21
56.0275681357
 31
0.0
  0
LINE
  5
23E
100
AcDbEntity
  8
0
100
AcDbLine
 62
7
  6
CONTINUOUS
 10
-49.8743828213
 20
22.57436037
 30
0.0
 11
-49.8743828213
 21
56.0275681357
 31
0.0
  0
LINE
  5
23F
100
AcDbEntity
  8
0
100
AcDbLine
 62
7
  6
CONTINUOUS
 10
-69.6743828213
 20
54.5275681357
 30
0.0
 11
-59.7743828213
 21
54.5275681357
 31
0.0
  0
LINE
  5
240
100
AcDbEntity
  8
0
100
AcDbLine
 62
7
  6
CONTINUOUS
 10
-49.8743828213
 20
54.5275681357
 30
0.0
 11
-59.7743828213
 21
54.5275681357
 31
0.0
  0
INSERT
  5
241
100
AcDbEntity
  8
0
100
AcDbBlockReference
 62
7
  6
CONTINUOUS
  2
_FILLED
 10
-69.6743828213
 20
54.5275681357
 30
0.0
 41
3.0
 42
3.0
 43
3.0
 50
180.0
  0
INSERT
  5
242
100
AcDbEntity
  8
0
100
AcDbBlockReference
 62
7
  6
CONTINUOUS
  2
_FILLED
 10
-49.8743828213
 20
54.5275681357
 30
0.0
 41
3.0
 42
3.0
 43
3.0
  0
ENDBLK
  5
243
100
AcDbEntity
  8
0
  6
BYBLOCK
 62
0
100
AcDbBlockEnd
  0
BLOCK
  5
244
100
AcDbEntity
  8
0
100
AcDbBlockBegin
 62
7
  6
CONTINUOUS
  2
*D4
 70
65
 10
0.0
 20
0.0
 30
0.0
  3
*D4
  1

  0
MTEXT
  5
245
100
AcDbEntity
  8
0
100
AcDbMText
 62
7
  6
CONTINUOUS
  7
STANDARD
 71
2
 72
1
 10
-56.9243828213
 20
50.2775681357
 30
0.0
 11
1.0
 21
0.0
 31
0.0
 73
2
 44
0.9
  1
{\ftxt;\W0.0001;\H0.0001;\~}{\ftxt;\W2.5;\H3.0; }{\ftxt;\W0.0001;\H0.0001;\~}
 40
3.0
 41
11.25
  0
LINE
  5
246
100
AcDbEntity
  8
0
100
AcDbLine
 62
7
  6
CONTINUOUS
 10
-63.9743828213
 20
21.4681381878
 30
0.0
 11
-63.9743828213
 21
48.0275681357
 31
0.0
  0
LINE
  5
247
100
AcDbEntity
  8
0
100
AcDbLine
 62
7
  6
CONTINUOUS
 10
-49.8743828213
 20
21.4681381878
 30
0.0
 11
-49.8743828213
 21
48.0275681357
 31
0.0
  0
LINE
  5
248
100
AcDbEntity
  8
0
100
AcDbLine
 62
7
  6
CONTINUOUS
 10
-63.9743828213
 20
46.5275681357
 30
0.0
 11
-56.9243828213
 21
46.5275681357
 31
0.0
  0
LINE
  5
249
100
AcDbEntity
  8
0
100
AcDbLine
 62
7
  6
CONTINUOUS
 10
-49.8743828213
 20
46.5275681357
 30
0.0
 11
-56.9243828213
 21
46.5275681357
 31
0.0
  0
INSERT
  5
24A
100
AcDbEntity
  8
0
100
AcDbBlockReference
 62
7
  6
CONTINUOUS
  2
_FILLED
 10
-63.9743828213
 20
46.5275681357
 30
0.0
 41
3.0
 42
3.0
 43
3.0
 50
180.0
  0
INSERT
  5
24B
100
AcDbEntity
  8
0
100
AcDbBlockReference
 62
7
  6
CONTINUOUS
  2
_FILLED
 10
-49.8743828213
 20
46.5275681357
 30
0.0
 41
3.0
 42
3.0
 43
3.0
  0
ENDBLK
  5
24C
100
AcDbEntity
  8
0
  6
BYBLOCK
 62
0
100
AcDbBlockEnd
  0
ENDSEC
  0
SECTION
  2
ENTITIES
  0
DIMENSION
  5
24D
100
AcDbEntity
  8
0
100
AcDbDimension
 62
7
  6
CONTINUOUS
  2
*D0
 10
22.35
 20
36.5275681357
 30
0.0
 11
-0.4285713773
 21
36.5275681357
 31
0.0
 70
160
 71
2
 72
2
 41
0.9
 42
44.7
  1
{\ftxt;\W0.0001;\H0.0001;\~}{\ftxt;\W2.9285714286;\H3.0; }{\ftxt;\W0.0001;\H0.0001;\~}
  3
DIMSTYLE_1
100
AcDbAlignedDimension
 13
-22.35
 23
25.9001713375
 33
0.0
 14
22.35
 24
25.9001713375
 34
0.0
100
AcDbRotatedDimension
  0
DIMENSION
  5
24E
100
AcDbEntity
  8
0
100
AcDbDimension
 62
7
  6
CONTINUOUS
  2
*D1
 10
34.2209943357
 20
-26.4
 30
0.0
 11
34.2209943357
 21
-0.4285713801
 31
0.0
 70
160
 71
2
 72
2
 41
0.9
 42
52.8
  1
{\ftxt;\W0.0001;\H0.0001;\~}{\ftxt;\W2.8571428571;\H3.0; }{\ftxt;\W0.0001;\H0.0001;\~}
  3
DIMSTYLE_1
100
AcDbAlignedDimension
 13
21.8501713375
 23
26.4
 33
0.0
 14
21.8501713375
 24
-26.4
 34
0.0
 50
270.0
100
AcDbRotatedDimension
  0
DIMENSION
  5
24F
100
AcDbEntity
  8
0
100
AcDbDimension
 62
7
  6
CONTINUOUS
  2
*D2
 10
-69.6743828213
 20
38.5275681357
 30
0.0
 11
-79.5245869446
 21
38.5275681357
 31
0.0
 70
160
 71
3
 72
2
 41
0.9
 42
5.7
  1
{\ftxt;\W0.0001;\H0.0001;\~}{\ftxt;\W2.0714285714;\H3.0; }{\ftxt;\W0.0001;\H0.0001;\~}
  3
DIMSTYLE_1
100
AcDbAlignedDimension
 13
-63.9743828213
 23
25.8134150626
 33
0.0
 14
-69.6743828213
 24
25.8134150626
 34
0.0
 50
180.0
100
AcDbRotatedDimension
  0
DIMENSION
  5
250
100
AcDbEntity
  8
0
100
AcDbDimension
 62
7
  6
CONTINUOUS
  2
*D3
 10
-49.8743828213
 20
54.5275681357
 30
0.0
 11
-60.2029527512
 21
54.5275681357
 31
0.0
 70
160
 71
2
 72
2
 41
0.9
 42
19.8
  1
{\ftxt;\W0.0001;\H0.0001;\~}{\ftxt;\W2.7142857143;\H3.0; }{\ftxt;\W0.0001;\H0.0001;\~}
  3
DIMSTYLE_1
100
AcDbAlignedDimension
 13
-69.6743828213
 23
25.8134150626
 33
0.0
 14
-49.8743828213
 24
22.07436037
 34
0.0
100
AcDbRotatedDimension
  0
DIMENSION
  5
251
100
AcDbEntity
  8
0
100
AcDbDimension
 62
7
  6
CONTINUOUS
  2
*D4
 10
-49.8743828213
 20
46.5275681357
 30
0.0
 11
-57.3529541473
 21
46.5275681357
 31
0.0
 70
160
 71
2
 72
2
 41
0.9
 42
14.1
  1
{\ftxt;\W0.0001;\H0.0001;\~}{\ftxt;\W2.5;\H3.0; }{\ftxt;\W0.0001;\H0.0001;\~}
  3
DIMSTYLE_1
100
AcDbAlignedDimension
 13
-63.9743828213
 23
20.9681381878
 33
0.0
 14
-49.8743828213
 24
20.9681381878
 34
0.0
100
AcDbRotatedDimension
  0
LINE
  5
252
100
AcDbEntity
  8
0
100
AcDbLine
 62
7
  6
CONTINUOUS
 10
8.0
 20
-26.3746065365
 30
0.0
 11
7.7401596874
 21
-26.4
 31
0.0
  0
LINE
  5
253
100
AcDbEntity
  8
0
100
AcDbLine
 62
7
  6
CONTINUOUS
 10
-21.8501713375
 20
-26.4
 30
0.0
 11
-14.7598403126
 21
-26.4
 31
0.0
  0
LINE
  5
254
100
AcDbEntity
  8
0
100
AcDbLine
 62
7
  6
CONTINUOUS
 10
-7.7401596874
 20
-26.4
 30
0.0
 11
7.7401596874
 21
-26.4
 31
0.0
  0
LINE
  5
255
100
AcDbEntity
  8
0
100
AcDbLine
 62
7
  6
CONTINUOUS
 10
14.7598403126
 20
-26.4
 30
0.0
 11
21.8501713375
 21
-26.4
 31
0.0
  0
LINE
  5
256
100
AcDbEntity
  8
0
100
AcDbLine
 62
7
  6
CONTINUOUS
 10
-14.5
 20
-26.3746065365
 30
0.0
 11
-8.0
 21
-26.3746065365
 31
0.0
  0
LINE
  5
257
100
AcDbEntity
  8
0
100
AcDbLine
 62
7
  6
CONTINUOUS
 10
8.0
 20
-26.3746065365
 30
0.0
 11
14.5
 21
-26.3746065365
 31
0.0
  0
LINE
  5
258
100
AcDbEntity
  8
0
100
AcDbLine
 62
250
  6
CONTINUOUS
 10
-21.7634150626
 20
-26.3132437251
 30
0.0
 11
21.7634150626
 21
-26.3132437251
 31
0.0
  0
LINE
  5
259
100
AcDbEntity
  8
0
100
AcDbLine
 62
7
  6
CONTINUOUS
 10
-8.0
 20
-26.3746065365
 30
0.0
 11
-7.7401596874
 21
-26.4
 31
0.0
  0
LINE
  5
25A
100
AcDbEntity
  8
0
100
AcDbLine
 62
7
  6
CONTINUOUS
 10
-22.35
 20
25.9001713375
 30
0.0
 11
-22.35
 21
-25.9001713375
 31
0.0
  0
LINE
  5
25B
100
AcDbEntity
  8
RACCORDO
100
AcDbLine
 62
7
  6
CONTINUOUS
 10
-22.35
 20
-17.5512208021
 30
0.0
 11
-22.35
 21
17.5512208021
 31
0.0
  0
LINE
  5
25C
100
AcDbEntity
  8
0
100
AcDbLine
 62
7
  6
CONTINUOUS
 10
-14.5
 20
-26.3746065365
 30
0.0
 11
-14.7598403126
 21
-26.4
 31
0.0
  0
LINE
  5
25D
100
AcDbEntity
  8
0
100
AcDbLine
 62
250
  6
CONTINUOUS
 10
22.2632437251
 20
-25.8134150626
 30
0.0
 11
-22.2632437251
 21
-25.8134150626
 31
0.0
  0
LINE
  5
25E
100
AcDbEntity
  8
0
100
AcDbLine
 62
7
  6
CONTINUOUS
 10
14.5
 20
-26.3746065365
 30
0.0
 11
14.7598403126
 21
-26.4
 31
0.0
  0
LINE
  5
25F
100
AcDbEntity
  8
0
100
AcDbLine
 62
250
  6
CONTINUOUS
 10
-22.2632437251
 20
-25.8134150626
 30
0.0
 11
-22.2632437251
 21
25.8134150626
 31
0.0
  0
LINE
  5
260
100
AcDbEntity
  8
0
100
AcDbLine
 62
250
  6
CONTINUOUS
 10
-21.7634150626
 20
-26.3132437251
 30
0.0
 11
-21.7634150626
 21
26.3132437251
 31
0.0
  0
LWPOLYLINE
  5
261
100
AcDbEntity
  8
0
100
AcDbPolyline
 62
7
  6
CONTINUOUS
 90
3
 70
0
 43
0.3500000006
 10
1.035714268
 20
37.563280426
 10
0.9642857051
 20
37.3489959412
 10
0.8214285793
 20
37.0632802734
  0
LWPOLYLINE
  5
262
100
AcDbEntity
  8
0
100
AcDbPolyline
 62
7
  6
CONTINUOUS
 90
2
 70
0
 43
0.3500000006
 10
-3.3928571262
 20
37.2775692902
 10
-3.3928571262
 20
38.7775697479
  0
LWPOLYLINE
  5
263
100
AcDbEntity
  8
0
100
AcDbPolyline
 62
7
  6
CONTINUOUS
 90
2
 70
0
 43
0.3500000006
 10
-1.035714268
 20
37.2775692902
 10
-1.035714268
 20
38.7775697479
  0
LINE
  5
264
100
AcDbEntity
  8
0
100
AcDbLine
 62
250
  6
CONTINUOUS
 10
21.8501713375
 20
26.4
 30
0.0
 11
21.7634150626
 21
26.3132437251
 31
0.0
  0
LINE
  5
265
100
AcDbEntity
  8
0
100
AcDbLine
 62
250
  6
CONTINUOUS
 10
22.35
 20
25.9001713375
 30
0.0
 11
22.2632437251
 21
25.8134150626
 31
0.0
  0
LINE
  5
266
100
AcDbEntity
  8
0
100
AcDbLine
 62
250
  6
CONTINUOUS
 10
21.7634150626
 20
-26.3132437251
 30
0.0
 11
21.8501713375
 21
-26.4
 31
0.0
  0
LINE
  5
267
100
AcDbEntity
  8
0
100
AcDbLine
 62
250
  6
CONTINUOUS
 10
22.2632437251
 20
-25.8134150626
 30
0.0
 11
22.35
 21
-25.9001713375
 31
0.0
  0
LWPOLYLINE
  5
268
100
AcDbEntity
  8
0
100
AcDbPolyline
 62
7
  6
CONTINUOUS
 90
4
 70
0
 43
0.3500000006
 10
2.0357142191
 20
39.6347122192
 10
2.0357142191
 20
40.2775702057
 10
3.5357143936
 20
40.2775702057
 10
2.6785713558
 20
37.2775692902
  0
LINE
  5
269
100
AcDbEntity
  8
0
100
AcDbLine
 62
250
  6
CONTINUOUS
 10
-22.35
 20
-25.9001713375
 30
0.0
 11
-22.2632437251
 21
-25.8134150626
 31
0.0
  0
LINE
  5
26A
100
AcDbEntity
  8
0
100
AcDbLine
 62
250
  6
CONTINUOUS
 10
-21.8501713375
 20
-26.4
 30
0.0
 11
-21.7634150626
 21
-26.3132437251
 31
0.0
  0
LWPOLYLINE
  5
26B
100
AcDbEntity
  8
0
100
AcDbPolyline
 62
7
  6
CONTINUOUS
 90
4
 70
0
 43
0.3500000006
 10
33.0424237518
 20
1.928571373
 10
32.1852790146
 20
1.928571373
 10
31.7567077789
 20
2.3571426086
 10
31.7567077789
 20
3.0000005951
  0
LINE
  5
26C
100
AcDbEntity
  8
0
100
AcDbLine
 62
250
  6
CONTINUOUS
 10
-22.2632437251
 20
25.8134150626
 30
0.0
 11
-22.35
 21
25.9001713375
 31
0.0
  0
LINE
  5
26D
100
AcDbEntity
  8
0
100
AcDbLine
 62
250
  6
CONTINUOUS
 10
-21.7634150626
 20
26.3132437251
 30
0.0
 11
-21.8501713375
 21
26.4
 31
0.0
  0
LWPOLYLINE
  5
26E
100
AcDbEntity
  8
0
100
AcDbPolyline
 62
7
  6
CONTINUOUS
 90
3
 70
0
 43
0.3500000006
 10
33.1852793198
 20
0.9285710678
 10
33.3995660706
 20
0.8571421509
 10
33.6852794724
 20
0.7142865829
  0
LWPOLYLINE
  5
26F
100
AcDbEntity
  8
0
100
AcDbPolyline
 62
7
  6
CONTINUOUS
 90
10
 70
0
 43
0.3500000006
 10
32.9709948349
 20
0.8571421509
 10
33.1138504028
 20
0.9285710678
 10
33.1852793198
 20
0.9285710678
 10
33.3281371536
 20
0.7857132339
 10
33.3281371536
 20
0.7142865829
 10
33.2567082367
 20
0.642857666
 10
33.1852793198
 20
0.642857666
 10
33.0424237518
 20
0.7142865829
 10
32.9709948349
 20
0.7857132339
 10
32.9709948349
 20
0.8571421509
  0
LWPOLYLINE
  5
270
100
AcDbEntity
  8
0
100
AcDbPolyline
 62
7
  6
CONTINUOUS
 90
10
 70
0
 43
0.3500000006
 10
0.9642857051
 20
37.7775694427
 10
1.035714268
 20
37.6347116089
 10
1.035714268
 20
37.563280426
 10
0.8928571422
 20
37.420427124
 10
0.8214285793
 20
37.420427124
 10
0.7500000165
 20
37.491853775
 10
0.7500000165
 20
37.563280426
 10
0.8214285793
 20
37.7061382599
 10
0.8928571422
 20
37.7775694427
 10
0.9642857051
 20
37.7775694427
  0
LINE
  5
271
100
AcDbEntity
  8
0
100
AcDbLine
 62
250
  6
CONTINUOUS
 10
21.7634150626
 20
26.3132437251
 30
0.0
 11
21.7634150626
 21
-26.3132437251
 31
0.0
  0
LINE
  5
272
100
AcDbEntity
  8
0
100
AcDbLine
 62
250
  6
CONTINUOUS
 10
22.2632437251
 20
25.8134150626
 30
0.0
 11
22.2632437251
 21
-25.8134150626
 31
0.0
  0
LINE
  5
273
100
AcDbEntity
  8
RACCORDO
100
AcDbLine
 62
7
  6
CONTINUOUS
 10
22.35
 20
17.5512208021
 30
0.0
 11
22.35
 21
-17.5512208021
 31
0.0
  0
LINE
  5
274
100
AcDbEntity
  8
0
100
AcDbLine
 62
7
  6
CONTINUOUS
 10
22.35
 20
-25.9001713375
 30
0.0
 11
22.35
 21
25.9001713375
 31
0.0
  0
LWPOLYLINE
  5
275
100
AcDbEntity
  8
0
100
AcDbPolyline
 62
7
  6
CONTINUOUS
 90
13
 70
0
 43
0.3500000006
 10
31.7567077789
 20
2.3571426086
 10
31.5424232941
 20
2.0714292068
 10
30.8995653076
 20
2.0714292068
 10
30.470994072
 20
2.3571426086
 10
30.470994072
 20
3.0000005951
 10
30.8995653076
 20
3.2857139969
 10
31.5424232941
 20
3.2857139969
 10
31.7567077789
 20
3.0000005951
 10
32.1852790146
 20
3.4285718307
 10
33.0424237518
 20
3.4285718307
 10
33.4709949875
 20
3.0000005951
 10
33.4709949875
 20
2.3571426086
 10
33.0424237518
 20
1.928571373
  0
LINE
  5
276
100
AcDbEntity
  8
0
100
AcDbLine
 62
7
  6
CONTINUOUS
 10
14.5
 20
26.3746065365
 30
0.0
 11
14.7598403126
 21
26.4
 31
0.0
  0
LINE
  5
277
100
AcDbEntity
  8
0
100
AcDbLine
 62
7
  6
CONTINUOUS
 10
-8.0
 20
26.3746065365
 30
0.0
 11
-7.7401596874
 21
26.4
 31
0.0
  0
LINE
  5
278
100
AcDbEntity
  8
0
100
AcDbLine
 62
250
  6
CONTINUOUS
 10
22.2632437251
 20
25.8134150626
 30
0.0
 11
-22.2632437251
 21
25.8134150626
 31
0.0
  0
LINE
  5
279
100
AcDbEntity
  8
0
100
AcDbLine
 62
250
  6
CONTINUOUS
 10
21.7634150626
 20
26.3132437251
 30
0.0
 11
-21.7634150626
 21
26.3132437251
 31
0.0
  0
LINE
  5
27A
100
AcDbEntity
  8
0
100
AcDbLine
 62
7
  6
CONTINUOUS
 10
-14.5
 20
26.3746065365
 30
0.0
 11
-8.0
 21
26.3746065365
 31
0.0
  0
LINE
  5
27B
100
AcDbEntity
  8
0
100
AcDbLine
 62
7
  6
CONTINUOUS
 10
8.0
 20
26.3746065365
 30
0.0
 11
14.5
 21
26.3746065365
 31
0.0
  0
LINE
  5
27C
100
AcDbEntity
  8
0
100
AcDbLine
 62
7
  6
CONTINUOUS
 10
21.8501713375
 20
26.4
 30
0.0
 11
14.7598403126
 21
26.4
 31
0.0
  0
LINE
  5
27D
100
AcDbEntity
  8
0
100
AcDbLine
 62
7
  6
CONTINUOUS
 10
7.7401596874
 20
26.4
 30
0.0
 11
-7.7401596874
 21
26.4
 31
0.0
  0
LINE
  5
27E
100
AcDbEntity
  8
0
100
AcDbLine
 62
7
  6
CONTINUOUS
 10
-14.7598403126
 20
26.4
 30
0.0
 11
-21.8501713375
 21
26.4
 31
0.0
  0
LINE
  5
27F
100
AcDbEntity
  8
0
100
AcDbLine
 62
7
  6
CONTINUOUS
 10
-14.5
 20
26.3746065365
 30
0.0
 11
-14.7598403126
 21
26.4
 31
0.0
  0
LINE
  5
280
100
AcDbEntity
  8
0
100
AcDbLine
 62
7
  6
CONTINUOUS
 10
8.0
 20
26.3746065365
 30
0.0
 11
7.7401596874
 21
26.4
 31
0.0
  0
LWPOLYLINE
  5
281
100
AcDbEntity
  8
0
100
AcDbPolyline
 62
7
  6
CONTINUOUS
 90
7
 70
0
 43
0.3500000006
 10
33.4709949875
 20
-0.642856041
 10
33.4709949875
 20
-2.1428576317
 10
31.3281365433
 20
-0.642856041
 10
30.8995653076
 20
-0.642856041
 10
30.470994072
 20
-1.0714295425
 10
30.470994072
 20
-1.7142852631
 10
31.1138520584
 20
-2.1428576317
  0
LWPOLYLINE
  5
282
100
AcDbEntity
  8
0
100
AcDbPolyline
 62
7
  6
CONTINUOUS
 90
8
 70
0
 43
0.3500000006
 10
33.4709949875
 20
-4.28571381
 10
33.4709949875
 20
-3.4285713387
 10
33.0424237518
 20
-3.000000103
 10
32.1852790146
 20
-3.000000103
 10
31.7567077789
 20
-3.4285713387
 10
31.7567077789
 20
-4.28571381
 10
30.470994072
 20
-4.28571381
 10
30.470994072
 20
-3.000000103
  0
LWPOLYLINE
  5
283
100
AcDbEntity
  8
0
100
AcDbPolyline
 62
7
  6
CONTINUOUS
 90
3
 70
0
 43
0.3500000006
 10
-0.5357142924
 20
37.9204272766
 10
-2.0357142191
 20
37.9204272766
 10
-1.3928570824
 20
40.2775702057
  0
LWPOLYLINE
  5
284
100
AcDbEntity
  8
0
100
AcDbPolyline
 62
7
  6
CONTINUOUS
 90
3
 70
0
 43
0.3500000006
 10
-2.8928572569
 20
37.9204272766
 10
-4.3928571482
 20
37.9204272766
 10
-3.7500000114
 20
40.2775702057
  0
LWPOLYLINE
  5
285
100
AcDbEntity
  8
0
100
AcDbPolyline
 62
7
  6
CONTINUOUS
 90
3
 70
0
 43
0.3500000006
 10
-63.8458093872
 20
57.4204241638
 10
-62.9886669159
 20
58.277571167
 10
-62.9886669159
 20
55.2775702515
  0
LWPOLYLINE
  5
286
100
AcDbEntity
  8
0
100
AcDbPolyline
 62
7
  6
CONTINUOUS
 90
10
 70
0
 43
0.3500000006
 10
-61.7029554749
 20
55.2775702515
 10
-60.8458130035
 20
56.1347081909
 10
-60.6315239868
 20
56.9918551941
 10
-60.6315239868
 20
57.8489931335
 10
-61.0600974884
 20
58.277571167
 10
-61.7029554749
 20
58.277571167
 10
-62.1315244446
 20
57.8489931335
 10
-62.1315244446
 20
56.9918551941
 10
-61.7029554749
 20
56.5632862244
 10
-60.7743818207
 20
56.5632862244
  0
LWPOLYLINE
  5
287
100
AcDbEntity
  8
0
100
AcDbPolyline
 62
7
  6
CONTINUOUS
 90
3
 70
0
 43
0.3500000006
 10
-60.6743817902
 20
49.4204262543
 10
-59.8172393188
 20
50.2775687256
 10
-59.8172393188
 20
47.2775678101
  0
LWPOLYLINE
  5
288
100
AcDbEntity
  8
0
100
AcDbPolyline
 62
7
  6
CONTINUOUS
 90
3
 70
0
 43
0.3500000006
 10
-54.8886689758
 20
49.4204262543
 10
-54.0315265045
 20
50.2775687256
 10
-54.0315265045
 20
47.2775678101
  0
LWPOLYLINE
  5
289
100
AcDbEntity
  8
0
100
AcDbPolyline
 62
7
  6
CONTINUOUS
 90
3
 70
0
 43
0.3500000006
 10
-79.3460135193
 20
39.5632810364
 10
-79.4174447021
 20
39.3489965515
 10
-79.5602980042
 20
39.0632808838
  0
LINE
  5
28A
100
AcDbEntity
  8
0
100
AcDbLine
 62
250
  6
CONTINUOUS
 10
-69.1874712954
 20
-25.8134150626
 30
0.0
 11
-69.6743828213
 21
-25.8134150626
 31
0.0
  0
LINE
  5
28B
100
AcDbEntity
  8
0
100
AcDbLine
 62
7
  6
CONTINUOUS
 10
-69.1874712954
 20
-26.3132437251
 30
0.0
 11
-65.8743828213
 21
-26.4
 31
0.0
  0
LINE
  5
28C
100
AcDbEntity
  8
0
100
AcDbLine
 62
250
  6
CONTINUOUS
 10
-69.1874712954
 20
-25.8134150626
 30
0.0
 11
-65.8743828213
 21
-25.9001713375
 31
0.0
  0
LINE
  5
28D
100
AcDbEntity
  8
ASSI
100
AcDbLine
 62
7
  6
CONTINUOUS
 10
-53.5428503551
 20
-23.2329629131
 30
0.0
 11
-49.8743828213
 21
-22.25
 31
0.0
  0
LINE
  5
28E
100
AcDbEntity
  8
ASSI
100
AcDbLine
 62
250
  6
CONTINUOUS
 10
-51.3114191851
 20
-22.4594131032
 30
0.0
 11
-49.8743828213
 21
-22.07436037
 31
0.0
  0
LINE
  5
28F
100
AcDbEntity
  8
ASSI
100
AcDbLine
 62
250
  6
CONTINUOUS
 10
-53.5911236828
 20
-23.0572062416
 30
0.0
 11
-51.4393633218
 21
-22.4806437906
 31
0.0
  0
LINE
  5
290
100
AcDbEntity
  8
ASSI
100
AcDbLine
 62
7
  6
CONTINUOUS
 10
-62.57089234
 20
-23.9423373592
 30
0.0
 11
-65.8743828213
 21
-24.0
 31
0.0
  0
LINE
  5
291
100
AcDbEntity
  8
ASSI
100
AcDbLine
 62
250
  6
CONTINUOUS
 10
-62.57089234
 20
-23.7423678201
 30
0.0
 11
-65.8743828213
 21
-23.800030461
 31
0.0
  0
LINE
  5
292
100
AcDbEntity
  8
ASSI
100
AcDbLine
 62
7
  6
CONTINUOUS
 10
-65.8743828213
 20
-24.55
 30
0.0
 11
-65.2278482189
 21
-24.55
 31
0.0
  0
LINE
  5
293
100
AcDbEntity
  8
ASSI
100
AcDbLine
 62
7
  6
CONTINUOUS
 10
-61.754767579
 20
-24.45
 30
0.0
 11
-60.7386384572
 21
-24.45
 31
0.0
  0
LINE
  5
294
100
AcDbEntity
  8
ASSI
100
AcDbLine
 62
250
  6
CONTINUOUS
 10
-65.8743828213
 20
-24.3674284937
 30
0.0
 11
-65.2243577376
 21
-24.3674284937
 31
0.0
  0
LINE
  5
295
100
AcDbEntity
  8
ASSI
100
AcDbLine
 62
250
  6
CONTINUOUS
 10
-61.7512770977
 20
-24.2674284937
 30
0.0
 11
-60.7351479759
 21
-24.2674284937
 31
0.0
  0
LINE
  5
296
100
AcDbEntity
  8
ASSI
100
AcDbLine
 62
250
  6
CONTINUOUS
 10
-62.3743828213
 20
-23.7423678201
 30
0.0
 11
-62.57089234
 21
-23.7423678201
 31
0.0
  0
LINE
  5
297
100
AcDbEntity
  8
ASSI
100
AcDbLine
 62
250
  6
CONTINUOUS
 10
-62.3743828213
 20
-23.2900415076
 30
0.0
 11
-62.57089234
 21
-23.2900415076
 31
0.0
  0
LINE
  5
298
100
AcDbEntity
  8
ASSI
100
AcDbLine
 62
7
  6
CONTINUOUS
 10
-53.6722598776
 20
-23.25
 30
0.0
 11
-57.7218408273
 21
-23.25
 31
0.0
  0
LINE
  5
299
100
AcDbEntity
  8
ASSI
100
AcDbLine
 62
250
  6
CONTINUOUS
 10
-63.0077003973
 20
23.1310563767
 30
0.0
 11
-62.57089234
 21
23.2900415076
 31
0.0
  0
LINE
  5
29A
100
AcDbEntity
  8
ASSI
100
AcDbLine
 62
7
  6
CONTINUOUS
 10
-62.9427868499
 20
22.9431178525
 30
0.0
 11
-62.5059787926
 21
23.1021029835
 31
0.0
  0
LINE
  5
29B
100
AcDbEntity
  8
0
100
AcDbLine
 62
7
  6
CONTINUOUS
 10
-65.8743828213
 20
-22.9786116689
 30
0.0
 11
-64.3743828213
 21
-22.9
 31
0.0
  0
LINE
  5
29C
100
AcDbEntity
  8
ASSI
100
AcDbLine
 62
7
  6
CONTINUOUS
 10
-57.6743828213
 20
-21.7114278447
 30
0.0
 11
-63.0743828213
 21
-21.9
 31
0.0
  0
LINE
  5
29D
100
AcDbEntity
  8
RACCORDO
100
AcDbLine
 62
250
  6
CONTINUOUS
 10
-56.57089234
 20
-21.345821258
 30
0.0
 11
-57.6865985754
 21
-21.3655459497
 31
0.0
  0
LINE
  5
29E
100
AcDbEntity
  8
RACCORDO
100
AcDbLine
 62
7
  6
CONTINUOUS
 10
-64.6691470993
 20
-22.7051451296
 30
0.0
 11
-65.6287459229
 21
-22.7218949894
 31
0.0
  0
LINE
  5
29F
100
AcDbEntity
  8
RACCORDO
100
AcDbLine
 62
250
  6
CONTINUOUS
 10
-65.6287459229
 20
-22.4719330656
 30
0.0
 11
-64.6691470993
 21
-22.4551832058
 31
0.0
  0
LINE
  5
2A0
100
AcDbEntity
  8
RACCORDO
100
AcDbLine
 62
7
  6
CONTINUOUS
 10
-64.57089234
 20
-21.9318643202
 30
0.0
 11
-65.8743828213
 21
-21.9546168312
 31
0.0
  0
LINE
  5
2A1
100
AcDbEntity
  8
RACCORDO
100
AcDbLine
 62
7
  6
CONTINUOUS
 10
-50.1200197196
 20
-21.5795659463
 30
0.0
 11
-57.6743828213
 21
-21.7114278447
 31
0.0
  0
LINE
  5
2A2
100
AcDbEntity
  8
RACCORDO
100
AcDbLine
 62
250
  6
CONTINUOUS
 10
-64.57089234
 20
-21.7318947812
 30
0.0
 11
-65.8743828213
 21
-21.7546472922
 31
0.0
  0
LINE
  5
2A3
100
AcDbEntity
  8
RACCORDO
100
AcDbLine
 62
250
  6
CONTINUOUS
 10
-50.1200197196
 20
-21.3296040225
 30
0.0
 11
-56.1778733025
 21
-21.4353442501
 31
0.0
  0
LINE
  5
2A4
100
AcDbEntity
  8
RACCORDO
100
AcDbLine
 62
250
  6
CONTINUOUS
 10
-56.1778733025
 20
-21.0568647738
 30
0.0
 11
-50.1200197196
 21
-20.9681381878
 31
0.0
  0
LINE
  5
2A5
100
AcDbEntity
  8
0
100
AcDbLine
 62
7
  6
CONTINUOUS
 10
-63.27089234
 20
-21.1892297568
 30
0.0
 11
-64.3743828213
 21
-21.197818284
 31
0.0
  0
LINE
  5
2A6
100
AcDbEntity
  8
ASSI
100
AcDbLine
 62
250
  6
CONTINUOUS
 10
-54.7349642567
 20
-23.0674284937
 30
0.0
 11
-53.6687693963
 21
-23.0674284937
 31
0.0
  0
LINE
  5
2A7
100
AcDbEntity
  8
ASSI
100
AcDbLine
 62
250
  6
CONTINUOUS
 10
-56.0106876684
 20
-23.0674284937
 30
0.0
 11
-57.718350346
 21
-23.0674284937
 31
0.0
  0
LINE
  5
2A8
100
AcDbEntity
  8
ASSI
100
AcDbLine
 62
250
  6
CONTINUOUS
 10
-55.8253650811
 20
-23.05
 30
0.0
 11
-54.9161136466
 21
-23.05
 31
0.0
  0
LINE
  5
2A9
100
AcDbEntity
  8
ASSI
100
AcDbLine
 62
250
  6
CONTINUOUS
 10
-58.4380517041
 20
-23.05
 30
0.0
 11
-59.3018924378
 21
-23.05
 31
0.0
  0
LINE
  5
2AA
100
AcDbEntity
  8
ASSI
100
AcDbLine
 62
250
  6
CONTINUOUS
 10
-63.0743828213
 20
-22.7551793284
 30
0.0
 11
-63.27089234
 21
-22.7551793282
 31
0.0
  0
LINE
  5
2AB
100
AcDbEntity
  8
RACCORDO
100
AcDbLine
 62
250
  6
CONTINUOUS
 10
-65.6287459229
 20
-22.4719330656
 30
0.0
 11
-65.8743828213
 21
-22.4719330656
 31
0.0
  0
LINE
  5
2AC
100
AcDbEntity
  8
RACCORDO
100
AcDbLine
 62
250
  6
CONTINUOUS
 10
-64.3743828213
 20
-21.7318947812
 30
0.0
 11
-64.57089234
 21
-21.7318947812
 31
0.0
  0
LINE
  5
2AD
100
AcDbEntity
  8
RACCORDO
100
AcDbLine
 62
250
  6
CONTINUOUS
 10
-50.1200197196
 20
-21.3296040225
 30
0.0
 11
-49.8743828213
 21
-21.3296040225
 31
0.0
  0
LINE
  5
2AE
100
AcDbEntity
  8
RACCORDO
100
AcDbLine
 62
250
  6
CONTINUOUS
 10
-56.1778733025
 20
-21.0568647738
 30
0.0
 11
-56.3743828213
 21
-21.0568647738
 31
0.0
  0
LINE
  5
2AF
100
AcDbEntity
  8
RACCORDO
100
AcDbLine
 62
250
  6
CONTINUOUS
 10
-50.1200197196
 20
-20.9681381878
 30
0.0
 11
-49.8743828213
 21
-20.9681381878
 31
0.0
  0
LINE
  5
2B0
100
AcDbEntity
  8
ASSI
100
AcDbLine
 62
250
  6
CONTINUOUS
 10
-63.0077003973
 20
-23.1310563767
 30
0.0
 11
-62.57089234
 21
-23.2900415076
 31
0.0
  0
LINE
  5
2B1
100
AcDbEntity
  8
ASSI
100
AcDbLine
 62
7
  6
CONTINUOUS
 10
-62.9427868499
 20
-22.9431178525
 30
0.0
 11
-62.5059787926
 21
-23.1021029835
 31
0.0
  0
LINE
  5
2B2
100
AcDbEntity
  8
RACCORDO
100
AcDbLine
 62
250
  6
CONTINUOUS
 10
-56.1778733025
 20
-20.8107003333
 30
0.0
 11
-50.1200197196
 21
-20.7219737473
 31
0.0
  0
LINE
  5
2B3
100
AcDbEntity
  8
RACCORDO
100
AcDbLine
 62
250
  6
CONTINUOUS
 10
-50.1200197196
 20
-20.6361224296
 30
0.0
 11
-56.1778733025
 21
-20.7248490156
 31
0.0
  0
LINE
  5
2B4
100
AcDbEntity
  8
RACCORDO
100
AcDbLine
 62
250
  6
CONTINUOUS
 10
-50.1200197196
 20
-20.3899579891
 30
0.0
 11
-56.1778733025
 21
-20.4786845751
 31
0.0
  0
LINE
  5
2B5
100
AcDbEntity
  8
RACCORDO
100
AcDbLine
 62
250
  6
CONTINUOUS
 10
-56.1778733025
 20
-20.4786845751
 30
0.0
 11
-56.3743828213
 21
-20.4786845751
 31
0.0
  0
LINE
  5
2B6
100
AcDbEntity
  8
RACCORDO
100
AcDbLine
 62
250
  6
CONTINUOUS
 10
-50.1200197196
 20
-20.3899579891
 30
0.0
 11
-49.8743828213
 21
-20.3899579891
 31
0.0
  0
LINE
  5
2B7
100
AcDbEntity
  8
RACCORDO
100
AcDbLine
 62
250
  6
CONTINUOUS
 10
-50.1200197196
 20
-20.2993205233
 30
0.0
 11
-49.8743828213
 21
-20.2993205233
 31
0.0
  0
LINE
  5
2B8
100
AcDbEntity
  8
RACCORDO
100
AcDbLine
 62
250
  6
CONTINUOUS
 10
-50.3412989949
 20
-20.1663625209
 30
0.0
 11
-56.1778733025
 21
-20.0644847374
 31
0.0
  0
LINE
  5
2B9
100
AcDbEntity
  8
RACCORDO
100
AcDbLine
 62
250
  6
CONTINUOUS
 10
-59.8743828213
 20
-19.8232121524
 30
0.0
 11
-56.57089234
 21
-19.880874149
 31
0.0
  0
LINE
  5
2BA
100
AcDbEntity
  8
RACCORDO
100
AcDbLine
 62
7
  6
CONTINUOUS
 10
-59.8743828213
 20
-19.75
 30
0.0
 11
-50.3412989949
 21
-19.9164005972
 31
0.0
  0
LINE
  5
2BB
100
AcDbEntity
  8
DRAFT
100
AcDbLine
 62
7
  6
CONTINUOUS
 10
-65.8743828213
 20
-19.121508987
 30
0.0
 11
-65.2914626658
 21
-19.1316838962
 31
0.0
  0
LINE
  5
2BC
100
AcDbEntity
  8
ASSI
100
AcDbLine
 62
7
  6
CONTINUOUS
 10
-64.414592528
 20
-18.1808987596
 30
0.0
 11
-65.872937879
 21
-18.2216460031
 31
0.0
  0
LINE
  5
2BD
100
AcDbEntity
  8
RACCORDO
100
AcDbLine
 62
250
  6
CONTINUOUS
 10
-59.8743828213
 20
-17.5155374826
 30
0.0
 11
-60.07089234
 21
-17.5155374826
 31
0.0
  0
LINE
  5
2BE
100
AcDbEntity
  8
RACCORDO
100
AcDbLine
 62
7
  6
CONTINUOUS
 10
-64.3743828213
 20
19.8976915844
 30
0.0
 11
-65.0894929641
 21
19.2146914084
 31
0.0
  0
LINE
  5
2BF
100
AcDbEntity
  8
RACCORDO
100
AcDbLine
 62
7
  6
CONTINUOUS
 10
-64.3743828213
 20
-19.8976915844
 30
0.0
 11
-65.0894929641
 21
-19.2146914084
 31
0.0
  0
LWPOLYLINE
  5
2C0
100
AcDbEntity
  8
0
100
AcDbPolyline
 62
7
  6
CONTINUOUS
 90
4
 70
0
 43
0.3500000006
 10
-78.3460132141
 20
41.6347128296
 10
-78.3460132141
 20
42.2775662842
 10
-76.8460127563
 20
42.2775662842
 10
-77.7031597595
 20
39.2775699005
  0
LWPOLYLINE
  5
2C1
100
AcDbEntity
  8
0
100
AcDbPolyline
 62
7
  6
CONTINUOUS
 90
3
 70
0
 43
0.3500000006
 10
-59.0600968781
 20
55.5632813873
 10
-59.1315235291
 20
55.3489969025
 10
-59.2743813629
 20
55.0632812347
  0
LINE
  5
2C2
100
AcDbEntity
  8
ASSI
100
AcDbLine
 62
7
  6
CONTINUOUS
 10
-61.9279726597
 20
24.35
 30
0.0
 11
-62.2166477943
 21
23.85
 31
0.0
  0
LINE
  5
2C3
100
AcDbEntity
  8
RACCORDO
100
AcDbLine
 62
250
  6
CONTINUOUS
 10
-56.374291338
 20
20.0077012917
 30
0.0
 11
-56.3743828213
 21
20.0076321799
 31
0.0
  0
LINE
  5
2C4
100
AcDbEntity
  8
RACCORDO
100
AcDbLine
 62
250
  6
CONTINUOUS
 10
-56.3742912084
 20
20.0076968992
 30
0.0
 11
-56.3743828212
 21
20.0076321798
 31
0.0
  0
LINE
  5
2C5
100
AcDbEntity
  8
ASSI
100
AcDbLine
 62
7
  6
CONTINUOUS
 10
-62.2166477943
 20
-23.85
 30
0.0
 11
-61.9279726597
 21
-24.35
 31
0.0
  0
LINE
  5
2C6
100
AcDbEntity
  8
ASSI
100
AcDbLine
 62
250
  6
CONTINUOUS
 10
-61.7512770977
 20
24.2674284937
 30
0.0
 11
-62.0399522323
 21
23.7674284937
 31
0.0
  0
LINE
  5
2C7
100
AcDbEntity
  8
RACCORDO
100
AcDbLine
 62
250
  6
CONTINUOUS
 10
-50.3412989949
 20
20.1663625209
 30
0.0
 11
-50.1200197196
 21
20.2993205233
 31
0.0
  0
LINE
  5
2C8
100
AcDbEntity
  8
RACCORDO
100
AcDbLine
 62
7
  6
CONTINUOUS
 10
-50.2169025778
 20
19.9520706958
 30
0.0
 11
-49.9956233025
 21
20.0850286981
 31
0.0
  0
LINE
  5
2C9
100
AcDbEntity
  8
RACCORDO
100
AcDbLine
 62
250
  6
CONTINUOUS
 10
-50.1200197196
 20
-20.2993205233
 30
0.0
 11
-50.3412989949
 21
-20.1663625209
 31
0.0
  0
LINE
  5
2CA
100
AcDbEntity
  8
RACCORDO
100
AcDbLine
 62
7
  6
CONTINUOUS
 10
-49.9956233025
 20
-20.0850286981
 30
0.0
 11
-50.2169025778
 21
-19.9520706958
 31
0.0
  0
LINE
  5
2CB
100
AcDbEntity
  8
ASSI
100
AcDbLine
 62
250
  6
CONTINUOUS
 10
-62.0399520447
 20
-23.7674288187
 30
0.0
 11
-61.7512770977
 21
-24.2674284937
 31
0.0
  0
LWPOLYLINE
  5
2CC
100
AcDbEntity
  8
0
100
AcDbPolyline
 62
7
  6
CONTINUOUS
 90
3
 70
0
 43
0.3500000006
 10
-55.888669281
 20
47.5632834778
 10
-55.960095932
 20
47.3489944611
 10
-56.1029537659
 20
47.0632833252
  0
LINE
  5
2CD
100
AcDbEntity
  8
0
100
AcDbLine
 62
7
  6
CONTINUOUS
 10
-69.6743828213
 20
25.8134150626
 30
0.0
 11
-69.6743828213
 21
-25.8134150626
 31
0.0
  0
LINE
  5
2CE
100
AcDbEntity
  8
0
100
AcDbLine
 62
250
  6
CONTINUOUS
 10
-69.1874712954
 20
25.8134150626
 30
0.0
 11
-69.1874712954
 21
-25.8134150626
 31
0.0
  0
LINE
  5
2CF
100
AcDbEntity
  8
RACCORDO
100
AcDbLine
 62
7
  6
CONTINUOUS
 10
-65.8743828213
 20
-17.5512208021
 30
0.0
 11
-65.8743828213
 21
17.8473685488
 31
0.0
  0
LINE
  5
2D0
100
AcDbEntity
  8
0
100
AcDbLine
 62
7
  6
CONTINUOUS
 10
-65.8743828213
 20
-26.4
 30
0.0
 11
-65.8743828213
 21
26.4
 31
0.0
  0
LINE
  5
2D1
100
AcDbEntity
  8
RACCORDO
100
AcDbLine
 62
250
  6
CONTINUOUS
 10
-65.6287459229
 20
22.4719330656
 30
0.0
 11
-65.6287459229
 21
21.9503292232
 31
0.0
  0
LINE
  5
2D2
100
AcDbEntity
  8
RACCORDO
100
AcDbLine
 62
250
  6
CONTINUOUS
 10
-65.6287459229
 20
-21.9503292232
 30
0.0
 11
-65.6287459229
 21
-22.4719330656
 31
0.0
  0
LINE
  5
2D3
100
AcDbEntity
  8
RACCORDO
100
AcDbLine
 62
250
  6
CONTINUOUS
 10
-64.6691470993
 20
-18.0676519456
 30
0.0
 11
-64.6691470993
 21
-18.1880112018
 31
0.0
  0
LINE
  5
2D4
100
AcDbEntity
  8
RACCORDO
100
AcDbLine
 62
250
  6
CONTINUOUS
 10
-64.6691470993
 20
-22.4551832058
 30
0.0
 11
-64.6691470993
 21
-21.9335793634
 31
0.0
  0
LINE
  5
2D5
100
AcDbEntity
  8
RACCORDO
100
AcDbLine
 62
250
  6
CONTINUOUS
 10
-64.6691470993
 20
18.0676519456
 30
0.0
 11
-64.6691470993
 21
18.1880112015
 31
0.0
  0
LINE
  5
2D6
100
AcDbEntity
  8
RACCORDO
100
AcDbLine
 62
250
  6
CONTINUOUS
 10
-64.6691470993
 20
21.9335793634
 30
0.0
 11
-64.6691470993
 21
22.4551832058
 31
0.0
  0
LINE
  5
2D7
100
AcDbEntity
  8
RACCORDO
100
AcDbLine
 62
250
  6
CONTINUOUS
 10
-64.57089234
 20
-19.7100057612
 30
0.0
 11
-64.57089234
 21
-21.7318947812
 31
0.0
  0
LINE
  5
2D8
100
AcDbEntity
  8
RACCORDO
100
AcDbLine
 62
250
  6
CONTINUOUS
 10
-64.57089234
 20
19.7100057612
 30
0.0
 11
-64.57089234
 21
21.7318947812
 31
0.0
  0
LINE
  5
2D9
100
AcDbEntity
  8
RACCORDO
100
AcDbLine
 62
7
  6
CONTINUOUS
 10
-64.3743828213
 20
-19.1030756686
 30
0.0
 11
-64.3743828213
 21
-18.2958589416
 31
0.0
  0
LINE
  5
2DA
100
AcDbEntity
  8
RACCORDO
100
AcDbLine
 62
7
  6
CONTINUOUS
 10
-64.3743828213
 20
-19.8976915844
 30
0.0
 11
-64.3743828213
 21
-22.9
 31
0.0
  0
LINE
  5
2DB
100
AcDbEntity
  8
RACCORDO
100
AcDbLine
 62
7
  6
CONTINUOUS
 10
-64.3743828213
 20
18.2958589416
 30
0.0
 11
-64.3743828213
 21
19.1030756686
 31
0.0
  0
LINE
  5
2DC
100
AcDbEntity
  8
RACCORDO
100
AcDbLine
 62
7
  6
CONTINUOUS
 10
-64.3743828213
 20
19.8976915844
 30
0.0
 11
-64.3743828213
 21
22.9
 31
0.0
  0
LINE
  5
2DD
100
AcDbEntity
  8
ASSI
100
AcDbLine
 62
250
  6
CONTINUOUS
 10
-63.27089234
 20
-21.1892297568
 30
0.0
 11
-63.27089234
 21
-22.7551793284
 31
0.0
  0
LINE
  5
2DE
100
AcDbEntity
  8
ASSI
100
AcDbLine
 62
250
  6
CONTINUOUS
 10
-63.27089234
 20
21.1892297568
 30
0.0
 11
-63.27089234
 21
22.7551793284
 31
0.0
  0
LINE
  5
2DF
100
AcDbEntity
  8
ASSI
100
AcDbLine
 62
7
  6
CONTINUOUS
 10
-63.0743828213
 20
-21.3625662049
 30
0.0
 11
-63.0743828213
 21
-22.7551793284
 31
0.0
  0
LINE
  5
2E0
100
AcDbEntity
  8
ASSI
100
AcDbLine
 62
7
  6
CONTINUOUS
 10
-63.0743828213
 20
21.3625662049
 30
0.0
 11
-63.0743828213
 21
22.7551793284
 31
0.0
  0
LINE
  5
2E1
100
AcDbEntity
  8
ASSI
100
AcDbLine
 62
250
  6
CONTINUOUS
 10
-62.57089234
 20
-23.2900415076
 30
0.0
 11
-62.57089234
 21
-23.7423678201
 31
0.0
  0
LINE
  5
2E2
100
AcDbEntity
  8
ASSI
100
AcDbLine
 62
250
  6
CONTINUOUS
 10
-62.57089234
 20
23.2900415076
 30
0.0
 11
-62.57089234
 21
23.7423678201
 31
0.0
  0
LINE
  5
2E3
100
AcDbEntity
  8
ASSI
100
AcDbLine
 62
7
  6
CONTINUOUS
 10
-62.3743828213
 20
-23.2900415076
 30
0.0
 11
-62.3743828213
 21
-23.7423678201
 31
0.0
  0
LINE
  5
2E4
100
AcDbEntity
  8
ASSI
100
AcDbLine
 62
7
  6
CONTINUOUS
 10
-62.3743828213
 20
23.2900415076
 30
0.0
 11
-62.3743828213
 21
23.7423678201
 31
0.0
  0
LINE
  5
2E5
100
AcDbEntity
  8
RACCORDO
100
AcDbLine
 62
250
  6
CONTINUOUS
 10
-60.07089234
 20
21.1935360729
 30
0.0
 11
-60.07089234
 21
17.8291076857
 31
0.0
  0
LINE
  5
2E6
100
AcDbEntity
  8
RACCORDO
100
AcDbLine
 62
250
  6
CONTINUOUS
 10
-60.07089234
 20
17.5155374826
 30
0.0
 11
-60.07089234
 21
-17.5155374826
 31
0.0
  0
LINE
  5
2E7
100
AcDbEntity
  8
RACCORDO
100
AcDbLine
 62
250
  6
CONTINUOUS
 10
-60.07089234
 20
-17.8291076857
 30
0.0
 11
-60.07089234
 21
-21.1935360729
 31
0.0
  0
LINE
  5
2E8
100
AcDbEntity
  8
RACCORDO
100
AcDbLine
 62
7
  6
CONTINUOUS
 10
-59.8743828213
 20
20.9131012902
 30
0.0
 11
-59.8743828213
 21
-20.9131012902
 31
0.0
  0
LWPOLYLINE
  5
2E9
100
AcDbEntity
  8
0
100
AcDbPolyline
 62
7
  6
CONTINUOUS
 90
10
 70
0
 43
0.3500000006
 10
-79.4174447021
 20
39.7775700531
 10
-79.3460135193
 20
39.6347122192
 10
-79.3460135193
 20
39.5632810364
 10
-79.488875885
 20
39.4204232025
 10
-79.5602980042
 20
39.4204232025
 10
-79.631729187
 20
39.4918543854
 10
-79.631729187
 20
39.5632810364
 10
-79.5602980042
 20
39.7061388702
 10
-79.488875885
 20
39.7775700531
 10
-79.4174447021
 20
39.7775700531
  0
LWPOLYLINE
  5
2EA
100
AcDbEntity
  8
0
100
AcDbPolyline
 62
7
  6
CONTINUOUS
 90
4
 70
0
 43
0.3500000006
 10
-58.0600965729
 20
55.7061392212
 10
-58.0600965729
 20
56.5632862244
 10
-57.6315276031
 20
56.9918551941
 10
-56.9886696167
 20
56.9918551941
  0
LWPOLYLINE
  5
2EB
100
AcDbEntity
  8
0
100
AcDbPolyline
 62
7
  6
CONTINUOUS
 90
2
 70
0
 43
0.3500000006
 10
-57.9600965424
 20
47.2775678101
 10
-57.9600965424
 20
48.7775682678
  0
LINE
  5
2EC
100
AcDbEntity
  8
ASSI
100
AcDbLine
 62
250
  6
CONTINUOUS
 10
-65.2243577376
 20
-24.3674284937
 30
0.0
 11
-65.1223884386
 21
-23.9868738892
 31
0.0
  0
LINE
  5
2ED
100
AcDbEntity
  8
ASSI
100
AcDbLine
 62
7
  6
CONTINUOUS
 10
-65.0346630536
 20
-24.401763809
 30
0.0
 11
-64.9225590183
 21
-23.9833858537
 31
0.0
  0
LINE
  5
2EE
100
AcDbEntity
  8
ASSI
100
AcDbLine
 62
250
  6
CONTINUOUS
 10
-65.1223884386
 20
23.9868738892
 30
0.0
 11
-65.2243577376
 21
24.3674284937
 31
0.0
  0
LINE
  5
2EF
100
AcDbEntity
  8
ASSI
100
AcDbLine
 62
7
  6
CONTINUOUS
 10
-64.9225590183
 20
23.9833858537
 30
0.0
 11
-65.0346630536
 21
24.401763809
 31
0.0
  0
LINE
  5
2F0
100
AcDbEntity
  8
RACCORDO
100
AcDbLine
 62
250
  6
CONTINUOUS
 10
-56.57089234
 20
21.6921663467
 30
0.0
 11
-56.5708202929
 21
21.6895547798
 31
0.0
  0
LINE
  5
2F1
100
AcDbEntity
  8
RACCORDO
100
AcDbLine
 62
250
  6
CONTINUOUS
 10
-56.5708202929
 20
21.6895547798
 30
0.0
 11
-56.5707119397
 21
21.6687586945
 31
0.0
  0
LINE
  5
2F2
100
AcDbEntity
  8
RACCORDO
100
AcDbLine
 62
250
  6
CONTINUOUS
 10
-56.57089234
 20
21.6921663467
 30
0.0
 11
-56.57089234
 21
21.1912978865
 31
0.0
  0
LINE
  5
2F3
100
AcDbEntity
  8
RACCORDO
100
AcDbLine
 62
250
  6
CONTINUOUS
 10
-56.57089234
 20
20.9004958163
 30
0.0
 11
-56.57089234
 21
19.8808743888
 31
0.0
  0
LINE
  5
2F4
100
AcDbEntity
  8
RACCORDO
100
AcDbLine
 62
250
  6
CONTINUOUS
 10
-56.57089234
 20
-19.880874149
 30
0.0
 11
-56.57089234
 21
-20.9004958163
 31
0.0
  0
LINE
  5
2F5
100
AcDbEntity
  8
RACCORDO
100
AcDbLine
 62
250
  6
CONTINUOUS
 10
-56.57089234
 20
-21.1912978865
 30
0.0
 11
-56.5708923847
 21
-21.6921663477
 31
0.0
  0
LINE
  5
2F6
100
AcDbEntity
  8
RACCORDO
100
AcDbLine
 62
7
  6
CONTINUOUS
 10
-56.3743828213
 20
21.4921968077
 30
0.0
 11
-56.3743828213
 21
20.0076321799
 31
0.0
  0
LINE
  5
2F7
100
AcDbEntity
  8
RACCORDO
100
AcDbLine
 62
7
  6
CONTINUOUS
 10
-56.3743828213
 20
-20.0076321799
 30
0.0
 11
-56.3743828213
 21
-21.4921968077
 31
0.0
  0
LINE
  5
2F8
100
AcDbEntity
  8
RACCORDO
100
AcDbLine
 62
250
  6
CONTINUOUS
 10
-56.1778733025
 20
-21.4353442501
 30
0.0
 11
-56.1778733025
 21
-21.0568647738
 31
0.0
  0
LINE
  5
2F9
100
AcDbEntity
  8
RACCORDO
100
AcDbLine
 62
250
  6
CONTINUOUS
 10
-56.1778733025
 20
-20.8107003333
 30
0.0
 11
-56.1778733025
 21
-20.7248490156
 31
0.0
  0
LINE
  5
2FA
100
AcDbEntity
  8
RACCORDO
100
AcDbLine
 62
250
  6
CONTINUOUS
 10
-56.1778733025
 20
-20.4786845751
 30
0.0
 11
-56.1778733025
 21
-20.0644847374
 31
0.0
  0
LINE
  5
2FB
100
AcDbEntity
  8
RACCORDO
100
AcDbLine
 62
250
  6
CONTINUOUS
 10
-56.1778733025
 20
20.0644847374
 30
0.0
 11
-56.1778733025
 21
20.4786845751
 31
0.0
  0
LINE
  5
2FC
100
AcDbEntity
  8
RACCORDO
100
AcDbLine
 62
250
  6
CONTINUOUS
 10
-56.1778733025
 20
20.7248490156
 30
0.0
 11
-56.1778733025
 21
20.8107003333
 31
0.0
  0
LINE
  5
2FD
100
AcDbEntity
  8
RACCORDO
100
AcDbLine
 62
250
  6
CONTINUOUS
 10
-56.1778733025
 20
21.0568647738
 30
0.0
 11
-56.1778733025
 21
21.4353442501
 31
0.0
  0
LWPOLYLINE
  5
2FE
100
AcDbEntity
  8
RACCORDO
100
AcDbPolyline
 62
250
  6
CONTINUOUS
 90
3
 70
0
 10
-56.5707184618
 20
-21.671169826
 10
-56.5708290653
 20
-21.6898818237
 10
-56.57089234
 20
-21.6921663467
  0
LINE
  5
2FF
100
AcDbEntity
  8
ASSI
100
AcDbLine
 62
250
  6
CONTINUOUS
 10
-51.4393633218
 20
-22.4806437906
 30
0.0
 11
-51.4393633218
 21
-21.6025951746
 31
0.0
  0
LINE
  5
300
100
AcDbEntity
  8
ASSI
100
AcDbLine
 62
250
  6
CONTINUOUS
 10
-51.4393633218
 20
21.6025951746
 30
0.0
 11
-51.4393633218
 21
22.4806437906
 31
0.0
  0
LINE
  5
301
100
AcDbEntity
  8
ASSI
100
AcDbLine
 62
250
  6
CONTINUOUS
 10
-51.3114191851
 20
-22.4594131032
 30
0.0
 11
-51.3114191851
 21
-21.6003619013
 31
0.0
  0
LINE
  5
302
100
AcDbEntity
  8
ASSI
100
AcDbLine
 62
250
  6
CONTINUOUS
 10
-51.3114191851
 20
21.6003619013
 30
0.0
 11
-51.3114191851
 21
22.4594131032
 31
0.0
  0
LINE
  5
303
100
AcDbEntity
  8
RACCORDO
100
AcDbLine
 62
250
  6
CONTINUOUS
 10
-50.1200197196
 20
-21.3296040225
 30
0.0
 11
-50.1200197196
 21
-20.9681381878
 31
0.0
  0
LINE
  5
304
100
AcDbEntity
  8
RACCORDO
100
AcDbLine
 62
250
  6
CONTINUOUS
 10
-50.1200197196
 20
-20.7219737473
 30
0.0
 11
-50.1200197196
 21
-20.6361224296
 31
0.0
  0
LINE
  5
305
100
AcDbEntity
  8
RACCORDO
100
AcDbLine
 62
250
  6
CONTINUOUS
 10
-50.1200197196
 20
-20.3899579891
 30
0.0
 11
-50.1200197196
 21
-20.2993205233
 31
0.0
  0
LINE
  5
306
100
AcDbEntity
  8
RACCORDO
100
AcDbLine
 62
250
  6
CONTINUOUS
 10
-50.1200197196
 20
20.2993205233
 30
0.0
 11
-50.1200197196
 21
20.3899579891
 31
0.0
  0
LINE
  5
307
100
AcDbEntity
  8
RACCORDO
100
AcDbLine
 62
250
  6
CONTINUOUS
 10
-50.1200197196
 20
20.6361224296
 30
0.0
 11
-50.1200197196
 21
20.7219737473
 31
0.0
  0
LINE
  5
308
100
AcDbEntity
  8
RACCORDO
100
AcDbLine
 62
250
  6
CONTINUOUS
 10
-50.1200197196
 20
20.9681381878
 30
0.0
 11
-50.1200197196
 21
21.3296040225
 31
0.0
  0
LINE
  5
309
100
AcDbEntity
  8
ASSI
100
AcDbLine
 62
7
  6
CONTINUOUS
 10
-49.8743828213
 20
22.25
 30
0.0
 11
-49.8743828213
 21
22.07436037
 31
0.0
  0
LINE
  5
30A
100
AcDbEntity
  8
RACCORDO
100
AcDbLine
 62
7
  6
CONTINUOUS
 10
-49.8743828213
 20
-20.2993205233
 30
0.0
 11
-49.8743828213
 21
-22.07436037
 31
0.0
  0
LINE
  5
30B
100
AcDbEntity
  8
ASSI
100
AcDbLine
 62
7
  6
CONTINUOUS
 10
-49.8743828213
 20
-22.07436037
 30
0.0
 11
-49.8743828213
 21
-22.25
 31
0.0
  0
LINE
  5
30C
100
AcDbEntity
  8
RACCORDO
100
AcDbLine
 62
7
  6
CONTINUOUS
 10
-49.8743828213
 20
20.2993205233
 30
0.0
 11
-49.8743828213
 21
22.07436037
 31
0.0
  0
LINE
  5
30D
100
AcDbEntity
  8
DRAFT
100
AcDbLine
 62
7
  6
CONTINUOUS
 10
-65.8743828213
 20
19.121508987
 30
0.0
 11
-65.2914626658
 21
19.1316838962
 31
0.0
  0
LINE
  5
30E
100
AcDbEntity
  8
RACCORDO
100
AcDbLine
 62
250
  6
CONTINUOUS
 10
-59.8743828213
 20
17.5155374826
 30
0.0
 11
-60.07089234
 21
17.5155374826
 31
0.0
  0
LINE
  5
30F
100
AcDbEntity
  8
ASSI
100
AcDbLine
 62
7
  6
CONTINUOUS
 10
-65.8729379107
 20
18.2216460036
 30
0.0
 11
-64.4145925282
 21
18.1808987593
 31
0.0
  0
LINE
  5
310
100
AcDbEntity
  8
RACCORDO
100
AcDbLine
 62
7
  6
CONTINUOUS
 10
-50.3412989949
 20
19.9164005972
 30
0.0
 11
-59.8743828213
 21
19.75
 31
0.0
  0
LINE
  5
311
100
AcDbEntity
  8
RACCORDO
100
AcDbLine
 62
250
  6
CONTINUOUS
 10
-56.57089234
 20
19.8808743888
 30
0.0
 11
-59.8743828213
 21
19.8232121524
 31
0.0
  0
LINE
  5
312
100
AcDbEntity
  8
RACCORDO
100
AcDbLine
 62
250
  6
CONTINUOUS
 10
-50.3412989949
 20
20.1663625209
 30
0.0
 11
-56.1778733025
 21
20.0644847374
 31
0.0
  0
LINE
  5
313
100
AcDbEntity
  8
RACCORDO
100
AcDbLine
 62
250
  6
CONTINUOUS
 10
-50.1200197196
 20
20.2993205233
 30
0.0
 11
-49.8743828213
 21
20.2993205233
 31
0.0
  0
LINE
  5
314
100
AcDbEntity
  8
RACCORDO
100
AcDbLine
 62
250
  6
CONTINUOUS
 10
-50.1200197196
 20
20.3899579891
 30
0.0
 11
-49.8743828213
 21
20.3899579891
 31
0.0
  0
LINE
  5
315
100
AcDbEntity
  8
RACCORDO
100
AcDbLine
 62
250
  6
CONTINUOUS
 10
-56.1778733025
 20
20.4786845751
 30
0.0
 11
-56.3743828213
 21
20.4786845751
 31
0.0
  0
LINE
  5
316
100
AcDbEntity
  8
RACCORDO
100
AcDbLine
 62
250
  6
CONTINUOUS
 10
-50.1200197196
 20
20.9681381878
 30
0.0
 11
-49.8743828213
 21
20.9681381878
 31
0.0
  0
LINE
  5
317
100
AcDbEntity
  8
RACCORDO
100
AcDbLine
 62
250
  6
CONTINUOUS
 10
-56.1778733025
 20
21.0568647738
 30
0.0
 11
-56.3743828213
 21
21.0568647738
 31
0.0
  0
LINE
  5
318
100
AcDbEntity
  8
RACCORDO
100
AcDbLine
 62
250
  6
CONTINUOUS
 10
-50.1200197196
 20
21.3296040225
 30
0.0
 11
-49.8743828213
 21
21.3296040225
 31
0.0
  0
LINE
  5
319
100
AcDbEntity
  8
0
100
AcDbLine
 62
7
  6
CONTINUOUS
 10
-63.27089234
 20
21.1892297568
 30
0.0
 11
-64.3743828213
 21
21.197818284
 31
0.0
  0
LINE
  5
31A
100
AcDbEntity
  8
RACCORDO
100
AcDbLine
 62
250
  6
CONTINUOUS
 10
-50.1200197196
 20
20.3899579891
 30
0.0
 11
-56.1778733025
 21
20.4786845751
 31
0.0
  0
LINE
  5
31B
100
AcDbEntity
  8
RACCORDO
100
AcDbLine
 62
250
  6
CONTINUOUS
 10
-50.1200197196
 20
20.6361224296
 30
0.0
 11
-56.1778733025
 21
20.7248490156
 31
0.0
  0
LINE
  5
31C
100
AcDbEntity
  8
RACCORDO
100
AcDbLine
 62
250
  6
CONTINUOUS
 10
-50.1200197196
 20
20.7219737473
 30
0.0
 11
-56.1778733025
 21
20.8107003333
 31
0.0
  0
LINE
  5
31D
100
AcDbEntity
  8
RACCORDO
100
AcDbLine
 62
250
  6
CONTINUOUS
 10
-50.1200197196
 20
20.9681381878
 30
0.0
 11
-56.1778733025
 21
21.0568647738
 31
0.0
  0
LINE
  5
31E
100
AcDbEntity
  8
RACCORDO
100
AcDbLine
 62
250
  6
CONTINUOUS
 10
-56.57089234
 20
21.345821258
 30
0.0
 11
-57.6865985754
 21
21.3655459497
 31
0.0
  0
LINE
  5
31F
100
AcDbEntity
  8
ASSI
100
AcDbLine
 62
250
  6
CONTINUOUS
 10
-60.6083624974
 20
-24.2393208298
 30
0.0
 11
-58.877455853
 21
-23.432185806
 31
0.0
  0
LINE
  5
320
100
AcDbEntity
  8
ASSI
100
AcDbLine
 62
7
  6
CONTINUOUS
 10
-60.5273293263
 20
-24.4031538935
 30
0.0
 11
-58.3557682199
 21
-23.3905383194
 31
0.0
  0
LINE
  5
321
100
AcDbEntity
  8
RACCORDO
100
AcDbLine
 62
250
  6
CONTINUOUS
 10
-64.57089234
 20
21.7318947812
 30
0.0
 11
-64.3743828213
 21
21.7318947812
 31
0.0
  0
LINE
  5
322
100
AcDbEntity
  8
RACCORDO
100
AcDbLine
 62
250
  6
CONTINUOUS
 10
-65.8743828213
 20
22.4719330656
 30
0.0
 11
-65.6287459229
 21
22.4719330656
 31
0.0
  0
LINE
  5
323
100
AcDbEntity
  8
ASSI
100
AcDbLine
 62
250
  6
CONTINUOUS
 10
-63.27089234
 20
22.7551793284
 30
0.0
 11
-63.0743828213
 21
22.7551793283
 31
0.0
  0
LINE
  5
324
100
AcDbEntity
  8
ASSI
100
AcDbLine
 62
250
  6
CONTINUOUS
 10
-59.301892438
 20
23.05
 30
0.0
 11
-58.4380517039
 21
23.05
 31
0.0
  0
LINE
  5
325
100
AcDbEntity
  8
ASSI
100
AcDbLine
 62
250
  6
CONTINUOUS
 10
-54.9161136465
 20
23.05
 30
0.0
 11
-55.8253650812
 21
23.05
 31
0.0
  0
LINE
  5
326
100
AcDbEntity
  8
ASSI
100
AcDbLine
 62
250
  6
CONTINUOUS
 10
-54.7349642601
 20
23.0674284937
 30
0.0
 11
-53.6687693963
 21
23.0674284937
 31
0.0
  0
LINE
  5
327
100
AcDbEntity
  8
ASSI
100
AcDbLine
 62
250
  6
CONTINUOUS
 10
-56.0106874969
 20
23.0674284937
 30
0.0
 11
-57.718350346
 21
23.0674284937
 31
0.0
  0
LINE
  5
328
100
AcDbEntity
  8
ASSI
100
AcDbLine
 62
7
  6
CONTINUOUS
 10
-53.6722598776
 20
23.25
 30
0.0
 11
-57.7218408273
 21
23.25
 31
0.0
  0
LINE
  5
329
100
AcDbEntity
  8
ASSI
100
AcDbLine
 62
250
  6
CONTINUOUS
 10
-62.57089234
 20
23.2900415076
 30
0.0
 11
-62.3743828213
 21
23.2900415076
 31
0.0
  0
LINE
  5
32A
100
AcDbEntity
  8
RACCORDO
100
AcDbLine
 62
250
  6
CONTINUOUS
 10
-56.1778733025
 20
21.4353442501
 30
0.0
 11
-50.1200197196
 21
21.3296040225
 31
0.0
  0
LINE
  5
32B
100
AcDbEntity
  8
RACCORDO
100
AcDbLine
 62
250
  6
CONTINUOUS
 10
-64.57089234
 20
21.7318947812
 30
0.0
 11
-65.8743828213
 21
21.7546472922
 31
0.0
  0
LINE
  5
32C
100
AcDbEntity
  8
RACCORDO
100
AcDbLine
 62
7
  6
CONTINUOUS
 10
-50.1200197196
 20
21.5795659463
 30
0.0
 11
-57.6743828213
 21
21.7114278447
 31
0.0
  0
LINE
  5
32D
100
AcDbEntity
  8
RACCORDO
100
AcDbLine
 62
7
  6
CONTINUOUS
 10
-64.57089234
 20
21.9318643202
 30
0.0
 11
-65.8743828213
 21
21.9546168312
 31
0.0
  0
LINE
  5
32E
100
AcDbEntity
  8
RACCORDO
100
AcDbLine
 62
250
  6
CONTINUOUS
 10
-65.6287459229
 20
22.4719330656
 30
0.0
 11
-64.6691470993
 21
22.4551832058
 31
0.0
  0
LINE
  5
32F
100
AcDbEntity
  8
RACCORDO
100
AcDbLine
 62
7
  6
CONTINUOUS
 10
-64.6691470993
 20
22.7051451296
 30
0.0
 11
-65.6287459229
 21
22.7218949894
 31
0.0
  0
LINE
  5
330
100
AcDbEntity
  8
ASSI
100
AcDbLine
 62
7
  6
CONTINUOUS
 10
-57.6743828213
 20
21.7114278447
 30
0.0
 11
-63.0743828213
 21
21.9
 31
0.0
  0
LINE
  5
331
100
AcDbEntity
  8
0
100
AcDbLine
 62
7
  6
CONTINUOUS
 10
-65.8743828213
 20
22.9786116689
 30
0.0
 11
-64.3743828213
 21
22.9
 31
0.0
  0
LINE
  5
332
100
AcDbEntity
  8
ASSI
100
AcDbLine
 62
250
  6
CONTINUOUS
 10
-58.8774558532
 20
23.4321858061
 30
0.0
 11
-60.6083624974
 21
24.2393208298
 31
0.0
  0
LINE
  5
333
100
AcDbEntity
  8
ASSI
100
AcDbLine
 62
7
  6
CONTINUOUS
 10
-58.3557682199
 20
23.3905383194
 30
0.0
 11
-60.5273293263
 21
24.4031538935
 31
0.0
  0
LINE
  5
334
100
AcDbEntity
  8
ASSI
100
AcDbLine
 62
250
  6
CONTINUOUS
 10
-62.57089234
 20
23.7423678201
 30
0.0
 11
-62.3743828213
 21
23.7423678201
 31
0.0
  0
LINE
  5
335
100
AcDbEntity
  8
ASSI
100
AcDbLine
 62
250
  6
CONTINUOUS
 10
-60.7351479759
 20
24.2674284937
 30
0.0
 11
-61.7512770977
 21
24.2674284937
 31
0.0
  0
LINE
  5
336
100
AcDbEntity
  8
ASSI
100
AcDbLine
 62
250
  6
CONTINUOUS
 10
-65.2243577376
 20
24.3674284937
 30
0.0
 11
-65.8743828213
 21
24.3674284937
 31
0.0
  0
LINE
  5
337
100
AcDbEntity
  8
ASSI
100
AcDbLine
 62
7
  6
CONTINUOUS
 10
-60.7386384572
 20
24.45
 30
0.0
 11
-61.754767579
 21
24.45
 31
0.0
  0
LINE
  5
338
100
AcDbEntity
  8
ASSI
100
AcDbLine
 62
7
  6
CONTINUOUS
 10
-65.2278482189
 20
24.55
 30
0.0
 11
-65.8743828213
 21
24.55
 31
0.0
  0
LINE
  5
339
100
AcDbEntity
  8
ASSI
100
AcDbLine
 62
250
  6
CONTINUOUS
 10
-62.57089234
 20
23.7423678201
 30
0.0
 11
-65.8743828213
 21
23.800030461
 31
0.0
  0
LINE
  5
33A
100
AcDbEntity
  8
ASSI
100
AcDbLine
 62
7
  6
CONTINUOUS
 10
-62.57089234
 20
23.9423373592
 30
0.0
 11
-65.8743828213
 21
24.0
 31
0.0
  0
LINE
  5
33B
100
AcDbEntity
  8
ASSI
100
AcDbLine
 62
250
  6
CONTINUOUS
 10
-53.5911236828
 20
23.0572062416
 30
0.0
 11
-51.4393633218
 21
22.4806437906
 31
0.0
  0
LINE
  5
33C
100
AcDbEntity
  8
ASSI
100
AcDbLine
 62
250
  6
CONTINUOUS
 10
-51.3114191851
 20
22.4594131032
 30
0.0
 11
-49.8743828213
 21
22.07436037
 31
0.0
  0
LINE
  5
33D
100
AcDbEntity
  8
ASSI
100
AcDbLine
 62
7
  6
CONTINUOUS
 10
-53.5428503551
 20
23.2329629131
 30
0.0
 11
-49.8743828213
 21
22.25
 31
0.0
  0
LINE
  5
33E
100
AcDbEntity
  8
0
100
AcDbLine
 62
250
  6
CONTINUOUS
 10
-65.8743828213
 20
25.9001713375
 30
0.0
 11
-69.1874712954
 21
25.8134150626
 31
0.0
  0
LINE
  5
33F
100
AcDbEntity
  8
0
100
AcDbLine
 62
7
  6
CONTINUOUS
 10
-65.8743828213
 20
26.4
 30
0.0
 11
-69.1874712954
 21
26.3132437251
 31
0.0
  0
LINE
  5
340
100
AcDbEntity
  8
0
100
AcDbLine
 62
250
  6
CONTINUOUS
 10
-69.1874712954
 20
25.8134150626
 30
0.0
 11
-69.6743828213
 21
25.8134150626
 31
0.0
  0
LWPOLYLINE
  5
341
100
AcDbEntity
  8
0
100
AcDbPolyline
 62
7
  6
CONTINUOUS
 90
8
 70
0
 43
0.3500000006
 10
-82.2031611328
 20
39.2775699005
 10
-81.3460141296
 20
39.2775699005
 10
-80.9174451599
 20
39.7061388702
 10
-80.9174451599
 20
40.5632813416
 10
-81.3460141296
 20
40.9918548431
 10
-82.2031611328
 20
40.9918548431
 10
-82.2031611328
 20
42.2775662842
 10
-80.9174451599
 20
42.2775662842
  0
LWPOLYLINE
  5
342
100
AcDbEntity
  8
0
100
AcDbPolyline
 62
7
  6
CONTINUOUS
 90
3
 70
0
 43
0.3500000006
 10
-57.4600963898
 20
47.9204257965
 10
-58.9600968475
 20
47.9204257965
 10
-58.3172388611
 20
50.2775687256
  0
LWPOLYLINE
  5
343
100
AcDbEntity
  8
0
100
AcDbPolyline
 62
7
  6
CONTINUOUS
 90
13
 70
0
 43
0.3500000006
 10
-57.6315276031
 20
56.9918551941
 10
-57.917238739
 20
57.206139679
 10
-57.917238739
 20
57.8489931335
 10
-57.6315276031
 20
58.277571167
 10
-56.9886696167
 20
58.277571167
 10
-56.702953949
 20
57.8489931335
 10
-56.702953949
 20
57.206139679
 10
-56.9886696167
 20
56.9918551941
 10
-56.5600961151
 20
56.5632862244
 10
-56.5600961151
 20
55.7061392212
 10
-56.9886696167
 20
55.2775702515
 10
-57.6315276031
 20
55.2775702515
 10
-58.0600965729
 20
55.7061392212
  0
LWPOLYLINE
  5
344
100
AcDbEntity
  8
0
100
AcDbPolyline
 62
7
  6
CONTINUOUS
 90
10
 70
0
 43
0.3500000006
 10
-55.960095932
 20
47.7775679626
 10
-55.888669281
 20
47.6347101288
 10
-55.888669281
 20
47.5632834778
 10
-56.0315271149
 20
47.4204256439
 10
-56.1029537659
 20
47.4204256439
 10
-56.1743849487
 20
47.4918522949
 10
-56.1743849487
 20
47.5632834778
 10
-56.1029537659
 20
47.7061413116
 10
-56.0315271149
 20
47.7775679626
 10
-55.960095932
 20
47.7775679626
  0
LWPOLYLINE
  5
345
100
AcDbEntity
  8
0
100
AcDbPolyline
 62
7
  6
CONTINUOUS
 90
10
 70
0
 43
0.3500000006
 10
-59.1315235291
 20
55.7775704041
 10
-59.0600968781
 20
55.6347125702
 10
-59.0600968781
 20
55.5632813873
 10
-59.2029547119
 20
55.4204235535
 10
-59.2743813629
 20
55.4204235535
 10
-59.3458125458
 20
55.4918547363
 10
-59.3458125458
 20
55.5632813873
 10
-59.2743813629
 20
55.7061392212
 10
-59.2029547119
 20
55.7775704041
 10
-59.1315235291
 20
55.7775704041
  0
ARC
  5
346
100
AcDbEntity
  8
0
100
AcDbCircle
 62
250
  6
CONTINUOUS
 10
21.7630031739
 20
25.8130031739
 30
0.0
 40
0.5002424821
100
AcDbArc
 50
0.0471762608
 51
89.9528237514
  0
ARC
  5
347
100
AcDbEntity
  8
0
100
AcDbCircle
 62
250
  6
CONTINUOUS
 10
-21.7630031869
 20
25.8130031869
 30
0.0
 40
0.5002424761
100
AcDbArc
 50
90.0471747716
 51
179.9528252285
  0
ARC
  5
348
100
AcDbEntity
  8
0
100
AcDbCircle
 62
250
  6
CONTINUOUS
 10
-21.7630033995
 20
-25.8130033995
 30
0.0
 40
0.5002422045
100
AcDbArc
 50
180.0471504417
 51
269.9528495706
  0
ARC
  5
349
100
AcDbEntity
  8
0
100
AcDbCircle
 62
250
  6
CONTINUOUS
 10
21.7630034125
 20
-25.8130034125
 30
0.0
 40
0.5002421985
100
AcDbArc
 50
270.0471489526
 51
359.9528510475
  0
ARC
  5
34A
100
AcDbEntity
  8
ASSI
100
AcDbCircle
 62
250
  6
CONTINUOUS
 10
-136.6983534805
 20
-25.2566364396
 30
0.0
 40
81.8120039886
100
AcDbArc
 50
1.5455713505
 51
2.5167589244
  0
ARC
  5
34B
100
AcDbEntity
  8
ASSI
100
AcDbCircle
 62
250
  6
CONTINUOUS
 10
-125.5992929356
 20
-25.3735482921
 30
0.0
 40
67.2014226071
100
AcDbArc
 50
1.9814469042
 51
3.0993595525
  0
ARC
  5
34C
100
AcDbEntity
  8
ASSI
100
AcDbCircle
 62
250
  6
CONTINUOUS
 10
-113.3696973338
 20
-25.2485618756
 30
0.0
 40
58.6752612184
100
AcDbArc
 50
2.1644061723
 51
3.5050817081
  0
ARC
  5
34D
100
AcDbEntity
  8
ASSI
100
AcDbCircle
 62
250
  6
CONTINUOUS
 10
-106.47076486
 20
-25.3688759606
 30
0.0
 40
48.260339059
100
AcDbArc
 50
2.7747986844
 51
4.3183895922
  0
ARC
  5
34E
100
AcDbEntity
  8
RACCORDO
100
AcDbCircle
 62
250
  6
CONTINUOUS
 10
-121.4205439203
 20
-17.6723225842
 30
0.0
 40
61.3498519199
100
AcDbArc
 50
359.8535752882
 51
0.1464247118
  0
ARC
  5
34F
100
AcDbEntity
  8
0
100
AcDbCircle
 62
7
  6
CONTINUOUS
 10
-69.1743828213
 20
-25.8134150626
 30
0.0
 40
0.5
100
AcDbArc
 50
180.0
 51
268.5
  0
ARC
  5
350
100
AcDbEntity
  8
ASSI
100
AcDbCircle
 62
7
  6
CONTINUOUS
 10
-65.2278482189
 20
-24.35
 30
0.0
 40
0.2
100
AcDbArc
 50
270.0
 51
345.0
  0
ARC
  5
351
100
AcDbEntity
  8
RACCORDO
100
AcDbCircle
 62
7
  6
CONTINUOUS
 10
-64.6743828213
 20
-22.4051908211
 30
0.0
 40
0.3
100
AcDbArc
 50
271.0
 51
360.0
  0
ARC
  5
352
100
AcDbEntity
  8
RACCORDO
100
AcDbCircle
 62
7
  6
CONTINUOUS
 10
-65.6243828213
 20
-22.9718569132
 30
0.0
 40
0.25
100
AcDbArc
 50
91.0
 51
180.0
  0
ARC
  5
353
100
AcDbEntity
  8
ASSI
100
AcDbCircle
 62
250
  6
CONTINUOUS
 10
-57.7184117024
 20
-24.7670045723
 30
0.0
 40
1.6995760797
100
AcDbArc
 50
89.9979315666
 51
109.5324867634
  0
ARC
  5
354
100
AcDbEntity
  8
ASSI
100
AcDbCircle
 62
7
  6
CONTINUOUS
 10
-57.7218408273
 20
-24.75
 30
0.0
 40
1.5
100
AcDbArc
 50
90.0
 51
115.0
  0
ARC
  5
355
100
AcDbEntity
  8
ASSI
100
AcDbCircle
 62
7
  6
CONTINUOUS
 10
-61.754767579
 20
-24.25
 30
0.0
 40
0.2
100
AcDbArc
 50
210.0
 51
270.0
  0
ARC
  5
356
100
AcDbEntity
  8
ASSI
100
AcDbCircle
 62
250
  6
CONTINUOUS
 10
-62.3863565017
 20
-23.9674241296
 30
0.0
 40
0.3999927152
100
AcDbArc
 50
29.9998268775
 51
88.2829387505
  0
ARC
  5
357
100
AcDbEntity
  8
ASSI
100
AcDbCircle
 62
7
  6
CONTINUOUS
 10
-62.3898528751
 20
-23.95
 30
0.0
 40
0.2
100
AcDbArc
 50
30.0
 51
85.6854357584
  0
ARC
  5
358
100
AcDbEntity
  8
ASSI
100
AcDbCircle
 62
7
  6
CONTINUOUS
 10
-62.5743828213
 20
-23.7423678201
 30
0.0
 40
0.2
100
AcDbArc
 50
271.0
 51
360.0
  0
ARC
  5
359
100
AcDbEntity
  8
ASSI
100
AcDbCircle
 62
250
  6
CONTINUOUS
 10
-62.8708682237
 20
-22.755162442
 30
0.0
 40
0.4000266009
100
AcDbArc
 50
180.0024186558
 51
249.9975813486
  0
ARC
  5
35A
100
AcDbEntity
  8
ASSI
100
AcDbCircle
 62
7
  6
CONTINUOUS
 10
-62.8743828213
 20
-22.7551793284
 30
0.0
 40
0.2
100
AcDbArc
 50
180.0
 51
250.0
  0
ARC
  5
35B
100
AcDbEntity
  8
ASSI
100
AcDbCircle
 62
7
  6
CONTINUOUS
 10
-62.5743828213
 20
-23.2900415076
 30
0.0
 40
0.2
100
AcDbArc
 50
0.0
 51
70.0
  0
ARC
  5
35C
100
AcDbEntity
  8
ASSI
100
AcDbCircle
 62
7
  6
CONTINUOUS
 10
-60.7386384572
 20
-23.95
 30
0.0
 40
0.5
100
AcDbArc
 50
270.0
 51
295.0
  0
ARC
  5
35D
100
AcDbEntity
  8
DRAFT
100
AcDbCircle
 62
7
  6
CONTINUOUS
 10
-65.2966983877
 20
-19.4316382047
 30
0.0
 40
0.3
100
AcDbArc
 50
46.3156631378
 51
89.0
  0
ARC
  5
35E
100
AcDbEntity
  8
RACCORDO
100
AcDbCircle
 62
7
  6
CONTINUOUS
 10
-64.5743828213
 20
-21.7318947812
 30
0.0
 40
0.2
100
AcDbArc
 50
271.0
 51
360.0
  0
ARC
  5
35F
100
AcDbEntity
  8
RACCORDO
100
AcDbCircle
 62
7
  6
CONTINUOUS
 10
-56.5743828213
 20
-20.0076321799
 30
0.0
 40
0.2
100
AcDbArc
 50
0.0
 51
89.0
  0
ARC
  5
360
100
AcDbEntity
  8
RACCORDO
100
AcDbCircle
 62
7
  6
CONTINUOUS
 10
-56.5743828213
 20
-21.4921968077
 30
0.0
 40
0.2
100
AcDbArc
 50
271.0
 51
360.0
  0
ARC
  5
361
100
AcDbEntity
  8
RACCORDO
100
AcDbCircle
 62
250
  6
CONTINUOUS
 10
-114.2732205506
 20
17.6723225842
 30
0.0
 40
54.2025549676
100
AcDbArc
 50
359.834267275
 51
0.165732725
  0
ARC
  5
362
100
AcDbEntity
  8
ASSI
100
AcDbCircle
 62
250
  6
CONTINUOUS
 10
-136.6951042225
 20
25.2565212086
 30
0.0
 40
81.8087528047
100
AcDbArc
 50
357.4832217731
 51
358.4544479445
  0
ARC
  5
363
100
AcDbEntity
  8
ASSI
100
AcDbCircle
 62
250
  6
CONTINUOUS
 10
-125.6023037001
 20
25.3736818791
 30
0.0
 40
67.2044361905
100
AcDbArc
 50
356.9006655072
 51
358.0185280244
  0
ARC
  5
364
100
AcDbEntity
  8
ASSI
100
AcDbCircle
 62
250
  6
CONTINUOUS
 10
-113.3674896426
 20
25.2486825404
 30
0.0
 40
58.6730597631
100
AcDbArc
 50
356.4946686529
 51
357.835394658
  0
ARC
  5
365
100
AcDbEntity
  8
ASSI
100
AcDbCircle
 62
250
  6
CONTINUOUS
 10
-106.4727453302
 20
25.3688949319
 30
0.0
 40
48.2623181264
100
AcDbArc
 50
355.6817651232
 51
357.2252926407
  0
ARC
  5
366
100
AcDbEntity
  8
DRAFT
100
AcDbCircle
 62
7
  6
CONTINUOUS
 10
-65.2966983877
 20
19.4316382047
 30
0.0
 40
0.3
100
AcDbArc
 50
271.0
 51
313.6843368622
  0
ARC
  5
367
100
AcDbEntity
  8
RACCORDO
100
AcDbCircle
 62
7
  6
CONTINUOUS
 10
-64.5743828213
 20
21.7318947812
 30
0.0
 40
0.2
100
AcDbArc
 50
0.0
 51
89.0
  0
ARC
  5
368
100
AcDbEntity
  8
RACCORDO
100
AcDbCircle
 62
7
  6
CONTINUOUS
 10
-56.5743828213
 20
21.4921968077
 30
0.0
 40
0.2
100
AcDbArc
 50
0.0
 51
88.9999999941
  0
ARC
  5
369
100
AcDbEntity
  8
RACCORDO
100
AcDbCircle
 62
7
  6
CONTINUOUS
 10
-56.5743828213
 20
20.0076321799
 30
0.0
 40
0.2
100
AcDbArc
 50
271.0
 51
360.0
  0
ARC
  5
36A
100
AcDbEntity
  8
RACCORDO
100
AcDbCircle
 62
7
  6
CONTINUOUS
 10
-64.6743828213
 20
22.4051908211
 30
0.0
 40
0.3
100
AcDbArc
 50
0.0
 51
89.0
  0
ARC
  5
36B
100
AcDbEntity
  8
RACCORDO
100
AcDbCircle
 62
7
  6
CONTINUOUS
 10
-65.6243828213
 20
22.9718569132
 30
0.0
 40
0.25
100
AcDbArc
 50
186.0369786523
 51
269.0
  0
ARC
  5
36C
100
AcDbEntity
  8
0
100
AcDbCircle
 62
7
  6
CONTINUOUS
 10
-69.1743828213
 20
25.8134150626
 30
0.0
 40
0.5
100
AcDbArc
 50
91.5
 51
180.0
  0
ARC
  5
36D
100
AcDbEntity
  8
ASSI
100
AcDbCircle
 62
7
  6
CONTINUOUS
 10
-65.2278482189
 20
24.35
 30
0.0
 40
0.2
100
AcDbArc
 50
15.0
 51
90.0
  0
ARC
  5
36E
100
AcDbEntity
  8
ASSI
100
AcDbCircle
 62
7
  6
CONTINUOUS
 10
-60.7386384572
 20
23.95
 30
0.0
 40
0.5
100
AcDbArc
 50
65.0
 51
90.0
  0
ARC
  5
36F
100
AcDbEntity
  8
ASSI
100
AcDbCircle
 62
250
  6
CONTINUOUS
 10
-62.8708671064
 20
22.7551616596
 30
0.0
 40
0.4000277055
100
AcDbArc
 50
110.002530703
 51
179.9974692984
  0
ARC
  5
370
100
AcDbEntity
  8
ASSI
100
AcDbCircle
 62
250
  6
CONTINUOUS
 10
-62.3863697752
 20
23.9674441976
 30
0.0
 40
0.4000142446
100
AcDbArc
 50
271.7192319512
 51
329.998580648
  0
ARC
  5
371
100
AcDbEntity
  8
ASSI
100
AcDbCircle
 62
7
  6
CONTINUOUS
 10
-62.3898528751
 20
23.95
 30
0.0
 40
0.2
100
AcDbArc
 50
274.3466595539
 51
330.0
  0
ARC
  5
372
100
AcDbEntity
  8
ASSI
100
AcDbCircle
 62
7
  6
CONTINUOUS
 10
-62.8743828213
 20
22.7551793284
 30
0.0
 40
0.2
100
AcDbArc
 50
110.0
 51
180.0
  0
ARC
  5
373
100
AcDbEntity
  8
ASSI
100
AcDbCircle
 62
7
  6
CONTINUOUS
 10
-62.5743828213
 20
23.7423678201
 30
0.0
 40
0.2
100
AcDbArc
 50
0.0
 51
89.0
  0
ARC
  5
374
100
AcDbEntity
  8
ASSI
100
AcDbCircle
 62
7
  6
CONTINUOUS
 10
-62.5743828213
 20
23.2900415076
 30
0.0
 40
0.2
100
AcDbArc
 50
290.0
 51
360.0
  0
ARC
  5
375
100
AcDbEntity
  8
ASSI
100
AcDbCircle
 62
250
  6
CONTINUOUS
 10
-57.7183976916
 20
24.7671258531
 30
0.0
 40
1.6996973601
100
AcDbArc
 50
250.4684870486
 51
270.0015959915
  0
ARC
  5
376
100
AcDbEntity
  8
ASSI
100
AcDbCircle
 62
7
  6
CONTINUOUS
 10
-57.7218408273
 20
24.75
 30
0.0
 40
1.5
100
AcDbArc
 50
245.0
 51
270.0
  0
ARC
  5
377
100
AcDbEntity
  8
ASSI
100
AcDbCircle
 62
7
  6
CONTINUOUS
 10
-61.754767579
 20
24.25
 30
0.0
 40
0.2
100
AcDbArc
 50
90.0
 51
150.0
  0
ARC
  5
378
100
AcDbEntity
  8
ASSI
100
AcDbCircle
 62
250
  6
CONTINUOUS
 10
26.1437560624
 20
-25.4421848837
 30
0.0
 40
82.0040204475
100
AcDbArc
 50
177.3692367268
 51
178.3283558067
  0
ARC
  5
379
100
AcDbEntity
  8
ASSI
100
AcDbCircle
 62
250
  6
CONTINUOUS
 10
8.2270226357
 20
-25.5365835105
 30
0.0
 40
67.5746806768
100
AcDbArc
 50
176.801461242
 51
177.891178899
  0
ARC
  5
37A
100
AcDbEntity
  8
ASSI
100
AcDbCircle
 62
250
  6
CONTINUOUS
 10
2.8174734304
 20
-25.4375485319
 30
0.0
 40
58.8758618933
100
AcDbArc
 50
176.3419065094
 51
177.6589152505
  0
ARC
  5
37B
100
AcDbEntity
  8
ASSI
100
AcDbCircle
 62
250
  6
CONTINUOUS
 10
-10.9028518537
 20
-25.539154879
 30
0.0
 40
48.6381666354
100
AcDbArc
 50
175.5572606174
 51
177.0459346736
  0
ARC
  5
37C
100
AcDbEntity
  8
ASSI
100
AcDbCircle
 62
250
  6
CONTINUOUS
 10
-53.7524127766
 20
-8.1451994344
 30
0.0
 40
14.5208526839
100
AcDbArc
 50
279.165778946
 51
279.677520504
  0
ARC
  5
37D
100
AcDbEntity
  8
ASSI
100
AcDbCircle
 62
7
  6
CONTINUOUS
 10
-53.6722598776
 20
-22.75
 30
0.0
 40
0.5
100
AcDbArc
 50
270.0
 51
285.0
  0
ARC
  5
37E
100
AcDbEntity
  8
ASSI
100
AcDbCircle
 62
250
  6
CONTINUOUS
 10
-53.6689383487
 20
-22.7661451729
 30
0.0
 40
0.3012833682
100
AcDbArc
 50
270.032130083
 51
284.967869917
  0
ARC
  5
37F
100
AcDbEntity
  8
RACCORDO
100
AcDbCircle
 62
7
  6
CONTINUOUS
 10
-50.1243828213
 20
-21.3296040225
 30
0.0
 40
0.25
100
AcDbArc
 50
271.0
 51
360.0
  0
ARC
  5
380
100
AcDbEntity
  8
RACCORDO
100
AcDbCircle
 62
7
  6
CONTINUOUS
 10
-50.3456620965
 20
-20.1663625209
 30
0.0
 40
0.25
100
AcDbArc
 50
59.0
 51
89.0
  0
ARC
  5
381
100
AcDbEntity
  8
RACCORDO
100
AcDbCircle
 62
7
  6
CONTINUOUS
 10
-50.1243828213
 20
-20.2993205233
 30
0.0
 40
0.25
100
AcDbArc
 50
0.0
 51
59.0
  0
ARC
  5
382
100
AcDbEntity
  8
ASSI
100
AcDbCircle
 62
250
  6
CONTINUOUS
 10
-53.7524186535
 20
8.1451640175
 30
0.0
 40
14.5208885847
100
AcDbArc
 50
80.3224801286
 51
80.8342204213
  0
ARC
  5
383
100
AcDbEntity
  8
ASSI
100
AcDbCircle
 62
7
  6
CONTINUOUS
 10
-53.6722598776
 20
22.75
 30
0.0
 40
0.5
100
AcDbArc
 50
75.0
 51
90.0
  0
ARC
  5
384
100
AcDbEntity
  8
ASSI
100
AcDbCircle
 62
250
  6
CONTINUOUS
 10
-53.6689383474
 20
22.7661451832
 30
0.0
 40
0.3012833579
100
AcDbArc
 50
75.0321298259
 51
89.9678701741
  0
ARC
  5
385
100
AcDbEntity
  8
RACCORDO
100
AcDbCircle
 62
7
  6
CONTINUOUS
 10
-50.3456620965
 20
20.1663625209
 30
0.0
 40
0.25
100
AcDbArc
 50
271.0
 51
301.0
  0
ARC
  5
386
100
AcDbEntity
  8
RACCORDO
100
AcDbCircle
 62
7
  6
CONTINUOUS
 10
-50.1243828213
 20
21.3296040225
 30
0.0
 40
0.25
100
AcDbArc
 50
0.0
 51
89.0
  0
ARC
  5
387
100
AcDbEntity
  8
RACCORDO
100
AcDbCircle
 62
7
  6
CONTINUOUS
 10
-50.1243828213
 20
20.2993205233
 30
0.0
 40
0.25
100
AcDbArc
 50
301.0
 51
360.0
  0
ARC
  5
388
100
AcDbEntity
  8
ASSI
100
AcDbCircle
 62
250
  6
CONTINUOUS
 10
26.1436212517
 20
25.4421798253
 30
0.0
 40
82.0038855467
100
AcDbArc
 50
181.6716434083
 51
182.6307640663
  0
ARC
  5
389
100
AcDbEntity
  8
ASSI
100
AcDbCircle
 62
250
  6
CONTINUOUS
 10
8.2271083767
 20
25.536587492
 30
0.0
 40
67.5747665063
100
AcDbArc
 50
182.1088217994
 51
183.1985380719
  0
ARC
  5
38A
100
AcDbEntity
  8
ASSI
100
AcDbCircle
 62
250
  6
CONTINUOUS
 10
2.8156208882
 20
25.4375430186
 30
0.0
 40
58.8740105096
100
AcDbArc
 50
182.3411530327
 51
183.6582033452
  0
ARC
  5
38B
100
AcDbEntity
  8
ASSI
100
AcDbCircle
 62
250
  6
CONTINUOUS
 10
-10.8995266974
 20
25.5390181908
 30
0.0
 40
48.6414803306
100
AcDbArc
 50
182.9537027462
 51
184.4422742417
  0
SPLINE
  5
38C
100
AcDbEntity
  8
0
100
AcDbSpline
 62
250
  6
CONTINUOUS
 70
0
 71
3
 72
20
 73
16
 74
0
 42
0.0000001
 43
0.0000001
 44
0.0000000001
 40
0.0
 40
0.0
 40
0.0
 40
0.0
 40
0.1947833601
 40
0.3822179252
 40
0.5548328177
 40
0.7061883472
 40
0.7720107474
 40
0.8304161831
 40
0.88083668
 40
0.9227816892
 40
0.9558863377
 40
0.9798173717
 40
0.9944107206
 40
0.9982408572
 40
1.0
 40
1.0
 40
1.0
 40
1.0
 10
-69.1874712954
 20
-25.8134150626
 30
0.0
 10
-69.1883211671
 20
-25.8458926065
 30
0.0
 10
-69.1898272487
 20
-25.909626744
 30
0.0
 10
-69.1915300069
 20
-26.0021541694
 30
0.0
 10
-69.1925954056
 20
-26.0874474398
 30
0.0
 10
-69.192946558
 20
-26.1524618342
 30
0.0
 10
-69.1928362912
 20
-26.1984285936
 30
0.0
 10
-69.1925849903
 20
-26.2275554202
 30
0.0
 10
-69.1921631325
 20
-26.2527077165
 30
0.0
 10
-69.1915882493
 20
-26.273605857
 30
0.0
 10
-69.1908453311
 20
-26.290157935
 30
0.0
 10
-69.1900356349
 20
-26.3019449177
 30
0.0
 10
-69.1890997825
 20
-26.309192092
 30
0.0
 10
-69.1883500416
 20
-26.312238338
 30
0.0
 10
-69.187764609
 20
-26.3132360444
 30
0.0
 10
-69.1874712954
 20
-26.3132437251
 30
0.0
  0
SPLINE
  5
38D
100
AcDbEntity
  8
0
100
AcDbSpline
 62
250
  6
CONTINUOUS
 70
0
 71
3
 72
20
 73
16
 74
0
 42
0.0000001
 43
0.0000001
 44
0.0000000001
 40
0.0
 40
0.0
 40
0.0
 40
0.0
 40
0.1947842333
 40
0.3822213226
 40
0.5548370394
 40
0.7061919745
 40
0.7720146565
 40
0.8304202888
 40
0.880841088
 40
0.9227850174
 40
0.9558881586
 40
0.9798184769
 40
0.9944110651
 40
0.9982409359
 40
1.0
 40
1.0
 40
1.0
 40
1.0
 10
-69.1874712954
 20
25.8134150626
 30
0.0
 10
-69.1883211709
 20
25.8458927535
 30
0.0
 10
-69.189827264
 20
25.9096274603
 30
0.0
 10
-69.1915300254
 20
26.0021555939
 30
0.0
 10
-69.1925954321
 20
26.0874493272
 30
0.0
 10
-69.1929465622
 20
26.15246381
 30
0.0
 10
-69.1928362808
 20
26.1984305519
 30
0.0
 10
-69.1925849472
 20
26.22755751
 30
0.0
 10
-69.192163094
 20
26.2527097092
 30
0.0
 10
-69.1915882016
 20
26.2736074737
 30
0.0
 10
-69.19084525
 20
26.2901589869
 30
0.0
 10
-69.1900356188
 20
26.3019455029
 30
0.0
 10
-69.1890997781
 20
26.309192337
 30
0.0
 10
-69.1883500434
 20
26.3122384509
 30
0.0
 10
-69.187764598
 20
26.3132360447
 30
0.0
 10
-69.1874712975
 20
26.313243725
 30
0.0
  0
SPLINE
  5
38E
100
AcDbEntity
  8
RACCORDO
100
AcDbSpline
 62
250
  6
CONTINUOUS
 70
0
 71
3
 72
18
 73
14
 74
0
 42
0.0000001
 43
0.0000001
 44
0.0000000001
 40
0.0
 40
0.0
 40
0.0
 40
0.0
 40
0.1948266512
 40
0.382526743
 40
0.5552863479
 40
0.7066991368
 40
0.8310400499
 40
0.8814640784
 40
0.9234311463
 40
0.9565177043
 40
0.9803830135
 40
0.9948764339
 40
1.0
 40
1.0
 40
1.0
 40
1.0
 10
-64.57089234
 20
-21.7318947812
 30
0.0
 10
-64.570665664
 20
-21.7448849944
 30
0.0
 10
-64.5702638337
 20
-21.7703911986
 30
0.0
 10
-64.5698096284
 20
-21.8074175407
 30
0.0
 10
-64.5695234992
 20
-21.8415534451
 30
0.0
 10
-64.5694212984
 20
-21.8714558891
 30
0.0
 10
-64.5694740349
 20
-21.8932246777
 30
0.0
 10
-64.5696464333
 20
-21.907649626
 30
0.0
 10
-64.5697758738
 20
-21.916074941
 30
0.0
 10
-64.5700367744
 20
-21.9225134759
 30
0.0
 10
-64.5701093874
 20
-21.9276293592
 30
0.0
 10
-64.5706236172
 20
-21.9298831806
 30
0.0
 10
-64.5705507224
 20
-21.9318583572
 30
0.0
 10
-64.57089234
 20
-21.9318643202
 30
0.0
  0
SPLINE
  5
38F
100
AcDbEntity
  8
RACCORDO
100
AcDbSpline
 62
250
  6
CONTINUOUS
 70
0
 71
3
 72
18
 73
14
 74
0
 42
0.0000001
 43
0.0000001
 44
0.0000000001
 40
0.0
 40
0.0
 40
0.0
 40
0.0
 40
0.1948266501
 40
0.3825267383
 40
0.5552863409
 40
0.7066991299
 40
0.8310400442
 40
0.881464074
 40
0.9234311437
 40
0.9565177028
 40
0.9803830127
 40
0.9948764337
 40
1.0
 40
1.0
 40
1.0
 40
1.0
 10
-64.57089234
 20
21.7318947812
 30
0.0
 10
-64.570665664
 20
21.7448849943
 30
0.0
 10
-64.5702638337
 20
21.7703911982
 30
0.0
 10
-64.5698096284
 20
21.8074175398
 30
0.0
 10
-64.5695234992
 20
21.8415534438
 30
0.0
 10
-64.5694212984
 20
21.8714558878
 30
0.0
 10
-64.5694740349
 20
21.8932246766
 30
0.0
 10
-64.5696464333
 20
21.9076496252
 30
0.0
 10
-64.5697758738
 20
21.9160749405
 30
0.0
 10
-64.5700367744
 20
21.9225134756
 30
0.0
 10
-64.5701093874
 20
21.9276293591
 30
0.0
 10
-64.5706236173
 20
21.9298831805
 30
0.0
 10
-64.5705507224
 20
21.9318583572
 30
0.0
 10
-64.57089234
 20
21.9318643202
 30
0.0
  0
SPLINE
  5
390
100
AcDbEntity
  8
RACCORDO
100
AcDbSpline
 62
7
  6
CONTINUOUS
 70
0
 71
3
 72
11
 73
7
 74
0
 42
0.0000001
 43
0.0000001
 44
0.0000000001
 40
0.0
 40
0.0
 40
0.0
 40
0.0
 40
0.276942708
 40
0.538168782
 40
0.7776229578
 40
1.0
 40
1.0
 40
1.0
 40
1.0
 10
-65.6374668103
 20
18.0398907815
 30
0.0
 10
-65.6668539593
 20
18.0390563478
 30
0.0
 10
-65.7241091181
 20
18.0295747497
 30
0.0
 10
-65.7992711023
 20
17.9923110949
 30
0.0
 10
-65.8537955937
 20
17.9357358235
 30
0.0
 10
-65.8709371219
 20
17.8877573916
 30
0.0
 10
-65.8734843962
 20
17.864288679
 30
0.0
  0
SPLINE
  5
391
100
AcDbEntity
  8
RACCORDO
100
AcDbSpline
 62
7
  6
CONTINUOUS
 70
0
 71
3
 72
11
 73
7
 74
0
 42
0.0000001
 43
0.0000001
 44
0.0000000001
 40
0.0
 40
0.0
 40
0.0
 40
0.0
 40
0.2234385674
 40
0.4643575747
 40
0.7252253515
 40
1.0
 40
1.0
 40
1.0
 40
1.0
 10
-65.8703117109
 20
-17.8828417392
 30
0.0
 10
-65.8652197111
 20
-17.904597099
 30
0.0
 10
-65.8445357929
 20
-17.9478410263
 30
0.0
 10
-65.7901267834
 20
-17.9978635622
 30
0.0
 10
-65.7185781925
 20
-18.0307039732
 30
0.0
 10
-65.6649325505
 20
-18.0391109052
 30
0.0
 10
-65.6374668103
 20
-18.0398907815
 30
0.0
  0
SPLINE
  5
392
100
AcDbEntity
  8
RACCORDO
100
AcDbSpline
 62
7
  6
CONTINUOUS
 70
0
 71
3
 72
11
 73
7
 74
0
 42
0.0000001
 43
0.0000001
 44
0.0000000001
 40
0.0
 40
0.0
 40
0.0
 40
0.0
 40
0.2798881851
 40
0.5420792771
 40
0.7799647155
 40
1.0
 40
1.0
 40
1.0
 40
1.0
 10
-64.6586820344
 20
-18.0676519456
 30
0.0
 10
-64.621413418
 20
-18.0687078122
 30
0.0
 10
-64.5489999575
 20
-18.0812412278
 30
0.0
 10
-64.4553887186
 20
-18.1305387931
 30
0.0
 10
-64.3904765193
 20
-18.2047662549
 30
0.0
 10
-64.3743828213
 20
-18.2665483045
 30
0.0
 10
-64.3743828213
 20
-18.2958589416
 30
0.0
  0
SPLINE
  5
393
100
AcDbEntity
  8
RACCORDO
100
AcDbSpline
 62
7
  6
CONTINUOUS
 70
0
 71
3
 72
11
 73
7
 74
0
 42
0.0000001
 43
0.0000001
 44
0.0000000001
 40
0.0
 40
0.0
 40
0.0
 40
0.0
 40
0.2200352845
 40
0.4579207229
 40
0.7201118149
 40
1.0
 40
1.0
 40
1.0
 40
1.0
 10
-64.3743828213
 20
18.2958589416
 30
0.0
 10
-64.3743828213
 20
18.2665483045
 30
0.0
 10
-64.3904765193
 20
18.2047662549
 30
0.0
 10
-64.4553887186
 20
18.1305387931
 30
0.0
 10
-64.5489999575
 20
18.0812412278
 30
0.0
 10
-64.621413418
 20
18.0687078122
 30
0.0
 10
-64.6586820344
 20
18.0676519456
 30
0.0
  0
SPLINE
  5
394
100
AcDbEntity
  8
RACCORDO
100
AcDbSpline
 62
250
  6
CONTINUOUS
 70
0
 71
3
 72
15
 73
11
 74
0
 42
0.0000001
 43
0.0000001
 44
0.0000000001
 40
0.0
 40
0.0
 40
0.0
 40
0.0
 40
0.3726026236
 40
0.5403924626
 40
0.6875418317
 40
0.8091007448
 40
0.901515413
 40
0.9363661876
 40
0.963611091
 40
1.0
 40
1.0
 40
1.0
 40
1.0
 10
-64.6691470993
 20
22.4551832058
 30
0.0
 10
-64.6311938523
 20
22.4550750041
 30
0.0
 10
-64.5761178834
 20
22.4532721359
 30
0.0
 10
-64.5063574964
 20
22.446961546
 30
0.0
 10
-64.4622703485
 20
22.4410041086
 30
0.0
 10
-64.4261938564
 20
22.4337080168
 30
0.0
 10
-64.4017757107
 20
22.4267145112
 30
0.0
 10
-64.3874380889
 20
22.4199335918
 30
0.0
 10
-64.3790338892
 20
22.4148144909
 30
0.0
 10
-64.374393143
 20
22.4088973905
 30
0.0
 10
-64.3743828213
 20
22.4051908211
 30
0.0
  0
LINE
  5
395
100
AcDbEntity
  8
RACCORDO
100
AcDbLine
 62
250
  6
CONTINUOUS
 10
-65.8734843962
 20
-17.864288679
 30
0.0
 11
-60.07089234
 21
-17.8291076857
 31
0.0
  0
SPLINE
  5
396
100
AcDbEntity
  8
RACCORDO
100
AcDbSpline
 62
250
  6
CONTINUOUS
 70
0
 71
3
 72
15
 73
11
 74
0
 42
0.0000001
 43
0.0000001
 44
0.0000000001
 40
0.0
 40
0.0
 40
0.0
 40
0.0
 40
0.0363894789
 40
0.0636335514
 40
0.0984845976
 40
0.1909037513
 40
0.3124621263
 40
0.4596103773
 40
0.6273987124
 40
1.0
 40
1.0
 40
1.0
 40
1.0
 10
-64.3743828213
 20
-22.4051908211
 30
0.0
 10
-64.3743931432
 20
-22.4088974693
 30
0.0
 10
-64.3790336115
 20
-22.4148148529
 30
0.0
 10
-64.387438355
 20
-22.4199333381
 30
0.0
 10
-64.4017761663
 20
-22.4267145713
 30
0.0
 10
-64.4261920045
 20
-22.4337176695
 30
0.0
 10
-64.4622699057
 20
-22.4410110865
 30
0.0
 10
-64.5063564412
 20
-22.4469717367
 30
0.0
 10
-64.5761184377
 20
-22.4532663929
 30
0.0
 10
-64.6311937829
 20
-22.4550728121
 30
0.0
 10
-64.6691470993
 20
-22.4551832058
 30
0.0
  0
SPLINE
  5
397
100
AcDbEntity
  8
ASSI
100
AcDbSpline
 62
250
  6
CONTINUOUS
 70
0
 71
3
 72
21
 73
17
 74
0
 42
0.0000001
 43
0.0000001
 44
0.0000000001
 40
0.0
 40
0.0
 40
0.0
 40
0.0
 40
0.2264085734
 40
0.4266712834
 40
0.5988617038
 40
0.7416512296
 40
0.8016599933
 40
0.8539229828
 40
0.8983394584
 40
0.9348087881
 40
0.9632420749
 40
0.9835971927
 40
0.9907365597
 40
0.9958465956
 40
0.9989271373
 40
1.0
 40
1.0
 40
1.0
 40
1.0
 10
-57.6865985754
 20
-21.3655459497
 30
0.0
 10
-57.6858068813
 20
-21.3916559477
 30
0.0
 10
-57.6843067181
 20
-21.440860477
 30
0.0
 10
-57.6821534477
 20
-21.5099209348
 30
0.0
 10
-57.6802272075
 20
-21.5693359577
 30
0.0
 10
-57.6787555472
 20
-21.6125758177
 30
0.0
 10
-57.6776983051
 20
-21.6419840529
 30
0.0
 10
-57.6770214559
 20
-21.6600507626
 30
0.0
 10
-57.6764122088
 20
-21.6753966927
 30
0.0
 10
-57.6758830392
 20
-21.6880097474
 30
0.0
 10
-57.6754091896
 20
-21.6978057838
 30
0.0
 10
-57.6750896321
 20
-21.7043113013
 30
0.0
 10
-57.6747981044
 20
-21.7079810526
 30
0.0
 10
-57.6747120785
 20
-21.7098814501
 30
0.0
 10
-57.6744825347
 20
-21.7106982522
 30
0.0
 10
-57.6745065845
 20
-21.711430005
 30
0.0
 10
-57.6743828213
 20
-21.7114278447
 30
0.0
  0
SPLINE
  5
398
100
AcDbEntity
  8
ASSI
100
AcDbSpline
 62
250
  6
CONTINUOUS
 70
0
 71
3
 72
21
 73
17
 74
0
 42
0.0000001
 43
0.0000001
 44
0.0000000001
 40
0.0
 40
0.0
 40
0.0
 40
0.0
 40
0.2264273154
 40
0.4267044324
 40
0.598904096
 40
0.7416973904
 40
0.8017059495
 40
0.853967354
 40
0.8983808748
 40
0.9348459154
 40
0.9632736577
 40
0.9836218735
 40
0.9907571453
 40
0.9958624664
 40
0.9989371857
 40
1.0
 40
1.0
 40
1.0
 40
1.0
 10
-57.6865985754
 20
21.3655459497
 30
0.0
 10
-57.6858180027
 20
21.3916583137
 30
0.0
 10
-57.6843224356
 20
21.4408665691
 30
0.0
 10
-57.6821515482
 20
21.5099310213
 30
0.0
 10
-57.68022165
 20
21.5693487788
 30
0.0
 10
-57.6787539951
 20
21.6125900447
 30
0.0
 10
-57.6776998954
 20
21.641998452
 30
0.0
 10
-57.6770244813
 20
21.6600646248
 30
0.0
 10
-57.6764149322
 20
21.6754093068
 30
0.0
 10
-57.6758838307
 20
21.6880211306
 30
0.0
 10
-57.6754037637
 20
21.6978139088
 30
0.0
 10
-57.675081474
 20
21.7043193657
 30
0.0
 10
-57.6747860138
 20
21.707984321
 30
0.0
 10
-57.6747050216
 20
21.7098877037
 30
0.0
 10
-57.6744703096
 20
21.710694505
 30
0.0
 10
-57.6745053687
 20
21.7114321242
 30
0.0
 10
-57.6743828213
 20
21.7114278447
 30
0.0
  0
SPLINE
  5
399
100
AcDbEntity
  8
RACCORDO
100
AcDbSpline
 62
250
  6
CONTINUOUS
 70
0
 71
3
 72
18
 73
14
 74
0
 42
0.0000001
 43
0.0000001
 44
0.0000000001
 40
0.0
 40
0.0
 40
0.0
 40
0.0
 40
0.0050584934
 40
0.0194832127
 40
0.0433122681
 40
0.0763578048
 40
0.1182774974
 40
0.1687025948
 40
0.2930152633
 40
0.4445352787
 40
0.6173648251
 40
0.8050199373
 40
1.0
 40
1.0
 40
1.0
 40
1.0
 10
-65.6287459229
 20
-22.7218949894
 30
0.0
 10
-65.6291675453
 20
-22.7219009078
 30
0.0
 10
-65.6290865061
 20
-22.7194215537
 30
0.0
 10
-65.6297229696
 20
-22.7166432495
 30
0.0
 10
-65.629817205
 20
-22.7102451255
 30
0.0
 10
-65.630141391
 20
-22.7022142168
 30
0.0
 10
-65.6303033483
 20
-22.6916871538
 30
0.0
 10
-65.6305179833
 20
-22.6736633876
 30
0.0
 10
-65.6305857385
 20
-22.6464448523
 30
0.0
 10
-65.6304558932
 20
-22.6090546089
 30
0.0
 10
-65.630100342
 20
-22.566373462
 30
0.0
 10
-65.6295317282
 20
-22.5200755607
 30
0.0
 10
-65.6290269519
 20
-22.4881837105
 30
0.0
 10
-65.6287459229
 20
-22.4719330656
 30
0.0
  0
SPLINE
  5
39A
100
AcDbEntity
  8
RACCORDO
100
AcDbSpline
 62
250
  6
CONTINUOUS
 70
0
 71
3
 72
18
 73
14
 74
0
 42
0.0000001
 43
0.0000001
 44
0.0000000001
 40
0.0
 40
0.0
 40
0.0
 40
0.0
 40
0.1948266517
 40
0.3825267474
 40
0.555286356
 40
0.7066991432
 40
0.8310400525
 40
0.8814640791
 40
0.9234311452
 40
0.9565177022
 40
0.9803830108
 40
0.9948764312
 40
1.0
 40
1.0
 40
1.0
 40
1.0
 10
-64.6691470993
 20
-22.4551832058
 30
0.0
 10
-64.6688637581
 20
-22.4714209725
 30
0.0
 10
-64.668361476
 20
-22.5033037283
 30
0.0
 10
-64.6677937227
 20
-22.5495866567
 30
0.0
 10
-64.6674360594
 20
-22.5922565378
 30
0.0
 10
-64.667308304
 20
-22.6296345927
 30
0.0
 10
-64.6673742202
 20
-22.6568455779
 30
0.0
 10
-64.6675897148
 20
-22.6748767628
 30
0.0
 10
-64.667751514
 20
-22.6854084061
 30
0.0
 10
-64.6680776379
 20
-22.6934565748
 30
0.0
 10
-64.6681684061
 20
-22.6998514281
 30
0.0
 10
-64.6688111913
 20
-22.7026687063
 30
0.0
 10
-64.6687200772
 20
-22.7051376759
 30
0.0
 10
-64.6691470994
 20
-22.7051451296
 30
0.0
  0
SPLINE
  5
39B
100
AcDbEntity
  8
RACCORDO
100
AcDbSpline
 62
250
  6
CONTINUOUS
 70
0
 71
3
 72
18
 73
14
 74
0
 42
0.0000001
 43
0.0000001
 44
0.0000000001
 40
0.0
 40
0.0
 40
0.0
 40
0.0
 40
0.1949732843
 40
0.3826229288
 40
0.5554569582
 40
0.7069793354
 40
0.8312924575
 40
0.8817173612
 40
0.9236379956
 40
0.956684609
 40
0.9805140894
 40
0.9949404924
 40
1.0
 40
1.0
 40
1.0
 40
1.0
 10
-65.6287459229
 20
22.4719330656
 30
0.0
 10
-65.6290270109
 20
22.4881831427
 30
0.0
 10
-65.629531754
 20
22.5200739696
 30
0.0
 10
-65.6301002387
 20
22.5663712204
 30
0.0
 10
-65.6304559147
 20
22.6090524766
 30
0.0
 10
-65.6305857403
 20
22.6464433252
 30
0.0
 10
-65.6305179681
 20
22.673662075
 30
0.0
 10
-65.6303033682
 20
22.6916859415
 30
0.0
 10
-65.6301414742
 20
22.7022131549
 30
0.0
 10
-65.6298172594
 20
22.7102442689
 30
0.0
 10
-65.6297230489
 20
22.7166426562
 30
0.0
 10
-65.6290862763
 20
22.7194211465
 30
0.0
 10
-65.6291676303
 20
22.7219008744
 30
0.0
 10
-65.6287459229
 20
22.7218949894
 30
0.0
  0
SPLINE
  5
39C
100
AcDbEntity
  8
RACCORDO
100
AcDbSpline
 62
250
  6
CONTINUOUS
 70
0
 71
3
 72
18
 73
14
 74
0
 42
0.0000001
 43
0.0000001
 44
0.0000000001
 40
0.0
 40
0.0
 40
0.0
 40
0.0
 40
0.0051235588
 40
0.0196169761
 40
0.0434822833
 40
0.0765688396
 40
0.1185359046
 40
0.1689599306
 40
0.2933008402
 40
0.444713628
 40
0.6174732403
 40
0.8051733437
 40
1.0
 40
1.0
 40
1.0
 40
1.0
 10
-64.6691470993
 20
22.7051451296
 30
0.0
 10
-64.668720078
 20
22.7051376759
 30
0.0
 10
-64.6688112064
 20
22.7026687032
 30
0.0
 10
-64.6681684158
 20
22.6998514301
 30
0.0
 10
-64.6680776551
 20
22.6934565748
 30
0.0
 10
-64.6677515285
 20
22.6854084075
 30
0.0
 10
-64.667589728
 20
22.6748767642
 30
0.0
 10
-64.6673742277
 20
22.6568455799
 30
0.0
 10
-64.6673083031
 20
22.6296345948
 30
0.0
 10
-64.6674360488
 20
22.5922565399
 30
0.0
 10
-64.6677937061
 20
22.5495866582
 30
0.0
 10
-64.6683614624
 20
22.503303729
 30
0.0
 10
-64.6688637527
 20
22.4714209726
 30
0.0
 10
-64.6691470994
 20
22.4551832058
 30
0.0
  0
SPLINE
  5
39D
100
AcDbEntity
  8
RACCORDO
100
AcDbSpline
 62
250
  6
CONTINUOUS
 70
0
 71
3
 72
11
 73
7
 74
0
 42
0.0000001
 43
0.0000001
 44
0.0000000001
 40
0.0
 40
0.0
 40
0.0
 40
0.0
 40
0.1206093331
 40
0.3472574042
 40
0.6525907232
 40
1.0
 40
1.0
 40
1.0
 40
1.0
 10
-50.120020224
 20
20.7219737547
 30
0.0
 10
-50.1191963124
 20
20.731836946
 30
0.0
 10
-50.1189557962
 20
20.7603677495
 30
0.0
 10
-50.1185184916
 20
20.8138962239
 30
0.0
 10
-50.1189969061
 20
20.8860723028
 30
0.0
 10
-50.1196076822
 20
20.9396317895
 30
0.0
 10
-50.120020206
 20
20.968138195
 30
0.0
  0
SPLINE
  5
39E
100
AcDbEntity
  8
RACCORDO
100
AcDbSpline
 62
250
  6
CONTINUOUS
 70
0
 71
3
 72
11
 73
7
 74
0
 42
0.0000001
 43
0.0000001
 44
0.0000000001
 40
0.0
 40
0.0
 40
0.0
 40
0.0
 40
0.1206345214
 40
0.3472466299
 40
0.652580009
 40
1.0
 40
1.0
 40
1.0
 40
1.0
 10
-56.1778733025
 20
20.8107003333
 30
0.0
 10
-56.1785403826
 20
20.8205770925
 30
0.0
 10
-56.1787148396
 20
20.8490948518
 30
0.0
 10
-56.1790802984
 20
20.9026288262
 30
0.0
 10
-56.1786855284
 20
20.9747966714
 30
0.0
 10
-56.1782092608
 20
21.0283574915
 30
0.0
 10
-56.1778733025
 20
21.0568647738
 30
0.0
  0
SPLINE
  5
39F
100
AcDbEntity
  8
RACCORDO
100
AcDbSpline
 62
250
  6
CONTINUOUS
 70
0
 71
3
 72
11
 73
7
 74
0
 42
0.0000001
 43
0.0000001
 44
0.0000000001
 40
0.0
 40
0.0
 40
0.0
 40
0.0
 40
0.3473448013
 40
0.6527107467
 40
0.8793776367
 40
1.0
 40
1.0
 40
1.0
 40
1.0
 10
-50.1200201932
 20
-20.9681381948
 30
0.0
 10
-50.1196072032
 20
-20.9396370876
 30
0.0
 10
-50.1189973636
 20
-20.8860801946
 30
0.0
 10
-50.1185186469
 20
-20.8139052129
 30
0.0
 10
-50.1189552392
 20
-20.7603713969
 30
0.0
 10
-50.1191966875
 20
-20.7318380499
 30
0.0
 10
-50.1200202313
 20
-20.7219737548
 30
0.0
  0
SPLINE
  5
3A0
100
AcDbEntity
  8
RACCORDO
100
AcDbSpline
 62
250
  6
CONTINUOUS
 70
0
 71
3
 72
11
 73
7
 74
0
 42
0.0000001
 43
0.0000001
 44
0.0000000001
 40
0.0
 40
0.0
 40
0.0
 40
0.0
 40
0.3471357599
 40
0.6524922025
 40
0.8792142633
 40
1.0
 40
1.0
 40
1.0
 40
1.0
 10
-56.1778733025
 20
-21.0568647738
 30
0.0
 10
-56.1782077252
 20
-21.0283807997
 30
0.0
 10
-56.1786854966
 20
-20.9748414611
 30
0.0
 10
-56.1790813303
 20
-20.9026859188
 30
0.0
 10
-56.1787124082
 20
-20.8491288671
 30
0.0
 10
-56.1785437346
 20
-20.8205893026
 30
0.0
 10
-56.1778733025
 20
-20.8107003333
 30
0.0
  0
SPLINE
  5
3A1
100
AcDbEntity
  8
RACCORDO
100
AcDbSpline
 62
250
  6
CONTINUOUS
 70
0
 71
3
 72
18
 73
14
 74
0
 42
0.0000001
 43
0.0000001
 44
0.0000000001
 40
0.0
 40
0.0
 40
0.0
 40
0.0
 40
0.0051235657
 40
0.0196169852
 40
0.0434822935
 40
0.0765688504
 40
0.1185359163
 40
0.1689599427
 40
0.2933008515
 40
0.4447136379
 40
0.6174732471
 40
0.8051733463
 40
1.0
 40
1.0
 40
1.0
 40
1.0
 10
-50.1200197196
 20
-21.5795659463
 30
0.0
 10
-50.1195926977
 20
-21.5795584926
 30
0.0
 10
-50.1196838162
 20
-21.577089522
 30
0.0
 10
-50.119041029
 20
-21.5742722454
 30
0.0
 10
-50.1189502627
 20
-21.5678773915
 30
0.0
 10
-50.118624137
 20
-21.5598292232
 30
0.0
 10
-50.1184623364
 20
-21.5492975799
 30
0.0
 10
-50.1182468383
 20
-21.5312663953
 30
0.0
 10
-50.1181809176
 20
-21.5040554102
 30
0.0
 10
-50.1183086686
 20
-21.4666773554
 30
0.0
 10
-50.1186663301
 20
-21.4240074741
 30
0.0
 10
-50.1192340868
 20
-21.3777245454
 30
0.0
 10
-50.1197363747
 20
-21.3458417892
 30
0.0
 10
-50.1200197196
 20
-21.3296040225
 30
0.0
  0
SPLINE
  5
3A2
100
AcDbEntity
  8
RACCORDO
100
AcDbSpline
 62
250
  6
CONTINUOUS
 70
0
 71
3
 72
18
 73
14
 74
0
 42
0.0000001
 43
0.0000001
 44
0.0000000001
 40
0.0
 40
0.0
 40
0.0
 40
0.0
 40
0.1948267881
 40
0.3825270192
 40
0.555286752
 40
0.7066996456
 40
0.8310406306
 40
0.8814646781
 40
0.9234317494
 40
0.9565182899
 40
0.980383548
 40
0.9948768486
 40
1.0
 40
1.0
 40
1.0
 40
1.0
 10
-56.1778732993
 20
-21.4353442501
 30
0.0
 10
-56.1775901955
 20
-21.4515820213
 30
0.0
 10
-56.1770883214
 20
-21.4834647845
 30
0.0
 10
-56.1765210158
 20
-21.5297477197
 30
0.0
 10
-56.1761636274
 20
-21.5724176052
 30
0.0
 10
-56.1760359695
 20
-21.6097956585
 30
0.0
 10
-56.1761018039
 20
-21.6370066469
 30
0.0
 10
-56.1763171491
 20
-21.6550378215
 30
0.0
 10
-56.1764787549
 20
-21.665569479
 30
0.0
 10
-56.1768047857
 20
-21.6736175958
 30
0.0
 10
-56.1768951115
 20
-21.6800125444
 30
0.0
 10
-56.1775380586
 20
-21.6828296108
 30
0.0
 10
-56.1774463154
 20
-21.6852987208
 30
0.0
 10
-56.1778733025
 20
-21.6853061739
 30
0.0
  0
SPLINE
  5
3A3
100
AcDbEntity
  8
RACCORDO
100
AcDbSpline
 62
250
  6
CONTINUOUS
 70
0
 71
3
 72
18
 73
14
 74
0
 42
0.0000001
 43
0.0000001
 44
0.0000000001
 40
0.0
 40
0.0
 40
0.0
 40
0.0
 40
0.1948266538
 40
0.3825267536
 40
0.5552863637
 40
0.7066991502
 40
0.8310400585
 40
0.8814640846
 40
0.92343115
 40
0.9565177066
 40
0.9803830148
 40
0.9948764343
 40
1.0
 40
1.0
 40
1.0
 40
1.0
 10
-50.1200197196
 20
21.3296040225
 30
0.0
 10
-50.1197363747
 20
21.3458417893
 30
0.0
 10
-50.1192340868
 20
21.3777245454
 30
0.0
 10
-50.1186663301
 20
21.4240074743
 30
0.0
 10
-50.1183086686
 20
21.4666773557
 30
0.0
 10
-50.1181809176
 20
21.5040554106
 30
0.0
 10
-50.1182468383
 20
21.5312663956
 30
0.0
 10
-50.1184623364
 20
21.5492975801
 30
0.0
 10
-50.118624137
 20
21.5598292234
 30
0.0
 10
-50.1189502627
 20
21.5678773916
 30
0.0
 10
-50.119041029
 20
21.5742722454
 30
0.0
 10
-50.1196838162
 20
21.577089522
 30
0.0
 10
-50.1195926977
 20
21.5795584926
 30
0.0
 10
-50.1200197196
 20
21.5795659463
 30
0.0
  0
SPLINE
  5
3A4
100
AcDbEntity
  8
RACCORDO
100
AcDbSpline
 62
250
  6
CONTINUOUS
 70
0
 71
3
 72
18
 73
14
 74
0
 42
0.0000001
 43
0.0000001
 44
0.0000000001
 40
0.0
 40
0.0
 40
0.0
 40
0.0
 40
0.1948267881
 40
0.3825270192
 40
0.555286752
 40
0.7066996456
 40
0.8310406306
 40
0.8814646781
 40
0.9234317494
 40
0.9565182899
 40
0.980383548
 40
0.9948768486
 40
1.0
 40
1.0
 40
1.0
 40
1.0
 10
-56.1778732993
 20
21.4353442501
 30
0.0
 10
-56.1775901955
 20
21.4515820213
 30
0.0
 10
-56.1770883214
 20
21.4834647845
 30
0.0
 10
-56.1765210158
 20
21.5297477197
 30
0.0
 10
-56.1761636274
 20
21.5724176052
 30
0.0
 10
-56.1760359695
 20
21.6097956585
 30
0.0
 10
-56.176101804
 20
21.6370066469
 30
0.0
 10
-56.1763171491
 20
21.6550378215
 30
0.0
 10
-56.1764787549
 20
21.665569479
 30
0.0
 10
-56.1768047857
 20
21.6736175958
 30
0.0
 10
-56.1768951115
 20
21.6800125444
 30
0.0
 10
-56.1775380586
 20
21.6828296108
 30
0.0
 10
-56.1774463154
 20
21.6852987208
 30
0.0
 10
-56.1778733025
 20
21.6853061739
 30
0.0
  0
SPLINE
  5
3A5
100
AcDbEntity
  8
RACCORDO
100
AcDbSpline
 62
250
  6
CONTINUOUS
 70
0
 71
3
 72
11
 73
7
 74
0
 42
0.0000001
 43
0.0000001
 44
0.0000000001
 40
0.0
 40
0.0
 40
0.0
 40
0.0
 40
0.3472404089
 40
0.6525964413
 40
0.8792725235
 40
1.0
 40
1.0
 40
1.0
 40
1.0
 10
-50.1200197196
 20
20.3899579891
 30
0.0
 10
-50.1196025307
 20
20.4184504601
 30
0.0
 10
-50.1190029568
 20
20.4719979693
 30
0.0
 10
-50.1185123469
 20
20.5441646342
 30
0.0
 10
-50.1189651564
 20
20.5977061328
 30
0.0
 10
-50.1191884882
 20
20.6262501255
 30
0.0
 10
-50.1200197196
 20
20.6361224296
 30
0.0
  0
SPLINE
  5
3A6
100
AcDbEntity
  8
RACCORDO
100
AcDbSpline
 62
250
  6
CONTINUOUS
 70
0
 71
3
 72
11
 73
7
 74
0
 42
0.0000001
 43
0.0000001
 44
0.0000000001
 40
0.0
 40
0.0
 40
0.0
 40
0.0
 40
0.3473448355
 40
0.6526875541
 40
0.87936484
 40
1.0
 40
1.0
 40
1.0
 40
1.0
 10
-56.1778730042
 20
20.4786845707
 30
0.0
 10
-56.1782039773
 20
20.5071857473
 30
0.0
 10
-56.178690344
 20
20.5607411523
 30
0.0
 10
-56.1790751687
 20
20.6329087215
 30
0.0
 10
-56.1787231526
 20
20.686449486
 30
0.0
 10
-56.1785335182
 20
20.7149717589
 30
0.0
 10
-56.1778729665
 20
20.7248490106
 30
0.0
  0
SPLINE
  5
3A7
100
AcDbEntity
  8
RACCORDO
100
AcDbSpline
 62
250
  6
CONTINUOUS
 70
0
 71
3
 72
11
 73
7
 74
0
 42
0.0000001
 43
0.0000001
 44
0.0000000001
 40
0.0
 40
0.0
 40
0.0
 40
0.0
 40
0.1207274746
 40
0.3474035534
 40
0.6527595877
 40
1.0
 40
1.0
 40
1.0
 40
1.0
 10
-50.1200197196
 20
-20.6361224296
 30
0.0
 10
-50.1191884882
 20
-20.6262501256
 30
0.0
 10
-50.1189651564
 20
-20.5977061334
 30
0.0
 10
-50.1185123469
 20
-20.544164635
 30
0.0
 10
-50.1190029568
 20
-20.47199797
 30
0.0
 10
-50.1196025307
 20
-20.4184504604
 30
0.0
 10
-50.1200197196
 20
-20.3899579891
 30
0.0
  0
SPLINE
  5
3A8
100
AcDbEntity
  8
RACCORDO
100
AcDbSpline
 62
250
  6
CONTINUOUS
 70
0
 71
3
 72
11
 73
7
 74
0
 42
0.0000001
 43
0.0000001
 44
0.0000000001
 40
0.0
 40
0.0
 40
0.0
 40
0.0
 40
0.1205930708
 40
0.3472168015
 40
0.6525737555
 40
1.0
 40
1.0
 40
1.0
 40
1.0
 10
-56.1778730042
 20
-20.7248490112
 30
0.0
 10
-56.1785338306
 20
-20.7149752394
 30
0.0
 10
-56.1787225266
 20
-20.6864607602
 30
0.0
 10
-56.1790754123
 20
-20.6329267183
 30
0.0
 10
-56.1786905756
 20
-20.5607556723
 30
0.0
 10
-56.1782037788
 20
-20.5071924295
 30
0.0
 10
-56.1778729666
 20
-20.4786845701
 30
0.0
  0
SPLINE
  5
3A9
100
AcDbEntity
  8
RACCORDO
100
AcDbSpline
 62
250
  6
CONTINUOUS
 70
0
 71
3
 72
18
 73
14
 74
0
 42
0.0000001
 43
0.0000001
 44
0.0000000001
 40
0.0
 40
0.0
 40
0.0
 40
0.0
 40
0.1953122369
 40
0.3832237806
 40
0.5560089112
 40
0.7073197249
 40
0.8314941979
 40
0.8818300302
 40
0.9237131641
 40
0.9567243748
 40
0.9805250903
 40
0.9949613757
 40
1.0
 40
1.0
 40
1.0
 40
1.0
 10
-50.3412989949
 20
20.1663625209
 30
0.0
 10
-50.3329897611
 20
20.1525294202
 30
0.0
 10
-50.3167251759
 20
20.1253636507
 30
0.0
 10
-50.2932458129
 20
20.0858803475
 30
0.0
 10
-50.2717432576
 20
20.0494468369
 30
0.0
 10
-50.2530609501
 20
20.0174779795
 30
0.0
 10
-50.2395807277
 20
19.9941508979
 30
0.0
 10
-50.230786097
 20
19.9786250211
 30
0.0
 10
-50.2256636612
 20
19.9695483197
 30
0.0
 10
-50.2219369974
 20
19.9625174934
 30
0.0
 10
-50.2187627713
 20
19.9570276101
 30
0.0
 10
-50.2179578612
 20
19.9543169414
 30
0.0
 10
-50.2165457432
 20
19.9522851036
 30
0.0
 10
-50.2169025778
 20
19.9520706958
 30
0.0
  0
SPLINE
  5
3AA
100
AcDbEntity
  8
RACCORDO
100
AcDbSpline
 62
250
  6
CONTINUOUS
 70
0
 71
3
 72
18
 73
14
 74
0
 42
0.0000001
 43
0.0000001
 44
0.0000000001
 40
0.0
 40
0.0
 40
0.0
 40
0.0
 40
0.195319624
 40
0.3832425576
 40
0.5560247619
 40
0.7073314299
 40
0.8315044323
 40
0.8818382104
 40
0.9237184759
 40
0.9567280406
 40
0.980527333
 40
0.9949620751
 40
1.0
 40
1.0
 40
1.0
 40
1.0
 10
-50.1200197196
 20
20.2993205233
 30
0.0
 10
-50.1117101713
 20
20.2854868989
 30
0.0
 10
-50.0954448073
 20
20.2583197864
 30
0.0
 10
-50.0719647557
 20
20.2188353675
 30
0.0
 10
-50.0504620399
 20
20.1824015359
 30
0.0
 10
-50.0317801068
 20
20.1504332757
 30
0.0
 10
-50.0183002134
 20
20.1271067354
 30
0.0
 10
-50.0095058512
 20
20.1115813115
 30
0.0
 10
-50.0043837102
 20
20.1025050726
 30
0.0
 10
-50.0006572566
 20
20.0954746768
 30
0.0
 10
-49.9974832652
 20
20.0899851366
 30
0.0
 10
-49.9966783615
 20
20.0872747035
 30
0.0
 10
-49.9952665174
 20
20.0852430762
 30
0.0
 10
-49.9956233025
 20
20.0850286981
 30
0.0
  0
SPLINE
  5
3AB
100
AcDbEntity
  8
RACCORDO
100
AcDbSpline
 62
250
  6
CONTINUOUS
 70
0
 71
3
 72
11
 73
7
 74
0
 42
0.0000001
 43
0.0000001
 44
0.0000000001
 40
0.0
 40
0.0
 40
0.0
 40
0.0
 40
0.2517838676
 40
0.502475084
 40
0.7517174496
 40
1.0
 40
1.0
 40
1.0
 40
1.0
 10
-50.1200197196
 20
20.6361224296
 30
0.0
 10
-50.0878852809
 20
20.6355700423
 30
0.0
 10
-50.0232924765
 20
20.6220061034
 30
0.0
 10
-49.9417831292
 20
20.5670871368
 30
0.0
 10
-49.8871635427
 20
20.48585584
 30
0.0
 10
-49.8743828213
 20
20.4216502464
 30
0.0
 10
-49.8743828213
 20
20.3899579891
 30
0.0
  0
SPLINE
  5
3AC
100
AcDbEntity
  8
RACCORDO
100
AcDbSpline
 62
250
  6
CONTINUOUS
 70
0
 71
3
 72
11
 73
7
 74
0
 42
0.0000001
 43
0.0000001
 44
0.0000000001
 40
0.0
 40
0.0
 40
0.0
 40
0.0
 40
0.2517644171
 40
0.5024827054
 40
0.7517518207
 40
1.0
 40
1.0
 40
1.0
 40
1.0
 10
-50.1200197196
 20
20.7219737473
 30
0.0
 10
-50.0878875112
 20
20.7214213984
 30
0.0
 10
-50.0232976732
 20
20.7078512181
 30
0.0
 10
-49.9417656355
 20
20.6529516654
 30
0.0
 10
-49.8871689538
 20
20.5716979623
 30
0.0
 10
-49.8743828213
 20
20.5074974253
 30
0.0
 10
-49.8743828213
 20
20.4758093068
 30
0.0
  0
SPLINE
  5
3AD
100
AcDbEntity
  8
RACCORDO
100
AcDbSpline
 62
250
  6
CONTINUOUS
 70
0
 71
3
 72
18
 73
14
 74
0
 42
0.0000001
 43
0.0000001
 44
0.0000000001
 40
0.0
 40
0.0
 40
0.0
 40
0.0
 40
0.1953082118
 40
0.3832135565
 40
0.556000644
 40
0.7073155603
 40
0.8314931714
 40
0.8818297275
 40
0.9237133189
 40
0.956724797
 40
0.9805254617
 40
0.9949615117
 40
1.0
 40
1.0
 40
1.0
 40
1.0
 10
-50.3412989949
 20
-20.1663625209
 30
0.0
 10
-50.3329899323
 20
-20.1525297052
 30
0.0
 10
-50.3167257713
 20
-20.125364666
 30
0.0
 10
-50.2932467667
 20
-20.0858819441
 30
0.0
 10
-50.2717442034
 20
-20.0494484514
 30
0.0
 10
-50.2530615106
 20
-20.0174789391
 30
0.0
 10
-50.2395809507
 20
-19.9941512914
 30
0.0
 10
-50.2307861452
 20
-19.9786251044
 30
0.0
 10
-50.2256636511
 20
-19.9695482969
 30
0.0
 10
-50.2219369582
 20
-19.9625174257
 30
0.0
 10
-50.2187627374
 20
-19.9570275414
 30
0.0
 10
-50.2179578218
 20
-19.954316901
 30
0.0
 10
-50.2165457528
 20
-19.9522850979
 30
0.0
 10
-50.2169025778
 20
-19.9520706958
 30
0.0
  0
SPLINE
  5
3AE
100
AcDbEntity
  8
RACCORDO
100
AcDbSpline
 62
250
  6
CONTINUOUS
 70
0
 71
3
 72
18
 73
14
 74
0
 42
0.0000001
 43
0.0000001
 44
0.0000000001
 40
0.0
 40
0.0
 40
0.0
 40
0.0
 40
0.1953184485
 40
0.383239164
 40
0.5560209102
 40
0.7073270148
 40
0.8314991328
 40
0.8818337691
 40
0.923715538
 40
0.9567260154
 40
0.9805260961
 40
0.9949616897
 40
1.0
 40
1.0
 40
1.0
 40
1.0
 10
-50.1200197196
 20
-20.2993205233
 30
0.0
 10
-50.1117102214
 20
-20.2854869824
 30
0.0
 10
-50.0954449986
 20
-20.2583201127
 30
0.0
 10
-50.0719651128
 20
-20.2188359664
 30
0.0
 10
-50.0504625311
 20
-20.1824023673
 30
0.0
 10
-50.0317806682
 20
-20.1504342491
 30
0.0
 10
-50.0183007968
 20
-20.127107753
 30
0.0
 10
-50.0095063702
 20
-20.1115822261
 30
0.0
 10
-50.004384081
 20
-20.1025057573
 30
0.0
 10
-50.0006575137
 20
-20.0954751294
 30
0.0
 10
-49.9974833924
 20
-20.0899853993
 30
0.0
 10
-49.9966784851
 20
-20.087274836
 30
0.0
 10
-49.9952664901
 20
-20.0852430926
 30
0.0
 10
-49.9956233025
 20
-20.0850286981
 30
0.0
  0
SPLINE
  5
3AF
100
AcDbEntity
  8
RACCORDO
100
AcDbSpline
 62
250
  6
CONTINUOUS
 70
0
 71
3
 72
11
 73
7
 74
0
 42
0.0000001
 43
0.0000001
 44
0.0000000001
 40
0.0
 40
0.0
 40
0.0
 40
0.0
 40
0.251773737
 40
0.5024663874
 40
0.7517131203
 40
1.0
 40
1.0
 40
1.0
 40
1.0
 10
-50.1200197196
 20
-20.6361224296
 30
0.0
 10
-50.087886581
 20
-20.6355700647
 30
0.0
 10
-50.0232948445
 20
-20.6220070426
 30
0.0
 10
-49.9417856954
 20
-20.5670889473
 30
0.0
 10
-49.8871636009
 20
-20.4858576963
 30
0.0
 10
-49.8743828213
 20
-20.4216507919
 30
0.0
 10
-49.8743828213
 20
-20.3899579891
 30
0.0
  0
SPLINE
  5
3B0
100
AcDbEntity
  8
RACCORDO
100
AcDbSpline
 62
250
  6
CONTINUOUS
 70
0
 71
3
 72
11
 73
7
 74
0
 42
0.0000001
 43
0.0000001
 44
0.0000000001
 40
0.0
 40
0.0
 40
0.0
 40
0.0
 40
0.2517644127
 40
0.5024826975
 40
0.7517518153
 40
1.0
 40
1.0
 40
1.0
 40
1.0
 10
-50.1200197196
 20
-20.7219737473
 30
0.0
 10
-50.0878875118
 20
-20.7214213984
 30
0.0
 10
-50.0232976748
 20
-20.7078512187
 30
0.0
 10
-49.9417656372
 20
-20.652951667
 30
0.0
 10
-49.8871689544
 20
-20.571697964
 30
0.0
 10
-49.8743828213
 20
-20.507497426
 30
0.0
 10
-49.8743828213
 20
-20.4758093068
 30
0.0
  0
SPLINE
  5
3B1
100
AcDbEntity
  8
ASSI
100
AcDbSpline
 62
250
  6
CONTINUOUS
 70
0
 71
3
 72
12
 73
8
 74
0
 42
0.0000001
 43
0.0000001
 44
0.0000000001
 40
0.0
 40
0.0
 40
0.0
 40
0.0
 40
0.3666630578
 40
0.671830079
 40
0.7909363447
 40
0.8845696721
 40
1.0
 40
1.0
 40
1.0
 40
1.0
 10
-51.3114191851
 20
-22.4594131032
 30
0.0
 10
-51.3064550599
 20
-22.4811840454
 30
0.0
 10
-51.2990670424
 20
-22.5215281957
 30
0.0
 10
-51.2949506304
 20
-22.5695041244
 30
0.0
 10
-51.2969234669
 20
-22.6013684803
 30
0.0
 10
-51.3003053617
 20
-22.6203499296
 30
0.0
 10
-51.3075333544
 20
-22.634011528
 30
0.0
 10
-51.3143235121
 20
-22.6358309453
 30
0.0
  0
SPLINE
  5
3B2
100
AcDbEntity
  8
ASSI
100
AcDbSpline
 62
250
  6
CONTINUOUS
 70
0
 71
3
 72
18
 73
14
 74
0
 42
0.0000001
 43
0.0000001
 44
0.0000000001
 40
0.0
 40
0.0
 40
0.0
 40
0.0
 40
0.1992662501
 40
0.3891206298
 40
0.5620183875
 40
0.7122320435
 40
0.8347354786
 40
0.8843185054
 40
0.9254906369
 40
0.9578309971
 40
0.9811300514
 40
0.995232753
 40
1.0
 40
1.0
 40
1.0
 40
1.0
 10
-51.4393633218
 20
-22.4806437906
 30
0.0
 10
-51.4362238222
 20
-22.4923367422
 30
0.0
 10
-51.4300810813
 20
-22.5151673211
 30
0.0
 10
-51.4211720142
 20
-22.5481311595
 30
0.0
 10
-51.4130029867
 20
-22.5782110569
 30
0.0
 10
-51.4058600605
 20
-22.6043190054
 30
0.0
 10
-51.4006645266
 20
-22.6232182505
 30
0.0
 10
-51.397171533
 20
-22.6356663849
 30
0.0
 10
-51.3951751598
 20
-22.6429376793
 30
0.0
 10
-51.3934808281
 20
-22.6484051153
 30
0.0
 10
-51.3924721031
 20
-22.6529037365
 30
0.0
 10
-51.3914032012
 20
-22.6545891674
 30
0.0
 10
-51.3913697746
 20
-22.6564754291
 30
0.0
 10
-51.3910899941
 20
-22.6564004621
 30
0.0
  0
SPLINE
  5
3B3
100
AcDbEntity
  8
ASSI
100
AcDbSpline
 62
250
  6
CONTINUOUS
 70
0
 71
3
 72
18
 73
14
 74
0
 42
0.0000001
 43
0.0000001
 44
0.0000000001
 40
0.0
 40
0.0
 40
0.0
 40
0.0
 40
0.1992662501
 40
0.3891206298
 40
0.5620183875
 40
0.7122320436
 40
0.8347354786
 40
0.8843185054
 40
0.9254906369
 40
0.9578309971
 40
0.9811300514
 40
0.995232753
 40
1.0
 40
1.0
 40
1.0
 40
1.0
 10
-53.5911236828
 20
-23.0572062416
 30
0.0
 10
-53.5879841832
 20
-23.0688991933
 30
0.0
 10
-53.5818414422
 20
-23.0917297721
 30
0.0
 10
-53.5729323751
 20
-23.1246936105
 30
0.0
 10
-53.5647633476
 20
-23.154773508
 30
0.0
 10
-53.5576204215
 20
-23.1808814565
 30
0.0
 10
-53.5524248875
 20
-23.1997807016
 30
0.0
 10
-53.548931894
 20
-23.2122288359
 30
0.0
 10
-53.5469355208
 20
-23.2195001303
 30
0.0
 10
-53.545241189
 20
-23.2249675663
 30
0.0
 10
-53.5442324641
 20
-23.2294661875
 30
0.0
 10
-53.5431635621
 20
-23.2311516184
 30
0.0
 10
-53.5431301355
 20
-23.2330378801
 30
0.0
 10
-53.5428503551
 20
-23.2329629131
 30
0.0
  0
SPLINE
  5
3B4
100
AcDbEntity
  8
ASSI
100
AcDbSpline
 62
250
  6
CONTINUOUS
 70
0
 71
3
 72
18
 73
14
 74
0
 42
0.0000001
 43
0.0000001
 44
0.0000000001
 40
0.0
 40
0.0
 40
0.0
 40
0.0
 40
0.1990721614
 40
0.3887870714
 40
0.5615927834
 40
0.7117558049
 40
0.8342459892
 40
0.8838366715
 40
0.9250271309
 40
0.9573993765
 40
0.9807509995
 40
0.9949487531
 40
1.0
 40
1.0
 40
1.0
 40
1.0
 10
-53.6687693963
 20
-23.0674284937
 30
0.0
 10
-53.6687879746
 20
-23.0795514645
 30
0.0
 10
-53.6688627265
 20
-23.1032276921
 30
0.0
 10
-53.6690867809
 20
-23.1374259327
 30
0.0
 10
-53.6694145496
 20
-23.1686475287
 30
0.0
 10
-53.6698353232
 20
-23.1957654256
 30
0.0
 10
-53.6702615049
 20
-23.2154000623
 30
0.0
 10
-53.6706694709
 20
-23.2283575118
 30
0.0
 10
-53.670938114
 20
-23.2359040978
 30
0.0
 10
-53.6712865159
 20
-23.2416615886
 30
0.0
 10
-53.6714614558
 20
-23.2462243196
 30
0.0
 10
-53.6719513623
 20
-23.2482420568
 30
0.0
 10
-53.6719522696
 20
-23.25
 30
0.0
 10
-53.6722598776
 20
-23.25
 30
0.0
  0
SPLINE
  5
3B5
100
AcDbEntity
  8
ASSI
100
AcDbSpline
 62
250
  6
CONTINUOUS
 70
0
 71
3
 72
18
 73
14
 74
0
 42
0.0000001
 43
0.0000001
 44
0.0000000001
 40
0.0
 40
0.0
 40
0.0
 40
0.0
 40
0.19929383
 40
0.3888270136
 40
0.5615399579
 40
0.7117246112
 40
0.8343150327
 40
0.8838574028
 40
0.9250162663
 40
0.9574219393
 40
0.9807782371
 40
0.9949589109
 40
1.0
 40
1.0
 40
1.0
 40
1.0
 10
-54.7349642556
 20
-23.0674284937
 30
0.0
 10
-54.7349828548
 20
-23.0795649849
 30
0.0
 10
-54.735057204
 20
-23.1032436885
 30
0.0
 10
-54.7352819565
 20
-23.1374387678
 30
0.0
 10
-54.7356090167
 20
-23.1686450241
 30
0.0
 10
-54.7360306597
 20
-23.1957647313
 30
0.0
 10
-54.7364561376
 20
-23.2154038919
 30
0.0
 10
-54.7368644174
 20
-23.2283626293
 30
0.0
 10
-54.7371334186
 20
-23.2359063001
 30
0.0
 10
-54.7374804453
 20
-23.2416642665
 30
0.0
 10
-54.7376560142
 20
-23.2462281199
 30
0.0
 10
-54.738144168
 20
-23.248245631
 30
0.0
 10
-54.7381477479
 20
-23.25
 30
0.0
 10
-54.7384547378
 20
-23.25
 30
0.0
  0
SPLINE
  5
3B6
100
AcDbEntity
  8
ASSI
100
AcDbSpline
 62
250
  6
CONTINUOUS
 70
0
 71
3
 72
11
 73
7
 74
0
 42
0.0000001
 43
0.0000001
 44
0.0000000001
 40
0.0
 40
0.0
 40
0.0
 40
0.0
 40
0.2618102801
 40
0.5168144779
 40
0.761982522
 40
1.0
 40
1.0
 40
1.0
 40
1.0
 10
-55.8253650872
 20
-23.05
 30
0.0
 10
-55.8253650868
 20
-23.0759225995
 30
0.0
 10
-55.8162851441
 20
-23.1275774259
 30
0.0
 10
-55.7768491931
 20
-23.193899872
 30
0.0
 10
-55.7169728081
 20
-23.2391800773
 30
0.0
 10
-55.6685389868
 20
-23.25
 30
0.0
 10
-55.644972182
 20
-23.25
 30
0.0
  0
SPLINE
  5
3B7
100
AcDbEntity
  8
ASSI
100
AcDbSpline
 62
250
  6
CONTINUOUS
 70
0
 71
3
 72
11
 73
7
 74
0
 42
0.0000001
 43
0.0000001
 44
0.0000000001
 40
0.0
 40
0.0
 40
0.0
 40
0.0
 40
0.2600007742
 40
0.5142106175
 40
0.7601059403
 40
1.0
 40
1.0
 40
1.0
 40
1.0
 10
-54.9161136519
 20
-23.05
 30
0.0
 10
-54.9161136519
 20
-23.0759357644
 30
0.0
 10
-54.9253836819
 20
-23.1277268488
 30
0.0
 10
-54.9655730418
 20
-23.1940820407
 30
0.0
 10
-55.0264413877
 20
-23.2392506088
 30
0.0
 10
-55.0754912548
 20
-23.25
 30
0.0
 10
-55.0994213213
 20
-23.25
 30
0.0
  0
SPLINE
  5
3B8
100
AcDbEntity
  8
ASSI
100
AcDbSpline
 62
250
  6
CONTINUOUS
 70
0
 71
3
 72
9
 73
5
 74
0
 42
0.0000001
 43
0.0000001
 44
0.0000000001
 40
0.0
 40
0.0
 40
0.0
 40
0.0
 40
0.749430812
 40
1.0
 40
1.0
 40
1.0
 40
1.0
 10
-58.4137725111
 20
-23.2754742417
 30
0.0
 10
-58.3784528646
 20
-23.2524864002
 30
0.0
 10
-58.3333542048
 20
-23.2179123794
 30
0.0
 10
-58.2955039002
 20
-23.176194586
 30
0.0
 10
-58.2866487645
 20
-23.1652350432
 30
0.0
  0
SPLINE
  5
3B9
100
AcDbEntity
  8
ASSI
100
AcDbSpline
 62
250
  6
CONTINUOUS
 70
0
 71
3
 72
18
 73
14
 74
0
 42
0.0000001
 43
0.0000001
 44
0.0000000001
 40
0.0
 40
0.0
 40
0.0
 40
0.0
 40
0.0050512442
 40
0.0192489908
 40
0.042600606
 40
0.0749728461
 40
0.1161632973
 40
0.1657539652
 40
0.2882441245
 40
0.4384071338
 40
0.6112128656
 40
0.8009278203
 40
1.0
 40
1.0
 40
1.0
 40
1.0
 10
-57.7218408273
 20
-23.25
 30
0.0
 10
-57.7215332195
 20
-23.25
 30
0.0
 10
-57.7215323115
 20
-23.2482420579
 30
0.0
 10
-57.7210424055
 20
-23.2462243214
 30
0.0
 10
-57.7208674654
 20
-23.2416615917
 30
0.0
 10
-57.7205190637
 20
-23.2359041022
 30
0.0
 10
-57.7202504207
 20
-23.2283575179
 30
0.0
 10
-57.7198424548
 20
-23.2154000714
 30
0.0
 10
-57.7194162732
 20
-23.1957654378
 30
0.0
 10
-57.7189954995
 20
-23.168647542
 30
0.0
 10
-57.7186677308
 20
-23.1374259428
 30
0.0
 10
-57.7184436763
 20
-23.1032276971
 30
0.0
 10
-57.7183689243
 20
-23.0795514657
 30
0.0
 10
-57.718350346
 20
-23.0674284938
 30
0.0
  0
SPLINE
  5
3BA
100
AcDbEntity
  8
ASSI
100
AcDbSpline
 62
250
  6
CONTINUOUS
 70
0
 71
3
 72
17
 73
13
 74
0
 42
0.0000001
 43
0.0000001
 44
0.0000000001
 40
0.0
 40
0.0
 40
0.0
 40
0.0
 40
0.2113899392
 40
0.4057005569
 40
0.5781094932
 40
0.7248621814
 40
0.8426901124
 40
0.9288645583
 40
0.9594728203
 40
0.9815129769
 40
0.9949418139
 40
1.0
 40
1.0
 40
1.0
 40
1.0
 10
-58.4137725705
 20
-23.2754740934
 30
0.0
 10
-58.4098656675
 20
-23.2836796994
 30
0.0
 10
-58.4023399958
 20
-23.299414459
 30
0.0
 10
-58.3915237549
 20
-23.3217937103
 30
0.0
 10
-58.3818185668
 20
-23.3416166684
 30
0.0
 10
-58.3734450816
 20
-23.3584494138
 30
0.0
 10
-58.3666101136
 20
-23.3718530576
 30
0.0
 10
-58.3618834869
 20
-23.3808471992
 30
0.0
 10
-58.3589953953
 20
-23.3859571502
 30
0.0
 10
-58.3574844883
 20
-23.3885565291
 30
0.0
 10
-58.3566033517
 20
-23.3897094058
 30
0.0
 10
-58.3559653102
 20
-23.3906302242
 30
0.0
 10
-58.3557682199
 20
-23.3905383194
 30
0.0
  0
SPLINE
  5
3BB
100
AcDbEntity
  8
ASSI
100
AcDbSpline
 62
250
  6
CONTINUOUS
 70
0
 71
3
 72
18
 73
14
 74
0
 42
0.0000001
 43
0.0000001
 44
0.0000000001
 40
0.0
 40
0.0
 40
0.0
 40
0.0
 40
0.1992938307
 40
0.3888270152
 40
0.5615399596
 40
0.7117246128
 40
0.8343150344
 40
0.8838574045
 40
0.9250162679
 40
0.9574219408
 40
0.9807782384
 40
0.9949589119
 40
1.0
 40
1.0
 40
1.0
 40
1.0
 10
-56.0106876706
 20
-23.0674284937
 30
0.0
 10
-56.0107062696
 20
-23.0795649849
 30
0.0
 10
-56.0107806184
 20
-23.1032436886
 30
0.0
 10
-56.0110053705
 20
-23.1374387679
 30
0.0
 10
-56.0113324306
 20
-23.1686450243
 30
0.0
 10
-56.0117540736
 20
-23.1957647314
 30
0.0
 10
-56.0121795515
 20
-23.215403892
 30
0.0
 10
-56.0125878311
 20
-23.2283626294
 30
0.0
 10
-56.0128568322
 20
-23.2359063002
 30
0.0
 10
-56.0132038588
 20
-23.2416642665
 30
0.0
 10
-56.013379427
 20
-23.24622812
 30
0.0
 10
-56.0138675812
 20
-23.2482456308
 30
0.0
 10
-56.0138711601
 20
-23.25
 30
0.0
 10
-56.01417815
 20
-23.25
 30
0.0
  0
SPLINE
  5
3BC
100
AcDbEntity
  8
ASSI
100
AcDbSpline
 62
250
  6
CONTINUOUS
 70
0
 71
3
 72
18
 73
14
 74
0
 42
0.0000001
 43
0.0000001
 44
0.0000000001
 40
0.0
 40
0.0
 40
0.0
 40
0.0
 40
0.1992968411
 40
0.3888364378
 40
0.5615511428
 40
0.7117364459
 40
0.8343282229
 40
0.8838686673
 40
0.9250242341
 40
0.957428127
 40
0.980782281
 40
0.994960205
 40
1.0
 40
1.0
 40
1.0
 40
1.0
 10
-65.2243577376
 20
-24.3674284937
 30
0.0
 10
-65.2243763368
 20
-24.3795651692
 30
0.0
 10
-65.2244506949
 20
-24.4032444486
 30
0.0
 10
-65.2246754456
 20
-24.4374402118
 30
0.0
 10
-65.2250025202
 20
-24.468647008
 30
0.0
 10
-65.2254241858
 20
-24.4957669464
 30
0.0
 10
-65.2258496767
 20
-24.5154061131
 30
0.0
 10
-65.2262579651
 20
-24.5283646168
 30
0.0
 10
-65.2265269922
 20
-24.5359078554
 30
0.0
 10
-65.2268739616
 20
-24.5416653973
 30
0.0
 10
-65.2270495621
 20
-24.5462288004
 30
0.0
 10
-65.2275375561
 20
-24.5482460714
 30
0.0
 10
-65.2275413077
 20
-24.55
 30
0.0
 10
-65.2278482189
 20
-24.55
 30
0.0
  0
SPLINE
  5
3BD
100
AcDbEntity
  8
ASSI
100
AcDbSpline
 62
250
  6
CONTINUOUS
 70
0
 71
3
 72
14
 73
10
 74
0
 42
0.0000001
 43
0.0000001
 44
0.0000000001
 40
0.0
 40
0.0
 40
0.0
 40
0.0
 40
0.3819067009
 40
0.5532122804
 40
0.7029937784
 40
0.8259702774
 40
0.9177436731
 40
0.9755229377
 40
1.0
 40
1.0
 40
1.0
 40
1.0
 10
-65.2243577376
 20
-24.3674284937
 30
0.0
 10
-65.2004776809
 20
-24.3737467268
 30
0.0
 10
-65.1657346697
 20
-24.3824144662
 30
0.0
 10
-65.121377962
 20
-24.3922287243
 30
0.0
 10
-65.0930964113
 20
-24.3978055344
 30
0.0
 10
-65.0701237366
 20
-24.4017002384
 30
0.0
 10
-65.0519244179
 20
-24.4038100948
 30
0.0
 10
-65.0419617817
 20
-24.4042188214
 30
0.0
 10
-65.0350728104
 20
-24.4032930424
 30
0.0
 10
-65.0346630536
 20
-24.401763809
 30
0.0
  0
SPLINE
  5
3BE
100
AcDbEntity
  8
ASSI
100
AcDbSpline
 62
250
  6
CONTINUOUS
 70
0
 71
3
 72
14
 73
10
 74
0
 42
0.0000001
 43
0.0000001
 44
0.0000000001
 40
0.0
 40
0.0
 40
0.0
 40
0.0
 40
0.380717251
 40
0.5519805239
 40
0.7017870534
 40
0.8248246229
 40
0.9169200132
 40
0.9749642266
 40
1.0
 40
1.0
 40
1.0
 40
1.0
 10
-62.0399522323
 20
-23.7674284937
 30
0.0
 10
-62.0615706641
 20
-23.7798408798
 30
0.0
 10
-62.0932045254
 20
-23.7973753313
 30
0.0
 10
-62.1339755296
 20
-23.8184889163
 30
0.0
 10
-62.1602020327
 20
-23.831276747
 30
0.0
 10
-62.1817279824
 20
-23.8410312293
 30
0.0
 10
-62.1990253309
 20
-23.8477327287
 30
0.0
 10
-62.2088200672
 20
-23.8507173015
 30
0.0
 10
-62.2158281557
 20
-23.8514196558
 30
0.0
 10
-62.2166477943
 20
-23.85
 30
0.0
  0
SPLINE
  5
3BF
100
AcDbEntity
  8
ASSI
100
AcDbSpline
 62
250
  6
CONTINUOUS
 70
0
 71
3
 72
14
 73
10
 74
0
 42
0.0000001
 43
0.0000001
 44
0.0000000001
 40
0.0
 40
0.0
 40
0.0
 40
0.0
 40
0.3807599092
 40
0.5519244442
 40
0.7017527503
 40
0.8248955303
 40
0.916901319
 40
0.9749782963
 40
1.0
 40
1.0
 40
1.0
 40
1.0
 10
-61.7512770977
 20
-24.2674284937
 30
0.0
 10
-61.7728982709
 20
-24.2798424538
 30
0.0
 10
-61.8045298805
 20
-24.297374066
 30
0.0
 10
-61.8452982342
 20
-24.3184902636
 30
0.0
 10
-61.8715286663
 20
-24.3312734519
 30
0.0
 10
-61.8930551454
 20
-24.3410379899
 30
0.0
 10
-61.9103564347
 20
-24.3477268143
 30
0.0
 10
-61.9201466747
 20
-24.3507320361
 30
0.0
 10
-61.9271534696
 20
-24.351418879
 30
0.0
 10
-61.9279726597
 20
-24.35
 30
0.0
  0
SPLINE
  5
3C0
100
AcDbEntity
  8
ASSI
100
AcDbSpline
 62
250
  6
CONTINUOUS
 70
0
 71
3
 72
18
 73
14
 74
0
 42
0.0000001
 43
0.0000001
 44
0.0000000001
 40
0.0
 40
0.0
 40
0.0
 40
0.0
 40
0.1992942227
 40
0.3888284588
 40
0.5615419614
 40
0.7117266879
 40
0.8343172456
 40
0.8838594044
 40
0.9250179099
 40
0.9574234948
 40
0.9807793438
 40
0.99495928
 40
1.0
 40
1.0
 40
1.0
 40
1.0
 10
-61.7512770977
 20
-24.2674284937
 30
0.0
 10
-61.7512956967
 20
-24.2795650091
 30
0.0
 10
-61.7513700466
 20
-24.3032438012
 30
0.0
 10
-61.7515947992
 20
-24.3374390033
 30
0.0
 10
-61.7519218625
 20
-24.3686453629
 30
0.0
 10
-61.7523435076
 20
-24.3957651174
 30
0.0
 10
-61.7527689893
 20
-24.4154042782
 30
0.0
 10
-61.7531772729
 20
-24.4283629895
 30
0.0
 10
-61.7534462818
 20
-24.4359066196
 30
0.0
 10
-61.7537932943
 20
-24.4416645336
 30
0.0
 10
-61.753968873
 20
-24.4462283
 30
0.0
 10
-61.7544569828
 20
-24.4482457525
 30
0.0
 10
-61.7544606115
 20
-24.45
 30
0.0
 10
-61.754767579
 20
-24.45
 30
0.0
  0
SPLINE
  5
3C1
100
AcDbEntity
  8
ASSI
100
AcDbSpline
 62
250
  6
CONTINUOUS
 70
0
 71
3
 72
18
 73
14
 74
0
 42
0.0000001
 43
0.0000001
 44
0.0000000001
 40
0.0
 40
0.0
 40
0.0
 40
0.0
 40
0.199072139
 40
0.3887870004
 40
0.5615926876
 40
0.7117557158
 40
0.8342459221
 40
0.8838366183
 40
0.9250270856
 40
0.9573993373
 40
0.9807509705
 40
0.9949487357
 40
1.0
 40
1.0
 40
1.0
 40
1.0
 10
-60.7351479759
 20
-24.2674284937
 30
0.0
 10
-60.7351665494
 20
-24.2795514635
 30
0.0
 10
-60.735241293
 20
-24.3032276873
 30
0.0
 10
-60.7354653382
 20
-24.3374259228
 30
0.0
 10
-60.7357931008
 20
-24.3686475155
 30
0.0
 10
-60.7362138716
 20
-24.3957654134
 30
0.0
 10
-60.7366400543
 20
-24.4154000529
 30
0.0
 10
-60.7370480228
 20
-24.4283575055
 30
0.0
 10
-60.7373166698
 20
-24.4359040928
 30
0.0
 10
-60.7376650737
 20
-24.4416615861
 30
0.0
 10
-60.7378400234
 20
-24.4462243161
 30
0.0
 10
-60.7383299267
 20
-24.4482420593
 30
0.0
 10
-60.7383308481
 20
-24.45
 30
0.0
 10
-60.7386384572
 20
-24.45
 30
0.0
  0
SPLINE
  5
3C2
100
AcDbEntity
  8
ASSI
100
AcDbSpline
 62
250
  6
CONTINUOUS
 70
0
 71
3
 72
10
 73
6
 74
0
 42
0.0000001
 43
0.0000001
 44
0.0000000001
 40
0.0
 40
0.0
 40
0.0
 40
0.0
 40
0.2503165633
 40
0.6254748453
 40
1.0
 40
1.0
 40
1.0
 40
1.0
 10
-58.877455853
 20
-23.432185806
 30
0.0
 10
-58.8372804102
 20
-23.423758317
 30
0.0
 10
-58.7369345571
 20
-23.4025546314
 30
0.0
 10
-58.5779018192
 20
-23.361689104
 30
0.0
 10
-58.465085258
 20
-23.3092276509
 30
0.0
 10
-58.4137725705
 20
-23.2754740934
 30
0.0
  0
SPLINE
  5
3C3
100
AcDbEntity
  8
ASSI
100
AcDbSpline
 62
250
  6
CONTINUOUS
 70
0
 71
3
 72
18
 73
14
 74
0
 42
0.0000001
 43
0.0000001
 44
0.0000000001
 40
0.0
 40
0.0
 40
0.0
 40
0.0
 40
0.1989755034
 40
0.388621451
 40
0.5613821307
 40
0.7115208981
 40
0.8340054596
 40
0.8836004132
 40
0.9248004233
 40
0.9571889268
 40
0.9805670541
 40
0.9948123105
 40
1.0
 40
1.0
 40
1.0
 40
1.0
 10
-60.6083624974
 20
-24.2393208298
 30
0.0
 10
-60.6032155929
 20
-24.2503059307
 30
0.0
 10
-60.5931210242
 20
-24.271741536
 30
0.0
 10
-60.5784130431
 20
-24.3026457711
 30
0.0
 10
-60.5648490771
 20
-24.3307994793
 30
0.0
 10
-60.5529197344
 20
-24.3551865071
 30
0.0
 10
-60.5441462674
 20
-24.3727795522
 30
0.0
 10
-60.5382232861
 20
-24.3843307407
 30
0.0
 10
-60.5347292597
 20
-24.391032623
 30
0.0
 10
-60.5319339964
 20
-24.3961008768
 30
0.0
 10
-60.5297634776
 20
-24.4001036018
 30
0.0
 10
-60.528458285
 20
-24.4017761941
 30
0.0
 10
-60.5276159747
 20
-24.4032875599
 30
0.0
 10
-60.5273293263
 20
-24.4031538935
 30
0.0
  0
SPLINE
  5
3C4
100
AcDbEntity
  8
ASSI
100
AcDbSpline
 62
250
  6
CONTINUOUS
 70
0
 71
3
 72
8
 73
4
 74
0
 42
0.0000001
 43
0.0000001
 44
0.0000000001
 40
0.0
 40
0.0
 40
0.0
 40
0.0
 40
1.0
 40
1.0
 40
1.0
 40
1.0
 10
-58.4478469932
 20
-23.1163322958
 30
0.0
 10
-58.4399132572
 20
-23.0954372577
 30
0.0
 10
-58.4364773625
 20
-23.0722950268
 30
0.0
 10
-58.4380517089
 20
-23.05
 30
0.0
  0
SPLINE
  5
3C5
100
AcDbEntity
  8
ASSI
100
AcDbSpline
 62
250
  6
CONTINUOUS
 70
0
 71
3
 72
9
 73
5
 74
0
 42
0.0000001
 43
0.0000001
 44
0.0000000001
 40
0.0
 40
0.0
 40
0.0
 40
0.0
 40
0.4999288989
 40
1.0
 40
1.0
 40
1.0
 40
1.0
 10
-58.5034804421
 20
-23.1958495165
 30
0.0
 10
-58.4907143529
 20
-23.1856785832
 30
0.0
 10
-58.4682874314
 20
-23.1611494362
 30
0.0
 10
-58.4536424677
 20
-23.1315961413
 30
0.0
 10
-58.4478469932
 20
-23.1163322958
 30
0.0
  0
SPLINE
  5
3C6
100
AcDbEntity
  8
ASSI
100
AcDbSpline
 62
250
  6
CONTINUOUS
 70
0
 71
3
 72
10
 73
6
 74
0
 42
0.0000001
 43
0.0000001
 44
0.0000000001
 40
0.0
 40
0.0
 40
0.0
 40
0.0
 40
0.2567522835
 40
0.5070672041
 40
1.0
 40
1.0
 40
1.0
 40
1.0
 10
-58.8739769145
 20
-23.2498071499
 30
0.0
 10
-58.8416577259
 20
-23.2498190375
 30
0.0
 10
-58.7775112461
 20
-23.2497016552
 30
0.0
 10
-58.6534917971
 20
-23.2475247571
 30
0.0
 10
-58.5520631061
 20
-23.2344472761
 30
0.0
 10
-58.5034804421
 20
-23.1958495165
 30
0.0
  0
SPLINE
  5
3C7
100
AcDbEntity
  8
ASSI
100
AcDbSpline
 62
250
  6
CONTINUOUS
 70
0
 71
3
 72
14
 73
10
 74
0
 42
0.0000001
 43
0.0000001
 44
0.0000000001
 40
0.0
 40
0.0
 40
0.0
 40
0.0
 40
0.1253690311
 40
0.251213187
 40
0.3766795277
 40
0.5010525938
 40
0.6246331978
 40
0.748589933
 40
1.0
 40
1.0
 40
1.0
 40
1.0
 10
-59.3018920131
 20
-23.05
 30
0.0
 10
-59.3035528642
 20
-23.0722366522
 30
0.0
 10
-59.2969572713
 20
-23.1181623286
 30
0.0
 10
-59.2592227305
 20
-23.1758000229
 30
0.0
 10
-59.2033650211
 20
-23.2147958252
 30
0.0
 10
-59.139798346
 20
-23.2359565955
 30
0.0
 10
-59.074148737
 20
-23.2453778255
 30
0.0
 10
-58.9854760046
 20
-23.2498705065
 30
0.0
 10
-58.9186936172
 20
-23.2497906735
 30
0.0
 10
-58.8739769145
 20
-23.2498071499
 30
0.0
  0
SPLINE
  5
3C8
100
AcDbEntity
  8
RACCORDO
100
AcDbSpline
 62
250
  6
CONTINUOUS
 70
0
 71
3
 72
15
 73
11
 74
0
 42
0.0000001
 43
0.0000001
 44
0.0000000001
 40
0.0
 40
0.0
 40
0.0
 40
0.0
 40
0.0182856187
 40
0.040655415
 40
0.0714204799
 40
0.1569316727
 40
0.2726358813
 40
0.4165872998
 40
0.5869741634
 40
1.0
 40
1.0
 40
1.0
 40
1.0
 10
-56.3743828213
 20
-20.0076321799
 30
0.0
 10
-56.3743897515
 20
-20.0079467784
 30
0.0
 10
-56.3733952017
 20
-20.0081279696
 30
0.0
 10
-56.372567056
 20
-20.0088927634
 30
0.0
 10
-56.3704121738
 20
-20.0100728445
 30
0.0
 10
-56.367013639
 20
-20.0120705585
 30
0.0
 10
-56.3616966255
 20
-20.0147772114
 30
0.0
 10
-56.3550308222
 20
-20.0179722063
 30
0.0
 10
-56.343581817
 20
-20.0230459734
 30
0.0
 10
-56.3342531101
 20
-20.0267643712
 30
0.0
 10
-56.3276037381
 20
-20.0292754217
 30
0.0
  0
SPLINE
  5
3C9
100
AcDbEntity
  8
RACCORDO
100
AcDbSpline
 62
250
  6
CONTINUOUS
 70
0
 71
3
 72
9
 73
5
 74
0
 42
0.0000001
 43
0.0000001
 44
0.0000000001
 40
0.0
 40
0.0
 40
0.0
 40
0.0
 40
0.4526747452
 40
1.0
 40
1.0
 40
1.0
 40
1.0
 10
-56.3276037381
 20
-20.0292754217
 30
0.0
 10
-56.3058371933
 20
-20.0374952794
 30
0.0
 10
-56.2568369048
 20
-20.0529524679
 30
0.0
 10
-56.2059834012
 20
-20.0633796624
 30
0.0
 10
-56.1778733025
 20
-20.0644847374
 30
0.0
  0
SPLINE
  5
3CA
100
AcDbEntity
  8
RACCORDO
100
AcDbSpline
 62
250
  6
CONTINUOUS
 70
0
 71
3
 72
19
 73
15
 74
0
 42
0.0000001
 43
0.0000001
 44
0.0000000001
 40
0.0
 40
0.0
 40
0.0
 40
0.0
 40
0.3730323799
 40
0.5425005921
 40
0.6928519476
 40
0.8188447301
 40
0.8711387851
 40
0.9154748998
 40
0.9512304769
 40
0.97774669
 40
0.9873145699
 40
0.9942864094
 40
0.9985520673
 40
1.0
 40
1.0
 40
1.0
 40
1.0
 10
-56.1778733025
 20
-21.4353442501
 30
0.0
 10
-56.203452902
 20
-21.4363498452
 30
0.0
 10
-56.2403713301
 20
-21.4434258575
 30
0.0
 10
-56.2861261298
 20
-21.4562199701
 30
0.0
 10
-56.3151966966
 20
-21.4658097049
 30
0.0
 10
-56.3363023072
 20
-21.473783853
 30
0.0
 10
-56.3503655552
 20
-21.479751333
 30
0.0
 10
-56.3586330645
 20
-21.4835339028
 30
0.0
 10
-56.3651605342
 20
-21.4868103926
 30
0.0
 10
-56.3695324034
 20
-21.4891532309
 30
0.0
 10
-56.3720104243
 20
-21.4906947331
 30
0.0
 10
-56.3733255902
 20
-21.4914001789
 30
0.0
 10
-56.3738624242
 20
-21.4919746387
 30
0.0
 10
-56.374385015
 20
-21.4920974675
 30
0.0
 10
-56.3743828213
 20
-21.4921968077
 30
0.0
  0
SPLINE
  5
3CB
100
AcDbEntity
  8
RACCORDO
100
AcDbSpline
 62
250
  6
CONTINUOUS
 70
0
 71
3
 72
11
 73
7
 74
0
 42
0.0000001
 43
0.0000001
 44
0.0000000001
 40
0.0
 40
0.0
 40
0.0
 40
0.0
 40
0.251303694
 40
0.5020867248
 40
0.7514039113
 40
1.0
 40
1.0
 40
1.0
 40
1.0
 10
-56.1778733025
 20
-20.8107003333
 30
0.0
 10
-56.1993274503
 20
-20.8110691276
 30
0.0
 10
-56.2423804478
 20
-20.8187288457
 30
0.0
 10
-56.2997518192
 20
-20.8497690819
 30
0.0
 10
-56.3442339742
 20
-20.8971851596
 30
0.0
 10
-56.362197109
 20
-20.9367122895
 30
0.0
 10
-56.3676961409
 20
-20.9572137354
 30
0.0
  0
SPLINE
  5
3CC
100
AcDbEntity
  8
RACCORDO
100
AcDbSpline
 62
250
  6
CONTINUOUS
 70
0
 71
3
 72
11
 73
7
 74
0
 42
0.0000001
 43
0.0000001
 44
0.0000000001
 40
0.0
 40
0.0
 40
0.0
 40
0.0
 40
0.2517644225
 40
0.5024827151
 40
0.7517518273
 40
1.0
 40
1.0
 40
1.0
 40
1.0
 10
-56.1778733025
 20
-20.7248490156
 30
0.0
 10
-56.2035790699
 20
-20.7252908947
 30
0.0
 10
-56.2552509412
 20
-20.7361470394
 30
0.0
 10
-56.3204765716
 20
-20.7800666828
 30
0.0
 10
-56.3641539159
 20
-20.8450696452
 30
0.0
 10
-56.3743828213
 20
-20.8964300738
 30
0.0
 10
-56.3743828213
 20
-20.921780568
 30
0.0
  0
SPLINE
  5
3CD
100
AcDbEntity
  8
ASSI
100
AcDbSpline
 62
250
  6
CONTINUOUS
 70
0
 71
3
 72
18
 73
14
 74
0
 42
0.0000001
 43
0.0000001
 44
0.0000000001
 40
0.0
 40
0.0
 40
0.0
 40
0.0
 40
0.1992948174
 40
0.3888307131
 40
0.5615450855
 40
0.7117296746
 40
0.8343200282
 40
0.8838618397
 40
0.9250198494
 40
0.9574252873
 40
0.9807806122
 40
0.9949597017
 40
1.0
 40
1.0
 40
1.0
 40
1.0
 10
-65.2243577376
 20
24.3674284937
 30
0.0
 10
-65.2243763366
 20
24.3795650456
 30
0.0
 10
-65.2244506881
 20
24.4032439757
 30
0.0
 10
-65.2246754415
 20
24.4374393689
 30
0.0
 10
-65.2250025093
 20
24.468645875
 30
0.0
 10
-65.2254241561
 20
24.4957656623
 30
0.0
 10
-65.2258496423
 20
24.5154047816
 30
0.0
 10
-65.2262579292
 20
24.5283634296
 30
0.0
 10
-65.2265269467
 20
24.5359069984
 30
0.0
 10
-65.2268739427
 20
24.541664844
 30
0.0
 10
-65.2270495326
 20
24.546228507
 30
0.0
 10
-65.2275375916
 20
24.5482458921
 30
0.0
 10
-65.227541277
 20
24.55
 30
0.0
 10
-65.2278482189
 20
24.55
 30
0.0
  0
SPLINE
  5
3CE
100
AcDbEntity
  8
ASSI
100
AcDbSpline
 62
250
  6
CONTINUOUS
 70
0
 71
3
 72
14
 73
10
 74
0
 42
0.0000001
 43
0.0000001
 44
0.0000000001
 40
0.0
 40
0.0
 40
0.0
 40
0.0
 40
0.3819116699
 40
0.5532173911
 40
0.7029999383
 40
0.8259782702
 40
0.917747886
 40
0.9755243438
 40
1.0
 40
1.0
 40
1.0
 40
1.0
 10
-65.2243577376
 20
24.3674284937
 30
0.0
 10
-65.2004773651
 20
24.3737468104
 30
0.0
 10
-65.1657340253
 20
24.382414621
 30
0.0
 10
-65.1213769146
 20
24.3922289737
 30
0.0
 10
-65.0930951539
 20
24.3978057077
 30
0.0
 10
-65.0701225172
 20
24.4017004843
 30
0.0
 10
-65.0519235595
 20
24.4038100538
 30
0.0
 10
-65.0419612661
 20
24.4042189851
 30
0.0
 10
-65.035072787
 20
24.4032929549
 30
0.0
 10
-65.0346630536
 20
24.401763809
 30
0.0
  0
SPLINE
  5
3CF
100
AcDbEntity
  8
ASSI
100
AcDbSpline
 62
250
  6
CONTINUOUS
 70
0
 71
3
 72
14
 73
10
 74
0
 42
0.0000001
 43
0.0000001
 44
0.0000000001
 40
0.0
 40
0.0
 40
0.0
 40
0.0
 40
0.3807172467
 40
0.5519805182
 40
0.7017870485
 40
0.8248246199
 40
0.9169200118
 40
0.9749642262
 40
1.0
 40
1.0
 40
1.0
 40
1.0
 10
-62.0399522323
 20
23.7674284937
 30
0.0
 10
-62.0615706638
 20
23.7798408796
 30
0.0
 10
-62.0932045249
 20
23.7973753309
 30
0.0
 10
-62.1339755287
 20
23.8184889157
 30
0.0
 10
-62.1602020319
 20
23.8312767465
 30
0.0
 10
-62.1817279818
 20
23.8410312289
 30
0.0
 10
-62.1990253306
 20
23.8477327285
 30
0.0
 10
-62.208820067
 20
23.8507173013
 30
0.0
 10
-62.2158281556
 20
23.8514196559
 30
0.0
 10
-62.2166477943
 20
23.85
 30
0.0
  0
SPLINE
  5
3D0
100
AcDbEntity
  8
ASSI
100
AcDbSpline
 62
250
  6
CONTINUOUS
 70
0
 71
3
 72
14
 73
10
 74
0
 42
0.0000001
 43
0.0000001
 44
0.0000000001
 40
0.0
 40
0.0
 40
0.0
 40
0.0
 40
0.3807566227
 40
0.551920908
 40
0.7017487282
 40
0.8248906431
 40
0.9168987134
 40
0.9749773681
 40
1.0
 40
1.0
 40
1.0
 40
1.0
 10
-61.7512770977
 20
24.2674284937
 30
0.0
 10
-61.772898081
 20
24.2798423447
 30
0.0
 10
-61.8045294812
 20
24.2973738486
 30
0.0
 10
-61.8452975911
 20
24.3184899206
 30
0.0
 10
-61.8715279006
 20
24.331273129
 30
0.0
 10
-61.8930544322
 20
24.3410376386
 30
0.0
 10
-61.9103559034
 20
24.3477267138
 30
0.0
 10
-61.9201463794
 20
24.3507318426
 30
0.0
 10
-61.9271534393
 20
24.3514189314
 30
0.0
 10
-61.9279726597
 20
24.35
 30
0.0
  0
SPLINE
  5
3D1
100
AcDbEntity
  8
ASSI
100
AcDbSpline
 62
250
  6
CONTINUOUS
 70
0
 71
3
 72
18
 73
14
 74
0
 42
0.0000001
 43
0.0000001
 44
0.0000000001
 40
0.0
 40
0.0
 40
0.0
 40
0.0
 40
0.19929506
 40
0.3888310113
 40
0.5615449871
 40
0.711730159
 40
0.834321375
 40
0.8838628864
 40
0.9250202553
 40
0.957425169
 40
0.9807803863
 40
0.9949596051
 40
1.0
 40
1.0
 40
1.0
 40
1.0
 10
-61.7512770977
 20
24.2674284937
 30
0.0
 10
-61.7512956968
 20
24.2795650603
 30
0.0
 10
-61.7513700493
 20
24.3032440084
 30
0.0
 10
-61.7515948013
 20
24.3374393954
 30
0.0
 10
-61.7519218681
 20
24.368645916
 30
0.0
 10
-61.7523435218
 20
24.395765767
 30
0.0
 10
-61.7527690067
 20
24.415404956
 30
0.0
 10
-61.7531772922
 20
24.4283635993
 30
0.0
 10
-61.7534463075
 20
24.4359070779
 30
0.0
 10
-61.7537933044
 20
24.4416648483
 30
0.0
 10
-61.7539688906
 20
24.4462284789
 30
0.0
 10
-61.7544569594
 20
24.4482458655
 30
0.0
 10
-61.7544606313
 20
24.45
 30
0.0
 10
-61.754767579
 20
24.45
 30
0.0
  0
SPLINE
  5
3D2
100
AcDbEntity
  8
ASSI
100
AcDbSpline
 62
250
  6
CONTINUOUS
 70
0
 71
3
 72
18
 73
14
 74
0
 42
0.0000001
 43
0.0000001
 44
0.0000000001
 40
0.0
 40
0.0
 40
0.0
 40
0.0
 40
0.1990721614
 40
0.3887870714
 40
0.5615927834
 40
0.7117558049
 40
0.8342459892
 40
0.8838366715
 40
0.9250271309
 40
0.9573993765
 40
0.9807509995
 40
0.9949487531
 40
1.0
 40
1.0
 40
1.0
 40
1.0
 10
-60.7351479759
 20
24.2674284937
 30
0.0
 10
-60.7351665542
 20
24.2795514645
 30
0.0
 10
-60.7352413061
 20
24.3032276921
 30
0.0
 10
-60.7354653605
 20
24.3374259327
 30
0.0
 10
-60.7357931292
 20
24.3686475287
 30
0.0
 10
-60.7362139028
 20
24.3957654256
 30
0.0
 10
-60.7366400845
 20
24.4154000623
 30
0.0
 10
-60.7370480505
 20
24.4283575118
 30
0.0
 10
-60.7373166936
 20
24.4359040978
 30
0.0
 10
-60.7376650955
 20
24.4416615886
 30
0.0
 10
-60.7378400354
 20
24.4462243196
 30
0.0
 10
-60.7383299418
 20
24.4482420568
 30
0.0
 10
-60.7383308492
 20
24.45
 30
0.0
 10
-60.7386384572
 20
24.45
 30
0.0
  0
SPLINE
  5
3D3
100
AcDbEntity
  8
ASSI
100
AcDbSpline
 62
250
  6
CONTINUOUS
 70
0
 71
3
 72
18
 73
14
 74
0
 42
0.0000001
 43
0.0000001
 44
0.0000000001
 40
0.0
 40
0.0
 40
0.0
 40
0.0
 40
0.1989754808
 40
0.3886213796
 40
0.5613820341
 40
0.711520808
 40
0.8340053915
 40
0.883600359
 40
0.9248003772
 40
0.9571888869
 40
0.9805670245
 40
0.9948122929
 40
1.0
 40
1.0
 40
1.0
 40
1.0
 10
-60.6083624974
 20
24.2393208298
 30
0.0
 10
-60.6032155978
 20
24.2503059318
 30
0.0
 10
-60.5931210386
 20
24.2717415374
 30
0.0
 10
-60.5784130683
 20
24.3026457719
 30
0.0
 10
-60.5648491094
 20
24.3307994797
 30
0.0
 10
-60.5529197688
 20
24.3551865096
 30
0.0
 10
-60.5441462993
 20
24.3727795567
 30
0.0
 10
-60.5382233141
 20
24.3843307468
 30
0.0
 10
-60.5347292838
 20
24.3910326287
 30
0.0
 10
-60.5319340174
 20
24.3961008838
 30
0.0
 10
-60.5297634915
 20
24.4001036045
 30
0.0
 10
-60.528458298
 20
24.4017762029
 30
0.0
 10
-60.5276159782
 20
24.4032875615
 30
0.0
 10
-60.5273293289
 20
24.4031538947
 30
0.0
  0
SPLINE
  5
3D4
100
AcDbEntity
  8
ASSI
100
AcDbSpline
 62
250
  6
CONTINUOUS
 70
0
 71
3
 72
10
 73
6
 74
0
 42
0.0000001
 43
0.0000001
 44
0.0000000001
 40
0.0
 40
0.0
 40
0.0
 40
0.0
 40
0.2497295755
 40
0.6246735975
 40
1.0
 40
1.0
 40
1.0
 40
1.0
 10
-58.4138076642
 20
23.2754952147
 30
0.0
 10
-58.4480321687
 20
23.2980088526
 30
0.0
 10
-58.5392606363
 20
23.3460390907
 30
0.0
 10
-58.6967325458
 20
23.394501534
 30
0.0
 10
-58.8171954706
 20
23.4195618232
 30
0.0
 10
-58.8774558532
 20
23.4321858061
 30
0.0
  0
SPLINE
  5
3D5
100
AcDbEntity
  8
ASSI
100
AcDbSpline
 62
250
  6
CONTINUOUS
 70
0
 71
3
 72
17
 73
13
 74
0
 42
0.0000001
 43
0.0000001
 44
0.0000000001
 40
0.0
 40
0.0
 40
0.0
 40
0.0
 40
0.2114496535
 40
0.4056692847
 40
0.5780668618
 40
0.7248504245
 40
0.8426525648
 40
0.9288271254
 40
0.9594377984
 40
0.9814908665
 40
0.9949230392
 40
1.0
 40
1.0
 40
1.0
 40
1.0
 10
-58.4138076642
 20
23.2754952147
 30
0.0
 10
-58.4098955179
 20
23.2837013966
 30
0.0
 10
-58.4023624881
 20
23.2994315925
 30
0.0
 10
-58.3915349337
 20
23.3218039452
 30
0.0
 10
-58.381819534
 20
23.3416191142
 30
0.0
 10
-58.3734353726
 20
23.358446521
 30
0.0
 10
-58.3665896893
 20
23.3718459118
 30
0.0
 10
-58.3618538792
 20
23.3808331686
 30
0.0
 10
-58.3589588538
 20
23.3859417613
 30
0.0
 10
-58.3574414665
 20
23.3885357445
 30
0.0
 10
-58.3565581575
 20
23.3896933776
 30
0.0
 10
-58.3559124356
 20
23.3906055683
 30
0.0
 10
-58.3557146092
 20
23.3905133203
 30
0.0
  0
SPLINE
  5
3D6
100
AcDbEntity
  8
ASSI
100
AcDbSpline
 62
250
  6
CONTINUOUS
 70
0
 71
3
 72
9
 73
5
 74
0
 42
0.0000001
 43
0.0000001
 44
0.0000000001
 40
0.0
 40
0.0
 40
0.0
 40
0.0
 40
0.2505673042
 40
1.0
 40
1.0
 40
1.0
 40
1.0
 10
-58.2866481878
 20
23.1652324291
 30
0.0
 10
-58.2954941121
 20
23.1762041101
 30
0.0
 10
-58.3333676811
 20
23.2179227515
 30
0.0
 10
-58.3784624562
 20
23.252526692
 30
0.0
 10
-58.4138061599
 20
23.2754983991
 30
0.0
  0
SPLINE
  5
3D7
100
AcDbEntity
  8
ASSI
100
AcDbSpline
 62
250
  6
CONTINUOUS
 70
0
 71
3
 72
18
 73
14
 74
0
 42
0.0000001
 43
0.0000001
 44
0.0000000001
 40
0.0
 40
0.0
 40
0.0
 40
0.0
 40
0.1990721808
 40
0.3887871378
 40
0.5615928708
 40
0.7117558795
 40
0.8342460377
 40
0.8838367048
 40
0.9250271556
 40
0.9573993955
 40
0.9807510103
 40
0.9949487564
 40
1.0
 40
1.0
 40
1.0
 40
1.0
 10
-57.718350346
 20
23.0674284937
 30
0.0
 10
-57.7183689243
 20
23.0795514657
 30
0.0
 10
-57.7184436763
 20
23.1032276973
 30
0.0
 10
-57.7186677309
 20
23.1374259432
 30
0.0
 10
-57.7189954995
 20
23.1686475426
 30
0.0
 10
-57.7194162732
 20
23.1957654384
 30
0.0
 10
-57.7198424548
 20
23.2154000718
 30
0.0
 10
-57.7202504207
 20
23.2283575182
 30
0.0
 10
-57.7205190636
 20
23.2359041024
 30
0.0
 10
-57.7208674653
 20
23.2416615919
 30
0.0
 10
-57.7210424051
 20
23.2462243215
 30
0.0
 10
-57.7215323112
 20
23.2482420578
 30
0.0
 10
-57.7215332187
 20
23.25
 30
0.0
 10
-57.7218408265
 20
23.25
 30
0.0
  0
SPLINE
  5
3D8
100
AcDbEntity
  8
ASSI
100
AcDbSpline
 62
250
  6
CONTINUOUS
 70
0
 71
3
 72
18
 73
14
 74
0
 42
0.0000001
 43
0.0000001
 44
0.0000000001
 40
0.0
 40
0.0
 40
0.0
 40
0.0
 40
0.1992938296
 40
0.3888270126
 40
0.5615399574
 40
0.7117246112
 40
0.834315033
 40
0.8838574033
 40
0.925016267
 40
0.95742194
 40
0.9807782379
 40
0.9949589116
 40
1.0
 40
1.0
 40
1.0
 40
1.0
 10
-56.0106874963
 20
23.0674284937
 30
0.0
 10
-56.0107060952
 20
23.0795649848
 30
0.0
 10
-56.0107804438
 20
23.1032436884
 30
0.0
 10
-56.011005196
 20
23.1374387676
 30
0.0
 10
-56.0113322565
 20
23.168645024
 30
0.0
 10
-56.0117539
 20
23.1957647312
 30
0.0
 10
-56.0121793784
 20
23.2154038919
 30
0.0
 10
-56.0125876585
 20
23.2283626292
 30
0.0
 10
-56.0128566599
 20
23.2359063001
 30
0.0
 10
-56.0132036866
 20
23.2416642665
 30
0.0
 10
-56.0133792552
 20
23.2462281199
 30
0.0
 10
-56.0138674093
 20
23.2482456308
 30
0.0
 10
-56.0138709885
 20
23.25
 30
0.0
 10
-56.0141779784
 20
23.25
 30
0.0
  0
SPLINE
  5
3D9
100
AcDbEntity
  8
ASSI
100
AcDbSpline
 62
250
  6
CONTINUOUS
 70
0
 71
3
 72
11
 73
7
 74
0
 42
0.0000001
 43
0.0000001
 44
0.0000000001
 40
0.0
 40
0.0
 40
0.0
 40
0.0
 40
0.2618102805
 40
0.5168144766
 40
0.7619825222
 40
1.0
 40
1.0
 40
1.0
 40
1.0
 10
-55.8253650849
 20
23.05
 30
0.0
 10
-55.825365085
 20
23.0759225998
 30
0.0
 10
-55.8162851426
 20
23.1275774269
 30
0.0
 10
-55.7768491896
 20
23.1938998728
 30
0.0
 10
-55.7169728033
 20
23.2391800773
 30
0.0
 10
-55.6685389815
 20
23.25
 30
0.0
 10
-55.6449721765
 20
23.25
 30
0.0
  0
SPLINE
  5
3DA
100
AcDbEntity
  8
ASSI
100
AcDbSpline
 62
250
  6
CONTINUOUS
 70
0
 71
3
 72
11
 73
7
 74
0
 42
0.0000001
 43
0.0000001
 44
0.0000000001
 40
0.0
 40
0.0
 40
0.0
 40
0.0
 40
0.2600007742
 40
0.5142106172
 40
0.76010594
 40
1.0
 40
1.0
 40
1.0
 40
1.0
 10
-54.9161136498
 20
23.05
 30
0.0
 10
-54.9161136499
 20
23.0759357645
 30
0.0
 10
-54.9253836799
 20
23.127726849
 30
0.0
 10
-54.9655730401
 20
23.1940820409
 30
0.0
 10
-55.0264413863
 20
23.2392506088
 30
0.0
 10
-55.0754912535
 20
23.25
 30
0.0
 10
-55.0994213201
 20
23.25
 30
0.0
  0
SPLINE
  5
3DB
100
AcDbEntity
  8
ASSI
100
AcDbSpline
 62
250
  6
CONTINUOUS
 70
0
 71
3
 72
12
 73
8
 74
0
 42
0.0000001
 43
0.0000001
 44
0.0000000001
 40
0.0
 40
0.0
 40
0.0
 40
0.0
 40
0.1154303279
 40
0.2090636553
 40
0.328169921
 40
0.6333369422
 40
1.0
 40
1.0
 40
1.0
 40
1.0
 10
-51.3143235121
 20
22.6358309453
 30
0.0
 10
-51.3075333544
 20
22.634011528
 30
0.0
 10
-51.3003053617
 20
22.6203499296
 30
0.0
 10
-51.2969234669
 20
22.6013684803
 30
0.0
 10
-51.2949506304
 20
22.5695041244
 30
0.0
 10
-51.2990670424
 20
22.5215281957
 30
0.0
 10
-51.3064550599
 20
22.4811840454
 30
0.0
 10
-51.3114191851
 20
22.4594131032
 30
0.0
  0
SPLINE
  5
3DC
100
AcDbEntity
  8
ASSI
100
AcDbSpline
 62
250
  6
CONTINUOUS
 70
0
 71
3
 72
18
 73
14
 74
0
 42
0.0000001
 43
0.0000001
 44
0.0000000001
 40
0.0
 40
0.0
 40
0.0
 40
0.0
 40
0.004767247
 40
0.0188699486
 40
0.0421690029
 40
0.0745093631
 40
0.1156814946
 40
0.1652645214
 40
0.2877679565
 40
0.4379816125
 40
0.6108793702
 40
0.8007337499
 40
1.0
 40
1.0
 40
1.0
 40
1.0
 10
-51.3910899941
 20
22.6564004621
 30
0.0
 10
-51.3913697746
 20
22.6564754291
 30
0.0
 10
-51.3914032011
 20
22.6545891674
 30
0.0
 10
-51.3924721031
 20
22.6529037365
 30
0.0
 10
-51.3934808281
 20
22.6484051152
 30
0.0
 10
-51.3951751598
 20
22.6429376793
 30
0.0
 10
-51.397171533
 20
22.6356663849
 30
0.0
 10
-51.4006645265
 20
22.6232182505
 30
0.0
 10
-51.4058600605
 20
22.6043190054
 30
0.0
 10
-51.4130029867
 20
22.5782110569
 30
0.0
 10
-51.4211720142
 20
22.5481311595
 30
0.0
 10
-51.4300810813
 20
22.5151673211
 30
0.0
 10
-51.4362238222
 20
22.4923367422
 30
0.0
 10
-51.4393633218
 20
22.4806437906
 30
0.0
  0
SPLINE
  5
3DD
100
AcDbEntity
  8
ASSI
100
AcDbSpline
 62
250
  6
CONTINUOUS
 70
0
 71
3
 72
18
 73
14
 74
0
 42
0.0000001
 43
0.0000001
 44
0.0000000001
 40
0.0
 40
0.0
 40
0.0
 40
0.0
 40
0.004767247
 40
0.0188699486
 40
0.0421690029
 40
0.0745093631
 40
0.1156814946
 40
0.1652645214
 40
0.2877679564
 40
0.4379816125
 40
0.6108793702
 40
0.8007337499
 40
1.0
 40
1.0
 40
1.0
 40
1.0
 10
-53.5428503551
 20
23.2329629131
 30
0.0
 10
-53.5431301355
 20
23.2330378801
 30
0.0
 10
-53.5431635621
 20
23.2311516184
 30
0.0
 10
-53.5442324641
 20
23.2294661875
 30
0.0
 10
-53.545241189
 20
23.2249675663
 30
0.0
 10
-53.5469355208
 20
23.2195001303
 30
0.0
 10
-53.548931894
 20
23.2122288359
 30
0.0
 10
-53.5524248875
 20
23.1997807016
 30
0.0
 10
-53.5576204215
 20
23.1808814565
 30
0.0
 10
-53.5647633476
 20
23.154773508
 30
0.0
 10
-53.5729323751
 20
23.1246936105
 30
0.0
 10
-53.5818414422
 20
23.0917297721
 30
0.0
 10
-53.5879841832
 20
23.0688991933
 30
0.0
 10
-53.5911236828
 20
23.0572062416
 30
0.0
  0
SPLINE
  5
3DE
100
AcDbEntity
  8
ASSI
100
AcDbSpline
 62
250
  6
CONTINUOUS
 70
0
 71
3
 72
18
 73
14
 74
0
 42
0.0000001
 43
0.0000001
 44
0.0000000001
 40
0.0
 40
0.0
 40
0.0
 40
0.0
 40
0.0050512469
 40
0.0192490005
 40
0.0426006235
 40
0.0749728691
 40
0.1161633285
 40
0.1657540108
 40
0.2882441951
 40
0.4384072166
 40
0.6112129286
 40
0.8009278386
 40
1.0
 40
1.0
 40
1.0
 40
1.0
 10
-53.6722598776
 20
23.25
 30
0.0
 10
-53.6719522696
 20
23.25
 30
0.0
 10
-53.6719513623
 20
23.2482420568
 30
0.0
 10
-53.6714614558
 20
23.2462243196
 30
0.0
 10
-53.671286516
 20
23.2416615886
 30
0.0
 10
-53.670938114
 20
23.2359040978
 30
0.0
 10
-53.6706694709
 20
23.2283575118
 30
0.0
 10
-53.670261505
 20
23.2154000623
 30
0.0
 10
-53.6698353232
 20
23.1957654256
 30
0.0
 10
-53.6694145496
 20
23.1686475287
 30
0.0
 10
-53.669086781
 20
23.1374259327
 30
0.0
 10
-53.6688627265
 20
23.1032276921
 30
0.0
 10
-53.6687879746
 20
23.0795514645
 30
0.0
 10
-53.6687693963
 20
23.0674284937
 30
0.0
  0
SPLINE
  5
3DF
100
AcDbEntity
  8
ASSI
100
AcDbSpline
 62
250
  6
CONTINUOUS
 70
0
 71
3
 72
18
 73
14
 74
0
 42
0.0000001
 43
0.0000001
 44
0.0000000001
 40
0.0
 40
0.0
 40
0.0
 40
0.0
 40
0.1992938302
 40
0.3888270139
 40
0.5615399582
 40
0.7117246116
 40
0.8343150331
 40
0.8838574033
 40
0.9250162669
 40
0.9574219398
 40
0.9807782376
 40
0.9949589114
 40
1.0
 40
1.0
 40
1.0
 40
1.0
 10
-54.7349642587
 20
23.0674284937
 30
0.0
 10
-54.7349828577
 20
23.0795649849
 30
0.0
 10
-54.7350572065
 20
23.1032436885
 30
0.0
 10
-54.7352819588
 20
23.1374387678
 30
0.0
 10
-54.7356090192
 20
23.1686450242
 30
0.0
 10
-54.7360306626
 20
23.1957647313
 30
0.0
 10
-54.7364561409
 20
23.2154038919
 30
0.0
 10
-54.7368644209
 20
23.2283626293
 30
0.0
 10
-54.7371334223
 20
23.2359063001
 30
0.0
 10
-54.7374804491
 20
23.2416642665
 30
0.0
 10
-54.7376560178
 20
23.2462281199
 30
0.0
 10
-54.7381441718
 20
23.2482456309
 30
0.0
 10
-54.7381477512
 20
23.25
 30
0.0
 10
-54.7384547411
 20
23.25
 30
0.0
  0
SPLINE
  5
3E0
100
AcDbEntity
  8
ASSI
100
AcDbSpline
 62
250
  6
CONTINUOUS
 70
0
 71
3
 72
14
 73
10
 74
0
 42
0.0000001
 43
0.0000001
 44
0.0000000001
 40
0.0
 40
0.0
 40
0.0
 40
0.0
 40
0.2513331802
 40
0.3752564814
 40
0.4988152257
 40
0.6231836918
 40
0.7487223697
 40
0.8746017238
 40
1.0
 40
1.0
 40
1.0
 40
1.0
 10
-58.8739769147
 20
23.2498071499
 30
0.0
 10
-58.9186797385
 20
23.2497907153
 30
0.0
 10
-58.9854421333
 20
23.2498705873
 30
0.0
 10
-59.0740911664
 20
23.2453820468
 30
0.0
 10
-59.1397304115
 20
23.235971113
 30
0.0
 10
-59.2033112492
 20
23.2148262811
 30
0.0
 10
-59.2591879757
 20
23.1758265033
 30
0.0
 10
-59.2969575101
 20
23.1181813452
 30
0.0
 10
-59.3035521938
 20
23.0722418122
 30
0.0
 10
-59.3018919559
 20
23.05
 30
0.0
  0
SPLINE
  5
3E1
100
AcDbEntity
  8
ASSI
100
AcDbSpline
 62
250
  6
CONTINUOUS
 70
0
 71
3
 72
10
 73
6
 74
0
 42
0.0000001
 43
0.0000001
 44
0.0000000001
 40
0.0
 40
0.0
 40
0.0
 40
0.0
 40
0.4926158663
 40
0.743050405
 40
1.0
 40
1.0
 40
1.0
 40
1.0
 10
-58.503478972
 20
23.1958476847
 30
0.0
 10
-58.551980341
 20
23.2344847982
 30
0.0
 10
-58.653435311
 20
23.2475067609
 30
0.0
 10
-58.7774427051
 20
23.2497057201
 30
0.0
 10
-58.8416324843
 20
23.2498189926
 30
0.0
 10
-58.8739769147
 20
23.2498071499
 30
0.0
  0
SPLINE
  5
3E2
100
AcDbEntity
  8
ASSI
100
AcDbSpline
 62
250
  6
CONTINUOUS
 70
0
 71
3
 72
9
 73
5
 74
0
 42
0.0000001
 43
0.0000001
 44
0.0000000001
 40
0.0
 40
0.0
 40
0.0
 40
0.0
 40
0.5000866771
 40
1.0
 40
1.0
 40
1.0
 40
1.0
 10
-58.4478465807
 20
23.1163309294
 30
0.0
 10
-58.453641417
 20
23.1315953753
 30
0.0
 10
-58.468287576
 20
23.161147721
 30
0.0
 10
-58.4907132515
 20
23.1856773835
 30
0.0
 10
-58.503478972
 20
23.1958476847
 30
0.0
  0
SPLINE
  5
3E3
100
AcDbEntity
  8
ASSI
100
AcDbSpline
 62
250
  6
CONTINUOUS
 70
0
 71
3
 72
8
 73
4
 74
0
 42
0.0000001
 43
0.0000001
 44
0.0000000001
 40
0.0
 40
0.0
 40
0.0
 40
0.0
 40
1.0
 40
1.0
 40
1.0
 40
1.0
 10
-58.4380517076
 20
23.05
 30
0.0
 10
-58.4364781411
 20
23.0722946101
 30
0.0
 10
-58.4399134123
 20
23.0954361792
 30
0.0
 10
-58.4478465807
 20
23.1163309294
 30
0.0
  0
SPLINE
  5
3E4
100
AcDbEntity
  8
RACCORDO
100
AcDbSpline
 62
7
  6
CONTINUOUS
 70
0
 71
3
 72
12
 73
8
 74
0
 42
0.0000001
 43
0.0000001
 44
0.0000000001
 40
0.0
 40
0.0
 40
0.0
 40
0.0
 40
0.2404140065
 40
0.499708899
 40
0.7646891251
 40
0.8896714636
 40
1.0
 40
1.0
 40
1.0
 40
1.0
 10
-60.07089234
 20
21.1935360728
 30
0.0
 10
-60.0474199613
 20
21.1778191173
 30
0.0
 10
-60.0015164931
 20
21.1406966514
 30
0.0
 10
-59.9409678578
 20
21.07394975
 30
0.0
 10
-59.8997450822
 20
21.0088827015
 30
0.0
 10
-59.8789518972
 20
20.9537019397
 30
0.0
 10
-59.8743828213
 20
20.926064806
 30
0.0
 10
-59.8743828213
 20
20.9131012902
 30
0.0
  0
SPLINE
  5
3E5
100
AcDbEntity
  8
RACCORDO
100
AcDbSpline
 62
250
  6
CONTINUOUS
 70
0
 71
3
 72
11
 73
7
 74
0
 42
0.0000001
 43
0.0000001
 44
0.0000000001
 40
0.0
 40
0.0
 40
0.0
 40
0.0
 40
0.1960896295
 40
0.4270240559
 40
0.7000743281
 40
1.0
 40
1.0
 40
1.0
 40
1.0
 10
-59.8743828213
 20
17.7036796045
 30
0.0
 10
-59.8743828213
 20
17.7202729688
 30
0.0
 10
-59.8870713031
 20
17.7566970806
 30
0.0
 10
-59.9330539011
 20
17.7966258106
 30
0.0
 10
-59.9968352099
 20
17.8225950578
 30
0.0
 10
-60.045513753
 20
17.8288298344
 30
0.0
 10
-60.07089234
 20
17.8291076845
 30
0.0
  0
SPLINE
  5
3E6
100
AcDbEntity
  8
RACCORDO
100
AcDbSpline
 62
7
  6
CONTINUOUS
 70
0
 71
3
 72
12
 73
8
 74
0
 42
0.0000001
 43
0.0000001
 44
0.0000000001
 40
0.0
 40
0.0
 40
0.0
 40
0.0
 40
0.1103285364
 40
0.2353108749
 40
0.500291101
 40
0.7595859936
 40
1.0
 40
1.0
 40
1.0
 40
1.0
 10
-59.8743828213
 20
-20.9131012902
 30
0.0
 10
-59.8743828213
 20
-20.926064806
 30
0.0
 10
-59.8789518972
 20
-20.9537019397
 30
0.0
 10
-59.8997450823
 20
-21.0088827015
 30
0.0
 10
-59.9409678578
 20
-21.07394975
 30
0.0
 10
-60.0015164932
 20
-21.1406966513
 30
0.0
 10
-60.0474199613
 20
-21.1778191173
 30
0.0
 10
-60.07089234
 20
-21.1935360728
 30
0.0
  0
SPLINE
  5
3E7
100
AcDbEntity
  8
RACCORDO
100
AcDbSpline
 62
250
  6
CONTINUOUS
 70
0
 71
3
 72
11
 73
7
 74
0
 42
0.0000001
 43
0.0000001
 44
0.0000000001
 40
0.0
 40
0.0
 40
0.0
 40
0.0
 40
0.196089613
 40
0.4270240566
 40
0.7000743341
 40
1.0
 40
1.0
 40
1.0
 40
1.0
 10
-59.8743828213
 20
-17.7036796045
 30
0.0
 10
-59.8743828213
 20
-17.7202729666
 30
0.0
 10
-59.8870713104
 20
-17.7566970751
 30
0.0
 10
-59.9330539108
 20
-17.796625796
 30
0.0
 10
-59.996835216
 20
-17.8225950444
 30
0.0
 10
-60.0455137548
 20
-17.8288298291
 30
0.0
 10
-60.07089234
 20
-17.8291076856
 30
0.0
  0
SPLINE
  5
3E8
100
AcDbEntity
  8
RACCORDO
100
AcDbSpline
 62
250
  6
CONTINUOUS
 70
0
 71
3
 72
19
 73
15
 74
0
 42
0.0000001
 43
0.0000001
 44
0.0000000001
 40
0.0
 40
0.0
 40
0.0
 40
0.0
 40
0.0014479325
 40
0.0057135906
 40
0.0126854301
 40
0.02225331
 40
0.0487695231
 40
0.0845251002
 40
0.1288612149
 40
0.1811552699
 40
0.3071480524
 40
0.4574994079
 40
0.6269676201
 40
1.0
 40
1.0
 40
1.0
 40
1.0
 10
-56.3743828213
 20
21.4921968077
 30
0.0
 10
-56.3743850096
 20
21.4920974674
 30
0.0
 10
-56.3738624317
 20
21.491974639
 30
0.0
 10
-56.3733255855
 20
21.4914001787
 30
0.0
 10
-56.3720104264
 20
21.4906947332
 30
0.0
 10
-56.3695324015
 20
21.4891532309
 30
0.0
 10
-56.3651605352
 20
21.4868103926
 30
0.0
 10
-56.3586330642
 20
21.4835339028
 30
0.0
 10
-56.3503655553
 20
21.479751333
 30
0.0
 10
-56.3363023071
 20
21.473783853
 30
0.0
 10
-56.3151966966
 20
21.4658097049
 30
0.0
 10
-56.2861261298
 20
21.4562199701
 30
0.0
 10
-56.2403713301
 20
21.4434258575
 30
0.0
 10
-56.203452902
 20
21.4363498452
 30
0.0
 10
-56.1778733025
 20
21.4353442501
 30
0.0
  0
SPLINE
  5
3E9
100
AcDbEntity
  8
RACCORDO
100
AcDbSpline
 62
250
  6
CONTINUOUS
 70
0
 71
3
 72
11
 73
7
 74
0
 42
0.0000001
 43
0.0000001
 44
0.0000000001
 40
0.0
 40
0.0
 40
0.0
 40
0.0
 40
0.3665492337
 40
0.6826071818
 40
0.9065901791
 40
1.0
 40
1.0
 40
1.0
 40
1.0
 10
-56.1778733025
 20
20.0644847374
 30
0.0
 10
-56.2029893236
 20
20.0634973667
 30
0.0
 10
-56.2493537953
 20
20.0546768698
 30
0.0
 10
-56.3089460946
 20
20.0368381584
 30
0.0
 10
-56.3493136898
 20
20.0208768384
 30
0.0
 10
-56.3690386097
 20
20.0113628754
 30
0.0
 10
-56.3742912084
 20
20.0076968992
 30
0.0
  0
SPLINE
  5
3EA
100
AcDbEntity
  8
RACCORDO
100
AcDbSpline
 62
250
  6
CONTINUOUS
 70
0
 71
3
 72
11
 73
7
 74
0
 42
0.0000001
 43
0.0000001
 44
0.0000000001
 40
0.0
 40
0.0
 40
0.0
 40
0.0
 40
0.2517644127
 40
0.5024826975
 40
0.7517518153
 40
1.0
 40
1.0
 40
1.0
 40
1.0
 10
-56.1778733025
 20
20.7248490156
 30
0.0
 10
-56.2035790688
 20
20.7252908947
 30
0.0
 10
-56.2552509384
 20
20.7361470385
 30
0.0
 10
-56.3204765685
 20
20.7800666798
 30
0.0
 10
-56.3641539147
 20
20.8450696422
 30
0.0
 10
-56.3743828213
 20
20.8964300726
 30
0.0
 10
-56.3743828213
 20
20.921780568
 30
0.0
  0
SPLINE
  5
3EB
100
AcDbEntity
  8
RACCORDO
100
AcDbSpline
 62
250
  6
CONTINUOUS
 70
0
 71
3
 72
11
 73
7
 74
0
 42
0.0000001
 43
0.0000001
 44
0.0000000001
 40
0.0
 40
0.0
 40
0.0
 40
0.0
 40
0.2513036953
 40
0.5020867271
 40
0.7514039132
 40
1.0
 40
1.0
 40
1.0
 40
1.0
 10
-56.1778733025
 20
20.8107003333
 30
0.0
 10
-56.1993274528
 20
20.8110691277
 30
0.0
 10
-56.2423804556
 20
20.8187288476
 30
0.0
 10
-56.2997518323
 20
20.8497690909
 30
0.0
 10
-56.3442339878
 20
20.8971851786
 30
0.0
 10
-56.3621971194
 20
20.9367123155
 30
0.0
 10
-56.3676961488
 20
20.9572137645
 30
0.0
  0
SPLINE
  5
3EC
100
AcDbEntity
  8
ASSI
100
AcDbSpline
 62
250
  6
CONTINUOUS
 70
0
 71
3
 72
9
 73
5
 74
0
 42
0.0000001
 43
0.0000001
 44
0.0000000001
 40
0.0
 40
0.0
 40
0.0
 40
0.0
 40
0.5785051213
 40
1.0
 40
1.0
 40
1.0
 40
1.0
 10
-58.2670097408
 20
-23.0325715064
 30
0.0
 10
-58.3001381241
 20
-23.0342477591
 30
0.0
 10
-58.3572973404
 20
-23.0384827655
 30
0.0
 10
-58.414387015
 20
-23.0450934391
 30
0.0
 10
-58.4380517041
 20
-23.05
 30
0.0
  0
SPLINE
  5
3ED
100
AcDbEntity
  8
ASSI
100
AcDbSpline
 62
250
  6
CONTINUOUS
 70
0
 71
3
 72
9
 73
5
 74
0
 42
0.0000001
 43
0.0000001
 44
0.0000000001
 40
0.0
 40
0.0
 40
0.0
 40
0.0
 40
0.5846229846
 40
1.0
 40
1.0
 40
1.0
 40
1.0
 10
-58.2866501759
 20
-23.165235595
 30
0.0
 10
-58.3176140098
 20
-23.1542922668
 30
0.0
 10
-58.3709305342
 20
-23.1366846696
 30
0.0
 10
-58.4249682025
 20
-23.120916272
 30
0.0
 10
-58.4478469932
 20
-23.1163322957
 30
0.0
  0
SPLINE
  5
3EE
100
AcDbEntity
  8
ASSI
100
AcDbSpline
 62
250
  6
CONTINUOUS
 70
0
 71
3
 72
10
 73
6
 74
0
 42
0.0000001
 43
0.0000001
 44
0.0000000001
 40
0.0
 40
0.0
 40
0.0
 40
0.0
 40
0.6015569083
 40
0.8312559175
 40
1.0
 40
1.0
 40
1.0
 40
1.0
 10
-58.4137725408
 20
-23.2754741677
 30
0.0
 10
-58.4305032744
 20
-23.2581351062
 30
0.0
 10
-58.4541959827
 20
-23.2346598882
 30
0.0
 10
-58.4847257333
 20
-23.2087334256
 30
0.0
 10
-58.4976484164
 20
-23.1992818664
 30
0.0
 10
-58.5034617338
 20
-23.1958339719
 30
0.0
  0
SPLINE
  5
3EF
100
AcDbEntity
  8
ASSI
100
AcDbSpline
 62
250
  6
CONTINUOUS
 70
0
 71
3
 72
14
 73
10
 74
0
 42
0.0000001
 43
0.0000001
 44
0.0000000001
 40
0.0
 40
0.0
 40
0.0
 40
0.0
 40
0.3784622272
 40
0.5477800748
 40
0.6962124487
 40
0.8190808215
 40
0.9125685064
 40
0.9734460486
 40
1.0
 40
1.0
 40
1.0
 40
1.0
 10
-58.8774558561
 20
-23.4321858066
 30
0.0
 10
-58.8774087375
 20
-23.4091678779
 30
0.0
 10
-58.8772470893
 20
-23.3758502188
 30
0.0
 10
-58.8767749245
 20
-23.3335136413
 30
0.0
 10
-58.8763865155
 20
-23.3067078103
 30
0.0
 10
-58.8758178763
 20
-23.2845565652
 30
0.0
 10
-58.8754900173
 20
-23.2676292158
 30
0.0
 10
-58.8745577323
 20
-23.2567836625
 30
0.0
 10
-58.8745838815
 20
-23.2513037571
 30
0.0
 10
-58.8739769164
 20
-23.2498071498
 30
0.0
  0
SPLINE
  5
3F0
100
AcDbEntity
  8
ASSI
100
AcDbSpline
 62
250
  6
CONTINUOUS
 70
0
 71
3
 72
9
 73
5
 74
0
 42
0.0000001
 43
0.0000001
 44
0.0000000001
 40
0.0
 40
0.0
 40
0.0
 40
0.0
 40
0.572417129
 40
1.0
 40
1.0
 40
1.0
 40
1.0
 10
-59.4763866982
 20
-23.0325715079
 30
0.0
 10
-59.4429539915
 20
-23.0342634223
 30
0.0
 10
-59.3846431962
 20
-23.0385392528
 30
0.0
 10
-59.3264341013
 20
-23.0452086005
 30
0.0
 10
-59.3018920131
 20
-23.050000082
 30
0.0
  0
SPLINE
  5
3F1
100
AcDbEntity
  8
RACCORDO
100
AcDbSpline
 62
250
  6
CONTINUOUS
 70
0
 71
3
 72
9
 73
5
 74
0
 42
0.0000001
 43
0.0000001
 44
0.0000000001
 40
0.0
 40
0.0
 40
0.0
 40
0.0
 40
0.4647121877
 40
1.0
 40
1.0
 40
1.0
 40
1.0
 10
-56.3743828213
 20
-20.0222746104
 30
0.0
 10
-56.3743828213
 20
-20.0005665652
 30
0.0
 10
-56.3911823421
 20
-19.9533819246
 30
0.0
 10
-56.4291516266
 20
-19.9230792291
 30
0.0
 10
-56.4510247778
 20
-19.9109628321
 30
0.0
  0
SPLINE
  5
3F2
100
AcDbEntity
  8
RACCORDO
100
AcDbSpline
 62
250
  6
CONTINUOUS
 70
0
 71
3
 72
9
 73
5
 74
0
 42
0.0000001
 43
0.0000001
 44
0.0000000001
 40
0.0
 40
0.0
 40
0.0
 40
0.0
 40
0.2394527801
 40
1.0
 40
1.0
 40
1.0
 40
1.0
 10
-56.4510247778
 20
-19.9109628321
 30
0.0
 10
-56.459703374
 20
-19.906155417
 30
0.0
 10
-56.4973652405
 20
-19.8886791863
 30
0.0
 10
-56.5393832863
 20
-19.8812636968
 30
0.0
 10
-56.57089234
 20
-19.8808747933
 30
0.0
  0
SPLINE
  5
3F3
100
AcDbEntity
  8
RACCORDO
100
AcDbSpline
 62
250
  6
CONTINUOUS
 70
0
 71
3
 72
11
 73
7
 74
0
 42
0.0000001
 43
0.0000001
 44
0.0000000001
 40
0.0
 40
0.0
 40
0.0
 40
0.0
 40
0.2098089857
 40
0.4448941195
 40
0.7119368251
 40
1.0
 40
1.0
 40
1.0
 40
1.0
 10
-56.3743828213
 20
-21.0418956334
 30
0.0
 10
-56.3743828213
 20
-21.0233657982
 30
0.0
 10
-56.3862462526
 20
-20.9836052002
 30
0.0
 10
-56.4318920251
 20
-20.9377844006
 30
0.0
 10
-56.4962032823
 20
-20.9079782385
 30
0.0
 10
-56.5454532168
 20
-20.9008098011
 30
0.0
 10
-56.57089234
 20
-20.9004958163
 30
0.0
  0
SPLINE
  5
3F4
100
AcDbEntity
  8
ASSI
100
AcDbSpline
 62
250
  6
CONTINUOUS
 70
0
 71
3
 72
9
 73
5
 74
0
 42
0.0000001
 43
0.0000001
 44
0.0000000001
 40
0.0
 40
0.0
 40
0.0
 40
0.0
 40
0.5724164589
 40
1.0
 40
1.0
 40
1.0
 40
1.0
 10
-59.476386764
 20
23.0325715036
 30
0.0
 10
-59.4429541662
 20
23.0342634128
 30
0.0
 10
-59.3846434911
 20
23.0385392263
 30
0.0
 10
-59.3264345197
 20
23.0452085526
 30
0.0
 10
-59.3018924379
 20
23.0499999993
 30
0.0
  0
SPLINE
  5
3F5
100
AcDbEntity
  8
ASSI
100
AcDbSpline
 62
250
  6
CONTINUOUS
 70
0
 71
3
 72
14
 73
10
 74
0
 42
0.0000001
 43
0.0000001
 44
0.0000000001
 40
0.0
 40
0.0
 40
0.0
 40
0.0
 40
0.3784648652
 40
0.5477839252
 40
0.6962172758
 40
0.8190862497
 40
0.9125739653
 40
0.9734504857
 40
1.0
 40
1.0
 40
1.0
 40
1.0
 10
-58.8774558532
 20
23.4321858061
 30
0.0
 10
-58.8774040017
 20
23.4091678666
 30
0.0
 10
-58.8772370072
 20
23.3758502497
 30
0.0
 10
-58.876760896
 20
23.3335135887
 30
0.0
 10
-58.8763711086
 20
23.3067079904
 30
0.0
 10
-58.8758039609
 20
23.2845561521
 30
0.0
 10
-58.875476792
 20
23.267630387
 30
0.0
 10
-58.8745516772
 20
23.2567820591
 30
0.0
 10
-58.8745776903
 20
23.2513059512
 30
0.0
 10
-58.8739769147
 20
23.2498071499
 30
0.0
  0
SPLINE
  5
3F6
100
AcDbEntity
  8
ASSI
100
AcDbSpline
 62
250
  6
CONTINUOUS
 70
0
 71
3
 72
10
 73
6
 74
0
 42
0.0000001
 43
0.0000001
 44
0.0000000001
 40
0.0
 40
0.0
 40
0.0
 40
0.0
 40
0.6015639174
 40
0.8312609572
 40
1.0
 40
1.0
 40
1.0
 40
1.0
 10
-58.4138074222
 20
23.2754951765
 30
0.0
 10
-58.4305349024
 20
23.2581549323
 30
0.0
 10
-58.4542229087
 20
23.2346780252
 30
0.0
 10
-58.4847467188
 20
23.2087489081
 30
0.0
 10
-58.4976667958
 20
23.199296179
 30
0.0
 10
-58.503478972
 20
23.1958476847
 30
0.0
  0
SPLINE
  5
3F7
100
AcDbEntity
  8
ASSI
100
AcDbSpline
 62
250
  6
CONTINUOUS
 70
0
 71
3
 72
9
 73
5
 74
0
 42
0.0000001
 43
0.0000001
 44
0.0000000001
 40
0.0
 40
0.0
 40
0.0
 40
0.0
 40
0.5846224388
 40
1.0
 40
1.0
 40
1.0
 40
1.0
 10
-58.2866481924
 20
23.1652324524
 30
0.0
 10
-58.3176122099
 20
23.1542891406
 30
0.0
 10
-58.3709291982
 20
23.1366818915
 30
0.0
 10
-58.4249674769
 20
23.1209142162
 30
0.0
 10
-58.4478465808
 20
23.1163309295
 30
0.0
  0
SPLINE
  5
3F8
100
AcDbEntity
  8
ASSI
100
AcDbSpline
 62
250
  6
CONTINUOUS
 70
0
 71
3
 72
9
 73
5
 74
0
 42
0.0000001
 43
0.0000001
 44
0.0000000001
 40
0.0
 40
0.0
 40
0.0
 40
0.0
 40
0.5785051878
 40
1.0
 40
1.0
 40
1.0
 40
1.0
 10
-58.2670097403
 20
23.0325715031
 30
0.0
 10
-58.3001381288
 20
23.0342477485
 30
0.0
 10
-58.357297347
 20
23.0384827498
 30
0.0
 10
-58.4143870235
 20
23.04509343
 30
0.0
 10
-58.4380517076
 20
23.0499999993
 30
0.0
  0
SPLINE
  5
3F9
100
AcDbEntity
  8
ASSI
100
AcDbSpline
 62
250
  6
CONTINUOUS
 70
0
 71
3
 72
9
 73
5
 74
0
 42
0.0000001
 43
0.0000001
 44
0.0000000001
 40
0.0
 40
0.0
 40
0.0
 40
0.0
 40
0.5899648736
 40
1.0
 40
1.0
 40
1.0
 40
1.0
 10
-56.0106874963
 20
23.0674284741
 30
0.0
 10
-55.9740802718
 20
23.066009191
 30
0.0
 10
-55.91213851
 20
23.0621221915
 30
0.0
 10
-55.8502497354
 20
23.0551400933
 30
0.0
 10
-55.8253649682
 20
23.049750478
 30
0.0
  0
SPLINE
  5
3FA
100
AcDbEntity
  8
ASSI
100
AcDbSpline
 62
250
  6
CONTINUOUS
 70
0
 71
3
 72
10
 73
6
 74
0
 42
0.0000001
 43
0.0000001
 44
0.0000000001
 40
0.0
 40
0.0
 40
0.0
 40
0.0
 40
0.5880005911
 40
0.8258318557
 40
1.0
 40
1.0
 40
1.0
 40
1.0
 10
-56.0092479751
 20
23.0325715253
 30
0.0
 10
-55.9731560169
 20
23.034004911
 30
0.0
 10
-55.9224746431
 20
23.0370410482
 30
0.0
 10
-55.8614133447
 20
23.0437207366
 30
0.0
 10
-55.8363663784
 20
23.0475808797
 30
0.0
 10
-55.8259168566
 20
23.0498779065
 30
0.0
  0
SPLINE
  5
3FB
100
AcDbEntity
  8
ASSI
100
AcDbSpline
 62
250
  6
CONTINUOUS
 70
0
 71
3
 72
10
 73
6
 74
0
 42
0.0000001
 43
0.0000001
 44
0.0000000001
 40
0.0
 40
0.0
 40
0.0
 40
0.0
 40
0.1680002337
 40
0.4038140898
 40
1.0
 40
1.0
 40
1.0
 40
1.0
 10
-54.9161136465
 20
23.0499999996
 30
0.0
 10
-54.906268323
 20
23.0476321009
 30
0.0
 10
-54.8821948123
 20
23.0437525349
 30
0.0
 10
-54.8223109387
 20
23.0369850926
 30
0.0
 10
-54.772202764
 20
23.0339973293
 30
0.0
 10
-54.7362964598
 20
23.0325715055
 30
0.0
  0
SPLINE
  5
3FC
100
AcDbEntity
  8
ASSI
100
AcDbSpline
 62
250
  6
CONTINUOUS
 70
0
 71
3
 72
9
 73
5
 74
0
 42
0.0000001
 43
0.0000001
 44
0.0000000001
 40
0.0
 40
0.0
 40
0.0
 40
0.0
 40
0.4029278069
 40
1.0
 40
1.0
 40
1.0
 40
1.0
 10
-54.9161137919
 20
23.0497477123
 30
0.0
 10
-54.8922911695
 20
23.0553144442
 30
0.0
 10
-54.8317277096
 20
23.0621568162
 30
0.0
 10
-54.771189192
 20
23.0660239594
 30
0.0
 10
-54.7349642588
 20
23.067428522
 30
0.0
  0
SPLINE
  5
3FD
100
AcDbEntity
  8
RACCORDO
100
AcDbSpline
 62
250
  6
CONTINUOUS
 70
0
 71
3
 72
11
 73
7
 74
0
 42
0.0000001
 43
0.0000001
 44
0.0000000001
 40
0.0
 40
0.0
 40
0.0
 40
0.0
 40
0.2161885832
 40
0.4533618347
 40
0.7176331181
 40
1.0
 40
1.0
 40
1.0
 40
1.0
 10
-56.3743828213
 20
-21.0418956334
 30
0.0
 10
-56.3743828213
 20
-21.0614006226
 30
0.0
 10
-56.3859088639
 20
-21.1028219046
 30
0.0
 10
-56.4313175979
 20
-21.1515318642
 30
0.0
 10
-56.4958574086
 20
-21.1833100935
 30
0.0
 10
-56.5454187713
 20
-21.1909656828
 30
0.0
 10
-56.57089234
 20
-21.1912978865
 30
0.0
  0
SPLINE
  5
3FE
100
AcDbEntity
  8
RACCORDO
100
AcDbSpline
 62
250
  6
CONTINUOUS
 70
0
 71
3
 72
11
 73
7
 74
0
 42
0.0000001
 43
0.0000001
 44
0.0000000001
 40
0.0
 40
0.0
 40
0.0
 40
0.0
 40
0.2170006593
 40
0.4544720738
 40
0.7184114467
 40
1.0
 40
1.0
 40
1.0
 40
1.0
 10
-56.3743828213
 20
-21.1953295888
 30
0.0
 10
-56.3743828213
 20
-21.2149647901
 30
0.0
 10
-56.3858685931
 20
-21.256607513
 30
0.0
 10
-56.43122858
 20
-21.3057240774
 30
0.0
 10
-56.4958109231
 20
-21.3377587227
 30
0.0
 10
-56.5454151319
 20
-21.3454865826
 30
0.0
 10
-56.57089234
 20
-21.345821258
 30
0.0
  0
SPLINE
  5
3FF
100
AcDbEntity
  8
ASSI
100
AcDbSpline
 62
250
  6
CONTINUOUS
 70
0
 71
3
 72
10
 73
6
 74
0
 42
0.0000001
 43
0.0000001
 44
0.0000000001
 40
0.0
 40
0.0
 40
0.0
 40
0.0
 40
0.1732323244
 40
0.4108914565
 40
1.0
 40
1.0
 40
1.0
 40
1.0
 10
-55.8253650811
 20
-23.05
 30
0.0
 10
-55.8357838509
 20
-23.0476790893
 30
0.0
 10
-55.8608382266
 20
-23.0437947834
 30
0.0
 10
-55.9220822874
 20
-23.0370620542
 30
0.0
 10
-55.9729776501
 20
-23.034011984
 30
0.0
 10
-56.0092484638
 20
-23.032571506
 30
0.0
  0
SPLINE
  5
400
100
AcDbEntity
  8
ASSI
100
AcDbSpline
 62
250
  6
CONTINUOUS
 70
0
 71
3
 72
9
 73
5
 74
0
 42
0.0000001
 43
0.0000001
 44
0.0000000001
 40
0.0
 40
0.0
 40
0.0
 40
0.0
 40
0.4100360573
 40
1.0
 40
1.0
 40
1.0
 40
1.0
 10
-55.8253650249
 20
-23.0497474212
 30
0.0
 10
-55.8502499449
 20
-23.0551369471
 30
0.0
 10
-55.9121381858
 20
-23.0621239626
 30
0.0
 10
-55.9740803982
 20
-23.0660093103
 30
0.0
 10
-56.0106876715
 20
-23.0674285394
 30
0.0
  0
SPLINE
  5
401
100
AcDbEntity
  8
ASSI
100
AcDbSpline
 62
250
  6
CONTINUOUS
 70
0
 71
3
 72
9
 73
5
 74
0
 42
0.0000001
 43
0.0000001
 44
0.0000000001
 40
0.0
 40
0.0
 40
0.0
 40
0.0
 40
0.5970730692
 40
1.0
 40
1.0
 40
1.0
 40
1.0
 10
-54.7349642557
 20
-23.0674285167
 30
0.0
 10
-54.7711891638
 20
-23.0660238439
 30
0.0
 10
-54.8317272724
 20
-23.0621550047
 30
0.0
 10
-54.8922913074
 20
-23.055317212
 30
0.0
 10
-54.916113789
 20
-23.0497503308
 30
0.0
  0
SPLINE
  5
402
100
AcDbEntity
  8
ASSI
100
AcDbSpline
 62
250
  6
CONTINUOUS
 70
0
 71
3
 72
10
 73
6
 74
0
 42
0.0000001
 43
0.0000001
 44
0.0000000001
 40
0.0
 40
0.0
 40
0.0
 40
0.0
 40
0.5950091114
 40
0.8310143351
 40
1.0
 40
1.0
 40
1.0
 40
1.0
 10
-54.7362970093
 20
-23.0325715281
 30
0.0
 10
-54.7720282363
 20
-23.0339904155
 30
0.0
 10
-54.8219301461
 20
-23.0369657156
 30
0.0
 10
-54.8816450765
 20
-23.0436788747
 30
0.0
 10
-54.9057199302
 20
-23.0475355119
 30
0.0
 10
-54.9156019761
 20
-23.0498778357
 30
0.0
  0
SPLINE
  5
403
100
AcDbEntity
  8
RACCORDO
100
AcDbSpline
 62
250
  6
CONTINUOUS
 70
0
 71
3
 72
11
 73
7
 74
0
 42
0.0000001
 43
0.0000001
 44
0.0000000001
 40
0.0
 40
0.0
 40
0.0
 40
0.0
 40
0.2170007454
 40
0.4544722079
 40
0.7184115266
 40
1.0
 40
1.0
 40
1.0
 40
1.0
 10
-56.3743828213
 20
21.1953295888
 30
0.0
 10
-56.3743828213
 20
21.2149647981
 30
0.0
 10
-56.3858686024
 20
21.2566075332
 30
0.0
 10
-56.4312286014
 20
21.3057240968
 30
0.0
 10
-56.4958109414
 20
21.3377587314
 30
0.0
 10
-56.5454151389
 20
21.3454865842
 30
0.0
 10
-56.57089234
 20
21.345821258
 30
0.0
  0
SPLINE
  5
404
100
AcDbEntity
  8
RACCORDO
100
AcDbSpline
 62
250
  6
CONTINUOUS
 70
0
 71
3
 72
11
 73
7
 74
0
 42
0.0000001
 43
0.0000001
 44
0.0000000001
 40
0.0
 40
0.0
 40
0.0
 40
0.0
 40
0.2161900119
 40
0.4533716331
 40
0.7176474508
 40
1.0
 40
1.0
 40
1.0
 40
1.0
 10
-56.3743828213
 20
21.0418956334
 30
0.0
 10
-56.3743828213
 20
21.0614007433
 30
0.0
 10
-56.3859088403
 20
21.1028231104
 30
0.0
 10
-56.4313199639
 20
21.1515327903
 30
0.0
 10
-56.4958595169
 20
21.1833108716
 30
0.0
 10
-56.545420075
 20
21.1909656998
 30
0.0
 10
-56.57089234
 20
21.1912978865
 30
0.0
  0
SPLINE
  5
405
100
AcDbEntity
  8
RACCORDO
100
AcDbSpline
 62
250
  6
CONTINUOUS
 70
0
 71
3
 72
11
 73
7
 74
0
 42
0.0000001
 43
0.0000001
 44
0.0000000001
 40
0.0
 40
0.0
 40
0.0
 40
0.0
 40
0.2098076059
 40
0.4448842161
 40
0.7119222372
 40
1.0
 40
1.0
 40
1.0
 40
1.0
 10
-56.3743828213
 20
21.0418956334
 30
0.0
 10
-56.3743828213
 20
21.0233659125
 30
0.0
 10
-56.3862462423
 20
20.9836063849
 30
0.0
 10
-56.4318896557
 20
20.9377852558
 30
0.0
 10
-56.4962011875
 20
20.9079789755
 30
0.0
 10
-56.5454519182
 20
20.9008098171
 30
0.0
 10
-56.57089234
 20
20.9004958163
 30
0.0
  0
SPLINE
  5
406
100
AcDbEntity
  8
RACCORDO
100
AcDbSpline
 62
250
  6
CONTINUOUS
 70
0
 71
3
 72
9
 73
5
 74
0
 42
0.0000001
 43
0.0000001
 44
0.0000000001
 40
0.0
 40
0.0
 40
0.0
 40
0.0
 40
0.4647121979
 40
1.0
 40
1.0
 40
1.0
 40
1.0
 10
-56.3743828213
 20
20.0222746104
 30
0.0
 10
-56.3743828213
 20
20.0005665703
 30
0.0
 10
-56.3911823334
 20
19.9533819414
 30
0.0
 10
-56.4291516026
 20
19.9230792473
 30
0.0
 10
-56.4510247457
 20
19.9109628497
 30
0.0
  0
SPLINE
  5
407
100
AcDbEntity
  8
RACCORDO
100
AcDbSpline
 62
250
  6
CONTINUOUS
 70
0
 71
3
 72
9
 73
5
 74
0
 42
0.0000001
 43
0.0000001
 44
0.0000000001
 40
0.0
 40
0.0
 40
0.0
 40
0.0
 40
0.2394527736
 40
1.0
 40
1.0
 40
1.0
 40
1.0
 10
-56.4510247457
 20
19.9109628497
 30
0.0
 10
-56.4597033433
 20
19.9061554318
 30
0.0
 10
-56.4973652183
 20
19.8886791905
 30
0.0
 10
-56.5393832769
 20
19.8812636968
 30
0.0
 10
-56.57089234
 20
19.8808747933
 30
0.0
  0
SPLINE
  5
408
100
AcDbEntity
  8
RACCORDO
100
AcDbSpline
 62
250
  6
CONTINUOUS
 70
0
 71
3
 72
18
 73
14
 74
0
 42
0.0000001
 43
0.0000001
 44
0.0000000001
 40
0.0
 40
0.0
 40
0.0
 40
0.0
 40
0.1948267881
 40
0.3825270192
 40
0.555286752
 40
0.7066996456
 40
0.8310406306
 40
0.8814646781
 40
0.9234317494
 40
0.9565182899
 40
0.980383548
 40
0.9948768486
 40
1.0
 40
1.0
 40
1.0
 40
1.0
 10
-56.1778732993
 20
-20.0644847375
 30
0.0
 10
-56.1775901955
 20
-20.0482469663
 30
0.0
 10
-56.1770883214
 20
-20.0163642031
 30
0.0
 10
-56.1765210158
 20
-19.9700812679
 30
0.0
 10
-56.1761636274
 20
-19.9274113824
 30
0.0
 10
-56.1760359695
 20
-19.8900333291
 30
0.0
 10
-56.176101804
 20
-19.8628223407
 30
0.0
 10
-56.1763171491
 20
-19.8447911661
 30
0.0
 10
-56.1764787549
 20
-19.8342595086
 30
0.0
 10
-56.1768047857
 20
-19.8262113918
 30
0.0
 10
-56.1768951115
 20
-19.8198164432
 30
0.0
 10
-56.1775380586
 20
-19.8169993768
 30
0.0
 10
-56.1774463154
 20
-19.8145302667
 30
0.0
 10
-56.1778733025
 20
-19.8145228137
 30
0.0
  0
SPLINE
  5
409
100
AcDbEntity
  8
RACCORDO
100
AcDbSpline
 62
250
  6
CONTINUOUS
 70
0
 71
3
 72
18
 73
14
 74
0
 42
0.0000001
 43
0.0000001
 44
0.0000000001
 40
0.0
 40
0.0
 40
0.0
 40
0.0
 40
0.1948266794
 40
0.3825268494
 40
0.555286504
 40
0.7066993025
 40
0.831040214
 40
0.8814642128
 40
0.9234312364
 40
0.9565177687
 40
0.9803830526
 40
0.9948764452
 40
1.0
 40
1.0
 40
1.0
 40
1.0
 10
-50.3412989949
 20
-20.1663625209
 30
0.0
 10
-50.34101565
 20
-20.1501247521
 30
0.0
 10
-50.340513362
 20
-20.1182419879
 30
0.0
 10
-50.3399456051
 20
-20.0719590473
 30
0.0
 10
-50.3395879437
 20
-20.0292891553
 30
0.0
 10
-50.339460193
 20
-19.9919110955
 30
0.0
 10
-50.3395261138
 20
-19.9647001115
 30
0.0
 10
-50.339741612
 20
-19.9466689324
 30
0.0
 10
-50.339903413
 20
-19.9361372972
 30
0.0
 10
-50.3402295382
 20
-19.9280891359
 30
0.0
 10
-50.3403203049
 20
-19.9216942899
 30
0.0
 10
-50.3409630911
 20
-19.9188770151
 30
0.0
 10
-50.3408719739
 20
-19.9164080517
 30
0.0
 10
-50.3412989949
 20
-19.9164005972
 30
0.0
  0
SPLINE
  5
40A
100
AcDbEntity
  8
RACCORDO
100
AcDbSpline
 62
250
  6
CONTINUOUS
 70
0
 71
3
 72
16
 73
12
 74
0
 42
0.0000001
 43
0.0000001
 44
0.0000000001
 40
0.0
 40
0.0
 40
0.0
 40
0.0
 40
0.0042267337
 40
0.0165831527
 40
0.0371017733
 40
0.0657474518
 40
0.1471238926
 40
0.2599551275
 40
0.4031331772
 40
0.575353802
 40
1.0
 40
1.0
 40
1.0
 40
1.0
 10
-56.57089234
 20
-19.8076626408
 30
0.0
 10
-56.5707891903
 20
-19.8076644027
 30
0.0
 10
-56.5708827764
 20
-19.8082949975
 30
0.0
 10
-56.5707033403
 20
-19.8089825706
 30
0.0
 10
-56.5707327964
 20
-19.8106055565
 30
0.0
 10
-56.5706305724
 20
-19.8137174817
 30
0.0
 10
-56.5706241466
 20
-19.8192112778
 30
0.0
 10
-56.5705946145
 20
-19.8274200931
 30
0.0
 10
-56.5706222506
 20
-19.8378820855
 30
0.0
 10
-56.5707004626
 20
-19.8559400248
 30
0.0
 10
-56.5708071829
 20
-19.8705098751
 30
0.0
 10
-56.5708923344
 20
-19.8808741491
 30
0.0
  0
SPLINE
  5
40B
100
AcDbEntity
  8
RACCORDO
100
AcDbSpline
 62
250
  6
CONTINUOUS
 70
0
 71
3
 72
18
 73
14
 74
0
 42
0.0000001
 43
0.0000001
 44
0.0000000001
 40
0.0
 40
0.0
 40
0.0
 40
0.0
 40
0.1948267881
 40
0.3825270192
 40
0.555286752
 40
0.7066996456
 40
0.8310406306
 40
0.8814646781
 40
0.9234317494
 40
0.9565182899
 40
0.980383548
 40
0.9948768486
 40
1.0
 40
1.0
 40
1.0
 40
1.0
 10
-56.1778732993
 20
20.0644847375
 30
0.0
 10
-56.1775901955
 20
20.0482469663
 30
0.0
 10
-56.1770883214
 20
20.0163642031
 30
0.0
 10
-56.1765210158
 20
19.9700812679
 30
0.0
 10
-56.1761636274
 20
19.9274113824
 30
0.0
 10
-56.1760359695
 20
19.8900333291
 30
0.0
 10
-56.1761018039
 20
19.8628223407
 30
0.0
 10
-56.1763171491
 20
19.8447911661
 30
0.0
 10
-56.1764787549
 20
19.8342595086
 30
0.0
 10
-56.1768047857
 20
19.8262113918
 30
0.0
 10
-56.1768951115
 20
19.8198164432
 30
0.0
 10
-56.1775380586
 20
19.8169993768
 30
0.0
 10
-56.1774463154
 20
19.8145302667
 30
0.0
 10
-56.1778733025
 20
19.8145228137
 30
0.0
  0
SPLINE
  5
40C
100
AcDbEntity
  8
RACCORDO
100
AcDbSpline
 62
250
  6
CONTINUOUS
 70
0
 71
3
 72
18
 73
14
 74
0
 42
0.0000001
 43
0.0000001
 44
0.0000000001
 40
0.0
 40
0.0
 40
0.0
 40
0.0
 40
0.00512353
 40
0.0196168687
 40
0.0434820999
 40
0.0765685656
 40
0.1185354771
 40
0.1689594013
 40
0.2933003163
 40
0.4447131434
 40
0.6174729026
 40
0.805173252
 40
1.0
 40
1.0
 40
1.0
 40
1.0
 10
-50.3412989949
 20
19.9164005972
 30
0.0
 10
-50.340871976
 20
19.9164080508
 30
0.0
 10
-50.3409630877
 20
19.9188770044
 30
0.0
 10
-50.3403203065
 20
19.9216942703
 30
0.0
 10
-50.3402295386
 20
19.9280891014
 30
0.0
 10
-50.3399034149
 20
19.9361372436
 30
0.0
 10
-50.3397416129
 20
19.9466688576
 30
0.0
 10
-50.3395261144
 20
19.9647000214
 30
0.0
 10
-50.3394601931
 20
19.9919110019
 30
0.0
 10
-50.3395879431
 20
20.0292890733
 30
0.0
 10
-50.3399456044
 20
20.0719589914
 30
0.0
 10
-50.3405133618
 20
20.1182419614
 30
0.0
 10
-50.3410156499
 20
20.1501247463
 30
0.0
 10
-50.3412989949
 20
20.1663625209
 30
0.0
  0
SPLINE
  5
40D
100
AcDbEntity
  8
RACCORDO
100
AcDbSpline
 62
250
  6
CONTINUOUS
 70
0
 71
3
 72
16
 73
12
 74
0
 42
0.0000001
 43
0.0000001
 44
0.0000000001
 40
0.0
 40
0.0
 40
0.0
 40
0.0
 40
0.4244190215
 40
0.5966080534
 40
0.739838103
 40
0.8527236954
 40
0.9341722883
 40
0.9628425561
 40
0.9833832822
 40
0.9957626589
 40
1.0
 40
1.0
 40
1.0
 40
1.0
 10
-56.5708923365
 20
19.8808743889
 30
0.0
 10
-56.5708074241
 20
19.8705156239
 30
0.0
 10
-56.5707005443
 20
19.8559520456
 30
0.0
 10
-56.570622222
 20
19.8378990901
 30
0.0
 10
-56.5705946109
 20
19.8274352391
 30
0.0
 10
-56.5706241662
 20
19.8192220465
 30
0.0
 10
-56.5706305336
 20
19.813724511
 30
0.0
 10
-56.5707327043
 20
19.81060973
 30
0.0
 10
-56.5707031351
 20
19.8089849011
 30
0.0
 10
-56.5708828358
 20
19.8082963664
 30
0.0
 10
-56.5707889307
 20
19.807664381
 30
0.0
 10
-56.57089234
 20
19.8076626408
 30
0.0
  0
SPLINE
  5
40E
100
AcDbEntity
  8
RACCORDO
100
AcDbSpline
 62
250
  6
CONTINUOUS
 70
0
 71
3
 72
9
 73
5
 74
0
 42
0.0000001
 43
0.0000001
 44
0.0000000001
 40
0.0
 40
0.0
 40
0.0
 40
0.0
 40
0.4937127433
 40
1.0
 40
1.0
 40
1.0
 40
1.0
 10
-56.57089234
 20
21.1912978865
 30
0.0
 10
-56.5695613606
 20
21.1434559541
 30
0.0
 10
-56.5690095811
 20
21.0465054656
 30
0.0
 10
-56.5696092391
 20
20.9495584555
 30
0.0
 10
-56.57089234
 20
20.9004958161
 30
0.0
  0
LINE
  5
40F
100
AcDbEntity
  8
RACCORDO
100
AcDbLine
 62
250
  6
CONTINUOUS
 10
-60.07089234
 20
21.1935360729
 30
0.0
 11
-56.57089234
 21
21.1912978865
 31
0.0
  0
SPLINE
  5
410
100
AcDbEntity
  8
RACCORDO
100
AcDbSpline
 62
250
  6
CONTINUOUS
 70
0
 71
3
 72
9
 73
5
 74
0
 42
0.0000001
 43
0.0000001
 44
0.0000000001
 40
0.0
 40
0.0
 40
0.0
 40
0.0
 40
0.506287226
 40
1.0
 40
1.0
 40
1.0
 40
1.0
 10
-56.57089234
 20
-20.9004958163
 30
0.0
 10
-56.5696092392
 20
-20.9495584527
 30
0.0
 10
-56.5690095811
 20
-21.0465054627
 30
0.0
 10
-56.5695613605
 20
-21.1434559511
 30
0.0
 10
-56.57089234
 20
-21.1912978865
 30
0.0
  0
LINE
  5
411
100
AcDbEntity
  8
RACCORDO
100
AcDbLine
 62
250
  6
CONTINUOUS
 10
-56.57089234
 20
-21.1912978865
 30
0.0
 11
-60.07089234
 21
-21.1935360729
 31
0.0
  0
SPLINE
  5
412
100
AcDbEntity
  8
ASSI
100
AcDbSpline
 62
250
  6
CONTINUOUS
 70
0
 71
3
 72
8
 73
4
 74
0
 42
0.0000001
 43
0.0000001
 44
0.0000000001
 40
0.0
 40
0.0
 40
0.0
 40
0.0
 40
1.0
 40
1.0
 40
1.0
 40
1.0
 10
-60.6083624974
 20
24.2393208298
 30
0.0
 10
-60.6475948056
 20
24.2576148248
 30
0.0
 10
-60.6918600531
 20
24.2674284487
 30
0.0
 10
-60.7351479759
 20
24.2674284937
 30
0.0
  0
SPLINE
  5
413
100
AcDbEntity
  8
ASSI
100
AcDbSpline
 62
250
  6
CONTINUOUS
 70
0
 71
3
 72
15
 73
11
 74
0
 42
0.0000001
 43
0.0000001
 44
0.0000000001
 40
0.0
 40
0.0
 40
0.0
 40
0.0
 40
0.1252646369
 40
0.2504888388
 40
0.3756167753
 40
0.5006320065
 40
0.6255585505
 40
0.7504013784
 40
0.8751965414
 40
1.0
 40
1.0
 40
1.0
 40
1.0
 10
-58.8774558532
 20
23.4321858061
 30
0.0
 10
-58.9116867477
 20
23.4321613136
 30
0.0
 10
-58.9801367159
 20
23.4318383208
 30
0.0
 10
-59.0827434992
 20
23.4263217431
 30
0.0
 10
-59.1841175554
 20
23.4080651967
 30
0.0
 10
-59.2804606142
 20
23.3707797102
 30
0.0
 10
-59.365397418
 20
23.3115308659
 30
0.0
 10
-59.4313503459
 20
23.2314307889
 30
0.0
 10
-59.4714985117
 20
23.1357285322
 30
0.0
 10
-59.4781702042
 20
23.0666292182
 30
0.0
 10
-59.4763867365
 20
23.0325710044
 30
0.0
  0
SPLINE
  5
414
100
AcDbEntity
  8
ASSI
100
AcDbSpline
 62
250
  6
CONTINUOUS
 70
0
 71
3
 72
8
 73
4
 74
0
 42
0.0000001
 43
0.0000001
 44
0.0000000001
 40
0.0
 40
0.0
 40
0.0
 40
0.0
 40
1.0
 40
1.0
 40
1.0
 40
1.0
 10
-58.2670097401
 20
23.0325715063
 30
0.0
 10
-58.2648023251
 20
23.0772193997
 30
0.0
 10
-58.271606578
 20
23.1231375461
 30
0.0
 10
-58.2866494637
 20
23.1652328981
 30
0.0
  0
LINE
  5
415
100
AcDbEntity
  8
ASSI
100
AcDbLine
 62
250
  6
CONTINUOUS
 10
-56.0106874969
 20
23.0674284937
 30
0.0
 11
-56.0092482197
 21
23.0325715162
 31
0.0
  0
LINE
  5
416
100
AcDbEntity
  8
ASSI
100
AcDbLine
 62
250
  6
CONTINUOUS
 10
-54.7362966318
 20
23.0325715126
 30
0.0
 11
-54.7349642601
 21
23.0674284937
 31
0.0
  0
LINE
  5
417
100
AcDbEntity
  8
ASSI
100
AcDbLine
 62
250
  6
CONTINUOUS
 10
-65.8743828213
 20
18.6360642888
 30
0.0
 11
-64.3743828213
 21
18.6286602576
 31
0.0
  0
LINE
  5
418
100
AcDbEntity
  8
ASSI
100
AcDbLine
 62
250
  6
CONTINUOUS
 10
-64.3743828213
 20
-18.6286602576
 30
0.0
 11
-65.8743828213
 21
-18.6360642888
 31
0.0
  0
LINE
  5
419
100
AcDbEntity
  8
ASSI
100
AcDbLine
 62
250
  6
CONTINUOUS
 10
-56.0092483821
 20
-23.0325715093
 30
0.0
 11
-56.0106876684
 21
-23.0674284937
 31
0.0
  0
SPLINE
  5
41A
100
AcDbEntity
  8
ASSI
100
AcDbSpline
 62
250
  6
CONTINUOUS
 70
0
 71
3
 72
8
 73
4
 74
0
 42
0.0000001
 43
0.0000001
 44
0.0000000001
 40
0.0
 40
0.0
 40
0.0
 40
0.0
 40
1.0
 40
1.0
 40
1.0
 40
1.0
 10
-58.2866501514
 20
-23.1652355766
 30
0.0
 10
-58.2716069331
 20
-23.12313937
 30
0.0
 10
-58.264802562
 20
-23.0772203293
 30
0.0
 10
-58.2670097409
 20
-23.0325715063
 30
0.0
  0
SPLINE
  5
41B
100
AcDbEntity
  8
ASSI
100
AcDbSpline
 62
250
  6
CONTINUOUS
 70
0
 71
3
 72
15
 73
11
 74
0
 42
0.0000001
 43
0.0000001
 44
0.0000000001
 40
0.0
 40
0.0
 40
0.0
 40
0.0
 40
0.1247951628
 40
0.2495679434
 40
0.3743724724
 40
0.4992630734
 40
0.6242815912
 40
0.7494361378
 40
0.8746973653
 40
1.0
 40
1.0
 40
1.0
 40
1.0
 10
-59.4763867386
 20
-23.0325710601
 30
0.0
 10
-59.4781705617
 20
-23.0666269843
 30
0.0
 10
-59.4715025014
 20
-23.1357183487
 30
0.0
 10
-59.4313613195
 20
-23.2314024218
 30
0.0
 10
-59.3654363193
 20
-23.311488901
 30
0.0
 10
-59.2805281711
 20
-23.3707440675
 30
0.0
 10
-59.1841927266
 20
-23.4080461208
 30
0.0
 10
-59.0828021294
 20
-23.4263168151
 30
0.0
 10
-58.9801675886
 20
-23.4318380582
 30
0.0
 10
-58.9116971302
 20
-23.4321611768
 30
0.0
 10
-58.877455853
 20
-23.432185806
 30
0.0
  0
SPLINE
  5
41C
100
AcDbEntity
  8
ASSI
100
AcDbSpline
 62
250
  6
CONTINUOUS
 70
0
 71
3
 72
8
 73
4
 74
0
 42
0.0000001
 43
0.0000001
 44
0.0000000001
 40
0.0
 40
0.0
 40
0.0
 40
0.0
 40
1.0
 40
1.0
 40
1.0
 40
1.0
 10
-60.7351479759
 20
-24.2674284937
 30
0.0
 10
-60.6918600531
 20
-24.2674281939
 30
0.0
 10
-60.6475946979
 20
-24.2576150558
 30
0.0
 10
-60.6083624974
 20
-24.2393208298
 30
0.0
  0
LINE
  5
41D
100
AcDbEntity
  8
RACCORDO
100
AcDbLine
 62
250
  6
CONTINUOUS
 10
-60.07089234
 20
17.5155374826
 30
0.0
 11
-65.8743828213
 21
17.5512208021
 31
0.0
  0
LINE
  5
41E
100
AcDbEntity
  8
RACCORDO
100
AcDbLine
 62
250
  6
CONTINUOUS
 10
-65.8743828213
 20
-17.5512208021
 30
0.0
 11
-60.07089234
 21
-17.5155374826
 31
0.0
  0
SPLINE
  5
41F
100
AcDbEntity
  8
ASSI
100
AcDbSpline
 62
250
  6
CONTINUOUS
 70
0
 71
3
 72
18
 73
14
 74
0
 42
0.0000001
 43
0.0000001
 44
0.0000000001
 40
0.0
 40
0.0
 40
0.0
 40
0.0
 40
0.0051217091
 40
0.0196114309
 40
0.0434744819
 40
0.0765604525
 40
0.1185254538
 40
0.1689480801
 40
0.2932884783
 40
0.4447009595
 40
0.6174641903
 40
0.8051709204
 40
1.0
 40
1.0
 40
1.0
 40
1.0
 10
-62.57089234
 20
-23.9423373592
 30
0.0
 10
-62.5705508462
 20
-23.9423313984
 30
0.0
 10
-62.5706234566
 20
-23.9403568808
 30
0.0
 10
-62.5701094618
 20
-23.9381033913
 30
0.0
 10
-62.5700367863
 20
-23.9329879914
 30
0.0
 10
-62.5697759543
 20
-23.9265497752
 30
0.0
 10
-62.5696464695
 20
-23.9181247336
 30
0.0
 10
-62.56947405
 20
-23.9037000489
 30
0.0
 10
-62.5694212908
 20
-23.8819314065
 30
0.0
 10
-62.5695234869
 20
-23.8520287724
 30
0.0
 10
-62.5698096084
 20
-23.8178922003
 30
0.0
 10
-62.5702638266
 20
-23.7808650081
 30
0.0
 10
-62.5706656612
 20
-23.7553581966
 30
0.0
 10
-62.57089234
 20
-23.7423678201
 30
0.0
  0
SPLINE
  5
420
100
AcDbEntity
  8
ASSI
100
AcDbSpline
 62
250
  6
CONTINUOUS
 70
0
 71
3
 72
18
 73
14
 74
0
 42
0.0000001
 43
0.0000001
 44
0.0000000001
 40
0.0
 40
0.0
 40
0.0
 40
0.0
 40
0.0050831383
 40
0.0195416792
 40
0.0433650103
 40
0.0764012371
 40
0.1183096747
 40
0.168673014
 40
0.2929025363
 40
0.4442422404
 40
0.6170123657
 40
0.8048559747
 40
1.0
 40
1.0
 40
1.0
 40
1.0
 10
-62.5059787926
 20
-23.1021029835
 30
0.0
 10
-62.5056620869
 20
-23.1022182549
 30
0.0
 10
-62.5064074131
 20
-23.1040437219
 30
0.0
 10
-62.5066426539
 20
-23.1063159402
 30
0.0
 10
-62.5082588408
 20
-23.1111369578
 30
0.0
 10
-62.5101050642
 20
-23.1172590023
 30
0.0
 10
-62.5127255164
 20
-23.1252058621
 30
0.0
 10
-62.5172486645
 20
-23.1388006923
 30
0.0
 10
-62.5242639863
 20
-23.1592594467
 30
0.0
 10
-62.5340565713
 20
-23.1873193664
 30
0.0
 10
-62.5453922339
 20
-23.2193176952
 30
0.0
 10
-62.5578232416
 20
-23.2540056918
 30
0.0
 10
-62.5664682066
 20
-23.2778825976
 30
0.0
 10
-62.57089234
 20
-23.2900415076
 30
0.0
  0
SPLINE
  5
421
100
AcDbEntity
  8
ASSI
100
AcDbSpline
 62
250
  6
CONTINUOUS
 70
0
 71
3
 72
18
 73
14
 74
0
 42
0.0000001
 43
0.0000001
 44
0.0000000001
 40
0.0
 40
0.0
 40
0.0
 40
0.0
 40
0.005096624
 40
0.0195778442
 40
0.0433982156
 40
0.0763978045
 40
0.1183440913
 40
0.1687633623
 40
0.2928812778
 40
0.4441967728
 40
0.6170655372
 40
0.805096271
 40
1.0
 40
1.0
 40
1.0
 40
1.0
 10
-62.9427868499
 20
-22.9431178525
 30
0.0
 10
-62.9424693046
 20
-22.9432334296
 30
0.0
 10
-62.9432194879
 20
-22.9450622903
 30
0.0
 10
-62.9434528556
 20
-22.9473360308
 30
0.0
 10
-62.9450694074
 20
-22.9521558556
 30
0.0
 10
-62.9469141048
 20
-22.9582782939
 30
0.0
 10
-62.9495362949
 20
-22.9662286475
 30
0.0
 10
-62.9540593518
 20
-22.9798221987
 30
0.0
 10
-62.961072115
 20
-23.0002761947
 30
0.0
 10
-62.9708647728
 20
-23.0283334226
 30
0.0
 10
-62.9822056381
 20
-23.0603482486
 30
0.0
 10
-62.994638401
 20
-23.0950387527
 30
0.0
 10
-63.0032817191
 20
-23.1189124592
 30
0.0
 10
-63.0077003973
 20
-23.1310563767
 30
0.0
  0
SPLINE
  5
422
100
AcDbEntity
  8
ASSI
100
AcDbSpline
 62
7
  6
CONTINUOUS
 70
0
 71
3
 72
11
 73
7
 74
0
 42
0.0000001
 43
0.0000001
 44
0.0000000001
 40
0.0
 40
0.0
 40
0.0
 40
0.0
 40
0.3020926224
 40
0.564192985
 40
0.7908570238
 40
1.0
 40
1.0
 40
1.0
 40
1.0
 10
-63.27089234
 20
-21.1892297568
 30
0.0
 10
-63.2417582693
 20
-21.1890029588
 30
0.0
 10
-63.1865232265
 20
-21.1994594137
 30
0.0
 10
-63.1213897007
 20
-21.2427372072
 30
0.0
 10
-63.082841683
 20
-21.2999420922
 30
0.0
 10
-63.0743828213
 20
-21.3423956664
 30
0.0
 10
-63.0743828213
 20
-21.3625662049
 30
0.0
  0
SPLINE
  5
423
100
AcDbEntity
  8
ASSI
100
AcDbSpline
 62
250
  6
CONTINUOUS
 70
0
 71
3
 72
18
 73
14
 74
0
 42
0.0000001
 43
0.0000001
 44
0.0000000001
 40
0.0
 40
0.0
 40
0.0
 40
0.0
 40
0.1948290796
 40
0.3825358097
 40
0.5552990405
 40
0.7067115217
 40
0.8310519199
 40
0.8814745462
 40
0.9234395475
 40
0.9565255181
 40
0.9803885691
 40
0.9948782909
 40
1.0
 40
1.0
 40
1.0
 40
1.0
 10
-62.57089234
 20
23.7423678201
 30
0.0
 10
-62.5706656612
 20
23.7553581966
 30
0.0
 10
-62.5702638266
 20
23.7808650081
 30
0.0
 10
-62.5698096084
 20
23.8178922003
 30
0.0
 10
-62.5695234869
 20
23.8520287724
 30
0.0
 10
-62.5694212908
 20
23.8819314065
 30
0.0
 10
-62.56947405
 20
23.9037000489
 30
0.0
 10
-62.5696464695
 20
23.9181247336
 30
0.0
 10
-62.5697759543
 20
23.9265497752
 30
0.0
 10
-62.5700367863
 20
23.9329879914
 30
0.0
 10
-62.5701094618
 20
23.9381033913
 30
0.0
 10
-62.5706234566
 20
23.9403568808
 30
0.0
 10
-62.5705508462
 20
23.9423313984
 30
0.0
 10
-62.57089234
 20
23.9423373592
 30
0.0
  0
SPLINE
  5
424
100
AcDbEntity
  8
ASSI
100
AcDbSpline
 62
250
  6
CONTINUOUS
 70
0
 71
3
 72
18
 73
14
 74
0
 42
0.0000001
 43
0.0000001
 44
0.0000000001
 40
0.0
 40
0.0
 40
0.0
 40
0.0
 40
0.1951440253
 40
0.3829876343
 40
0.5557577597
 40
0.7070974637
 40
0.831326986
 40
0.8816903253
 40
0.9235987629
 40
0.9566349897
 40
0.9804583208
 40
0.9949168617
 40
1.0
 40
1.0
 40
1.0
 40
1.0
 10
-62.57089234
 20
23.2900415076
 30
0.0
 10
-62.5664682066
 20
23.2778825976
 30
0.0
 10
-62.5578232416
 20
23.2540056918
 30
0.0
 10
-62.5453922339
 20
23.2193176952
 30
0.0
 10
-62.5340565713
 20
23.1873193664
 30
0.0
 10
-62.5242639863
 20
23.1592594467
 30
0.0
 10
-62.5172486645
 20
23.1388006923
 30
0.0
 10
-62.5127255164
 20
23.1252058621
 30
0.0
 10
-62.5101050642
 20
23.1172590023
 30
0.0
 10
-62.5082588408
 20
23.1111369578
 30
0.0
 10
-62.5066426539
 20
23.1063159402
 30
0.0
 10
-62.5064074131
 20
23.1040437219
 30
0.0
 10
-62.5056620869
 20
23.1022182549
 30
0.0
 10
-62.5059787926
 20
23.1021029835
 30
0.0
  0
SPLINE
  5
425
100
AcDbEntity
  8
ASSI
100
AcDbSpline
 62
250
  6
CONTINUOUS
 70
0
 71
3
 72
18
 73
14
 74
0
 42
0.0000001
 43
0.0000001
 44
0.0000000001
 40
0.0
 40
0.0
 40
0.0
 40
0.0
 40
0.194903729
 40
0.3829344628
 40
0.5558032272
 40
0.7071187222
 40
0.8312366377
 40
0.8816559087
 40
0.9236021955
 40
0.9566017844
 40
0.9804221558
 40
0.994903376
 40
1.0
 40
1.0
 40
1.0
 40
1.0
 10
-63.0077003973
 20
23.1310563767
 30
0.0
 10
-63.0032817191
 20
23.1189124592
 30
0.0
 10
-62.994638401
 20
23.0950387527
 30
0.0
 10
-62.9822056381
 20
23.0603482486
 30
0.0
 10
-62.9708647728
 20
23.0283334226
 30
0.0
 10
-62.961072115
 20
23.0002761947
 30
0.0
 10
-62.9540593518
 20
22.9798221987
 30
0.0
 10
-62.9495362949
 20
22.9662286475
 30
0.0
 10
-62.9469141048
 20
22.9582782939
 30
0.0
 10
-62.9450694074
 20
22.9521558556
 30
0.0
 10
-62.9434528556
 20
22.9473360308
 30
0.0
 10
-62.9432194879
 20
22.9450622903
 30
0.0
 10
-62.9424693046
 20
22.9432334296
 30
0.0
 10
-62.9427868499
 20
22.9431178525
 30
0.0
  0
SPLINE
  5
426
100
AcDbEntity
  8
ASSI
100
AcDbSpline
 62
7
  6
CONTINUOUS
 70
0
 71
3
 72
11
 73
7
 74
0
 42
0.0000001
 43
0.0000001
 44
0.0000000001
 40
0.0
 40
0.0
 40
0.0
 40
0.0
 40
0.2091473966
 40
0.4358128706
 40
0.6979031684
 40
1.0
 40
1.0
 40
1.0
 40
1.0
 10
-63.0743828213
 20
21.3625662049
 30
0.0
 10
-63.0743828213
 20
21.3423952328
 30
0.0
 10
-63.0828420406
 20
21.2999410024
 30
0.0
 10
-63.1213906645
 20
21.2427371567
 30
0.0
 10
-63.1865230028
 20
21.199458537
 30
0.0
 10
-63.2417578528
 20
21.1890029556
 30
0.0
 10
-63.27089234
 20
21.1892297568
 30
0.0
  0
LINE
  5
427
100
AcDbEntity
  8
RACCORDO
100
AcDbLine
 62
250
  6
CONTINUOUS
 10
-59.8743828213
 20
20.9028993364
 30
0.0
 11
-56.57089234
 21
20.9004958163
 31
0.0
  0
LINE
  5
428
100
AcDbEntity
  8
RACCORDO
100
AcDbLine
 62
250
  6
CONTINUOUS
 10
-56.57089234
 20
-20.9004958163
 30
0.0
 11
-59.8743828213
 21
-20.9028993364
 31
0.0
  0
LINE
  5
429
100
AcDbEntity
  8
RACCORDO
100
AcDbLine
 62
250
  6
CONTINUOUS
 10
-60.07089234
 20
17.8291076857
 30
0.0
 11
-65.8734843962
 21
17.864288679
 31
0.0
  0
LINE
  5
42A
100
AcDbEntity
  8
ASSI
100
AcDbLine
 62
250
  6
CONTINUOUS
 10
-54.7349642567
 20
-23.0674284937
 30
0.0
 11
-54.7362967349
 21
-23.0325715172
 31
0.0
  0
LINE
  5
42B
100
AcDbEntity
  8
ASSI
100
AcDbLine
 62
250
  6
CONTINUOUS
 10
-57.6865985754
 20
21.3655459497
 30
0.0
 11
-63.0743828213
 21
21.5597581835
 31
0.0
  0
LINE
  5
42C
100
AcDbEntity
  8
ASSI
100
AcDbLine
 62
250
  6
CONTINUOUS
 10
-57.6865985754
 20
-21.3655459497
 30
0.0
 11
-63.0743828213
 21
-21.5597581835
 31
0.0
  0
ELLIPSE
  5
42D
100
AcDbEntity
  8
0
100
AcDbEllipse
 62
7
  6
CONTINUOUS
 10
-21.8498286038
 20
-25.8998286038
 30
0.0
 11
0.35379574
 21
0.35379574
 31
0.0
 40
0.999315002
 41
2.3565371065
 42
3.9266482006
  0
ELLIPSE
  5
42E
100
AcDbEntity
  8
0
100
AcDbEllipse
 62
7
  6
CONTINUOUS
 10
21.8498286038
 20
-25.8998286038
 30
0.0
 11
0.35379574
 21
-0.35379574
 31
0.0
 40
0.999315002
 41
-0.7850555471
 42
0.7850555471
  0
ELLIPSE
  5
42F
100
AcDbEntity
  8
0
100
AcDbEllipse
 62
7
  6
CONTINUOUS
 10
21.8498286038
 20
25.8998286038
 30
0.0
 11
-0.35379574
 21
-0.35379574
 31
0.0
 40
0.999315002
 41
2.3565371065
 42
3.9266482006
  0
ELLIPSE
  5
430
100
AcDbEntity
  8
0
100
AcDbEllipse
 62
7
  6
CONTINUOUS
 10
-21.8498286038
 20
25.8998286038
 30
0.0
 11
0.35379574
 21
-0.35379574
 31
0.0
 40
0.999315002
 41
2.3565371065
 42
3.9266482006
  0
ELLIPSE
  5
431
100
AcDbEntity
  8
RACCORDO
100
AcDbEllipse
 62
7
  6
CONTINUOUS
 10
-208.0188744335
 20
-7.3025577421
 30
0.0
 11
591.6544903202
 21
21.9522363776
 31
0.0
 40
0.0348940885
 41
1.3247620398
 42
1.3264668066
  0
ELLIPSE
  5
432
100
AcDbEntity
  8
RACCORDO
100
AcDbEllipse
 62
7
  6
CONTINUOUS
 10
-208.0188744335
 20
7.3025577421
 30
0.0
 11
591.6544903202
 21
-21.9522363776
 31
0.0
 40
0.0348940885
 41
-1.3264668066
 42
-1.3247620398
  0
ELLIPSE
  5
433
100
AcDbEntity
  8
0
100
AcDbEllipse
 62
7
  6
CONTINUOUS
 10
-1415.5653537191
 20
-0.0
 30
0.0
 11
1491.5228640581
 21
0.0
 31
0.0
 40
0.0302453443
 41
6.7204492196
 42
6.7217244524
  0
ELLIPSE
  5
434
100
AcDbEntity
  8
0
100
AcDbEllipse
 62
7
  6
CONTINUOUS
 10
-1415.5653537191
 20
-0.0
 30
0.0
 11
1491.5228640581
 21
0.0
 31
0.0
 40
0.0302453443
 41
5.844646162
 42
5.8459213948
  0
ENDSEC
  0
SECTION
  2
OBJECTS
  0
DICTIONARY
  5
C
100
AcDbDictionary
280
0
281
1
  3
ACAD_GROUP
350
D
  3
ACAD_MLINESTYLE
350
17
  3
ACAD_LAYOUT
350
1A
  3
ACAD_PLOTSETTINGS
350
19
  3
ACAD_PLOTSTYLENAME
350
E
  0
DICTIONARY
  5
D
102
{ACAD_REACTORS
330
C
102
}
100
AcDbDictionary
280
0
281
1
  0
ACDBDICTIONARYWDFLT
  5
E
102
{ACAD_REACTORS
330
C
102
}
100
AcDbDictionary
281
1
  3
Normal
350
F
100
AcDbDictionaryWithDefault
340
F
  0
DICTIONARY
  5
17
102
{ACAD_REACTORS
330
C
102
}
100
AcDbDictionary
280
0
281
1
  3
Standard
350
18
  0
DICTIONARY
  5
19
102
{ACAD_REACTORS
330
C
102
}
100
AcDbDictionary
281
1
  0
DICTIONARY
  5
1A
102
{ACAD_REACTORS
330
C
102
}
100
AcDbDictionary
281
1
  3
Model
350
435
  3
Layout1
350
436
  0
ACDBPLACEHOLDER
  5
F
102
{ACAD_REACTORS
330
E
102
}
  0
MLINESTYLE
  5
18
102
{ACAD_REACTORS
330
17
102
}
100
AcDbMlineStyle
  2
STANDARD
 70
0
  3

 62
256
 51
90.0
 52
90.0
 71
2
 49
0.5
 62
256
  6
BYLAYER
 49
-0.5
 62
256
  6
BYLAYER
  0
LAYOUT
  5
435
102
{ACAD_REACTORS
330
1A
102
}
100
AcDbPlotSettings
  1

  2
none_device
  4
ISO_A4_(297.00_x_210.00_MM)
  6

 40
0.0
 41
0.0
 42
0.0
 43
0.0
 44
297.0
 45
210.0
 46
0.0
 47
0.0
 48
0.0
 49
0.0
140
0.0
141
0.0
142
1.0
143
1.0
 70
1024
 72
1
 73
0
 74
0
  7

 75
0
147
1.0
148
0.0
149
0.0
100
AcDbLayout
  1
Model
 70
0
 71
0
 10
0.0
 20
0.0
 11
297.0
 21
210.0
 12
0.0
 22
0.0
 32
0.0
 14
0.0
 24
0.0
 34
0.0
 15
0.0
 25
0.0
 35
0.0
146
0.0
 13
0.0
 23
0.0
 33
0.0
 16
1.0
 26
0.0
 36
0.0
 17
0.0
 27
1.0
 37
0.0
 76
0
330
211
345
0
346
0
  0
LAYOUT
  5
436
102
{ACAD_REACTORS
330
1A
102
}
100
AcDbPlotSettings
  1

  2
none_device
  4
ISO_A4_(297.00_x_210.00_MM)
  6

 40
0.0
 41
0.0
 42
0.0
 43
0.0
 44
297.0
 45
210.0
 46
0.0
 47
0.0
 48
0.0
 49
0.0
140
0.0
141
0.0
142
1.0
143
1.0
 70
0
 72
1
 73
0
 74
0
  7

 75
0
147
1.0
148
0.0
149
0.0
100
AcDbLayout
  1
Layout1
 70
0
 71
1
 10
0.0
 20
0.0
 11
297.0
 21
210.0
 12
0.0
 22
0.0
 32
0.0
 14
0.0
 24
0.0
 34
0.0
 15
0.0
 25
0.0
 35
0.0
146
0.0
 13
0.0
 23
0.0
 33
0.0
 16
1.0
 26
0.0
 36
0.0
 17
0.0
 27
1.0
 37
0.0
 76
0
330
212
345
0
346
0
  0
ENDSEC
  0
EOF
