  0
SECTION
  2
HEADER
  9
$ACADVER
  1
AC1024
  9
$DWGCODEPAGE
  3
ANSI_1252
  9
$EXTMAX
 10
297.0
 20
210.0
 30
0.0
  9
$EXTMIN
 10
0.0
 20
0.0
 30
0.0
  9
$LIMMIN
 10
0.0
 20
0.0
  9
$LIMMAX
 10
297.0
 20
210.0
  9
$VIEWCTR
 10
148.5
 20
105.0
  9
$VIEWSIZE
 40
210.0
  9
$CLAYER
  8
0
  9
$LTSCALE
 40
16.335
  9
$CELTYPE
  6
BYLAYER
  9
$DIMSCALE
 40
1.0
  9
$DIMASZ
 40
3.0
  9
$DIMEXO
 40
0.5
  9
$DIMDLI
 40
11.286
  9
$DIMEXE
 40
1.5
  9
$DIMCEN
 40
2.673
  9
$DIMLFAC
 40
1.0
  9
$DIMBLK
  1
_FILLED
  9
$DIMALT
 70
0
  9
$DIMALTF
 40
0.0393700787
  9
$DIMTXT
 40
3.0
  9
$DIMTOL
 70
1
  9
$DIMLIM
 70
0
  9
$DIMTFAC
 40
1.0
  9
$DIMTP
 40
0.01
  9
$DIMTM
 40
0.01
  9
$DIMGAP
 40
0.625
  9
$DIMDSEP
 70
44
  9
$AUNITS
 70
0
  9
$PDMODE
 70
3
  9
$PDSIZE
 40
3.0
  9
$HANDSEED
  5
6F8
  9
$TILEMODE
 70
1
  9
$MEASUREMENT
 70
1
  9
$INSUNITS
 70
4
  0
ENDSEC
  0
SECTION
  2
CLASSES
  0
CLASS
  1
ACDBDICTIONARYWDFLT
  2
AcDbDictionaryWithDefault
  3
AutoCAD 2000
 90
0
 91
1
280
0
281
0
  0
CLASS
  1
ACDBPLACEHOLDER
  2
AcDbPlaceHolder
  3
AutoCAD 2000
 90
0
 91
1
280
0
281
0
  0
CLASS
  1
LAYOUT
  2
AcDbLayout
  3
AutoCAD 2000
 90
0
 91
0
280
0
281
0
  0
ENDSEC
  0
SECTION
  2
TABLES
  0
TABLE
  2
VPORT
  5
8
100
AcDbSymbolTable
 70
2
  0
VPORT
  5
1F4
100
AcDbSymbolTableRecord
100
AcDbViewportTableRecord
  2
*ACTIVE
 70
0
 10
0.0
 20
0.0
 11
1.0
 21
1.0
 12
148.5
 22
105.0
 13
0.0
 23
0.0
 14
1.0
 24
1.0
 15
0.0
 25
0.0
 16
0.0
 26
0.0
 36
1.0
 17
0.0
 27
0.0
 37
0.0
 40
210.0
 41
1.4142857143
 42
50.0
 43
0.0
 44
0.0
 50
0.0
 51
0.0
 71
0
 72
100
 73
1
 74
1
 75
0
 76
0
 77
0
 78
0
  0
ENDTAB
  0
TABLE
  2
LTYPE
  5
5
100
AcDbSymbolTable
 70
6
  0
LTYPE
  5
14
100
AcDbSymbolTableRecord
100
AcDbLinetypeTableRecord
  2
BYBLOCK
 70
0
  3

 72
65
 73
0
 40
0.0
  0
LTYPE
  5
15
100
AcDbSymbolTableRecord
100
AcDbLinetypeTableRecord
  2
BYLAYER
 70
0
  3

 72
65
 73
0
 40
0.0
  0
LTYPE
  5
16
100
AcDbSymbolTableRecord
100
AcDbLinetypeTableRecord
  2
CONTINUOUS
 70
64
  3
Solid line
 72
65
 73
0
 40
0.0
  0
LTYPE
  5
1F5
100
AcDbSymbolTableRecord
100
AcDbLinetypeTableRecord
  2
CENTER
 70
64
  3
____ _ ____ _ ____ _ ____ _ ____ _ ____ _ ____
 72
65
 73
4
 40
0.6
 49
0.375
 74
0
 49
-0.075
 74
0
 49
0.075
 74
0
 49
-0.075
 74
0
  0
LTYPE
  5
1F6
100
AcDbSymbolTableRecord
100
AcDbLinetypeTableRecord
  2
HIDDEN
 70
64
  3
- - - - - - - - - - - - - - - - - - - -
 72
65
 73
2
 40
0.2
 49
0.1
 74
0
 49
-0.1
 74
0
  0
LTYPE
  5
1F7
100
AcDbSymbolTableRecord
100
AcDbLinetypeTableRecord
  2
PHANTOM
 70
64
  3
_____ _ _ _____ _ _ _____ _ _ _____
 72
65
 73
6
 40
0.8
 49
0.45
 74
0
 49
-0.05
 74
0
 49
0.1
 74
0
 49
-0.05
 74
0
 49
0.1
 74
0
 49
-0.05
 74
0
  0
LTYPE
  5
1F8
100
AcDbSymbolTableRecord
100
AcDbLinetypeTableRecord
  2
DOT
 70
64
  3
. . . . . . . . . . . . . . . . . . . .
 72
65
 73
2
 40
0.2
 49
0.1
 74
0
 49
-0.1
 74
0
  0
LTYPE
  5
1F9
100
AcDbSymbolTableRecord
100
AcDbLinetypeTableRecord
  2
DASHED
 70
64
  3
- - - - - - - - - - - - - - - - - - - -
 72
65
 73
2
 40
0.2
 49
0.1
 74
0
 49
-0.1
 74
0
  0
ENDTAB
  0
TABLE
  2
LAYER
  5
2
100
AcDbSymbolTable
 70
36
  0
LAYER
  5
10
100
AcDbSymbolTableRecord
100
AcDbLayerTableRecord
  2
0
 70
0
 62
7
  6
CONTINUOUS
370
-3
390
F
  0
LAYER
  5
1FA
100
AcDbSymbolTableRecord
100
AcDbLayerTableRecord
  2
DEFAULT_1
 70
0
 62
7
  6
CENTER
370
-3
390
F
  0
LAYER
  5
1FB
100
AcDbSymbolTableRecord
100
AcDbLayerTableRecord
  2
DEFAULT_2
 70
0
 62
7
  6
HIDDEN
370
-3
390
F
  0
LAYER
  5
1FC
100
AcDbSymbolTableRecord
100
AcDbLayerTableRecord
  2
DEFAULT_3
 70
0
 62
7
  6
PHANTOM
370
-3
390
F
  0
LAYER
  5
1FD
100
AcDbSymbolTableRecord
100
AcDbLayerTableRecord
  2
ASSI
 70
0
 62
7
  6
CONTINUOUS
370
-3
390
F
  0
LAYER
  5
1FE
100
AcDbSymbolTableRecord
100
AcDbLayerTableRecord
  2
COORDINATE
 70
0
 62
7
  6
CONTINUOUS
370
-3
390
F
  0
LAYER
  5
1FF
100
AcDbSymbolTableRecord
100
AcDbLayerTableRecord
  2
COORD_ORIGINE
 70
0
 62
7
  6
CONTINUOUS
370
-3
390
F
  0
LAYER
  5
200
100
AcDbSymbolTableRecord
100
AcDbLayerTableRecord
  2
COPY_PUBLISH
 70
0
 62
7
  6
CONTINUOUS
370
-3
390
F
  0
LAYER
  5
201
100
AcDbSymbolTableRecord
100
AcDbLayerTableRecord
  2
COSMETICHE
 70
0
 62
7
  6
CONTINUOUS
370
-3
390
F
  0
LAYER
  5
202
100
AcDbSymbolTableRecord
100
AcDbLayerTableRecord
  2
COSMETICI
 70
0
 62
7
  6
CONTINUOUS
370
-3
390
F
  0
LAYER
  5
203
100
AcDbSymbolTableRecord
100
AcDbLayerTableRecord
  2
CURVE
 70
0
 62
7
  6
CONTINUOUS
370
-3
390
F
  0
LAYER
  5
204
100
AcDbSymbolTableRecord
100
AcDbLayerTableRecord
  2
DRAFT
 70
0
 62
7
  6
CONTINUOUS
370
-3
390
F
  0
LAYER
  5
205
100
AcDbSymbolTableRecord
100
AcDbLayerTableRecord
  2
IMPORT_IGES
 70
0
 62
7
  6
CONTINUOUS
370
-3
390
F
  0
LAYER
  5
206
100
AcDbSymbolTableRecord
100
AcDbLayerTableRecord
  2
INTF_1
 70
0
 62
7
  6
CONTINUOUS
370
-3
390
F
  0
LAYER
  5
207
100
AcDbSymbolTableRecord
100
AcDbLayerTableRecord
  2
INTF_10
 70
0
 62
7
  6
CONTINUOUS
370
-3
390
F
  0
LAYER
  5
208
100
AcDbSymbolTableRecord
100
AcDbLayerTableRecord
  2
INTF_11
 70
0
 62
7
  6
CONTINUOUS
370
-3
390
F
  0
LAYER
  5
209
100
AcDbSymbolTableRecord
100
AcDbLayerTableRecord
  2
INTF_12
 70
0
 62
7
  6
CONTINUOUS
370
-3
390
F
  0
LAYER
  5
20A
100
AcDbSymbolTableRecord
100
AcDbLayerTableRecord
  2
INTF_13
 70
0
 62
7
  6
CONTINUOUS
370
-3
390
F
  0
LAYER
  5
20B
100
AcDbSymbolTableRecord
100
AcDbLayerTableRecord
  2
INTF_14
 70
0
 62
7
  6
CONTINUOUS
370
-3
390
F
  0
LAYER
  5
20C
100
AcDbSymbolTableRecord
100
AcDbLayerTableRecord
  2
INTF_2
 70
0
 62
7
  6
CONTINUOUS
370
-3
390
F
  0
LAYER
  5
20D
100
AcDbSymbolTableRecord
100
AcDbLayerTableRecord
  2
INTF_8
 70
0
 62
7
  6
CONTINUOUS
370
-3
390
F
  0
LAYER
  5
20E
100
AcDbSymbolTableRecord
100
AcDbLayerTableRecord
  2
INTF_9
 70
0
 62
7
  6
CONTINUOUS
370
-3
390
F
  0
LAYER
  5
20F
100
AcDbSymbolTableRecord
100
AcDbLayerTableRecord
  2
NOTE
 70
0
 62
7
  6
CONTINUOUS
370
-3
390
F
  0
LAYER
  5
210
100
AcDbSymbolTableRecord
100
AcDbLayerTableRecord
  2
PIANI
 70
0
 62
7
  6
CONTINUOUS
370
-3
390
F
  0
LAYER
  5
211
100
AcDbSymbolTableRecord
100
AcDbLayerTableRecord
  2
PIANI_ORIGINE
 70
0
 62
7
  6
CONTINUOUS
370
-3
390
F
  0
LAYER
  5
212
100
AcDbSymbolTableRecord
100
AcDbLayerTableRecord
  2
PUNTI
 70
0
 62
7
  6
CONTINUOUS
370
-3
390
F
  0
LAYER
  5
213
100
AcDbSymbolTableRecord
100
AcDbLayerTableRecord
  2
RACCORDO
 70
0
 62
7
  6
CONTINUOUS
370
-3
390
F
  0
LAYER
  5
214
100
AcDbSymbolTableRecord
100
AcDbLayerTableRecord
  2
RGB__255__255__255__
 70
0
 62
7
  6
CONTINUOUS
370
-3
390
F
  0
LAYER
  5
215
100
AcDbSymbolTableRecord
100
AcDbLayerTableRecord
  2
RGB____0____0____0__
 70
0
 62
7
  6
CONTINUOUS
370
-3
390
F
  0
LAYER
  5
216
100
AcDbSymbolTableRecord
100
AcDbLayerTableRecord
  2
SIMBOLI
 70
0
 62
7
  6
CONTINUOUS
370
-3
390
F
  0
LAYER
  5
217
100
AcDbSymbolTableRecord
100
AcDbLayerTableRecord
  2
SMUSSO
 70
0
 62
7
  6
CONTINUOUS
370
-3
390
F
  0
LAYER
  5
218
100
AcDbSymbolTableRecord
100
AcDbLayerTableRecord
  2
SNAPLINE
 70
0
 62
7
  6
CONTINUOUS
370
-3
390
F
  0
LAYER
  5
219
100
AcDbSymbolTableRecord
100
AcDbLayerTableRecord
  2
SUPERFICI
 70
0
 62
7
  6
CONTINUOUS
370
-3
390
F
  0
LAYER
  5
21A
100
AcDbSymbolTableRecord
100
AcDbLayerTableRecord
  2
TRASH
 70
0
 62
7
  6
CONTINUOUS
370
-3
390
F
  0
ENDTAB
  0
TABLE
  2
STYLE
  5
3
100
AcDbSymbolTable
 70
1
  0
STYLE
  5
11
100
AcDbSymbolTableRecord
100
AcDbTextStyleTableRecord
  2
STANDARD
 70
0
 40
0.0
 41
0.8
 50
0.0
 71
0
 42
0.2
  3
txt
  4

  0
STYLE
  5
21B
100
AcDbSymbolTableRecord
100
AcDbTextStyleTableRecord
  2
TEXTSTYLE_1
 70
0
 40
0.0
 41
0.8
 50
0.0
 71
0
 42
0.2
  3
gdt
  4

  0
ENDTAB
  0
TABLE
  2
VIEW
  5
6
100
AcDbSymbolTable
 70
0
  0
ENDTAB
  0
TABLE
  2
UCS
  5
7
100
AcDbSymbolTable
 70
0
  0
ENDTAB
  0
TABLE
  2
APPID
  5
9
100
AcDbSymbolTable
 70
1
  0
APPID
  5
21C
100
AcDbSymbolTableRecord
100
AcDbRegAppTableRecord
  2
ACAD
 70
0
  0
ENDTAB
  0
TABLE
  2
BLOCK_RECORD
  5
1
100
AcDbSymbolTable
 70
0
  0
BLOCK_RECORD
  5
21D
100
AcDbSymbolTableRecord
100
AcDbBlockTableRecord
  2
*Model_Space
  0
BLOCK_RECORD
  5
21E
100
AcDbSymbolTableRecord
100
AcDbBlockTableRecord
  2
*Paper_Space
  0
BLOCK_RECORD
  5
21F
100
AcDbSymbolTableRecord
100
AcDbBlockTableRecord
  2
_FILLED
  0
BLOCK_RECORD
  5
220
100
AcDbSymbolTableRecord
100
AcDbBlockTableRecord
  2
*D0
  0
BLOCK_RECORD
  5
221
100
AcDbSymbolTableRecord
100
AcDbBlockTableRecord
  2
*D1
  0
BLOCK_RECORD
  5
222
100
AcDbSymbolTableRecord
100
AcDbBlockTableRecord
  2
*D2
  0
BLOCK_RECORD
  5
223
100
AcDbSymbolTableRecord
100
AcDbBlockTableRecord
  2
*D3
  0
ENDTAB
  0
TABLE
  2
DIMSTYLE
  5
A
100
AcDbSymbolTable
 70
1
100
AcDbDimStyleTable
 71
0
  0
DIMSTYLE
105
224
100
AcDbSymbolTableRecord
100
AcDbDimStyleTableRecord
  2
STANDARD
 70
0
  3

  4

 40
1.0
 41
3.0
 42
0.5
 43
0.38
 44
1.5
 45
0.0
 46
0.0
 47
0.01
 48
0.01
140
3.0
141
0.09
142
0.0
143
25.4
144
1.0
145
0.0
146
1.0
147
0.625
 71
1
 72
0
 73
0
 74
0
 75
0
 76
0
 77
1
 78
8
 79
2
170
0
171
1
172
0
173
0
174
0
175
0
176
0
177
0
178
0
270
2
179
2
271
2
272
2
273
2
274
2
275
0
280
0
281
0
282
0
283
1
284
8
285
0
286
0
287
3
288
0
340
11
278
44
341
21F
342
21F
343
21F
344
21F
  0
DIMSTYLE
105
225
100
AcDbSymbolTableRecord
100
AcDbDimStyleTableRecord
  2
DIMSTYLE_1
 70
0
  3

  4

 40
1.0
 41
3.0
 42
0.5
 43
0.38
 44
1.5
 45
0.0
 46
0.0
 47
0.0
 48
0.0
140
3.0
141
0.09
142
0.0
143
25.4
144
1.0
145
0.0
146
1.0
147
0.75
 71
0
 72
0
 73
0
 74
0
 75
0
 76
0
 77
1
 78
8
 79
2
170
0
171
1
172
0
173
0
174
0
175
0
176
0
177
0
178
0
270
2
179
2
271
2
272
2
273
2
274
2
275
0
280
0
281
0
282
0
283
1
284
8
285
0
286
0
287
3
288
0
340
11
278
44
341
21F
342
21F
343
21F
344
21F
  0
ENDTAB
  0
ENDSEC
  0
SECTION
  2
BLOCKS
  0
BLOCK
  5
20
100
AcDbEntity
  8
0
100
AcDbBlockBegin
  2
*Model_Space
 70
0
 10
0.0
 20
0.0
 30
0.0
  3
*Model_Space
  1

  0
ENDBLK
  5
21
100
AcDbEntity
  8
0
100
AcDbBlockEnd
  0
BLOCK
  5
1C
100
AcDbEntity
  8
0
100
AcDbBlockBegin
  2
*Paper_Space
 70
0
 10
0.0
 20
0.0
 30
0.0
  3
*Paper_Space
  1

  0
ENDBLK
  5
1D
100
AcDbEntity
  8
0
100
AcDbBlockEnd
  0
BLOCK
  5
226
100
AcDbEntity
  8
0
100
AcDbBlockBegin
  2
_FILLED
 70
64
 10
0.0
 20
0.0
  3
_FILLED
  1

  0
SOLID
  5
227
100
AcDbEntity
  8
0
  6
BYBLOCK
 62
0
100
AcDbTrace
 10
0.0
 20
0.0
 11
-1.0
 21
0.3166666667
 12
-1.0
 22
-0.3166666667
 13
-1.0
 23
-0.3166666667
  0
ENDBLK
  5
228
100
AcDbEntity
  8
0
  6
BYBLOCK
 62
0
100
AcDbBlockEnd
  0
BLOCK
  5
229
100
AcDbEntity
  8
0
100
AcDbBlockBegin
 62
7
  6
CONTINUOUS
  2
*D0
 70
65
 10
0.0
 20
0.0
  3
*D0
  1

  0
LINE
  5
22A
100
AcDbEntity
  8
0
100
AcDbLine
 62
7
  6
CONTINUOUS
 10
14.9960655324
 20
26.3134150626
 11
14.9960655324
 21
35.8135864588
  0
LINE
  5
22B
100
AcDbEntity
  8
0
100
AcDbLine
 62
7
  6
CONTINUOUS
 10
37.0225529825
 20
26.3134150626
 11
37.0225529825
 21
35.8135864588
  0
LINE
  5
22C
100
AcDbEntity
  8
0
100
AcDbLine
 62
7
  6
CONTINUOUS
 10
14.9960655324
 20
34.3135864588
 11
26.0093092575
 21
34.3135864588
  0
LINE
  5
22D
100
AcDbEntity
  8
0
100
AcDbLine
 62
7
  6
CONTINUOUS
 10
37.0225529825
 20
34.3135864588
 11
26.0093092575
 21
34.3135864588
  0
INSERT
  5
22E
100
AcDbEntity
  8
0
100
AcDbBlockReference
 62
7
  6
CONTINUOUS
  2
_FILLED
 10
14.9960655324
 20
34.3135864588
 41
3.0
 42
3.0
 43
3.0
 50
180.0
  0
INSERT
  5
22F
100
AcDbEntity
  8
0
100
AcDbBlockReference
 62
7
  6
CONTINUOUS
  2
_FILLED
 10
37.0225529825
 20
34.3135864588
 41
3.0
 42
3.0
 43
3.0
  0
ENDBLK
  5
230
100
AcDbEntity
  8
0
  6
BYBLOCK
 62
0
100
AcDbBlockEnd
  0
BLOCK
  5
231
100
AcDbEntity
  8
0
100
AcDbBlockBegin
 62
7
  6
CONTINUOUS
  2
*D1
 70
65
 10
0.0
 20
0.0
  3
*D1
  1

  0
LINE
  5
232
100
AcDbEntity
  8
0
100
AcDbLine
 62
7
  6
CONTINUOUS
 10
37.0227243201
 20
26.3132437251
 11
55.5093092575
 21
26.3132437251
  0
LINE
  5
233
100
AcDbEntity
  8
0
100
AcDbLine
 62
7
  6
CONTINUOUS
 10
37.0227243201
 20
-26.3132437251
 11
55.5093092575
 21
-26.3132437251
  0
LINE
  5
234
100
AcDbEntity
  8
0
100
AcDbLine
 62
7
  6
CONTINUOUS
 10
54.0093092575
 20
26.3132437251
 11
54.0093092575
 21
0.0
  0
LINE
  5
235
100
AcDbEntity
  8
0
100
AcDbLine
 62
7
  6
CONTINUOUS
 10
54.0093092575
 20
-26.3132437251
 11
54.0093092575
 21
0.0
  0
INSERT
  5
236
100
AcDbEntity
  8
0
100
AcDbBlockReference
 62
7
  6
CONTINUOUS
  2
_FILLED
 10
54.0093092575
 20
26.3132437251
 41
3.0
 42
3.0
 43
3.0
 50
90.0
  0
INSERT
  5
237
100
AcDbEntity
  8
0
100
AcDbBlockReference
 62
7
  6
CONTINUOUS
  2
_FILLED
 10
54.0093092575
 20
-26.3132437251
 41
3.0
 42
3.0
 43
3.0
 50
270.0
  0
ENDBLK
  5
238
100
AcDbEntity
  8
0
  6
BYBLOCK
 62
0
100
AcDbBlockEnd
  0
BLOCK
  5
239
100
AcDbEntity
  8
0
100
AcDbBlockBegin
 62
7
  6
CONTINUOUS
  2
*D2
 70
65
 10
0.0
 20
0.0
  3
*D2
  1

  0
LINE
  5
23A
100
AcDbEntity
  8
0
100
AcDbLine
 62
7
  6
CONTINUOUS
 10
-49.2175814248
 20
4.8
 11
-49.2175814248
 21
35.8135864588
  0
LINE
  5
23B
100
AcDbEntity
  8
0
100
AcDbLine
 62
7
  6
CONTINUOUS
 10
-13.4175814248
 20
4.8
 11
-13.4175814248
 21
35.8135864588
  0
LINE
  5
23C
100
AcDbEntity
  8
0
100
AcDbLine
 62
7
  6
CONTINUOUS
 10
-49.2175814248
 20
34.3135864588
 11
-31.3175814248
 21
34.3135864588
  0
LINE
  5
23D
100
AcDbEntity
  8
0
100
AcDbLine
 62
7
  6
CONTINUOUS
 10
-13.4175814248
 20
34.3135864588
 11
-31.3175814248
 21
34.3135864588
  0
INSERT
  5
23E
100
AcDbEntity
  8
0
100
AcDbBlockReference
 62
7
  6
CONTINUOUS
  2
_FILLED
 10
-49.2175814248
 20
34.3135864588
 41
3.0
 42
3.0
 43
3.0
 50
180.0
  0
INSERT
  5
23F
100
AcDbEntity
  8
0
100
AcDbBlockReference
 62
7
  6
CONTINUOUS
  2
_FILLED
 10
-13.4175814248
 20
34.3135864588
 41
3.0
 42
3.0
 43
3.0
  0
ENDBLK
  5
240
100
AcDbEntity
  8
0
  6
BYBLOCK
 62
0
100
AcDbBlockEnd
  0
BLOCK
  5
241
100
AcDbEntity
  8
0
100
AcDbBlockBegin
 62
7
  6
CONTINUOUS
  2
*D3
 70
65
 10
0.0
 20
0.0
  3
*D3
  1

  0
LINE
  5
242
100
AcDbEntity
  8
0
100
AcDbLine
 62
7
  6
CONTINUOUS
 10
-54.9175814248
 20
26.3134150626
 11
-54.9175814248
 21
45.8135864588
  0
LINE
  5
243
100
AcDbEntity
  8
0
100
AcDbLine
 62
7
  6
CONTINUOUS
 10
-13.4175814248
 20
3.0588683901
 11
-13.4175814248
 21
45.8135864588
  0
LINE
  5
244
100
AcDbEntity
  8
0
100
AcDbLine
 62
7
  6
CONTINUOUS
 10
-54.9175814248
 20
44.3135864588
 11
-34.1675814248
 21
44.3135864588
  0
LINE
  5
245
100
AcDbEntity
  8
0
100
AcDbLine
 62
7
  6
CONTINUOUS
 10
-13.4175814248
 20
44.3135864588
 11
-34.1675814248
 21
44.3135864588
  0
INSERT
  5
246
100
AcDbEntity
  8
0
100
AcDbBlockReference
 62
7
  6
CONTINUOUS
  2
_FILLED
 10
-54.9175814248
 20
44.3135864588
 41
3.0
 42
3.0
 43
3.0
 50
180.0
  0
INSERT
  5
247
100
AcDbEntity
  8
0
100
AcDbBlockReference
 62
7
  6
CONTINUOUS
  2
_FILLED
 10
-13.4175814248
 20
44.3135864588
 41
3.0
 42
3.0
 43
3.0
  0
ENDBLK
  5
248
100
AcDbEntity
  8
0
  6
BYBLOCK
 62
0
100
AcDbBlockEnd
  0
ENDSEC
  0
SECTION
  2
ENTITIES
  0
DIMENSION
  5
249
100
AcDbEntity
  8
0
100
AcDbDimension
 62
7
  6
CONTINUOUS
  2
*D0
 10
37.0225529825
 20
34.3135864588
 11
20.5450235432
 21
34.3135864588
 70
160
 71
2
 72
2
 41
0.9
 42
22.0264874501
  3
DIMSTYLE_1
100
AcDbAlignedDimension
 13
14.9960655324
 23
25.8134150626
 14
37.0225529825
 24
25.8134150626
100
AcDbRotatedDimension
  0
DIMENSION
  5
24A
100
AcDbEntity
  8
0
100
AcDbDimension
 62
7
  6
CONTINUOUS
  2
*D1
 10
54.0093092575
 20
-26.3132437251
 11
54.0093092575
 21
-5.3571428571
 70
160
 71
2
 72
2
 41
0.9
 42
52.6264874501
  3
DIMSTYLE_1
100
AcDbAlignedDimension
 13
36.5227243201
 23
26.3132437251
 14
36.5227243201
 24
-26.3132437251
 50
270.0
100
AcDbRotatedDimension
  0
DIMENSION
  5
24B
100
AcDbEntity
  8
0
100
AcDbDimension
 62
7
  6
CONTINUOUS
  2
*D2
 10
-13.4175814248
 20
34.3135864588
 11
-35.4961528533
 21
34.3135864588
 70
160
 71
2
 72
2
 41
0.9
 42
35.8
  3
DIMSTYLE_1
100
AcDbAlignedDimension
 13
-49.2175814248
 23
4.3
 14
-13.4175814248
 24
4.3
100
AcDbRotatedDimension
  0
DIMENSION
  5
24C
100
AcDbEntity
  8
0
100
AcDbDimension
 62
7
  6
CONTINUOUS
  2
*D3
 10
-13.4175814248
 20
44.3135864588
 11
-38.1318671391
 21
44.3135864588
 70
160
 71
2
 72
2
 41
0.9
 42
41.5
  3
DIMSTYLE_1
100
AcDbAlignedDimension
 13
-54.9175814248
 23
25.8134150626
 14
-13.4175814248
 24
2.5588683901
100
AcDbRotatedDimension
  0
LWPOLYLINE
  5
24D
100
AcDbEntity
  8
0
100
AcDbPolyline
 62
7
  6
CONTINUOUS
 90
5
 70
0
 43
0.3500000006
 10
30.1878796921
 20
36.7778727722
 10
30.5450242767
 20
36.9921572571
 10
30.5450242767
 20
37.6350152435
 10
30.1878796921
 20
38.0635842133
 10
29.3307372208
 20
38.0635842133
  0
LWPOLYLINE
  5
24E
100
AcDbEntity
  8
RACCORDO
100
AcDbPolyline
 62
250
  6
CONTINUOUS
 90
16
 70
0
 10
36.5227243201
 20
-26.3132437251
 10
36.5749479463
 20
-26.3104722122
 10
36.6265998982
 20
-26.3022595831
 10
36.6771147595
 20
-26.2886957386
 10
36.725939561
 20
-26.2699291574
 10
36.7725398341
 20
-26.246165271
 10
36.8164054612
 20
-26.2176642148
 10
36.8570562601
 20
-26.1847379802
 10
36.8940472405
 20
-26.1477469995
 10
36.9269734747
 20
-26.1070962004
 10
36.9554745305
 20
-26.0632305732
 10
36.9792384164
 20
-26.0166303001
 10
36.998004997
 20
-25.967805499
 10
37.0115688411
 20
-25.9172906385
 10
37.0197814698
 20
-25.8656386875
 10
37.0225529825
 20
-25.8134150626
  0
LWPOLYLINE
  5
24F
100
AcDbEntity
  8
ASSI
100
AcDbPolyline
 62
250
  6
CONTINUOUS
 90
16
 70
0
 10
36.5227243201
 20
-26.3132437251
 10
36.5749479463
 20
-26.3104722122
 10
36.6265998982
 20
-26.3022595831
 10
36.6771147595
 20
-26.2886957386
 10
36.725939561
 20
-26.2699291574
 10
36.7725398341
 20
-26.246165271
 10
36.8164054612
 20
-26.2176642148
 10
36.8570562601
 20
-26.1847379802
 10
36.8940472405
 20
-26.1477469995
 10
36.9269734747
 20
-26.1070962004
 10
36.9554745305
 20
-26.0632305732
 10
36.9792384164
 20
-26.0166303001
 10
36.998004997
 20
-25.967805499
 10
37.0115688411
 20
-25.9172906385
 10
37.0197814698
 20
-25.8656386875
 10
37.0225529825
 20
-25.8134150626
  0
LINE
  5
250
100
AcDbEntity
  8
RACCORDO
100
AcDbLine
 62
7
  6
CONTINUOUS
 10
15.4955514611
 20
-26.3135864588
 11
36.5230670538
 21
-26.3135864588
  0
LINE
  5
251
100
AcDbEntity
  8
ASSI
100
AcDbLine
 62
7
  6
CONTINUOUS
 10
15.4955514611
 20
-26.3135864588
 11
36.5230670538
 21
-26.3135864588
  0
LINE
  5
252
100
AcDbEntity
  8
RACCORDO
100
AcDbLine
 62
250
  6
CONTINUOUS
 10
15.4958941949
 20
-26.3132437251
 11
36.5227243201
 21
-26.3132437251
  0
LINE
  5
253
100
AcDbEntity
  8
ASSI
100
AcDbLine
 62
250
  6
CONTINUOUS
 10
15.4958941949
 20
-26.3132437251
 11
36.5227243201
 21
-26.3132437251
  0
LINE
  5
254
100
AcDbEntity
  8
RACCORDO
100
AcDbLine
 62
250
  6
CONTINUOUS
 10
14.9960655324
 20
-25.8134150626
 11
37.0225529825
 21
-25.8134150626
  0
LINE
  5
255
100
AcDbEntity
  8
ASSI
100
AcDbLine
 62
250
  6
CONTINUOUS
 10
14.9960655324
 20
-25.8134150626
 11
37.0225529825
 21
-25.8134150626
  0
LINE
  5
256
100
AcDbEntity
  8
CURVE
100
AcDbLine
 62
250
  6
CONTINUOUS
 10
26.0946642575
 20
-16.630645
 11
25.9230992575
 21
-16.630645
  0
LINE
  5
257
100
AcDbEntity
  8
CURVE
100
AcDbLine
 62
250
  6
CONTINUOUS
 10
22.0737152575
 20
13.934513
 11
25.9239542575
 21
16.630645
  0
LINE
  5
258
100
AcDbEntity
  8
CURVE
100
AcDbLine
 62
250
  6
CONTINUOUS
 10
26.0093922575
 20
15.89684
 11
22.1667322575
 21
13.20622
  0
LINE
  5
259
100
AcDbEntity
  8
CURVE
100
AcDbLine
 62
250
  6
CONTINUOUS
 10
25.9230992575
 20
-16.630645
 11
22.0728602575
 21
-13.934513
  0
LINE
  5
25A
100
AcDbEntity
  8
CURVE
100
AcDbLine
 62
250
  6
CONTINUOUS
 10
22.1665672575
 20
-13.20622
 11
26.0092262575
 21
-15.89684
  0
LWPOLYLINE
  5
25B
100
AcDbEntity
  8
RACCORDO
100
AcDbPolyline
 62
250
  6
CONTINUOUS
 90
16
 70
0
 10
14.9960655324
 20
-25.8134150626
 10
14.9988370453
 20
-25.8656386888
 10
15.0070496744
 20
-25.9172906408
 10
15.0206135189
 20
-25.967805502
 10
15.0393801
 20
-26.0166303035
 10
15.0631439864
 20
-26.0632305766
 10
15.0916450427
 20
-26.1070962037
 10
15.1245712773
 20
-26.1477470027
 10
15.161562258
 20
-26.184737983
 10
15.2022130571
 20
-26.2176642172
 10
15.2460786843
 20
-26.246165273
 10
15.2926789573
 20
-26.2699291589
 10
15.3415037585
 20
-26.2886957395
 10
15.392018619
 20
-26.3022595836
 10
15.4436705699
 20
-26.3104722123
 10
15.4958941949
 20
-26.3132437251
  0
LWPOLYLINE
  5
25C
100
AcDbEntity
  8
ASSI
100
AcDbPolyline
 62
250
  6
CONTINUOUS
 90
16
 70
0
 10
14.9960655324
 20
-25.8134150626
 10
14.9988370453
 20
-25.8656386888
 10
15.0070496744
 20
-25.9172906408
 10
15.0206135189
 20
-25.967805502
 10
15.0393801
 20
-26.0166303035
 10
15.0631439864
 20
-26.0632305766
 10
15.0916450427
 20
-26.1070962037
 10
15.1245712773
 20
-26.1477470027
 10
15.161562258
 20
-26.184737983
 10
15.2022130571
 20
-26.2176642172
 10
15.2460786843
 20
-26.246165273
 10
15.2926789573
 20
-26.2699291589
 10
15.3415037585
 20
-26.2886957395
 10
15.392018619
 20
-26.3022595836
 10
15.4436705699
 20
-26.3104722123
 10
15.4958941949
 20
-26.3132437251
  0
LINE
  5
25D
100
AcDbEntity
  8
DRAFT
100
AcDbLine
 62
7
  6
CONTINUOUS
 10
14.9093092575
 20
-17.6841030307
 11
14.9093092575
 21
17.6841030307
  0
LINE
  5
25E
100
AcDbEntity
  8
RACCORDO
100
AcDbLine
 62
7
  6
CONTINUOUS
 10
14.9957227987
 20
25.8137577963
 11
14.9957227987
 21
-25.8137577963
  0
LINE
  5
25F
100
AcDbEntity
  8
ASSI
100
AcDbLine
 62
7
  6
CONTINUOUS
 10
14.9957227987
 20
25.8137577963
 11
14.9957227987
 21
-25.8137577963
  0
LINE
  5
260
100
AcDbEntity
  8
RACCORDO
100
AcDbLine
 62
250
  6
CONTINUOUS
 10
14.9960655324
 20
25.8134150626
 11
14.9960655324
 21
-25.8134150626
  0
LINE
  5
261
100
AcDbEntity
  8
ASSI
100
AcDbLine
 62
250
  6
CONTINUOUS
 10
14.9960655324
 20
25.8134150626
 11
14.9960655324
 21
-25.8134150626
  0
LWPOLYLINE
  5
262
100
AcDbEntity
  8
0
100
AcDbPolyline
 62
7
  6
CONTINUOUS
 90
3
 70
0
 43
0.3500000006
 10
25.9735939865
 20
35.3492989655
 10
25.9021673355
 20
35.1350144806
 10
25.7593095016
 20
34.8492988129
  0
LINE
  5
263
100
AcDbEntity
  8
CURVE
100
AcDbLine
 62
7
  6
CONTINUOUS
 10
22.0096362575
 20
13.556369856
 11
23.1214708083
 21
14.6682044069
  0
LINE
  5
264
100
AcDbEntity
  8
CURVE
100
AcDbLine
 62
7
  6
CONTINUOUS
 10
22.0698456931
 20
13.1965578636
 11
24.5227125329
 21
15.6494247035
  0
LINE
  5
265
100
AcDbEntity
  8
CURVE
100
AcDbLine
 62
7
  6
CONTINUOUS
 10
23.2767854848
 20
13.9834762273
 11
25.9239542575
 21
16.630645
  0
LINE
  5
266
100
AcDbEntity
  8
CURVE
100
AcDbLine
 62
7
  6
CONTINUOUS
 10
24.6777781071
 20
14.9644474216
 11
26.2416485601
 21
16.5283178746
  0
LINE
  5
267
100
AcDbEntity
  8
CURVE
100
AcDbLine
 62
7
  6
CONTINUOUS
 10
26.0216260461
 20
15.8882739325
 11
26.4886835789
 21
16.3553314654
  0
LINE
  5
268
100
AcDbEntity
  8
RACCORDO
100
AcDbLine
 62
250
  6
CONTINUOUS
 10
36.5227243201
 20
26.3132437251
 11
36.5230670538
 21
26.3135864588
  0
LINE
  5
269
100
AcDbEntity
  8
ASSI
100
AcDbLine
 62
250
  6
CONTINUOUS
 10
36.5227243201
 20
26.3132437251
 11
36.5230670538
 21
26.3135864588
  0
LINE
  5
26A
100
AcDbEntity
  8
CURVE
100
AcDbLine
 62
7
  6
CONTINUOUS
 10
26.2686687823
 20
15.7152952407
 11
26.7357185977
 21
16.1823450561
  0
LINE
  5
26B
100
AcDbEntity
  8
RACCORDO
100
AcDbLine
 62
250
  6
CONTINUOUS
 10
36.5227243201
 20
-26.3132437251
 11
36.5230670538
 21
-26.3135864588
  0
LINE
  5
26C
100
AcDbEntity
  8
ASSI
100
AcDbLine
 62
250
  6
CONTINUOUS
 10
36.5227243201
 20
-26.3132437251
 11
36.5230670538
 21
-26.3135864588
  0
LINE
  5
26D
100
AcDbEntity
  8
RACCORDO
100
AcDbLine
 62
250
  6
CONTINUOUS
 10
15.4958941949
 20
-26.3132437251
 11
15.4958941949
 21
26.3132437251
  0
LINE
  5
26E
100
AcDbEntity
  8
ASSI
100
AcDbLine
 62
250
  6
CONTINUOUS
 10
15.4958941949
 20
-26.3132437251
 11
15.4958941949
 21
26.3132437251
  0
LINE
  5
26F
100
AcDbEntity
  8
CURVE
100
AcDbLine
 62
250
  6
CONTINUOUS
 10
22.0096362575
 20
13.811868
 11
22.0737152575
 21
13.934513
  0
LINE
  5
270
100
AcDbEntity
  8
CURVE
100
AcDbLine
 62
7
  6
CONTINUOUS
 10
26.5157115185
 20
15.5423165489
 11
26.9827536165
 21
16.0093586469
  0
LINE
  5
271
100
AcDbEntity
  8
RACCORDO
100
AcDbLine
 62
250
  6
CONTINUOUS
 10
37.0225529825
 20
25.8134150626
 11
37.0228957163
 21
25.8137577963
  0
LINE
  5
272
100
AcDbEntity
  8
ASSI
100
AcDbLine
 62
250
  6
CONTINUOUS
 10
37.0225529825
 20
25.8134150626
 11
37.0228957163
 21
25.8137577963
  0
LINE
  5
273
100
AcDbEntity
  8
CURVE
100
AcDbLine
 62
7
  6
CONTINUOUS
 10
26.7627542547
 20
15.3693378571
 11
27.2297886353
 21
15.8363722377
  0
LINE
  5
274
100
AcDbEntity
  8
CURVE
100
AcDbLine
 62
7
  6
CONTINUOUS
 10
27.0097969909
 20
15.1963591653
 11
27.4768236541
 21
15.6633858284
  0
LINE
  5
275
100
AcDbEntity
  8
CURVE
100
AcDbLine
 62
7
  6
CONTINUOUS
 10
27.2568397271
 20
15.0233804735
 11
27.7238586729
 21
15.4903994192
  0
LINE
  5
276
100
AcDbEntity
  8
CURVE
100
AcDbLine
 62
7
  6
CONTINUOUS
 10
27.5038824633
 20
14.8504017817
 11
27.9708936917
 21
15.31741301
  0
LINE
  5
277
100
AcDbEntity
  8
CURVE
100
AcDbLine
 62
7
  6
CONTINUOUS
 10
27.7509251995
 20
14.6774230898
 11
28.2179287105
 21
15.1444266008
  0
LINE
  5
278
100
AcDbEntity
  8
CURVE
100
AcDbLine
 62
7
  6
CONTINUOUS
 10
27.9979679358
 20
14.504444398
 11
28.4649637292
 21
14.9714401915
  0
LINE
  5
279
100
AcDbEntity
  8
CURVE
100
AcDbLine
 62
7
  6
CONTINUOUS
 10
28.245010672
 20
14.3314657062
 11
28.711998748
 21
14.7984537823
  0
LINE
  5
27A
100
AcDbEntity
  8
RACCORDO
100
AcDbLine
 62
250
  6
CONTINUOUS
 10
37.0225529825
 20
-25.8134150626
 11
37.0228957163
 21
-25.8137577963
  0
LINE
  5
27B
100
AcDbEntity
  8
ASSI
100
AcDbLine
 62
250
  6
CONTINUOUS
 10
37.0225529825
 20
-25.8134150626
 11
37.0228957163
 21
-25.8137577963
  0
LINE
  5
27C
100
AcDbEntity
  8
CURVE
100
AcDbLine
 62
250
  6
CONTINUOUS
 10
22.0728602575
 20
-13.934513
 11
22.0087812575
 21
-13.811179
  0
LINE
  5
27D
100
AcDbEntity
  8
CURVE
100
AcDbLine
 62
7
  6
CONTINUOUS
 10
28.4920534082
 20
14.1584870144
 11
28.9590337668
 21
14.6254673731
  0
LINE
  5
27E
100
AcDbEntity
  8
CURVE
100
AcDbLine
 62
7
  6
CONTINUOUS
 10
28.7390961444
 20
13.9855083226
 11
29.2060687856
 21
14.4524809638
  0
LINE
  5
27F
100
AcDbEntity
  8
CURVE
100
AcDbLine
 62
7
  6
CONTINUOUS
 10
28.9861388806
 20
13.8125296308
 11
29.4531038044
 21
14.2794945546
  0
LINE
  5
280
100
AcDbEntity
  8
CURVE
100
AcDbLine
 62
7
  6
CONTINUOUS
 10
29.2331816168
 20
13.639550939
 11
29.7001388232
 21
14.1065081454
  0
LINE
  5
281
100
AcDbEntity
  8
CURVE
100
AcDbLine
 62
7
  6
CONTINUOUS
 10
29.480224353
 20
13.4665722471
 11
29.946581191
 21
13.9329290851
  0
LINE
  5
282
100
AcDbEntity
  8
CURVE
100
AcDbLine
 62
7
  6
CONTINUOUS
 10
29.7272670892
 20
13.2935935553
 11
30.0098372575
 21
13.5761637236
  0
LINE
  5
283
100
AcDbEntity
  8
CURVE
100
AcDbLine
 62
250
  6
CONTINUOUS
 10
22.0087812575
 20
-13.811179
 11
22.0087812575
 21
-13.288213
  0
LINE
  5
284
100
AcDbEntity
  8
CURVE
100
AcDbLine
 62
250
  6
CONTINUOUS
 10
22.0096362575
 20
13.288213
 11
22.0096362575
 21
13.811868
  0
LWPOLYLINE
  5
285
100
AcDbEntity
  8
0
100
AcDbPolyline
 62
7
  6
CONTINUOUS
 90
13
 70
0
 43
0.3500000006
 10
26.9735942917
 20
35.9207303009
 10
26.9735942917
 20
37.2064417419
 10
27.1878810425
 20
37.6350152435
 10
27.6164522781
 20
38.0635842133
 10
27.830736763
 20
38.0635842133
 10
28.2593102646
 20
37.6350152435
 10
28.4735947495
 20
37.2064417419
 10
28.4735947495
 20
35.9207303009
 10
28.2593102646
 20
35.4921567993
 10
27.830736763
 20
35.0635878296
 10
27.6164522781
 20
35.0635878296
 10
27.1878810425
 20
35.4921567993
 10
26.9735942917
 20
35.9207303009
  0
LINE
  5
286
100
AcDbEntity
  8
CURVE
100
AcDbLine
 62
250
  6
CONTINUOUS
 10
30.0089822575
 20
-13.288213
 11
30.0089822575
 21
-13.811868
  0
LINE
  5
287
100
AcDbEntity
  8
CURVE
100
AcDbLine
 62
250
  6
CONTINUOUS
 10
30.0098372575
 20
13.811179
 11
30.0098372575
 21
13.288213
  0
LINE
  5
288
100
AcDbEntity
  8
CURVE
100
AcDbLine
 62
7
  6
CONTINUOUS
 10
22.0087812575
 20
-13.5761637236
 11
22.2913514257
 21
-13.2935935553
  0
LINE
  5
289
100
AcDbEntity
  8
CURVE
100
AcDbLine
 62
7
  6
CONTINUOUS
 10
22.072037324
 20
-13.9329290851
 11
22.5383941619
 21
-13.4665722471
  0
LINE
  5
28A
100
AcDbEntity
  8
CURVE
100
AcDbLine
 62
7
  6
CONTINUOUS
 10
22.3184796917
 20
-14.1065081454
 11
22.7854368981
 21
-13.639550939
  0
LINE
  5
28B
100
AcDbEntity
  8
CURVE
100
AcDbLine
 62
7
  6
CONTINUOUS
 10
22.5655147105
 20
-14.2794945546
 11
23.0324796344
 21
-13.8125296308
  0
LINE
  5
28C
100
AcDbEntity
  8
CURVE
100
AcDbLine
 62
7
  6
CONTINUOUS
 10
22.8125497293
 20
-14.4524809638
 11
23.2795223706
 21
-13.9855083226
  0
LINE
  5
28D
100
AcDbEntity
  8
CURVE
100
AcDbLine
 62
7
  6
CONTINUOUS
 10
23.0595847481
 20
-14.6254673731
 11
23.5265651068
 21
-14.1584870144
  0
LINE
  5
28E
100
AcDbEntity
  8
CURVE
100
AcDbLine
 62
7
  6
CONTINUOUS
 10
23.3066197669
 20
-14.7984537823
 11
23.773607843
 21
-14.3314657062
  0
LINE
  5
28F
100
AcDbEntity
  8
CURVE
100
AcDbLine
 62
7
  6
CONTINUOUS
 10
23.5536547857
 20
-14.9714401915
 11
24.0206505792
 21
-14.504444398
  0
LWPOLYLINE
  5
290
100
AcDbEntity
  8
0
100
AcDbPolyline
 62
7
  6
CONTINUOUS
 90
3
 70
0
 43
0.3500000006
 10
52.9735954285
 20
-0.1428581543
 10
53.1878799133
 20
-0.2142848053
 10
53.4735955811
 20
-0.3571426392
  0
LINE
  5
291
100
AcDbEntity
  8
RACCORDO
100
AcDbLine
 62
250
  6
CONTINUOUS
 10
36.5227243201
 20
-26.3132437251
 11
36.5227243201
 21
26.3132437251
  0
LINE
  5
292
100
AcDbEntity
  8
ASSI
100
AcDbLine
 62
250
  6
CONTINUOUS
 10
36.5227243201
 20
-26.3132437251
 11
36.5227243201
 21
26.3132437251
  0
LINE
  5
293
100
AcDbEntity
  8
RACCORDO
100
AcDbLine
 62
250
  6
CONTINUOUS
 10
37.0225529825
 20
-25.8134150626
 11
37.0225529825
 21
25.8134150626
  0
LINE
  5
294
100
AcDbEntity
  8
ASSI
100
AcDbLine
 62
250
  6
CONTINUOUS
 10
37.0225529825
 20
-25.8134150626
 11
37.0225529825
 21
25.8134150626
  0
LINE
  5
295
100
AcDbEntity
  8
RACCORDO
100
AcDbLine
 62
7
  6
CONTINUOUS
 10
37.0228957163
 20
-25.8137577963
 11
37.0228957163
 21
25.8137577963
  0
LINE
  5
296
100
AcDbEntity
  8
ASSI
100
AcDbLine
 62
7
  6
CONTINUOUS
 10
37.0228957163
 20
-25.8137577963
 11
37.0228957163
 21
25.8137577963
  0
LINE
  5
297
100
AcDbEntity
  8
DRAFT
100
AcDbLine
 62
7
  6
CONTINUOUS
 10
37.1093092575
 20
17.6841030307
 11
37.1093092575
 21
-17.6841030307
  0
LINE
  5
298
100
AcDbEntity
  8
CURVE
100
AcDbLine
 62
250
  6
CONTINUOUS
 10
30.0089822575
 20
-13.811868
 11
29.9449032575
 21
-13.934513
  0
LINE
  5
299
100
AcDbEntity
  8
CURVE
100
AcDbLine
 62
7
  6
CONTINUOUS
 10
23.8006898045
 20
-15.1444266008
 11
24.2676933154
 21
-14.6774230898
  0
LINE
  5
29A
100
AcDbEntity
  8
CURVE
100
AcDbLine
 62
7
  6
CONTINUOUS
 10
24.0477248233
 20
-15.31741301
 11
24.5147360516
 21
-14.8504017817
  0
LINE
  5
29B
100
AcDbEntity
  8
CURVE
100
AcDbLine
 62
7
  6
CONTINUOUS
 10
24.2947598421
 20
-15.4903994192
 11
24.7617787878
 21
-15.0233804735
  0
LINE
  5
29C
100
AcDbEntity
  8
CURVE
100
AcDbLine
 62
7
  6
CONTINUOUS
 10
24.5417948609
 20
-15.6633858284
 11
25.008821524
 21
-15.1963591653
  0
LINE
  5
29D
100
AcDbEntity
  8
CURVE
100
AcDbLine
 62
7
  6
CONTINUOUS
 10
24.7888298797
 20
-15.8363722377
 11
25.2558642603
 21
-15.3693378571
  0
LINE
  5
29E
100
AcDbEntity
  8
RACCORDO
100
AcDbLine
 62
250
  6
CONTINUOUS
 10
14.9960655324
 20
-25.8134150626
 11
14.9957227987
 21
-25.8137577963
  0
LINE
  5
29F
100
AcDbEntity
  8
ASSI
100
AcDbLine
 62
250
  6
CONTINUOUS
 10
14.9960655324
 20
-25.8134150626
 11
14.9957227987
 21
-25.8137577963
  0
LINE
  5
2A0
100
AcDbEntity
  8
CURVE
100
AcDbLine
 62
7
  6
CONTINUOUS
 10
25.0358648985
 20
-16.0093586469
 11
25.5029069965
 21
-15.5423165489
  0
LINE
  5
2A1
100
AcDbEntity
  8
CURVE
100
AcDbLine
 62
7
  6
CONTINUOUS
 10
25.2828999173
 20
-16.1823450561
 11
25.7499497327
 21
-15.7152952407
  0
LINE
  5
2A2
100
AcDbEntity
  8
RACCORDO
100
AcDbLine
 62
250
  6
CONTINUOUS
 10
15.4958941949
 20
-26.3132437251
 11
15.4955514611
 21
-26.3135864588
  0
LINE
  5
2A3
100
AcDbEntity
  8
ASSI
100
AcDbLine
 62
250
  6
CONTINUOUS
 10
15.4958941949
 20
-26.3132437251
 11
15.4955514611
 21
-26.3135864588
  0
LINE
  5
2A4
100
AcDbEntity
  8
CURVE
100
AcDbLine
 62
7
  6
CONTINUOUS
 10
25.5299349361
 20
-16.3553314654
 11
25.9969924689
 21
-15.8882739325
  0
LINE
  5
2A5
100
AcDbEntity
  8
RACCORDO
100
AcDbLine
 62
250
  6
CONTINUOUS
 10
14.9960655324
 20
25.8134150626
 11
14.9957227987
 21
25.8137577963
  0
LINE
  5
2A6
100
AcDbEntity
  8
ASSI
100
AcDbLine
 62
250
  6
CONTINUOUS
 10
14.9960655324
 20
25.8134150626
 11
14.9957227987
 21
25.8137577963
  0
LINE
  5
2A7
100
AcDbEntity
  8
RACCORDO
100
AcDbLine
 62
250
  6
CONTINUOUS
 10
15.4958941949
 20
26.3132437251
 11
15.4955514611
 21
26.3135864588
  0
LINE
  5
2A8
100
AcDbEntity
  8
ASSI
100
AcDbLine
 62
250
  6
CONTINUOUS
 10
15.4958941949
 20
26.3132437251
 11
15.4955514611
 21
26.3135864588
  0
LINE
  5
2A9
100
AcDbEntity
  8
CURVE
100
AcDbLine
 62
250
  6
CONTINUOUS
 10
29.9457582575
 20
13.934513
 11
30.0098372575
 21
13.811179
  0
LWPOLYLINE
  5
2AA
100
AcDbEntity
  8
RACCORDO
100
AcDbPolyline
 62
250
  6
CONTINUOUS
 90
16
 70
0
 10
37.0225529825
 20
25.8134150626
 10
37.0197814697
 20
25.8656386888
 10
37.0115688406
 20
25.9172906408
 10
36.9980049961
 20
25.967805502
 10
36.9792384149
 20
26.0166303035
 10
36.9554745285
 20
26.0632305766
 10
36.9269734722
 20
26.1070962037
 10
36.8940472376
 20
26.1477470027
 10
36.857056257
 20
26.184737983
 10
36.8164054579
 20
26.2176642172
 10
36.7725398307
 20
26.246165273
 10
36.7259395576
 20
26.2699291589
 10
36.6771147565
 20
26.2886957395
 10
36.626599896
 20
26.3022595836
 10
36.574947945
 20
26.3104722123
 10
36.5227243201
 20
26.3132437251
  0
LWPOLYLINE
  5
2AB
100
AcDbEntity
  8
ASSI
100
AcDbPolyline
 62
250
  6
CONTINUOUS
 90
16
 70
0
 10
37.0225529825
 20
25.8134150626
 10
37.0197814697
 20
25.8656386888
 10
37.0115688406
 20
25.9172906408
 10
36.9980049961
 20
25.967805502
 10
36.9792384149
 20
26.0166303035
 10
36.9554745285
 20
26.0632305766
 10
36.9269734722
 20
26.1070962037
 10
36.8940472376
 20
26.1477470027
 10
36.857056257
 20
26.184737983
 10
36.8164054579
 20
26.2176642172
 10
36.7725398307
 20
26.246165273
 10
36.7259395576
 20
26.2699291589
 10
36.6771147565
 20
26.2886957395
 10
36.626599896
 20
26.3022595836
 10
36.574947945
 20
26.3104722123
 10
36.5227243201
 20
26.3132437251
  0
LINE
  5
2AC
100
AcDbEntity
  8
CURVE
100
AcDbLine
 62
7
  6
CONTINUOUS
 10
25.7769699548
 20
-16.5283178746
 11
27.3408404078
 21
-14.9644474216
  0
LINE
  5
2AD
100
AcDbEntity
  8
CURVE
100
AcDbLine
 62
7
  6
CONTINUOUS
 10
26.0946642575
 20
-16.630645
 11
28.7418330301
 21
-13.9834762273
  0
LINE
  5
2AE
100
AcDbEntity
  8
CURVE
100
AcDbLine
 62
7
  6
CONTINUOUS
 10
27.495905982
 20
-15.6494247035
 11
29.9487728219
 21
-13.1965578636
  0
LINE
  5
2AF
100
AcDbEntity
  8
CURVE
100
AcDbLine
 62
7
  6
CONTINUOUS
 10
28.8971477066
 20
-14.6682044069
 11
30.0089822575
 21
-13.556369856
  0
LINE
  5
2B0
100
AcDbEntity
  8
CURVE
100
AcDbLine
 62
250
  6
CONTINUOUS
 10
26.0092262575
 20
-15.89684
 11
29.8518862575
 21
-13.20622
  0
LWPOLYLINE
  5
2B1
100
AcDbEntity
  8
0
100
AcDbPolyline
 62
7
  6
CONTINUOUS
 90
10
 70
0
 43
0.3500000006
 10
52.7593109436
 20
-0.2142848053
 10
52.9021642456
 20
-0.1428581543
 10
52.9735954285
 20
-0.1428581543
 10
53.1164532623
 20
-0.2857137222
 10
53.1164532623
 20
-0.3571426392
 10
53.0450220795
 20
-0.4285715561
 10
52.9735954285
 20
-0.4285715561
 10
52.8307375946
 20
-0.3571426392
 10
52.7593109436
 20
-0.2857137222
 10
52.7593109436
 20
-0.2142848053
  0
LINE
  5
2B2
100
AcDbEntity
  8
CURVE
100
AcDbLine
 62
250
  6
CONTINUOUS
 10
29.8520512575
 20
13.20622
 11
26.0093922575
 21
15.89684
  0
LINE
  5
2B3
100
AcDbEntity
  8
CURVE
100
AcDbLine
 62
250
  6
CONTINUOUS
 10
29.9449032575
 20
-13.934513
 11
26.0946642575
 21
-16.630645
  0
LINE
  5
2B4
100
AcDbEntity
  8
CURVE
100
AcDbLine
 62
250
  6
CONTINUOUS
 10
26.0955192575
 20
16.630645
 11
29.9457582575
 21
13.934513
  0
LINE
  5
2B5
100
AcDbEntity
  8
CURVE
100
AcDbLine
 62
250
  6
CONTINUOUS
 10
25.9239542575
 20
16.630645
 11
26.0955192575
 21
16.630645
  0
LWPOLYLINE
  5
2B6
100
AcDbEntity
  8
0
100
AcDbPolyline
 62
7
  6
CONTINUOUS
 90
10
 70
0
 43
0.3500000006
 10
25.9021673355
 20
35.5635879822
 10
25.9735939865
 20
35.4207301483
 10
25.9735939865
 20
35.3492989655
 10
25.8307384186
 20
35.2064456635
 10
25.7593095016
 20
35.2064456635
 10
25.6878805847
 20
35.2778723145
 10
25.6878805847
 20
35.3492989655
 10
25.7593095016
 20
35.4921567993
 10
25.8307384186
 20
35.5635879822
 10
25.9021673355
 20
35.5635879822
  0
LWPOLYLINE
  5
2B7
100
AcDbEntity
  8
0
100
AcDbPolyline
 62
7
  6
CONTINUOUS
 90
10
 70
0
 43
0.3500000006
 10
50.2593101807
 20
1.928571373
 10
50.9021681671
 20
1.2857133865
 10
51.7593106384
 20
0.8571421509
 10
52.8307375946
 20
0.8571421509
 10
53.2593110962
 20
1.2857133865
 10
53.2593110962
 20
1.928571373
 10
52.8307375946
 20
2.3571426086
 10
51.9735951233
 20
2.3571426086
 10
51.5450216217
 20
1.928571373
 10
51.5450216217
 20
0.9999999847
  0
LWPOLYLINE
  5
2B8
100
AcDbEntity
  8
0
100
AcDbPolyline
 62
7
  6
CONTINUOUS
 90
5
 70
0
 43
0.3500000006
 10
51.5450216217
 20
4.0714275513
 10
51.3307371368
 20
4.4285721359
 10
50.6878791504
 20
4.4285721359
 10
50.2593101807
 20
4.0714275513
 10
50.2593101807
 20
3.21428508
  0
LINE
  5
2B9
100
AcDbEntity
  8
RACCORDO
100
AcDbLine
 62
250
  6
CONTINUOUS
 10
14.9960655324
 20
25.8134150626
 11
37.0225529825
 21
25.8134150626
  0
LINE
  5
2BA
100
AcDbEntity
  8
ASSI
100
AcDbLine
 62
250
  6
CONTINUOUS
 10
14.9960655324
 20
25.8134150626
 11
37.0225529825
 21
25.8134150626
  0
LINE
  5
2BB
100
AcDbEntity
  8
RACCORDO
100
AcDbLine
 62
250
  6
CONTINUOUS
 10
36.5227243201
 20
26.3132437251
 11
15.4958941949
 21
26.3132437251
  0
LINE
  5
2BC
100
AcDbEntity
  8
ASSI
100
AcDbLine
 62
250
  6
CONTINUOUS
 10
36.5227243201
 20
26.3132437251
 11
15.4958941949
 21
26.3132437251
  0
LINE
  5
2BD
100
AcDbEntity
  8
RACCORDO
100
AcDbLine
 62
7
  6
CONTINUOUS
 10
36.5230670538
 20
26.3135864588
 11
15.4955514611
 21
26.3135864588
  0
LINE
  5
2BE
100
AcDbEntity
  8
ASSI
100
AcDbLine
 62
7
  6
CONTINUOUS
 10
36.5230670538
 20
26.3135864588
 11
15.4955514611
 21
26.3135864588
  0
LWPOLYLINE
  5
2BF
100
AcDbEntity
  8
0
100
AcDbPolyline
 62
7
  6
CONTINUOUS
 90
7
 70
0
 43
0.3500000006
 10
53.2593110962
 20
-1.7142852631
 10
53.2593110962
 20
-3.2142857208
 10
51.116452652
 20
-1.7142852631
 10
50.6878791504
 20
-1.7142852631
 10
50.2593101807
 20
-2.1428576317
 10
50.2593101807
 20
-2.7857144852
 10
50.9021681671
 20
-3.2142857208
  0
LWPOLYLINE
  5
2C0
100
AcDbEntity
  8
0
100
AcDbPolyline
 62
7
  6
CONTINUOUS
 90
8
 70
0
 43
0.3500000006
 10
53.2593110962
 20
-5.3571430321
 10
53.2593110962
 20
-4.5000005608
 10
52.8307375946
 20
-4.0714281921
 10
51.9735951233
 20
-4.0714281921
 10
51.5450216217
 20
-4.5000005608
 10
51.5450216217
 20
-5.3571430321
 10
50.2593101807
 20
-5.3571430321
 10
50.2593101807
 20
-4.0714281921
  0
LWPOLYLINE
  5
2C1
100
AcDbEntity
  8
0
100
AcDbPolyline
 62
7
  6
CONTINUOUS
 90
6
 70
0
 43
0.3500000006
 10
53.2593110962
 20
3.21428508
 10
53.2593110962
 20
4.2857143021
 10
53.0450220795
 20
4.5000010529
 10
51.9735951233
 20
4.5000010529
 10
51.5450216217
 20
4.0714275513
 10
51.5450216217
 20
3.6428563156
  0
LWPOLYLINE
  5
2C2
100
AcDbEntity
  8
RACCORDO
100
AcDbPolyline
 62
250
  6
CONTINUOUS
 90
16
 70
0
 10
15.4958941949
 20
26.3132437251
 10
15.4436705687
 20
26.3104722122
 10
15.3920186167
 20
26.3022595831
 10
15.3415037555
 20
26.2886957386
 10
15.292678954
 20
26.2699291574
 10
15.2460786809
 20
26.246165271
 10
15.2022130537
 20
26.2176642148
 10
15.1615622548
 20
26.1847379802
 10
15.1245712745
 20
26.1477469995
 10
15.0916450403
 20
26.1070962004
 10
15.0631439845
 20
26.0632305732
 10
15.0393800986
 20
26.0166303001
 10
15.0206135179
 20
25.967805499
 10
15.0070496739
 20
25.9172906385
 10
14.9988370451
 20
25.8656386875
 10
14.9960655324
 20
25.8134150626
  0
LWPOLYLINE
  5
2C3
100
AcDbEntity
  8
ASSI
100
AcDbPolyline
 62
250
  6
CONTINUOUS
 90
16
 70
0
 10
15.4958941949
 20
26.3132437251
 10
15.4436705687
 20
26.3104722122
 10
15.3920186167
 20
26.3022595831
 10
15.3415037555
 20
26.2886957386
 10
15.292678954
 20
26.2699291574
 10
15.2460786809
 20
26.246165271
 10
15.2022130537
 20
26.2176642148
 10
15.1615622548
 20
26.1847379802
 10
15.1245712745
 20
26.1477469995
 10
15.0916450403
 20
26.1070962004
 10
15.0631439845
 20
26.0632305732
 10
15.0393800986
 20
26.0166303001
 10
15.0206135179
 20
25.967805499
 10
15.0070496739
 20
25.9172906385
 10
14.9988370451
 20
25.8656386875
 10
14.9960655324
 20
25.8134150626
  0
LWPOLYLINE
  5
2C4
100
AcDbEntity
  8
0
100
AcDbPolyline
 62
7
  6
CONTINUOUS
 90
7
 70
0
 43
0.3500000006
 10
24.4021668777
 20
35.0635878296
 10
22.90216642
 20
35.0635878296
 10
24.4021668777
 20
37.2064417419
 10
24.4021668777
 20
37.6350152435
 10
23.9735956421
 20
38.0635842133
 10
23.3307376556
 20
38.0635842133
 10
22.90216642
 20
37.4207307587
  0
LWPOLYLINE
  5
2C5
100
AcDbEntity
  8
0
100
AcDbPolyline
 62
7
  6
CONTINUOUS
 90
7
 70
0
 43
0.3500000006
 10
22.0450239487
 20
35.0635878296
 10
20.5450234909
 20
35.0635878296
 10
22.0450239487
 20
37.2064417419
 10
22.0450239487
 20
37.6350152435
 10
21.616452713
 20
38.0635842133
 10
20.9735947266
 20
38.0635842133
 10
20.5450234909
 20
37.4207307587
  0
LWPOLYLINE
  5
2C6
100
AcDbEntity
  8
0
100
AcDbPolyline
 62
7
  6
CONTINUOUS
 90
6
 70
0
 43
0.3500000006
 10
29.3307372208
 20
35.0635878296
 10
30.4021664429
 20
35.0635878296
 10
30.6164531937
 20
35.2778723145
 10
30.6164531937
 20
36.3492992706
 10
30.1878796921
 20
36.7778727722
 10
29.7593084564
 20
36.7778727722
  0
LWPOLYLINE
  5
2C7
100
AcDbEntity
  8
0
100
AcDbPolyline
 62
7
  6
CONTINUOUS
 90
3
 70
0
 43
0.3500000006
 10
-35.7747254105
 20
47.2064447937
 10
-34.9175806732
 20
48.063587265
 10
-34.9175806732
 20
45.0635863495
  0
LWPOLYLINE
  5
2C8
100
AcDbEntity
  8
ASSI
100
AcDbPolyline
 62
250
  6
CONTINUOUS
 90
5
 70
0
 10
-54.4306698989
 20
-26.3132437251
 10
-54.4319648481
 20
-26.3104722122
 10
-54.4331023468
 20
-26.3022595831
 10
-54.4340699432
 20
-26.2886957386
 10
-54.4348570454
 20
-26.2699291574
  0
LWPOLYLINE
  5
2C9
100
AcDbEntity
  8
RACCORDO
100
AcDbPolyline
 62
250
  6
CONTINUOUS
 90
5
 70
0
 10
-54.4306698989
 20
-26.3132437251
 10
-54.4319648481
 20
-26.3104722122
 10
-54.4331023468
 20
-26.3022595831
 10
-54.4340699432
 20
-26.2886957386
 10
-54.4348570454
 20
-26.2699291574
  0
LWPOLYLINE
  5
2CA
100
AcDbEntity
  8
0
100
AcDbPolyline
 62
7
  6
CONTINUOUS
 90
5
 70
0
 43
0.3500000006
 10
-34.6390094833
 20
36.7778727722
 10
-34.2818671646
 20
36.9921572571
 10
-34.2818671646
 20
37.6350152435
 10
-34.6390094833
 20
38.0635842133
 10
-35.4961519547
 20
38.0635842133
  0
LWPOLYLINE
  5
2CB
100
AcDbEntity
  8
ASSI
100
AcDbPolyline
 62
250
  6
CONTINUOUS
 90
3
 70
0
 10
-54.4348570454
 20
-26.2699291574
 10
-54.4354550372
 20
-26.246165271
 10
-54.4358573727
 20
-26.2176642148
  0
LWPOLYLINE
  5
2CC
100
AcDbEntity
  8
RACCORDO
100
AcDbPolyline
 62
250
  6
CONTINUOUS
 90
3
 70
0
 10
-54.4348570454
 20
-26.2699291574
 10
-54.4354550372
 20
-26.246165271
 10
-54.4358573727
 20
-26.2176642148
  0
LWPOLYLINE
  5
2CD
100
AcDbEntity
  8
ASSI
100
AcDbPolyline
 62
250
  6
CONTINUOUS
 90
9
 70
0
 10
-54.4358573727
 20
-26.2176642148
 10
-54.4360596475
 20
-26.1847379802
 10
-54.4360596475
 20
-26.1477469995
 10
-54.4358573727
 20
-26.1070962004
 10
-54.4354550372
 20
-26.0632305732
 10
-54.4348570454
 20
-26.0166303001
 10
-54.4340699432
 20
-25.967805499
 10
-54.4331023467
 20
-25.9172906385
 10
-54.4319648481
 20
-25.8656386875
  0
LWPOLYLINE
  5
2CE
100
AcDbEntity
  8
RACCORDO
100
AcDbPolyline
 62
250
  6
CONTINUOUS
 90
9
 70
0
 10
-54.4358573727
 20
-26.2176642148
 10
-54.4360596475
 20
-26.1847379802
 10
-54.4360596475
 20
-26.1477469995
 10
-54.4358573727
 20
-26.1070962004
 10
-54.4354550372
 20
-26.0632305732
 10
-54.4348570454
 20
-26.0166303001
 10
-54.4340699432
 20
-25.967805499
 10
-54.4331023467
 20
-25.9172906385
 10
-54.4319648481
 20
-25.8656386875
  0
LINE
  5
2CF
100
AcDbEntity
  8
ASSI
100
AcDbLine
 62
7
  6
CONTINUOUS
 10
-54.9175814248
 20
-25.8134150626
 11
-54.9175814248
 21
25.8134150626
  0
LINE
  5
2D0
100
AcDbEntity
  8
RACCORDO
100
AcDbLine
 62
7
  6
CONTINUOUS
 10
-54.9175814248
 20
-25.8134150626
 11
-54.9175814248
 21
25.8134150626
  0
LINE
  5
2D1
100
AcDbEntity
  8
ASSI
100
AcDbLine
 62
250
  6
CONTINUOUS
 10
-54.4306698989
 20
-25.8134150626
 11
-54.4306698989
 21
25.8134150626
  0
LINE
  5
2D2
100
AcDbEntity
  8
RACCORDO
100
AcDbLine
 62
250
  6
CONTINUOUS
 10
-54.4306698989
 20
-25.8134150626
 11
-54.4306698989
 21
25.8134150626
  0
LINE
  5
2D3
100
AcDbEntity
  8
ASSI
100
AcDbLine
 62
7
  6
CONTINUOUS
 10
-54.4175814248
 20
-26.3135864588
 11
-54.4175814248
 21
26.3135864588
  0
LINE
  5
2D4
100
AcDbEntity
  8
RACCORDO
100
AcDbLine
 62
7
  6
CONTINUOUS
 10
-54.4175814248
 20
-26.3135864588
 11
-54.4175814248
 21
26.3135864588
  0
LWPOLYLINE
  5
2D5
100
AcDbEntity
  8
ASSI
100
AcDbPolyline
 62
250
  6
CONTINUOUS
 90
7
 70
0
 10
-54.4358573727
 20
26.2176642172
 10
-54.4354550372
 20
26.246165273
 10
-54.4348570454
 20
26.2699291589
 10
-54.4340699432
 20
26.2886957395
 10
-54.4331023467
 20
26.3022595836
 10
-54.4319648481
 20
26.3104722123
 10
-54.4306698989
 20
26.3132437251
  0
LWPOLYLINE
  5
2D6
100
AcDbEntity
  8
RACCORDO
100
AcDbPolyline
 62
250
  6
CONTINUOUS
 90
7
 70
0
 10
-54.4358573727
 20
26.2176642172
 10
-54.4354550372
 20
26.246165273
 10
-54.4348570454
 20
26.2699291589
 10
-54.4340699432
 20
26.2886957395
 10
-54.4331023467
 20
26.3022595836
 10
-54.4319648481
 20
26.3104722123
 10
-54.4306698989
 20
26.3132437251
  0
LINE
  5
2D7
100
AcDbEntity
  8
ASSI
100
AcDbLine
 62
250
  6
CONTINUOUS
 10
-46.4877494417
 20
24.5614486195
 11
-46.4677352325
 21
24.6035622809
  0
LWPOLYLINE
  5
2D8
100
AcDbEntity
  8
ASSI
100
AcDbPolyline
 62
250
  6
CONTINUOUS
 90
9
 70
0
 10
-46.4677352325
 20
24.6035622809
 10
-46.4497854751
 20
24.6407034996
 10
-46.4419331349
 20
24.6566869158
 10
-46.4349931889
 20
24.6706106083
 10
-46.4290716983
 20
24.6822617829
 10
-46.4242591658
 20
24.6914623633
 10
-46.4206291428
 20
24.6980717315
 10
-46.4182371088
 20
24.7019888692
 10
-46.4171196278
 20
24.7031538947
  0
LINE
  5
2D9
100
AcDbEntity
  8
ASSI
100
AcDbLine
 62
7
  6
CONTINUOUS
 10
-46.9979661825
 20
24.65
 11
-47.4598463978
 21
23.85
  0
LINE
  5
2DA
100
AcDbEntity
  8
ASSI
100
AcDbLine
 62
250
  6
CONTINUOUS
 10
-46.8212706204
 20
24.5674284937
 11
-47.2831505326
 21
23.7674290189
  0
LWPOLYLINE
  5
2DB
100
AcDbEntity
  8
ASSI
100
AcDbPolyline
 62
250
  6
CONTINUOUS
 90
13
 70
0
 10
-47.2831505326
 20
23.7674290189
 10
-47.3025947517
 20
23.7374285339
 10
-47.3238025475
 20
23.7097956186
 10
-47.3467739201
 20
23.6845302728
 10
-47.3715027548
 20
23.6616488035
 10
-47.3979951662
 20
23.6411349039
 10
-47.4262694982
 20
23.6229396534
 10
-47.4564730075
 20
23.606859095
 10
-47.4884584374
 20
23.5930971858
 10
-47.5218023614
 20
23.582216876
 10
-47.5563636375
 20
23.5744058158
 10
-47.5922834078
 20
23.569476355
 10
-47.6175814248
 20
23.5680866221
  0
LINE
  5
2DC
100
AcDbEntity
  8
ASSI
100
AcDbLine
 62
7
  6
CONTINUOUS
 10
-47.4598463978
 20
-23.85
 11
-46.9979661825
 21
-24.65
  0
LINE
  5
2DD
100
AcDbEntity
  8
ASSI
100
AcDbLine
 62
250
  6
CONTINUOUS
 10
-47.2831508358
 20
-23.7674284937
 11
-46.8212706204
 21
-24.5674284937
  0
LWPOLYLINE
  5
2DE
100
AcDbEntity
  8
ASSI
100
AcDbPolyline
 62
250
  6
CONTINUOUS
 90
8
 70
0
 10
-46.4497849173
 20
-24.640704573
 10
-46.4419326257
 20
-24.6566878747
 10
-46.4349927638
 20
-24.6706113857
 10
-46.4290713786
 20
-24.682262343
 10
-46.4242589537
 20
-24.6914627098
 10
-46.4206290271
 20
-24.6980718967
 10
-46.4182370672
 20
-24.7019889097
 10
-46.4171196252
 20
-24.7031538935
  0
LINE
  5
2DF
100
AcDbEntity
  8
ASSI
100
AcDbLine
 62
250
  6
CONTINUOUS
 10
-46.4677347215
 20
-24.6035632946
 11
-46.4497849173
 21
-24.640704573
  0
LINE
  5
2E0
100
AcDbEntity
  8
ASSI
100
AcDbLine
 62
250
  6
CONTINUOUS
 10
-53.1069107039
 20
-25.8496883658
 11
-53.1123460351
 21
-25.6850418745
  0
LINE
  5
2E1
100
AcDbEntity
  8
RACCORDO
100
AcDbLine
 62
250
  6
CONTINUOUS
 10
-53.1069107039
 20
-25.8496883658
 11
-53.1123460351
 21
-25.6850418745
  0
LINE
  5
2E2
100
AcDbEntity
  8
ASSI
100
AcDbLine
 62
250
  6
CONTINUOUS
 10
-53.1021666578
 20
-26.0145285019
 11
-53.1069107039
 21
-25.8496883658
  0
LINE
  5
2E3
100
AcDbEntity
  8
RACCORDO
100
AcDbLine
 62
250
  6
CONTINUOUS
 10
-53.1021666578
 20
-26.0145285019
 11
-53.1069107039
 21
-25.8496883658
  0
LINE
  5
2E4
100
AcDbEntity
  8
ASSI
100
AcDbLine
 62
250
  6
CONTINUOUS
 10
-54.4306698989
 20
25.8134150626
 11
-54.4319648481
 21
25.8656386888
  0
LINE
  5
2E5
100
AcDbEntity
  8
RACCORDO
100
AcDbLine
 62
250
  6
CONTINUOUS
 10
-54.4306698989
 20
25.8134150626
 11
-54.4319648481
 21
25.8656386888
  0
LINE
  5
2E6
100
AcDbEntity
  8
ASSI
100
AcDbLine
 62
250
  6
CONTINUOUS
 10
-53.1007408853
 20
-26.0743494505
 11
-53.1021666578
 21
-26.0145285019
  0
LINE
  5
2E7
100
AcDbEntity
  8
RACCORDO
100
AcDbLine
 62
250
  6
CONTINUOUS
 10
-53.1007408853
 20
-26.0743494505
 11
-53.1021666578
 21
-26.0145285019
  0
LWPOLYLINE
  5
2E8
100
AcDbEntity
  8
ASSI
100
AcDbPolyline
 62
250
  6
CONTINUOUS
 90
9
 70
0
 10
-54.4319648481
 20
25.8656386888
 10
-54.4331023468
 20
25.9172906408
 10
-54.4340699432
 20
25.967805502
 10
-54.4348570454
 20
26.0166303035
 10
-54.4354550372
 20
26.0632305766
 10
-54.4358573727
 20
26.1070962037
 10
-54.4360596475
 20
26.1477470027
 10
-54.4360596475
 20
26.184737983
 10
-54.4358573727
 20
26.2176642172
  0
LWPOLYLINE
  5
2E9
100
AcDbEntity
  8
RACCORDO
100
AcDbPolyline
 62
250
  6
CONTINUOUS
 90
9
 70
0
 10
-54.4319648481
 20
25.8656386888
 10
-54.4331023468
 20
25.9172906408
 10
-54.4340699432
 20
25.967805502
 10
-54.4348570454
 20
26.0166303035
 10
-54.4354550372
 20
26.0632305766
 10
-54.4358573727
 20
26.1070962037
 10
-54.4360596475
 20
26.1477470027
 10
-54.4360596475
 20
26.184737983
 10
-54.4358573727
 20
26.2176642172
  0
LINE
  5
2EA
100
AcDbEntity
  8
ASSI
100
AcDbLine
 62
7
  6
CONTINUOUS
 10
-53.7175814248
 20
14.5
 11
-53.7175814248
 21
9.5
  0
LINE
  5
2EB
100
AcDbEntity
  8
DRAFT
100
AcDbLine
 62
7
  6
CONTINUOUS
 10
-53.7175814248
 20
14.5
 11
-53.7175814248
 21
9.5
  0
LINE
  5
2EC
100
AcDbEntity
  8
ASSI
100
AcDbLine
 62
7
  6
CONTINUOUS
 10
-53.7175814248
 20
-9.5
 11
-53.7175814248
 21
-14.5
  0
LINE
  5
2ED
100
AcDbEntity
  8
DRAFT
100
AcDbLine
 62
7
  6
CONTINUOUS
 10
-53.7175814248
 20
-9.5
 11
-53.7175814248
 21
-14.5
  0
LINE
  5
2EE
100
AcDbEntity
  8
ASSI
100
AcDbLine
 62
250
  6
CONTINUOUS
 10
-53.1123460351
 20
-25.6850418745
 11
-53.1123460351
 21
-14.510564423
  0
LINE
  5
2EF
100
AcDbEntity
  8
RACCORDO
100
AcDbLine
 62
250
  6
CONTINUOUS
 10
-53.1123460351
 20
-25.6850418745
 11
-53.1123460351
 21
-14.510564423
  0
LINE
  5
2F0
100
AcDbEntity
  8
ASSI
100
AcDbLine
 62
250
  6
CONTINUOUS
 10
-53.1123460351
 20
14.510564423
 11
-53.1123460351
 21
25.6850418745
  0
LINE
  5
2F1
100
AcDbEntity
  8
RACCORDO
100
AcDbLine
 62
250
  6
CONTINUOUS
 10
-53.1123460351
 20
14.510564423
 11
-53.1123460351
 21
25.6850418745
  0
LINE
  5
2F2
100
AcDbEntity
  8
ASSI
100
AcDbLine
 62
7
  6
CONTINUOUS
 10
-53.0156056821
 20
-10.4367889898
 11
-53.0156056821
 21
-13.5632110102
  0
LINE
  5
2F3
100
AcDbEntity
  8
DRAFT
100
AcDbLine
 62
7
  6
CONTINUOUS
 10
-53.0156056821
 20
-10.4367889898
 11
-53.0156056821
 21
-13.5632110102
  0
LINE
  5
2F4
100
AcDbEntity
  8
ASSI
100
AcDbLine
 62
7
  6
CONTINUOUS
 10
-53.0156056821
 20
10.4367889898
 11
-53.0156056821
 21
13.5632110102
  0
LINE
  5
2F5
100
AcDbEntity
  8
DRAFT
100
AcDbLine
 62
7
  6
CONTINUOUS
 10
-53.0156056821
 20
10.4367889898
 11
-53.0156056821
 21
13.5632110102
  0
LINE
  5
2F6
100
AcDbEntity
  8
ASSI
100
AcDbLine
 62
7
  6
CONTINUOUS
 10
-52.9175814248
 20
9.4860359481
 11
-52.9175814248
 21
8.35
  0
LINE
  5
2F7
100
AcDbEntity
  8
ASSI
100
AcDbLine
 62
7
  6
CONTINUOUS
 10
-52.9175814248
 20
-25.9855007699
 11
-52.9175814248
 21
-14.5139640519
  0
LINE
  5
2F8
100
AcDbEntity
  8
RACCORDO
100
AcDbLine
 62
7
  6
CONTINUOUS
 10
-52.9175814248
 20
-25.9855007699
 11
-52.9175814248
 21
-14.5139640519
  0
LINE
  5
2F9
100
AcDbEntity
  8
ASSI
100
AcDbLine
 62
7
  6
CONTINUOUS
 10
-52.9175814248
 20
-9.4860359481
 11
-52.9175814248
 21
-8.35
  0
LINE
  5
2FA
100
AcDbEntity
  8
DRAFT
100
AcDbLine
 62
7
  6
CONTINUOUS
 10
-52.9175814248
 20
-14.5139640519
 11
-52.9175814248
 21
-8.35
  0
LINE
  5
2FB
100
AcDbEntity
  8
DRAFT
100
AcDbLine
 62
7
  6
CONTINUOUS
 10
-52.9175814248
 20
8.35
 11
-52.9175814248
 21
14.5139640519
  0
LINE
  5
2FC
100
AcDbEntity
  8
ASSI
100
AcDbLine
 62
7
  6
CONTINUOUS
 10
-52.9175814248
 20
14.5139640519
 11
-52.9175814248
 21
25.9855007699
  0
LINE
  5
2FD
100
AcDbEntity
  8
RACCORDO
100
AcDbLine
 62
7
  6
CONTINUOUS
 10
-52.9175814248
 20
14.5139640519
 11
-52.9175814248
 21
25.9855007699
  0
LINE
  5
2FE
100
AcDbEntity
  8
DRAFT
100
AcDbLine
 62
7
  6
CONTINUOUS
 10
-52.4175814248
 20
-20.55
 11
-52.4175814248
 21
-8.3412724675
  0
LINE
  5
2FF
100
AcDbEntity
  8
DRAFT
100
AcDbLine
 62
7
  6
CONTINUOUS
 10
-52.4175814248
 20
8.3412724675
 11
-52.4175814248
 21
20.55
  0
LINE
  5
300
100
AcDbEntity
  8
RACCORDO
100
AcDbLine
 62
7
  6
CONTINUOUS
 10
-51.9175814248
 20
-20.5325396153
 11
-51.9175814248
 21
-18.0328443874
  0
LINE
  5
301
100
AcDbEntity
  8
RACCORDO
100
AcDbLine
 62
7
  6
CONTINUOUS
 10
-51.9175814248
 20
18.0328443874
 11
-51.9175814248
 21
20.5325396153
  0
LWPOLYLINE
  5
302
100
AcDbEntity
  8
ASSI
100
AcDbPolyline
 62
250
  6
CONTINUOUS
 90
7
 70
0
 10
-53.0997416073
 20
26.1266078228
 10
-53.0995363184
 20
26.1430148832
 10
-53.099429537
 20
26.1567362902
 10
-53.0994021919
 20
26.1681910287
 10
-53.0994866441
 20
26.1770640016
 10
-53.0997255413
 20
26.1827257142
 10
-53.1001502762
 20
26.1847397095
  0
LWPOLYLINE
  5
303
100
AcDbEntity
  8
RACCORDO
100
AcDbPolyline
 62
250
  6
CONTINUOUS
 90
7
 70
0
 10
-53.0997416073
 20
26.1266078228
 10
-53.0995363184
 20
26.1430148832
 10
-53.099429537
 20
26.1567362902
 10
-53.0994021919
 20
26.1681910287
 10
-53.0994866441
 20
26.1770640016
 10
-53.0997255413
 20
26.1827257142
 10
-53.1001502762
 20
26.1847397095
  0
LINE
  5
304
100
AcDbEntity
  8
ASSI
100
AcDbLine
 62
250
  6
CONTINUOUS
 10
-53.1010401054
 20
26.0607131986
 11
-53.0997416073
 21
26.1266078228
  0
LINE
  5
305
100
AcDbEntity
  8
RACCORDO
100
AcDbLine
 62
250
  6
CONTINUOUS
 10
-53.1010401054
 20
26.0607131986
 11
-53.0997416073
 21
26.1266078228
  0
LINE
  5
306
100
AcDbEntity
  8
ASSI
100
AcDbLine
 62
250
  6
CONTINUOUS
 10
-54.4319648481
 20
-25.8656386875
 11
-54.4306698989
 21
-25.8134150626
  0
LINE
  5
307
100
AcDbEntity
  8
RACCORDO
100
AcDbLine
 62
250
  6
CONTINUOUS
 10
-54.4319648481
 20
-25.8656386875
 11
-54.4306698989
 21
-25.8134150626
  0
LINE
  5
308
100
AcDbEntity
  8
ASSI
100
AcDbLine
 62
250
  6
CONTINUOUS
 10
-53.1025821612
 20
25.9983926999
 11
-53.1010401054
 21
26.0607131986
  0
LINE
  5
309
100
AcDbEntity
  8
RACCORDO
100
AcDbLine
 62
250
  6
CONTINUOUS
 10
-53.1025821612
 20
25.9983926999
 11
-53.1010401054
 21
26.0607131986
  0
LINE
  5
30A
100
AcDbEntity
  8
ASSI
100
AcDbLine
 62
250
  6
CONTINUOUS
 10
-53.1060248695
 20
25.8778046382
 11
-53.1025821612
 21
25.9983926999
  0
LINE
  5
30B
100
AcDbEntity
  8
RACCORDO
100
AcDbLine
 62
250
  6
CONTINUOUS
 10
-53.1060248695
 20
25.8778046382
 11
-53.1025821612
 21
25.9983926999
  0
LWPOLYLINE
  5
30C
100
AcDbEntity
  8
ASSI
100
AcDbPolyline
 62
250
  6
CONTINUOUS
 90
3
 70
0
 10
-53.112345436
 20
25.6850418221
 10
-53.1106577026
 20
25.7351614586
 10
-53.1060248695
 20
25.8778046382
  0
LWPOLYLINE
  5
30D
100
AcDbEntity
  8
RACCORDO
100
AcDbPolyline
 62
250
  6
CONTINUOUS
 90
3
 70
0
 10
-53.112345436
 20
25.6850418221
 10
-53.1106577026
 20
25.7351614586
 10
-53.1060248695
 20
25.8778046382
  0
LINE
  5
30E
100
AcDbEntity
  8
ASSI
100
AcDbLine
 62
250
  6
CONTINUOUS
 10
-46.4981527963
 20
24.5393208298
 11
-46.4877494417
 21
24.5614486195
  0
LWPOLYLINE
  5
30F
100
AcDbEntity
  8
ASSI
100
AcDbPolyline
 62
250
  6
CONTINUOUS
 90
10
 70
0
 10
-43.6306058711
 20
23.3368142648
 10
-43.6212150157
 20
23.3557005679
 10
-43.6171341217
 20
23.3637672337
 10
-43.61349836
 20
23.3708456007
 10
-43.6103310848
 20
23.3768900498
 10
-43.6076523503
 20
23.3818621619
 10
-43.6054788955
 20
23.3857305432
 10
-43.6038247513
 20
23.3884699131
 10
-43.6027008789
 20
23.3900618609
 10
-43.6021147028
 20
23.3904955405
  0
LWPOLYLINE
  5
310
100
AcDbEntity
  8
ASSI
100
AcDbPolyline
 62
250
  6
CONTINUOUS
 90
10
 70
0
 10
-43.6597481335
 20
23.2765967287
 10
-43.6718528947
 20
23.2640152204
 10
-43.6836056425
 20
23.2521484543
 10
-43.6949016344
 20
23.2411022353
 10
-43.7056401947
 20
23.23097523
 10
-43.7157258464
 20
23.2218572461
 10
-43.7250691072
 20
23.2138286845
 10
-43.733586953
 20
23.2069608542
 10
-43.7412036038
 20
23.2013150866
 10
-43.7478513954
 20
23.1969415216
  0
LWPOLYLINE
  5
311
100
AcDbEntity
  8
ASSI
100
AcDbPolyline
 62
250
  6
CONTINUOUS
 90
10
 70
0
 10
-43.6596937354
 20
-23.2765610151
 10
-43.6717993924
 20
-23.2639861311
 10
-43.6835538609
 20
-23.2521241278
 10
-43.6948523786
 20
-23.2410809767
 10
-43.7055944182
 20
-23.2309554958
 10
-43.7156841209
 20
-23.2218378676
 10
-43.7250312515
 20
-23.21380898
 10
-43.7335525447
 20
-23.2069404268
 10
-43.7411723365
 20
-23.201293719
 10
-43.7478228468
 20
-23.1969192385
  0
LWPOLYLINE
  5
312
100
AcDbEntity
  8
ASSI
100
AcDbPolyline
 62
250
  6
CONTINUOUS
 90
9
 70
0
 10
-43.6306042689
 20
-23.3368002857
 10
-43.6245633012
 20
-23.3490250942
 10
-43.6191434173
 20
-23.3598536944
 10
-43.6143990797
 20
-23.3691772722
 10
-43.61037742
 20
-23.3769032029
 10
-43.6071180546
 20
-23.3829552903
 10
-43.6046539898
 20
-23.3872720256
 10
-43.6030107343
 20
-23.3898084313
 10
-43.602205342
 20
-23.3905378062
  0
LWPOLYLINE
  5
313
100
AcDbEntity
  8
ASSI
100
AcDbPolyline
 62
250
  6
CONTINUOUS
 90
3
 70
0
 10
-46.4981527963
 20
-24.5393208298
 10
-46.4877492144
 20
-24.5614490794
 10
-46.4677347215
 20
-24.6035632946
  0
LINE
  5
314
100
AcDbEntity
  8
ASSI
100
AcDbLine
 62
7
  6
CONTINUOUS
 10
-51.3175814248
 20
2.5017280725
 11
-51.7660347893
 21
8.3298996787
  0
LINE
  5
315
100
AcDbEntity
  8
DRAFT
100
AcDbLine
 62
7
  6
CONTINUOUS
 10
-51.3175814248
 20
2.5017280725
 11
-51.7660347893
 21
8.3298996787
  0
LWPOLYLINE
  5
316
100
AcDbEntity
  8
ASSI
100
AcDbPolyline
 62
250
  6
CONTINUOUS
 90
13
 70
0
 10
-48.5140909435
 20
-22.7551785682
 10
-48.5116593939
 20
-22.7967906004
 10
-48.505482864
 20
-22.836902162
 10
-48.4955613538
 20
-22.8755132533
 10
-48.4817955242
 20
-22.9128114095
 10
-48.4642847144
 20
-22.9486090953
 10
-48.4433269412
 20
-22.9823437046
 10
-48.4188323587
 20
-23.0141701035
 10
-48.3908908128
 20
-23.0439334259
 10
-48.360069859
 20
-23.0706064674
 10
-48.3265586823
 20
-23.0938468267
 10
-48.2901680976
 20
-23.1139969051
 10
-48.250898105
 20
-23.1310567027
  0
LWPOLYLINE
  5
317
100
AcDbEntity
  8
ASSI
100
AcDbPolyline
 62
250
  6
CONTINUOUS
 90
7
 70
0
 10
-50.4686852853
 20
24.4977478859
 10
-50.4690237741
 20
24.5132943749
 10
-50.46939337
 20
24.5263302854
 10
-50.4697869437
 20
24.5366233238
 10
-50.4701977475
 20
24.5440388257
 10
-50.4706198538
 20
24.5485095003
 10
-50.4710468224
 20
24.55
  0
LINE
  5
318
100
AcDbEntity
  8
ASSI
100
AcDbLine
 62
250
  6
CONTINUOUS
 10
-50.4681225102
 20
24.4601685163
 11
-50.4686852853
 21
24.4977478859
  0
LINE
  5
319
100
AcDbEntity
  8
ASSI
100
AcDbLine
 62
250
  6
CONTINUOUS
 10
-50.4677382562
 20
24.4158305838
 11
-50.4681225102
 21
24.4601685163
  0
LINE
  5
31A
100
AcDbEntity
  8
ASSI
100
AcDbLine
 62
250
  6
CONTINUOUS
 10
-50.4675563411
 20
24.3674284937
 11
-50.4677382562
 21
24.4158305838
  0
LINE
  5
31B
100
AcDbEntity
  8
ASSI
100
AcDbLine
 62
7
  6
CONTINUOUS
 10
-51.3175814248
 20
2.5017280725
 11
-51.3175814248
 21
-2.5017280725
  0
LINE
  5
31C
100
AcDbEntity
  8
DRAFT
100
AcDbLine
 62
7
  6
CONTINUOUS
 10
-51.3175814248
 20
2.5017280725
 11
-51.3175814248
 21
-2.5017280725
  0
LINE
  5
31D
100
AcDbEntity
  8
DRAFT
100
AcDbLine
 62
7
  6
CONTINUOUS
 10
-51.1175814248
 20
21.197818284
 11
-51.1175814248
 21
-21.197818284
  0
LINE
  5
31E
100
AcDbEntity
  8
ASSI
100
AcDbLine
 62
7
  6
CONTINUOUS
 10
-51.1175814248
 20
-24.55
 11
-51.1175814248
 21
-21.197818284
  0
LINE
  5
31F
100
AcDbEntity
  8
ASSI
100
AcDbLine
 62
7
  6
CONTINUOUS
 10
-51.1175814248
 20
21.197818284
 11
-51.1175814248
 21
24.55
  0
LINE
  5
320
100
AcDbEntity
  8
RACCORDO
100
AcDbLine
 62
250
  6
CONTINUOUS
 10
-49.0350212309
 20
-5.2708629838
 11
-49.0350212309
 21
-3.7291370162
  0
LINE
  5
321
100
AcDbEntity
  8
RACCORDO
100
AcDbLine
 62
250
  6
CONTINUOUS
 10
-49.0350212309
 20
3.7291370162
 11
-49.0350212309
 21
5.2708629838
  0
LINE
  5
322
100
AcDbEntity
  8
DRAFT
100
AcDbLine
 62
7
  6
CONTINUOUS
 10
-48.9175814248
 20
-1.0045330208
 11
-48.9175814248
 21
1.0045330208
  0
LINE
  5
323
100
AcDbEntity
  8
RACCORDO
100
AcDbLine
 62
250
  6
CONTINUOUS
 10
-48.8385421732
 20
-5.0709543621
 11
-48.8385421732
 21
-3.9290456379
  0
LINE
  5
324
100
AcDbEntity
  8
RACCORDO
100
AcDbLine
 62
250
  6
CONTINUOUS
 10
-48.8385421732
 20
3.9290456379
 11
-48.8385421732
 21
5.0709543621
  0
LINE
  5
325
100
AcDbEntity
  8
RACCORDO
100
AcDbLine
 62
7
  6
CONTINUOUS
 10
-48.8175814248
 20
4.9546168312
 11
-48.8175814248
 21
4.0362602261
  0
LINE
  5
326
100
AcDbEntity
  8
DRAFT
100
AcDbLine
 62
7
  6
CONTINUOUS
 10
-48.8175814248
 20
5.05
 11
-48.8175814248
 21
4.9546168312
  0
LINE
  5
327
100
AcDbEntity
  8
DRAFT
100
AcDbLine
 62
7
  6
CONTINUOUS
 10
-48.8175814248
 20
4.0362602261
 11
-48.8175814248
 21
3.95
  0
LINE
  5
328
100
AcDbEntity
  8
DRAFT
100
AcDbLine
 62
7
  6
CONTINUOUS
 10
-48.8175814248
 20
-3.95
 11
-48.8175814248
 21
-4.0362602261
  0
LINE
  5
329
100
AcDbEntity
  8
RACCORDO
100
AcDbLine
 62
7
  6
CONTINUOUS
 10
-48.8175814248
 20
-4.0362602261
 11
-48.8175814248
 21
-4.9546168312
  0
LINE
  5
32A
100
AcDbEntity
  8
DRAFT
100
AcDbLine
 62
7
  6
CONTINUOUS
 10
-48.8175814248
 20
-4.9546168312
 11
-48.8175814248
 21
-5.05
  0
LINE
  5
32B
100
AcDbEntity
  8
ASSI
100
AcDbLine
 62
250
  6
CONTINUOUS
 10
-48.5140909435
 20
-21.1775495891
 11
-48.5140909435
 21
-22.7551785682
  0
LINE
  5
32C
100
AcDbEntity
  8
ASSI
100
AcDbLine
 62
250
  6
CONTINUOUS
 10
-48.5140909435
 20
21.1775495891
 11
-48.5140909435
 21
22.7551787343
  0
LINE
  5
32D
100
AcDbEntity
  8
ASSI
100
AcDbLine
 62
250
  6
CONTINUOUS
 10
-50.4675563411
 20
-24.3674284937
 11
-50.4677382728
 21
-24.4158333022
  0
LINE
  5
32E
100
AcDbEntity
  8
ASSI
100
AcDbLine
 62
250
  6
CONTINUOUS
 10
-50.4677382728
 20
-24.4158333022
 11
-50.4681225739
 21
-24.4601740251
  0
LWPOLYLINE
  5
32F
100
AcDbEntity
  8
ASSI
100
AcDbPolyline
 62
250
  6
CONTINUOUS
 90
8
 70
0
 10
-50.4681225739
 20
-24.4601740251
 10
-50.468685418
 20
-24.497754795
 10
-50.4690239262
 20
-24.5133005116
 10
-50.4693935279
 20
-24.5263351114
 10
-50.4697870904
 20
-24.5366265493
 10
-50.4701978637
 20
-24.544040482
 10
-50.4706199209
 20
-24.5485099687
 10
-50.4710468229
 20
-24.55
  0
LWPOLYLINE
  5
330
100
AcDbEntity
  8
ASSI
100
AcDbPolyline
 62
250
  6
CONTINUOUS
 90
13
 70
0
 10
-48.5140909435
 20
22.7551787343
 10
-48.5117958132
 20
22.7958334772
 10
-48.5058804892
 20
22.8351073538
 10
-48.4963449715
 20
22.873000364
 10
-48.4832425827
 20
22.9095868267
 10
-48.4665200001
 20
22.944792423
 10
-48.4460172558
 20
22.9783941966
 10
-48.4213995238
 20
23.0108667889
 10
-48.3930016301
 20
23.0417355585
 10
-48.3616680844
 20
23.0693536248
 10
-48.3276803899
 20
23.0931720279
 10
-48.2907570434
 20
23.1137397278
 10
-48.2508980449
 20
23.1310567246
  0
LWPOLYLINE
  5
331
100
AcDbEntity
  8
ASSI
100
AcDbPolyline
 62
7
  6
CONTINUOUS
 90
16
 70
0
 10
-48.3175814248
 20
21.3507398453
 10
-48.31886873
 20
21.3304794667
 10
-48.3226198026
 20
21.3112431057
 10
-48.3286501277
 20
21.2930307622
 10
-48.3367355199
 20
21.2757381608
 10
-48.34666955
 20
21.259469577
 10
-48.3583124267
 20
21.2445378372
 10
-48.3714255091
 20
21.2310007502
 10
-48.3858406206
 20
21.2188005073
 10
-48.4016222586
 20
21.2080765096
 10
-48.4187874255
 20
21.1987812568
 10
-48.4370216122
 20
21.1909622491
 10
-48.455905245
 20
21.1849013883
 10
-48.475143131
 20
21.1806926417
 10
-48.4946046935
 20
21.1782420419
 10
-48.5140909435
 20
21.1775495891
  0
LINE
  5
332
100
AcDbEntity
  8
ASSI
100
AcDbLine
 62
7
  6
CONTINUOUS
 10
-51.7660347893
 20
-8.3298996787
 11
-51.3175814248
 21
-2.5017280725
  0
LINE
  5
333
100
AcDbEntity
  8
DRAFT
100
AcDbLine
 62
7
  6
CONTINUOUS
 10
-51.7660347893
 20
-8.3298996787
 11
-51.3175814248
 21
-2.5017280725
  0
LINE
  5
334
100
AcDbEntity
  8
ASSI
100
AcDbLine
 62
250
  6
CONTINUOUS
 10
-43.6597499549
 20
23.2765978125
 11
-43.6472980582
 21
23.302548319
  0
LWPOLYLINE
  5
335
100
AcDbEntity
  8
ASSI
100
AcDbPolyline
 62
250
  6
CONTINUOUS
 90
3
 70
0
 10
-43.6472980582
 20
23.302548319
 10
-43.6358559066
 20
23.3261154644
 10
-43.6306058711
 20
23.3368142648
  0
LINE
  5
336
100
AcDbEntity
  8
ASSI
100
AcDbLine
 62
250
  6
CONTINUOUS
 10
-48.2508980449
 20
23.1310567246
 11
-47.8140909435
 21
23.2900415076
  0
LINE
  5
337
100
AcDbEntity
  8
ASSI
100
AcDbLine
 62
7
  6
CONTINUOUS
 10
-48.1859854534
 20
22.9431178525
 11
-47.7491773961
 21
23.1021029835
  0
LWPOLYLINE
  5
338
100
AcDbEntity
  8
ASSI
100
AcDbPolyline
 62
250
  6
CONTINUOUS
 90
10
 70
0
 10
-43.5293818404
 20
23.1639223585
 10
-43.5512105946
 20
23.1564150276
 10
-43.5726985802
 20
23.1492434377
 10
-43.5935564663
 20
23.1425041508
 10
-43.6135034118
 20
23.1362879058
 10
-43.6322708095
 20
23.130678414
 10
-43.6496059118
 20
23.1257512267
 10
-43.6652752822
 20
23.1215726966
 10
-43.6790679313
 20
23.1181990889
 10
-43.6907981261
 20
23.1156758377
  0
LWPOLYLINE
  5
339
100
AcDbEntity
  8
ASSI
100
AcDbPolyline
 62
250
  6
CONTINUOUS
 90
13
 70
0
 10
-50.4675563411
 20
-24.3674284937
 10
-50.442911715
 20
-24.3738138688
 10
-50.4187338793
 20
-24.3798077897
 10
-50.395418091
 20
-24.385312477
 10
-50.3733468542
 20
-24.3902378775
 10
-50.3528778833
 20
-24.3945044314
 10
-50.3343397893
 20
-24.398043763
 10
-50.3180163391
 20
-24.4008010054
 10
-50.3041998863
 20
-24.402725992
 10
-50.293151147
 20
-24.4037849534
 10
-50.285027926
 20
-24.4039701881
 10
-50.279914962
 20
-24.4032897734
 10
-50.2778616571
 20
-24.401763809
  0
LWPOLYLINE
  5
33A
100
AcDbEntity
  8
ASSI
100
AcDbPolyline
 62
250
  6
CONTINUOUS
 90
10
 70
0
 10
-43.5293829437
 20
-23.1639207848
 10
-43.5512121826
 20
-23.1564134771
 10
-43.5727004358
 20
-23.1492419401
 10
-43.5935583748
 20
-23.1425027346
 10
-43.6135051576
 20
-23.1362866024
 10
-43.6322722247
 20
-23.1306772332
 10
-43.6496069125
 20
-23.1257501412
 10
-43.6652758341
 20
-23.1215716617
 10
-43.679068025
 20
-23.1181980548
 10
-43.6907977962
 20
-23.1156747392
  0
LINE
  5
33B
100
AcDbEntity
  8
ASSI
100
AcDbLine
 62
250
  6
CONTINUOUS
 10
-48.250898105
 20
-23.1310567027
 11
-47.8140909435
 21
-23.2900415076
  0
LINE
  5
33C
100
AcDbEntity
  8
ASSI
100
AcDbLine
 62
7
  6
CONTINUOUS
 10
-48.1859854534
 20
-22.9431178525
 11
-47.7491773961
 21
-23.1021029835
  0
LINE
  5
33D
100
AcDbEntity
  8
ASSI
100
AcDbLine
 62
250
  6
CONTINUOUS
 10
-43.644303371
 20
-23.3086614343
 11
-43.6306042689
 21
-23.3368002857
  0
LINE
  5
33E
100
AcDbEntity
  8
ASSI
100
AcDbLine
 62
250
  6
CONTINUOUS
 10
-43.6596950285
 20
-23.2765580052
 11
-43.644303371
 21
-23.3086614343
  0
LWPOLYLINE
  5
33F
100
AcDbEntity
  8
ASSI
100
AcDbPolyline
 62
250
  6
CONTINUOUS
 90
7
 70
0
 10
-46.8223965455
 20
24.6975904719
 10
-46.8227341866
 20
24.7131380617
 10
-46.8231029479
 20
24.7261863825
 10
-46.8234963494
 20
24.7365158856
 10
-46.8239079627
 20
24.7439807347
 10
-46.8243317034
 20
24.7484924231
 10
-46.8247611017
 20
24.75
  0
LWPOLYLINE
  5
340
100
AcDbEntity
  8
ASSI
100
AcDbPolyline
 62
250
  6
CONTINUOUS
 90
7
 70
0
 10
-46.626061599
 20
24.6974545671
 10
-46.6263982182
 20
24.7129912075
 10
-46.6267658327
 20
24.7260398566
 10
-46.6271588311
 20
24.7364013324
 10
-46.6275712143
 20
24.7439174713
 10
-46.6279966875
 20
24.7484735426
 10
-46.6284287561
 20
24.75
  0
LINE
  5
341
100
AcDbEntity
  8
ASSI
100
AcDbLine
 62
250
  6
CONTINUOUS
 10
-47.8133041997
 20
-23.7943236307
 11
-47.8140909435
 21
-23.7423678201
  0
LINE
  5
342
100
AcDbEntity
  8
ASSI
100
AcDbLine
 62
250
  6
CONTINUOUS
 10
-46.821835085
 20
24.6600209543
 11
-46.8223965455
 21
24.6975904719
  0
LINE
  5
343
100
AcDbEntity
  8
ASSI
100
AcDbLine
 62
250
  6
CONTINUOUS
 10
-46.6255013482
 20
24.6599003112
 11
-46.626061599
 21
24.6974545671
  0
LINE
  5
344
100
AcDbEntity
  8
ASSI
100
AcDbLine
 62
250
  6
CONTINUOUS
 10
-47.812811041
 20
-23.8427377163
 11
-47.8133041997
 21
-23.7943236307
  0
LINE
  5
345
100
AcDbEntity
  8
ASSI
100
AcDbLine
 62
250
  6
CONTINUOUS
 10
-46.8214519606
 20
24.6157363604
 11
-46.821835085
 21
24.6600209543
  0
LINE
  5
346
100
AcDbEntity
  8
ASSI
100
AcDbLine
 62
250
  6
CONTINUOUS
 10
-46.6251191579
 20
24.6156613373
 11
-46.6255013482
 21
24.6599003112
  0
LWPOLYLINE
  5
347
100
AcDbEntity
  8
ASSI
100
AcDbPolyline
 62
250
  6
CONTINUOUS
 90
7
 70
0
 10
-47.812645924
 20
23.8842668331
 10
-47.8126911448
 20
23.9015569228
 10
-47.8128212379
 20
23.9160844713
 10
-47.8130322993
 20
23.927532312
 10
-47.8133184349
 20
23.9357500425
 10
-47.8136737344
 20
23.9406908068
 10
-47.8140909435
 20
23.9423373592
  0
LINE
  5
348
100
AcDbEntity
  8
ASSI
100
AcDbLine
 62
250
  6
CONTINUOUS
 10
-46.8212706204
 20
24.5674284937
 11
-46.8214519606
 21
24.6157363604
  0
LINE
  5
349
100
AcDbEntity
  8
ASSI
100
AcDbLine
 62
250
  6
CONTINUOUS
 10
-46.6249382748
 20
24.5674284937
 11
-46.6251191579
 21
24.6156613373
  0
LINE
  5
34A
100
AcDbEntity
  8
RACCORDO
100
AcDbLine
 62
250
  6
CONTINUOUS
 10
-48.4149753818
 20
4.9616443458
 11
-48.4149753818
 21
4.0205378924
  0
LINE
  5
34B
100
AcDbEntity
  8
RACCORDO
100
AcDbLine
 62
250
  6
CONTINUOUS
 10
-48.4149753818
 20
-4.0205378924
 11
-48.4149753818
 21
-4.9616443458
  0
LINE
  5
34C
100
AcDbEntity
  8
ASSI
100
AcDbLine
 62
7
  6
CONTINUOUS
 10
-48.3175814248
 20
-21.3507398453
 11
-48.3175814248
 21
-22.7551793284
  0
LINE
  5
34D
100
AcDbEntity
  8
ASSI
100
AcDbLine
 62
7
  6
CONTINUOUS
 10
-48.3175814248
 20
21.3507398453
 11
-48.3175814248
 21
22.7551793284
  0
LINE
  5
34E
100
AcDbEntity
  8
DRAFT
100
AcDbLine
 62
7
  6
CONTINUOUS
 10
-47.8175814248
 20
-4.0205378924
 11
-47.8175814248
 21
-3.95
  0
LINE
  5
34F
100
AcDbEntity
  8
DRAFT
100
AcDbLine
 62
7
  6
CONTINUOUS
 10
-47.8175814248
 20
3.95
 11
-47.8175814248
 21
4.0205378924
  0
LINE
  5
350
100
AcDbEntity
  8
ASSI
100
AcDbLine
 62
250
  6
CONTINUOUS
 10
-47.8140909435
 20
-23.2900415076
 11
-47.8140909435
 21
-23.7423678201
  0
LINE
  5
351
100
AcDbEntity
  8
ASSI
100
AcDbLine
 62
250
  6
CONTINUOUS
 10
-47.8140909435
 20
23.2900415076
 11
-47.8140909435
 21
23.7423678201
  0
LINE
  5
352
100
AcDbEntity
  8
ASSI
100
AcDbLine
 62
7
  6
CONTINUOUS
 10
-47.6175814248
 20
-23.2900415076
 11
-47.6175814248
 21
-23.7423678201
  0
LINE
  5
353
100
AcDbEntity
  8
ASSI
100
AcDbLine
 62
7
  6
CONTINUOUS
 10
-47.6175814248
 20
23.2900415076
 11
-47.6175814248
 21
23.7423678201
  0
LINE
  5
354
100
AcDbEntity
  8
RACCORDO
100
AcDbLine
 62
7
  6
CONTINUOUS
 10
-46.4175814248
 20
5.05
 11
-46.4175814248
 21
4.996508987
  0
LINE
  5
355
100
AcDbEntity
  8
RACCORDO
100
AcDbLine
 62
7
  6
CONTINUOUS
 10
-46.4175814248
 20
-5.05
 11
-46.4175814248
 21
-4.996508987
  0
LINE
  5
356
100
AcDbEntity
  8
0
100
AcDbLine
 62
7
  6
CONTINUOUS
 10
-46.2175814248
 20
-5.0
 11
-46.2175814248
 21
-3.95
  0
LINE
  5
357
100
AcDbEntity
  8
0
100
AcDbLine
 62
7
  6
CONTINUOUS
 10
-46.2175814248
 20
3.95
 11
-46.2175814248
 21
5.0
  0
LINE
  5
358
100
AcDbEntity
  8
ASSI
100
AcDbLine
 62
250
  6
CONTINUOUS
 10
-46.8212706204
 20
-24.5674284937
 11
-46.8214519542
 21
-24.6157353055
  0
LINE
  5
359
100
AcDbEntity
  8
ASSI
100
AcDbLine
 62
250
  6
CONTINUOUS
 10
-46.6249382748
 20
-24.5674284937
 11
-46.6251191362
 21
-24.615660443
  0
LINE
  5
35A
100
AcDbEntity
  8
ASSI
100
AcDbLine
 62
250
  6
CONTINUOUS
 10
-47.812811041
 20
23.8427377163
 11
-47.812645924
 21
23.8842668331
  0
LINE
  5
35B
100
AcDbEntity
  8
ASSI
100
AcDbLine
 62
250
  6
CONTINUOUS
 10
-46.8214519542
 20
-24.6157353055
 11
-46.8218350621
 21
-24.6600189668
  0
LINE
  5
35C
100
AcDbEntity
  8
ASSI
100
AcDbLine
 62
250
  6
CONTINUOUS
 10
-46.6251191362
 20
-24.615660443
 11
-46.6255013076
 21
-24.6598990758
  0
LINE
  5
35D
100
AcDbEntity
  8
ASSI
100
AcDbLine
 62
250
  6
CONTINUOUS
 10
-47.8133041997
 20
23.7943236307
 11
-47.812811041
 21
23.8427377163
  0
LINE
  5
35E
100
AcDbEntity
  8
ASSI
100
AcDbLine
 62
250
  6
CONTINUOUS
 10
-47.8140909435
 20
23.7423678201
 11
-47.8133041997
 21
23.7943236307
  0
LWPOLYLINE
  5
35F
100
AcDbEntity
  8
ASSI
100
AcDbPolyline
 62
250
  6
CONTINUOUS
 90
8
 70
0
 10
-46.8218350621
 20
-24.6600189668
 10
-46.8223965001
 20
-24.697588099
 10
-46.8227341351
 20
-24.713135973
 10
-46.8231028948
 20
-24.7261847516
 10
-46.8234963004
 20
-24.7365148011
 10
-46.8239079239
 20
-24.7439801796
 10
-46.8243316812
 20
-24.7484922664
 10
-46.8247611017
 20
-24.75
  0
LWPOLYLINE
  5
360
100
AcDbEntity
  8
ASSI
100
AcDbPolyline
 62
250
  6
CONTINUOUS
 90
8
 70
0
 10
-46.6255013076
 20
-24.6598990758
 10
-46.6260615479
 20
-24.697453482
 10
-46.6263981666
 20
-24.7129903225
 10
-46.6267657842
 20
-24.7260392131
 10
-46.6271587893
 20
-24.7364009282
 10
-46.6275711829
 20
-24.7439172724
 10
-46.6279966701
 20
-24.7484734883
 10
-46.6284287561
 20
-24.75
  0
LWPOLYLINE
  5
361
100
AcDbEntity
  8
ASSI
100
AcDbPolyline
 62
250
  6
CONTINUOUS
 90
6
 70
0
 10
-48.1859854534
 20
-22.9431178525
 10
-48.1861654352
 20
-22.9448593895
 10
-48.1875039069
 20
-22.9497626758
 10
-48.1899781403
 20
-22.9577444503
 10
-48.1935461214
 20
-22.9686691771
 10
-48.1981472634
 20
-22.9823513471
  0
LWPOLYLINE
  5
362
100
AcDbEntity
  8
ASSI
100
AcDbPolyline
 62
250
  6
CONTINUOUS
 90
7
 70
0
 10
-53.1001500993
 20
-26.184739694
 10
-53.0997071138
 20
-26.1821918469
 10
-53.0994570899
 20
-26.174766881
 10
-53.0993929161
 20
-26.1626830536
 10
-53.0994864519
 20
-26.1460876541
 10
-53.0997437769
 20
-26.1253321439
 10
-53.1007408853
 20
-26.0743494505
  0
LWPOLYLINE
  5
363
100
AcDbEntity
  8
RACCORDO
100
AcDbPolyline
 62
250
  6
CONTINUOUS
 90
7
 70
0
 10
-53.1001500993
 20
-26.184739694
 10
-53.0997071138
 20
-26.1821918469
 10
-53.0994570899
 20
-26.174766881
 10
-53.0993929161
 20
-26.1626830536
 10
-53.0994864519
 20
-26.1460876541
 10
-53.0997437769
 20
-26.1253321439
 10
-53.1007408853
 20
-26.0743494505
  0
LWPOLYLINE
  5
364
100
AcDbEntity
  8
0
100
AcDbPolyline
 62
7
  6
CONTINUOUS
 90
3
 70
0
 43
0.3500000006
 10
-33.3461535645
 20
45.3493020172
 10
-33.4175824814
 20
45.1350130005
 10
-33.5604380493
 20
44.8493018646
  0
LWPOLYLINE
  5
365
100
AcDbEntity
  8
ASSI
100
AcDbPolyline
 62
250
  6
CONTINUOUS
 90
6
 70
0
 10
-39.1788692816
 20
23.2329629131
 10
-39.1793996288
 20
23.2315280185
 10
-39.1807103977
 20
23.2271722576
 10
-39.1827816219
 20
23.2199619803
 10
-39.1855817512
 20
23.2100070183
 10
-39.1978775769
 20
23.1653850123
  0
LINE
  5
366
100
AcDbEntity
  8
CURVE
100
AcDbLine
 62
7
  6
CONTINUOUS
 10
-42.5216774248
 20
15.0713341286
 11
-42.4357351943
 21
15.1572763591
  0
LINE
  5
367
100
AcDbEntity
  8
CURVE
100
AcDbLine
 62
7
  6
CONTINUOUS
 10
-42.4869452874
 20
14.686044838
 11
-41.8449292173
 21
15.328060908
  0
LINE
  5
368
100
AcDbEntity
  8
CURVE
100
AcDbLine
 62
7
  6
CONTINUOUS
 10
-42.1621580247
 20
14.5908106727
 11
-41.9216464431
 21
14.8313222543
  0
LINE
  5
369
100
AcDbEntity
  8
CURVE
100
AcDbLine
 62
7
  6
CONTINUOUS
 10
-41.7234452556
 20
15.0295234418
 11
-41.2541232404
 21
15.4988454569
  0
LINE
  5
36A
100
AcDbEntity
  8
ASSI
100
AcDbLine
 62
7
  6
CONTINUOUS
 10
-54.4306698989
 20
-26.3132437251
 11
-54.4175814248
 21
-26.3135864588
  0
LINE
  5
36B
100
AcDbEntity
  8
RACCORDO
100
AcDbLine
 62
7
  6
CONTINUOUS
 10
-54.4306698989
 20
-26.3132437251
 11
-54.4175814248
 21
-26.3135864588
  0
LINE
  5
36C
100
AcDbEntity
  8
ASSI
100
AcDbLine
 62
250
  6
CONTINUOUS
 10
-54.4306698989
 20
-25.8134150626
 11
-54.4175814248
 21
-25.8137577963
  0
LINE
  5
36D
100
AcDbEntity
  8
RACCORDO
100
AcDbLine
 62
250
  6
CONTINUOUS
 10
-54.4306698989
 20
-25.8134150626
 11
-54.4175814248
 21
-25.8137577963
  0
LWPOLYLINE
  5
36E
100
AcDbEntity
  8
ASSI
100
AcDbPolyline
 62
250
  6
CONTINUOUS
 90
10
 70
0
 10
-41.0685636846
 20
-23.05
 10
-41.0809261371
 20
-23.0475707422
 10
-41.0959977087
 20
-23.0451815763
 10
-41.1135322946
 20
-23.0428710154
 10
-41.1332420431
 20
-23.040676489
 10
-41.1548090349
 20
-23.0386329496
 10
-41.177892539
 20
-23.0367725085
 10
-41.2021236702
 20
-23.0351249513
 10
-41.2271093657
 20
-23.033717056
 10
-41.2524470673
 20
-23.0325715066
  0
LWPOLYLINE
  5
36F
100
AcDbEntity
  8
ASSI
100
AcDbPolyline
 62
250
  6
CONTINUOUS
 90
4
 70
0
 10
-39.1788692816
 20
-23.2329629131
 10
-39.1793996288
 20
-23.2315280185
 10
-39.1807103977
 20
-23.2271722576
 10
-39.182781622
 20
-23.2199619803
  0
LINE
  5
370
100
AcDbEntity
  8
ASSI
100
AcDbLine
 62
250
  6
CONTINUOUS
 10
-44.4933264924
 20
21.9061114536
 11
-44.4855879623
 21
21.7661838399
  0
LWPOLYLINE
  5
371
100
AcDbEntity
  8
ASSI
100
AcDbPolyline
 62
250
  6
CONTINUOUS
 90
16
 70
0
 10
-44.7195853677
 20
23.0325715063
 10
-44.7141652747
 20
22.9312829953
 10
-44.7087226545
 20
22.8324777029
 10
-44.7032575072
 20
22.7361556293
 10
-44.6977595262
 20
22.6422916148
 10
-44.692239018
 20
22.5509108191
 10
-44.6867269021
 20
22.4620887203
 10
-44.6812278794
 20
22.3758997366
 10
-44.6757372488
 20
22.2922694499
 10
-44.6702718266
 20
22.2110500843
 10
-44.6648357785
 20
22.1322871461
 10
-44.6594249386
 20
22.0559351289
 10
-44.654043626
 20
21.9817097372
 10
-44.6486932801
 20
21.9095162059
 10
-44.6433724614
 20
21.8394493002
 10
-44.6380811698
 20
21.7715090201
  0
LINE
  5
372
100
AcDbEntity
  8
ASSI
100
AcDbLine
 62
250
  6
CONTINUOUS
 10
-43.7317537406
 20
-21.8822292384
 11
-43.7393661495
 21
-21.7401251993
  0
LINE
  5
373
100
AcDbEntity
  8
ASSI
100
AcDbLine
 62
250
  6
CONTINUOUS
 10
-44.5011619206
 20
22.054696676
 11
-44.4933264924
 21
21.9061114536
  0
LWPOLYLINE
  5
374
100
AcDbEntity
  8
ASSI
100
AcDbPolyline
 62
250
  6
CONTINUOUS
 90
16
 70
0
 10
-43.5102083444
 20
-23.0325715063
 10
-43.5155266436
 20
-22.9272582787
 10
-43.520871247
 20
-22.8247134275
 10
-43.5262421545
 20
-22.7249369528
 10
-43.53165002
 20
-22.6279208381
 10
-43.5370841896
 20
-22.5336730998
 10
-43.5425127019
 20
-22.4422177878
 10
-43.5479293529
 20
-22.353648401
 10
-43.5533403465
 20
-22.2678714404
 10
-43.558732333
 20
-22.1846304583
 10
-43.5641019682
 20
-22.1039509366
 10
-43.5694525962
 20
-22.0258073932
 10
-43.5747809
 20
-21.9498669342
 10
-43.5800857739
 20
-21.8760185948
 10
-43.5853683237
 20
-21.8043733397
 10
-43.5906285492
 20
-21.734931169
  0
LINE
  5
375
100
AcDbEntity
  8
ASSI
100
AcDbLine
 62
250
  6
CONTINUOUS
 10
-43.724065505
 20
-22.0331742452
 11
-43.7317537406
 21
-21.8822292384
  0
LINE
  5
376
100
AcDbEntity
  8
ASSI
100
AcDbLine
 62
250
  6
CONTINUOUS
 10
-44.5090743755
 20
22.212248405
 11
-44.5011619206
 21
22.054696676
  0
LINE
  5
377
100
AcDbEntity
  8
ASSI
100
AcDbLine
 62
250
  6
CONTINUOUS
 10
-43.7163218663
 20
-22.1933039358
 11
-43.724065505
 21
-22.0331742452
  0
LINE
  5
378
100
AcDbEntity
  8
ASSI
100
AcDbLine
 62
250
  6
CONTINUOUS
 10
-44.517068024
 20
22.3798816766
 11
-44.5090743755
 21
22.212248405
  0
LWPOLYLINE
  5
379
100
AcDbEntity
  8
ASSI
100
AcDbPolyline
 62
250
  6
CONTINUOUS
 90
4
 70
0
 10
-42.9197709954
 20
-21.6716371372
 10
-42.9188257258
 20
-21.6937018048
 10
-42.9180969193
 20
-21.7069930829
 10
-42.9175814248
 20
-21.7114278447
  0
LWPOLYLINE
  5
37A
100
AcDbEntity
  8
ASSI
100
AcDbPolyline
 62
250
  6
CONTINUOUS
 90
7
 70
0
 10
-44.5450910415
 20
23.05
 10
-44.5411400423
 20
22.946444633
 10
-44.5371617208
 20
22.8454865934
 10
-44.5331616706
 20
22.747125881
 10
-44.5291428072
 20
22.6513349802
 10
-44.5251128526
 20
22.5581414067
 10
-44.517068024
 20
22.3798816766
  0
LWPOLYLINE
  5
37B
100
AcDbEntity
  8
ASSI
100
AcDbPolyline
 62
250
  6
CONTINUOUS
 90
9
 70
0
 10
-43.6812503076
 20
-23.05
 10
-43.6850844774
 20
-22.9434487016
 10
-43.6889501489
 20
-22.8397320357
 10
-43.6928409145
 20
-22.7388500021
 10
-43.6967523574
 20
-22.6407944953
 10
-43.7006766924
 20
-22.5455736208
 10
-43.7046023613
 20
-22.4532116959
 10
-43.7085190406
 20
-22.3638089425
 10
-43.7163218663
 20
-22.1933039358
  0
LINE
  5
37C
100
AcDbEntity
  8
ASSI
100
AcDbLine
 62
250
  6
CONTINUOUS
 10
-42.9223358784
 20
-21.6017971085
 11
-42.9197709954
 21
-21.6716371372
  0
LINE
  5
37D
100
AcDbEntity
  8
ASSI
100
AcDbLine
 62
250
  6
CONTINUOUS
 10
-42.9256908684
 20
-21.4992408834
 11
-42.9223358784
 21
-21.6017971085
  0
LINE
  5
37E
100
AcDbEntity
  8
ASSI
100
AcDbLine
 62
250
  6
CONTINUOUS
 10
-42.9297971789
 20
-21.3665693604
 11
-42.9256908684
 21
-21.4992408834
  0
LWPOLYLINE
  5
37F
100
AcDbEntity
  8
ASSI
100
AcDbPolyline
 62
250
  6
CONTINUOUS
 90
7
 70
0
 10
-44.1226659414
 20
23.305170205
 10
-44.1223257142
 20
23.2896537993
 10
-44.1219577693
 20
23.2764363158
 10
-44.1215673948
 20
23.2657077224
 10
-44.1211602011
 20
23.2576222143
 10
-44.1207420407
 20
23.252295999
 10
-44.1203189234
 20
23.2498056281
  0
LINE
  5
380
100
AcDbEntity
  8
ASSI
100
AcDbLine
 62
250
  6
CONTINUOUS
 10
-44.1232441522
 20
23.3421779218
 11
-44.1226659414
 21
23.305170205
  0
LINE
  5
381
100
AcDbEntity
  8
ASSI
100
AcDbLine
 62
250
  6
CONTINUOUS
 10
-42.9651365733
 20
23.1384571647
 11
-42.9656114262
 21
23.1796683587
  0
LINE
  5
382
100
AcDbEntity
  8
ASSI
100
AcDbLine
 62
250
  6
CONTINUOUS
 10
-44.1236592808
 20
23.3853395712
 11
-44.1232441522
 21
23.3421779218
  0
LINE
  5
383
100
AcDbEntity
  8
ASSI
100
AcDbLine
 62
250
  6
CONTINUOUS
 10
-44.1238875488
 20
23.4321827624
 11
-44.1236592808
 21
23.3853395712
  0
LWPOLYLINE
  5
384
100
AcDbEntity
  8
ASSI
100
AcDbPolyline
 62
250
  6
CONTINUOUS
 90
3
 70
0
 10
-42.9647885687
 20
23.0674284937
 10
-42.9648528628
 20
23.0918649956
 10
-42.9651365733
 20
23.1384571647
  0
LINE
  5
385
100
AcDbEntity
  8
RACCORDO
100
AcDbLine
 62
7
  6
CONTINUOUS
 10
-45.4175814248
 20
-3.95
 11
-45.4175814248
 21
-4.0
  0
LINE
  5
386
100
AcDbEntity
  8
RACCORDO
100
AcDbLine
 62
7
  6
CONTINUOUS
 10
-45.4175814248
 20
3.95
 11
-45.4175814248
 21
4.0
  0
LINE
  5
387
100
AcDbEntity
  8
DRAFT
100
AcDbLine
 62
7
  6
CONTINUOUS
 10
-44.9175814248
 20
-5.05
 11
-44.9175814248
 21
-3.95
  0
LINE
  5
388
100
AcDbEntity
  8
DRAFT
100
AcDbLine
 62
7
  6
CONTINUOUS
 10
-44.9175814248
 20
3.95
 11
-44.9175814248
 21
5.05
  0
LINE
  5
389
100
AcDbEntity
  8
RACCORDO
100
AcDbLine
 62
250
  6
CONTINUOUS
 10
-44.8967552611
 20
5.0708325089
 11
-44.8967552611
 21
3.9291674911
  0
LINE
  5
38A
100
AcDbEntity
  8
RACCORDO
100
AcDbLine
 62
250
  6
CONTINUOUS
 10
-44.8967552611
 20
-3.9291674911
 11
-44.8967552611
 21
-5.0708325089
  0
LINE
  5
38B
100
AcDbEntity
  8
RACCORDO
100
AcDbLine
 62
250
  6
CONTINUOUS
 10
-44.6932952408
 20
5.2708629838
 11
-44.6932952408
 21
3.7291370162
  0
LINE
  5
38C
100
AcDbEntity
  8
RACCORDO
100
AcDbLine
 62
250
  6
CONTINUOUS
 10
-44.6932952408
 20
-3.7291370162
 11
-44.6932952408
 21
-5.2708629838
  0
LINE
  5
38D
100
AcDbEntity
  8
ASSI
100
AcDbLine
 62
7
  6
CONTINUOUS
 10
-44.0175814248
 20
-20.9669711218
 11
-44.0175814248
 21
20.9669711218
  0
LINE
  5
38E
100
AcDbEntity
  8
DRAFT
100
AcDbLine
 62
7
  6
CONTINUOUS
 10
-44.0175814248
 20
-21.0197859424
 11
-44.0175814248
 21
21.0197859424
  0
LINE
  5
38F
100
AcDbEntity
  8
ASSI
100
AcDbLine
 62
250
  6
CONTINUOUS
 10
-42.9647885687
 20
-23.0674284937
 11
-42.9649694518
 21
-23.1156613372
  0
LINE
  5
390
100
AcDbEntity
  8
ASSI
100
AcDbLine
 62
250
  6
CONTINUOUS
 10
-44.1238875487
 20
-23.4321827624
 11
-44.123659368
 21
-23.3853396102
  0
LWPOLYLINE
  5
391
100
AcDbEntity
  8
ASSI
100
AcDbPolyline
 62
250
  6
CONTINUOUS
 90
10
 70
0
 10
-42.9649694518
 20
-23.1156613372
 10
-42.9653516418
 20
-23.1599003109
 10
-42.9656114066
 20
-23.1796670952
 10
-42.9659118918
 20
-23.1974545667
 10
-42.9662485105
 20
-23.2129912072
 10
-42.9666161244
 20
-23.2260398563
 10
-42.9670091226
 20
-23.2364013322
 10
-42.9674215062
 20
-23.2439174712
 10
-42.9678469802
 20
-23.2484735426
 10
-42.96827905
 20
-23.25
  0
LINE
  5
392
100
AcDbEntity
  8
ASSI
100
AcDbLine
 62
250
  6
CONTINUOUS
 10
-44.123659368
 20
-23.3853396102
 11
-44.1232442927
 21
-23.3421779709
  0
LWPOLYLINE
  5
393
100
AcDbEntity
  8
ASSI
100
AcDbPolyline
 62
250
  6
CONTINUOUS
 90
8
 70
0
 10
-44.1232442927
 20
-23.3421779709
 10
-44.1226661007
 20
-23.3051702422
 10
-44.1223258688
 20
-23.2896538274
 10
-44.1219579097
 20
-23.2764363343
 10
-44.1215675128
 20
-23.265707733
 10
-44.1211602886
 20
-23.2576222193
 10
-44.1207420889
 20
-23.2522960005
 10
-44.1203189233
 20
-23.249805628
  0
LWPOLYLINE
  5
394
100
AcDbEntity
  8
ASSI
100
AcDbPolyline
 62
250
  6
CONTINUOUS
 90
13
 70
0
 10
-43.5102083436
 20
23.0325715063
 10
-43.5098734979
 20
23.0455589593
 10
-43.5099443646
 20
23.0581782334
 10
-43.5104209435
 20
23.0704293286
 10
-43.5113372287
 20
23.0823141153
 10
-43.5126592261
 20
23.0938307231
 10
-43.5142849539
 20
23.104973541
 10
-43.5162111847
 20
23.115742436
 10
-43.5184411457
 20
23.1261375412
 10
-43.5208825373
 20
23.1361536445
 10
-43.5235045926
 20
23.1457890085
 10
-43.5263380784
 20
23.1550453707
 10
-43.5293829945
 20
23.1639227309
  0
LINE
  5
395
100
AcDbEntity
  8
ASSI
100
AcDbLine
 62
250
  6
CONTINUOUS
 10
-42.9297971789
 20
21.3665693604
 11
-42.9257152807
 21
21.4992415248
  0
LINE
  5
396
100
AcDbEntity
  8
ASSI
100
AcDbLine
 62
250
  6
CONTINUOUS
 10
-42.9257152807
 20
21.4992415248
 11
-42.922329224
 21
21.6017957207
  0
LWPOLYLINE
  5
397
100
AcDbEntity
  8
ASSI
100
AcDbPolyline
 62
250
  6
CONTINUOUS
 90
37
 70
0
 10
-44.7195853669
 20
-23.0325715063
 10
-44.720440306
 20
-23.0560048401
 10
-44.7191310635
 20
-23.0802898894
 10
-44.7156576394
 20
-23.1054266542
 10
-44.7101229041
 20
-23.1318170795
 10
-44.7024239873
 20
-23.1590592203
 10
-44.6922522778
 20
-23.185947242
 10
-44.6792966832
 20
-23.2124955184
 10
-44.663868296
 20
-23.2386896756
 10
-44.6465917826
 20
-23.2632807575
 10
-44.6271981545
 20
-23.2860635599
 10
-44.6059564003
 20
-23.3072432869
 10
-44.5842981519
 20
-23.3261865947
 10
-44.5624561881
 20
-23.3425206264
 10
-44.5401977301
 20
-23.3566182388
 10
-44.5182560726
 20
-23.3689646592
 10
-44.4967998215
 20
-23.3795317749
 10
-44.4756603709
 20
-23.3883476986
 10
-44.4550651981
 20
-23.3959819946
 10
-44.4350663497
 20
-23.4024858527
 10
-44.415611779
 20
-23.4078080832
 10
-44.3967728236
 20
-23.4123646807
 10
-44.3785754304
 20
-23.4161969339
 10
-44.3609936525
 20
-23.4192635541
 10
-44.3440209866
 20
-23.4218566705
 10
-44.3276724751
 20
-23.4240082009
 10
-44.3119330756
 20
-23.4256862276
 10
-44.2967511571
 20
-23.4270871265
 10
-44.2821312372
 20
-23.428235084
 10
-44.2680687984
 20
-23.4291059138
 10
-44.254498657
 20
-23.429823433
 10
-44.2414215484
 20
-23.4304045121
 10
-44.2288367372
 20
-23.4308322806
 10
-44.2166768335
 20
-23.4311799448
 10
-44.2049408365
 20
-23.4314585604
 10
-44.193629747
 20
-23.4316570716
 10
-44.172087307
 20
-23.4319406587
  0
LWPOLYLINE
  5
398
100
AcDbEntity
  8
ASSI
100
AcDbPolyline
 62
250
  6
CONTINUOUS
 90
5
 70
0
 10
-42.922329224
 20
21.6017957207
 10
-42.9197709954
 20
21.671637138
 10
-42.9188036809
 20
21.6937042109
 10
-42.9180696757
 20
21.7069961102
 10
-42.9175814248
 20
21.7114278447
  0
LWPOLYLINE
  5
399
100
AcDbEntity
  8
ASSI
100
AcDbPolyline
 62
250
  6
CONTINUOUS
 90
34
 70
0
 10
-44.5450907916
 20
-23.05
 10
-44.5456203437
 20
-23.0615997861
 10
-44.5451241748
 20
-23.0737607307
 10
-44.5435150938
 20
-23.0864275744
 10
-44.540735476
 20
-23.099647673
 10
-44.5366575632
 20
-23.113213991
 10
-44.5311575726
 20
-23.1266879418
 10
-44.5241816143
 20
-23.140023725
 10
-44.5157731367
 20
-23.1530825452
 10
-44.506111324
 20
-23.1653543401
 10
-44.4952199751
 20
-23.1768055423
 10
-44.4832583924
 20
-23.1874099454
 10
-44.4707455438
 20
-23.1968069496
 10
-44.4579205491
 20
-23.2049549898
 10
-44.4447865932
 20
-23.2120556662
 10
-44.431539112
 20
-23.2181962642
 10
-44.4182845831
 20
-23.2234425421
 10
-44.4050360334
 20
-23.2279008831
 10
-44.3918263983
 20
-23.2317050801
 10
-44.3786699774
 20
-23.2349263105
 10
-44.3655886258
 20
-23.2376261632
 10
-44.3526175308
 20
-23.2398965287
 10
-44.3397499217
 20
-23.2417892387
 10
-44.3269863593
 20
-23.2433503626
 10
-44.3143763513
 20
-23.2446425636
 10
-44.3019095533
 20
-23.2457014625
 10
-44.289572152
 20
-23.2465592053
 10
-44.2774186282
 20
-23.2472578051
 10
-44.2654388159
 20
-23.2478204984
 10
-44.2536151835
 20
-23.2482676944
 10
-44.2420041477
 20
-23.2486259623
 10
-44.2306005747
 20
-23.2489094358
 10
-44.2193851274
 20
-23.2491302092
 10
-44.1976616459
 20
-23.2494394327
  0
LWPOLYLINE
  5
39A
100
AcDbEntity
  8
ASSI
100
AcDbPolyline
 62
250
  6
CONTINUOUS
 90
13
 70
0
 10
-43.6812503111
 20
23.05
 10
-43.6809380029
 20
23.0564860569
 10
-43.6808812809
 20
23.0627975394
 10
-43.6810656318
 20
23.0689289087
 10
-43.6814820137
 20
23.0748735696
 10
-43.6821109447
 20
23.0806298822
 10
-43.6829231974
 20
23.0862010173
 10
-43.6839054619
 20
23.0915867767
 10
-43.6850457566
 20
23.0967837093
 10
-43.6863180108
 20
23.1017910697
 10
-43.6877059205
 20
23.1066086325
 10
-43.6892028927
 20
23.1112366397
 10
-43.690798126
 20
23.1156758377
  0
LWPOLYLINE
  5
39B
100
AcDbEntity
  8
ASSI
100
AcDbPolyline
 62
250
  6
CONTINUOUS
 90
13
 70
0
 10
-43.7393661495
 20
21.7401251995
 10
-43.7343770157
 20
21.8324246817
 10
-43.7293835192
 20
21.9279138433
 10
-43.7243923735
 20
22.0265926843
 10
-43.7194049329
 20
22.1285402212
 10
-43.7144341927
 20
22.2336774374
 10
-43.7095035625
 20
22.3417672831
 10
-43.704620949
 20
22.4527987963
 10
-43.6997914595
 20
22.5667829388
 10
-43.6950325771
 20
22.6835155469
 10
-43.6903538058
 20
22.8029285658
 10
-43.6857576287
 20
22.9250900501
 10
-43.6812503074
 20
23.05
  0
LWPOLYLINE
  5
39C
100
AcDbEntity
  8
ASSI
100
AcDbPolyline
 62
250
  6
CONTINUOUS
 90
13
 70
0
 10
-44.4855879623
 20
-21.7661838401
 10
-44.4906471396
 20
-21.8568856425
 10
-44.4957177897
 20
-21.9506727984
 10
-44.5007936247
 20
-22.0475453077
 10
-44.5058739064
 20
-22.1475831272
 10
-44.5109459174
 20
-22.2507063002
 10
-44.5159861226
 20
-22.3566749563
 10
-44.520986836
 20
-22.4654744093
 10
-44.5259435411
 20
-22.5771193454
 10
-44.5308390608
 20
-22.6914139537
 10
-44.5356641916
 20
-22.8082929637
 10
-44.5404168232
 20
-22.9278216458
 10
-44.5450910413
 20
-23.05
  0
LWPOLYLINE
  5
39D
100
AcDbEntity
  8
ASSI
100
AcDbPolyline
 62
250
  6
CONTINUOUS
 90
13
 70
0
 10
-43.590639567
 20
21.7349315535
 10
-43.5837114226
 20
21.826612076
 10
-43.576798605
 20
21.9214061882
 10
-43.569901114
 20
22.0193138902
 10
-43.5630025347
 20
22.120412366
 10
-43.5561192822
 20
22.2246244316
 10
-43.549300601
 20
22.3317185341
 10
-43.5425493751
 20
22.4416830936
 10
-43.5358627206
 20
22.5545296902
 10
-43.5292812309
 20
22.670061511
 10
-43.522818437
 20
22.7882129518
 10
-43.5164608079
 20
22.9090496169
 10
-43.5102083436
 20
23.0325715063
  0
LWPOLYLINE
  5
39E
100
AcDbEntity
  8
ASSI
100
AcDbPolyline
 62
250
  6
CONTINUOUS
 90
13
 70
0
 10
-44.6380698431
 20
-21.7715086255
 10
-44.6450278212
 20
-21.8610471275
 10
-44.651980055
 20
-21.9535306875
 10
-44.6589265446
 20
-22.0489593056
 10
-44.6658828499
 20
-22.1474087003
 10
-44.672833411
 20
-22.248803153
 10
-44.6797315482
 20
-22.3529155083
 10
-44.6865743221
 20
-22.4597307803
 10
-44.6933646722
 20
-22.5692639549
 10
-44.7000647378
 20
-22.6813328346
 10
-44.7066618987
 20
-22.7958766867
 10
-44.713168775
 20
-22.912956244
 10
-44.7195853669
 20
-23.0325715063
  0
LWPOLYLINE
  5
39F
100
AcDbEntity
  8
ASSI
100
AcDbPolyline
 62
250
  6
CONTINUOUS
 90
6
 70
0
 10
-47.7491773961
 20
-23.1021029835
 10
-47.7493488557
 20
-23.1038071051
 10
-47.7506593817
 20
-23.1086244235
 10
-47.7530986341
 20
-23.1165058782
 10
-47.7566414358
 20
-23.1273631464
 10
-47.7612363097
 20
-23.1410336312
  0
LINE
  5
3A0
100
AcDbEntity
  8
ASSI
100
AcDbLine
 62
250
  6
CONTINUOUS
 10
-50.4675563411
 20
-24.3674284937
 11
-50.3655870421
 21
-23.9868738892
  0
LINE
  5
3A1
100
AcDbEntity
  8
ASSI
100
AcDbLine
 62
7
  6
CONTINUOUS
 10
-50.2778616571
 20
-24.401763809
 11
-50.1657576218
 21
-23.9833858537
  0
LINE
  5
3A2
100
AcDbEntity
  8
ASSI
100
AcDbLine
 62
250
  6
CONTINUOUS
 10
-39.1978775769
 20
23.1653850123
 11
-39.2271426093
 21
23.0572062416
  0
LWPOLYLINE
  5
3A3
100
AcDbEntity
  8
RACCORDO
100
AcDbPolyline
 62
7
  6
CONTINUOUS
 90
5
 70
0
 10
-48.8384812466
 20
3.9291065459
 10
-48.8397095552
 20
3.9276993218
 10
-48.8428010082
 20
3.9242405027
 10
-48.8477590882
 20
3.9188114909
 10
-48.8546356034
 20
3.9115529329
  0
LWPOLYLINE
  5
3A4
100
AcDbEntity
  8
RACCORDO
100
AcDbPolyline
 62
7
  6
CONTINUOUS
 90
3
 70
0
 10
-48.8546356034
 20
3.9115529329
 10
-48.886134297
 20
3.8792250969
 10
-48.9324196103
 20
3.8322194173
  0
LWPOLYLINE
  5
3A5
100
AcDbEntity
  8
RACCORDO
100
AcDbPolyline
 62
7
  6
CONTINUOUS
 90
3
 70
0
 10
-48.9905988724
 20
3.7733860272
 10
-49.0122315147
 20
3.7516046137
 10
-49.0350212309
 20
3.7291370162
  0
LWPOLYLINE
  5
3A6
100
AcDbEntity
  8
RACCORDO
100
AcDbPolyline
 62
7
  6
CONTINUOUS
 90
3
 70
0
 10
-48.9324196103
 20
3.8322194173
 10
-48.950696623
 20
3.813880846
 10
-48.9905988724
 20
3.7733860272
  0
LINE
  5
3A7
100
AcDbEntity
  8
CURVE
100
AcDbLine
 62
7
  6
CONTINUOUS
 10
-41.837370762
 20
14.4955765074
 11
-41.5901849277
 21
14.7427623417
  0
LINE
  5
3A8
100
AcDbEntity
  8
CURVE
100
AcDbLine
 62
7
  6
CONTINUOUS
 10
-41.1502870146
 20
15.1826602548
 11
-40.6633172635
 21
15.6696300058
  0
LINE
  5
3A9
100
AcDbEntity
  8
CURVE
100
AcDbLine
 62
7
  6
CONTINUOUS
 10
-42.5216574248
 20
13.3912684165
 11
-42.3217348413
 21
13.591191
  0
LINE
  5
3AA
100
AcDbEntity
  8
CURVE
100
AcDbLine
 62
7
  6
CONTINUOUS
 10
-41.5125834992
 20
14.4003423421
 11
-41.2587234122
 21
14.6542024291
  0
LINE
  5
3AB
100
AcDbEntity
  8
CURVE
100
AcDbLine
 62
7
  6
CONTINUOUS
 10
-40.5771287735
 20
15.3357970678
 11
-40.0725112866
 21
15.8404145547
  0
LINE
  5
3AC
100
AcDbEntity
  8
CURVE
100
AcDbLine
 62
7
  6
CONTINUOUS
 10
-42.5216574248
 20
12.9712469885
 11
-42.2391644248
 21
13.2537399885
  0
LINE
  5
3AD
100
AcDbEntity
  8
CURVE
100
AcDbLine
 62
7
  6
CONTINUOUS
 10
-41.1877962365
 20
14.3051081768
 11
-40.9272618968
 21
14.5656425165
  0
LINE
  5
3AE
100
AcDbEntity
  8
CURVE
100
AcDbLine
 62
7
  6
CONTINUOUS
 10
-40.5608404248
 20
14.9320639885
 11
-40.2783444248
 21
15.2145599885
  0
LINE
  5
3AF
100
AcDbEntity
  8
CURVE
100
AcDbLine
 62
7
  6
CONTINUOUS
 10
-39.9890638031
 20
15.5038406102
 11
-39.5180774248
 21
15.9748269885
  0
LINE
  5
3B0
100
AcDbEntity
  8
CURVE
100
AcDbLine
 62
7
  6
CONTINUOUS
 10
-42.5216574248
 20
12.5512255605
 11
-42.2391644248
 21
12.8337185605
  0
LINE
  5
3B1
100
AcDbEntity
  8
CURVE
100
AcDbLine
 62
7
  6
CONTINUOUS
 10
-40.8630089738
 20
14.2098740115
 11
-40.5958003814
 21
14.4770826038
  0
LINE
  5
3B2
100
AcDbEntity
  8
CURVE
100
AcDbLine
 62
7
  6
CONTINUOUS
 10
-40.5608404248
 20
14.5120425605
 11
-40.2783444248
 21
14.7945385605
  0
LINE
  5
3B3
100
AcDbEntity
  8
CURVE
100
AcDbLine
 62
7
  6
CONTINUOUS
 10
-42.4450575572
 20
12.207804
 11
-42.0919415572
 21
12.56092
  0
LINE
  5
3B4
100
AcDbEntity
  8
CURVE
100
AcDbLine
 62
7
  6
CONTINUOUS
 10
-41.2088934248
 20
13.4439681325
 11
-41.1156755572
 21
13.537186
  0
LINE
  5
3B5
100
AcDbEntity
  8
CURVE
100
AcDbLine
 62
7
  6
CONTINUOUS
 10
-40.538221711
 20
14.1146398462
 11
-40.2736654882
 21
14.3791960691
  0
LINE
  5
3B6
100
AcDbEntity
  8
CURVE
100
AcDbLine
 62
7
  6
CONTINUOUS
 10
-42.0250361292
 20
12.207804
 11
-41.6719201292
 21
12.56092
  0
LINE
  5
3B7
100
AcDbEntity
  8
CURVE
100
AcDbLine
 62
7
  6
CONTINUOUS
 10
-41.2088934248
 20
13.0239467044
 11
-40.9263994248
 21
13.3064407044
  0
LINE
  5
3B8
100
AcDbEntity
  8
CURVE
100
AcDbLine
 62
7
  6
CONTINUOUS
 10
-40.2134344483
 20
14.0194056809
 11
-39.9451852698
 21
14.2876548594
  0
LINE
  5
3B9
100
AcDbEntity
  8
CURVE
100
AcDbLine
 62
7
  6
CONTINUOUS
 10
-42.4829457012
 20
11.329873
 11
-42.1547267012
 21
11.658092
  0
LINE
  5
3BA
100
AcDbEntity
  8
CURVE
100
AcDbLine
 62
7
  6
CONTINUOUS
 10
-41.6050147012
 20
12.207804
 11
-41.2518987012
 21
12.56092
  0
LINE
  5
3BB
100
AcDbEntity
  8
CURVE
100
AcDbLine
 62
7
  6
CONTINUOUS
 10
-41.2088934248
 20
12.6039252764
 11
-40.9263994248
 21
12.8864192764
  0
LINE
  5
3BC
100
AcDbEntity
  8
CURVE
100
AcDbLine
 62
7
  6
CONTINUOUS
 10
-39.8886471856
 20
13.9241715156
 11
-39.6167050514
 21
14.1961136498
  0
LINE
  5
3BD
100
AcDbEntity
  8
CURVE
100
AcDbLine
 62
7
  6
CONTINUOUS
 10
-42.0629242732
 20
11.329873
 11
-41.7347052732
 21
11.658092
  0
LINE
  5
3BE
100
AcDbEntity
  8
CURVE
100
AcDbLine
 62
7
  6
CONTINUOUS
 10
-41.1849932732
 20
12.207804
 11
-40.8318772732
 21
12.56092
  0
LINE
  5
3BF
100
AcDbEntity
  8
CURVE
100
AcDbLine
 62
7
  6
CONTINUOUS
 10
-39.8005794248
 20
13.5922178484
 11
-39.7725252732
 21
13.620272
  0
LINE
  5
3C0
100
AcDbEntity
  8
CURVE
100
AcDbLine
 62
7
  6
CONTINUOUS
 10
-39.5638599229
 20
13.8289373503
 11
-39.5180774248
 21
13.8747198484
  0
LINE
  5
3C1
100
AcDbEntity
  8
CURVE
100
AcDbLine
 62
7
  6
CONTINUOUS
 10
-41.6429028451
 20
11.329873
 11
-41.3146838451
 21
11.658092
  0
LINE
  5
3C2
100
AcDbEntity
  8
CURVE
100
AcDbLine
 62
7
  6
CONTINUOUS
 10
-40.7649718451
 20
12.207804
 11
-40.4118558451
 21
12.56092
  0
LINE
  5
3C3
100
AcDbEntity
  8
CURVE
100
AcDbLine
 62
7
  6
CONTINUOUS
 10
-39.8005794248
 20
13.1721964204
 11
-39.5180864248
 21
13.4546894204
  0
LINE
  5
3C4
100
AcDbEntity
  8
CURVE
100
AcDbLine
 62
7
  6
CONTINUOUS
 10
-42.5216574248
 20
10.0310969923
 11
-42.0596672232
 21
10.4930871939
  0
LINE
  5
3C5
100
AcDbEntity
  8
CURVE
100
AcDbLine
 62
7
  6
CONTINUOUS
 10
-41.2228814171
 20
11.329873
 11
-40.8946624171
 21
11.658092
  0
LINE
  5
3C6
100
AcDbEntity
  8
CURVE
100
AcDbLine
 62
7
  6
CONTINUOUS
 10
-40.3449504171
 20
12.207804
 11
-39.9918344171
 21
12.56092
  0
LINE
  5
3C7
100
AcDbEntity
  8
CURVE
100
AcDbLine
 62
7
  6
CONTINUOUS
 10
-39.8005794248
 20
12.7521749923
 11
-39.5180864248
 21
13.0346679923
  0
LINE
  5
3C8
100
AcDbEntity
  8
CURVE
100
AcDbLine
 62
250
  6
CONTINUOUS
 10
-37.3752202904
 20
14.8578279253
 11
-37.6609346187
 21
14.572113299
  0
LINE
  5
3C9
100
AcDbEntity
  8
RACCORDO
100
AcDbLine
 62
7
  6
CONTINUOUS
 10
-48.8175814248
 20
3.95
 11
-48.8384812466
 21
3.9291065459
  0
LINE
  5
3CA
100
AcDbEntity
  8
ASSI
100
AcDbLine
 62
7
  6
CONTINUOUS
 10
-54.4175814248
 20
-26.3
 11
-53.1001502762
 21
-26.1847397095
  0
LINE
  5
3CB
100
AcDbEntity
  8
RACCORDO
100
AcDbLine
 62
7
  6
CONTINUOUS
 10
-54.4175814248
 20
-26.3
 11
-53.1001502762
 21
-26.1847397095
  0
LWPOLYLINE
  5
3CC
100
AcDbEntity
  8
ASSI
100
AcDbPolyline
 62
250
  6
CONTINUOUS
 90
16
 70
0
 10
-46.6249382748
 20
-24.5674284937
 10
-46.6141582156
 20
-24.5671833538
 10
-46.6037080305
 20
-24.566635823
 10
-46.5935877193
 20
-24.5657859013
 10
-46.583795211
 20
-24.5646049804
 10
-46.5743325767
 20
-24.5631216687
 10
-46.5652060296
 20
-24.5614217911
 10
-46.5564177576
 20
-24.5595084258
 10
-46.5479655727
 20
-24.5573784946
 10
-46.5398491248
 20
-24.5551085878
 10
-46.5320700534
 20
-24.5527013472
 10
-46.5246267191
 20
-24.550154131
 10
-46.517513853
 20
-24.5475356047
 10
-46.5107296991
 20
-24.5448686566
 10
-46.5042760135
 20
-24.5421303983
 10
-46.4981527963
 20
-24.5393208298
  0
LINE
  5
3CD
100
AcDbEntity
  8
ASSI
100
AcDbLine
 62
7
  6
CONTINUOUS
 10
-47.8140909435
 20
-23.9423373592
 11
-51.1175814248
 21
-24.0
  0
LINE
  5
3CE
100
AcDbEntity
  8
ASSI
100
AcDbLine
 62
250
  6
CONTINUOUS
 10
-47.8140909435
 20
-23.7423678201
 11
-51.1175814248
 21
-23.800030461
  0
LINE
  5
3CF
100
AcDbEntity
  8
ASSI
100
AcDbLine
 62
250
  6
CONTINUOUS
 10
-54.9175814248
 20
-25.8134150626
 11
-54.4306698989
 21
-25.8134150626
  0
LINE
  5
3D0
100
AcDbEntity
  8
RACCORDO
100
AcDbLine
 62
250
  6
CONTINUOUS
 10
-54.9175814248
 20
-25.8134150626
 11
-54.4306698989
 21
-25.8134150626
  0
LINE
  5
3D1
100
AcDbEntity
  8
ASSI
100
AcDbLine
 62
250
  6
CONTINUOUS
 10
-53.1123460351
 20
-25.6850418745
 11
-52.9175814248
 21
-25.6850418745
  0
LINE
  5
3D2
100
AcDbEntity
  8
RACCORDO
100
AcDbLine
 62
250
  6
CONTINUOUS
 10
-53.1123460351
 20
-25.6850418745
 11
-52.9175814248
 21
-25.6850418745
  0
LINE
  5
3D3
100
AcDbEntity
  8
ASSI
100
AcDbLine
 62
7
  6
CONTINUOUS
 10
-46.8247611017
 20
-24.75
 11
-46.6284287561
 21
-24.75
  0
LINE
  5
3D4
100
AcDbEntity
  8
ASSI
100
AcDbLine
 62
250
  6
CONTINUOUS
 10
-46.8212706204
 20
-24.5674284937
 11
-46.6249382748
 21
-24.5674284937
  0
LINE
  5
3D5
100
AcDbEntity
  8
ASSI
100
AcDbLine
 62
7
  6
CONTINUOUS
 10
-51.1175814248
 20
-24.55
 11
-50.4710468224
 21
-24.55
  0
LINE
  5
3D6
100
AcDbEntity
  8
ASSI
100
AcDbLine
 62
250
  6
CONTINUOUS
 10
-51.1175814248
 20
-24.3674284937
 11
-50.4675563411
 21
-24.3674284937
  0
LINE
  5
3D7
100
AcDbEntity
  8
ASSI
100
AcDbLine
 62
250
  6
CONTINUOUS
 10
-47.6175814248
 20
-23.7423678201
 11
-47.8140909435
 21
-23.7423678201
  0
LINE
  5
3D8
100
AcDbEntity
  8
ASSI
100
AcDbLine
 62
250
  6
CONTINUOUS
 10
-47.6175814248
 20
-23.2900415076
 11
-47.8140909435
 21
-23.2900415076
  0
LINE
  5
3D9
100
AcDbEntity
  8
ASSI
100
AcDbLine
 62
7
  6
CONTINUOUS
 10
-39.3082788042
 20
-23.25
 11
-42.96827905
 21
-23.25
  0
LINE
  5
3DA
100
AcDbEntity
  8
ASSI
100
AcDbLine
 62
250
  6
CONTINUOUS
 10
-44.1203189233
 20
-23.249805628
 11
-44.0549139482
 21
-23.2496974816
  0
LINE
  5
3DB
100
AcDbEntity
  8
ASSI
100
AcDbLine
 62
250
  6
CONTINUOUS
 10
-44.1668278125
 20
-23.2496824249
 11
-44.1203189233
 21
-23.249805628
  0
LINE
  5
3DC
100
AcDbEntity
  8
ASSI
100
AcDbLine
 62
250
  6
CONTINUOUS
 10
-44.1519261981
 20
-23.4320905066
 11
-44.1238875487
 21
-23.4321827624
  0
LINE
  5
3DD
100
AcDbEntity
  8
ASSI
100
AcDbLine
 62
250
  6
CONTINUOUS
 10
-44.172087307
 20
-23.4319406587
 11
-44.1519261981
 21
-23.4320905066
  0
LINE
  5
3DE
100
AcDbEntity
  8
ASSI
100
AcDbLine
 62
250
  6
CONTINUOUS
 10
-44.1976616459
 20
-23.2494394327
 11
-44.1668278125
 21
-23.2496824249
  0
LINE
  5
3DF
100
AcDbEntity
  8
ASSI
100
AcDbLine
 62
250
  6
CONTINUOUS
 10
-39.9781628034
 20
-23.0674284783
 11
-39.9909287783
 21
-23.0668934817
  0
LINE
  5
3E0
100
AcDbEntity
  8
ASSI
100
AcDbLine
 62
250
  6
CONTINUOUS
 10
-39.9909287783
 20
-23.0668934817
 11
-40.0032409809
 21
-23.0663093563
  0
LINE
  5
3E1
100
AcDbEntity
  8
ASSI
100
AcDbLine
 62
250
  6
CONTINUOUS
 10
-40.0032409809
 20
-23.0663093563
 11
-40.0150818012
 21
-23.0656830975
  0
LWPOLYLINE
  5
3E2
100
AcDbEntity
  8
ASSI
100
AcDbPolyline
 62
250
  6
CONTINUOUS
 90
10
 70
0
 10
-44.7195853669
 20
-23.0325715046
 10
-44.6964195852
 20
-23.0338600573
 10
-44.6735189934
 20
-23.0353661026
 10
-44.6511921776
 20
-23.0370693434
 10
-44.6297400097
 20
-23.0389468222
 10
-44.6094515261
 20
-23.0409732409
 10
-44.5906000461
 20
-23.0431213019
 10
-44.5734395776
 20
-23.0453620623
 10
-44.5582013805
 20
-23.0476653232
 10
-44.5450907923
 20
-23.0500000477
  0
LWPOLYLINE
  5
3E3
100
AcDbEntity
  8
ASSI
100
AcDbPolyline
 62
250
  6
CONTINUOUS
 90
16
 70
0
 10
-47.6175814248
 20
-23.5680986398
 10
-47.596842986
 20
-23.5692587634
 10
-47.5657971816
 20
-23.5729236103
 10
-47.5364235844
 20
-23.5784230344
 10
-47.5088385153
 20
-23.5859217899
 10
-47.4829256532
 20
-23.5952551226
 10
-47.4583360349
 20
-23.6059287698
 10
-47.4350829612
 20
-23.6177650381
 10
-47.4131531312
 20
-23.6309416209
 10
-47.3921576793
 20
-23.6454973366
 10
-47.3720365517
 20
-23.6612392936
 10
-47.3528498021
 20
-23.6783603835
 10
-47.3343887262
 20
-23.6974780992
 10
-47.3165837558
 20
-23.7187982716
 10
-47.299504459
 20
-23.7421150698
 10
-47.2831508358
 20
-23.7674284937
  0
LINE
  5
3E4
100
AcDbEntity
  8
ASSI
100
AcDbLine
 62
250
  6
CONTINUOUS
 10
-40.0150818012
 20
-23.0656830975
 11
-40.0265039325
 21
-23.0650168825
  0
LINE
  5
3E5
100
AcDbEntity
  8
ASSI
100
AcDbLine
 62
250
  6
CONTINUOUS
 10
-40.0265039325
 20
-23.0650168825
 11
-40.0375528167
 21
-23.0643122289
  0
LINE
  5
3E6
100
AcDbEntity
  8
ASSI
100
AcDbLine
 62
250
  6
CONTINUOUS
 10
-40.0375528167
 20
-23.0643122289
 11
-40.048249291
 21
-23.0635707171
  0
LINE
  5
3E7
100
AcDbEntity
  8
ASSI
100
AcDbLine
 62
250
  6
CONTINUOUS
 10
-40.048249291
 20
-23.0635707171
 11
-40.0586375586
 21
-23.0627911014
  0
LINE
  5
3E8
100
AcDbEntity
  8
ASSI
100
AcDbLine
 62
250
  6
CONTINUOUS
 10
-40.0586375586
 20
-23.0627911014
 11
-40.0687562451
 21
-23.0619712632
  0
LINE
  5
3E9
100
AcDbEntity
  8
ASSI
100
AcDbLine
 62
250
  6
CONTINUOUS
 10
-40.0687562451
 20
-23.0619712632
 11
-40.0786178312
 21
-23.0611099165
  0
LINE
  5
3EA
100
AcDbEntity
  8
ASSI
100
AcDbLine
 62
250
  6
CONTINUOUS
 10
-40.0786178312
 20
-23.0611099165
 11
-40.0882396105
 21
-23.0602043089
  0
LINE
  5
3EB
100
AcDbEntity
  8
ASSI
100
AcDbLine
 62
250
  6
CONTINUOUS
 10
-40.0882396105
 20
-23.0602043089
 11
-40.0977030343
 21
-23.0592435028
  0
LWPOLYLINE
  5
3EC
100
AcDbEntity
  8
ASSI
100
AcDbPolyline
 62
250
  6
CONTINUOUS
 90
14
 70
0
 10
-40.0977030343
 20
-23.0592435028
 10
-40.1070427775
 20
-23.058217951
 10
-40.1117111322
 20
-23.0576729563
 10
-40.1163562827
 20
-23.0571067739
 10
-40.1209994556
 20
-23.0565146362
 10
-40.1256322472
 20
-23.0558949018
 10
-40.1302220873
 20
-23.055249204
 10
-40.1347484057
 20
-23.054577669
 10
-40.1391814266
 20
-23.0538824087
 10
-40.1435039438
 20
-23.0531620431
 10
-40.1477086983
 20
-23.0524115752
 10
-40.151770484
 20
-23.0516299072
 10
-40.1556499348
 20
-23.0508200455
 10
-40.1593121906
 20
-23.0499834375
  0
LINE
  5
3ED
100
AcDbEntity
  8
RACCORDO
100
AcDbLine
 62
7
  6
CONTINUOUS
 10
-48.8175814248
 20
-3.95
 11
-48.8385421732
 21
-3.9290456379
  0
LWPOLYLINE
  5
3EE
100
AcDbEntity
  8
RACCORDO
100
AcDbPolyline
 62
7
  6
CONTINUOUS
 90
3
 70
0
 10
-48.9705917224
 20
-3.7937636195
 10
-49.0127299445
 20
-3.7517901134
 10
-49.0350212309
 20
-3.7291370162
  0
LWPOLYLINE
  5
3EF
100
AcDbEntity
  8
RACCORDO
100
AcDbPolyline
 62
7
  6
CONTINUOUS
 90
3
 70
0
 10
-48.9010844506
 20
-3.8639544155
 10
-48.9512502151
 20
-3.8131698866
 10
-48.9705917224
 20
-3.7937636195
  0
LINE
  5
3F0
100
AcDbEntity
  8
RACCORDO
100
AcDbLine
 62
7
  6
CONTINUOUS
 10
-48.8642382255
 20
-3.901610169
 11
-48.9010844506
 21
-3.8639544155
  0
LWPOLYLINE
  5
3F1
100
AcDbEntity
  8
RACCORDO
100
AcDbPolyline
 62
7
  6
CONTINUOUS
 90
5
 70
0
 10
-48.8385421732
 20
-3.9290456379
 10
-48.8398513147
 20
-3.9273242957
 10
-48.8430956291
 20
-3.9237354118
 10
-48.8482641007
 20
-3.9182789862
 10
-48.8642382255
 20
-3.901610169
  0
LINE
  5
3F2
100
AcDbEntity
  8
ASSI
100
AcDbLine
 62
250
  6
CONTINUOUS
 10
-39.182781622
 20
-23.2199619803
 11
-39.1890681322
 21
-23.197459012
  0
LINE
  5
3F3
100
AcDbEntity
  8
ASSI
100
AcDbLine
 62
250
  6
CONTINUOUS
 10
-39.1890681322
 20
-23.197459012
 11
-39.2030664497
 21
-23.1463475911
  0
LINE
  5
3F4
100
AcDbEntity
  8
ASSI
100
AcDbLine
 62
250
  6
CONTINUOUS
 10
-39.2030664497
 20
-23.1463475911
 11
-39.2271426093
 21
-23.0572062416
  0
LINE
  5
3F5
100
AcDbEntity
  8
ASSI
100
AcDbLine
 62
250
  6
CONTINUOUS
 10
-50.3655870421
 20
23.9868738892
 11
-50.4675563411
 21
24.3674284937
  0
LINE
  5
3F6
100
AcDbEntity
  8
ASSI
100
AcDbLine
 62
7
  6
CONTINUOUS
 10
-50.1657576218
 20
23.9833858537
 11
-50.2778616571
 21
24.401763809
  0
LWPOLYLINE
  5
3F7
100
AcDbEntity
  8
CURVE
100
AcDbPolyline
 62
250
  6
CONTINUOUS
 90
34
 70
0
 10
-42.4881231341
 20
-6.540801309
 10
-42.4964063473
 20
-6.4834515439
 10
-42.504223341
 20
-6.4270943682
 10
-42.5115511821
 20
-6.3717595929
 10
-42.518366937
 20
-6.3174770289
 10
-42.5246518107
 20
-6.2642549635
 10
-42.5304035602
 20
-6.2120155888
 10
-42.535624081
 20
-6.1606595736
 10
-42.5403152683
 20
-6.1100875864
 10
-42.5444779194
 20
-6.0602075112
 10
-42.5481084406
 20
-6.0109560939
 10
-42.5512021399
 20
-5.9622772955
 10
-42.5537543256
 20
-5.9141150775
 10
-42.555758894
 20
-5.8664105893
 10
-42.5572040952
 20
-5.8190937335
 10
-42.5580767672
 20
-5.7720916009
 10
-42.5583637483
 20
-5.7253312824
 10
-42.5578129739
 20
-5.6632554778
 10
-42.5561688211
 20
-5.6014340097
 10
-42.5534025384
 20
-5.5398209392
 10
-42.5505667902
 20
-5.4937229168
 10
-42.5470274846
 20
-5.4477128241
 10
-42.5427284349
 20
-5.4017872081
 10
-42.5376134544
 20
-5.3559426153
 10
-42.532892253
 20
-5.3193269238
 10
-42.5275601919
 20
-5.2827829075
 10
-42.5215645667
 20
-5.246332597
 10
-42.5148526728
 20
-5.2099980225
 10
-42.5073718058
 20
-5.1738012147
 10
-42.4990688883
 20
-5.1377635877
 10
-42.4898893507
 20
-5.1019040915
 10
-42.4797782508
 20
-5.06624106
 10
-42.4686806459
 20
-5.030792827
 10
-42.4565415938
 20
-4.9955777265
  0
LWPOLYLINE
  5
3F8
100
AcDbEntity
  8
ASSI
100
AcDbPolyline
 62
250
  6
CONTINUOUS
 90
3
 70
0
 10
-41.190972309
 20
21.829099042
 10
-41.1862914217
 20
21.7539850495
 10
-41.1816292721
 20
21.6811266874
  0
LWPOLYLINE
  5
3F9
100
AcDbEntity
  8
ASSI
100
AcDbPolyline
 62
250
  6
CONTINUOUS
 90
13
 70
0
 10
-41.068563689
 20
-23.05
 10
-41.0670204076
 20
-23.0761051945
 10
-41.0624169671
 20
-23.1017637356
 10
-41.054832129
 20
-23.1265365985
 10
-41.0443956658
 20
-23.1499999155
 10
-41.0312861453
 20
-23.1717522165
 10
-41.0157278793
 20
-23.1914213016
 10
-40.9979870785
 20
-23.2086706238
 10
-40.9783672898
 20
-23.2232050466
 10
-40.9572042095
 20
-23.2347758838
 10
-40.9348599419
 20
-23.2431851539
 10
-40.9117168048
 20
-23.2482889691
 10
-40.888170784
 20
-23.25
  0
LINE
  5
3FA
100
AcDbEntity
  8
ASSI
100
AcDbLine
 62
250
  6
CONTINUOUS
 10
-41.0238281703
 20
21.8279802796
 11
-41.017036449
 21
21.6782537089
  0
LWPOLYLINE
  5
3FB
100
AcDbEntity
  8
ASSI
100
AcDbPolyline
 62
250
  6
CONTINUOUS
 90
12
 70
0
 10
-41.2478369796
 20
22.9240234333
 10
-41.2431890824
 20
22.818130219
 10
-41.2385031514
 20
22.7148918723
 10
-41.2337682837
 20
22.6142751595
 10
-41.2289953821
 20
22.5163133143
 10
-41.2242171556
 20
22.4211060374
 10
-41.2194381906
 20
22.3287398602
 10
-41.2146539005
 20
22.2391282514
 10
-41.2098832349
 20
22.1521113168
 10
-41.2051308057
 20
22.0677487732
 10
-41.200392001
 20
21.9859809039
 10
-41.190972309
 20
21.829099042
  0
LINE
  5
3FC
100
AcDbEntity
  8
ASSI
100
AcDbLine
 62
250
  6
CONTINUOUS
 10
-41.0306852934
 20
21.9868062319
 11
-41.0238281703
 21
21.8279802796
  0
LINE
  5
3FD
100
AcDbEntity
  8
ASSI
100
AcDbLine
 62
250
  6
CONTINUOUS
 10
-40.1986043902
 20
-21.8945138365
 11
-40.2048618704
 21
-21.7462869664
  0
LINE
  5
3FE
100
AcDbEntity
  8
ASSI
100
AcDbLine
 62
250
  6
CONTINUOUS
 10
-41.2538861646
 20
23.0674284937
 11
-41.2478369796
 21
22.9240234333
  0
LWPOLYLINE
  5
3FF
100
AcDbEntity
  8
ASSI
100
AcDbPolyline
 62
250
  6
CONTINUOUS
 90
13
 70
0
 10
-39.9838649072
 20
-22.9217582241
 10
-39.988277761
 20
-22.813796799
 10
-39.9927338699
 20
-22.7086872406
 10
-39.9972439224
 20
-22.6064171292
 10
-40.0017972301
 20
-22.5069988845
 10
-40.006361727
 20
-22.4104697657
 10
-40.0109320186
 20
-22.3169277048
 10
-40.0155134995
 20
-22.2262747697
 10
-40.0200902875
 20
-22.1382544232
 10
-40.0246581157
 20
-22.0529135643
 10
-40.0292212509
 20
-21.9702052939
 10
-40.0337766117
 20
-21.8897323777
 10
-40.0423717454
 20
-21.7434506907
  0
LINE
  5
400
100
AcDbEntity
  8
ASSI
100
AcDbLine
 62
250
  6
CONTINUOUS
 10
-41.0375858504
 20
22.1550987393
 11
-41.0306852934
 21
21.9868062319
  0
LINE
  5
401
100
AcDbEntity
  8
ASSI
100
AcDbLine
 62
250
  6
CONTINUOUS
 10
-40.1920084174
 20
-22.0591655705
 11
-40.1986043902
 21
-21.8945138365
  0
LINE
  5
402
100
AcDbEntity
  8
ASSI
100
AcDbLine
 62
250
  6
CONTINUOUS
 10
-39.9781628026
 20
-23.0674284937
 11
-39.9838649072
 21
-22.9217582241
  0
LINE
  5
403
100
AcDbEntity
  8
ASSI
100
AcDbLine
 62
250
  6
CONTINUOUS
 10
-41.0445335249
 20
22.3341991604
 11
-41.0375858504
 21
22.1550987393
  0
LINE
  5
404
100
AcDbEntity
  8
ASSI
100
AcDbLine
 62
250
  6
CONTINUOUS
 10
-40.1853872274
 20
-22.2341908908
 11
-40.1920084174
 21
-22.0591655705
  0
LINE
  5
405
100
AcDbEntity
  8
ASSI
100
AcDbLine
 62
250
  6
CONTINUOUS
 10
-40.17876469
 20
-22.4202874103
 11
-40.1853872274
 21
-22.2341908908
  0
LWPOLYLINE
  5
406
100
AcDbEntity
  8
CURVE
100
AcDbPolyline
 62
250
  6
CONTINUOUS
 90
54
 70
0
 10
-41.1886912116
 20
-5.5801061494
 10
-41.1892605758
 20
-5.5622780294
 10
-41.1901937348
 20
-5.5443314103
 10
-41.1915195155
 20
-5.5262400909
 10
-41.1932667447
 20
-5.5079778699
 10
-41.1949869512
 20
-5.493236552
 10
-41.1970077444
 20
-5.4784103644
 10
-41.1993415348
 20
-5.4635405832
 10
-41.2020007329
 20
-5.4486684847
 10
-41.204997749
 20
-5.4338353448
 10
-41.2083425881
 20
-5.4190831752
 10
-41.2120356328
 20
-5.4044569299
 10
-41.2160748599
 20
-5.3900022982
 10
-41.2204582464
 20
-5.3757649695
 10
-41.2251837693
 20
-5.3617906333
 10
-41.2302488903
 20
-5.3481196404
 10
-41.2356490102
 20
-5.3347709878
 10
-41.2413790143
 20
-5.3217583339
 10
-41.2474337884
 20
-5.3090953373
 10
-41.2538082178
 20
-5.2967956563
 10
-41.2604992559
 20
-5.2848699266
 10
-41.2675121268
 20
-5.2733166931
 10
-41.2748541225
 20
-5.2621314778
 10
-41.2825325351
 20
-5.2513098027
 10
-41.2905546564
 20
-5.2408471897
 10
-41.2989245552
 20
-5.2307394676
 10
-41.3076334072
 20
-5.2209836912
 10
-41.316669165
 20
-5.2115772219
 10
-41.3260197809
 20
-5.202517421
 10
-41.3356732075
 20
-5.1938016501
 10
-41.3456205454
 20
-5.1854273654
 10
-41.3558654879
 20
-5.1773924024
 10
-41.3664148762
 20
-5.1696946918
 10
-41.3772755517
 20
-5.1623321639
 10
-41.3884543559
 20
-5.1553027493
 10
-41.3999564431
 20
-5.148607585
 10
-41.4117802202
 20
-5.1422606339
 10
-41.4239224073
 20
-5.1362790657
 10
-41.4363797243
 20
-5.13068005
 10
-41.449148891
 20
-5.1254807563
 10
-41.4622194783
 20
-5.1206952805
 10
-41.4755524598
 20
-5.1163254234
 10
-41.4891016596
 20
-5.112369912
 10
-41.5028209021
 20
-5.1088274734
 10
-41.5166640117
 20
-5.1056968347
 10
-41.5305869615
 20
-5.1029736659
 10
-41.5445543208
 20
-5.100641409
 10
-41.5585328078
 20
-5.0986804487
 10
-41.5724891405
 20
-5.0970711699
 10
-41.5863900371
 20
-5.0957939574
 10
-41.603652119
 20
-5.0946347868
 10
-41.6207983003
 20
-5.0939270644
 10
-41.6378513024
 20
-5.0936340335
 10
-41.6548338464
 20
-5.0937189375
  0
LWPOLYLINE
  5
407
100
AcDbEntity
  8
ASSI
100
AcDbPolyline
 62
250
  6
CONTINUOUS
 90
7
 70
0
 10
-41.0685636847
 20
23.05
 10
-41.0652183514
 20
22.9394347594
 10
-41.0618328254
 20
22.8316255682
 10
-41.0584134467
 20
22.7265724265
 10
-41.0549642236
 20
22.6242394778
 10
-41.0514932188
 20
22.5246625786
 10
-41.0445335249
 20
22.3341991604
  0
LWPOLYLINE
  5
408
100
AcDbEntity
  8
ASSI
100
AcDbPolyline
 62
250
  6
CONTINUOUS
 90
6
 70
0
 10
-40.1593122501
 20
-23.05
 10
-40.1624645324
 20
-22.9377267638
 10
-40.1656617957
 20
-22.8283819828
 10
-40.168897102
 20
-22.7219656569
 10
-40.1721650758
 20
-22.6184649287
 10
-40.17876469
 20
-22.4202874103
  0
LWPOLYLINE
  5
409
100
AcDbEntity
  8
ASSI
100
AcDbPolyline
 62
250
  6
CONTINUOUS
 90
7
 70
0
 10
-41.2550094877
 20
23.1974545656
 10
-41.255346108
 20
23.2129912077
 10
-41.2557137235
 20
23.2260398579
 10
-41.2561067224
 20
23.2364013338
 10
-41.2565191056
 20
23.2439174722
 10
-41.2569445783
 20
23.2484735429
 10
-41.2573766459
 20
23.25
  0
LWPOLYLINE
  5
40A
100
AcDbEntity
  8
ASSI
100
AcDbPolyline
 62
250
  6
CONTINUOUS
 90
8
 70
0
 10
-42.9656114262
 20
23.1796683587
 10
-42.9659119143
 20
23.1974556849
 10
-42.9662485342
 20
23.2129921061
 10
-42.9666161474
 20
23.226040498
 10
-42.9670091426
 20
23.2364017286
 10
-42.9674215212
 20
23.2439176641
 10
-42.9678469883
 20
23.2484735949
 10
-42.9682790493
 20
23.25
  0
LINE
  5
40B
100
AcDbEntity
  8
ASSI
100
AcDbLine
 62
250
  6
CONTINUOUS
 10
-41.254449235
 20
23.159900305
 11
-41.2550094877
 21
23.1974545656
  0
LINE
  5
40C
100
AcDbEntity
  8
ASSI
100
AcDbLine
 62
250
  6
CONTINUOUS
 10
-41.2540670447
 20
23.1156613305
 11
-41.254449235
 21
23.159900305
  0
LINE
  5
40D
100
AcDbEntity
  8
ASSI
100
AcDbLine
 62
250
  6
CONTINUOUS
 10
-39.9783436467
 20
23.1156613666
 11
-39.9787258374
 21
23.1599003443
  0
LINE
  5
40E
100
AcDbEntity
  8
ASSI
100
AcDbLine
 62
250
  6
CONTINUOUS
 10
-41.2538861641
 20
23.0674284937
 11
-41.2540670447
 21
23.1156613305
  0
LINE
  5
40F
100
AcDbEntity
  8
ASSI
100
AcDbLine
 62
250
  6
CONTINUOUS
 10
-39.9781627634
 20
23.0674284937
 11
-39.9783436467
 21
23.1156613666
  0
LINE
  5
410
100
AcDbEntity
  8
CURVE
100
AcDbLine
 62
250
  6
CONTINUOUS
 10
-42.5233484248
 20
-13.295314
 11
-42.5233484248
 21
-12.669172
  0
LINE
  5
411
100
AcDbEntity
  8
CURVE
100
AcDbLine
 62
250
  6
CONTINUOUS
 10
-42.5231684248
 20
-7.64503
 11
-42.5231684248
 21
-8.250748
  0
LINE
  5
412
100
AcDbEntity
  8
CURVE
100
AcDbLine
 62
250
  6
CONTINUOUS
 10
-42.5231684248
 20
-9.570447
 11
-42.5231684248
 21
-10.189954
  0
LINE
  5
413
100
AcDbEntity
  8
CURVE
100
AcDbLine
 62
250
  6
CONTINUOUS
 10
-42.5231684248
 20
-11.435625
 11
-42.5231684248
 21
-12.06125
  0
LINE
  5
414
100
AcDbEntity
  8
CURVE
100
AcDbLine
 62
250
  6
CONTINUOUS
 10
-42.5231684248
 20
-13.527677
 11
-42.5231684248
 21
-14.153392
  0
LINE
  5
415
100
AcDbEntity
  8
CURVE
100
AcDbLine
 62
250
  6
CONTINUOUS
 10
-42.5231684248
 20
-15.31443
 11
-42.5231684248
 21
-15.994614
  0
LINE
  5
416
100
AcDbEntity
  8
CURVE
100
AcDbLine
 62
250
  6
CONTINUOUS
 10
-42.5216774248
 20
15.132433
 11
-42.5216774248
 21
14.696229
  0
LINE
  5
417
100
AcDbEntity
  8
CURVE
100
AcDbLine
 62
250
  6
CONTINUOUS
 10
-42.5216634248
 20
9.218115
 11
-42.5216634248
 21
8.864998
  0
LINE
  5
418
100
AcDbEntity
  8
CURVE
100
AcDbLine
 62
250
  6
CONTINUOUS
 10
-42.5216574248
 20
13.591191
 11
-42.5216574248
 21
12.207804
  0
LINE
  5
419
100
AcDbEntity
  8
CURVE
100
AcDbLine
 62
250
  6
CONTINUOUS
 10
-42.5216574248
 20
11.658092
 11
-42.5216574248
 21
11.329873
  0
LINE
  5
41A
100
AcDbEntity
  8
CURVE
100
AcDbLine
 62
250
  6
CONTINUOUS
 10
-42.5216574248
 20
10.320374
 11
-42.5216574248
 21
9.772004
  0
LINE
  5
41B
100
AcDbEntity
  8
CURVE
100
AcDbLine
 62
250
  6
CONTINUOUS
 10
-42.5216574248
 20
7.507485
 11
-42.5216574248
 21
7.154368
  0
LINE
  5
41C
100
AcDbEntity
  8
CURVE
100
AcDbLine
 62
250
  6
CONTINUOUS
 10
-42.2391644248
 20
12.56092
 11
-42.2391644248
 21
13.591191
  0
LINE
  5
41D
100
AcDbEntity
  8
CURVE
100
AcDbLine
 62
250
  6
CONTINUOUS
 10
-41.2088934248
 20
13.537186
 11
-41.2088934248
 21
12.56092
  0
LINE
  5
41E
100
AcDbEntity
  8
CURVE
100
AcDbLine
 62
250
  6
CONTINUOUS
 10
-41.1886912116
 20
-5.9379402968
 11
-41.1886912116
 21
-5.5801061494
  0
LINE
  5
41F
100
AcDbEntity
  8
CURVE
100
AcDbLine
 62
250
  6
CONTINUOUS
 10
-40.9263994248
 20
12.56092
 11
-40.9263994248
 21
13.537186
  0
LINE
  5
420
100
AcDbEntity
  8
CURVE
100
AcDbLine
 62
250
  6
CONTINUOUS
 10
-40.6974228072
 20
-5.5814557879
 11
-40.6974228072
 21
-5.9171783582
  0
LINE
  5
421
100
AcDbEntity
  8
CURVE
100
AcDbLine
 62
250
  6
CONTINUOUS
 10
-40.5857404248
 20
-7.671933
 11
-40.5857404248
 21
-8.27142
  0
LINE
  5
422
100
AcDbEntity
  8
CURVE
100
AcDbLine
 62
250
  6
CONTINUOUS
 10
-40.5608404248
 20
15.340149
 11
-40.5608404248
 21
14.467742
  0
LINE
  5
423
100
AcDbEntity
  8
ASSI
100
AcDbLine
 62
7
  6
CONTINUOUS
 10
-40.5175814248
 20
21.6695356889
 11
-40.5175814248
 21
21.3239241571
  0
LINE
  5
424
100
AcDbEntity
  8
DRAFT
100
AcDbLine
 62
7
  6
CONTINUOUS
 10
-40.5175814248
 20
-21.3239241571
 11
-40.5175814248
 21
-20.9649246574
  0
LINE
  5
425
100
AcDbEntity
  8
ASSI
100
AcDbLine
 62
7
  6
CONTINUOUS
 10
-40.5175814248
 20
-21.3239241571
 11
-40.5175814248
 21
-21.6695356889
  0
LINE
  5
426
100
AcDbEntity
  8
DRAFT
100
AcDbLine
 62
7
  6
CONTINUOUS
 10
-40.5175814248
 20
20.9649246574
 11
-40.5175814248
 21
21.3239241571
  0
LINE
  5
427
100
AcDbEntity
  8
DRAFT
100
AcDbLine
 62
7
  6
CONTINUOUS
 10
-40.4175814248
 20
-21.75
 11
-40.4175814248
 21
-20.964866187
  0
LINE
  5
428
100
AcDbEntity
  8
ASSI
100
AcDbLine
 62
7
  6
CONTINUOUS
 10
-40.4175814248
 20
-21.75
 11
-40.4175814248
 21
-20.964866187
  0
LINE
  5
429
100
AcDbEntity
  8
DRAFT
100
AcDbLine
 62
7
  6
CONTINUOUS
 10
-40.4175814248
 20
20.964866187
 11
-40.4175814248
 21
21.75
  0
LINE
  5
42A
100
AcDbEntity
  8
ASSI
100
AcDbLine
 62
7
  6
CONTINUOUS
 10
-40.4175814248
 20
20.964866187
 11
-40.4175814248
 21
21.75
  0
LINE
  5
42B
100
AcDbEntity
  8
CURVE
100
AcDbLine
 62
250
  6
CONTINUOUS
 10
-40.2783444248
 20
14.3805
 11
-40.2783444248
 21
15.423235
  0
LINE
  5
42C
100
AcDbEntity
  8
CURVE
100
AcDbLine
 62
250
  6
CONTINUOUS
 10
-40.1223644248
 20
-8.399501
 11
-40.1223644248
 21
-7.546799
  0
LINE
  5
42D
100
AcDbEntity
  8
CURVE
100
AcDbLine
 62
250
  6
CONTINUOUS
 10
-39.8005794248
 20
13.620272
 11
-39.8005794248
 21
12.56092
  0
LINE
  5
42E
100
AcDbEntity
  8
CURVE
100
AcDbLine
 62
250
  6
CONTINUOUS
 10
-39.8005794248
 20
8.450515
 11
-39.8005794248
 21
7.507485
  0
LINE
  5
42F
100
AcDbEntity
  8
ASSI
100
AcDbLine
 62
250
  6
CONTINUOUS
 10
-41.2538862449
 20
-23.0674284937
 11
-41.2540671281
 21
-23.1156613646
  0
LINE
  5
430
100
AcDbEntity
  8
ASSI
100
AcDbLine
 62
250
  6
CONTINUOUS
 10
-39.9781628031
 20
-23.0674284937
 11
-39.9783436885
 21
-23.115661331
  0
LINE
  5
431
100
AcDbEntity
  8
ASSI
100
AcDbLine
 62
250
  6
CONTINUOUS
 10
-41.2540671281
 20
-23.1156613646
 11
-41.2544493185
 21
-23.1599003428
  0
LINE
  5
432
100
AcDbEntity
  8
ASSI
100
AcDbLine
 62
250
  6
CONTINUOUS
 10
-39.9783436885
 20
-23.115661331
 11
-39.9787258788
 21
-23.1599003056
  0
LWPOLYLINE
  5
433
100
AcDbEntity
  8
ASSI
100
AcDbPolyline
 62
250
  6
CONTINUOUS
 90
8
 70
0
 10
-41.2544493185
 20
-23.1599003428
 10
-41.255009569
 20
-23.1974545882
 10
-41.2553461881
 20
-23.2129912251
 10
-41.2557138025
 20
-23.2260398705
 10
-41.2561068006
 20
-23.2364013418
 10
-41.2565191835
 20
-23.2439174761
 10
-41.2569446564
 20
-23.248473544
 10
-41.2573767246
 20
-23.25
  0
LWPOLYLINE
  5
434
100
AcDbEntity
  8
ASSI
100
AcDbPolyline
 62
250
  6
CONTINUOUS
 90
11
 70
0
 10
-40.1998286213
 20
21.8648732235
 10
-40.195535584
 20
21.9699983511
 10
-40.1912634663
 20
22.0783829894
 10
-40.1870243757
 20
22.1899399696
 10
-40.1828385963
 20
22.304407786
 10
-40.1787141951
 20
22.4217666489
 10
-40.1746565984
 20
22.5420363479
 10
-40.1706805042
 20
22.6650147462
 10
-40.1667947406
 20
22.7906344648
 10
-40.1630031289
 20
22.9189628828
 10
-40.15931225
 20
23.05
  0
LINE
  5
435
100
AcDbEntity
  8
ASSI
100
AcDbLine
 62
250
  6
CONTINUOUS
 10
-40.2048676953
 20
21.746287068
 11
-40.1998286213
 21
21.8648732235
  0
LWPOLYLINE
  5
436
100
AcDbEntity
  8
ASSI
100
AcDbPolyline
 62
250
  6
CONTINUOUS
 90
13
 70
0
 10
-41.0170364491
 20
-21.6782537093
 10
-41.0215238256
 20
-21.7763448256
 10
-41.0260045714
 20
-21.8775069997
 10
-41.0304721008
 20
-21.9817402315
 10
-41.034923998
 20
-22.0891256755
 10
-41.0393486716
 20
-22.1995821772
 10
-41.0437264382
 20
-22.3128662731
 10
-41.0480492666
 20
-22.4289510091
 10
-41.0523123433
 20
-22.5478633395
 10
-41.0565021835
 20
-22.6694406638
 10
-41.0606104073
 20
-22.7936287819
 10
-41.064633047
 20
-22.920481894
 10
-41.0685636846
 20
-23.05
  0
LWPOLYLINE
  5
437
100
AcDbEntity
  8
ASSI
100
AcDbPolyline
 62
250
  6
CONTINUOUS
 90
11
 70
0
 10
-40.0354512475
 20
21.8604441207
 10
-40.0295312806
 20
21.964628919
 10
-40.0236334505
 20
22.0719822983
 10
-40.0177729189
 20
22.1824204018
 10
-40.0119951708
 20
22.295691659
 10
-40.0063028823
 20
22.4117766861
 10
-40.0006933773
 20
22.5306948669
 10
-39.9952041126
 20
22.6522527819
 10
-39.9898475737
 20
22.7763859579
 10
-39.984611275
 20
22.9031588682
 10
-39.9781627652
 20
23.0674284937
  0
LWPOLYLINE
  5
438
100
AcDbEntity
  8
ASSI
100
AcDbPolyline
 62
250
  6
CONTINUOUS
 90
13
 70
0
 10
-41.0685636925
 20
23.05
 10
-41.0670204064
 20
23.0761052369
 10
-41.0624169542
 20
23.1017638052
 10
-41.0548321025
 20
23.1265366799
 10
-41.0443956306
 20
23.14999999
 10
-41.0312861097
 20
23.1717522725
 10
-41.0157278464
 20
23.1914213411
 10
-40.9979870475
 20
23.2086706521
 10
-40.9783672621
 20
23.2232050654
 10
-40.9572041867
 20
23.2347758948
 10
-40.9348599257
 20
23.2431851588
 10
-40.9117167963
 20
23.2482889704
 10
-40.8881707837
 20
23.25
  0
LINE
  5
439
100
AcDbEntity
  8
ASSI
100
AcDbLine
 62
250
  6
CONTINUOUS
 10
-40.0423805323
 20
21.7434508441
 11
-40.0354512475
 21
21.8604441207
  0
LWPOLYLINE
  5
43A
100
AcDbEntity
  8
ASSI
100
AcDbPolyline
 62
250
  6
CONTINUOUS
 90
13
 70
0
 10
-41.1816227085
 20
-21.6811265742
 10
-41.187812811
 20
-21.7781404985
 10
-41.1939729407
 20
-21.8781060843
 10
-41.2001030976
 20
-21.9810233314
 10
-41.2062176955
 20
-22.0869682962
 10
-41.2123023205
 20
-22.1958649224
 10
-41.2183137318
 20
-22.3074850415
 10
-41.2242490446
 20
-22.4218033846
 10
-41.2301111435
 20
-22.5388452205
 10
-41.2358654416
 20
-22.6584581873
 10
-41.2415004098
 20
-22.7805914977
 10
-41.2470275771
 20
-22.905295939
 10
-41.2538862433
 20
-23.0674284937
  0
LWPOLYLINE
  5
43B
100
AcDbEntity
  8
CURVE
100
AcDbPolyline
 62
250
  6
CONTINUOUS
 90
24
 70
0
 10
-42.0298102477
 20
-5.4474300922
 10
-42.032317568
 20
-5.4705028036
 10
-42.0344873331
 20
-5.4936001068
 10
-42.0363203137
 20
-5.5167196297
 10
-42.0378172807
 20
-5.5398590002
 10
-42.0389790048
 20
-5.5630158465
 10
-42.0398062568
 20
-5.5861877962
 10
-42.0402998075
 20
-5.6093724776
 10
-42.0404584365
 20
-5.6296685984
 10
-42.0403621155
 20
-5.6499767352
 10
-42.0400107942
 20
-5.6703009723
 10
-42.0394044224
 20
-5.6906453943
 10
-42.0385419718
 20
-5.7110148777
 10
-42.0374185015
 20
-5.731417467
 10
-42.0360280926
 20
-5.7518619991
 10
-42.034364826
 20
-5.7723573107
 10
-42.0324257195
 20
-5.7929092799
 10
-42.0302195381
 20
-5.8135119499
 10
-42.0277579837
 20
-5.8341564053
 10
-42.0250527581
 20
-5.854833731
 10
-42.0221174608
 20
-5.8755388687
 10
-42.0189732821
 20
-5.8962821898
 10
-42.01564331
 20
-5.9170779229
 10
-42.0121506323
 20
-5.9379402968
  0
LWPOLYLINE
  5
43C
100
AcDbEntity
  8
ASSI
100
AcDbPolyline
 62
250
  6
CONTINUOUS
 90
8
 70
0
 10
-47.8140909435
 20
-23.9423373592
 10
-47.8136737344
 20
-23.9406908068
 10
-47.8133184349
 20
-23.9357500425
 10
-47.8130322993
 20
-23.927532312
 10
-47.8128212379
 20
-23.9160844713
 10
-47.8126911448
 20
-23.9015569228
 10
-47.812645924
 20
-23.8842668331
 10
-47.812811041
 20
-23.8427377163
  0
LINE
  5
43D
100
AcDbEntity
  8
ASSI
100
AcDbLine
 62
250
  6
CONTINUOUS
 10
-35.5532968931
 20
22.1888225608
 11
-35.5825619254
 21
22.0806437906
  0
LWPOLYLINE
  5
43E
100
AcDbEntity
  8
0
100
AcDbPolyline
 62
7
  6
CONTINUOUS
 90
3
 70
0
 43
0.3500000006
 10
-30.4961526947
 20
35.3492989655
 10
-30.5675816116
 20
35.1350144806
 10
-30.7104394455
 20
34.8492988129
  0
LWPOLYLINE
  5
43F
100
AcDbEntity
  8
ASSI
100
AcDbPolyline
 62
250
  6
CONTINUOUS
 90
6
 70
0
 10
-35.5342885976
 20
22.2564004621
 10
-35.5348189448
 20
22.2549655674
 10
-35.5361297137
 20
22.2506098065
 10
-35.538200938
 20
22.2433995291
 10
-35.5410010673
 20
22.2334445669
 10
-35.5532968931
 20
22.1888225608
  0
LWPOLYLINE
  5
440
100
AcDbEntity
  8
RACCORDO
100
AcDbPolyline
 62
7
  6
CONTINUOUS
 90
3
 70
0
 10
-44.7588170706
 20
5.2055227333
 10
-44.7162327719
 20
5.2482923372
 10
-44.6932952408
 20
5.2708629838
  0
LINE
  5
441
100
AcDbEntity
  8
RACCORDO
100
AcDbLine
 62
7
  6
CONTINUOUS
 10
-44.9175814248
 20
5.05
 11
-44.8966943345
 21
5.0708934541
  0
LINE
  5
442
100
AcDbEntity
  8
CURVE
100
AcDbLine
 62
7
  6
CONTINUOUS
 10
-42.3607289891
 20
9.772004
 11
-42.0325369891
 21
10.100196
  0
LINE
  5
443
100
AcDbEntity
  8
CURVE
100
AcDbLine
 62
7
  6
CONTINUOUS
 10
-41.9215713507
 20
10.2111616384
 11
-41.388871484
 21
10.7438615051
  0
LINE
  5
444
100
AcDbEntity
  8
CURVE
100
AcDbLine
 62
7
  6
CONTINUOUS
 10
-40.8028599891
 20
11.329873
 11
-40.4746409891
 21
11.658092
  0
LINE
  5
445
100
AcDbEntity
  8
CURVE
100
AcDbLine
 62
7
  6
CONTINUOUS
 10
-39.9249289891
 20
12.207804
 11
-39.5180864248
 21
12.6146465643
  0
LINE
  5
446
100
AcDbEntity
  8
CURVE
100
AcDbLine
 62
7
  6
CONTINUOUS
 10
-42.5216634248
 20
9.1910481363
 11
-42.4945965611
 21
9.218115
  0
LINE
  5
447
100
AcDbEntity
  8
CURVE
100
AcDbLine
 62
7
  6
CONTINUOUS
 10
-41.9407075611
 20
9.772004
 11
-41.6125155611
 21
10.100196
  0
LINE
  5
448
100
AcDbEntity
  8
CURVE
100
AcDbLine
 62
7
  6
CONTINUOUS
 10
-41.2507760082
 20
10.4619355529
 11
-40.7180757448
 21
10.9946358163
  0
LINE
  5
449
100
AcDbEntity
  8
CURVE
100
AcDbLine
 62
7
  6
CONTINUOUS
 10
-40.3828385611
 20
11.329873
 11
-40.0546195611
 21
11.658092
  0
LINE
  5
44A
100
AcDbEntity
  8
CURVE
100
AcDbLine
 62
250
  6
CONTINUOUS
 10
-38.5180774248
 20
12.8578276868
 11
-38.2323631561
 21
13.1435420747
  0
LINE
  5
44B
100
AcDbEntity
  8
CURVE
100
AcDbLine
 62
7
  6
CONTINUOUS
 10
-42.427692133
 20
8.864998
 11
-42.074575133
 21
9.218115
  0
LINE
  5
44C
100
AcDbEntity
  8
CURVE
100
AcDbLine
 62
7
  6
CONTINUOUS
 10
-41.520686133
 20
9.772004
 11
-41.192494133
 21
10.100196
  0
LINE
  5
44D
100
AcDbEntity
  8
CURVE
100
AcDbLine
 62
7
  6
CONTINUOUS
 10
-40.5799806657
 20
10.7127094673
 11
-40.0472800055
 21
11.2454101275
  0
LINE
  5
44E
100
AcDbEntity
  8
CURVE
100
AcDbLine
 62
7
  6
CONTINUOUS
 10
-39.962817133
 20
11.329873
 11
-39.634598133
 21
11.658092
  0
LINE
  5
44F
100
AcDbEntity
  8
CURVE
100
AcDbLine
 62
7
  6
CONTINUOUS
 10
-42.007670705
 20
8.864998
 11
-41.654553705
 21
9.218115
  0
LINE
  5
450
100
AcDbEntity
  8
CURVE
100
AcDbLine
 62
7
  6
CONTINUOUS
 10
-41.100664705
 20
9.772004
 11
-40.772472705
 21
10.100196
  0
LINE
  5
451
100
AcDbEntity
  8
CURVE
100
AcDbLine
 62
7
  6
CONTINUOUS
 10
-39.9091853232
 20
10.9634833818
 11
-39.5180864248
 21
11.3545822802
  0
LINE
  5
452
100
AcDbEntity
  8
CURVE
100
AcDbLine
 62
250
  6
CONTINUOUS
 10
-36.8037917233
 20
13.8578279253
 11
-36.5180774248
 21
14.1435420747
  0
LINE
  5
453
100
AcDbEntity
  8
CURVE
100
AcDbLine
 62
7
  6
CONTINUOUS
 10
-41.587649277
 20
8.864998
 11
-41.234532277
 21
9.218115
  0
LINE
  5
454
100
AcDbEntity
  8
CURVE
100
AcDbLine
 62
7
  6
CONTINUOUS
 10
-40.680643277
 20
9.772004
 11
-40.352451277
 21
10.100196
  0
LINE
  5
455
100
AcDbEntity
  8
CURVE
100
AcDbLine
 62
7
  6
CONTINUOUS
 10
-41.167627849
 20
8.864998
 11
-40.814510849
 21
9.218115
  0
LINE
  5
456
100
AcDbEntity
  8
CURVE
100
AcDbLine
 62
7
  6
CONTINUOUS
 10
-40.260621849
 20
9.772004
 11
-39.932429849
 21
10.100196
  0
LINE
  5
457
100
AcDbEntity
  8
CURVE
100
AcDbLine
 62
250
  6
CONTINUOUS
 10
-38.5180774248
 20
11.2863991495
 11
-38.2323631561
 21
11.5721135374
  0
LINE
  5
458
100
AcDbEntity
  8
CURVE
100
AcDbLine
 62
7
  6
CONTINUOUS
 10
-42.4582364209
 20
7.154368
 11
-42.1051194209
 21
7.507485
  0
LINE
  5
459
100
AcDbEntity
  8
CURVE
100
AcDbLine
 62
7
  6
CONTINUOUS
 10
-40.7476064209
 20
8.864998
 11
-40.3944894209
 21
9.218115
  0
LINE
  5
45A
100
AcDbEntity
  8
CURVE
100
AcDbLine
 62
7
  6
CONTINUOUS
 10
-39.8406004209
 20
9.772004
 11
-39.5180864248
 21
10.0945179962
  0
LINE
  5
45B
100
AcDbEntity
  8
CURVE
100
AcDbLine
 62
250
  6
CONTINUOUS
 10
-36.5180774248
 20
12.7149706121
 11
-36.8037917233
 21
12.4292562242
  0
LINE
  5
45C
100
AcDbEntity
  8
CURVE
100
AcDbLine
 62
7
  6
CONTINUOUS
 10
-42.0382149929
 20
7.154368
 11
-41.6850979929
 21
7.507485
  0
LINE
  5
45D
100
AcDbEntity
  8
CURVE
100
AcDbLine
 62
7
  6
CONTINUOUS
 10
-40.3275849929
 20
8.864998
 11
-39.9744679929
 21
9.218115
  0
LINE
  5
45E
100
AcDbEntity
  8
CURVE
100
AcDbLine
 62
7
  6
CONTINUOUS
 10
-41.6181935649
 20
7.154368
 11
-41.2650765649
 21
7.507485
  0
LINE
  5
45F
100
AcDbEntity
  8
CURVE
100
AcDbLine
 62
7
  6
CONTINUOUS
 10
-39.9075635649
 20
8.864998
 11
-39.5544465649
 21
9.218115
  0
LINE
  5
460
100
AcDbEntity
  8
CURVE
100
AcDbLine
 62
7
  6
CONTINUOUS
 10
-41.1981721369
 20
7.154368
 11
-40.8450551369
 21
7.507485
  0
LWPOLYLINE
  5
461
100
AcDbEntity
  8
RACCORDO
100
AcDbPolyline
 62
7
  6
CONTINUOUS
 90
3
 70
0
 10
-44.8302805002
 20
5.134734718
 10
-44.778546431
 20
5.1858526467
 10
-44.7588170706
 20
5.2055227333
  0
LINE
  5
462
100
AcDbEntity
  8
RACCORDO
100
AcDbLine
 62
7
  6
CONTINUOUS
 10
-44.868711767
 20
5.0971180411
 11
-44.8302805002
 21
5.134734718
  0
LINE
  5
463
100
AcDbEntity
  8
CURVE
100
AcDbLine
 62
250
  6
CONTINUOUS
 10
-39.5180774248
 20
16.000685
 11
-42.5216774248
 21
15.132433
  0
LINE
  5
464
100
AcDbEntity
  8
ASSI
100
AcDbLine
 62
250
  6
CONTINUOUS
 10
-41.1184457918
 20
-23.0576664094
 11
-41.1280686502
 21
-23.0587351217
  0
LINE
  5
465
100
AcDbEntity
  8
ASSI
100
AcDbLine
 62
250
  6
CONTINUOUS
 10
-41.1280686502
 20
-23.0587351217
 11
-41.1377122298
 21
-23.059726719
  0
LINE
  5
466
100
AcDbEntity
  8
ASSI
100
AcDbLine
 62
250
  6
CONTINUOUS
 10
-41.1377122298
 20
-23.059726719
 11
-41.1474876002
 21
-23.0606603011
  0
LINE
  5
467
100
AcDbEntity
  8
ASSI
100
AcDbLine
 62
250
  6
CONTINUOUS
 10
-54.4175814248
 20
-25.7992351743
 11
-53.1123460351
 21
-25.6850418745
  0
LINE
  5
468
100
AcDbEntity
  8
RACCORDO
100
AcDbLine
 62
250
  6
CONTINUOUS
 10
-54.4175814248
 20
-25.7992351743
 11
-53.1123460351
 21
-25.6850418745
  0
LINE
  5
469
100
AcDbEntity
  8
ASSI
100
AcDbLine
 62
250
  6
CONTINUOUS
 10
-41.1474876002
 20
-23.0606603011
 11
-41.1574513891
 21
-23.0615453856
  0
LINE
  5
46A
100
AcDbEntity
  8
ASSI
100
AcDbLine
 62
250
  6
CONTINUOUS
 10
-41.1574513891
 20
-23.0615453856
 11
-41.1676245342
 21
-23.0623860212
  0
LINE
  5
46B
100
AcDbEntity
  8
ASSI
100
AcDbLine
 62
250
  6
CONTINUOUS
 10
-41.1676245342
 20
-23.0623860212
 11
-41.1780360798
 21
-23.0631855533
  0
LINE
  5
46C
100
AcDbEntity
  8
ASSI
100
AcDbLine
 62
250
  6
CONTINUOUS
 10
-41.1780360798
 20
-23.0631855533
 11
-41.1887242623
 21
-23.0639466051
  0
LINE
  5
46D
100
AcDbEntity
  8
ASSI
100
AcDbLine
 62
250
  6
CONTINUOUS
 10
-41.1887242623
 20
-23.0639466051
 11
-41.1997079608
 21
-23.0646693006
  0
LINE
  5
46E
100
AcDbEntity
  8
ASSI
100
AcDbLine
 62
250
  6
CONTINUOUS
 10
-41.1997079608
 20
-23.0646693006
 11
-41.2110324319
 21
-23.0653545213
  0
LWPOLYLINE
  5
46F
100
AcDbEntity
  8
ASSI
100
AcDbPolyline
 62
250
  6
CONTINUOUS
 90
10
 70
0
 10
-43.5102083443
 20
-23.0325715065
 10
-43.5333304466
 20
-23.0338600686
 10
-43.5560939471
 20
-23.0353661158
 10
-43.5781921081
 20
-23.0370693545
 10
-43.5993271573
 20
-23.0389468334
 10
-43.6192142999
 20
-23.0409732536
 10
-43.6375855563
 20
-23.0431213092
 10
-43.6541933737
 20
-23.0453620552
 10
-43.6688139617
 20
-23.0476652975
 10
-43.6812503076
 20
-23.05
  0
LINE
  5
470
100
AcDbEntity
  8
ASSI
100
AcDbLine
 62
250
  6
CONTINUOUS
 10
-41.2110324319
 20
-23.0653545213
 11
-41.2227440031
 21
-23.0660014367
  0
LINE
  5
471
100
AcDbEntity
  8
ASSI
100
AcDbLine
 62
250
  6
CONTINUOUS
 10
-41.2227440031
 20
-23.0660014367
 11
-41.2348623378
 21
-23.0666066902
  0
LWPOLYLINE
  5
472
100
AcDbEntity
  8
ASSI
100
AcDbPolyline
 62
250
  6
CONTINUOUS
 90
10
 70
0
 10
-39.9794955534
 20
-23.0325715237
 10
-40.0047794147
 20
-23.0337170557
 10
-40.029599692
 20
-23.0351249175
 10
-40.0535565127
 20
-23.0367724275
 10
-40.0762639153
 20
-23.0386330432
 10
-40.097356067
 20
-23.0406767887
 10
-40.1164931579
 20
-23.0428707378
 10
-40.1333668754
 20
-23.0451795444
 10
-40.1477053717
 20
-23.0475660119
 10
-40.1592776432
 20
-23.0499916928
  0
LWPOLYLINE
  5
473
100
AcDbEntity
  8
ASSI
100
AcDbPolyline
 62
250
  6
CONTINUOUS
 90
3
 70
0
 10
-41.2348623378
 20
-23.0666066902
 10
-41.2474441731
 20
-23.067167678
 10
-41.2538862457
 20
-23.0674285315
  0
LINE
  5
474
100
AcDbEntity
  8
ASSI
100
AcDbLine
 62
250
  6
CONTINUOUS
 10
-48.3175814248
 20
-21.5607839082
 11
-42.9297971789
 21
-21.3665693604
  0
LINE
  5
475
100
AcDbEntity
  8
ASSI
100
AcDbLine
 62
7
  6
CONTINUOUS
 10
-48.3175814248
 20
-21.9
 11
-42.9175814248
 21
-21.7114278447
  0
LINE
  5
476
100
AcDbEntity
  8
SMUSSO
100
AcDbLine
 62
7
  6
CONTINUOUS
 10
-34.0175814248
 20
-20.9592234912
 11
-35.3752602807
 21
-20.9881025681
  0
LWPOLYLINE
  5
477
100
AcDbEntity
  8
ASSI
100
AcDbPolyline
 62
250
  6
CONTINUOUS
 90
23
 70
0
 10
-43.9971217681
 20
-23.24915468
 10
-43.9834222202
 20
-23.2488999664
 10
-43.9698620784
 20
-23.2485751463
 10
-43.956485478
 20
-23.2481671082
 10
-43.9433340629
 20
-23.2476601604
 10
-43.9303646458
 20
-23.2470358778
 10
-43.9175890359
 20
-23.2462781444
 10
-43.9051273963
 20
-23.2453741797
 10
-43.8929920658
 20
-23.2443063329
 10
-43.8811410297
 20
-23.2430549057
 10
-43.8696119815
 20
-23.2416060104
 10
-43.8584655982
 20
-23.2399544102
 10
-43.8476213999
 20
-23.2380688996
 10
-43.8369079512
 20
-23.2358881966
 10
-43.8262615507
 20
-23.2333721939
 10
-43.8157456033
 20
-23.2304977858
 10
-43.8053839016
 20
-23.2272150042
 10
-43.7951801223
 20
-23.2234794267
 10
-43.785157254
 20
-23.2192612796
 10
-43.7753743949
 20
-23.2145296045
 10
-43.7658721784
 20
-23.2092516015
 10
-43.7566740728
 20
-23.2033920238
 10
-43.7478228468
 20
-23.1969192385
  0
LINE
  5
478
100
AcDbEntity
  8
ASSI
100
AcDbLine
 62
250
  6
CONTINUOUS
 10
-42.9297971789
 20
-21.3665693604
 11
-40.5175814248
 21
-21.3239241571
  0
LINE
  5
479
100
AcDbEntity
  8
DRAFT
100
AcDbLine
 62
7
  6
CONTINUOUS
 10
-36.0310014332
 20
-21.6734319614
 11
-40.4175814248
 21
-21.75
  0
LINE
  5
47A
100
AcDbEntity
  8
ASSI
100
AcDbLine
 62
7
  6
CONTINUOUS
 10
-36.0310014332
 20
-21.6734319614
 11
-40.4175814248
 21
-21.75
  0
LINE
  5
47B
100
AcDbEntity
  8
ASSI
100
AcDbLine
 62
7
  6
CONTINUOUS
 10
-42.9175814248
 20
-21.7114278447
 11
-40.5175814248
 21
-21.6695356889
  0
LINE
  5
47C
100
AcDbEntity
  8
SMUSSO
100
AcDbLine
 62
7
  6
CONTINUOUS
 10
-40.5175814248
 20
-21.6695356889
 11
-40.4175814248
 21
-21.6677901824
  0
LINE
  5
47D
100
AcDbEntity
  8
SMUSSO
100
AcDbLine
 62
7
  6
CONTINUOUS
 10
-35.4893430265
 20
-21.5817674612
 11
-35.887128891
 21
-21.5887108393
  0
LINE
  5
47E
100
AcDbEntity
  8
ASSI
100
AcDbLine
 62
250
  6
CONTINUOUS
 10
-44.0252923199
 20
-23.2495014108
 11
-43.9971217681
 21
-23.24915468
  0
LINE
  5
47F
100
AcDbEntity
  8
ASSI
100
AcDbLine
 62
7
  6
CONTINUOUS
 10
-48.5140909435
 20
-21.1775495891
 11
-51.1175814248
 21
-21.197818284
  0
LINE
  5
480
100
AcDbEntity
  8
ASSI
100
AcDbLine
 62
250
  6
CONTINUOUS
 10
-44.0549139482
 20
-23.2496974816
 11
-44.0252923199
 21
-23.2495014108
  0
LINE
  5
481
100
AcDbEntity
  8
DRAFT
100
AcDbLine
 62
7
  6
CONTINUOUS
 10
-40.5175814248
 20
-21.0175732534
 11
-44.0175814248
 21
-21.0197859424
  0
LINE
  5
482
100
AcDbEntity
  8
DRAFT
100
AcDbLine
 62
7
  6
CONTINUOUS
 10
-40.4175814248
 20
-20.964866187
 11
-44.0175814248
 21
-20.9669711218
  0
LINE
  5
483
100
AcDbEntity
  8
ASSI
100
AcDbLine
 62
7
  6
CONTINUOUS
 10
-40.4175814248
 20
-20.964866187
 11
-44.0175814248
 21
-20.9669711218
  0
LINE
  5
484
100
AcDbEntity
  8
ASSI
100
AcDbLine
 62
250
  6
CONTINUOUS
 10
-42.9647885687
 20
-23.0674284937
 11
-41.2538862433
 21
-23.0674284937
  0
LINE
  5
485
100
AcDbEntity
  8
ASSI
100
AcDbLine
 62
250
  6
CONTINUOUS
 10
-39.3047883229
 20
-23.0674284937
 11
-39.9781628026
 21
-23.0674284937
  0
LINE
  5
486
100
AcDbEntity
  8
ASSI
100
AcDbLine
 62
250
  6
CONTINUOUS
 10
-41.0685636846
 20
-23.05
 11
-40.1593122501
 21
-23.05
  0
LINE
  5
487
100
AcDbEntity
  8
ASSI
100
AcDbLine
 62
250
  6
CONTINUOUS
 10
-43.6812503076
 20
-23.05
 11
-44.5450910413
 21
-23.05
  0
LINE
  5
488
100
AcDbEntity
  8
ASSI
100
AcDbLine
 62
250
  6
CONTINUOUS
 10
-48.3175814248
 20
-22.7551793284
 11
-48.5140909435
 21
-22.7551793284
  0
LINE
  5
489
100
AcDbEntity
  8
ASSI
100
AcDbLine
 62
7
  6
CONTINUOUS
 10
-34.7219899936
 20
-20.4511624247
 11
-34.0175814248
 21
-20.463457922
  0
LWPOLYLINE
  5
48A
100
AcDbEntity
  8
ASSI
100
AcDbPolyline
 62
7
  6
CONTINUOUS
 90
16
 70
0
 10
-48.5140909435
 20
-21.1775495891
 10
-48.4947090032
 20
-21.1782086884
 10
-48.475291367
 20
-21.1806474371
 10
-48.4560384637
 20
-21.1848658353
 10
-48.4370591647
 20
-21.1909658418
 10
-48.4186863205
 20
-21.1988454977
 10
-48.4014228301
 20
-21.2081989265
 10
-48.3856062642
 20
-21.2189737721
 10
-48.3711869875
 20
-21.2312223905
 10
-48.3580883044
 20
-21.2447959738
 10
-48.3464695607
 20
-21.2597569291
 10
-48.3365720553
 20
-21.2760428493
 10
-48.3285369643
 20
-21.293317704
 10
-48.3225606092
 20
-21.3114694832
 10
-48.3188516939
 20
-21.330610197
 10
-48.3175814248
 20
-21.3507398453
  0
LINE
  5
48B
100
AcDbEntity
  8
DRAFT
100
AcDbLine
 62
7
  6
CONTINUOUS
 10
-52.4175814248
 20
-20.55
 11
-52.9175814248
 21
-20.5325396153
  0
LWPOLYLINE
  5
48C
100
AcDbEntity
  8
RACCORDO
100
AcDbPolyline
 62
7
  6
CONTINUOUS
 90
5
 70
0
 10
-44.8967552611
 20
-5.0708325089
 10
-44.8953239928
 20
-5.0720771269
 10
-44.8917992792
 20
-5.0752322409
 10
-44.8862624067
 20
-5.0802978509
 10
-44.87885486
 20
-5.0873217417
  0
LWPOLYLINE
  5
48D
100
AcDbEntity
  8
RACCORDO
100
AcDbPolyline
 62
7
  6
CONTINUOUS
 90
3
 70
0
 10
-44.87885486
 20
-5.0873217417
 10
-44.8458531097
 20
-5.1194874838
 10
-44.797928155
 20
-5.1666894805
  0
LWPOLYLINE
  5
48E
100
AcDbEntity
  8
RACCORDO
100
AcDbPolyline
 62
7
  6
CONTINUOUS
 90
3
 70
0
 10
-44.7381205978
 20
-5.2258437125
 10
-44.7160361294
 20
-5.2477818246
 10
-44.6932952408
 20
-5.2708629838
  0
LWPOLYLINE
  5
48F
100
AcDbEntity
  8
RACCORDO
100
AcDbPolyline
 62
7
  6
CONTINUOUS
 90
3
 70
0
 10
-44.797928155
 20
-5.1666894805
 10
-44.7792640395
 20
-5.1852975404
 10
-44.7381205978
 20
-5.2258437125
  0
LINE
  5
490
100
AcDbEntity
  8
RACCORDO
100
AcDbLine
 62
7
  6
CONTINUOUS
 10
-44.9175814248
 20
-5.05
 11
-44.8967552611
 21
-5.0708325089
  0
LWPOLYLINE
  5
491
100
AcDbEntity
  8
RACCORDO
100
AcDbPolyline
 62
7
  6
CONTINUOUS
 90
5
 70
0
 10
-48.8385421732
 20
5.0709543621
 10
-48.8398513147
 20
5.0726757043
 10
-48.8430956291
 20
5.0762645882
 10
-48.8482641007
 20
5.0817210138
 10
-48.8642382255
 20
5.098389831
  0
LWPOLYLINE
  5
492
100
AcDbEntity
  8
ASSI
100
AcDbPolyline
 62
250
  6
CONTINUOUS
 90
4
 70
0
 10
-35.5342885976
 20
-22.2564004621
 10
-35.5348189448
 20
-22.2549655675
 10
-35.5361297137
 20
-22.2506098066
 10
-35.5382009379
 20
-22.2433995293
  0
LINE
  5
493
100
AcDbEntity
  8
ASSI
100
AcDbLine
 62
250
  6
CONTINUOUS
 10
-35.5382009379
 20
-22.2433995293
 11
-35.5444874481
 21
-22.220896561
  0
LINE
  5
494
100
AcDbEntity
  8
ASSI
100
AcDbLine
 62
250
  6
CONTINUOUS
 10
-35.5444874481
 20
-22.220896561
 11
-35.5584857656
 21
-22.1697851401
  0
LINE
  5
495
100
AcDbEntity
  8
ASSI
100
AcDbLine
 62
250
  6
CONTINUOUS
 10
-35.5584857656
 20
-22.1697851401
 11
-35.5825619254
 21
-22.0806437906
  0
LWPOLYLINE
  5
496
100
AcDbEntity
  8
ASSI
100
AcDbPolyline
 62
250
  6
CONTINUOUS
 90
13
 70
0
 10
-40.1593122502
 20
23.05
 10
-40.1608804679
 20
23.0761051973
 10
-40.1655582909
 20
23.1017637405
 10
-40.1732656849
 20
23.126536605
 10
-40.1838707804
 20
23.1499999226
 10
-40.1971921241
 20
23.1717522236
 10
-40.2130017798
 20
23.1914213085
 10
-40.231029236
 20
23.2086706306
 10
-40.2509660407
 20
23.223205053
 10
-40.2724710717
 20
23.2347758886
 10
-40.2951763732
 20
23.2431851565
 10
-40.3186934504
 20
23.2482889699
 10
-40.3426199192
 20
23.25
  0
LWPOLYLINE
  5
497
100
AcDbEntity
  8
ASSI
100
AcDbPolyline
 62
250
  6
CONTINUOUS
 90
7
 70
0
 10
-39.9792860885
 20
23.197454588
 10
-39.9796227079
 20
23.2129912242
 10
-39.9799903227
 20
23.2260398693
 10
-39.9803833212
 20
23.2364013407
 10
-39.9807957045
 20
23.2439174754
 10
-39.9812211778
 20
23.2484735438
 10
-39.9816532464
 20
23.25
  0
LINE
  5
498
100
AcDbEntity
  8
ASSI
100
AcDbLine
 62
250
  6
CONTINUOUS
 10
-39.9787258374
 20
23.1599003443
 11
-39.9792860885
 21
23.197454588
  0
LINE
  5
499
100
AcDbEntity
  8
ASSI
100
AcDbLine
 62
250
  6
CONTINUOUS
 10
-39.305911647
 20
23.1974545675
 11
-39.3053513963
 21
23.1599003116
  0
LINE
  5
49A
100
AcDbEntity
  8
ASSI
100
AcDbLine
 62
250
  6
CONTINUOUS
 10
-39.3053513963
 20
23.1599003116
 11
-39.3049692059
 21
23.1156613376
  0
LINE
  5
49B
100
AcDbEntity
  8
ASSI
100
AcDbLine
 62
250
  6
CONTINUOUS
 10
-39.3049692059
 20
23.1156613376
 11
-39.3047883229
 21
23.0674284937
  0
LINE
  5
49C
100
AcDbEntity
  8
CURVE
100
AcDbLine
 62
250
  6
CONTINUOUS
 10
-39.5235297567
 20
-4.3560515357
 11
-39.5235297567
 21
-4.9583277046
  0
LINE
  5
49D
100
AcDbEntity
  8
CURVE
100
AcDbLine
 62
250
  6
CONTINUOUS
 10
-39.5235297567
 20
-5.9171783582
 11
-39.5235297567
 21
-6.540801309
  0
LINE
  5
49E
100
AcDbEntity
  8
CURVE
100
AcDbLine
 62
250
  6
CONTINUOUS
 10
-39.5235294248
 20
-12.669172
 11
-39.5235294248
 21
-13.295314
  0
LINE
  5
49F
100
AcDbEntity
  8
CURVE
100
AcDbLine
 62
250
  6
CONTINUOUS
 10
-39.5235294248
 20
-15.04367
 11
-39.5235294248
 21
-14.491881
  0
LINE
  5
4A0
100
AcDbEntity
  8
CURVE
100
AcDbLine
 62
250
  6
CONTINUOUS
 10
-39.5235294248
 20
-12.3321
 11
-39.5235294248
 21
-11.733085
  0
LINE
  5
4A1
100
AcDbEntity
  8
CURVE
100
AcDbLine
 62
250
  6
CONTINUOUS
 10
-39.5235294248
 20
-10.863423
 11
-39.5235294248
 21
-10.775607
  0
LINE
  5
4A2
100
AcDbEntity
  8
CURVE
100
AcDbLine
 62
250
  6
CONTINUOUS
 10
-39.5235294248
 20
-9.902481
 11
-39.5235294248
 21
-9.289947
  0
LINE
  5
4A3
100
AcDbEntity
  8
CURVE
100
AcDbLine
 62
250
  6
CONTINUOUS
 10
-39.5235294248
 20
-9.191626
 11
-39.5235294248
 21
-8.572277
  0
LINE
  5
4A4
100
AcDbEntity
  8
CURVE
100
AcDbLine
 62
250
  6
CONTINUOUS
 10
-39.5235294248
 20
-7.384595
 11
-39.5235294248
 21
-6.724667
  0
LINE
  5
4A5
100
AcDbEntity
  8
CURVE
100
AcDbLine
 62
250
  6
CONTINUOUS
 10
-39.5180924248
 20
8.864998
 11
-39.5180924248
 21
9.218115
  0
LINE
  5
4A6
100
AcDbEntity
  8
CURVE
100
AcDbLine
 62
250
  6
CONTINUOUS
 10
-39.5180864248
 20
7.154368
 11
-39.5180864248
 21
8.450515
  0
LINE
  5
4A7
100
AcDbEntity
  8
CURVE
100
AcDbLine
 62
250
  6
CONTINUOUS
 10
-39.5180864248
 20
9.772004
 11
-39.5180864248
 21
10.100196
  0
LINE
  5
4A8
100
AcDbEntity
  8
CURVE
100
AcDbLine
 62
250
  6
CONTINUOUS
 10
-39.5180864248
 20
11.109694
 11
-39.5180864248
 21
11.658092
  0
LINE
  5
4A9
100
AcDbEntity
  8
CURVE
100
AcDbLine
 62
250
  6
CONTINUOUS
 10
-39.5180864248
 20
12.207804
 11
-39.5180864248
 21
13.620272
  0
LINE
  5
4AA
100
AcDbEntity
  8
CURVE
100
AcDbLine
 62
250
  6
CONTINUOUS
 10
-39.5180774248
 20
13.815513
 11
-39.5180774248
 21
14.168628
  0
LINE
  5
4AB
100
AcDbEntity
  8
CURVE
100
AcDbLine
 62
250
  6
CONTINUOUS
 10
-39.5180774248
 20
15.635077
 11
-39.5180774248
 21
16.000685
  0
LINE
  5
4AC
100
AcDbEntity
  8
CURVE
100
AcDbLine
 62
250
  6
CONTINUOUS
 10
-38.5180774248
 20
9.8578277464
 11
-38.5180774248
 21
9.2863991495
  0
LINE
  5
4AD
100
AcDbEntity
  8
CURVE
100
AcDbLine
 62
250
  6
CONTINUOUS
 10
-38.5180774248
 20
11.1435419555
 11
-38.5180774248
 21
11.2863991495
  0
LINE
  5
4AE
100
AcDbEntity
  8
CURVE
100
AcDbLine
 62
250
  6
CONTINUOUS
 10
-38.5180774248
 20
12.7149706121
 11
-38.5180774248
 21
12.8578276868
  0
LINE
  5
4AF
100
AcDbEntity
  8
CURVE
100
AcDbLine
 62
250
  6
CONTINUOUS
 10
-37.6609346187
 20
14.572113299
 11
-37.6609346187
 21
13.9530656572
  0
LINE
  5
4B0
100
AcDbEntity
  8
CURVE
100
AcDbLine
 62
250
  6
CONTINUOUS
 10
-37.6609346187
 20
9.8578277464
 11
-37.6609346187
 21
9.572113448
  0
LWPOLYLINE
  5
4B1
100
AcDbEntity
  8
0
100
AcDbPolyline
 62
7
  6
CONTINUOUS
 90
2
 70
0
 43
0.3500000006
 10
-37.1318680344
 20
45.0635863495
 10
-37.1318680344
 20
46.5635868073
  0
LINE
  5
4B2
100
AcDbEntity
  8
ASSI
100
AcDbLine
 62
250
  6
CONTINUOUS
 10
-39.3049692059
 20
-23.1156613373
 11
-39.3047883229
 21
-23.0674284937
  0
LINE
  5
4B3
100
AcDbEntity
  8
ASSI
100
AcDbLine
 62
250
  6
CONTINUOUS
 10
-39.3053513963
 20
-23.1599003112
 11
-39.3049692059
 21
-23.1156613373
  0
LWPOLYLINE
  5
4B4
100
AcDbEntity
  8
ASSI
100
AcDbPolyline
 62
250
  6
CONTINUOUS
 90
8
 70
0
 10
-39.9787258788
 20
-23.1599003056
 10
-39.9792861277
 20
-23.1974545659
 10
-39.979622746
 20
-23.2129912079
 10
-39.9799903596
 20
-23.226039858
 10
-39.9803833574
 20
-23.2364013339
 10
-39.9807957407
 20
-23.2439174722
 10
-39.9812212144
 20
-23.2484735429
 10
-39.9816532838
 20
-23.25
  0
LWPOLYLINE
  5
4B5
100
AcDbEntity
  8
ASSI
100
AcDbPolyline
 62
250
  6
CONTINUOUS
 90
13
 70
0
 10
-40.1593122446
 20
-23.05
 10
-40.1608804668
 20
-23.0761052359
 10
-40.1655583007
 20
-23.1017638035
 10
-40.1732657071
 20
-23.1265366778
 10
-40.1838708098
 20
-23.149999988
 10
-40.1971921526
 20
-23.1717522708
 10
-40.2130018042
 20
-23.1914213397
 10
-40.2310292566
 20
-23.2086706509
 10
-40.250966056
 20
-23.2232050645
 10
-40.2724710817
 20
-23.2347758942
 10
-40.2951763786
 20
-23.2431851585
 10
-40.3186934523
 20
-23.2482889703
 10
-40.3426199188
 20
-23.25
  0
LINE
  5
4B6
100
AcDbEntity
  8
ASSI
100
AcDbLine
 62
250
  6
CONTINUOUS
 10
-48.1981472634
 20
-22.9823513471
 11
-48.2101202913
 21
-23.0170158091
  0
LINE
  5
4B7
100
AcDbEntity
  8
ASSI
100
AcDbLine
 62
250
  6
CONTINUOUS
 10
-47.7612363097
 20
-23.1410336312
 11
-47.7732128944
 21
-23.1757168315
  0
LINE
  5
4B8
100
AcDbEntity
  8
ASSI
100
AcDbLine
 62
250
  6
CONTINUOUS
 10
-48.2101202913
 20
-23.0170158091
 11
-48.2250874363
 21
-23.0593933284
  0
LINE
  5
4B9
100
AcDbEntity
  8
ASSI
100
AcDbLine
 62
250
  6
CONTINUOUS
 10
-47.7732128944
 20
-23.1757168315
 11
-47.7882001225
 21
-23.2181559447
  0
LWPOLYLINE
  5
4BA
100
AcDbEntity
  8
ASSI
100
AcDbPolyline
 62
250
  6
CONTINUOUS
 90
3
 70
0
 10
-48.2250874363
 20
-23.0593933284
 10
-48.2420364055
 20
-23.1066177301
 10
-48.2508990008
 20
-23.1310563767
  0
LWPOLYLINE
  5
4BB
100
AcDbEntity
  8
ASSI
100
AcDbPolyline
 62
250
  6
CONTINUOUS
 90
3
 70
0
 10
-47.7882001225
 20
-23.2181559447
 10
-47.805196821
 20
-23.2655156293
 10
-47.8140909435
 20
-23.2900415076
  0
LWPOLYLINE
  5
4BC
100
AcDbEntity
  8
CURVE
100
AcDbPolyline
 62
250
  6
CONTINUOUS
 90
81
 70
0
 10
-42.4565415938
 20
-4.9955777265
 10
-42.4480789268
 20
-4.973787017
 10
-42.4384869627
 20
-4.9521394521
 10
-42.4277731357
 20
-4.9305631403
 10
-42.4159411973
 20
-4.9089882712
 10
-42.4029801689
 20
-4.8873533606
 10
-42.3888753895
 20
-4.8655990056
 10
-42.3736261012
 20
-4.8437071876
 10
-42.3572871581
 20
-4.8218254255
 10
-42.3399273174
 20
-4.8001426226
 10
-42.3216099111
 20
-4.7788300185
 10
-42.3023765715
 20
-4.7579881984
 10
-42.2822635057
 20
-4.7377000837
 10
-42.2613079824
 20
-4.7180434893
 10
-42.2395515165
 20
-4.6990758036
 10
-42.2170366847
 20
-4.6808493085
 10
-42.1938081872
 20
-4.6634133557
 10
-42.1699192199
 20
-4.6468055771
 10
-42.1454251025
 20
-4.6310606745
 10
-42.1203870023
 20
-4.6162155917
 10
-42.0948894767
 20
-4.6023162409
 10
-42.0690229309
 20
-4.5894107764
 10
-42.0428935399
 20
-4.5775418062
 10
-42.016670559
 20
-4.5667297548
 10
-41.9905390134
 20
-4.5569895004
 10
-41.9646468098
 20
-4.5483209011
 10
-41.9389933815
 20
-4.5406637343
 10
-41.9135410433
 20
-4.5339427572
 10
-41.888273185
 20
-4.5280872276
 10
-41.863257496
 20
-4.5230444063
 10
-41.8385827405
 20
-4.5187660546
 10
-41.8095217768
 20
-4.5145748486
 10
-41.7810753447
 20
-4.511341476
 10
-41.7532392109
 20
-4.5089923973
 10
-41.7260091418
 20
-4.5074540731
 10
-41.6993809042
 20
-4.506652964
 10
-41.6733488593
 20
-4.5065237697
 10
-41.6479017472
 20
-4.5070341464
 10
-41.6230269024
 20
-4.5081599892
 10
-41.5987116598
 20
-4.5098771935
 10
-41.5749433539
 20
-4.5121616545
 10
-41.5459887741
 20
-4.5157765407
 10
-41.5178800613
 20
-4.5201829864
 10
-41.4906282835
 20
-4.5253238762
 10
-41.4642445085
 20
-4.5311420948
 10
-41.4387344647
 20
-4.5375819389
 10
-41.4140825227
 20
-4.5445933535
 10
-41.3902677134
 20
-4.5521276958
 10
-41.3672690679
 20
-4.5601363231
 10
-41.3450666716
 20
-4.5685722851
 10
-41.3236448275
 20
-4.5773954025
 10
-41.302988893
 20
-4.5865671882
 10
-41.2830842255
 20
-4.5960491556
 10
-41.2639164011
 20
-4.605804601
 10
-41.2454718701
 20
-4.6158039533
 10
-41.2277373016
 20
-4.6260194247
 10
-41.2106993645
 20
-4.6364232272
 10
-41.1890415719
 20
-4.6505450087
 10
-41.1685600315
 20
-4.6649170148
 10
-41.1492162394
 20
-4.6795040596
 10
-41.1309672391
 20
-4.694263078
 10
-41.1137522639
 20
-4.709119486
 10
-41.097506095
 20
-4.7239908203
 10
-41.0821609059
 20
-4.7388003512
 10
-41.0676384414
 20
-4.7534942835
 10
-41.0538578392
 20
-4.7680245557
 10
-41.043961135
 20
-4.7787885587
 10
-41.034405394
 20
-4.7894288687
 10
-41.0251649472
 20
-4.7999368917
 10
-41.0162348457
 20
-4.8102880561
 10
-41.007605903
 20
-4.8204603611
 10
-40.9992312615
 20
-4.8304580661
 10
-40.9830959433
 20
-4.8501329401
 10
-40.9753653156
 20
-4.8600245293
 10
-40.9680625145
 20
-4.8699816493
 10
-40.9613966025
 20
-4.8799781995
 10
-40.9555004594
 20
-4.8900128428
 10
-40.9504811777
 20
-4.900098525
 10
-40.946418884
 20
-4.9102805595
 10
-40.9433871053
 20
-4.9205964406
 10
-40.9414599372
 20
-4.9310200195
  0
LWPOLYLINE
  5
4BD
100
AcDbEntity
  8
CURVE
100
AcDbPolyline
 62
250
  6
CONTINUOUS
 90
41
 70
0
 10
-40.9237346852
 20
-4.9310200195
 10
-40.9187964179
 20
-4.9192801287
 10
-40.9134473967
 20
-4.9077852166
 10
-40.9076920632
 20
-4.8965256108
 10
-40.9015348592
 20
-4.8854916387
 10
-40.8949802263
 20
-4.8746736276
 10
-40.8880326062
 20
-4.8640619051
 10
-40.8807002272
 20
-4.8536505153
 10
-40.8730064637
 20
-4.8434483692
 10
-40.8649784766
 20
-4.8334680946
 10
-40.856643427
 20
-4.8237223191
 10
-40.8480284758
 20
-4.8142236706
 10
-40.8391607839
 20
-4.8049847767
 10
-40.8282196328
 20
-4.7942522746
 10
-40.8169733059
 20
-4.7838949102
 10
-40.8054414619
 20
-4.7738955906
 10
-40.7936437597
 20
-4.7642372229
 10
-40.7815998581
 20
-4.7549027141
 10
-40.7693308172
 20
-4.745877157
 10
-40.7568633013
 20
-4.7371543874
 10
-40.744225376
 20
-4.7287304265
 10
-40.7314451069
 20
-4.7206012959
 10
-40.7185505594
 20
-4.7127630168
 10
-40.7023011793
 20
-4.7033624513
 10
-40.685892419
 20
-4.6943683604
 10
-40.6692996058
 20
-4.6857389797
 10
-40.652498067
 20
-4.6774325448
 10
-40.6354639339
 20
-4.6694111218
 10
-40.6181765551
 20
-4.6616520997
 10
-40.6006160832
 20
-4.6541366977
 10
-40.5827626709
 20
-4.6468461355
 10
-40.5645947065
 20
-4.6397630302
 10
-40.5460835208
 20
-4.6328755909
 10
-40.5271986803
 20
-4.6261734243
 10
-40.5079097516
 20
-4.6196461374
 10
-40.4921663817
 20
-4.6145411038
 10
-40.4761243436
 20
-4.6095232206
 10
-40.459763063
 20
-4.6045743671
 10
-40.4430619655
 20
-4.5996764223
 10
-40.426000477
 20
-4.5948112653
 10
-40.4085642113
 20
-4.5899587246
  0
LWPOLYLINE
  5
4BE
100
AcDbEntity
  8
RACCORDO
100
AcDbPolyline
 62
7
  6
CONTINUOUS
 90
5
 70
0
 10
-48.8384812466
 20
-5.0708934541
 10
-48.8397095552
 20
-5.0723006782
 10
-48.8428010082
 20
-5.0757594973
 10
-48.8477590882
 20
-5.0811885091
 10
-48.8546356034
 20
-5.0884470671
  0
LWPOLYLINE
  5
4BF
100
AcDbEntity
  8
RACCORDO
100
AcDbPolyline
 62
7
  6
CONTINUOUS
 90
3
 70
0
 10
-48.8546356034
 20
-5.0884470671
 10
-48.886134297
 20
-5.1207749031
 10
-48.9324196103
 20
-5.1677805827
  0
LWPOLYLINE
  5
4C0
100
AcDbEntity
  8
RACCORDO
100
AcDbPolyline
 62
7
  6
CONTINUOUS
 90
3
 70
0
 10
-48.9905988724
 20
-5.2266139728
 10
-49.0122315147
 20
-5.2483953863
 10
-49.0350212309
 20
-5.2708629838
  0
LINE
  5
4C1
100
AcDbEntity
  8
CURVE
100
AcDbLine
 62
7
  6
CONTINUOUS
 10
-40.7781507088
 20
7.154368
 11
-40.4250337088
 21
7.507485
  0
LINE
  5
4C2
100
AcDbEntity
  8
CURVE
100
AcDbLine
 62
7
  6
CONTINUOUS
 10
-39.8005794248
 20
8.1319392841
 11
-39.5180864248
 21
8.4144322841
  0
LINE
  5
4C3
100
AcDbEntity
  8
CURVE
100
AcDbLine
 62
250
  6
CONTINUOUS
 10
-36.5180774248
 20
11.1435419555
 11
-36.8037917233
 21
10.8578276868
  0
LINE
  5
4C4
100
AcDbEntity
  8
CURVE
100
AcDbLine
 62
250
  6
CONTINUOUS
 10
-37.3752202904
 20
10.1435420151
 11
-37.6609346187
 21
9.8578277464
  0
LINE
  5
4C5
100
AcDbEntity
  8
CURVE
100
AcDbLine
 62
7
  6
CONTINUOUS
 10
-40.3581292808
 20
7.154368
 11
-40.0050122808
 21
7.507485
  0
LINE
  5
4C6
100
AcDbEntity
  8
CURVE
100
AcDbLine
 62
7
  6
CONTINUOUS
 10
-39.8005794248
 20
7.711917856
 11
-39.5180864248
 21
7.994410856
  0
LINE
  5
4C7
100
AcDbEntity
  8
CURVE
100
AcDbLine
 62
7
  6
CONTINUOUS
 10
-39.9381078528
 20
7.154368
 11
-39.5180864248
 21
7.574389428
  0
LINE
  5
4C8
100
AcDbEntity
  8
CURVE
100
AcDbLine
 62
250
  6
CONTINUOUS
 10
-38.2323631561
 20
10.0959229704
 11
-38.5180774248
 21
9.8578277464
  0
LWPOLYLINE
  5
4C9
100
AcDbEntity
  8
RACCORDO
100
AcDbPolyline
 62
7
  6
CONTINUOUS
 90
5
 70
0
 10
-44.8966943345
 20
5.0708934541
 10
-44.8949523643
 20
5.0722257015
 10
-44.8912949469
 20
5.0755335991
 10
-44.8857255607
 20
5.0808072597
 10
-44.868711767
 20
5.0971180411
  0
LINE
  5
4CA
100
AcDbEntity
  8
CURVE
100
AcDbLine
 62
250
  6
CONTINUOUS
 10
-38.2323631561
 20
13.1435420747
 11
-37.9466488874
 21
13.2863991495
  0
LINE
  5
4CB
100
AcDbEntity
  8
CURVE
100
AcDbLine
 62
250
  6
CONTINUOUS
 10
-36.8037917233
 20
12.4292562242
 11
-37.0895060217
 21
12.2863991495
  0
LINE
  5
4CC
100
AcDbEntity
  8
CURVE
100
AcDbLine
 62
250
  6
CONTINUOUS
 10
-38.2323631561
 20
11.5721135374
 11
-37.9466488874
 21
11.7149706121
  0
LINE
  5
4CD
100
AcDbEntity
  8
CURVE
100
AcDbLine
 62
250
  6
CONTINUOUS
 10
-36.8037917233
 20
10.8578276868
 11
-37.0895060217
 21
10.7149706121
  0
LINE
  5
4CE
100
AcDbEntity
  8
CURVE
100
AcDbLine
 62
250
  6
CONTINUOUS
 10
-39.8213504248
 20
11.329873
 11
-42.5216574248
 21
10.320374
  0
LINE
  5
4CF
100
AcDbEntity
  8
CURVE
100
AcDbLine
 62
250
  6
CONTINUOUS
 10
-42.2183934248
 20
10.100196
 11
-39.5180864248
 21
11.109694
  0
LINE
  5
4D0
100
AcDbEntity
  8
ASSI
100
AcDbLine
 62
7
  6
CONTINUOUS
 10
-34.0175814248
 20
-21.85
 11
-39.1788692816
 21
-23.2329629131
  0
LWPOLYLINE
  5
4D1
100
AcDbEntity
  8
ASSI
100
AcDbPolyline
 62
250
  6
CONTINUOUS
 90
13
 70
0
 10
-39.2271426093
 20
-23.0572062416
 10
-39.2331391665
 20
-23.0587487279
 10
-39.2391797285
 20
-23.060167987
 10
-39.2452642954
 20
-23.061464019
 10
-39.2513650814
 20
-23.0626362338
 10
-39.2575098722
 20
-23.0636852215
 10
-39.263782025
 20
-23.0646127523
 10
-39.2701896192
 20
-23.0654269122
 10
-39.2767245753
 20
-23.0661196152
 10
-39.2834460118
 20
-23.0666683737
 10
-39.2903736351
 20
-23.0670656916
 10
-39.2974877387
 20
-23.067319065
 10
-39.3047883229
 20
-23.0674284937
  0
LWPOLYLINE
  5
4D2
100
AcDbEntity
  8
ASSI
100
AcDbPolyline
 62
250
  6
CONTINUOUS
 90
23
 70
0
 10
-44.0051331337
 20
-23.4065222156
 10
-43.9909175899
 20
-23.4032502658
 10
-43.9765174676
 20
-23.3998668944
 10
-43.9619966542
 20
-23.3963799685
 10
-43.9473085775
 20
-23.3927299907
 10
-43.9324081563
 20
-23.388909904
 10
-43.9173404561
 20
-23.3849270869
 10
-43.9021935791
 20
-23.3807450929
 10
-43.8869814455
 20
-23.3763708321
 10
-43.8716891845
 20
-23.371799988
 10
-43.8563609886
 20
-23.3669810758
 10
-43.8410905371
 20
-23.3619586506
 10
-43.8257825313
 20
-23.3566922806
 10
-43.8101971606
 20
-23.3510043074
 10
-43.7942369702
 20
-23.3448782815
 10
-43.7779978224
 20
-23.3383346033
 10
-43.7615295158
 20
-23.3312517732
 10
-43.7447859861
 20
-23.3236130248
 10
-43.7278125885
 20
-23.3154368653
 10
-43.7107966192
 20
-23.3066537964
 10
-43.6938015504
 20
-23.2972380959
 10
-43.6767668771
 20
-23.2872081762
 10
-43.6596950285
 20
-23.2765580052
  0
LINE
  5
4D3
100
AcDbEntity
  8
ASSI
100
AcDbLine
 62
250
  6
CONTINUOUS
 10
-44.0334383152
 20
-23.412842412
 11
-44.0051331337
 21
-23.4065222156
  0
LINE
  5
4D4
100
AcDbEntity
  8
ASSI
100
AcDbLine
 62
250
  6
CONTINUOUS
 10
-44.0621980413
 20
-23.419099718
 11
-44.0334383152
 21
-23.412842412
  0
LWPOLYLINE
  5
4D5
100
AcDbEntity
  8
ASSI
100
AcDbPolyline
 62
250
  6
CONTINUOUS
 90
12
 70
0
 10
-41.0685637579
 20
-23.0499844695
 10
-41.0724848901
 20
-23.0508172167
 10
-41.076613521
 20
-23.0516244848
 10
-41.0809161958
 20
-23.0524048598
 10
-41.0853583326
 20
-23.0531560092
 10
-41.0899130426
 20
-23.0538783314
 10
-41.0945627743
 20
-23.0545748163
 10
-41.0992837399
 20
-23.0552459168
 10
-41.1040513157
 20
-23.0558904818
 10
-41.1088512069
 20
-23.0565092366
 10
-41.1136523192
 20
-23.0571007261
 10
-41.1184457918
 20
-23.0576664094
  0
LINE
  5
4D6
100
AcDbEntity
  8
ASSI
100
AcDbLine
 62
250
  6
CONTINUOUS
 10
-44.1238875487
 20
-23.4321827624
 11
-44.0621980413
 21
-23.419099718
  0
LINE
  5
4D7
100
AcDbEntity
  8
ASSI
100
AcDbLine
 62
250
  6
CONTINUOUS
 10
-35.4546177886
 20
-22.0594131032
 11
-35.5150124063
 21
-22.0695825269
  0
LWPOLYLINE
  5
4D8
100
AcDbEntity
  8
ASSI
100
AcDbPolyline
 62
250
  6
CONTINUOUS
 90
3
 70
0
 10
-35.5150124063
 20
-22.0695825269
 10
-35.5705364451
 20
-22.0786986204
 10
-35.5825619254
 20
-22.0806437906
  0
LWPOLYLINE
  5
4D9
100
AcDbEntity
  8
SMUSSO
100
AcDbPolyline
 62
7
  6
CONTINUOUS
 90
13
 70
0
 10
-34.0175814248
 20
-21.1188030141
 10
-34.1315481613
 20
-21.1265004028
 10
-34.2460603041
 20
-21.1394086321
 10
-34.3611178531
 20
-21.1575277019
 10
-34.4765136416
 20
-21.1808547807
 10
-34.5924548362
 20
-21.2093927
 10
-34.7095629377
 20
-21.2431499546
 10
-34.8274281425
 20
-21.2818803326
 10
-34.9464602541
 20
-21.3258300459
 10
-35.0685101834
 20
-21.3757462245
 10
-35.1941949007
 20
-21.4318779118
 10
-35.3228974358
 20
-21.4939760645
 10
-35.4546177886
 20
-21.5620406825
  0
LINE
  5
4DA
100
AcDbEntity
  8
DRAFT
100
AcDbLine
 62
7
  6
CONTINUOUS
 10
-51.9175814248
 20
-20.5325396153
 11
-52.4175814248
 21
-20.55
  0
LINE
  5
4DB
100
AcDbEntity
  8
DRAFT
100
AcDbLine
 62
7
  6
CONTINUOUS
 10
-29.0004391876
 20
-19.3124254565
 11
-34.0175814248
 21
-19.4
  0
LINE
  5
4DC
100
AcDbEntity
  8
ASSI
100
AcDbLine
 62
7
  6
CONTINUOUS
 10
-29.0004391876
 20
-19.3124254565
 11
-34.0175814248
 21
-19.4
  0
LINE
  5
4DD
100
AcDbEntity
  8
DRAFT
100
AcDbLine
 62
7
  6
CONTINUOUS
 10
-44.0175814248
 20
-17.6409509148
 11
-51.1175814248
 21
-17.6841030307
  0
LINE
  5
4DE
100
AcDbEntity
  8
DRAFT
100
AcDbLine
 62
7
  6
CONTINUOUS
 10
-27.010738519
 20
-17.4828019014
 11
-44.0175814248
 21
-17.586074036
  0
LINE
  5
4DF
100
AcDbEntity
  8
ASSI
100
AcDbLine
 62
7
  6
CONTINUOUS
 10
-27.010738519
 20
-17.4828019014
 11
-44.0175814248
 21
-17.586074036
  0
LINE
  5
4E0
100
AcDbEntity
  8
0
100
AcDbLine
 62
7
  6
CONTINUOUS
 10
-27.3572155469
 20
-17.8014038649
 11
-27.0617404438
 21
-17.8014038649
  0
LINE
  5
4E1
100
AcDbEntity
  8
ASSI
100
AcDbLine
 62
7
  6
CONTINUOUS
 10
-27.3572155469
 20
-17.8014038649
 11
-27.0617404438
 21
-17.8014038649
  0
LINE
  5
4E2
100
AcDbEntity
  8
0
100
AcDbLine
 62
7
  6
CONTINUOUS
 10
-27.3288131754
 20
-17.7752865414
 11
-27.0333380678
 21
-17.7752865414
  0
LINE
  5
4E3
100
AcDbEntity
  8
ASSI
100
AcDbLine
 62
7
  6
CONTINUOUS
 10
-27.3288131754
 20
-17.7752865414
 11
-27.0333380678
 21
-17.7752865414
  0
LINE
  5
4E4
100
AcDbEntity
  8
0
100
AcDbLine
 62
7
  6
CONTINUOUS
 10
-26.8814757542
 20
-17.363938696
 11
-26.5860006465
 21
-17.363938696
  0
LINE
  5
4E5
100
AcDbEntity
  8
ASSI
100
AcDbLine
 62
7
  6
CONTINUOUS
 10
-26.8814757542
 20
-17.363938696
 11
-26.5860006465
 21
-17.363938696
  0
LINE
  5
4E6
100
AcDbEntity
  8
CURVE
100
AcDbLine
 62
250
  6
CONTINUOUS
 10
-42.5231684248
 20
-14.153392
 11
-40.4584244248
 21
-14.742644
  0
LINE
  5
4E7
100
AcDbEntity
  8
CURVE
100
AcDbLine
 62
250
  6
CONTINUOUS
 10
-39.5235294248
 20
-14.491881
 11
-42.5231684248
 21
-13.527677
  0
LINE
  5
4E8
100
AcDbEntity
  8
CURVE
100
AcDbLine
 62
250
  6
CONTINUOUS
 10
-42.5231684248
 20
-10.189954
 11
-40.8577594248
 21
-10.816096
  0
LWPOLYLINE
  5
4E9
100
AcDbEntity
  8
RACCORDO
100
AcDbPolyline
 62
7
  6
CONTINUOUS
 90
3
 70
0
 10
-48.9010844506
 20
5.1360455845
 10
-48.9512502151
 20
5.1868301134
 10
-48.9705917224
 20
5.2062363805
  0
LINE
  5
4EA
100
AcDbEntity
  8
RACCORDO
100
AcDbLine
 62
7
  6
CONTINUOUS
 10
-48.8642382255
 20
5.098389831
 11
-48.9010844506
 21
5.1360455845
  0
LINE
  5
4EB
100
AcDbEntity
  8
ASSI
100
AcDbLine
 62
250
  6
CONTINUOUS
 10
-48.2508990008
 20
23.1310563767
 11
-48.2333835737
 21
23.0825940681
  0
LINE
  5
4EC
100
AcDbEntity
  8
ASSI
100
AcDbLine
 62
250
  6
CONTINUOUS
 10
-47.8140909435
 20
23.2900415076
 11
-47.7965171855
 21
23.2414166693
  0
LINE
  5
4ED
100
AcDbEntity
  8
ASSI
100
AcDbLine
 62
250
  6
CONTINUOUS
 10
-48.2333835737
 20
23.0825940681
 11
-48.2172888672
 21
23.0374094753
  0
LINE
  5
4EE
100
AcDbEntity
  8
ASSI
100
AcDbLine
 62
250
  6
CONTINUOUS
 10
-47.7965171855
 20
23.2414166693
 11
-47.7803880444
 21
23.1961319381
  0
LWPOLYLINE
  5
4EF
100
AcDbEntity
  8
ASSI
100
AcDbPolyline
 62
250
  6
CONTINUOUS
 90
8
 70
0
 10
-48.2172888672
 20
23.0374094753
 10
-48.2037034359
 20
22.9985586279
 10
-48.1981472634
 20
22.9823513471
 10
-48.1935461214
 20
22.9686691771
 10
-48.1899781403
 20
22.9577444503
 10
-48.1875039069
 20
22.9497626758
 10
-48.1861654352
 20
22.9448593895
 10
-48.1859854534
 20
22.9431178525
  0
LWPOLYLINE
  5
4F0
100
AcDbEntity
  8
ASSI
100
AcDbPolyline
 62
250
  6
CONTINUOUS
 90
8
 70
0
 10
-47.7803880444
 20
23.1961319381
 10
-47.7667945781
 20
23.1572518857
 10
-47.7612363077
 20
23.1410336253
 10
-47.7566414342
 20
23.1273631417
 10
-47.7530986331
 20
23.116505875
 10
-47.7506593812
 20
23.1086244218
 10
-47.7493488555
 20
23.1038071046
 10
-47.7491773961
 20
23.1021029835
  0
LINE
  5
4F1
100
AcDbEntity
  8
CURVE
100
AcDbLine
 62
250
  6
CONTINUOUS
 10
-36.5180774248
 20
12.8578276868
 11
-36.5180774248
 21
12.7149706121
  0
LINE
  5
4F2
100
AcDbEntity
  8
CURVE
100
AcDbLine
 62
250
  6
CONTINUOUS
 10
-36.5180774248
 20
11.2863991495
 11
-36.5180774248
 21
11.1435419555
  0
LINE
  5
4F3
100
AcDbEntity
  8
CURVE
100
AcDbLine
 62
250
  6
CONTINUOUS
 10
-36.5180774248
 20
9.2863991495
 11
-36.5180774248
 21
10.0006848808
  0
LINE
  5
4F4
100
AcDbEntity
  8
CURVE
100
AcDbLine
 62
250
  6
CONTINUOUS
 10
-36.5180774248
 20
14.1435420747
 11
-36.5180774248
 21
14.572113299
  0
LINE
  5
4F5
100
AcDbEntity
  8
ASSI
100
AcDbLine
 62
250
  6
CONTINUOUS
 10
-35.5825619254
 20
-22.0806437906
 11
-35.5825619254
 21
-21.5833946031
  0
LINE
  5
4F6
100
AcDbEntity
  8
ASSI
100
AcDbLine
 62
250
  6
CONTINUOUS
 10
-35.5825619254
 20
21.5833946031
 11
-35.5825619254
 21
22.0806437906
  0
LINE
  5
4F7
100
AcDbEntity
  8
SMUSSO
100
AcDbLine
 62
250
  6
CONTINUOUS
 10
-35.4546177886
 20
-21.5620406825
 11
-35.4546177886
 21
-22.0594131032
  0
LINE
  5
4F8
100
AcDbEntity
  8
SMUSSO
100
AcDbLine
 62
250
  6
CONTINUOUS
 10
-35.4546177886
 20
21.5620424988
 11
-35.4546177886
 21
22.0594131032
  0
LINE
  5
4F9
100
AcDbEntity
  8
ASSI
100
AcDbLine
 62
7
  6
CONTINUOUS
 10
-34.0175814248
 20
21.85
 11
-34.0175814248
 21
21.67436037
  0
LINE
  5
4FA
100
AcDbEntity
  8
SMUSSO
100
AcDbLine
 62
7
  6
CONTINUOUS
 10
-34.0175814248
 20
21.67436037
 11
-34.0175814248
 21
20.463457922
  0
LINE
  5
4FB
100
AcDbEntity
  8
SMUSSO
100
AcDbLine
 62
7
  6
CONTINUOUS
 10
-34.0175814248
 20
-20.463457922
 11
-34.0175814248
 21
-21.67436037
  0
LINE
  5
4FC
100
AcDbEntity
  8
DRAFT
100
AcDbLine
 62
7
  6
CONTINUOUS
 10
-34.0175814248
 20
-20.1454656051
 11
-34.0175814248
 21
-19.4
  0
LINE
  5
4FD
100
AcDbEntity
  8
ASSI
100
AcDbLine
 62
7
  6
CONTINUOUS
 10
-34.0175814248
 20
-20.1454656051
 11
-34.0175814248
 21
-19.4
  0
LINE
  5
4FE
100
AcDbEntity
  8
ASSI
100
AcDbLine
 62
7
  6
CONTINUOUS
 10
-34.0175814248
 20
-21.67436037
 11
-34.0175814248
 21
-21.85
  0
LINE
  5
4FF
100
AcDbEntity
  8
DRAFT
100
AcDbLine
 62
7
  6
CONTINUOUS
 10
-34.0175814248
 20
19.4
 11
-34.0175814248
 21
20.1454616113
  0
LINE
  5
500
100
AcDbEntity
  8
ASSI
100
AcDbLine
 62
7
  6
CONTINUOUS
 10
-34.0175814248
 20
19.4
 11
-34.0175814248
 21
20.1454616113
  0
LWPOLYLINE
  5
501
100
AcDbEntity
  8
ASSI
100
AcDbPolyline
 62
250
  6
CONTINUOUS
 90
13
 70
0
 10
-43.5293829453
 20
-23.1639207732
 10
-43.5253942667
 20
-23.1517280915
 10
-43.5218869197
 20
-23.1397503511
 10
-43.5188609043
 20
-23.1279875521
 10
-43.5163455559
 20
-23.1164284534
 10
-43.514311539
 20
-23.105084296
 10
-43.5126708478
 20
-23.0939888033
 10
-43.5114201533
 20
-23.0831581699
 10
-43.5105627844
 20
-23.0725762012
 10
-43.5100207211
 20
-23.0622280366
 10
-43.5097679566
 20
-23.0521087225
 10
-43.5098304977
 20
-23.0422232124
 10
-43.5102083444
 20
-23.0325715063
  0
LWPOLYLINE
  5
502
100
AcDbEntity
  8
ASSI
100
AcDbPolyline
 62
250
  6
CONTINUOUS
 90
13
 70
0
 10
-43.6907977962
 20
-23.1156747393
 10
-43.6886721255
 20
-23.1095935071
 10
-43.6868316182
 20
-23.1036012747
 10
-43.6852663052
 20
-23.0977080255
 10
-43.6839726157
 20
-23.0919246046
 10
-43.6829336967
 20
-23.086257474
 10
-43.6821198111
 20
-23.0807086484
 10
-43.6815199122
 20
-23.0752904371
 10
-43.6811249434
 20
-23.0700028924
 10
-43.6809100341
 20
-23.0648282643
 10
-43.6808620994
 20
-23.0597632798
 10
-43.6809781985
 20
-23.0548194008
 10
-43.6812503124
 20
-23.05
  0
LWPOLYLINE
  5
503
100
AcDbEntity
  8
RACCORDO
100
AcDbPolyline
 62
7
  6
CONTINUOUS
 90
3
 70
0
 10
-48.9324196103
 20
-5.1677805827
 10
-48.950696623
 20
-5.186119154
 10
-48.9905988724
 20
-5.2266139728
  0
LWPOLYLINE
  5
504
100
AcDbEntity
  8
RACCORDO
100
AcDbPolyline
 62
7
  6
CONTINUOUS
 90
3
 70
0
 10
-44.7588170706
 20
-3.7944772667
 10
-44.7162327719
 20
-3.7517076628
 10
-44.6932952408
 20
-3.7291370162
  0
LINE
  5
505
100
AcDbEntity
  8
RACCORDO
100
AcDbLine
 62
7
  6
CONTINUOUS
 10
-44.9175814248
 20
-3.95
 11
-44.8966943345
 21
-3.9291065459
  0
LINE
  5
506
100
AcDbEntity
  8
RACCORDO
100
AcDbLine
 62
7
  6
CONTINUOUS
 10
-48.8175814248
 20
-5.05
 11
-48.8384812466
 21
-5.0708934541
  0
LWPOLYLINE
  5
507
100
AcDbEntity
  8
RACCORDO
100
AcDbPolyline
 62
7
  6
CONTINUOUS
 90
3
 70
0
 10
-44.8302805002
 20
-3.865265282
 10
-44.778546431
 20
-3.8141473533
 10
-44.7588170706
 20
-3.7944772667
  0
LINE
  5
508
100
AcDbEntity
  8
RACCORDO
100
AcDbLine
 62
7
  6
CONTINUOUS
 10
-44.868711767
 20
-3.9028819589
 11
-44.8302805002
 21
-3.865265282
  0
LINE
  5
509
100
AcDbEntity
  8
CURVE
100
AcDbLine
 62
250
  6
CONTINUOUS
 10
-27.3175814248
 20
15.2578277345
 11
-26.7604386008
 21
15.6292561288
  0
LWPOLYLINE
  5
50A
100
AcDbEntity
  8
DRAFT
100
AcDbPolyline
 62
7
  6
CONTINUOUS
 90
28
 70
0
 10
-49.5744667434
 20
0.9192981346
 10
-49.6508423826
 20
0.8776900405
 10
-49.7234606102
 20
0.8296237184
 10
-49.791005392
 20
0.7764949397
 10
-49.8532766684
 20
0.718382362
 10
-49.9104744989
 20
0.6552073278
 10
-49.9618830286
 20
0.5881296356
 10
-50.0075334241
 20
0.5168561878
 10
-50.0473945186
 20
0.4416800819
 10
-50.0806569565
 20
0.3646404097
 10
-50.1070508834
 20
0.2861103835
 10
-50.1268461536
 20
0.205716791
 10
-50.1400429752
 20
0.1243790866
 10
-50.1466414173
 20
0.0417743466
 10
-50.1466414107
 20
-0.0417745052
 10
-50.1400429563
 20
-0.1243792425
 10
-50.1268461218
 20
-0.2057169429
 10
-50.1070508395
 20
-0.2861105289
 10
-50.0806569065
 20
-0.3646405411
 10
-50.0473944725
 20
-0.4416801853
 10
-50.0075333877
 20
-0.5168562558
 10
-49.961883
 20
-0.5881296763
 10
-49.9104744724
 20
-0.6552073568
 10
-49.8532766418
 20
-0.7183823873
 10
-49.7910053668
 20
-0.7764949614
 10
-49.7234605897
 20
-0.8296237337
 10
-49.6508423682
 20
-0.8776900497
 10
-49.5744667343
 20
-0.919298139
  0
LINE
  5
50B
100
AcDbEntity
  8
CURVE
100
AcDbLine
 62
250
  6
CONTINUOUS
 10
-27.3175814248
 20
13.6792561288
 11
-26.0175814248
 21
14.0506857629
  0
LINE
  5
50C
100
AcDbEntity
  8
ASSI
100
AcDbLine
 62
250
  6
CONTINUOUS
 10
-34.0175814248
 20
-21.67436037
 11
-35.4546177886
 21
-22.0594131032
  0
LINE
  5
50D
100
AcDbEntity
  8
ASSI
100
AcDbLine
 62
250
  6
CONTINUOUS
 10
-35.5825619254
 20
-22.0806437906
 11
-39.2271426093
 21
-23.0572062416
  0
LINE
  5
50E
100
AcDbEntity
  8
RACCORDO
100
AcDbLine
 62
7
  6
CONTINUOUS
 10
-51.1175814248
 20
-17.5220633844
 11
-51.4350311731
 21
-17.5331489739
  0
LINE
  5
50F
100
AcDbEntity
  8
DRAFT
100
AcDbLine
 62
7
  6
CONTINUOUS
 10
-51.1175814248
 20
-16.4758705414
 11
-52.4175814248
 21
-16.4921193302
  0
LINE
  5
510
100
AcDbEntity
  8
0
100
AcDbLine
 62
7
  6
CONTINUOUS
 10
-26.6797428071
 20
-17.1784357419
 11
-26.3842676995
 21
-17.1784357419
  0
LINE
  5
511
100
AcDbEntity
  8
ASSI
100
AcDbLine
 62
7
  6
CONTINUOUS
 10
-26.6797428071
 20
-17.1784357419
 11
-26.3842676995
 21
-17.1784357419
  0
LINE
  5
512
100
AcDbEntity
  8
0
100
AcDbLine
 62
7
  6
CONTINUOUS
 10
-25.4902665177
 20
-16.0846562243
 11
-25.1947914101
 21
-16.0846562243
  0
LINE
  5
513
100
AcDbEntity
  8
ASSI
100
AcDbLine
 62
7
  6
CONTINUOUS
 10
-25.4902665177
 20
-16.0846562243
 11
-25.1947914101
 21
-16.0846562243
  0
LINE
  5
514
100
AcDbEntity
  8
0
100
AcDbLine
 62
7
  6
CONTINUOUS
 10
-25.1636571122
 20
-16.0560267698
 11
-25.4591322198
 21
-16.0560267698
  0
LINE
  5
515
100
AcDbEntity
  8
ASSI
100
AcDbLine
 62
7
  6
CONTINUOUS
 10
-25.1636571122
 20
-16.0560267698
 11
-25.4591322198
 21
-16.0560267698
  0
LINE
  5
516
100
AcDbEntity
  8
DRAFT
100
AcDbLine
 62
7
  6
CONTINUOUS
 10
-52.4175814248
 20
-16.4921193302
 11
-52.9175814248
 21
-16.4858717531
  0
LINE
  5
517
100
AcDbEntity
  8
ASSI
100
AcDbLine
 62
7
  6
CONTINUOUS
 10
-53.7175814248
 20
-14.5
 11
-52.9175814248
 21
-14.5139640519
  0
LINE
  5
518
100
AcDbEntity
  8
RACCORDO
100
AcDbLine
 62
7
  6
CONTINUOUS
 10
-53.7175814248
 20
-14.5
 11
-52.9175814248
 21
-14.5139640519
  0
LINE
  5
519
100
AcDbEntity
  8
DRAFT
100
AcDbLine
 62
7
  6
CONTINUOUS
 10
-52.9175814248
 20
-14.4825396153
 11
-52.4175814248
 21
-14.5
  0
LINE
  5
51A
100
AcDbEntity
  8
CURVE
100
AcDbLine
 62
250
  6
CONTINUOUS
 10
-42.5231684248
 20
-8.250748
 11
-39.5235294248
 21
-9.191626
  0
LINE
  5
51B
100
AcDbEntity
  8
CURVE
100
AcDbLine
 62
250
  6
CONTINUOUS
 10
-39.5235294248
 20
-10.775607
 11
-41.4740724248
 21
-10.031124
  0
LWPOLYLINE
  5
51C
100
AcDbEntity
  8
RACCORDO
100
AcDbPolyline
 62
250
  6
CONTINUOUS
 90
40
 70
0
 10
-49.579600041
 20
-0.9392660088
 10
-49.6484713525
 20
-0.9019354881
 10
-49.7140558863
 20
-0.85967792
 10
-49.7748581004
 20
-0.8138293445
 10
-49.8306241268
 20
-0.765239184
 10
-49.8816328011
 20
-0.7143503609
 10
-49.9274959294
 20
-0.6621846973
 10
-49.9681523288
 20
-0.6094973693
 10
-50.0039862367
 20
-0.5565408559
 10
-50.0353520472
 20
-0.5035248202
 10
-50.0624589319
 20
-0.4508685667
 10
-50.0855919876
 20
-0.3988739044
 10
-50.1051650942
 20
-0.3474694323
 10
-50.1213697885
 20
-0.2970622515
 10
-50.1345162613
 20
-0.2477234901
 10
-50.1450253183
 20
-0.1987743601
 10
-50.1530111833
 20
-0.1505161667
 10
-50.1586525266
 20
-0.1029308088
 10
-50.1621659833
 20
-0.0547828388
 10
-50.1635250416
 20
-0.0061473355
 10
-50.1627019156
 20
0.0428408326
 10
-50.1595266986
 20
0.0933401905
 10
-50.1537300625
 20
0.1453472577
 10
-50.1450654792
 20
0.1985626934
 10
-50.1330775031
 20
0.2536390566
 10
-50.117253221
 20
0.3107478551
 10
-50.0972962643
 20
0.3691485061
 10
-50.0730332913
 20
0.4280634046
 10
-50.0438724359
 20
0.4877627656
 10
-50.009838475
 20
0.5471804237
 10
-49.9722642059
 20
0.6037646243
 10
-49.9316096023
 20
0.6571563014
 10
-49.8880352253
 20
0.7074657602
 10
-49.8431496111
 20
0.7533557345
 10
-49.7979289557
 20
0.7945439513
 10
-49.7523426545
 20
0.831616486
 10
-49.7066706492
 20
0.8647910965
 10
-49.6615587483
 20
0.8940526316
 10
-49.6170122043
 20
0.9198308468
 10
-49.5722074481
 20
0.9428787845
  0
LWPOLYLINE
  5
51D
100
AcDbEntity
  8
RACCORDO
100
AcDbPolyline
 62
7
  6
CONTINUOUS
 90
3
 70
0
 10
-44.87885486
 20
3.9126782583
 10
-44.8458531097
 20
3.8805125162
 10
-44.797928155
 20
3.8333105195
  0
LWPOLYLINE
  5
51E
100
AcDbEntity
  8
RACCORDO
100
AcDbPolyline
 62
7
  6
CONTINUOUS
 90
3
 70
0
 10
-44.7381205978
 20
3.7741562875
 10
-44.7160361294
 20
3.7522181754
 10
-44.6932952408
 20
3.7291370162
  0
LWPOLYLINE
  5
51F
100
AcDbEntity
  8
RACCORDO
100
AcDbPolyline
 62
7
  6
CONTINUOUS
 90
3
 70
0
 10
-44.797928155
 20
3.8333105195
 10
-44.7792640395
 20
3.8147024596
 10
-44.7381205978
 20
3.7741562875
  0
LINE
  5
520
100
AcDbEntity
  8
RACCORDO
100
AcDbLine
 62
7
  6
CONTINUOUS
 10
-48.8175814248
 20
5.05
 11
-48.8385421732
 21
5.0709543621
  0
LWPOLYLINE
  5
521
100
AcDbEntity
  8
RACCORDO
100
AcDbPolyline
 62
7
  6
CONTINUOUS
 90
3
 70
0
 10
-48.9705917224
 20
5.2062363805
 10
-49.0127299445
 20
5.2482098866
 10
-49.0350212309
 20
5.2708629838
  0
LINE
  5
522
100
AcDbEntity
  8
RACCORDO
100
AcDbLine
 62
7
  6
CONTINUOUS
 10
-44.9175814248
 20
3.95
 11
-44.8967552611
 21
3.9291674911
  0
LWPOLYLINE
  5
523
100
AcDbEntity
  8
ASSI
100
AcDbPolyline
 62
250
  6
CONTINUOUS
 90
8
 70
0
 10
-39.3082788042
 20
-23.25
 10
-39.3078467356
 20
-23.2484735426
 10
-39.3074212624
 20
-23.2439174713
 10
-39.3070088792
 20
-23.2364013324
 10
-39.3066158808
 20
-23.2260398566
 10
-39.3062482663
 20
-23.2129912075
 10
-39.305911647
 20
-23.1974545671
 10
-39.3053513963
 20
-23.1599003112
  0
LWPOLYLINE
  5
524
100
AcDbEntity
  8
RACCORDO
100
AcDbPolyline
 62
7
  6
CONTINUOUS
 90
5
 70
0
 10
-44.8966943345
 20
-3.9291065459
 10
-44.8949523643
 20
-3.9277742985
 10
-44.8912949469
 20
-3.9244664009
 10
-44.8857255607
 20
-3.9191927403
 10
-44.868711767
 20
-3.9028819589
  0
LINE
  5
525
100
AcDbEntity
  8
CURVE
100
AcDbLine
 62
250
  6
CONTINUOUS
 10
-27.3175814248
 20
9.3149709459
 11
-26.0175814248
 21
9.9649709459
  0
LWPOLYLINE
  5
526
100
AcDbEntity
  8
RACCORDO
100
AcDbPolyline
 62
250
  6
CONTINUOUS
 90
4
 70
0
 10
-49.5722074481
 20
0.9428787845
 10
-49.527499081
 20
0.9631984059
 10
-49.4828713983
 20
0.980978197
 10
-49.4367459087
 20
0.9968728701
  0
LINE
  5
527
100
AcDbEntity
  8
ASSI
100
AcDbLine
 62
7
  6
CONTINUOUS
 10
-52.9175814248
 20
-13.5580737766
 11
-53.0156056821
 21
-13.5632110102
  0
LINE
  5
528
100
AcDbEntity
  8
DRAFT
100
AcDbLine
 62
7
  6
CONTINUOUS
 10
-52.9175814248
 20
-13.5580737766
 11
-53.0156056821
 21
-13.5632110102
  0
LINE
  5
529
100
AcDbEntity
  8
DRAFT
100
AcDbLine
 62
7
  6
CONTINUOUS
 10
-52.4175814248
 20
-14.5
 11
-51.1175814248
 21
-14.4546029997
  0
LINE
  5
52A
100
AcDbEntity
  8
CURVE
100
AcDbLine
 62
250
  6
CONTINUOUS
 10
-39.5235294248
 20
-13.295314
 11
-42.5233484248
 21
-13.295314
  0
LINE
  5
52B
100
AcDbEntity
  8
CURVE
100
AcDbLine
 62
250
  6
CONTINUOUS
 10
-42.5233484248
 20
-12.669172
 11
-39.5235294248
 21
-12.669172
  0
LINE
  5
52C
100
AcDbEntity
  8
ASSI
100
AcDbLine
 62
7
  6
CONTINUOUS
 10
-52.9175814248
 20
-10.4419262234
 11
-53.0156056821
 21
-10.4367889898
  0
LINE
  5
52D
100
AcDbEntity
  8
DRAFT
100
AcDbLine
 62
7
  6
CONTINUOUS
 10
-52.9175814248
 20
-10.4419262234
 11
-53.0156056821
 21
-10.4367889898
  0
LINE
  5
52E
100
AcDbEntity
  8
CURVE
100
AcDbLine
 62
250
  6
CONTINUOUS
 10
-39.5235294248
 20
-11.733085
 11
-41.4822374248
 21
-11.597964
  0
LINE
  5
52F
100
AcDbEntity
  8
CURVE
100
AcDbLine
 62
250
  6
CONTINUOUS
 10
-42.5231684248
 20
-12.06125
 11
-39.5235294248
 21
-12.3321
  0
LINE
  5
530
100
AcDbEntity
  8
CURVE
100
AcDbLine
 62
250
  6
CONTINUOUS
 10
-40.5857404248
 20
-8.27142
 11
-41.6989444248
 21
-7.959654
  0
LINE
  5
531
100
AcDbEntity
  8
CURVE
100
AcDbLine
 62
250
  6
CONTINUOUS
 10
-39.5235294248
 20
-8.572277
 11
-40.1223644248
 21
-8.399501
  0
LWPOLYLINE
  5
532
100
AcDbEntity
  8
DRAFT
100
AcDbPolyline
 62
7
  6
CONTINUOUS
 90
3
 70
0
 10
-49.5744667343
 20
-0.919298139
 10
-49.4947723655
 20
-0.953982745
 10
-49.4113205844
 20
-0.9822091244
  0
LWPOLYLINE
  5
533
100
AcDbEntity
  8
RACCORDO
100
AcDbPolyline
 62
250
  6
CONTINUOUS
 90
40
 70
0
 10
-48.7125628024
 20
0.9652229717
 10
-48.6380071895
 20
0.9303280417
 10
-48.5664791665
 20
0.8895721162
 10
-48.4987449729
 20
0.843516303
 10
-48.436328217
 20
0.7936491039
 10
-48.3794366409
 20
0.7409017633
 10
-48.3278236732
 20
0.6858021087
 10
-48.2819796988
 20
0.6295327027
 10
-48.2419373921
 20
0.5729986033
 10
-48.2071975666
 20
0.5164561346
 10
-48.1773064511
 20
0.4600989635
 10
-48.152017218
 20
0.4044577719
 10
-48.1309438126
 20
0.3497974429
 10
-48.1135439142
 20
0.2957711311
 10
-48.0996169385
 20
0.2428425915
 10
-48.0888312071
 20
0.1910334247
 10
-48.0807445532
 20
0.139202758
 10
-48.0752881606
 20
0.0875986855
 10
-48.0723566019
 20
0.0362602149
 10
-48.0718770289
 20
-0.0163353806
 10
-48.0740162933
 20
-0.0701604827
 10
-48.07898219
 20
-0.1249506497
 10
-48.0872023907
 20
-0.1818398513
 10
-48.0991920895
 20
-0.2410267819
 10
-48.1153142957
 20
-0.3017708469
 10
-48.1359662939
 20
-0.3637062748
 10
-48.1618916189
 20
-0.4272496516
 10
-48.1931886601
 20
-0.4910938389
 10
-48.228734003
 20
-0.552456199
 10
-48.2681954881
 20
-0.6109550546
 10
-48.3113993166
 20
-0.6665342683
 10
-48.3565740176
 20
-0.7174394406
 10
-48.4026307026
 20
-0.7633269904
 10
-48.4495202819
 20
-0.8048412634
 10
-48.4967467981
 20
-0.8420364306
 10
-48.5435115493
 20
-0.8748200917
 10
-48.589834727
 20
-0.9037181688
 10
-48.6365973059
 20
-0.9295963846
 10
-48.683421324
 20
-0.9524499986
 10
-48.7302881616
 20
-0.9724717798
  0
LWPOLYLINE
  5
534
100
AcDbEntity
  8
RACCORDO
100
AcDbPolyline
 62
7
  6
CONTINUOUS
 90
5
 70
0
 10
-44.8967552611
 20
3.9291674911
 10
-44.8953239928
 20
3.9279228731
 10
-44.8917992792
 20
3.9247677591
 10
-44.8862624067
 20
3.9197021491
 10
-44.87885486
 20
3.9126782583
  0
LWPOLYLINE
  5
535
100
AcDbEntity
  8
ASSI
100
AcDbPolyline
 62
250
  6
CONTINUOUS
 90
10
 70
0
 10
-43.690798126
 20
23.1156758377
 10
-43.6955411371
 20
23.1276094317
 10
-43.7008525826
 20
23.1388200347
 10
-43.7066450643
 20
23.1492998118
 10
-43.7128075685
 20
23.1590687534
 10
-43.7192920293
 20
23.1681149212
 10
-43.726103092
 20
23.17640046
 10
-43.7331904954
 20
23.1839357303
 10
-43.7404598862
 20
23.1907709745
 10
-43.7478513957
 20
23.1969415218
  0
LWPOLYLINE
  5
536
100
AcDbEntity
  8
ASSI
100
AcDbPolyline
 62
250
  6
CONTINUOUS
 90
7
 70
0
 10
-39.3082788042
 20
23.25
 10
-39.3078467356
 20
23.2484735427
 10
-39.3074212624
 20
23.2439174713
 10
-39.3070088792
 20
23.2364013325
 10
-39.3066158808
 20
23.2260398568
 10
-39.3062482663
 20
23.2129912078
 10
-39.305911647
 20
23.1974545675
  0
LWPOLYLINE
  5
537
100
AcDbEntity
  8
0
100
AcDbPolyline
 62
7
  6
CONTINUOUS
 90
4
 70
0
 43
0.3500000006
 10
-29.4961523895
 20
35.4921567993
 10
-29.4961523895
 20
36.3492992706
 10
-29.0675811539
 20
36.7778727722
 10
-28.4247231674
 20
36.7778727722
  0
LINE
  5
538
100
AcDbEntity
  8
CURVE
100
AcDbLine
 62
250
  6
CONTINUOUS
 10
-27.3175814248
 20
5.817351913
 11
-27.1318671501
 21
6.0030661102
  0
LINE
  5
539
100
AcDbEntity
  8
RACCORDO
100
AcDbLine
 62
250
  6
CONTINUOUS
 10
-48.7302881616
 20
-0.9724717798
 11
-48.7788597993
 21
-0.9903969261
  0
LWPOLYLINE
  5
53A
100
AcDbEntity
  8
DRAFT
100
AcDbPolyline
 62
7
  6
CONTINUOUS
 90
3
 70
0
 10
-49.4113205867
 20
0.9822091243
 10
-49.4947723708
 20
0.9539827435
 10
-49.5744667434
 20
0.9192981346
  0
LWPOLYLINE
  5
53B
100
AcDbEntity
  8
RACCORDO
100
AcDbPolyline
 62
250
  6
CONTINUOUS
 90
7
 70
0
 10
-49.4367459087
 20
0.9968728701
 10
-49.3890317743
 20
1.0107939858
 10
-49.3399616404
 20
1.0225588339
 10
-49.288319883
 20
1.0322607176
 10
-49.2337442865
 20
1.0396366254
 10
-49.1767808113
 20
1.0442822354
 10
-49.1175814248
 20
1.0458934537
  0
LINE
  5
53C
100
AcDbEntity
  8
CURVE
100
AcDbLine
 62
250
  6
CONTINUOUS
 10
-40.4584244248
 20
-14.742644
 11
-42.5231684248
 21
-15.31443
  0
LINE
  5
53D
100
AcDbEntity
  8
CURVE
100
AcDbLine
 62
250
  6
CONTINUOUS
 10
-41.4740724248
 20
-10.031124
 11
-39.5235294248
 21
-9.902481
  0
LINE
  5
53E
100
AcDbEntity
  8
ASSI
100
AcDbLine
 62
7
  6
CONTINUOUS
 10
-53.7175814248
 20
-9.5
 11
-52.9175814248
 21
-9.4860359481
  0
LINE
  5
53F
100
AcDbEntity
  8
DRAFT
100
AcDbLine
 62
7
  6
CONTINUOUS
 10
-53.7175814248
 20
-9.5
 11
-52.9175814248
 21
-9.4860359481
  0
LINE
  5
540
100
AcDbEntity
  8
DRAFT
100
AcDbLine
 62
7
  6
CONTINUOUS
 10
-51.1175814248
 20
-9.5453970003
 11
-52.4175814248
 21
-9.5
  0
LWPOLYLINE
  5
541
100
AcDbEntity
  8
RACCORDO
100
AcDbPolyline
 62
250
  6
CONTINUOUS
 90
3
 70
0
 10
-49.4346000648
 20
-0.9975528639
 10
-49.5083788323
 20
-0.9711134401
 10
-49.579600041
 20
-0.9392660088
  0
LINE
  5
542
100
AcDbEntity
  8
RACCORDO
100
AcDbLine
 62
250
  6
CONTINUOUS
 10
-48.79011366
 20
0.9941570647
 11
-48.7125628024
 21
0.9652229717
  0
LINE
  5
543
100
AcDbEntity
  8
CURVE
100
AcDbLine
 62
250
  6
CONTINUOUS
 10
-37.6609346187
 20
9.8578277464
 11
-37.8037916934
 21
10.0959229704
  0
LINE
  5
544
100
AcDbEntity
  8
CURVE
100
AcDbLine
 62
250
  6
CONTINUOUS
 10
-27.3175814248
 20
5.3530662652
 11
-27.3175814248
 21
5.817351913
  0
LINE
  5
545
100
AcDbEntity
  8
CURVE
100
AcDbLine
 62
250
  6
CONTINUOUS
 10
-27.3175814248
 20
6.5292567487
 11
-27.3175814248
 21
7.0863996502
  0
LINE
  5
546
100
AcDbEntity
  8
CURVE
100
AcDbLine
 62
250
  6
CONTINUOUS
 10
-27.3175814248
 20
12.1935425516
 11
-27.3175814248
 21
12.9363993402
  0
LINE
  5
547
100
AcDbEntity
  8
CURVE
100
AcDbLine
 62
250
  6
CONTINUOUS
 10
-26.7604386008
 20
6.9006851431
 11
-26.7604386008
 21
6.5292567487
  0
LINE
  5
548
100
AcDbEntity
  8
CURVE
100
AcDbLine
 62
250
  6
CONTINUOUS
 10
-26.3890100128
 20
4.3625900562
 11
-26.3890100128
 21
4.8578281994
  0
LINE
  5
549
100
AcDbEntity
  8
CURVE
100
AcDbLine
 62
250
  6
CONTINUOUS
 10
-26.3890100128
 20
13.4316374059
 11
-26.3890100128
 21
13.9268754716
  0
LINE
  5
54A
100
AcDbEntity
  8
CURVE
100
AcDbLine
 62
250
  6
CONTINUOUS
 10
-26.0175814248
 20
7.0863996502
 11
-26.0175814248
 21
6.5292567487
  0
LINE
  5
54B
100
AcDbEntity
  8
CURVE
100
AcDbLine
 62
250
  6
CONTINUOUS
 10
-26.0175814248
 20
5.817351913
 11
-26.0175814248
 21
5.3530662652
  0
LINE
  5
54C
100
AcDbEntity
  8
CURVE
100
AcDbLine
 62
250
  6
CONTINUOUS
 10
-26.0175814248
 20
14.4221141573
 11
-26.0175814248
 21
14.8863993402
  0
LINE
  5
54D
100
AcDbEntity
  8
DRAFT
100
AcDbLine
 62
7
  6
CONTINUOUS
 10
-25.0175814248
 20
-15.65
 11
-25.0175814248
 21
-6.8316462336
  0
LINE
  5
54E
100
AcDbEntity
  8
ASSI
100
AcDbLine
 62
7
  6
CONTINUOUS
 10
-25.0175814248
 20
-15.65
 11
-25.0175814248
 21
-6.8316462336
  0
LINE
  5
54F
100
AcDbEntity
  8
DRAFT
100
AcDbLine
 62
7
  6
CONTINUOUS
 10
-25.0175814248
 20
6.8316462336
 11
-25.0175814248
 21
15.65
  0
LINE
  5
550
100
AcDbEntity
  8
ASSI
100
AcDbLine
 62
7
  6
CONTINUOUS
 10
-25.0175814248
 20
6.8316462336
 11
-25.0175814248
 21
15.65
  0
LINE
  5
551
100
AcDbEntity
  8
CURVE
100
AcDbLine
 62
250
  6
CONTINUOUS
 10
-27.3175814248
 20
3.1244948145
 11
-26.5747242874
 21
3.4959234025
  0
LINE
  5
552
100
AcDbEntity
  8
RACCORDO
100
AcDbLine
 62
250
  6
CONTINUOUS
 10
-48.7788597993
 20
-0.9903969261
 11
-48.8292191815
 21
-1.0061157413
  0
LINE
  5
553
100
AcDbEntity
  8
CURVE
100
AcDbLine
 62
250
  6
CONTINUOUS
 10
-27.3175814248
 20
4.6102091666
 11
-26.0175814248
 21
4.9816377159
  0
LINE
  5
554
100
AcDbEntity
  8
CURVE
100
AcDbLine
 62
250
  6
CONTINUOUS
 10
-39.5235294248
 20
-9.289947
 11
-42.5231684248
 21
-9.570447
  0
LINE
  5
555
100
AcDbEntity
  8
DRAFT
100
AcDbLine
 62
7
  6
CONTINUOUS
 10
-52.4175814248
 20
-9.5
 11
-52.9175814248
 21
-9.5174603847
  0
LINE
  5
556
100
AcDbEntity
  8
DRAFT
100
AcDbLine
 62
7
  6
CONTINUOUS
 10
-25.0175814248
 20
-8.2024787532
 11
-13.4175814248
 21
-8.0
  0
LINE
  5
557
100
AcDbEntity
  8
ASSI
100
AcDbLine
 62
7
  6
CONTINUOUS
 10
-25.0175814248
 20
-8.2024787532
 11
-13.4175814248
 21
-8.0
  0
LINE
  5
558
100
AcDbEntity
  8
ASSI
100
AcDbLine
 62
7
  6
CONTINUOUS
 10
-52.9175814248
 20
-8.35
 11
-51.7660347893
 21
-8.3298996787
  0
LINE
  5
559
100
AcDbEntity
  8
DRAFT
100
AcDbLine
 62
7
  6
CONTINUOUS
 10
-52.9175814248
 20
-8.35
 11
-51.7660347893
 21
-8.3298996787
  0
LINE
  5
55A
100
AcDbEntity
  8
DRAFT
100
AcDbLine
 62
7
  6
CONTINUOUS
 10
-25.0175814248
 20
-6.8316462336
 11
-13.4175814248
 21
-6.747776788
  0
LINE
  5
55B
100
AcDbEntity
  8
ASSI
100
AcDbLine
 62
7
  6
CONTINUOUS
 10
-25.0175814248
 20
-6.8316462336
 11
-13.4175814248
 21
-6.747776788
  0
LINE
  5
55C
100
AcDbEntity
  8
CURVE
100
AcDbLine
 62
250
  6
CONTINUOUS
 10
-39.5235297567
 20
-6.540801309
 11
-42.4881231341
 21
-6.540801309
  0
LINE
  5
55D
100
AcDbEntity
  8
CURVE
100
AcDbLine
 62
250
  6
CONTINUOUS
 10
-42.0121506323
 20
-5.9379402968
 11
-41.1886912116
 21
-5.9379402968
  0
LINE
  5
55E
100
AcDbEntity
  8
CURVE
100
AcDbLine
 62
250
  6
CONTINUOUS
 10
-40.6974228072
 20
-5.9171783582
 11
-39.5235297567
 21
-5.9171783582
  0
LINE
  5
55F
100
AcDbEntity
  8
DRAFT
100
AcDbLine
 62
7
  6
CONTINUOUS
 10
-49.4113205844
 20
-0.9822091244
 11
-49.3241113909
 21
-1.0039772772
  0
LINE
  5
560
100
AcDbEntity
  8
RACCORDO
100
AcDbLine
 62
250
  6
CONTINUOUS
 10
-48.8699340573
 20
1.016792247
 11
-48.79011366
 21
0.9941570647
  0
LINE
  5
561
100
AcDbEntity
  8
CURVE
100
AcDbLine
 62
250
  6
CONTINUOUS
 10
-38.2323631561
 20
10.8578276868
 11
-38.5180774248
 21
11.1435419555
  0
LWPOLYLINE
  5
562
100
AcDbEntity
  8
DRAFT
100
AcDbPolyline
 62
7
  6
CONTINUOUS
 90
7
 70
0
 10
-35.8972572254
 20
-21.6000050309
 10
-35.8485757014
 20
-21.5211637118
 10
-35.7984353642
 20
-21.4447735723
 10
-35.7468362137
 20
-21.3708772028
 10
-35.693703849
 20
-21.2996921559
 10
-35.639112671
 20
-21.2310820212
 10
-35.5832858828
 20
-21.1645490355
  0
LWPOLYLINE
  5
563
100
AcDbEntity
  8
ASSI
100
AcDbPolyline
 62
7
  6
CONTINUOUS
 90
7
 70
0
 10
-35.8972572254
 20
-21.6000050309
 10
-35.8485757014
 20
-21.5211637118
 10
-35.7984353642
 20
-21.4447735723
 10
-35.7468362137
 20
-21.3708772028
 10
-35.693703849
 20
-21.2996921559
 10
-35.639112671
 20
-21.2310820212
 10
-35.5832858828
 20
-21.1645490355
  0
LWPOLYLINE
  5
564
100
AcDbEntity
  8
CURVE
100
AcDbPolyline
 62
250
  6
CONTINUOUS
 90
49
 70
0
 10
-40.4333703228
 20
-5.2322189104
 10
-40.4445197777
 20
-5.2365635497
 10
-40.4553984698
 20
-5.2411063949
 10
-40.4660093804
 20
-5.2458389891
 10
-40.4763554905
 20
-5.2507528751
 10
-40.4864397816
 20
-5.2558395961
 10
-40.4962652348
 20
-5.2610906948
 10
-40.5058348314
 20
-5.2664977143
 10
-40.5151515525
 20
-5.2720521976
 10
-40.5242183795
 20
-5.2777456876
 10
-40.5330382936
 20
-5.2835697273
 10
-40.541614276
 20
-5.2895158596
 10
-40.549949308
 20
-5.2955756275
 10
-40.5580461265
 20
-5.3017417436
 10
-40.5659064916
 20
-5.3080115991
 10
-40.573531919
 20
-5.3143837547
 10
-40.5809239245
 20
-5.3208567714
 10
-40.5880840239
 20
-5.3274292099
 10
-40.595013733
 20
-5.334099631
 10
-40.6017144807
 20
-5.3408669944
 10
-40.6081873487
 20
-5.3477318552
 10
-40.6144333319
 20
-5.354695167
 10
-40.6204534252
 20
-5.3617578839
 10
-40.6262486235
 20
-5.3689209596
 10
-40.6318199216
 20
-5.376185348
 10
-40.6371677202
 20
-5.3835518549
 10
-40.6422900424
 20
-5.3910206944
 10
-40.647184317
 20
-5.3985919324
 10
-40.6518479729
 20
-5.4062656349
 10
-40.656278439
 20
-5.4140418678
 10
-40.6604731441
 20
-5.4219206972
 10
-40.6644306357
 20
-5.4299028892
 10
-40.6681539354
 20
-5.437992011
 10
-40.6716471834
 20
-5.4461923302
 10
-40.6749145201
 20
-5.4545081141
 10
-40.6779600856
 20
-5.4629436303
 10
-40.6807880201
 20
-5.4715031461
 10
-40.6834014005
 20
-5.4801879277
 10
-40.6857990495
 20
-5.4889872352
 10
-40.6879787266
 20
-5.4978873275
 10
-40.6899381911
 20
-5.5068744635
 10
-40.6916752024
 20
-5.5159349018
 10
-40.6931875198
 20
-5.5250549015
 10
-40.6944729278
 20
-5.5342262749
 10
-40.6955293116
 20
-5.5434630498
 10
-40.6963545812
 20
-5.5527848072
 10
-40.6969466469
 20
-5.5622111285
 10
-40.6973034188
 20
-5.571761595
 10
-40.6974228072
 20
-5.5814557879
  0
LWPOLYLINE
  5
565
100
AcDbEntity
  8
CURVE
100
AcDbPolyline
 62
250
  6
CONTINUOUS
 90
49
 70
0
 10
-41.6548338464
 20
-5.0937189375
 10
-41.6665375193
 20
-5.0940913786
 10
-41.6781682433
 20
-5.0948370087
 10
-41.6897304023
 20
-5.0959492221
 10
-41.7012283805
 20
-5.0974214127
 10
-41.7126665619
 20
-5.0992469746
 10
-41.7240493305
 20
-5.1014193019
 10
-41.7353782202
 20
-5.1039323068
 10
-41.746643363
 20
-5.1067819743
 10
-41.7578320407
 20
-5.109964808
 10
-41.7689315351
 20
-5.113477311
 10
-41.779929128
 20
-5.1173159867
 10
-41.7908121012
 20
-5.1214773384
 10
-41.8015679816
 20
-5.1259578984
 10
-41.8121852763
 20
-5.1307543149
 10
-41.8226527374
 20
-5.1358632653
 10
-41.8329591171
 20
-5.1412814267
 10
-41.8430931677
 20
-5.1470054763
 10
-41.8530436414
 20
-5.1530320915
 10
-41.8627991272
 20
-5.1593582973
 10
-41.8723475617
 20
-5.1659825112
 10
-41.8816767184
 20
-5.1729034984
 10
-41.890774371
 20
-5.1801200243
 10
-41.8996282928
 20
-5.1876308541
 10
-41.9082262574
 20
-5.1954347532
 10
-41.9165576574
 20
-5.2035287419
 10
-41.9246183612
 20
-5.21190286
 10
-41.9324058567
 20
-5.2205454026
 10
-41.9399176315
 20
-5.2294446646
 10
-41.9471511731
 20
-5.238588941
 10
-41.9541039692
 20
-5.2479665267
 10
-41.960773872
 20
-5.2575662392
 10
-41.9671601911
 20
-5.2673789869
 10
-41.9732626009
 20
-5.2773962006
 10
-41.9790807754
 20
-5.2876093112
 10
-41.984614389
 20
-5.2980097497
 10
-41.9898631158
 20
-5.3085889468
 10
-41.9948263239
 20
-5.3193387662
 10
-41.9995021564
 20
-5.3302528021
 10
-42.0038884506
 20
-5.3413250814
 10
-42.0079830434
 20
-5.3525496309
 10
-42.011783772
 20
-5.3639204775
 10
-42.0152884733
 20
-5.3754316481
 10
-42.0184942033
 20
-5.387078647
 10
-42.0213948931
 20
-5.3988628879
 10
-42.0239836925
 20
-5.4107872618
 10
-42.0262537515
 20
-5.4228546598
 10
-42.02819822
 20
-5.4350679729
 10
-42.0298102479
 20
-5.4474300922
  0
LINE
  5
566
100
AcDbEntity
  8
RACCORDO
100
AcDbLine
 62
250
  6
CONTINUOUS
 10
-44.6932952408
 20
-5.2708629838
 11
-49.0350212309
 21
-5.2708629838
  0
LINE
  5
567
100
AcDbEntity
  8
0
100
AcDbLine
 62
7
  6
CONTINUOUS
 10
-13.4175814248
 20
-5.1
 11
-13.6175814248
 21
-5.1
  0
LINE
  5
568
100
AcDbEntity
  8
ASSI
100
AcDbLine
 62
7
  6
CONTINUOUS
 10
-13.4175814248
 20
-5.1
 11
-13.6175814248
 21
-5.1
  0
LINE
  5
569
100
AcDbEntity
  8
RACCORDO
100
AcDbLine
 62
250
  6
CONTINUOUS
 10
-44.8966943345
 20
-5.0708934541
 11
-48.8384812466
 21
-5.0708934541
  0
LINE
  5
56A
100
AcDbEntity
  8
DRAFT
100
AcDbLine
 62
7
  6
CONTINUOUS
 10
-48.8175814248
 20
-5.05
 11
-44.9175814248
 21
-5.05
  0
LINE
  5
56B
100
AcDbEntity
  8
CURVE
100
AcDbLine
 62
250
  6
CONTINUOUS
 10
-40.9414599372
 20
-4.9310200195
 11
-40.9237346852
 21
-4.9310200195
  0
LINE
  5
56C
100
AcDbEntity
  8
0
100
AcDbLine
 62
7
  6
CONTINUOUS
 10
-13.6175814248
 20
-4.8744585267
 11
-13.4175814248
 21
-4.8744585267
  0
LINE
  5
56D
100
AcDbEntity
  8
ASSI
100
AcDbLine
 62
7
  6
CONTINUOUS
 10
-13.6175814248
 20
-4.8744585267
 11
-13.4175814248
 21
-4.8744585267
  0
LINE
  5
56E
100
AcDbEntity
  8
0
100
AcDbLine
 62
7
  6
CONTINUOUS
 10
-13.4175814248
 20
-4.8489642526
 11
-13.6175814248
 21
-4.8489642526
  0
LINE
  5
56F
100
AcDbEntity
  8
ASSI
100
AcDbLine
 62
7
  6
CONTINUOUS
 10
-13.4175814248
 20
-4.8489642526
 11
-13.6175814248
 21
-4.8489642526
  0
LINE
  5
570
100
AcDbEntity
  8
RACCORDO
100
AcDbLine
 62
7
  6
CONTINUOUS
 10
-44.9175814248
 20
-4.5
 11
-46.2175814248
 21
-4.5
  0
LINE
  5
571
100
AcDbEntity
  8
RACCORDO
100
AcDbLine
 62
7
  6
CONTINUOUS
 10
-46.2175814248
 20
-4.0205378924
 11
-48.5175814248
 21
-4.0205378924
  0
LINE
  5
572
100
AcDbEntity
  8
DRAFT
100
AcDbLine
 62
7
  6
CONTINUOUS
 10
-44.9175814248
 20
-3.95
 11
-48.8175814248
 21
-3.95
  0
LINE
  5
573
100
AcDbEntity
  8
RACCORDO
100
AcDbLine
 62
250
  6
CONTINUOUS
 10
-48.8384812466
 20
-3.9291065459
 11
-44.8966943345
 21
-3.9291065459
  0
LINE
  5
574
100
AcDbEntity
  8
0
100
AcDbLine
 62
7
  6
CONTINUOUS
 10
-13.4175814248
 20
-3.7585908122
 11
-13.6175814248
 21
-3.7585908122
  0
LINE
  5
575
100
AcDbEntity
  8
ASSI
100
AcDbLine
 62
7
  6
CONTINUOUS
 10
-13.4175814248
 20
-3.7585908122
 11
-13.6175814248
 21
-3.7585908122
  0
LINE
  5
576
100
AcDbEntity
  8
RACCORDO
100
AcDbLine
 62
250
  6
CONTINUOUS
 10
-49.0350212309
 20
-3.7291370162
 11
-44.6932952408
 21
-3.7291370162
  0
LINE
  5
577
100
AcDbEntity
  8
0
100
AcDbLine
 62
7
  6
CONTINUOUS
 10
-13.4175814248
 20
-3.5794457288
 11
-13.6175814248
 21
-3.5794457288
  0
LINE
  5
578
100
AcDbEntity
  8
ASSI
100
AcDbLine
 62
7
  6
CONTINUOUS
 10
-13.4175814248
 20
-3.5794457288
 11
-13.6175814248
 21
-3.5794457288
  0
LINE
  5
579
100
AcDbEntity
  8
0
100
AcDbLine
 62
7
  6
CONTINUOUS
 10
-13.4175814248
 20
-3.3494854534
 11
-13.6175814248
 21
-3.3494854534
  0
LINE
  5
57A
100
AcDbEntity
  8
ASSI
100
AcDbLine
 62
7
  6
CONTINUOUS
 10
-13.4175814248
 20
-3.3494854534
 11
-13.6175814248
 21
-3.3494854534
  0
LINE
  5
57B
100
AcDbEntity
  8
0
100
AcDbLine
 62
7
  6
CONTINUOUS
 10
-13.4175814248
 20
-3.3241639849
 11
-13.6175814248
 21
-3.3241639849
  0
LINE
  5
57C
100
AcDbEntity
  8
ASSI
100
AcDbLine
 62
7
  6
CONTINUOUS
 10
-13.4175814248
 20
-3.3241639849
 11
-13.6175814248
 21
-3.3241639849
  0
LINE
  5
57D
100
AcDbEntity
  8
0
100
AcDbLine
 62
7
  6
CONTINUOUS
 10
-13.4175814248
 20
-3.1
 11
-13.6175814248
 21
-3.1
  0
LINE
  5
57E
100
AcDbEntity
  8
ASSI
100
AcDbLine
 62
7
  6
CONTINUOUS
 10
-13.4175814248
 20
-3.1
 11
-13.6175814248
 21
-3.1
  0
LINE
  5
57F
100
AcDbEntity
  8
DRAFT
100
AcDbLine
 62
7
  6
CONTINUOUS
 10
-51.1175814248
 20
-3.0
 11
-51.3559213601
 21
-3.0
  0
LINE
  5
580
100
AcDbEntity
  8
RACCORDO
100
AcDbLine
 62
7
  6
CONTINUOUS
 10
-46.2175814248
 20
-5.0
 11
-48.8175814248
 21
-4.9546168312
  0
LINE
  5
581
100
AcDbEntity
  8
CURVE
100
AcDbLine
 62
250
  6
CONTINUOUS
 10
-36.5180774248
 20
10.0006848808
 11
-36.660934574
 21
10.1435420151
  0
LINE
  5
582
100
AcDbEntity
  8
CURVE
100
AcDbLine
 62
250
  6
CONTINUOUS
 10
-38.2323631561
 20
12.4292562242
 11
-38.5180774248
 21
12.7149706121
  0
LINE
  5
583
100
AcDbEntity
  8
CURVE
100
AcDbLine
 62
250
  6
CONTINUOUS
 10
-36.8037917233
 20
11.5721135374
 11
-36.5180774248
 21
11.2863991495
  0
LINE
  5
584
100
AcDbEntity
  8
CURVE
100
AcDbLine
 62
250
  6
CONTINUOUS
 10
-38.5180774248
 20
14.572113299
 11
-38.0895059621
 21
14.1435420747
  0
LINE
  5
585
100
AcDbEntity
  8
CURVE
100
AcDbLine
 62
250
  6
CONTINUOUS
 10
-36.8037917233
 20
13.1435420747
 11
-36.5180774248
 21
12.8578276868
  0
LWPOLYLINE
  5
586
100
AcDbEntity
  8
ASSI
100
AcDbPolyline
 62
250
  6
CONTINUOUS
 90
10
 70
0
 10
-43.5293818391
 20
23.1639223482
 10
-43.5420618999
 20
23.1787504062
 10
-43.5552842085
 20
23.1929853489
 10
-43.5690624381
 20
23.2066464333
 10
-43.583573103
 20
23.2198182379
 10
-43.5986602973
 20
23.2324796041
 10
-43.6138488841
 20
23.244484914
 10
-43.6289987949
 20
23.255794831
 10
-43.6442927445
 20
23.2664917045
 10
-43.6597499785
 20
23.2765977972
  0
LINE
  5
587
100
AcDbEntity
  8
SMUSSO
100
AcDbLine
 62
7
  6
CONTINUOUS
 10
-35.4852401577
 20
-21.15
 11
-35.3836281018
 21
-20.9990662593
  0
LINE
  5
588
100
AcDbEntity
  8
ASSI
100
AcDbLine
 62
7
  6
CONTINUOUS
 10
-35.4852401577
 20
-21.15
 11
-35.3836281018
 21
-20.9990662593
  0
LWPOLYLINE
  5
589
100
AcDbEntity
  8
CURVE
100
AcDbPolyline
 62
250
  6
CONTINUOUS
 90
4
 70
0
 10
-39.7919089307
 20
-5.0367504817
 10
-39.8442071136
 20
-5.0519889943
 10
-39.8960874167
 20
-5.0669562659
 10
-39.9475426291
 20
-5.0816718563
  0
LWPOLYLINE
  5
58A
100
AcDbEntity
  8
CURVE
100
AcDbPolyline
 62
250
  6
CONTINUOUS
 90
4
 70
0
 10
-39.5235297567
 20
-4.9583277046
 10
-39.5781764067
 20
-4.9741251892
 10
-39.6323263618
 20
-4.9899175048
 10
-39.7919089307
 20
-5.0367504817
  0
LINE
  5
58B
100
AcDbEntity
  8
CURVE
100
AcDbLine
 62
250
  6
CONTINUOUS
 10
-40.1223644248
 20
-7.546799
 11
-39.5235294248
 21
-7.384595
  0
LINE
  5
58C
100
AcDbEntity
  8
CURVE
100
AcDbLine
 62
250
  6
CONTINUOUS
 10
-41.6989444248
 20
-7.959654
 11
-40.5857404248
 21
-7.671933
  0
LINE
  5
58D
100
AcDbEntity
  8
DRAFT
100
AcDbLine
 62
7
  6
CONTINUOUS
 10
-51.1175814248
 20
-3.1924750598
 11
-51.3724472363
 21
-3.214772929
  0
LINE
  5
58E
100
AcDbEntity
  8
RACCORDO
100
AcDbLine
 62
7
  6
CONTINUOUS
 10
-48.8175814248
 20
-4.0362602261
 11
-48.5175814248
 21
-4.0205378924
  0
LINE
  5
58F
100
AcDbEntity
  8
DRAFT
100
AcDbLine
 62
7
  6
CONTINUOUS
 10
-47.8175814248
 20
-3.9838524469
 11
-48.4152564251
 21
-4.0151752664
  0
LINE
  5
590
100
AcDbEntity
  8
DRAFT
100
AcDbLine
 62
7
  6
CONTINUOUS
 10
-48.7923253042
 20
-0.9456259599
 11
-48.9175814248
 21
-0.95
  0
LINE
  5
591
100
AcDbEntity
  8
DRAFT
100
AcDbLine
 62
7
  6
CONTINUOUS
 10
-48.6908375847
 20
-0.9023988527
 11
-48.6292883153
 21
-0.9002495048
  0
LINE
  5
592
100
AcDbEntity
  8
DRAFT
100
AcDbLine
 62
7
  6
CONTINUOUS
 10
-48.9175814248
 20
-0.95
 11
-49.4846398651
 21
-0.9301978829
  0
LINE
  5
593
100
AcDbEntity
  8
DRAFT
100
AcDbLine
 62
7
  6
CONTINUOUS
 10
-48.6908375991
 20
0.9023988532
 11
-48.6292883153
 21
0.9002495048
  0
LINE
  5
594
100
AcDbEntity
  8
DRAFT
100
AcDbLine
 62
7
  6
CONTINUOUS
 10
-48.7923253042
 20
0.9456259599
 11
-48.9175814248
 21
0.95
  0
LWPOLYLINE
  5
595
100
AcDbEntity
  8
RACCORDO
100
AcDbPolyline
 62
250
  6
CONTINUOUS
 90
5
 70
0
 10
-49.1175814248
 20
-1.0458934528
 10
-49.1992109261
 20
-1.0428197627
 10
-49.279595226
 20
-1.033636139
 10
-49.3582505122
 20
-1.0184694784
 10
-49.4346000648
 20
-0.9975528639
  0
LWPOLYLINE
  5
596
100
AcDbEntity
  8
RACCORDO
100
AcDbPolyline
 62
250
  6
CONTINUOUS
 90
4
 70
0
 10
-49.1175814248
 20
1.0458934544
 10
-49.0341582731
 20
1.042673168
 10
-48.9514274187
 20
1.0329760969
 10
-48.8699340573
 20
1.016792247
  0
LWPOLYLINE
  5
597
100
AcDbEntity
  8
RACCORDO
100
AcDbPolyline
 62
250
  6
CONTINUOUS
 90
52
 70
0
 10
-49.1141506529
 20
1.2458629838
 10
-49.0140970629
 20
1.241949714
 10
-48.915961959
 20
1.2304056412
 10
-48.8197453411
 20
1.2112307657
 10
-48.7247231005
 20
1.1840848992
 10
-48.631619346
 20
1.1493082298
 10
-48.5426064041
 20
1.1079213218
 10
-48.4576504445
 20
1.0592400416
 10
-48.3767852975
 20
1.0039485226
 10
-48.3022847807
 20
0.9451197298
 10
-48.2348751753
 20
0.8828792126
 10
-48.1738302
 20
0.8171014215
 10
-48.1192448286
 20
0.7504826725
 10
-48.0715017408
 20
0.6834291772
 10
-48.0302182568
 20
0.615534724
 10
-47.9943413113
 20
0.5482769939
 10
-47.9639473265
 20
0.4819987387
 10
-47.9389598801
 20
0.4163572066
 10
-47.9180966397
 20
0.351801823
 10
-47.9012457717
 20
0.2887601003
 10
-47.8885191098
 20
0.226804526
 10
-47.8789698227
 20
0.1651019885
 10
-47.8722766165
 20
0.1039078509
 10
-47.8687607851
 20
0.04296675
 10
-47.868439379
 20
-0.0193205148
 10
-47.8709005333
 20
-0.0831723779
 10
-47.8765561128
 20
-0.148370405
 10
-47.8866587623
 20
-0.2158584942
 10
-47.9011588629
 20
-0.2864013117
 10
-47.9201060335
 20
-0.3592341913
 10
-47.9449017748
 20
-0.4330070319
 10
-47.9764385592
 20
-0.5086705751
 10
-48.0138239144
 20
-0.5852740793
 10
-48.0557819248
 20
-0.6586152192
 10
-48.1028838231
 20
-0.7280014635
 10
-48.1545583766
 20
-0.7941253435
 10
-48.2078159712
 20
-0.8548621273
 10
-48.262167634
 20
-0.9093130953
 10
-48.3181023378
 20
-0.9583769672
 10
-48.3740973877
 20
-1.002625169
 10
-48.4295460323
 20
-1.0418192405
 10
-48.485055023
 20
-1.0761976421
 10
-48.5409219186
 20
-1.1070471807
 10
-48.5967223387
 20
-1.1345431275
 10
-48.6528806637
 20
-1.1585102113
 10
-48.7109675941
 20
-1.1797094254
 10
-48.7710985719
 20
-1.1985588208
 10
-48.8331581551
 20
-1.2146403465
 10
-48.8983707174
 20
-1.2274608417
 10
-48.9671443834
 20
-1.2368559195
 10
-49.0390710286
 20
-1.2429899669
 10
-49.1141506529
 20
-1.2458629838
  0
LWPOLYLINE
  5
598
100
AcDbEntity
  8
RACCORDO
100
AcDbPolyline
 62
250
  6
CONTINUOUS
 90
55
 70
0
 10
-49.1141506529
 20
-1.2458629838
 10
-49.2119133592
 20
-1.2418627609
 10
-49.3072736155
 20
-1.2309746464
 10
-49.4002314221
 20
-1.2131986404
 10
-49.4911588002
 20
-1.1882711266
 10
-49.5796837284
 20
-1.1564557212
 10
-49.6646901428
 20
-1.1185432729
 10
-49.7465534787
 20
-1.0738854232
 10
-49.8248983008
 20
-1.0231305305
 10
-49.8974822384
 20
-0.9690145189
 10
-49.9635789322
 20
-0.9116749715
 10
-50.0239147416
 20
-0.8509743051
 10
-50.0784263745
 20
-0.7892356946
 10
-50.126820654
 20
-0.7267929977
 10
-50.1693907571
 20
-0.6633123568
 10
-50.2069529217
 20
-0.6001153736
 10
-50.2394380182
 20
-0.5374024904
 10
-50.2669151762
 20
-0.474973265
 10
-50.2904080234
 20
-0.4135479719
 10
-50.3099374159
 20
-0.3534656101
 10
-50.3254824975
 20
-0.2943871806
 10
-50.3380043277
 20
-0.2360159611
 10
-50.3476865677
 20
-0.1786469099
 10
-50.3543455563
 20
-0.1219850688
 10
-50.3583913687
 20
-0.0648488406
 10
-50.360140547
 20
-0.0072577162
 10
-50.3592765491
 20
0.0508077953
 10
-50.355259825
 20
0.1105877633
 10
-50.3483506344
 20
0.172415448
 10
-50.3382887175
 20
0.2359575891
 10
-50.3237537448
 20
0.3014544759
 10
-50.3046123842
 20
0.3695877331
 10
-50.2809979678
 20
0.4396757359
 10
-50.2519901622
 20
0.5099138986
 10
-50.2167031605
 20
0.5809449153
 10
-50.1760227697
 20
0.6521260918
 10
-50.1316860772
 20
0.7197247596
 10
-50.0833836226
 20
0.7829767778
 10
-50.0314248664
 20
0.8426462873
 10
-49.9784752778
 20
0.8972930419
 10
-49.9250324141
 20
0.9462130483
 10
-49.8705987179
 20
0.9901102998
 10
-49.8163469874
 20
1.0296565305
 10
-49.7627809652
 20
1.0646868356
 10
-49.7093969085
 20
1.0953661199
 10
-49.6558563877
 20
1.1228608322
 10
-49.6025570826
 20
1.1473242343
 10
-49.5491013133
 20
1.1686030644
 10
-49.4939576101
 20
1.1874039857
 10
-49.4370019714
 20
1.2041004702
 10
-49.3783583988
 20
1.2183190458
 10
-49.3168674271
 20
1.2296459603
 10
-49.2521425681
 20
1.237943296
 10
-49.18457031
 20
1.2433489705
 10
-49.1141506529
 20
1.2458629838
  0
LINE
  5
599
100
AcDbEntity
  8
CURVE
100
AcDbLine
 62
250
  6
CONTINUOUS
 10
-26.5747242874
 20
3.4959234025
 11
-27.3175814248
 21
3.8673519905
  0
LINE
  5
59A
100
AcDbEntity
  8
CURVE
100
AcDbLine
 62
250
  6
CONTINUOUS
 10
-37.9466488874
 20
15.4292562242
 11
-38.5180774248
 21
16.000685
  0
LINE
  5
59B
100
AcDbEntity
  8
CURVE
100
AcDbLine
 62
250
  6
CONTINUOUS
 10
-36.5180774248
 20
14.572113299
 11
-36.8037917233
 21
14.8578279253
  0
LINE
  5
59C
100
AcDbEntity
  8
CURVE
100
AcDbLine
 62
250
  6
CONTINUOUS
 10
-26.2032957188
 20
6.0030661102
 11
-26.0175814248
 21
5.817351913
  0
LWPOLYLINE
  5
59D
100
AcDbEntity
  8
SMUSSO
100
AcDbPolyline
 62
7
  6
CONTINUOUS
 90
3
 70
0
 10
-35.3193422681
 20
20.9131644916
 10
-35.404573729
 20
21.028862598
 10
-35.4852326689
 20
21.15
  0
LWPOLYLINE
  5
59E
100
AcDbEntity
  8
ASSI
100
AcDbPolyline
 62
7
  6
CONTINUOUS
 90
3
 70
0
 10
-35.3193422681
 20
20.9131644916
 10
-35.404573729
 20
21.028862598
 10
-35.4852326689
 20
21.15
  0
LINE
  5
59F
100
AcDbEntity
  8
DRAFT
100
AcDbLine
 62
7
  6
CONTINUOUS
 10
-35.5832858828
 20
-21.1645490355
 11
-35.5263568822
 21
-21.1001140648
  0
LINE
  5
5A0
100
AcDbEntity
  8
ASSI
100
AcDbLine
 62
7
  6
CONTINUOUS
 10
-35.5832858828
 20
-21.1645490355
 11
-35.5263568822
 21
-21.1001140648
  0
LINE
  5
5A1
100
AcDbEntity
  8
DRAFT
100
AcDbLine
 62
7
  6
CONTINUOUS
 10
-35.4852498342
 20
-21.15
 11
-35.5702984194
 21
-21.2438729468
  0
LINE
  5
5A2
100
AcDbEntity
  8
ASSI
100
AcDbLine
 62
7
  6
CONTINUOUS
 10
-35.4852498342
 20
-21.15
 11
-35.5702984194
 21
-21.2438729468
  0
LINE
  5
5A3
100
AcDbEntity
  8
DRAFT
100
AcDbLine
 62
7
  6
CONTINUOUS
 10
-35.5702984194
 20
-21.2438729468
 11
-35.6589226952
 21
-21.341083873
  0
LINE
  5
5A4
100
AcDbEntity
  8
ASSI
100
AcDbLine
 62
7
  6
CONTINUOUS
 10
-35.5702984194
 20
-21.2438729468
 11
-35.6589226952
 21
-21.341083873
  0
LINE
  5
5A5
100
AcDbEntity
  8
DRAFT
100
AcDbLine
 62
7
  6
CONTINUOUS
 10
-35.6589226952
 20
-21.341083873
 11
-35.7513006136
 21
-21.4417764568
  0
LINE
  5
5A6
100
AcDbEntity
  8
ASSI
100
AcDbLine
 62
7
  6
CONTINUOUS
 10
-35.6589226952
 20
-21.341083873
 11
-35.7513006136
 21
-21.4417764568
  0
LWPOLYLINE
  5
5A7
100
AcDbEntity
  8
DRAFT
100
AcDbPolyline
 62
7
  6
CONTINUOUS
 90
3
 70
0
 10
-35.7513006136
 20
-21.4417764568
 10
-35.8480004923
 20
-21.5465254112
 10
-35.8979571664
 20
-21.6003851078
  0
LWPOLYLINE
  5
5A8
100
AcDbEntity
  8
ASSI
100
AcDbPolyline
 62
7
  6
CONTINUOUS
 90
3
 70
0
 10
-35.7513006136
 20
-21.4417764568
 10
-35.8480004923
 20
-21.5465254112
 10
-35.8979571664
 20
-21.6003851078
  0
LWPOLYLINE
  5
5A9
100
AcDbEntity
  8
DRAFT
100
AcDbPolyline
 62
7
  6
CONTINUOUS
 90
3
 70
0
 10
-35.5263568822
 20
-21.1001140648
 10
-35.4681922715
 20
-21.0378132315
 10
-35.4338793803
 20
-21.0025236019
  0
LWPOLYLINE
  5
5AA
100
AcDbEntity
  8
ASSI
100
AcDbPolyline
 62
7
  6
CONTINUOUS
 90
3
 70
0
 10
-35.5263568822
 20
-21.1001140648
 10
-35.4681922715
 20
-21.0378132315
 10
-35.4338793803
 20
-21.0025236019
  0
LWPOLYLINE
  5
5AB
100
AcDbEntity
  8
ASSI
100
AcDbPolyline
 62
250
  6
CONTINUOUS
 90
19
 70
0
 10
-43.7478228468
 20
-23.1969192385
 10
-43.7434583556
 20
-23.1933693378
 10
-43.7392426696
 20
-23.1897038672
 10
-43.7351801881
 20
-23.1859237447
 10
-43.7312850739
 20
-23.1820307418
 10
-43.7275521654
 20
-23.1780253706
 10
-43.7239569621
 20
-23.173906723
 10
-43.7205037497
 20
-23.1696772741
 10
-43.717197448
 20
-23.1653374363
 10
-43.7140147262
 20
-23.1608829587
 10
-43.7109596356
 20
-23.1563156347
 10
-43.7080378553
 20
-23.151636877
 10
-43.705229017
 20
-23.1468414625
 10
-43.7025372405
 20
-23.1419302739
 10
-43.6999688778
 20
-23.1369061494
 10
-43.6975074303
 20
-23.1317666006
 10
-43.6951511383
 20
-23.1265123249
 10
-43.6929127583
 20
-23.1211474284
 10
-43.6907977962
 20
-23.1156747393
  0
LINE
  5
5AC
100
AcDbEntity
  8
CURVE
100
AcDbLine
 62
250
  6
CONTINUOUS
 10
-41.4822374248
 20
-11.597964
 11
-39.5235294248
 21
-10.863423
  0
LINE
  5
5AD
100
AcDbEntity
  8
CURVE
100
AcDbLine
 62
250
  6
CONTINUOUS
 10
-40.8577594248
 20
-10.816096
 11
-42.5231684248
 21
-11.435625
  0
LINE
  5
5AE
100
AcDbEntity
  8
CURVE
100
AcDbLine
 62
250
  6
CONTINUOUS
 10
-39.5235294248
 20
-6.724667
 11
-42.5231684248
 21
-7.64503
  0
LWPOLYLINE
  5
5AF
100
AcDbEntity
  8
CURVE
100
AcDbPolyline
 62
250
  6
CONTINUOUS
 90
11
 70
0
 10
-39.9475426291
 20
-5.0816718563
 10
-40.0491219686
 20
-5.1105057781
 10
-40.0991972833
 20
-5.1247867824
 10
-40.1487498825
 20
-5.1391414509
 10
-40.1907808265
 20
-5.1515952503
 10
-40.2323816973
 20
-5.1642457361
 10
-40.2735327667
 20
-5.1771421421
 10
-40.314214306
 20
-5.1903337023
 10
-40.3544065868
 20
-5.2038696507
 10
-40.3940898808
 20
-5.2177992213
 10
-40.4332444593
 20
-5.2321716479
  0
LINE
  5
5B0
100
AcDbEntity
  8
CURVE
100
AcDbLine
 62
250
  6
CONTINUOUS
 10
-40.4085642113
 20
-4.5899587246
 11
-40.2656728789
 21
-4.5512247802
  0
LWPOLYLINE
  5
5B1
100
AcDbEntity
  8
CURVE
100
AcDbPolyline
 62
250
  6
CONTINUOUS
 90
3
 70
0
 10
-40.2656728789
 20
-4.5512247802
 10
-40.1963434058
 20
-4.5326646467
 10
-40.1273646446
 20
-4.5143688435
  0
LWPOLYLINE
  5
5B2
100
AcDbEntity
  8
CURVE
100
AcDbPolyline
 62
250
  6
CONTINUOUS
 90
3
 70
0
 10
-39.6549222923
 20
-4.3910581634
 10
-39.5889987822
 20
-4.3736456352
 10
-39.5235297567
 20
-4.3560515357
  0
LINE
  5
5B3
100
AcDbEntity
  8
CURVE
100
AcDbLine
 62
250
  6
CONTINUOUS
 10
-40.1273646446
 20
-4.5143688435
 11
-39.9905068152
 21
-4.4784231669
  0
LWPOLYLINE
  5
5B4
100
AcDbEntity
  8
CURVE
100
AcDbPolyline
 62
250
  6
CONTINUOUS
 90
3
 70
0
 10
-39.9905068152
 20
-4.4784231669
 10
-39.7880204569
 20
-4.4257231833
 10
-39.6549222923
 20
-4.3910581634
  0
LINE
  5
5B5
100
AcDbEntity
  8
DRAFT
100
AcDbLine
 62
7
  6
CONTINUOUS
 10
-48.9175814248
 20
0.95
 11
-49.4846398651
 21
0.9301978829
  0
LINE
  5
5B6
100
AcDbEntity
  8
DRAFT
100
AcDbLine
 62
7
  6
CONTINUOUS
 10
-51.1175814248
 20
3.0
 11
-51.3559213601
 21
3.0
  0
LINE
  5
5B7
100
AcDbEntity
  8
CURVE
100
AcDbLine
 62
250
  6
CONTINUOUS
 10
-26.0175814248
 20
3.1244948145
 11
-27.3175814248
 21
3.1244948145
  0
LINE
  5
5B8
100
AcDbEntity
  8
DRAFT
100
AcDbLine
 62
7
  6
CONTINUOUS
 10
-47.8175814248
 20
3.9838524469
 11
-48.4152564251
 21
4.0151752664
  0
LINE
  5
5B9
100
AcDbEntity
  8
RACCORDO
100
AcDbLine
 62
7
  6
CONTINUOUS
 10
-48.5175814248
 20
4.0205378924
 11
-48.8175814248
 21
4.0362602261
  0
LINE
  5
5BA
100
AcDbEntity
  8
DRAFT
100
AcDbLine
 62
7
  6
CONTINUOUS
 10
-51.3724472363
 20
3.214772929
 11
-51.1175814248
 21
3.1924750598
  0
LINE
  5
5BB
100
AcDbEntity
  8
CURVE
100
AcDbLine
 62
250
  6
CONTINUOUS
 10
-26.0175814248
 20
4.2387805398
 11
-27.3175814248
 21
4.6102091666
  0
LINE
  5
5BC
100
AcDbEntity
  8
CURVE
100
AcDbLine
 62
250
  6
CONTINUOUS
 10
-37.9466488874
 20
10.7149706121
 11
-38.2323631561
 21
10.8578276868
  0
LINE
  5
5BD
100
AcDbEntity
  8
CURVE
100
AcDbLine
 62
250
  6
CONTINUOUS
 10
-37.0895060217
 20
11.7149706121
 11
-36.8037917233
 21
11.5721135374
  0
LINE
  5
5BE
100
AcDbEntity
  8
CURVE
100
AcDbLine
 62
250
  6
CONTINUOUS
 10
-37.9466488874
 20
12.2863991495
 11
-38.2323631561
 21
12.4292562242
  0
LWPOLYLINE
  5
5BF
100
AcDbEntity
  8
DRAFT
100
AcDbPolyline
 62
7
  6
CONTINUOUS
 90
3
 70
0
 10
-35.4338113763
 20
21.0024488241
 10
-35.4716779048
 20
21.0414565384
 10
-35.5292606084
 20
21.1033228521
  0
LWPOLYLINE
  5
5C0
100
AcDbEntity
  8
ASSI
100
AcDbPolyline
 62
7
  6
CONTINUOUS
 90
3
 70
0
 10
-35.4338113763
 20
21.0024488241
 10
-35.4716779048
 20
21.0414565384
 10
-35.5292606084
 20
21.1033228521
  0
LWPOLYLINE
  5
5C1
100
AcDbEntity
  8
DRAFT
100
AcDbPolyline
 62
7
  6
CONTINUOUS
 90
7
 70
0
 10
-35.8979818099
 20
21.600398313
 10
-35.8243159617
 20
21.5209279052
 10
-35.7526275169
 20
21.4432191063
 10
-35.6828964702
 20
21.3672719164
 10
-35.6151029447
 20
21.2930863353
 10
-35.5492272325
 20
21.2206623632
 10
-35.4852498342
 20
21.15
  0
LWPOLYLINE
  5
5C2
100
AcDbEntity
  8
ASSI
100
AcDbPolyline
 62
7
  6
CONTINUOUS
 90
7
 70
0
 10
-35.8979818099
 20
21.600398313
 10
-35.8243159617
 20
21.5209279052
 10
-35.7526275169
 20
21.4432191063
 10
-35.6828964702
 20
21.3672719164
 10
-35.6151029447
 20
21.2930863353
 10
-35.5492272325
 20
21.2206623632
 10
-35.4852498342
 20
21.15
  0
LWPOLYLINE
  5
5C3
100
AcDbEntity
  8
DRAFT
100
AcDbPolyline
 62
7
  6
CONTINUOUS
 90
8
 70
0
 10
-35.5292606084
 20
21.1033228521
 10
-35.5856354772
 20
21.1672991256
 10
-35.6409441639
 20
21.2333481187
 10
-35.6950450158
 20
21.3014511435
 10
-35.7477462322
 20
21.3721516811
 10
-35.7989838795
 20
21.4456011742
 10
-35.8488218911
 20
21.5215669784
 10
-35.8972602673
 20
21.600006503
  0
LWPOLYLINE
  5
5C4
100
AcDbEntity
  8
ASSI
100
AcDbPolyline
 62
7
  6
CONTINUOUS
 90
8
 70
0
 10
-35.5292606084
 20
21.1033228521
 10
-35.5856354772
 20
21.1672991256
 10
-35.6409441639
 20
21.2333481187
 10
-35.6950450158
 20
21.3014511435
 10
-35.7477462322
 20
21.3721516811
 10
-35.7989838795
 20
21.4456011742
 10
-35.8488218911
 20
21.5215669784
 10
-35.8972602673
 20
21.600006503
  0
LINE
  5
5C5
100
AcDbEntity
  8
SMUSSO
100
AcDbLine
 62
7
  6
CONTINUOUS
 10
-35.2565555678
 20
20.8356154536
 11
-35.3193422681
 21
20.9131644916
  0
LINE
  5
5C6
100
AcDbEntity
  8
ASSI
100
AcDbLine
 62
7
  6
CONTINUOUS
 10
-35.2565555678
 20
20.8356154536
 11
-35.3193422681
 21
20.9131644916
  0
LINE
  5
5C7
100
AcDbEntity
  8
0
100
AcDbLine
 62
7
  6
CONTINUOUS
 10
-13.6175814248
 20
-3.1
 11
-13.6175814248
 21
-5.1
  0
LINE
  5
5C8
100
AcDbEntity
  8
ASSI
100
AcDbLine
 62
7
  6
CONTINUOUS
 10
-13.6175814248
 20
-3.1
 11
-13.6175814248
 21
-5.1
  0
LINE
  5
5C9
100
AcDbEntity
  8
DRAFT
100
AcDbLine
 62
7
  6
CONTINUOUS
 10
-13.4175814248
 20
-6.747776788
 11
-13.4175814248
 21
-8.0
  0
LINE
  5
5CA
100
AcDbEntity
  8
0
100
AcDbLine
 62
7
  6
CONTINUOUS
 10
-13.4175814248
 20
-6.747776788
 11
-13.4175814248
 21
4.3
  0
LINE
  5
5CB
100
AcDbEntity
  8
ASSI
100
AcDbLine
 62
7
  6
CONTINUOUS
 10
-13.4175814248
 20
-8.0
 11
-13.4175814248
 21
4.3
  0
LWPOLYLINE
  5
5CC
100
AcDbEntity
  8
DRAFT
100
AcDbPolyline
 62
7
  6
CONTINUOUS
 90
20
 70
0
 10
-35.4338793803
 20
-21.0025236019
 10
-35.4086150594
 20
-20.977157643
 10
-35.3476644151
 20
-20.918111026
 10
-35.2853011695
 20
-20.8607494765
 10
-35.2212308246
 20
-20.8047426947
 10
-35.1554976426
 20
-20.7500482667
 10
-35.0880573613
 20
-20.696738174
 10
-35.0184826963
 20
-20.6446481937
 10
-34.9466355623
 20
-20.5936420279
 10
-34.8726540445
 20
-20.5438795461
 10
-34.7965251142
 20
-20.4956408372
 10
-34.7182343114
 20
-20.4489212425
 10
-34.637796096
 20
-20.4037512093
 10
-34.5552408193
 20
-20.3604670491
 10
-34.470501937
 20
-20.31905376
 10
-34.3836459935
 20
-20.2795528632
 10
-34.2949029721
 20
-20.2423890166
 10
-34.2043495341
 20
-20.2077135657
 10
-34.1119090183
 20
-20.1754018908
 10
-34.0175814248
 20
-20.1454656051
  0
LWPOLYLINE
  5
5CD
100
AcDbEntity
  8
ASSI
100
AcDbPolyline
 62
7
  6
CONTINUOUS
 90
20
 70
0
 10
-35.4338793803
 20
-21.0025236019
 10
-35.4086150594
 20
-20.977157643
 10
-35.3476644151
 20
-20.918111026
 10
-35.2853011695
 20
-20.8607494765
 10
-35.2212308246
 20
-20.8047426947
 10
-35.1554976426
 20
-20.7500482667
 10
-35.0880573613
 20
-20.696738174
 10
-35.0184826963
 20
-20.6446481937
 10
-34.9466355623
 20
-20.5936420279
 10
-34.8726540445
 20
-20.5438795461
 10
-34.7965251142
 20
-20.4956408372
 10
-34.7182343114
 20
-20.4489212425
 10
-34.637796096
 20
-20.4037512093
 10
-34.5552408193
 20
-20.3604670491
 10
-34.470501937
 20
-20.31905376
 10
-34.3836459935
 20
-20.2795528632
 10
-34.2949029721
 20
-20.2423890166
 10
-34.2043495341
 20
-20.2077135657
 10
-34.1119090183
 20
-20.1754018908
 10
-34.0175814248
 20
-20.1454656051
  0
LWPOLYLINE
  5
5CE
100
AcDbEntity
  8
ASSI
100
AcDbPolyline
 62
250
  6
CONTINUOUS
 90
19
 70
0
 10
-43.6596935963
 20
-23.2765610387
 10
-43.6507625933
 20
-23.2707085466
 10
-43.6420306373
 20
-23.2648224241
 10
-43.6334974713
 20
-23.258897018
 10
-43.6251623832
 20
-23.2529218226
 10
-43.6170256083
 20
-23.2468961126
 10
-43.6090885938
 20
-23.2408291172
 10
-43.6013528511
 20
-23.2347175103
 10
-43.5938170391
 20
-23.2285542395
 10
-43.5864786935
 20
-23.2223434499
 10
-43.5793373182
 20
-23.2160814621
 10
-43.5723937516
 20
-23.209763009
 10
-43.565647718
 20
-23.2033904406
 10
-43.559097378
 20
-23.1969594266
 10
-43.5527449307
 20
-23.1904671514
 10
-43.5465963644
 20
-23.1839187945
 10
-43.5406539095
 20
-23.1773144116
 10
-43.5349158549
 20
-23.1706489627
 10
-43.5293823779
 20
-23.1639206082
  0
LINE
  5
5CF
100
AcDbEntity
  8
RACCORDO
100
AcDbLine
 62
7
  6
CONTINUOUS
 10
-48.8175814248
 20
4.9546168312
 11
-46.2175814248
 21
5.0
  0
LINE
  5
5D0
100
AcDbEntity
  8
RACCORDO
100
AcDbLine
 62
250
  6
CONTINUOUS
 10
-44.6932952408
 20
3.7291370162
 11
-49.0350212309
 21
3.7291370162
  0
LINE
  5
5D1
100
AcDbEntity
  8
CURVE
100
AcDbLine
 62
250
  6
CONTINUOUS
 10
-27.3175814248
 20
3.8673519905
 11
-26.0175814248
 21
3.8673519905
  0
LINE
  5
5D2
100
AcDbEntity
  8
RACCORDO
100
AcDbLine
 62
250
  6
CONTINUOUS
 10
-44.8966943345
 20
3.9291065459
 11
-48.8384812466
 21
3.9291065459
  0
LINE
  5
5D3
100
AcDbEntity
  8
DRAFT
100
AcDbLine
 62
7
  6
CONTINUOUS
 10
-48.8175814248
 20
3.95
 11
-44.9175814248
 21
3.95
  0
LINE
  5
5D4
100
AcDbEntity
  8
RACCORDO
100
AcDbLine
 62
7
  6
CONTINUOUS
 10
-46.2175814248
 20
4.0205378924
 11
-48.5175814248
 21
4.0205378924
  0
LINE
  5
5D5
100
AcDbEntity
  8
RACCORDO
100
AcDbLine
 62
7
  6
CONTINUOUS
 10
-46.2175814248
 20
4.5
 11
-44.9175814248
 21
4.5
  0
LINE
  5
5D6
100
AcDbEntity
  8
0
100
AcDbLine
 62
7
  6
CONTINUOUS
 10
-13.8038756976
 20
4.6552157929
 11
-13.5084005899
 21
4.6552157929
  0
LINE
  5
5D7
100
AcDbEntity
  8
ASSI
100
AcDbLine
 62
7
  6
CONTINUOUS
 10
-13.8038756976
 20
4.6552157929
 11
-13.5084005899
 21
4.6552157929
  0
LINE
  5
5D8
100
AcDbEntity
  8
0
100
AcDbLine
 62
250
  6
CONTINUOUS
 10
-14.2253724713
 20
5.0428019458
 11
-13.9298973647
 21
5.0428019458
  0
LINE
  5
5D9
100
AcDbEntity
  8
ASSI
100
AcDbLine
 62
250
  6
CONTINUOUS
 10
-14.2253724713
 20
5.0428019458
 11
-13.9298973647
 21
5.0428019458
  0
LINE
  5
5DA
100
AcDbEntity
  8
DRAFT
100
AcDbLine
 62
7
  6
CONTINUOUS
 10
-44.9175814248
 20
5.05
 11
-48.8175814248
 21
5.05
  0
LINE
  5
5DB
100
AcDbEntity
  8
RACCORDO
100
AcDbLine
 62
250
  6
CONTINUOUS
 10
-48.8384812466
 20
5.0708934541
 11
-44.8966943345
 21
5.0708934541
  0
LINE
  5
5DC
100
AcDbEntity
  8
RACCORDO
100
AcDbLine
 62
250
  6
CONTINUOUS
 10
-49.0350212309
 20
5.2708629838
 11
-44.6932952408
 21
5.2708629838
  0
LINE
  5
5DD
100
AcDbEntity
  8
CURVE
100
AcDbLine
 62
250
  6
CONTINUOUS
 10
-26.0175814248
 20
5.3530662652
 11
-27.3175814248
 21
5.3530662652
  0
LINE
  5
5DE
100
AcDbEntity
  8
0
100
AcDbLine
 62
250
  6
CONTINUOUS
 10
-14.7424478703
 20
5.5182771481
 11
-14.4469727626
 21
5.5182771481
  0
LINE
  5
5DF
100
AcDbEntity
  8
ASSI
100
AcDbLine
 62
250
  6
CONTINUOUS
 10
-14.7424478703
 20
5.5182771481
 11
-14.4469727626
 21
5.5182771481
  0
LINE
  5
5E0
100
AcDbEntity
  8
CURVE
100
AcDbLine
 62
250
  6
CONTINUOUS
 10
-27.1318671501
 20
6.0030661102
 11
-26.2032957188
 21
6.0030661102
  0
LINE
  5
5E1
100
AcDbEntity
  8
0
100
AcDbLine
 62
7
  6
CONTINUOUS
 10
-15.5079172615
 20
6.2221623359
 11
-15.2124421539
 21
6.2221623359
  0
LINE
  5
5E2
100
AcDbEntity
  8
ASSI
100
AcDbLine
 62
7
  6
CONTINUOUS
 10
-15.5079172615
 20
6.2221623359
 11
-15.2124421539
 21
6.2221623359
  0
LINE
  5
5E3
100
AcDbEntity
  8
CURVE
100
AcDbLine
 62
250
  6
CONTINUOUS
 10
-37.0895060217
 20
13.2863991495
 11
-36.8037917233
 21
13.1435420747
  0
LINE
  5
5E4
100
AcDbEntity
  8
CURVE
100
AcDbLine
 62
250
  6
CONTINUOUS
 10
-38.0895059621
 20
14.1435420747
 11
-37.5180774248
 21
13.8578279253
  0
LWPOLYLINE
  5
5E5
100
AcDbEntity
  8
ASSI
100
AcDbPolyline
 62
250
  6
CONTINUOUS
 90
18
 70
0
 10
-43.7478513957
 20
23.1969415218
 10
-43.7605533441
 20
23.2060919459
 10
-43.7745155414
 20
23.2141710081
 10
-43.7896476518
 20
23.2212279694
 10
-43.8061198627
 20
23.2273976028
 10
-43.8236563708
 20
23.2326466634
 10
-43.8415101547
 20
23.2368630991
 10
-43.8595576501
 20
23.2401293497
 10
-43.8779368946
 20
23.2426638239
 10
-43.8962809218
 20
23.2446161914
 10
-43.9145659937
 20
23.2460836386
 10
-43.9328956145
 20
23.2471658053
 10
-43.9510333619
 20
23.2479705201
 10
-43.968827219
 20
23.2485537637
 10
-43.9864934251
 20
23.2489648463
 10
-44.0042928614
 20
23.2492620357
 10
-44.0221615413
 20
23.2494749926
 10
-44.0589748331
 20
23.249713875
  0
LWPOLYLINE
  5
5E6
100
AcDbEntity
  8
0
100
AcDbPolyline
 62
7
  6
CONTINUOUS
 90
10
 70
0
 43
0.3500000006
 10
-30.5675816116
 20
35.5635879822
 10
-30.4961526947
 20
35.4207301483
 10
-30.4961526947
 20
35.3492989655
 10
-30.6390105286
 20
35.2064456635
 10
-30.7104394455
 20
35.2064456635
 10
-30.7818660965
 20
35.2778723145
 10
-30.7818660965
 20
35.3492989655
 10
-30.7104394455
 20
35.4921567993
 10
-30.6390105286
 20
35.5635879822
 10
-30.5675816116
 20
35.5635879822
  0
LINE
  5
5E7
100
AcDbEntity
  8
DRAFT
100
AcDbLine
 62
7
  6
CONTINUOUS
 10
-29.0004391876
 20
-19.3124254565
 11
-25.0175814248
 21
-15.65
  0
LINE
  5
5E8
100
AcDbEntity
  8
ASSI
100
AcDbLine
 62
7
  6
CONTINUOUS
 10
-29.0004391876
 20
-19.3124254565
 11
-25.0175814248
 21
-15.65
  0
LINE
  5
5E9
100
AcDbEntity
  8
0
100
AcDbLine
 62
7
  6
CONTINUOUS
 10
-25.163445742
 20
-16.055832405
 11
-27.0617404438
 21
-17.8014038649
  0
LINE
  5
5EA
100
AcDbEntity
  8
ASSI
100
AcDbLine
 62
7
  6
CONTINUOUS
 10
-25.163445742
 20
-16.055832405
 11
-27.0617404438
 21
-17.8014038649
  0
LWPOLYLINE
  5
5EB
100
AcDbEntity
  8
ASSI
100
AcDbPolyline
 62
250
  6
CONTINUOUS
 90
13
 70
0
 10
-47.2831508358
 20
-23.7674284937
 10
-47.3054018114
 20
-23.7800437728
 10
-47.3273433007
 20
-23.7921634286
 10
-47.3486133412
 20
-23.8035875267
 10
-47.3688610474
 20
-23.8141276071
 10
-47.3877523988
 20
-23.8236097931
 10
-47.4049757503
 20
-23.8318776598
 10
-47.4202469733
 20
-23.8387948149
 10
-47.4333141429
 20
-23.8442471478
 10
-47.4439616939
 20
-23.8481447132
 10
-47.4520139767
 20
-23.850423214
 10
-47.4573381551
 20
-23.8510450624
 10
-47.4598463978
 20
-23.85
  0
LWPOLYLINE
  5
5EC
100
AcDbEntity
  8
ASSI
100
AcDbPolyline
 62
250
  6
CONTINUOUS
 90
13
 70
0
 10
-46.8212706204
 20
-24.5674284937
 10
-46.8435688591
 20
-24.5800702257
 10
-46.865551562
 20
-24.5922116323
 10
-46.8868549409
 20
-24.6036519648
 10
-46.9071255213
 20
-24.6142016155
 10
-46.9260299296
 20
-24.6236873088
 10
-46.9432594315
 20
-24.631954228
 10
-46.9585397456
 20
-24.6388702852
 10
-46.9716039194
 20
-24.6443141081
 10
-46.9822159708
 20
-24.6481890536
 10
-46.9902117615
 20
-24.6504400539
 10
-46.9954848392
 20
-24.651043566
 10
-46.9979661825
 20
-24.65
  0
LINE
  5
5ED
100
AcDbEntity
  8
CURVE
100
AcDbLine
 62
250
  6
CONTINUOUS
 10
-42.5231684248
 20
-15.994614
 11
-39.5235294248
 21
-15.04367
  0
LWPOLYLINE
  5
5EE
100
AcDbEntity
  8
RACCORDO
100
AcDbPolyline
 62
250
  6
CONTINUOUS
 90
6
 70
0
 10
-48.8292191815
 20
-1.0061157413
 10
-48.8811183707
 20
-1.0194169212
 10
-48.9358708875
 20
-1.0304058661
 10
-48.9938649758
 20
-1.0387755609
 10
-49.0544959821
 20
-1.0440555869
 10
-49.1175814248
 20
-1.0458934537
  0
LINE
  5
5EF
100
AcDbEntity
  8
DRAFT
100
AcDbLine
 62
7
  6
CONTINUOUS
 10
-49.3241113909
 20
1.0039772772
 11
-49.4113205867
 21
0.9822091243
  0
LINE
  5
5F0
100
AcDbEntity
  8
0
100
AcDbLine
 62
7
  6
CONTINUOUS
 10
-15.6733864607
 20
6.3743190645
 11
-15.3779113531
 21
6.3743190645
  0
LINE
  5
5F1
100
AcDbEntity
  8
ASSI
100
AcDbLine
 62
7
  6
CONTINUOUS
 10
-15.6733864607
 20
6.3743190645
 11
-15.3779113531
 21
6.3743190645
  0
LINE
  5
5F2
100
AcDbEntity
  8
CURVE
100
AcDbLine
 62
250
  6
CONTINUOUS
 10
-26.0175814248
 20
6.5292567487
 11
-27.3175814248
 21
6.5292567487
  0
LINE
  5
5F3
100
AcDbEntity
  8
CURVE
100
AcDbLine
 62
250
  6
CONTINUOUS
 10
-42.5216574248
 20
7.154368
 11
-39.5180864248
 21
7.154368
  0
LINE
  5
5F4
100
AcDbEntity
  8
CURVE
100
AcDbLine
 62
250
  6
CONTINUOUS
 10
-39.8005794248
 20
7.507485
 11
-42.5216574248
 21
7.507485
  0
LINE
  5
5F5
100
AcDbEntity
  8
CURVE
100
AcDbLine
 62
250
  6
CONTINUOUS
 10
-39.5180864248
 20
8.450515
 11
-39.8005794248
 21
8.450515
  0
LINE
  5
5F6
100
AcDbEntity
  8
CURVE
100
AcDbLine
 62
250
  6
CONTINUOUS
 10
-26.0175814248
 20
8.7268754716
 11
-27.3175814248
 21
8.7268754716
  0
LINE
  5
5F7
100
AcDbEntity
  8
CURVE
100
AcDbLine
 62
250
  6
CONTINUOUS
 10
-42.5216634248
 20
8.864998
 11
-39.5180924248
 21
8.864998
  0
LINE
  5
5F8
100
AcDbEntity
  8
CURVE
100
AcDbLine
 62
250
  6
CONTINUOUS
 10
-39.5180924248
 20
9.218115
 11
-42.5216634248
 21
9.218115
  0
LINE
  5
5F9
100
AcDbEntity
  8
DRAFT
100
AcDbLine
 62
7
  6
CONTINUOUS
 10
-16.1006145726
 20
6.767175452
 11
-25.0175814248
 21
6.8316462336
  0
LINE
  5
5FA
100
AcDbEntity
  8
ASSI
100
AcDbLine
 62
7
  6
CONTINUOUS
 10
-16.1006145726
 20
6.767175452
 11
-25.0175814248
 21
6.8316462336
  0
LINE
  5
5FB
100
AcDbEntity
  8
ASSI
100
AcDbLine
 62
7
  6
CONTINUOUS
 10
-51.7660347893
 20
8.3298996787
 11
-52.9175814248
 21
8.35
  0
LINE
  5
5FC
100
AcDbEntity
  8
DRAFT
100
AcDbLine
 62
7
  6
CONTINUOUS
 10
-51.7660347893
 20
8.3298996787
 11
-52.9175814248
 21
8.35
  0
LINE
  5
5FD
100
AcDbEntity
  8
DRAFT
100
AcDbLine
 62
7
  6
CONTINUOUS
 10
-17.5191583157
 20
8.0715932909
 11
-25.0175814248
 21
8.2024787532
  0
LINE
  5
5FE
100
AcDbEntity
  8
ASSI
100
AcDbLine
 62
7
  6
CONTINUOUS
 10
-17.5191583157
 20
8.0715932909
 11
-25.0175814248
 21
8.2024787532
  0
LINE
  5
5FF
100
AcDbEntity
  8
ASSI
100
AcDbLine
 62
7
  6
CONTINUOUS
 10
-53.7175814248
 20
9.5
 11
-52.9175814248
 21
9.4860359481
  0
LINE
  5
600
100
AcDbEntity
  8
DRAFT
100
AcDbLine
 62
7
  6
CONTINUOUS
 10
-53.7175814248
 20
9.5
 11
-52.9175814248
 21
9.4860359481
  0
LINE
  5
601
100
AcDbEntity
  8
DRAFT
100
AcDbLine
 62
7
  6
CONTINUOUS
 10
-52.9175814248
 20
9.5174603847
 11
-52.4175814248
 21
9.5
  0
LINE
  5
602
100
AcDbEntity
  8
CURVE
100
AcDbLine
 62
250
  6
CONTINUOUS
 10
-40.5608404248
 20
14.467742
 11
-42.1934584248
 21
14.903945
  0
LINE
  5
603
100
AcDbEntity
  8
CURVE
100
AcDbLine
 62
250
  6
CONTINUOUS
 10
-39.5180774248
 20
14.168628
 11
-40.2783444248
 21
14.3805
  0
LINE
  5
604
100
AcDbEntity
  8
CURVE
100
AcDbLine
 62
250
  6
CONTINUOUS
 10
-42.5216774248
 20
14.696229
 11
-39.5180774248
 21
13.815513
  0
LWPOLYLINE
  5
605
100
AcDbEntity
  8
ASSI
100
AcDbPolyline
 62
250
  6
CONTINUOUS
 90
13
 70
0
 10
-47.2831508358
 20
23.7674284937
 10
-47.3054020723
 20
23.780043917
 10
-47.3273437594
 20
23.7921636753
 10
-47.3486139283
 20
23.8035878329
 10
-47.36886169
 20
23.8141279307
 10
-47.387753031
 20
23.8236100983
 10
-47.4049763217
 20
23.8318779213
 10
-47.4202474438
 20
23.8387950149
 10
-47.4333144894
 20
23.8442472797
 10
-47.443961917
 20
23.848144783
 10
-47.4520140927
 20
23.8504232364
 10
-47.4573381922
 20
23.8510450591
 10
-47.4598463978
 20
23.85
  0
LWPOLYLINE
  5
606
100
AcDbEntity
  8
ASSI
100
AcDbPolyline
 62
250
  6
CONTINUOUS
 90
13
 70
0
 10
-46.8212706204
 20
24.5674284937
 10
-46.8435683751
 20
24.5800699548
 10
-46.8655505798
 20
24.5922110972
 10
-46.886853474
 20
24.6036511889
 10
-46.9071235218
 20
24.6142005928
 10
-46.9260274861
 20
24.6236861083
 10
-46.9432568957
 20
24.6319530437
 10
-46.9585374853
 20
24.6388692996
 10
-46.971602134
 20
24.6443134054
 10
-46.9822147549
 20
24.6481886535
 10
-46.9902111046
 20
24.6504399126
 10
-46.9954846243
 20
24.6510435783
 10
-46.9979661825
 20
24.65
  0
LWPOLYLINE
  5
607
100
AcDbEntity
  8
ASSI
100
AcDbPolyline
 62
250
  6
CONTINUOUS
 90
16
 70
0
 10
-43.6597499549
 20
23.2765978125
 10
-43.6843658569
 20
23.2917404813
 10
-43.7096202429
 20
23.3059397197
 10
-43.7355071196
 20
23.3192103567
 10
-43.762502946
 20
23.3316247629
 10
-43.7901284984
 20
23.343117367
 10
-43.8169473718
 20
23.353488333
 10
-43.8425655845
 20
23.3625373162
 10
-43.8673843758
 20
23.3704465927
 10
-43.8911566886
 20
23.3775987713
 10
-43.9137584978
 20
23.384018474
 10
-43.9353155803
 20
23.3896761391
 10
-43.9559503612
 20
23.3948861437
 10
-43.9754978404
 20
23.3996653628
 10
-43.9941211163
 20
23.4040011812
 10
-44.0303814703
 20
23.4121851304
  0
LINE
  5
608
100
AcDbEntity
  8
CURVE
100
AcDbLine
 62
250
  6
CONTINUOUS
 10
-26.7604386008
 20
15.6292561288
 11
-27.3175814248
 21
16.0006857629
  0
LINE
  5
609
100
AcDbEntity
  8
DRAFT
100
AcDbLine
 62
7
  6
CONTINUOUS
 10
-17.5191583157
 20
8.0715932909
 11
-13.4175814248
 21
4.3
  0
LINE
  5
60A
100
AcDbEntity
  8
ASSI
100
AcDbLine
 62
7
  6
CONTINUOUS
 10
-17.5191583157
 20
8.0715932909
 11
-13.4175814248
 21
4.3
  0
LINE
  5
60B
100
AcDbEntity
  8
0
100
AcDbLine
 62
7
  6
CONTINUOUS
 10
-15.3779113531
 20
6.3743190645
 11
-13.5082045605
 21
4.6550355346
  0
LINE
  5
60C
100
AcDbEntity
  8
ASSI
100
AcDbLine
 62
7
  6
CONTINUOUS
 10
-15.3779113531
 20
6.3743190645
 11
-13.5082045605
 21
4.6550355346
  0
LINE
  5
60D
100
AcDbEntity
  8
DRAFT
100
AcDbLine
 62
7
  6
CONTINUOUS
 10
-25.0175814248
 20
15.65
 11
-29.0004391876
 21
19.3124254565
  0
LINE
  5
60E
100
AcDbEntity
  8
ASSI
100
AcDbLine
 62
7
  6
CONTINUOUS
 10
-25.0175814248
 20
15.65
 11
-29.0004391876
 21
19.3124254565
  0
LINE
  5
60F
100
AcDbEntity
  8
0
100
AcDbLine
 62
7
  6
CONTINUOUS
 10
-27.0333380678
 20
17.7752865414
 11
-25.1636312752
 21
16.0560030115
  0
LINE
  5
610
100
AcDbEntity
  8
ASSI
100
AcDbLine
 62
7
  6
CONTINUOUS
 10
-27.0333380678
 20
17.7752865414
 11
-25.1636312752
 21
16.0560030115
  0
LWPOLYLINE
  5
611
100
AcDbEntity
  8
0
100
AcDbPolyline
 62
7
  6
CONTINUOUS
 90
10
 70
0
 43
0.3500000006
 10
-33.4175824814
 20
45.5635865021
 10
-33.3461535645
 20
45.4207286682
 10
-33.3461535645
 20
45.3493020172
 10
-33.4890091324
 20
45.2064441833
 10
-33.5604380493
 20
45.2064441833
 10
-33.6318669662
 20
45.2778708344
 10
-33.6318669662
 20
45.3493020172
 10
-33.5604380493
 20
45.4921598511
 10
-33.4890091324
 20
45.5635865021
 10
-33.4175824814
 20
45.5635865021
  0
LWPOLYLINE
  5
612
100
AcDbEntity
  8
ASSI
100
AcDbPolyline
 62
250
  6
CONTINUOUS
 90
10
 70
0
 10
-35.4575221156
 20
-22.2358309453
 10
-35.4507298012
 20
-22.231444577
 10
-35.44538905
 20
-22.2223780258
 10
-35.4416322552
 20
-22.2088560445
 10
-35.4395525452
 20
-22.1912138329
 10
-35.4392014745
 20
-22.169888728
 10
-35.440587746
 20
-22.1454093636
 10
-35.4436769951
 20
-22.1183825648
 10
-35.4483926418
 20
-22.0894783063
 10
-35.4546177886
 20
-22.0594131032
  0
LINE
  5
613
100
AcDbEntity
  8
DRAFT
100
AcDbLine
 62
7
  6
CONTINUOUS
 10
-36.030999741
 20
-21.6734311389
 11
-35.9866567881
 21
-21.6486937369
  0
LINE
  5
614
100
AcDbEntity
  8
ASSI
100
AcDbLine
 62
7
  6
CONTINUOUS
 10
-36.030999741
 20
-21.6734311389
 11
-35.9866567881
 21
-21.6486937369
  0
LINE
  5
615
100
AcDbEntity
  8
DRAFT
100
AcDbLine
 62
7
  6
CONTINUOUS
 10
-35.9866567881
 20
-21.6486937369
 11
-35.9420759496
 21
-21.6242178862
  0
LINE
  5
616
100
AcDbEntity
  8
ASSI
100
AcDbLine
 62
7
  6
CONTINUOUS
 10
-35.9866567881
 20
-21.6486937369
 11
-35.9420759496
 21
-21.6242178862
  0
LWPOLYLINE
  5
617
100
AcDbEntity
  8
SMUSSO
100
AcDbPolyline
 62
7
  6
CONTINUOUS
 90
7
 70
0
 10
-35.4546177886
 20
-21.5620406825
 10
-35.4603533746
 20
-21.5651423392
 10
-35.466110851
 20
-21.5683184951
 10
-35.4718894322
 20
-21.5715691212
 10
-35.4776883276
 20
-21.574894189
 10
-35.4835067409
 20
-21.5782936708
 10
-35.4893438709
 20
-21.5817675397
  0
LINE
  5
618
100
AcDbEntity
  8
DRAFT
100
AcDbLine
 62
7
  6
CONTINUOUS
 10
-35.9420759496
 20
-21.6242178862
 11
-35.8972572254
 21
-21.6000050309
  0
LINE
  5
619
100
AcDbEntity
  8
ASSI
100
AcDbLine
 62
7
  6
CONTINUOUS
 10
-35.9420759496
 20
-21.6242178862
 11
-35.8972572254
 21
-21.6000050309
  0
LINE
  5
61A
100
AcDbEntity
  8
ASSI
100
AcDbLine
 62
250
  6
CONTINUOUS
 10
-46.4981527963
 20
-24.5393208298
 11
-44.1238875487
 21
-23.4321827624
  0
LINE
  5
61B
100
AcDbEntity
  8
ASSI
100
AcDbLine
 62
7
  6
CONTINUOUS
 10
-46.4171196252
 20
-24.7031538935
 11
-43.6022064426
 21
-23.3905383194
  0
LINE
  5
61C
100
AcDbEntity
  8
DRAFT
100
AcDbLine
 62
7
  6
CONTINUOUS
 10
-52.4175814248
 20
9.5
 11
-51.1175814248
 21
9.5453970003
  0
LINE
  5
61D
100
AcDbEntity
  8
CURVE
100
AcDbLine
 62
250
  6
CONTINUOUS
 10
-26.0175814248
 20
9.3149709459
 11
-27.3175814248
 21
9.3149709459
  0
LINE
  5
61E
100
AcDbEntity
  8
CURVE
100
AcDbLine
 62
250
  6
CONTINUOUS
 10
-42.5216574248
 20
9.772004
 11
-39.5180864248
 21
9.772004
  0
LINE
  5
61F
100
AcDbEntity
  8
CURVE
100
AcDbLine
 62
250
  6
CONTINUOUS
 10
-26.0175814248
 20
9.9649709459
 11
-27.3175814248
 21
9.9649709459
  0
LINE
  5
620
100
AcDbEntity
  8
CURVE
100
AcDbLine
 62
250
  6
CONTINUOUS
 10
-37.8037916934
 20
10.0959229704
 11
-38.2323631561
 21
10.0959229704
  0
LINE
  5
621
100
AcDbEntity
  8
CURVE
100
AcDbLine
 62
250
  6
CONTINUOUS
 10
-39.5180864248
 20
10.100196
 11
-42.2183934248
 21
10.100196
  0
LINE
  5
622
100
AcDbEntity
  8
CURVE
100
AcDbLine
 62
250
  6
CONTINUOUS
 10
-36.660934574
 20
10.1435420151
 11
-37.3752202904
 21
10.1435420151
  0
LINE
  5
623
100
AcDbEntity
  8
CURVE
100
AcDbLine
 62
250
  6
CONTINUOUS
 10
-37.0895060217
 20
10.7149706121
 11
-37.9466488874
 21
10.7149706121
  0
LINE
  5
624
100
AcDbEntity
  8
CURVE
100
AcDbLine
 62
250
  6
CONTINUOUS
 10
-42.5216574248
 20
11.329873
 11
-39.8213504248
 21
11.329873
  0
LINE
  5
625
100
AcDbEntity
  8
CURVE
100
AcDbLine
 62
250
  6
CONTINUOUS
 10
-26.0175814248
 20
11.6054470773
 11
-27.3175814248
 21
11.6054470773
  0
LINE
  5
626
100
AcDbEntity
  8
CURVE
100
AcDbLine
 62
250
  6
CONTINUOUS
 10
-39.5180864248
 20
11.658092
 11
-42.5216574248
 21
11.658092
  0
LINE
  5
627
100
AcDbEntity
  8
CURVE
100
AcDbLine
 62
250
  6
CONTINUOUS
 10
-37.9466488874
 20
11.7149706121
 11
-37.0895060217
 21
11.7149706121
  0
LINE
  5
628
100
AcDbEntity
  8
ASSI
100
AcDbLine
 62
7
  6
CONTINUOUS
 10
-52.9175814248
 20
13.5580737766
 11
-53.0156056821
 21
13.5632110102
  0
LINE
  5
629
100
AcDbEntity
  8
DRAFT
100
AcDbLine
 62
7
  6
CONTINUOUS
 10
-52.9175814248
 20
13.5580737766
 11
-53.0156056821
 21
13.5632110102
  0
LINE
  5
62A
100
AcDbEntity
  8
CURVE
100
AcDbLine
 62
250
  6
CONTINUOUS
 10
-26.0175814248
 20
13.3078283544
 11
-27.3175814248
 21
13.6792561288
  0
LWPOLYLINE
  5
62B
100
AcDbEntity
  8
ASSI
100
AcDbPolyline
 62
250
  6
CONTINUOUS
 90
16
 70
0
 10
-46.4981527963
 20
24.5393208298
 10
-46.5080259743
 20
24.5436543249
 10
-46.5177280592
 20
24.5475743962
 10
-46.527259051
 20
24.5510810439
 10
-46.5366329204
 20
24.5541492246
 10
-46.5458356966
 20
24.5568039815
 10
-46.5548254677
 20
24.5591204447
 10
-46.563598952
 20
24.5611004763
 10
-46.572159431
 20
24.5627422142
 10
-46.580474838
 20
24.5641152018
 10
-46.5885425711
 20
24.5652211377
 10
-46.596365232
 20
24.5660583234
 10
-46.6039185591
 20
24.566691207
 10
-46.6111944649
 20
24.5671412713
 10
-46.6182010368
 20
24.5673870335
 10
-46.6249382748
 20
24.5674284937
  0
LINE
  5
62C
100
AcDbEntity
  8
ASSI
100
AcDbLine
 62
250
  6
CONTINUOUS
 10
-44.1238875488
 20
23.4321827624
 11
-46.4981527963
 21
24.5393208298
  0
LINE
  5
62D
100
AcDbEntity
  8
ASSI
100
AcDbLine
 62
7
  6
CONTINUOUS
 10
-43.6022064426
 20
23.3905383194
 11
-46.4171196252
 21
24.7031538935
  0
LWPOLYLINE
  5
62E
100
AcDbEntity
  8
SMUSSO
100
AcDbPolyline
 62
7
  6
CONTINUOUS
 90
13
 70
0
 10
-35.4546177886
 20
21.5620424988
 10
-35.3216978716
 20
21.4934310274
 10
-35.1921014486
 20
21.4309508068
 10
-35.0658285195
 20
21.374601837
 10
-34.943584853
 20
21.3246852333
 10
-34.8246646804
 20
21.2808998804
 10
-34.7069506959
 20
21.2423424325
 10
-34.5898919717
 20
21.2087182253
 10
-34.4740394355
 20
21.180321923
 10
-34.3589285649
 20
21.1571341728
 10
-34.2444045192
 20
21.1391485237
 10
-34.1306221392
 20
21.1263714267
 10
-34.0175814248
 20
21.1188028817
  0
LINE
  5
62F
100
AcDbEntity
  8
DRAFT
100
AcDbLine
 62
7
  6
CONTINUOUS
 10
-35.8972602673
 20
21.600006503
 11
-35.9420920509
 21
21.6242266878
  0
LINE
  5
630
100
AcDbEntity
  8
ASSI
100
AcDbLine
 62
7
  6
CONTINUOUS
 10
-35.8972602673
 20
21.600006503
 11
-35.9420920509
 21
21.6242266878
  0
LINE
  5
631
100
AcDbEntity
  8
DRAFT
100
AcDbLine
 62
7
  6
CONTINUOUS
 10
-35.9420920509
 20
21.6242266878
 11
-35.9866718756
 21
21.6487020364
  0
LINE
  5
632
100
AcDbEntity
  8
ASSI
100
AcDbLine
 62
7
  6
CONTINUOUS
 10
-35.9420920509
 20
21.6242266878
 11
-35.9866718756
 21
21.6487020364
  0
LINE
  5
633
100
AcDbEntity
  8
DRAFT
100
AcDbLine
 62
7
  6
CONTINUOUS
 10
-35.9866718756
 20
21.6487020364
 11
-36.0309997413
 21
21.6734311391
  0
LINE
  5
634
100
AcDbEntity
  8
ASSI
100
AcDbLine
 62
7
  6
CONTINUOUS
 10
-35.9866718756
 20
21.6487020364
 11
-36.0309997413
 21
21.6734311391
  0
LWPOLYLINE
  5
635
100
AcDbEntity
  8
SMUSSO
100
AcDbPolyline
 62
7
  6
CONTINUOUS
 90
7
 70
0
 10
-35.4893438872
 20
21.5817675492
 10
-35.4835204913
 20
21.5783022637
 10
-35.477710258
 20
21.5749080753
 10
-35.4719140295
 20
21.5715849936
 10
-35.4661326478
 20
21.5683330292
 10
-35.460366954
 20
21.5651521934
 10
-35.4546177886
 20
21.5620424988
  0
LWPOLYLINE
  5
636
100
AcDbEntity
  8
ASSI
100
AcDbPolyline
 62
250
  6
CONTINUOUS
 90
10
 70
0
 10
-35.4575221156
 20
22.2358309453
 10
-35.4507298015
 20
22.2314445766
 10
-35.4453890506
 20
22.2223780245
 10
-35.4416322563
 20
22.2088560421
 10
-35.4395525467
 20
22.1912138295
 10
-35.4392014764
 20
22.1698887241
 10
-35.440587748
 20
22.1454093597
 10
-35.4436769969
 20
22.1183825616
 10
-35.4483926429
 20
22.0894783043
 10
-35.4546177886
 20
22.0594131032
  0
LWPOLYLINE
  5
637
100
AcDbEntity
  8
ASSI
100
AcDbPolyline
 62
250
  6
CONTINUOUS
 90
13
 70
0
 10
-43.5293829453
 20
-23.1639207732
 10
-43.487408253
 20
-23.1496735007
 10
-43.4445666032
 20
-23.1364676605
 10
-43.4008579962
 20
-23.1243032526
 10
-43.356317851
 20
-23.1131315137
 10
-43.3109107485
 20
-23.1030012072
 10
-43.2645304306
 20
-23.0940586229
 10
-43.2171714749
 20
-23.0862862046
 10
-43.1688393039
 20
-23.0797015085
 10
-43.1194439268
 20
-23.0745034935
 10
-43.0689553468
 20
-23.0707584791
 10
-43.0174035608
 20
-23.0684001459
 10
-42.9647885687
 20
-23.0674284937
  0
LINE
  5
638
100
AcDbEntity
  8
ASSI
100
AcDbLine
 62
7
  6
CONTINUOUS
 10
-52.9175814248
 20
10.4419262234
 11
-53.0156056821
 21
10.4367889898
  0
LINE
  5
639
100
AcDbEntity
  8
DRAFT
100
AcDbLine
 62
7
  6
CONTINUOUS
 10
-52.9175814248
 20
10.4419262234
 11
-53.0156056821
 21
10.4367889898
  0
LINE
  5
63A
100
AcDbEntity
  8
ASSI
100
AcDbLine
 62
7
  6
CONTINUOUS
 10
-52.9175814248
 20
14.5139640519
 11
-53.7175814248
 21
14.5
  0
LINE
  5
63B
100
AcDbEntity
  8
RACCORDO
100
AcDbLine
 62
7
  6
CONTINUOUS
 10
-52.9175814248
 20
14.5139640519
 11
-53.7175814248
 21
14.5
  0
LINE
  5
63C
100
AcDbEntity
  8
CURVE
100
AcDbLine
 62
250
  6
CONTINUOUS
 10
-42.5216574248
 20
12.207804
 11
-39.5180864248
 21
12.207804
  0
LINE
  5
63D
100
AcDbEntity
  8
CURVE
100
AcDbLine
 62
250
  6
CONTINUOUS
 10
-37.0895060217
 20
12.2863991495
 11
-37.9466488874
 21
12.2863991495
  0
LINE
  5
63E
100
AcDbEntity
  8
CURVE
100
AcDbLine
 62
250
  6
CONTINUOUS
 10
-39.8005794248
 20
12.56092
 11
-40.9263994248
 21
12.56092
  0
LINE
  5
63F
100
AcDbEntity
  8
CURVE
100
AcDbLine
 62
250
  6
CONTINUOUS
 10
-41.2088934248
 20
12.56092
 11
-42.2391644248
 21
12.56092
  0
LINE
  5
640
100
AcDbEntity
  8
CURVE
100
AcDbLine
 62
250
  6
CONTINUOUS
 10
-26.0175814248
 20
12.5649709459
 11
-27.3175814248
 21
12.5649709459
  0
LINE
  5
641
100
AcDbEntity
  8
CURVE
100
AcDbLine
 62
250
  6
CONTINUOUS
 10
-37.9466488874
 20
13.2863991495
 11
-37.0895060217
 21
13.2863991495
  0
LINE
  5
642
100
AcDbEntity
  8
CURVE
100
AcDbLine
 62
250
  6
CONTINUOUS
 10
-40.9263994248
 20
13.537186
 11
-41.2088934248
 21
13.537186
  0
LINE
  5
643
100
AcDbEntity
  8
CURVE
100
AcDbLine
 62
250
  6
CONTINUOUS
 10
-42.2391644248
 20
13.591191
 11
-42.5216574248
 21
13.591191
  0
LINE
  5
644
100
AcDbEntity
  8
CURVE
100
AcDbLine
 62
250
  6
CONTINUOUS
 10
-39.5180864248
 20
13.620272
 11
-39.8005794248
 21
13.620272
  0
LINE
  5
645
100
AcDbEntity
  8
CURVE
100
AcDbLine
 62
250
  6
CONTINUOUS
 10
-37.5180774248
 20
13.8578279253
 11
-36.8037917233
 21
13.8578279253
  0
LINE
  5
646
100
AcDbEntity
  8
CURVE
100
AcDbLine
 62
250
  6
CONTINUOUS
 10
-27.3175814248
 20
14.4221141573
 11
-26.0175814248
 21
14.4221141573
  0
LINE
  5
647
100
AcDbEntity
  8
CURVE
100
AcDbLine
 62
250
  6
CONTINUOUS
 10
-36.8037917233
 20
14.8578279253
 11
-37.3752202904
 21
14.8578279253
  0
LINE
  5
648
100
AcDbEntity
  8
DRAFT
100
AcDbLine
 62
7
  6
CONTINUOUS
 10
-51.1175814248
 20
14.4546029997
 11
-52.4175814248
 21
14.5
  0
LWPOLYLINE
  5
649
100
AcDbEntity
  8
DRAFT
100
AcDbPolyline
 62
7
  6
CONTINUOUS
 90
20
 70
0
 10
-34.0175814248
 20
20.1454616113
 10
-34.11225951
 20
20.1755012556
 10
-34.2051384966
 20
20.2079917341
 10
-34.2962183847
 20
20.2429210212
 10
-34.3856143627
 20
20.2804261829
 10
-34.4732112421
 20
20.3203423707
 10
-34.5586634579
 20
20.3622057392
 10
-34.641896999
 20
20.4059856231
 10
-34.7229858765
 20
20.4516853201
 10
-34.8018065586
 20
20.4988962087
 10
-34.8783233296
 20
20.5475861732
 10
-34.9525719051
 20
20.5977617584
 10
-35.0245359003
 20
20.6490769856
 10
-35.0940489905
 20
20.7013507912
 10
-35.1612775004
 20
20.7547422885
 10
-35.2267040184
 20
20.8094164476
 10
-35.2903690739
 20
20.8652916434
 10
-35.3522321376
 20
20.9224218332
 10
-35.4126542098
 20
20.9811696588
 10
-35.4338113763
 20
21.0024488241
  0
LWPOLYLINE
  5
64A
100
AcDbEntity
  8
ASSI
100
AcDbPolyline
 62
7
  6
CONTINUOUS
 90
20
 70
0
 10
-34.0175814248
 20
20.1454616113
 10
-34.11225951
 20
20.1755012556
 10
-34.2051384966
 20
20.2079917341
 10
-34.2962183847
 20
20.2429210212
 10
-34.3856143627
 20
20.2804261829
 10
-34.4732112421
 20
20.3203423707
 10
-34.5586634579
 20
20.3622057392
 10
-34.641896999
 20
20.4059856231
 10
-34.7229858765
 20
20.4516853201
 10
-34.8018065586
 20
20.4988962087
 10
-34.8783233296
 20
20.5475861732
 10
-34.9525719051
 20
20.5977617584
 10
-35.0245359003
 20
20.6490769856
 10
-35.0940489905
 20
20.7013507912
 10
-35.1612775004
 20
20.7547422885
 10
-35.2267040184
 20
20.8094164476
 10
-35.2903690739
 20
20.8652916434
 10
-35.3522321376
 20
20.9224218332
 10
-35.4126542098
 20
20.9811696588
 10
-35.4338113763
 20
21.0024488241
  0
LINE
  5
64B
100
AcDbEntity
  8
DRAFT
100
AcDbLine
 62
7
  6
CONTINUOUS
 10
-52.4175814248
 20
14.5
 11
-52.9175814248
 21
14.4825396153
  0
LINE
  5
64C
100
AcDbEntity
  8
DRAFT
100
AcDbLine
 62
7
  6
CONTINUOUS
 10
-52.4175814248
 20
16.4921193302
 11
-52.9175814248
 21
16.4858717531
  0
LINE
  5
64D
100
AcDbEntity
  8
CURVE
100
AcDbLine
 62
250
  6
CONTINUOUS
 10
-26.7604386008
 20
15.6292561288
 11
-26.0175814248
 21
15.6292561288
  0
LINE
  5
64E
100
AcDbEntity
  8
CURVE
100
AcDbLine
 62
250
  6
CONTINUOUS
 10
-38.5180774248
 20
16.000685
 11
-36.5180774248
 21
16.000685
  0
LINE
  5
64F
100
AcDbEntity
  8
0
100
AcDbLine
 62
7
  6
CONTINUOUS
 10
-25.4593024123
 20
16.0561832698
 11
-25.1638273047
 21
16.0561832698
  0
LINE
  5
650
100
AcDbEntity
  8
ASSI
100
AcDbLine
 62
7
  6
CONTINUOUS
 10
-25.4593024123
 20
16.0561832698
 11
-25.1638273047
 21
16.0561832698
  0
LINE
  5
651
100
AcDbEntity
  8
0
100
AcDbLine
 62
250
  6
CONTINUOUS
 10
-25.880799186
 20
16.4437694227
 11
-25.5853240794
 21
16.4437694227
  0
LINE
  5
652
100
AcDbEntity
  8
ASSI
100
AcDbLine
 62
250
  6
CONTINUOUS
 10
-25.880799186
 20
16.4437694227
 11
-25.5853240794
 21
16.4437694227
  0
LINE
  5
653
100
AcDbEntity
  8
0
100
AcDbLine
 62
250
  6
CONTINUOUS
 10
-26.397874585
 20
16.919244625
 11
-26.1023994774
 21
16.919244625
  0
LINE
  5
654
100
AcDbEntity
  8
ASSI
100
AcDbLine
 62
250
  6
CONTINUOUS
 10
-26.397874585
 20
16.919244625
 11
-26.1023994774
 21
16.919244625
  0
LINE
  5
655
100
AcDbEntity
  8
0
100
AcDbLine
 62
7
  6
CONTINUOUS
 10
-27.1633439762
 20
17.6231298128
 11
-26.8678688686
 21
17.6231298128
  0
LINE
  5
656
100
AcDbEntity
  8
ASSI
100
AcDbLine
 62
7
  6
CONTINUOUS
 10
-27.1633439762
 20
17.6231298128
 11
-26.8678688686
 21
17.6231298128
  0
LINE
  5
657
100
AcDbEntity
  8
0
100
AcDbLine
 62
7
  6
CONTINUOUS
 10
-27.3288131754
 20
17.7752865414
 11
-27.0333380678
 21
17.7752865414
  0
LINE
  5
658
100
AcDbEntity
  8
ASSI
100
AcDbLine
 62
7
  6
CONTINUOUS
 10
-27.3288131754
 20
17.7752865414
 11
-27.0333380678
 21
17.7752865414
  0
LINE
  5
659
100
AcDbEntity
  8
DRAFT
100
AcDbLine
 62
7
  6
CONTINUOUS
 10
-27.010738519
 20
17.4828019014
 11
-44.0175814248
 21
17.586074036
  0
LINE
  5
65A
100
AcDbEntity
  8
ASSI
100
AcDbLine
 62
7
  6
CONTINUOUS
 10
-27.010738519
 20
17.4828019014
 11
-44.0175814248
 21
17.586074036
  0
LINE
  5
65B
100
AcDbEntity
  8
DRAFT
100
AcDbLine
 62
7
  6
CONTINUOUS
 10
-44.0175814248
 20
17.6409509148
 11
-51.1175814248
 21
17.6841030307
  0
LINE
  5
65C
100
AcDbEntity
  8
DRAFT
100
AcDbLine
 62
7
  6
CONTINUOUS
 10
-51.1175814248
 20
16.4758705414
 11
-52.4175814248
 21
16.4921193302
  0
LINE
  5
65D
100
AcDbEntity
  8
RACCORDO
100
AcDbLine
 62
7
  6
CONTINUOUS
 10
-51.1175814248
 20
17.5220633844
 11
-51.4350311731
 21
17.5331489739
  0
LINE
  5
65E
100
AcDbEntity
  8
ASSI
100
AcDbLine
 62
250
  6
CONTINUOUS
 10
-44.0661089133
 20
23.419939848
 11
-44.1238875488
 21
23.4321827624
  0
LINE
  5
65F
100
AcDbEntity
  8
ASSI
100
AcDbLine
 62
250
  6
CONTINUOUS
 10
-44.0303814703
 20
23.4121851304
 11
-44.0661089133
 21
23.419939848
  0
LINE
  5
660
100
AcDbEntity
  8
ASSI
100
AcDbLine
 62
250
  6
CONTINUOUS
 10
-39.2271426093
 20
23.0572062416
 11
-35.5825619254
 21
22.0806437906
  0
LINE
  5
661
100
AcDbEntity
  8
ASSI
100
AcDbLine
 62
250
  6
CONTINUOUS
 10
-35.4546177886
 20
22.0594131032
 11
-34.0175814248
 21
21.67436037
  0
LINE
  5
662
100
AcDbEntity
  8
ASSI
100
AcDbLine
 62
7
  6
CONTINUOUS
 10
-39.1788692816
 20
23.2329629131
 11
-34.0175814248
 21
21.85
  0
LINE
  5
663
100
AcDbEntity
  8
CURVE
100
AcDbLine
 62
250
  6
CONTINUOUS
 10
-40.2783444248
 20
15.423235
 11
-39.5180774248
 21
15.635077
  0
LINE
  5
664
100
AcDbEntity
  8
CURVE
100
AcDbLine
 62
250
  6
CONTINUOUS
 10
-42.1934584248
 20
14.903945
 11
-40.5608404248
 21
15.340149
  0
LINE
  5
665
100
AcDbEntity
  8
ASSI
100
AcDbLine
 62
7
  6
CONTINUOUS
 10
-34.7220560138
 20
20.4511612723
 11
-34.0175814248
 21
20.463457922
  0
LINE
  5
666
100
AcDbEntity
  8
DRAFT
100
AcDbLine
 62
7
  6
CONTINUOUS
 10
-40.4175814248
 20
20.964866187
 11
-44.0175814248
 21
20.9669711218
  0
LINE
  5
667
100
AcDbEntity
  8
ASSI
100
AcDbLine
 62
7
  6
CONTINUOUS
 10
-40.4175814248
 20
20.964866187
 11
-44.0175814248
 21
20.9669711218
  0
LINE
  5
668
100
AcDbEntity
  8
ASSI
100
AcDbLine
 62
7
  6
CONTINUOUS
 10
-48.5140909435
 20
21.1775495891
 11
-51.1175814248
 21
21.197818284
  0
LINE
  5
669
100
AcDbEntity
  8
DRAFT
100
AcDbLine
 62
7
  6
CONTINUOUS
 10
-29.0004391876
 20
19.3124254565
 11
-34.0175814248
 21
19.4
  0
LINE
  5
66A
100
AcDbEntity
  8
ASSI
100
AcDbLine
 62
7
  6
CONTINUOUS
 10
-29.0004391876
 20
19.3124254565
 11
-34.0175814248
 21
19.4
  0
LINE
  5
66B
100
AcDbEntity
  8
ASSI
100
AcDbLine
 62
250
  6
CONTINUOUS
 10
-42.9297971789
 20
21.3665693604
 11
-40.5175814248
 21
21.3239241571
  0
LINE
  5
66C
100
AcDbEntity
  8
SMUSSO
100
AcDbLine
 62
7
  6
CONTINUOUS
 10
-35.3745352802
 20
20.9880866731
 11
-34.0175814248
 21
20.9592234912
  0
LINE
  5
66D
100
AcDbEntity
  8
DRAFT
100
AcDbLine
 62
7
  6
CONTINUOUS
 10
-52.4175814248
 20
20.55
 11
-51.9175814248
 21
20.5325396153
  0
LINE
  5
66E
100
AcDbEntity
  8
ASSI
100
AcDbLine
 62
7
  6
CONTINUOUS
 10
-48.3175814248
 20
21.9
 11
-42.9175814248
 21
21.7114278447
  0
LINE
  5
66F
100
AcDbEntity
  8
ASSI
100
AcDbLine
 62
250
  6
CONTINUOUS
 10
-48.3175814248
 20
21.5607839082
 11
-42.9297971789
 21
21.3665693604
  0
LINE
  5
670
100
AcDbEntity
  8
ASSI
100
AcDbLine
 62
250
  6
CONTINUOUS
 10
-41.1475068609
 20
23.0606621582
 11
-41.1377489088
 21
23.0597304491
  0
LINE
  5
671
100
AcDbEntity
  8
ASSI
100
AcDbLine
 62
250
  6
CONTINUOUS
 10
-41.1377489088
 20
23.0597304491
 11
-41.1281197731
 21
23.0587406889
  0
LWPOLYLINE
  5
672
100
AcDbEntity
  8
ASSI
100
AcDbPolyline
 62
250
  6
CONTINUOUS
 90
13
 70
0
 10
-41.1281197731
 20
23.0587406889
 10
-41.1184970813
 20
23.0576724648
 10
-41.1136976234
 20
23.057106324
 10
-41.1088897169
 20
23.0565142295
 10
-41.1040809865
 20
23.0558945371
 10
-41.0993041343
 20
23.0552488825
 10
-41.0945793792
 20
23.0545773912
 10
-41.0899365588
 20
23.0538821736
 10
-41.0853923689
 20
23.0531618509
 10
-41.0809528162
 20
23.0524114286
 10
-41.0766425536
 20
23.0516298095
 10
-41.0725012359
 20
23.0508199991
 10
-41.0685637451
 20
23.0499834444
  0
LINE
  5
673
100
AcDbEntity
  8
ASSI
100
AcDbLine
 62
250
  6
CONTINUOUS
 10
-35.5825619254
 20
22.0806437906
 11
-35.5214939163
 21
22.0706579045
  0
LWPOLYLINE
  5
674
100
AcDbEntity
  8
ASSI
100
AcDbPolyline
 62
250
  6
CONTINUOUS
 90
3
 70
0
 10
-35.5214939163
 20
22.0706579045
 10
-35.4663762868
 20
22.0614192596
 10
-35.4546177886
 20
22.0594131032
  0
LWPOLYLINE
  5
675
100
AcDbEntity
  8
ASSI
100
AcDbPolyline
 62
250
  6
CONTINUOUS
 90
10
 70
0
 10
-40.15931225
 20
23.0500000001
 10
-40.1477310149
 20
23.0475707943
 10
-40.1333807119
 20
23.0451816674
 10
-40.1164958578
 20
23.042871132
 10
-40.0973538357
 20
23.0406766185
 10
-40.0762635733
 20
23.0386330787
 10
-40.0535583112
 20
23.036772623
 10
-40.0296008521
 20
23.035125038
 10
-40.004779801
 20
23.033717104
 10
-39.9794950633
 20
23.032571507
  0
LINE
  5
676
100
AcDbEntity
  8
ASSI
100
AcDbLine
 62
250
  6
CONTINUOUS
 10
-39.9909286568
 20
23.0668935435
 11
-39.978162764
 21
23.0674285374
  0
LINE
  5
677
100
AcDbEntity
  8
DRAFT
100
AcDbLine
 62
7
  6
CONTINUOUS
 10
-52.9175814248
 20
20.5325396153
 11
-52.4175814248
 21
20.55
  0
LWPOLYLINE
  5
678
100
AcDbEntity
  8
ASSI
100
AcDbPolyline
 62
250
  6
CONTINUOUS
 90
46
 70
0
 10
-44.2105068976
 20
23.2492740425
 10
-44.2252705373
 20
23.2490202182
 10
-44.2400285005
 20
23.2486811448
 10
-44.2547906793
 20
23.2482281103
 10
-44.2695430277
 20
23.2476401298
 10
-44.2843465767
 20
23.2468838777
 10
-44.2993452922
 20
23.2458921715
 10
-44.31472899
 20
23.2446006352
 10
-44.3303584899
 20
23.2429638195
 10
-44.3459002013
 20
23.2409241735
 10
-44.3614819257
 20
23.2383676141
 10
-44.3769943458
 20
23.2352631376
 10
-44.3917379018
 20
23.231728465
 10
-44.4055049039
 20
23.2277658247
 10
-44.4184729159
 20
23.2233451317
 10
-44.4305115361
 20
23.2186327647
 10
-44.4414827796
 20
23.2137180737
 10
-44.4515024554
 20
23.2085721541
 10
-44.4608211116
 20
23.2032243434
 10
-44.4694724675
 20
23.1976967897
 10
-44.4774094577
 20
23.1920160992
 10
-44.484760847
 20
23.1862195048
 10
-44.491544372
 20
23.1803291036
 10
-44.4977418053
 20
23.1743692001
 10
-44.503431701
 20
23.1683822568
 10
-44.5086209119
 20
23.1624005037
 10
-44.5133149698
 20
23.1564347657
 10
-44.5175928398
 20
23.150494527
 10
-44.5214665654
 20
23.1446025914
 10
-44.5249406546
 20
23.1387694335
 10
-44.5280809492
 20
23.1329821507
 10
-44.5308992333
 20
23.1272561245
 10
-44.5333993367
 20
23.1215998554
 10
-44.5356309222
 20
23.1159860075
 10
-44.5376031104
 20
23.1104259406
 10
-44.5393187575
 20
23.1049249097
 10
-44.54081238
 20
23.0994429555
 10
-44.5420911807
 20
23.0939813329
 10
-44.54315408
 20
23.0885502342
 10
-44.5440177092
 20
23.0831208544
 10
-44.5446847315
 20
23.0777142693
 10
-44.5451557975
 20
23.0723186032
 10
-44.5454364648
 20
23.0668539746
 10
-44.5455230751
 20
23.0612959579
 10
-44.545409325
 20
23.0556765476
 10
-44.5450910379
 20
23.05
  0
LINE
  5
679
100
AcDbEntity
  8
ASSI
100
AcDbLine
 62
250
  6
CONTINUOUS
 10
-44.1712180058
 20
23.4319442452
 11
-44.2028493618
 21
23.4315100551
  0
LINE
  5
67A
100
AcDbEntity
  8
ASSI
100
AcDbLine
 62
250
  6
CONTINUOUS
 10
-44.180914513
 20
23.249593434
 11
-44.2105068976
 21
23.2492740425
  0
LINE
  5
67B
100
AcDbEntity
  8
ASSI
100
AcDbLine
 62
250
  6
CONTINUOUS
 10
-44.135702862
 20
23.2497871296
 11
-44.180914513
 21
23.249593434
  0
LWPOLYLINE
  5
67C
100
AcDbEntity
  8
ASSI
100
AcDbPolyline
 62
250
  6
CONTINUOUS
 90
3
 70
0
 10
-44.1238875488
 20
23.4321827624
 10
-44.1396155603
 20
23.4321683824
 10
-44.1712180058
 20
23.4319442452
  0
LINE
  5
67D
100
AcDbEntity
  8
ASSI
100
AcDbLine
 62
250
  6
CONTINUOUS
 10
-48.5140909435
 20
22.7551793284
 11
-48.3175814248
 21
22.7551793284
  0
LINE
  5
67E
100
AcDbEntity
  8
ASSI
100
AcDbLine
 62
250
  6
CONTINUOUS
 10
-41.0685636847
 20
23.05
 11
-40.15931225
 21
23.05
  0
LINE
  5
67F
100
AcDbEntity
  8
ASSI
100
AcDbLine
 62
250
  6
CONTINUOUS
 10
-43.6812503074
 20
23.05
 11
-44.5450910415
 21
23.05
  0
LINE
  5
680
100
AcDbEntity
  8
ASSI
100
AcDbLine
 62
250
  6
CONTINUOUS
 10
-39.9781627652
 20
23.0674284937
 11
-39.3047883229
 21
23.0674284937
  0
LINE
  5
681
100
AcDbEntity
  8
ASSI
100
AcDbLine
 62
250
  6
CONTINUOUS
 10
-41.2538861646
 20
23.0674284937
 11
-42.9647885687
 21
23.0674284937
  0
LINE
  5
682
100
AcDbEntity
  8
ASSI
100
AcDbLine
 62
7
  6
CONTINUOUS
 10
-39.3082788042
 20
23.25
 11
-42.96827905
 21
23.25
  0
LINE
  5
683
100
AcDbEntity
  8
ASSI
100
AcDbLine
 62
250
  6
CONTINUOUS
 10
-47.8140909435
 20
23.2900415076
 11
-47.6175814248
 21
23.2900415076
  0
LINE
  5
684
100
AcDbEntity
  8
ASSI
100
AcDbLine
 62
250
  6
CONTINUOUS
 10
-47.8140909435
 20
23.7423678201
 11
-47.6175814248
 21
23.7423678201
  0
LINE
  5
685
100
AcDbEntity
  8
DRAFT
100
AcDbLine
 62
7
  6
CONTINUOUS
 10
-40.5175814248
 20
21.0175732534
 11
-44.0175814248
 21
21.0197859424
  0
LINE
  5
686
100
AcDbEntity
  8
ASSI
100
AcDbLine
 62
250
  6
CONTINUOUS
 10
-44.0589748331
 20
23.249713875
 11
-44.135702862
 21
23.2497871296
  0
LWPOLYLINE
  5
687
100
AcDbEntity
  8
ASSI
100
AcDbPolyline
 62
250
  6
CONTINUOUS
 90
13
 70
0
 10
-39.3047883229
 20
23.0674284937
 10
-39.2986920684
 20
23.0673708202
 10
-39.2925609783
 20
23.0671826919
 10
-39.2863950523
 20
23.0668641088
 10
-39.2802159624
 20
23.0664222006
 10
-39.2740020367
 20
23.0658498375
 10
-39.2676882598
 20
23.0651256306
 10
-39.2612691111
 20
23.064255141
 10
-39.2547501113
 20
23.0632328076
 10
-39.2480828065
 20
23.0620205581
 10
-39.2412510457
 20
23.0606057019
 10
-39.2342709799
 20
23.0590009298
 10
-39.2271426093
 20
23.0572062416
  0
LWPOLYLINE
  5
688
100
AcDbEntity
  8
ASSI
100
AcDbPolyline
 62
250
  6
CONTINUOUS
 90
13
 70
0
 10
-42.9647885687
 20
23.0674284937
 10
-43.0146755696
 20
23.0682426087
 10
-43.0639670349
 20
23.070396495
 10
-43.1126629647
 20
23.0738901526
 10
-43.1607170185
 20
23.0787456717
 10
-43.2081755368
 20
23.0849409621
 10
-43.2551775406
 20
23.0924097532
 10
-43.3017137334
 20
23.1011266492
 10
-43.3477934116
 20
23.1111170458
 10
-43.3935834858
 20
23.1223908606
 10
-43.4391395928
 20
23.1349513993
 10
-43.4844060957
 20
23.1487953561
 10
-43.5293829945
 20
23.1639227309
  0
LINE
  5
689
100
AcDbEntity
  8
ASSI
100
AcDbLine
 62
7
  6
CONTINUOUS
 10
-42.9175814248
 20
21.7114278447
 11
-40.5175814248
 21
21.6695356889
  0
LINE
  5
68A
100
AcDbEntity
  8
SMUSSO
100
AcDbLine
 62
7
  6
CONTINUOUS
 10
-40.5175814248
 20
21.6695356889
 11
-40.4175814248
 21
21.6677901824
  0
LINE
  5
68B
100
AcDbEntity
  8
SMUSSO
100
AcDbLine
 62
7
  6
CONTINUOUS
 10
-35.8871483095
 20
21.5887111782
 11
-35.4893429207
 21
21.5817674594
  0
LINE
  5
68C
100
AcDbEntity
  8
DRAFT
100
AcDbLine
 62
7
  6
CONTINUOUS
 10
-36.0310014332
 20
21.6734319614
 11
-40.4175814248
 21
21.75
  0
LINE
  5
68D
100
AcDbEntity
  8
ASSI
100
AcDbLine
 62
7
  6
CONTINUOUS
 10
-36.0310014332
 20
21.6734319614
 11
-40.4175814248
 21
21.75
  0
LINE
  5
68E
100
AcDbEntity
  8
ASSI
100
AcDbLine
 62
250
  6
CONTINUOUS
 10
-47.8140909435
 20
23.7423678201
 11
-51.1175814248
 21
23.800030461
  0
LINE
  5
68F
100
AcDbEntity
  8
ASSI
100
AcDbLine
 62
7
  6
CONTINUOUS
 10
-47.8140909435
 20
23.9423373592
 11
-51.1175814248
 21
24.0
  0
LINE
  5
690
100
AcDbEntity
  8
ASSI
100
AcDbLine
 62
250
  6
CONTINUOUS
 10
-41.2538861644
 20
23.0674284774
 11
-41.2411036124
 21
23.0668934524
  0
LINE
  5
691
100
AcDbEntity
  8
ASSI
100
AcDbLine
 62
250
  6
CONTINUOUS
 10
-41.2411036124
 20
23.0668934524
 11
-41.2287478394
 21
23.0663092876
  0
LINE
  5
692
100
AcDbEntity
  8
ASSI
100
AcDbLine
 62
250
  6
CONTINUOUS
 10
-41.2287478394
 20
23.0663092876
 11
-41.2168390618
 21
23.065682979
  0
LWPOLYLINE
  5
693
100
AcDbEntity
  8
ASSI
100
AcDbPolyline
 62
250
  6
CONTINUOUS
 90
10
 70
0
 10
-43.5102083436
 20
23.0325715062
 10
-43.5333304707
 20
23.0338600841
 10
-43.5560939886
 20
23.0353661427
 10
-43.5781921592
 20
23.0370693883
 10
-43.5993272099
 20
23.0389468713
 10
-43.6192143474
 20
23.0409732922
 10
-43.6375855948
 20
23.0431213436
 10
-43.6541934012
 20
23.0453620808
 10
-43.6688139769
 20
23.0476653115
 10
-43.6812503111
 20
23.05
  0
LINE
  5
694
100
AcDbEntity
  8
ASSI
100
AcDbLine
 62
250
  6
CONTINUOUS
 10
-41.2168390618
 20
23.065682979
 11
-41.2053264761
 21
23.0650167053
  0
LINE
  5
695
100
AcDbEntity
  8
ASSI
100
AcDbLine
 62
250
  6
CONTINUOUS
 10
-41.2053264761
 20
23.0650167053
 11
-41.194165926
 21
23.0643119869
  0
LINE
  5
696
100
AcDbEntity
  8
ASSI
100
AcDbLine
 62
250
  6
CONTINUOUS
 10
-41.194165926
 20
23.0643119869
 11
-41.1833375667
 21
23.0635704065
  0
LINE
  5
697
100
AcDbEntity
  8
ASSI
100
AcDbLine
 62
250
  6
CONTINUOUS
 10
-41.1833375667
 20
23.0635704065
 11
-41.17279748
 21
23.0627907225
  0
LINE
  5
698
100
AcDbEntity
  8
ASSI
100
AcDbLine
 62
250
  6
CONTINUOUS
 10
-41.17279748
 20
23.0627907225
 11
-41.1625068078
 21
23.0619708194
  0
LWPOLYLINE
  5
699
100
AcDbEntity
  8
ASSI
100
AcDbPolyline
 62
250
  6
CONTINUOUS
 90
3
 70
0
 10
-41.1625068078
 20
23.0619708194
 10
-41.1524527841
 20
23.0611094155
 10
-41.1475068609
 20
23.0606621582
  0
LINE
  5
69A
100
AcDbEntity
  8
ASSI
100
AcDbLine
 62
250
  6
CONTINUOUS
 10
-54.4175814248
 20
25.7992351743
 11
-53.1123460351
 21
25.6850418745
  0
LINE
  5
69B
100
AcDbEntity
  8
RACCORDO
100
AcDbLine
 62
250
  6
CONTINUOUS
 10
-54.4175814248
 20
25.7992351743
 11
-53.1123460351
 21
25.6850418745
  0
LINE
  5
69C
100
AcDbEntity
  8
ASSI
100
AcDbLine
 62
7
  6
CONTINUOUS
 10
-54.4175814248
 20
26.3
 11
-53.1001502762
 21
26.1847397095
  0
LINE
  5
69D
100
AcDbEntity
  8
RACCORDO
100
AcDbLine
 62
7
  6
CONTINUOUS
 10
-54.4175814248
 20
26.3
 11
-53.1001502762
 21
26.1847397095
  0
LWPOLYLINE
  5
69E
100
AcDbEntity
  8
0
100
AcDbPolyline
 62
7
  6
CONTINUOUS
 90
13
 70
0
 43
0.3500000006
 10
-29.0675811539
 20
36.7778727722
 10
-29.3532968216
 20
36.9921572571
 10
-29.3532968216
 20
37.6350152435
 10
-29.0675811539
 20
38.0635842133
 10
-28.4247231674
 20
38.0635842133
 10
-28.1390097656
 20
37.6350152435
 10
-28.1390097656
 20
36.9921572571
 10
-28.4247231674
 20
36.7778727722
 10
-27.9961519318
 20
36.3492992706
 10
-27.9961519318
 20
35.4921567993
 10
-28.4247231674
 20
35.0635878296
 10
-29.0675811539
 20
35.0635878296
 10
-29.4961523895
 20
35.4921567993
  0
LINE
  5
69F
100
AcDbEntity
  8
ASSI
100
AcDbLine
 62
250
  6
CONTINUOUS
 10
-40.1070716417
 20
23.0582145346
 11
-40.097719455
 21
23.059241667
  0
LINE
  5
6A0
100
AcDbEntity
  8
ASSI
100
AcDbLine
 62
250
  6
CONTINUOUS
 10
-40.097719455
 20
23.059241667
 11
-40.0882389392
 21
23.0602042841
  0
LINE
  5
6A1
100
AcDbEntity
  8
ASSI
100
AcDbLine
 62
250
  6
CONTINUOUS
 10
-40.0882389392
 20
23.0602042841
 11
-40.078600428
 21
23.0611114183
  0
LINE
  5
6A2
100
AcDbEntity
  8
ASSI
100
AcDbLine
 62
250
  6
CONTINUOUS
 10
-40.078600428
 20
23.0611114183
 11
-40.068729745
 21
23.0619734319
  0
LINE
  5
6A3
100
AcDbEntity
  8
ASSI
100
AcDbLine
 62
250
  6
CONTINUOUS
 10
-40.068729745
 20
23.0619734319
 11
-40.0586073551
 21
23.0627934122
  0
LINE
  5
6A4
100
AcDbEntity
  8
ASSI
100
AcDbLine
 62
250
  6
CONTINUOUS
 10
-40.0586073551
 20
23.0627934122
 11
-40.0482202216
 21
23.0635727867
  0
LINE
  5
6A5
100
AcDbEntity
  8
ASSI
100
AcDbLine
 62
250
  6
CONTINUOUS
 10
-40.0482202216
 20
23.0635727867
 11
-40.0375283483
 21
23.0643138468
  0
LINE
  5
6A6
100
AcDbEntity
  8
ASSI
100
AcDbLine
 62
250
  6
CONTINUOUS
 10
-40.0375283483
 20
23.0643138468
 11
-40.0264860543
 21
23.0650179807
  0
LINE
  5
6A7
100
AcDbEntity
  8
ASSI
100
AcDbLine
 62
250
  6
CONTINUOUS
 10
-40.0264860543
 20
23.0650179807
 11
-40.015071401
 21
23.0656837022
  0
LWPOLYLINE
  5
6A8
100
AcDbEntity
  8
ASSI
100
AcDbPolyline
 62
250
  6
CONTINUOUS
 90
10
 70
0
 10
-44.7195853676
 20
23.0325715065
 10
-44.6964198166
 20
23.0338600687
 10
-44.6735193856
 20
23.0353661161
 10
-44.6511926576
 20
23.0370693549
 10
-44.6297404848
 20
23.0389468339
 10
-44.609451935
 20
23.0409732541
 10
-44.5906003963
 20
23.0431213097
 10
-44.5734398931
 20
23.0453620556
 10
-44.5582016631
 20
23.0476652977
 10
-44.5450910415
 20
23.05
  0
LINE
  5
6A9
100
AcDbEntity
  8
ASSI
100
AcDbLine
 62
250
  6
CONTINUOUS
 10
-40.015071401
 20
23.0656837022
 11
-40.003237168
 21
23.0663095972
  0
LINE
  5
6AA
100
AcDbEntity
  8
ASSI
100
AcDbLine
 62
250
  6
CONTINUOUS
 10
-40.003237168
 20
23.0663095972
 11
-39.9909286568
 21
23.0668935435
  0
LWPOLYLINE
  5
6AB
100
AcDbEntity
  8
ASSI
100
AcDbPolyline
 62
250
  6
CONTINUOUS
 90
10
 70
0
 10
-41.2524466182
 20
23.0325715222
 10
-41.2271095892
 20
23.0337170543
 10
-41.2021245329
 20
23.0351249164
 10
-41.177893977
 20
23.0367724269
 10
-41.1548082933
 20
23.0386330432
 10
-41.133239409
 20
23.0406767894
 10
-41.1135348145
 20
23.0428707392
 10
-41.0960119652
 20
23.0451795465
 10
-41.0809531668
 20
23.0475660148
 10
-41.0686010275
 20
23.0499916962
  0
LINE
  5
6AC
100
AcDbEntity
  8
ASSI
100
AcDbLine
 62
250
  6
CONTINUOUS
 10
-54.4306698989
 20
25.8134150626
 11
-54.4175814248
 21
25.8137577963
  0
LINE
  5
6AD
100
AcDbEntity
  8
RACCORDO
100
AcDbLine
 62
250
  6
CONTINUOUS
 10
-54.4306698989
 20
25.8134150626
 11
-54.4175814248
 21
25.8137577963
  0
LWPOLYLINE
  5
6AE
100
AcDbEntity
  8
ASSI
100
AcDbPolyline
 62
250
  6
CONTINUOUS
 90
47
 70
0
 10
-44.2028493618
 20
23.4315100551
 10
-44.2189877311
 20
23.4311195967
 10
-44.2354411489
 20
23.4306117351
 10
-44.2521928543
 20
23.4299630731
 10
-44.2694420445
 20
23.4290277433
 10
-44.2871280695
 20
23.4278565261
 10
-44.3053115794
 20
23.4263986413
 10
-44.3243737215
 20
23.4243558803
 10
-44.3445538137
 20
23.4217470468
 10
-44.3656125381
 20
23.4185533372
 10
-44.3872130889
 20
23.4144201322
 10
-44.409648729
 20
23.4092049696
 10
-44.4326261955
 20
23.4030503117
 10
-44.4549288946
 20
23.3960289255
 10
-44.4763319032
 20
23.3880474583
 10
-44.4970601443
 20
23.3791992628
 10
-44.5165717931
 20
23.3698371654
 10
-44.5346239414
 20
23.3600257289
 10
-44.5514594973
 20
23.3497003903
 10
-44.5672653603
 20
23.3390202872
 10
-44.5820691903
 20
23.3279818684
 10
-44.5958433273
 20
23.316588685
 10
-44.6086916905
 20
23.3050105281
 10
-44.6206194533
 20
23.2932460751
 10
-44.6316214422
 20
23.2812966485
 10
-44.6417860557
 20
23.2693360067
 10
-44.651098573
 20
23.257390527
 10
-44.6595737149
 20
23.2454338321
 10
-44.6673440427
 20
23.2335605496
 10
-44.6744106174
 20
23.2217917868
 10
-44.6807723779
 20
23.2101064363
 10
-44.6865587023
 20
23.1985358038
 10
-44.6917774747
 20
23.1870950011
 10
-44.6964208111
 20
23.1757689162
 10
-44.7005944373
 20
23.1645435186
 10
-44.7043084853
 20
23.153431327
 10
-44.7075528232
 20
23.1424198226
 10
-44.7104027817
 20
23.1314574179
 10
-44.7128711769
 20
23.1205391931
 10
-44.7149451927
 20
23.1096700681
 10
-44.7166617113
 20
23.098813215
 10
-44.7180308703
 20
23.0880039375
 10
-44.719042532
 20
23.077206932
 10
-44.7197031657
 20
23.0662794599
 10
-44.7200149278
 20
23.0551739419
 10
-44.7199756617
 20
23.0439379573
 10
-44.7195853677
 20
23.0325715063
  0
LINE
  5
6AF
100
AcDbEntity
  8
ASSI
100
AcDbLine
 62
250
  6
CONTINUOUS
 10
-50.4675563411
 20
24.3674284937
 11
-51.1175814248
 21
24.3674284937
  0
LINE
  5
6B0
100
AcDbEntity
  8
ASSI
100
AcDbLine
 62
7
  6
CONTINUOUS
 10
-50.4710468224
 20
24.55
 11
-51.1175814248
 21
24.55
  0
LINE
  5
6B1
100
AcDbEntity
  8
ASSI
100
AcDbLine
 62
250
  6
CONTINUOUS
 10
-46.6249382748
 20
24.5674284937
 11
-46.8212706204
 21
24.5674284937
  0
LINE
  5
6B2
100
AcDbEntity
  8
ASSI
100
AcDbLine
 62
7
  6
CONTINUOUS
 10
-46.6284287561
 20
24.75
 11
-46.8247611017
 21
24.75
  0
LINE
  5
6B3
100
AcDbEntity
  8
ASSI
100
AcDbLine
 62
250
  6
CONTINUOUS
 10
-53.1123460351
 20
25.6850418745
 11
-52.9175814248
 21
25.6850418745
  0
LINE
  5
6B4
100
AcDbEntity
  8
RACCORDO
100
AcDbLine
 62
250
  6
CONTINUOUS
 10
-53.1123460351
 20
25.6850418745
 11
-52.9175814248
 21
25.6850418745
  0
LINE
  5
6B5
100
AcDbEntity
  8
ASSI
100
AcDbLine
 62
250
  6
CONTINUOUS
 10
-54.9175814248
 20
25.8134150626
 11
-54.4306698989
 21
25.8134150626
  0
LINE
  5
6B6
100
AcDbEntity
  8
RACCORDO
100
AcDbLine
 62
250
  6
CONTINUOUS
 10
-54.9175814248
 20
25.8134150626
 11
-54.4306698989
 21
25.8134150626
  0
LWPOLYLINE
  5
6B7
100
AcDbEntity
  8
ASSI
100
AcDbPolyline
 62
250
  6
CONTINUOUS
 90
13
 70
0
 10
-40.1593122072
 20
23.0499844614
 10
-40.1556640928
 20
23.0508175084
 10
-40.1517953448
 20
23.0516250733
 10
-40.1477393872
 20
23.0524057391
 10
-40.1435307077
 20
23.0531571673
 10
-40.1391965197
 20
23.0538797592
 10
-40.1347550175
 20
23.0545765147
 10
-40.1302302185
 20
23.0552478946
 10
-40.1256470251
 20
23.0558927386
 10
-40.1210204332
 20
23.0565117579
 10
-40.1163814026
 20
23.0571035076
 10
-40.1117395939
 20
23.0576694356
 10
-40.1070716417
 20
23.0582145346
  0
LINE
  5
6B8
100
AcDbEntity
  8
ASSI
100
AcDbLine
 62
7
  6
CONTINUOUS
 10
-54.4306698989
 20
26.3132437251
 11
-54.4175814248
 21
26.3135864588
  0
LINE
  5
6B9
100
AcDbEntity
  8
RACCORDO
100
AcDbLine
 62
7
  6
CONTINUOUS
 10
-54.4306698989
 20
26.3132437251
 11
-54.4175814248
 21
26.3135864588
  0
LWPOLYLINE
  5
6BA
100
AcDbEntity
  8
ASSI
100
AcDbPolyline
 62
250
  6
CONTINUOUS
 90
13
 70
0
 10
-50.4675563411
 20
24.3674284937
 10
-50.4429107679
 20
24.3738141089
 10
-50.4187318084
 20
24.3798082911
 10
-50.3954147948
 20
24.3853132345
 10
-50.373342037
 20
24.3902389184
 10
-50.3528716947
 20
24.3945056698
 10
-50.3343332213
 20
24.3980449493
 10
-50.3180104378
 20
24.4008019221
 10
-50.3041952103
 20
24.4027265528
 10
-50.2931479821
 20
24.4037851582
 10
-50.2850262554
 20
24.4039701252
 10
-50.279914452
 20
24.4032896159
 10
-50.2778616571
 20
24.401763809
  0
LWPOLYLINE
  5
6BB
100
AcDbEntity
  8
0
100
AcDbPolyline
 62
7
  6
CONTINUOUS
 90
6
 70
0
 43
0.3500000006
 10
-35.4961519547
 20
35.0635878296
 10
-34.4247249985
 20
35.0635878296
 10
-34.2104382477
 20
35.2778723145
 10
-34.2104382477
 20
36.3492992706
 10
-34.6390094833
 20
36.7778727722
 10
-35.067580719
 20
36.7778727722
  0
LWPOLYLINE
  5
6BC
100
AcDbEntity
  8
0
100
AcDbPolyline
 62
7
  6
CONTINUOUS
 90
8
 70
0
 43
0.3500000006
 10
-33.3532957764
 20
35.0635878296
 10
-32.4961533051
 20
35.0635878296
 10
-32.0675820694
 20
35.4921567993
 10
-32.0675820694
 20
36.3492992706
 10
-32.4961533051
 20
36.7778727722
 10
-33.3532957764
 20
36.7778727722
 10
-33.3532957764
 20
38.0635842133
 10
-32.0675820694
 20
38.0635842133
  0
LWPOLYLINE
  5
6BD
100
AcDbEntity
  8
0
100
AcDbPolyline
 62
7
  6
CONTINUOUS
 90
8
 70
0
 43
0.3500000006
 10
-32.3461532593
 20
45.0635863495
 10
-31.489010788
 20
45.0635863495
 10
-31.0604395523
 20
45.4921598511
 10
-31.0604395523
 20
46.3493023224
 10
-31.489010788
 20
46.7778712921
 10
-32.3461532593
 20
46.7778712921
 10
-32.3461532593
 20
48.063587265
 10
-31.0604395523
 20
48.063587265
  0
LWPOLYLINE
  5
6BE
100
AcDbEntity
  8
0
100
AcDbPolyline
 62
7
  6
CONTINUOUS
 90
3
 70
0
 43
0.3500000006
 10
-36.6318678818
 20
45.7064443359
 10
-38.1318660736
 20
45.7064443359
 10
-37.4890103531
 20
48.063587265
  0
ARC
  5
6BF
100
AcDbEntity
  8
DRAFT
100
AcDbCircle
 62
7
  6
CONTINUOUS
 10
37.2593092575
 20
0.0
 40
28.5
100
AcDbArc
 50
218.3522795552
 51
218.6290686136
  0
ARC
  5
6C0
100
AcDbEntity
  8
DRAFT
100
AcDbCircle
 62
7
  6
CONTINUOUS
 10
37.2593092575
 20
0.0
 40
28.5
100
AcDbArc
 50
141.3709313864
 51
141.6477204448
  0
ARC
  5
6C1
100
AcDbEntity
  8
DRAFT
100
AcDbCircle
 62
7
  6
CONTINUOUS
 10
14.7593092575
 20
0.0
 40
28.5
100
AcDbArc
 50
38.3522795552
 51
38.6290686136
  0
ARC
  5
6C2
100
AcDbEntity
  8
DRAFT
100
AcDbCircle
 62
7
  6
CONTINUOUS
 10
14.7593092575
 20
0.0
 40
28.5
100
AcDbArc
 50
321.3709313864
 51
321.6477204448
  0
ARC
  5
6C3
100
AcDbEntity
  8
CURVE
100
AcDbCircle
 62
250
  6
CONTINUOUS
 10
29.9096122575
 20
13.288268
 40
0.100225461
100
AcDbArc
 50
234.9483146232
 51
359.9685580688
  0
ARC
  5
6C4
100
AcDbEntity
  8
CURVE
100
AcDbCircle
 62
250
  6
CONTINUOUS
 10
22.1090062575
 20
-13.288268
 40
0.100225461
100
AcDbArc
 50
54.9483146232
 51
179.9685580688
  0
ARC
  5
6C5
100
AcDbEntity
  8
CURVE
100
AcDbCircle
 62
250
  6
CONTINUOUS
 10
22.1096232575
 20
13.288292
 40
0.0999870312
100
AcDbArc
 50
180.0452695414
 51
304.8314225152
  0
ARC
  5
6C6
100
AcDbEntity
  8
CURVE
100
AcDbCircle
 62
250
  6
CONTINUOUS
 10
29.9089952575
 20
-13.288292
 40
0.0999870312
100
AcDbArc
 50
0.0452695414
 51
124.8314225152
  0
ARC
  5
6C7
100
AcDbEntity
  8
ASSI
100
AcDbCircle
 62
7
  6
CONTINUOUS
 10
-54.4175814248
 20
-25.8134150626
 40
0.5
100
AcDbArc
 50
180.0
 51
268.5
  0
ARC
  5
6C8
100
AcDbEntity
  8
RACCORDO
100
AcDbCircle
 62
7
  6
CONTINUOUS
 10
-54.4175814248
 20
-25.8134150626
 40
0.5
100
AcDbArc
 50
180.0
 51
268.5
  0
ARC
  5
6C9
100
AcDbEntity
  8
RACCORDO
100
AcDbCircle
 62
7
  6
CONTINUOUS
 10
-51.4175814248
 20
-18.0328443874
 40
0.5
100
AcDbArc
 50
92.0
 51
180.0
  0
ARC
  5
6CA
100
AcDbEntity
  8
ASSI
100
AcDbCircle
 62
7
  6
CONTINUOUS
 10
-53.1175814248
 20
-25.9855007699
 40
0.2
100
AcDbArc
 50
274.9999999999
 51
359.9999999984
  0
ARC
  5
6CB
100
AcDbEntity
  8
RACCORDO
100
AcDbCircle
 62
7
  6
CONTINUOUS
 10
-53.1175814248
 20
-25.9855007699
 40
0.2
100
AcDbArc
 50
274.9999999999
 51
359.9999999984
  0
ARC
  5
6CC
100
AcDbEntity
  8
ASSI
100
AcDbCircle
 62
7
  6
CONTINUOUS
 10
-50.4710468224
 20
-24.35
 40
0.2
100
AcDbArc
 50
270.0
 51
345.0
  0
ARC
  5
6CD
100
AcDbEntity
  8
ASSI
100
AcDbCircle
 62
7
  6
CONTINUOUS
 10
-47.6330514786
 20
-23.95
 40
0.2
100
AcDbArc
 50
30.0
 51
85.7098353693
  0
ARC
  5
6CE
100
AcDbEntity
  8
ASSI
100
AcDbCircle
 62
7
  6
CONTINUOUS
 10
-48.1175814248
 20
-22.7551793284
 40
0.2
100
AcDbArc
 50
180.0
 51
250.0
  0
ARC
  5
6CF
100
AcDbEntity
  8
ASSI
100
AcDbCircle
 62
7
  6
CONTINUOUS
 10
-47.8175814248
 20
-23.2900415076
 40
0.2
100
AcDbArc
 50
0.0
 51
70.0
  0
ARC
  5
6D0
100
AcDbEntity
  8
ASSI
100
AcDbCircle
 62
7
  6
CONTINUOUS
 10
-47.8175814248
 20
-23.7423678201
 40
0.2
100
AcDbArc
 50
271.0
 51
360.0
  0
ARC
  5
6D1
100
AcDbEntity
  8
DRAFT
100
AcDbCircle
 62
7
  6
CONTINUOUS
 10
-49.1175814248
 20
-0.0
 40
1.0
100
AcDbArc
 50
111.5343176629
 51
248.4656823371
  0
ARC
  5
6D2
100
AcDbEntity
  8
DRAFT
100
AcDbCircle
 62
7
  6
CONTINUOUS
 10
-49.1175814248
 20
-0.0
 40
1.0
100
AcDbArc
 50
281.5369590328
 51
287.3266441896
  0
ARC
  5
6D3
100
AcDbEntity
  8
DRAFT
100
AcDbCircle
 62
7
  6
CONTINUOUS
 10
-49.1175814248
 20
-0.0
 40
1.0
100
AcDbArc
 50
288.9810926957
 51
71.0189073043
  0
ARC
  5
6D4
100
AcDbEntity
  8
DRAFT
100
AcDbCircle
 62
7
  6
CONTINUOUS
 10
-49.1175814248
 20
-0.0
 40
1.0
100
AcDbArc
 50
72.6733558104
 51
78.4630409672
  0
ARC
  5
6D5
100
AcDbEntity
  8
ASSI
100
AcDbCircle
 62
7
  6
CONTINUOUS
 10
-54.4175814248
 20
25.8134150626
 40
0.5
100
AcDbArc
 50
91.5
 51
180.0
  0
ARC
  5
6D6
100
AcDbEntity
  8
RACCORDO
100
AcDbCircle
 62
7
  6
CONTINUOUS
 10
-54.4175814248
 20
25.8134150626
 40
0.5
100
AcDbArc
 50
91.5
 51
180.0
  0
ARC
  5
6D7
100
AcDbEntity
  8
RACCORDO
100
AcDbCircle
 62
7
  6
CONTINUOUS
 10
-51.4175814248
 20
18.0328443874
 40
0.5
100
AcDbArc
 50
180.0
 51
268.0
  0
ARC
  5
6D8
100
AcDbEntity
  8
ASSI
100
AcDbCircle
 62
7
  6
CONTINUOUS
 10
-53.1175814248
 20
25.9855007699
 40
0.2
100
AcDbArc
 50
0.0000000015
 51
85.0000000001
  0
ARC
  5
6D9
100
AcDbEntity
  8
RACCORDO
100
AcDbCircle
 62
7
  6
CONTINUOUS
 10
-53.1175814248
 20
25.9855007699
 40
0.2
100
AcDbArc
 50
0.0000000015
 51
85.0000000001
  0
ARC
  5
6DA
100
AcDbEntity
  8
ASSI
100
AcDbCircle
 62
7
  6
CONTINUOUS
 10
-50.4710468224
 20
24.35
 40
0.2
100
AcDbArc
 50
15.0
 51
90.0
  0
ARC
  5
6DB
100
AcDbEntity
  8
ASSI
100
AcDbCircle
 62
7
  6
CONTINUOUS
 10
-47.6330514786
 20
23.95
 40
0.2
100
AcDbArc
 50
274.3336614577
 51
330.0
  0
ARC
  5
6DC
100
AcDbEntity
  8
ASSI
100
AcDbCircle
 62
7
  6
CONTINUOUS
 10
-48.1175814248
 20
22.7551793284
 40
0.2
100
AcDbArc
 50
110.0
 51
180.0
  0
ARC
  5
6DD
100
AcDbEntity
  8
ASSI
100
AcDbCircle
 62
7
  6
CONTINUOUS
 10
-47.8175814248
 20
23.2900415076
 40
0.2
100
AcDbArc
 50
290.0
 51
360.0
  0
ARC
  5
6DE
100
AcDbEntity
  8
ASSI
100
AcDbCircle
 62
7
  6
CONTINUOUS
 10
-47.8175814248
 20
23.7423678201
 40
0.2
100
AcDbArc
 50
0.0
 51
89.0
  0
ARC
  5
6DF
100
AcDbEntity
  8
ASSI
100
AcDbCircle
 62
7
  6
CONTINUOUS
 10
-42.96827905
 20
-24.75
 40
1.5
100
AcDbArc
 50
90.0
 51
115.0
  0
ARC
  5
6E0
100
AcDbEntity
  8
RACCORDO
100
AcDbCircle
 62
7
  6
CONTINUOUS
 10
-44.9175814248
 20
-4.0
 40
0.5
100
AcDbArc
 50
180.0
 51
270.0
  0
ARC
  5
6E1
100
AcDbEntity
  8
ASSI
100
AcDbCircle
 62
7
  6
CONTINUOUS
 10
-46.6284287561
 20
-24.25
 40
0.5
100
AcDbArc
 50
270.0
 51
295.0
  0
ARC
  5
6E2
100
AcDbEntity
  8
ASSI
100
AcDbCircle
 62
7
  6
CONTINUOUS
 10
-39.3082788042
 20
-22.75
 40
0.5
100
AcDbArc
 50
270.0
 51
285.0
  0
ARC
  5
6E3
100
AcDbEntity
  8
ASSI
100
AcDbCircle
 62
7
  6
CONTINUOUS
 10
-46.8247611017
 20
-24.55
 40
0.2
100
AcDbArc
 50
210.0
 51
270.0
  0
ARC
  5
6E4
100
AcDbEntity
  8
ASSI
100
AcDbCircle
 62
7
  6
CONTINUOUS
 10
-42.96827905
 20
24.75
 40
1.5
100
AcDbArc
 50
245.0
 51
270.0
  0
ARC
  5
6E5
100
AcDbEntity
  8
RACCORDO
100
AcDbCircle
 62
7
  6
CONTINUOUS
 10
-44.9175814248
 20
4.0
 40
0.5
100
AcDbArc
 50
90.0
 51
180.0
  0
ARC
  5
6E6
100
AcDbEntity
  8
ASSI
100
AcDbCircle
 62
7
  6
CONTINUOUS
 10
-46.6284287561
 20
24.25
 40
0.5
100
AcDbArc
 50
65.0
 51
90.0
  0
ARC
  5
6E7
100
AcDbEntity
  8
ASSI
100
AcDbCircle
 62
7
  6
CONTINUOUS
 10
-39.3082788042
 20
22.75
 40
0.5
100
AcDbArc
 50
75.0
 51
90.0
  0
ARC
  5
6E8
100
AcDbEntity
  8
ASSI
100
AcDbCircle
 62
7
  6
CONTINUOUS
 10
-46.8247611017
 20
24.55
 40
0.2
100
AcDbArc
 50
90.0
 51
150.0
  0
ELLIPSE
  5
6E9
100
AcDbEntity
  8
RACCORDO
100
AcDbEllipse
 62
7
  6
CONTINUOUS
 10
36.5227243201
 20
-25.8134150626
 30
0.0
 11
-0.35379574
 21
0.35379574
 31
0.0
 40
0.999315002
 41
-3.9266482006
 42
-2.3565371065
  0
ELLIPSE
  5
6EA
100
AcDbEntity
  8
RACCORDO
100
AcDbEllipse
 62
7
  6
CONTINUOUS
 10
36.5227243201
 20
25.8134150626
 30
0.0
 11
0.35379574
 21
0.35379574
 31
0.0
 40
0.999315002
 41
-0.7850555471
 42
0.7850555471
  0
ELLIPSE
  5
6EB
100
AcDbEntity
  8
RACCORDO
100
AcDbEllipse
 62
7
  6
CONTINUOUS
 10
15.4958941949
 20
25.8134150626
 30
0.0
 11
0.35379574
 21
-0.35379574
 31
0.0
 40
0.999315002
 41
2.3565371065
 42
3.9266482006
  0
ELLIPSE
  5
6EC
100
AcDbEntity
  8
RACCORDO
100
AcDbEllipse
 62
7
  6
CONTINUOUS
 10
15.4958941949
 20
-25.8134150626
 30
0.0
 11
0.35379574
 21
0.35379574
 31
0.0
 40
0.999315002
 41
-3.9266482006
 42
-2.3565371065
  0
ELLIPSE
  5
6ED
100
AcDbEntity
  8
ASSI
100
AcDbEllipse
 62
7
  6
CONTINUOUS
 10
36.5227243201
 20
-25.8134150626
 30
0.0
 11
-0.35379574
 21
0.35379574
 31
0.0
 40
0.999315002
 41
-3.9266482006
 42
-2.3565371065
  0
ELLIPSE
  5
6EE
100
AcDbEntity
  8
ASSI
100
AcDbEllipse
 62
7
  6
CONTINUOUS
 10
36.5227243201
 20
25.8134150626
 30
0.0
 11
0.35379574
 21
0.35379574
 31
0.0
 40
0.999315002
 41
-0.7850555471
 42
0.7850555471
  0
ELLIPSE
  5
6EF
100
AcDbEntity
  8
ASSI
100
AcDbEllipse
 62
7
  6
CONTINUOUS
 10
15.4958941949
 20
25.8134150626
 30
0.0
 11
0.35379574
 21
-0.35379574
 31
0.0
 40
0.999315002
 41
2.3565371065
 42
3.9266482006
  0
ELLIPSE
  5
6F0
100
AcDbEntity
  8
ASSI
100
AcDbEllipse
 62
7
  6
CONTINUOUS
 10
15.4958941949
 20
-25.8134150626
 30
0.0
 11
0.35379574
 21
0.35379574
 31
0.0
 40
0.999315002
 41
-3.9266482006
 42
-2.3565371065
  0
ELLIPSE
  5
6F1
100
AcDbEntity
  8
DRAFT
100
AcDbEllipse
 62
7
  6
CONTINUOUS
 10
-49.1175814248
 20
0.0
 30
0.0
 11
1.025
 21
0.0
 31
0.0
 40
1.0
 41
1.5707963268
 42
1.7736779146
  0
ELLIPSE
  5
6F2
100
AcDbEntity
  8
DRAFT
100
AcDbEllipse
 62
7
  6
CONTINUOUS
 10
-49.1175814248
 20
0.0
 30
0.0
 11
1.025
 21
0.0
 31
0.0
 40
1.0
 41
-1.7736779146
 42
-1.5707963268
  0
ELLIPSE
  5
6F3
100
AcDbEntity
  8
DRAFT
100
AcDbEllipse
 62
7
  6
CONTINUOUS
 10
-49.1175814248
 20
0.0
 30
0.0
 11
0.0
 21
1.025
 31
0.0
 40
1.0
 41
3.1415926536
 42
3.4904621839
  0
ELLIPSE
  5
6F4
100
AcDbEntity
  8
DRAFT
100
AcDbEllipse
 62
7
  6
CONTINUOUS
 10
-49.1175814248
 20
0.0
 30
0.0
 11
1.025
 21
0.0
 31
0.0
 40
1.0
 41
5.0612585107
 42
7.6459415741
  0
ELLIPSE
  5
6F5
100
AcDbEntity
  8
DRAFT
100
AcDbEllipse
 62
7
  6
CONTINUOUS
 10
-49.1175814248
 20
0.0
 30
0.0
 11
0.0
 21
1.025
 31
0.0
 40
1.0
 41
-0.2080400599
 42
0.0
  0
ENDSEC
  0
SECTION
  2
OBJECTS
  0
DICTIONARY
  5
C
100
AcDbDictionary
280
0
281
1
  3
ACAD_GROUP
350
D
  3
ACAD_MLINESTYLE
350
17
  3
ACAD_LAYOUT
350
1A
  3
ACAD_PLOTSETTINGS
350
19
  3
ACAD_PLOTSTYLENAME
350
E
  0
DICTIONARY
  5
D
102
{ACAD_REACTORS
330
C
102
}
100
AcDbDictionary
280
0
281
1
  0
ACDBDICTIONARYWDFLT
  5
E
102
{ACAD_REACTORS
330
C
102
}
100
AcDbDictionary
281
1
  3
Normal
350
F
100
AcDbDictionaryWithDefault
340
F
  0
DICTIONARY
  5
17
102
{ACAD_REACTORS
330
C
102
}
100
AcDbDictionary
280
0
281
1
  3
Standard
350
18
  0
DICTIONARY
  5
19
102
{ACAD_REACTORS
330
C
102
}
100
AcDbDictionary
281
1
  0
DICTIONARY
  5
1A
102
{ACAD_REACTORS
330
C
102
}
100
AcDbDictionary
281
1
  3
Model
350
6F6
  3
Layout1
350
6F7
  0
ACDBPLACEHOLDER
  5
F
102
{ACAD_REACTORS
330
E
102
}
  0
MLINESTYLE
  5
18
102
{ACAD_REACTORS
330
17
102
}
100
AcDbMlineStyle
  2
STANDARD
 70
0
  3

 62
256
 51
90.0
 52
90.0
 71
2
 49
0.5
 62
256
  6
BYLAYER
 49
-0.5
 62
256
  6
BYLAYER
  0
LAYOUT
  5
6F6
102
{ACAD_REACTORS
330
1A
102
}
100
AcDbPlotSettings
  1

  2
none_device
  4
ISO_A4_(297.00_x_210.00_MM)
  6

 40
0.0
 41
0.0
 42
0.0
 43
0.0
 44
297.0
 45
210.0
 46
0.0
 47
0.0
 48
0.0
 49
0.0
140
0.0
141
0.0
142
1.0
143
1.0
 70
1024
 72
1
 73
0
 74
0
  7

 75
0
147
1.0
148
0.0
149
0.0
100
AcDbLayout
  1
Model
 70
0
 71
0
 10
0.0
 20
0.0
 11
297.0
 21
210.0
 12
0.0
 22
0.0
 32
0.0
 14
0.0
 24
0.0
 34
0.0
 15
0.0
 25
0.0
 35
0.0
146
0.0
 13
0.0
 23
0.0
 33
0.0
 16
1.0
 26
0.0
 36
0.0
 17
0.0
 27
1.0
 37
0.0
 76
0
330
21D
345
0
346
0
  0
LAYOUT
  5
6F7
102
{ACAD_REACTORS
330
1A
102
}
100
AcDbPlotSettings
  1

  2
none_device
  4
ISO_A4_(297.00_x_210.00_MM)
  6

 40
0.0
 41
0.0
 42
0.0
 43
0.0
 44
297.0
 45
210.0
 46
0.0
 47
0.0
 48
0.0
 49
0.0
140
0.0
141
0.0
142
1.0
143
1.0
 70
0
 72
1
 73
0
 74
0
  7

 75
0
147
1.0
148
0.0
149
0.0
100
AcDbLayout
  1
Layout1
 70
0
 71
1
 10
0.0
 20
0.0
 11
297.0
 21
210.0
 12
0.0
 22
0.0
 32
0.0
 14
0.0
 24
0.0
 34
0.0
 15
0.0
 25
0.0
 35
0.0
146
0.0
 13
0.0
 23
0.0
 33
0.0
 16
1.0
 26
0.0
 36
0.0
 17
0.0
 27
1.0
 37
0.0
 76
0
330
21E
345
0
346
0
  0
ENDSEC
  0
EOF
