  0
SECTION
  2
HEADER
  9
$ACADVER
  1
AC1024
  9
$DWGCODEPAGE
  3
ANSI_1252
  9
$EXTMAX
 10
297.0
 20
210.0
 30
0.0
  9
$EXTMIN
 10
0.0
 20
0.0
 30
0.0
  9
$LIMMIN
 10
0.0
 20
0.0
  9
$LIMMAX
 10
297.0
 20
210.0
  9
$VIEWCTR
 10
148.5
 20
105.0
  9
$VIEWSIZE
 40
210.0
  9
$CLAYER
  8
0
  9
$LTSCALE
 40
16.335
  9
$CELTYPE
  6
BYLAYER
  9
$DIMSCALE
 40
1.0
  9
$DIMASZ
 40
3.0
  9
$DIMEXO
 40
0.5
  9
$DIMDLI
 40
11.286
  9
$DIMEXE
 40
1.5
  9
$DIMCEN
 40
2.673
  9
$DIMLFAC
 40
1.0
  9
$DIMBLK
  1
_FILLED
  9
$DIMALT
 70
0
  9
$DIMALTF
 40
0.0393700787
  9
$DIMTXT
 40
3.0
  9
$DIMTOL
 70
1
  9
$DIMLIM
 70
0
  9
$DIMTFAC
 40
1.0
  9
$DIMTP
 40
0.01
  9
$DIMTM
 40
0.01
  9
$DIMGAP
 40
0.625
  9
$DIMDSEP
 70
44
  9
$AUNITS
 70
0
  9
$PDMODE
 70
3
  9
$PDSIZE
 40
3.0
  9
$HANDSEED
  5
824
  9
$TILEMODE
 70
1
  9
$MEASUREMENT
 70
1
  9
$INSUNITS
 70
4
  0
ENDSEC
  0
SECTION
  2
CLASSES
  0
CLASS
  1
ACDBDICTIONARYWDFLT
  2
AcDbDictionaryWithDefault
  3
AutoCAD 2000
 90
0
 91
1
280
0
281
0
  0
CLASS
  1
ACDBPLACEHOLDER
  2
AcDbPlaceHolder
  3
AutoCAD 2000
 90
0
 91
1
280
0
281
0
  0
CLASS
  1
LAYOUT
  2
AcDbLayout
  3
AutoCAD 2000
 90
0
 91
0
280
0
281
0
  0
ENDSEC
  0
SECTION
  2
TABLES
  0
TABLE
  2
VPORT
  5
8
100
AcDbSymbolTable
 70
2
  0
VPORT
  5
1F4
100
AcDbSymbolTableRecord
100
AcDbViewportTableRecord
  2
*ACTIVE
 70
0
 10
0.0
 20
0.0
 11
1.0
 21
1.0
 12
148.5
 22
105.0
 13
0.0
 23
0.0
 14
1.0
 24
1.0
 15
0.0
 25
0.0
 16
0.0
 26
0.0
 36
1.0
 17
0.0
 27
0.0
 37
0.0
 40
210.0
 41
1.4142857143
 42
50.0
 43
0.0
 44
0.0
 50
0.0
 51
0.0
 71
0
 72
100
 73
1
 74
1
 75
0
 76
0
 77
0
 78
0
  0
ENDTAB
  0
TABLE
  2
LTYPE
  5
5
100
AcDbSymbolTable
 70
6
  0
LTYPE
  5
14
100
AcDbSymbolTableRecord
100
AcDbLinetypeTableRecord
  2
BYBLOCK
 70
0
  3

 72
65
 73
0
 40
0.0
  0
LTYPE
  5
15
100
AcDbSymbolTableRecord
100
AcDbLinetypeTableRecord
  2
BYLAYER
 70
0
  3

 72
65
 73
0
 40
0.0
  0
LTYPE
  5
16
100
AcDbSymbolTableRecord
100
AcDbLinetypeTableRecord
  2
CONTINUOUS
 70
64
  3
Solid line
 72
65
 73
0
 40
0.0
  0
LTYPE
  5
1F5
100
AcDbSymbolTableRecord
100
AcDbLinetypeTableRecord
  2
CENTER
 70
64
  3
____ _ ____ _ ____ _ ____ _ ____ _ ____ _ ____
 72
65
 73
4
 40
0.6
 49
0.375
 74
0
 49
-0.075
 74
0
 49
0.075
 74
0
 49
-0.075
 74
0
  0
LTYPE
  5
1F6
100
AcDbSymbolTableRecord
100
AcDbLinetypeTableRecord
  2
HIDDEN
 70
64
  3
- - - - - - - - - - - - - - - - - - - -
 72
65
 73
2
 40
0.2
 49
0.1
 74
0
 49
-0.1
 74
0
  0
LTYPE
  5
1F7
100
AcDbSymbolTableRecord
100
AcDbLinetypeTableRecord
  2
PHANTOM
 70
64
  3
_____ _ _ _____ _ _ _____ _ _ _____
 72
65
 73
6
 40
0.8
 49
0.45
 74
0
 49
-0.05
 74
0
 49
0.1
 74
0
 49
-0.05
 74
0
 49
0.1
 74
0
 49
-0.05
 74
0
  0
LTYPE
  5
1F8
100
AcDbSymbolTableRecord
100
AcDbLinetypeTableRecord
  2
DOT
 70
64
  3
. . . . . . . . . . . . . . . . . . . .
 72
65
 73
2
 40
0.2
 49
0.1
 74
0
 49
-0.1
 74
0
  0
LTYPE
  5
1F9
100
AcDbSymbolTableRecord
100
AcDbLinetypeTableRecord
  2
DASHED
 70
64
  3
- - - - - - - - - - - - - - - - - - - -
 72
65
 73
2
 40
0.2
 49
0.1
 74
0
 49
-0.1
 74
0
  0
ENDTAB
  0
TABLE
  2
LAYER
  5
2
100
AcDbSymbolTable
 70
36
  0
LAYER
  5
10
100
AcDbSymbolTableRecord
100
AcDbLayerTableRecord
  2
0
 70
0
 62
7
  6
CONTINUOUS
370
-3
390
F
  0
LAYER
  5
1FA
100
AcDbSymbolTableRecord
100
AcDbLayerTableRecord
  2
DEFAULT_1
 70
0
 62
7
  6
CENTER
370
-3
390
F
  0
LAYER
  5
1FB
100
AcDbSymbolTableRecord
100
AcDbLayerTableRecord
  2
DEFAULT_2
 70
0
 62
7
  6
HIDDEN
370
-3
390
F
  0
LAYER
  5
1FC
100
AcDbSymbolTableRecord
100
AcDbLayerTableRecord
  2
DEFAULT_3
 70
0
 62
7
  6
PHANTOM
370
-3
390
F
  0
LAYER
  5
1FD
100
AcDbSymbolTableRecord
100
AcDbLayerTableRecord
  2
ASSI
 70
0
 62
7
  6
CONTINUOUS
370
-3
390
F
  0
LAYER
  5
1FE
100
AcDbSymbolTableRecord
100
AcDbLayerTableRecord
  2
COORDINATE
 70
0
 62
7
  6
CONTINUOUS
370
-3
390
F
  0
LAYER
  5
1FF
100
AcDbSymbolTableRecord
100
AcDbLayerTableRecord
  2
COORD_ORIGINE
 70
0
 62
7
  6
CONTINUOUS
370
-3
390
F
  0
LAYER
  5
200
100
AcDbSymbolTableRecord
100
AcDbLayerTableRecord
  2
COPY_PUBLISH
 70
0
 62
7
  6
CONTINUOUS
370
-3
390
F
  0
LAYER
  5
201
100
AcDbSymbolTableRecord
100
AcDbLayerTableRecord
  2
COSMETICHE
 70
0
 62
7
  6
CONTINUOUS
370
-3
390
F
  0
LAYER
  5
202
100
AcDbSymbolTableRecord
100
AcDbLayerTableRecord
  2
COSMETICI
 70
0
 62
7
  6
CONTINUOUS
370
-3
390
F
  0
LAYER
  5
203
100
AcDbSymbolTableRecord
100
AcDbLayerTableRecord
  2
CURVE
 70
0
 62
7
  6
CONTINUOUS
370
-3
390
F
  0
LAYER
  5
204
100
AcDbSymbolTableRecord
100
AcDbLayerTableRecord
  2
DRAFT
 70
0
 62
7
  6
CONTINUOUS
370
-3
390
F
  0
LAYER
  5
205
100
AcDbSymbolTableRecord
100
AcDbLayerTableRecord
  2
IGES
 70
0
 62
7
  6
CONTINUOUS
370
-3
390
F
  0
LAYER
  5
206
100
AcDbSymbolTableRecord
100
AcDbLayerTableRecord
  2
IMPORT_IGES
 70
0
 62
7
  6
CONTINUOUS
370
-3
390
F
  0
LAYER
  5
207
100
AcDbSymbolTableRecord
100
AcDbLayerTableRecord
  2
INTF_1
 70
0
 62
7
  6
CONTINUOUS
370
-3
390
F
  0
LAYER
  5
208
100
AcDbSymbolTableRecord
100
AcDbLayerTableRecord
  2
INTF_11
 70
0
 62
7
  6
CONTINUOUS
370
-3
390
F
  0
LAYER
  5
209
100
AcDbSymbolTableRecord
100
AcDbLayerTableRecord
  2
INTF_8
 70
0
 62
7
  6
CONTINUOUS
370
-3
390
F
  0
LAYER
  5
20A
100
AcDbSymbolTableRecord
100
AcDbLayerTableRecord
  2
INTF_9
 70
0
 62
7
  6
CONTINUOUS
370
-3
390
F
  0
LAYER
  5
20B
100
AcDbSymbolTableRecord
100
AcDbLayerTableRecord
  2
NOTE
 70
0
 62
7
  6
CONTINUOUS
370
-3
390
F
  0
LAYER
  5
20C
100
AcDbSymbolTableRecord
100
AcDbLayerTableRecord
  2
PIANI
 70
0
 62
7
  6
CONTINUOUS
370
-3
390
F
  0
LAYER
  5
20D
100
AcDbSymbolTableRecord
100
AcDbLayerTableRecord
  2
PIANI_ORIGINE
 70
0
 62
7
  6
CONTINUOUS
370
-3
390
F
  0
LAYER
  5
20E
100
AcDbSymbolTableRecord
100
AcDbLayerTableRecord
  2
PUNTI
 70
0
 62
7
  6
CONTINUOUS
370
-3
390
F
  0
LAYER
  5
20F
100
AcDbSymbolTableRecord
100
AcDbLayerTableRecord
  2
RACCORDO
 70
0
 62
7
  6
CONTINUOUS
370
-3
390
F
  0
LAYER
  5
210
100
AcDbSymbolTableRecord
100
AcDbLayerTableRecord
  2
RGB____0____0____0__
 70
0
 62
7
  6
CONTINUOUS
370
-3
390
F
  0
LAYER
  5
211
100
AcDbSymbolTableRecord
100
AcDbLayerTableRecord
  2
SIMBOLI
 70
0
 62
7
  6
CONTINUOUS
370
-3
390
F
  0
LAYER
  5
212
100
AcDbSymbolTableRecord
100
AcDbLayerTableRecord
  2
SMUSSO
 70
0
 62
7
  6
CONTINUOUS
370
-3
390
F
  0
LAYER
  5
213
100
AcDbSymbolTableRecord
100
AcDbLayerTableRecord
  2
SNAPLINE
 70
0
 62
7
  6
CONTINUOUS
370
-3
390
F
  0
LAYER
  5
214
100
AcDbSymbolTableRecord
100
AcDbLayerTableRecord
  2
SUPERFICI
 70
0
 62
7
  6
CONTINUOUS
370
-3
390
F
  0
LAYER
  5
215
100
AcDbSymbolTableRecord
100
AcDbLayerTableRecord
  2
TRASH
 70
0
 62
7
  6
CONTINUOUS
370
-3
390
F
  0
LAYER
  5
216
100
AcDbSymbolTableRecord
100
AcDbLayerTableRecord
  2
VARIANTE_COLORE
 70
0
 62
7
  6
CONTINUOUS
370
-3
390
F
  0
ENDTAB
  0
TABLE
  2
STYLE
  5
3
100
AcDbSymbolTable
 70
1
  0
STYLE
  5
11
100
AcDbSymbolTableRecord
100
AcDbTextStyleTableRecord
  2
STANDARD
 70
0
 40
0.0
 41
0.8
 50
0.0
 71
0
 42
0.2
  3
txt
  4

  0
STYLE
  5
217
100
AcDbSymbolTableRecord
100
AcDbTextStyleTableRecord
  2
TEXTSTYLE_1
 70
0
 40
0.0
 41
0.8
 50
0.0
 71
0
 42
0.2
  3
gdt
  4

  0
ENDTAB
  0
TABLE
  2
VIEW
  5
6
100
AcDbSymbolTable
 70
0
  0
ENDTAB
  0
TABLE
  2
UCS
  5
7
100
AcDbSymbolTable
 70
0
  0
ENDTAB
  0
TABLE
  2
APPID
  5
9
100
AcDbSymbolTable
 70
1
  0
APPID
  5
218
100
AcDbSymbolTableRecord
100
AcDbRegAppTableRecord
  2
ACAD
 70
0
  0
ENDTAB
  0
TABLE
  2
BLOCK_RECORD
  5
1
100
AcDbSymbolTable
 70
0
  0
BLOCK_RECORD
  5
219
100
AcDbSymbolTableRecord
100
AcDbBlockTableRecord
  2
*Model_Space
  0
BLOCK_RECORD
  5
21A
100
AcDbSymbolTableRecord
100
AcDbBlockTableRecord
  2
*Paper_Space
  0
BLOCK_RECORD
  5
21B
100
AcDbSymbolTableRecord
100
AcDbBlockTableRecord
  2
_FILLED
  0
BLOCK_RECORD
  5
21C
100
AcDbSymbolTableRecord
100
AcDbBlockTableRecord
  2
*D0
  0
BLOCK_RECORD
  5
21D
100
AcDbSymbolTableRecord
100
AcDbBlockTableRecord
  2
*D1
  0
BLOCK_RECORD
  5
21E
100
AcDbSymbolTableRecord
100
AcDbBlockTableRecord
  2
*D2
  0
BLOCK_RECORD
  5
21F
100
AcDbSymbolTableRecord
100
AcDbBlockTableRecord
  2
*D3
  0
ENDTAB
  0
TABLE
  2
DIMSTYLE
  5
A
100
AcDbSymbolTable
 70
1
100
AcDbDimStyleTable
 71
0
  0
DIMSTYLE
105
220
100
AcDbSymbolTableRecord
100
AcDbDimStyleTableRecord
  2
STANDARD
 70
0
  3

  4

 40
1.0
 41
3.0
 42
0.5
 43
0.38
 44
1.5
 45
0.0
 46
0.0
 47
0.01
 48
0.01
140
3.0
141
0.09
142
0.0
143
25.4
144
1.0
145
0.0
146
1.0
147
0.625
 71
1
 72
0
 73
0
 74
0
 75
0
 76
0
 77
1
 78
8
 79
2
170
0
171
1
172
0
173
0
174
0
175
0
176
0
177
0
178
0
270
2
179
2
271
2
272
2
273
2
274
2
275
0
280
0
281
0
282
0
283
1
284
8
285
0
286
0
287
3
288
0
340
11
278
44
341
21B
342
21B
343
21B
344
21B
  0
DIMSTYLE
105
221
100
AcDbSymbolTableRecord
100
AcDbDimStyleTableRecord
  2
DIMSTYLE_1
 70
0
  3

  4

 40
1.0
 41
3.0
 42
0.5
 43
0.38
 44
1.5
 45
0.0
 46
0.0
 47
0.0
 48
0.0
140
3.0
141
0.09
142
0.0
143
25.4
144
1.0
145
0.0
146
1.0
147
0.75
 71
0
 72
0
 73
0
 74
0
 75
0
 76
0
 77
1
 78
8
 79
2
170
0
171
1
172
0
173
0
174
0
175
0
176
0
177
0
178
0
270
2
179
2
271
2
272
2
273
2
274
2
275
0
280
0
281
0
282
0
283
1
284
8
285
0
286
0
287
3
288
0
340
11
278
44
341
21B
342
21B
343
21B
344
21B
  0
ENDTAB
  0
ENDSEC
  0
SECTION
  2
BLOCKS
  0
BLOCK
  5
20
100
AcDbEntity
  8
0
100
AcDbBlockBegin
  2
*Model_Space
 70
0
 10
0.0
 20
0.0
 30
0.0
  3
*Model_Space
  1

  0
ENDBLK
  5
21
100
AcDbEntity
  8
0
100
AcDbBlockEnd
  0
BLOCK
  5
1C
100
AcDbEntity
  8
0
100
AcDbBlockBegin
  2
*Paper_Space
 70
0
 10
0.0
 20
0.0
 30
0.0
  3
*Paper_Space
  1

  0
ENDBLK
  5
1D
100
AcDbEntity
  8
0
100
AcDbBlockEnd
  0
BLOCK
  5
222
100
AcDbEntity
  8
0
100
AcDbBlockBegin
  2
_FILLED
 70
64
 10
0.0
 20
0.0
  3
_FILLED
  1

  0
SOLID
  5
223
100
AcDbEntity
  8
0
  6
BYBLOCK
 62
0
100
AcDbTrace
 10
0.0
 20
0.0
 11
-1.0
 21
0.3166666667
 12
-1.0
 22
-0.3166666667
 13
-1.0
 23
-0.3166666667
  0
ENDBLK
  5
224
100
AcDbEntity
  8
0
  6
BYBLOCK
 62
0
100
AcDbBlockEnd
  0
BLOCK
  5
225
100
AcDbEntity
  8
0
100
AcDbBlockBegin
 62
7
  6
CONTINUOUS
  2
*D0
 70
65
 10
0.0
 20
0.0
  3
*D0
  1

  0
MTEXT
  5
226
100
AcDbEntity
  8
0
100
AcDbMText
 62
7
  6
CONTINUOUS
  7
STANDARD
 71
2
 72
1
 10
12.372930842
 20
76.9524118099
 30
0.0
 11
1.0
 21
0.0
 31
0.0
 73
2
 44
0.9
  1
{\ftxt;\W0.0001;\H0.0001;\~}{\ftxt;\W2.6428571429;\H3.0; }{\ftxt;\W0.0001;\H0.0001;\~}
 40
3.0
 41
11.8928571429
  0
LINE
  5
227
100
AcDbEntity
  8
0
100
AcDbLine
 62
7
  6
CONTINUOUS
 10
-3.677069158
 20
55.4669199734
 11
-3.677069158
 21
74.7024118099
  0
LINE
  5
228
100
AcDbEntity
  8
0
100
AcDbLine
 62
7
  6
CONTINUOUS
 10
28.422930842
 20
55.4669199734
 11
28.422930842
 21
74.7024118099
  0
LINE
  5
229
100
AcDbEntity
  8
0
100
AcDbLine
 62
7
  6
CONTINUOUS
 10
-3.677069158
 20
73.2024118099
 11
12.372930842
 21
73.2024118099
  0
LINE
  5
22A
100
AcDbEntity
  8
0
100
AcDbLine
 62
7
  6
CONTINUOUS
 10
28.422930842
 20
73.2024118099
 11
12.372930842
 21
73.2024118099
  0
INSERT
  5
22B
100
AcDbEntity
  8
0
100
AcDbBlockReference
 62
7
  6
CONTINUOUS
  2
_FILLED
 10
-3.677069158
 20
73.2024118099
 41
3.0
 42
3.0
 43
3.0
 50
180.0
  0
INSERT
  5
22C
100
AcDbEntity
  8
0
100
AcDbBlockReference
 62
7
  6
CONTINUOUS
  2
_FILLED
 10
28.422930842
 20
73.2024118099
 41
3.0
 42
3.0
 43
3.0
  0
ENDBLK
  5
22D
100
AcDbEntity
  8
0
  6
BYBLOCK
 62
0
100
AcDbBlockEnd
  0
BLOCK
  5
22E
100
AcDbEntity
  8
0
100
AcDbBlockBegin
 62
7
  6
CONTINUOUS
  2
*D1
 70
65
 10
0.0
 20
0.0
  3
*D1
  1

  0
MTEXT
  5
22F
100
AcDbEntity
  8
0
100
AcDbMText
 62
7
  6
CONTINUOUS
  7
STANDARD
 71
2
 72
1
 10
9.522930842
 20
86.9524118099
 30
0.0
 11
1.0
 21
0.0
 31
0.0
 73
2
 44
0.9
  1
{\ftxt;\W0.0001;\H0.0001;\~}{\ftxt;\W2.8571428571;\H3.0; }{\ftxt;\W0.0001;\H0.0001;\~}
 40
3.0
 41
12.8571428571
  0
LINE
  5
230
100
AcDbEntity
  8
0
100
AcDbLine
 62
7
  6
CONTINUOUS
 10
-9.377069158
 20
64.9027998537
 11
-9.377069158
 21
84.7024118099
  0
LINE
  5
231
100
AcDbEntity
  8
0
100
AcDbLine
 62
7
  6
CONTINUOUS
 10
28.422930842
 20
55.4669199734
 11
28.422930842
 21
84.7024118099
  0
LINE
  5
232
100
AcDbEntity
  8
0
100
AcDbLine
 62
7
  6
CONTINUOUS
 10
-9.377069158
 20
83.2024118099
 11
9.522930842
 21
83.2024118099
  0
LINE
  5
233
100
AcDbEntity
  8
0
100
AcDbLine
 62
7
  6
CONTINUOUS
 10
28.422930842
 20
83.2024118099
 11
9.522930842
 21
83.2024118099
  0
INSERT
  5
234
100
AcDbEntity
  8
0
100
AcDbBlockReference
 62
7
  6
CONTINUOUS
  2
_FILLED
 10
-9.377069158
 20
83.2024118099
 41
3.0
 42
3.0
 43
3.0
 50
180.0
  0
INSERT
  5
235
100
AcDbEntity
  8
0
100
AcDbBlockReference
 62
7
  6
CONTINUOUS
  2
_FILLED
 10
28.422930842
 20
83.2024118099
 41
3.0
 42
3.0
 43
3.0
  0
ENDBLK
  5
236
100
AcDbEntity
  8
0
  6
BYBLOCK
 62
0
100
AcDbBlockEnd
  0
BLOCK
  5
237
100
AcDbEntity
  8
0
100
AcDbBlockBegin
 62
7
  6
CONTINUOUS
  2
*D2
 70
65
 10
0.0
 20
0.0
  3
*D2
  1

  0
MTEXT
  5
238
100
AcDbEntity
  8
0
100
AcDbMText
 62
7
  6
CONTINUOUS
  7
STANDARD
 71
2
 72
1
 10
52.4826819517
 20
76.9524118099
 30
0.0
 11
1.0
 21
0.0
 31
0.0
 73
2
 44
0.9
  1
{\ftxt;\W0.0001;\H0.0001;\~}{\ftxt;\W2.9285714286;\H3.0; }{\ftxt;\W0.0001;\H0.0001;\~}
 40
3.0
 41
13.1785714286
  0
LINE
  5
239
100
AcDbEntity
  8
0
100
AcDbLine
 62
7
  6
CONTINUOUS
 10
41.3826819517
 20
62.0013639529
 11
41.3826819517
 21
74.7024118099
  0
LINE
  5
23A
100
AcDbEntity
  8
0
100
AcDbLine
 62
7
  6
CONTINUOUS
 10
63.5826819517
 20
63.0893847911
 11
63.5826819517
 21
74.7024118099
  0
LINE
  5
23B
100
AcDbEntity
  8
0
100
AcDbLine
 62
7
  6
CONTINUOUS
 10
41.3826819517
 20
73.2024118099
 11
52.4826819517
 21
73.2024118099
  0
LINE
  5
23C
100
AcDbEntity
  8
0
100
AcDbLine
 62
7
  6
CONTINUOUS
 10
63.5826819517
 20
73.2024118099
 11
52.4826819517
 21
73.2024118099
  0
INSERT
  5
23D
100
AcDbEntity
  8
0
100
AcDbBlockReference
 62
7
  6
CONTINUOUS
  2
_FILLED
 10
41.3826819517
 20
73.2024118099
 41
3.0
 42
3.0
 43
3.0
 50
180.0
  0
INSERT
  5
23E
100
AcDbEntity
  8
0
100
AcDbBlockReference
 62
7
  6
CONTINUOUS
  2
_FILLED
 10
63.5826819517
 20
73.2024118099
 41
3.0
 42
3.0
 43
3.0
  0
ENDBLK
  5
23F
100
AcDbEntity
  8
0
  6
BYBLOCK
 62
0
100
AcDbBlockEnd
  0
BLOCK
  5
240
100
AcDbEntity
  8
0
100
AcDbBlockBegin
 62
7
  6
CONTINUOUS
  2
*D3
 70
65
 10
0.0
 20
0.0
  3
*D3
  1

  0
MTEXT
  5
241
100
AcDbEntity
  8
0
100
AcDbMText
 62
7
  6
CONTINUOUS
  7
STANDARD
 71
2
 72
1
 10
71.5889594571
 20
38.5893847911
 30
0.0
 11
0.0
 21
1.0
 31
0.0
 73
2
 44
0.9
  1
{\ftxt;\W0.0001;\H0.0001;\~}{\ftxt;\W2.8571428571;\H3.0; }{\ftxt;\W0.0001;\H0.0001;\~}
 40
3.0
 41
12.8571428571
  0
LINE
  5
242
100
AcDbEntity
  8
0
100
AcDbLine
 62
7
  6
CONTINUOUS
 10
63.5828532892
 20
64.9893847911
 11
76.8389594571
 21
64.9893847911
  0
LINE
  5
243
100
AcDbEntity
  8
0
100
AcDbLine
 62
7
  6
CONTINUOUS
 10
63.5828532892
 20
12.1893847911
 11
76.8389594571
 21
12.1893847911
  0
LINE
  5
244
100
AcDbEntity
  8
0
100
AcDbLine
 62
7
  6
CONTINUOUS
 10
75.3389594571
 20
64.9893847911
 11
75.3389594571
 21
38.5893847911
  0
LINE
  5
245
100
AcDbEntity
  8
0
100
AcDbLine
 62
7
  6
CONTINUOUS
 10
75.3389594571
 20
12.1893847911
 11
75.3389594571
 21
38.5893847911
  0
INSERT
  5
246
100
AcDbEntity
  8
0
100
AcDbBlockReference
 62
7
  6
CONTINUOUS
  2
_FILLED
 10
75.3389594571
 20
64.9893847911
 41
3.0
 42
3.0
 43
3.0
 50
90.0
  0
INSERT
  5
247
100
AcDbEntity
  8
0
100
AcDbBlockReference
 62
7
  6
CONTINUOUS
  2
_FILLED
 10
75.3389594571
 20
12.1893847911
 41
3.0
 42
3.0
 43
3.0
 50
270.0
  0
ENDBLK
  5
248
100
AcDbEntity
  8
0
  6
BYBLOCK
 62
0
100
AcDbBlockEnd
  0
ENDSEC
  0
SECTION
  2
ENTITIES
  0
DIMENSION
  5
249
100
AcDbEntity
  8
0
100
AcDbDimension
 62
7
  6
CONTINUOUS
  2
*D0
 10
28.422930842
 20
73.2024118099
 11
11.944359498
 21
73.2024118099
 70
160
 71
2
 72
2
 41
0.9
 42
32.1
  1
{\ftxt;\W0.0001;\H0.0001;\~}{\ftxt;\W2.6428571429;\H3.0; }{\ftxt;\W0.0001;\H0.0001;\~}
  3
DIMSTYLE_1
100
AcDbAlignedDimension
 13
-3.677069158
 23
54.9669199734
 14
28.422930842
 24
54.9669199734
100
AcDbRotatedDimension
  0
DIMENSION
  5
24A
100
AcDbEntity
  8
0
100
AcDbDimension
 62
7
  6
CONTINUOUS
  2
*D1
 10
28.422930842
 20
83.2024118099
 11
9.0943591948
 21
83.2024118099
 70
160
 71
2
 72
2
 41
0.9
 42
37.8
  1
{\ftxt;\W0.0001;\H0.0001;\~}{\ftxt;\W2.8571428571;\H3.0; }{\ftxt;\W0.0001;\H0.0001;\~}
  3
DIMSTYLE_1
100
AcDbAlignedDimension
 13
-9.377069158
 23
64.4027998537
 14
28.422930842
 24
54.9669199734
100
AcDbRotatedDimension
  0
DIMENSION
  5
24B
100
AcDbEntity
  8
0
100
AcDbDimension
 62
7
  6
CONTINUOUS
  2
*D2
 10
63.5826819517
 20
73.2024118099
 11
52.0541126862
 21
73.2024118099
 70
160
 71
2
 72
2
 41
0.9
 42
22.2
  1
{\ftxt;\W0.0001;\H0.0001;\~}{\ftxt;\W2.9285714286;\H3.0; }{\ftxt;\W0.0001;\H0.0001;\~}
  3
DIMSTYLE_1
100
AcDbAlignedDimension
 13
41.3826819517
 23
61.5013639529
 14
63.5826819517
 24
62.5893847911
100
AcDbRotatedDimension
  0
DIMENSION
  5
24C
100
AcDbEntity
  8
0
100
AcDbDimension
 62
7
  6
CONTINUOUS
  2
*D3
 10
75.3389594571
 20
12.1893847911
 11
75.3389594571
 21
38.1608126643
 70
160
 71
2
 72
2
 41
0.9
 42
52.8
  1
{\ftxt;\W0.0001;\H0.0001;\~}{\ftxt;\W2.8571428571;\H3.0; }{\ftxt;\W0.0001;\H0.0001;\~}
  3
DIMSTYLE_1
100
AcDbAlignedDimension
 13
63.0828532892
 23
64.9893847911
 14
63.0828532892
 24
12.1893847911
 50
270.0
100
AcDbRotatedDimension
  0
LINE
  5
24D
100
AcDbEntity
  8
SUPERFICI
100
AcDbLine
 62
7
  6
CONTINUOUS
 10
48.9728416391
 20
12.1893847911
 11
49.2326819517
 21
12.2147782547
  0
LINE
  5
24E
100
AcDbEntity
  8
SUPERFICI
100
AcDbLine
 62
7
  6
CONTINUOUS
 10
41.8825106142
 20
12.1893847911
 11
48.9728416391
 21
12.1893847911
  0
LINE
  5
24F
100
AcDbEntity
  8
SUPERFICI
100
AcDbLine
 62
7
  6
CONTINUOUS
 10
55.9925222643
 20
12.1893847911
 11
63.0828532892
 21
12.1893847911
  0
LINE
  5
250
100
AcDbEntity
  8
SUPERFICI
100
AcDbLine
 62
7
  6
CONTINUOUS
 10
49.2326819517
 20
12.2147782547
 11
55.7326819517
 21
12.2147782547
  0
LINE
  5
251
100
AcDbEntity
  8
SUPERFICI
100
AcDbLine
 62
250
  6
CONTINUOUS
 10
41.9692668891
 20
12.2761410661
 11
62.9960970143
 21
12.2761410661
  0
LINE
  5
252
100
AcDbEntity
  8
SUPERFICI
100
AcDbLine
 62
250
  6
CONTINUOUS
 10
41.4694382266
 20
12.7759697285
 11
63.4959256768
 21
12.7759697285
  0
LINE
  5
253
100
AcDbEntity
  8
SUPERFICI
100
AcDbLine
 62
7
  6
CONTINUOUS
 10
55.9925222643
 20
12.1893847911
 11
55.7326819517
 21
12.2147782547
  0
LWPOLYLINE
  5
254
100
AcDbEntity
  8
SUPERFICI
100
AcDbPolyline
 62
250
  6
CONTINUOUS
 90
16
 70
0
 10
41.4694382266
 20
12.7759697285
 10
41.4722265617
 20
12.7235872596
 10
41.4804890334
 20
12.6717818739
 10
41.4941345904
 20
12.6211241199
 10
41.513015386
 20
12.5721663326
 10
41.5369221072
 20
12.5254537664
 10
41.5655805731
 20
12.4815157475
 10
41.5986626305
 20
12.4408414492
 10
41.6358058986
 20
12.4038643554
 10
41.6766117448
 20
12.3709768566
 10
41.7206955337
 20
12.3425031104
 10
41.7675163103
 20
12.3188056513
 10
41.8163631238
 20
12.3002077767
 10
41.8666123623
 20
12.2868665383
 10
41.9177665403
 20
12.2788366292
 10
41.9692668893
 20
12.2761410662
  0
LWPOLYLINE
  5
255
100
AcDbEntity
  8
SUPERFICI
100
AcDbPolyline
 62
250
  6
CONTINUOUS
 90
16
 70
0
 10
41.4694382266
 20
64.4027998537
 10
41.4722261911
 20
64.4551788287
 10
41.4804876005
 20
64.5069810064
 10
41.4941314806
 20
64.5576359376
 10
41.5130101702
 20
64.606591587
 10
41.536914403
 20
64.6533025298
 10
41.5655696828
 20
64.6972389106
 10
41.598647062
 20
64.7379109181
 10
41.6357846905
 20
64.7748862174
 10
41.6765860225
 20
64.8077741286
 10
41.7206675257
 20
64.8362503966
 10
41.767488105
 20
64.8599514671
 10
41.8163374969
 20
64.8785535529
 10
41.8665923962
 20
64.8918988399
 10
41.9177551725
 20
64.8999317676
 10
41.9692668891
 20
64.9026285162
  0
LINE
  5
256
100
AcDbEntity
  8
SUPERFICI
100
AcDbLine
 62
7
  6
CONTINUOUS
 10
41.3826819517
 20
64.4895561286
 11
41.3826819517
 21
12.6892134536
  0
LINE
  5
257
100
AcDbEntity
  8
RACCORDO
100
AcDbLine
 62
7
  6
CONTINUOUS
 10
41.3826819517
 20
20.9329271394
 11
41.3826819517
 21
56.2458424428
  0
LINE
  5
258
100
AcDbEntity
  8
SUPERFICI
100
AcDbLine
 62
250
  6
CONTINUOUS
 10
41.4694382266
 20
12.7759697285
 11
41.4694382266
 21
64.4027998537
  0
LINE
  5
259
100
AcDbEntity
  8
SUPERFICI
100
AcDbLine
 62
250
  6
CONTINUOUS
 10
41.9692668891
 20
12.2761410661
 11
41.9692668891
 21
64.9026285162
  0
LWPOLYLINE
  5
25A
100
AcDbEntity
  8
0
100
AcDbPolyline
 62
7
  6
CONTINUOUS
 90
3
 70
0
 43
0.3500000006
 10
53.5183975525
 20
74.2381216736
 10
53.4469663696
 20
74.0238371887
 10
53.3041085358
 20
73.7381305847
  0
LINE
  5
25B
100
AcDbEntity
  8
SUPERFICI
100
AcDbLine
 62
250
  6
CONTINUOUS
 10
63.0828532892
 20
64.9893847911
 11
62.9960970143
 21
64.9026285162
  0
LINE
  5
25C
100
AcDbEntity
  8
SUPERFICI
100
AcDbLine
 62
250
  6
CONTINUOUS
 10
63.5826819517
 20
64.4895561286
 11
63.4959256768
 21
64.4027998537
  0
LINE
  5
25D
100
AcDbEntity
  8
SUPERFICI
100
AcDbLine
 62
250
  6
CONTINUOUS
 10
62.9960970143
 20
12.2761410661
 11
63.0828532892
 21
12.1893847911
  0
LINE
  5
25E
100
AcDbEntity
  8
SUPERFICI
100
AcDbLine
 62
250
  6
CONTINUOUS
 10
63.4959256768
 20
12.7759697285
 11
63.5826819517
 21
12.6892134536
  0
LINE
  5
25F
100
AcDbEntity
  8
RACCORDO
100
AcDbLine
 62
250
  6
CONTINUOUS
 10
49.0748218464
 20
39.6000753544
 11
49.196375571
 21
40.2894407815
  0
LWPOLYLINE
  5
260
100
AcDbEntity
  8
0
100
AcDbPolyline
 62
7
  6
CONTINUOUS
 90
16
 70
0
 10
50.7766718589
 20
43.0510076622
 10
50.778339058
 20
43.0519171421
 10
50.7803567371
 20
43.05373765
 10
50.7823618644
 20
43.0563248862
 10
50.7843538078
 20
43.059684234
 10
50.7863331994
 20
43.0638103102
 10
50.7882906128
 20
43.0686648297
 10
50.7902255134
 20
43.0742507403
 10
50.792138436
 20
43.0805650944
 10
50.7940215581
 20
43.0875607635
 10
50.7958739605
 20
43.0952357999
 10
50.7976965624
 20
43.1035921514
 10
50.7994842999
 20
43.1125885338
 10
50.8012369289
 20
43.1222227406
 10
50.8029546935
 20
43.1324969782
 10
50.8038130718
 20
43.138060541
  0
LWPOLYLINE
  5
261
100
AcDbEntity
  8
0
100
AcDbPolyline
 62
7
  6
CONTINUOUS
 90
5
 70
0
 10
50.776671871
 20
42.5110415446
 10
50.7759325417
 20
42.5107497019
 10
50.7719179534
 20
42.5101100227
 10
50.7678947306
 20
42.5110555137
 10
50.7638628733
 20
42.5135861751
  0
LWPOLYLINE
  5
262
100
AcDbEntity
  8
0
100
AcDbPolyline
 62
7
  6
CONTINUOUS
 90
5
 70
0
 10
50.7766718617
 20
34.1277625865
 10
50.7762830553
 20
34.1278956094
 10
50.7742810112
 20
34.1281146327
 10
50.7722757812
 20
34.1275573301
 10
50.7702673654
 20
34.1262237017
  0
LWPOLYLINE
  5
263
100
AcDbEntity
  8
0
100
AcDbPolyline
 62
7
  6
CONTINUOUS
 90
21
 70
0
 10
50.7766718628
 20
34.6677262789
 10
50.7800459968
 20
34.6656918773
 10
50.784089614
 20
34.6617770256
 10
50.7881063812
 20
34.6563068872
 10
50.7920948645
 20
34.6492694071
 10
50.7960564978
 20
34.6406766402
 10
50.7999719599
 20
34.6306206618
 10
50.8038398471
 20
34.6190962996
 10
50.8076615632
 20
34.6061087258
 10
50.8114219981
 20
34.5917655321
 10
50.8151189095
 20
34.576074178
 10
50.8187545398
 20
34.559027204
 10
50.8223205056
 20
34.540709823
 10
50.8258163851
 20
34.521129312
 10
50.8292426002
 20
34.500278394
 10
50.8325920324
 20
34.4782204514
 10
50.835864908
 20
34.4549609627
 10
50.8390610006
 20
34.4304944494
 10
50.8421725133
 20
34.4048678591
 10
50.8451968471
 20
34.3780968409
 10
50.848136601
 20
34.3501657456
  0
LWPOLYLINE
  5
264
100
AcDbEntity
  8
0
100
AcDbPolyline
 62
7
  6
CONTINUOUS
 90
5
 70
0
 10
54.195096538
 20
34.1262237017
 10
54.1930777137
 20
34.1275660261
 10
54.1910601191
 20
34.128119487
 10
54.1890437544
 20
34.1278840845
 10
54.1886920445
 20
34.1277619201
  0
LINE
  5
265
100
AcDbEntity
  8
RACCORDO
100
AcDbLine
 62
250
  6
CONTINUOUS
 10
49.0748218464
 20
37.5786942279
 11
49.1963755707
 21
36.8893288007
  0
LINE
  5
266
100
AcDbEntity
  8
0
100
AcDbLine
 62
7
  6
CONTINUOUS
 10
50.9133073633
 20
44.2452495488
 11
50.950467322
 21
43.8883143919
  0
LINE
  5
267
100
AcDbEntity
  8
0
100
AcDbLine
 62
7
  6
CONTINUOUS
 10
50.9328774558
 20
33.4702308838
 11
50.950467322
 21
33.2904551903
  0
LINE
  5
268
100
AcDbEntity
  8
0
100
AcDbLine
 62
7
  6
CONTINUOUS
 10
50.8585987747
 20
33.492888737
 11
50.9133073633
 21
32.9335200335
  0
LINE
  5
269
100
AcDbEntity
  8
0
100
AcDbLine
 62
7
  6
CONTINUOUS
 10
50.848136601
 20
34.3501657456
 11
50.8804267584
 21
34.0121336135
  0
LINE
  5
26A
100
AcDbEntity
  8
0
100
AcDbLine
 62
7
  6
CONTINUOUS
 10
50.950467322
 20
43.8883143919
 11
50.9328773454
 21
43.7085386648
  0
LWPOLYLINE
  5
26B
100
AcDbEntity
  8
0
100
AcDbPolyline
 62
7
  6
CONTINUOUS
 90
22
 70
0
 10
50.8804268635
 20
43.1666360079
 10
50.8481247648
 20
42.8284743714
 10
50.8451678441
 20
42.8003968369
 10
50.8421210128
 20
42.7734624055
 10
50.8389801512
 20
42.7476406517
 10
50.835749379
 20
42.7229620009
 10
50.8324410558
 20
42.6995177299
 10
50.8290549042
 20
42.6773093966
 10
50.8255912017
 20
42.656335443
 10
50.82206314
 20
42.6366824715
 10
50.818470725
 20
42.6183539016
 10
50.8148139509
 20
42.6013463138
 10
50.8111059922
 20
42.5857360518
 10
50.8073469892
 20
42.5715260169
 10
50.8035368016
 20
42.5587133077
 10
50.7996881834
 20
42.5473655636
 10
50.7958010303
 20
42.5374841808
 10
50.7918754465
 20
42.5290677632
 10
50.7879244991
 20
42.5221797614
 10
50.7839469673
 20
42.5168224076
 10
50.7799440717
 20
42.5129934696
 10
50.776671871
 20
42.5110415446
  0
LINE
  5
26C
100
AcDbEntity
  8
0
100
AcDbLine
 62
7
  6
CONTINUOUS
 10
50.9133073633
 20
44.2452495488
 11
50.8585987167
 21
43.6858808275
  0
LINE
  5
26D
100
AcDbEntity
  8
0
100
AcDbLine
 62
7
  6
CONTINUOUS
 10
50.950467322
 20
33.2904551903
 11
50.9133073633
 21
32.9335200335
  0
LINE
  5
26E
100
AcDbEntity
  8
0
100
AcDbLine
 62
7
  6
CONTINUOUS
 10
50.6813480376
 20
34.5963757134
 11
50.4884884929
 21
34.1688647966
  0
LINE
  5
26F
100
AcDbEntity
  8
0
100
AcDbLine
 62
7
  6
CONTINUOUS
 10
54.2840158657
 20
42.5823938689
 11
54.4768754105
 21
43.0099047856
  0
LINE
  5
270
100
AcDbEntity
  8
0
100
AcDbLine
 62
7
  6
CONTINUOUS
 10
54.2540741993
 20
43.103551109
 11
54.195096538
 21
43.0525458806
  0
LINE
  5
271
100
AcDbEntity
  8
0
100
AcDbLine
 62
7
  6
CONTINUOUS
 10
54.2840158657
 20
42.5823938689
 11
54.2015010301
 21
42.5135861751
  0
LWPOLYLINE
  5
272
100
AcDbEntity
  8
0
100
AcDbPolyline
 62
7
  6
CONTINUOUS
 90
5
 70
0
 10
54.2015010301
 20
42.5135861751
 10
54.1974523762
 20
42.5110376034
 10
54.1934069501
 20
42.5101002283
 10
54.1893647516
 20
42.51077405
 10
54.1886920406
 20
42.5110433034
  0
LINE
  5
273
100
AcDbEntity
  8
RACCORDO
100
AcDbLine
 62
250
  6
CONTINUOUS
 10
49.0140090898
 20
36.816363609
 11
49.1963755707
 21
36.8893288007
  0
LWPOLYLINE
  5
274
100
AcDbEntity
  8
RACCORDO
100
AcDbPolyline
 62
250
  6
CONTINUOUS
 90
3
 70
0
 10
48.7824336564
 20
36.7256382611
 10
48.8383279238
 20
36.7473474341
 10
49.0140090898
 20
36.816363609
  0
LINE
  5
275
100
AcDbEntity
  8
RACCORDO
100
AcDbLine
 62
250
  6
CONTINUOUS
 10
49.1963755707
 20
36.8893288007
 11
51.534300832
 21
37.3015681032
  0
LINE
  5
276
100
AcDbEntity
  8
RACCORDO
100
AcDbLine
 62
7
  6
CONTINUOUS
 10
47.7950891034
 20
37.3530428172
 11
50.8368355894
 21
37.8893847911
  0
LINE
  5
277
100
AcDbEntity
  8
SMUSSO
100
AcDbLine
 62
7
  6
CONTINUOUS
 10
56.9360490831
 20
37.0893847911
 11
57.0927648391
 21
37.0893847911
  0
LINE
  5
278
100
AcDbEntity
  8
RACCORDO
100
AcDbLine
 62
7
  6
CONTINUOUS
 10
50.8368355894
 20
37.8893847911
 11
50.9262437101
 21
37.8893847911
  0
LINE
  5
279
100
AcDbEntity
  8
0
100
AcDbLine
 62
7
  6
CONTINUOUS
 10
53.9208140021
 20
37.8893847911
 11
55.4826819517
 21
37.8893847911
  0
LINE
  5
27A
100
AcDbEntity
  8
0
100
AcDbLine
 62
7
  6
CONTINUOUS
 10
54.0756351839
 20
38.4393847911
 11
53.4713679484
 21
38.4393847911
  0
LINE
  5
27B
100
AcDbEntity
  8
0
100
AcDbLine
 62
7
  6
CONTINUOUS
 10
51.493995955
 20
38.4393847911
 11
50.8897287195
 21
38.4393847911
  0
LINE
  5
27C
100
AcDbEntity
  8
0
100
AcDbLine
 62
7
  6
CONTINUOUS
 10
50.8897287195
 20
38.7393847911
 11
51.493995955
 21
38.7393847911
  0
LINE
  5
27D
100
AcDbEntity
  8
0
100
AcDbLine
 62
7
  6
CONTINUOUS
 10
53.4713679484
 20
38.7393847911
 11
54.0756351839
 21
38.7393847911
  0
LINE
  5
27E
100
AcDbEntity
  8
RACCORDO
100
AcDbLine
 62
250
  6
CONTINUOUS
 10
48.9543664158
 20
40.3859839938
 11
48.7824336559
 21
40.45313132
  0
LWPOLYLINE
  5
27F
100
AcDbEntity
  8
RACCORDO
100
AcDbPolyline
 62
250
  6
CONTINUOUS
 90
3
 70
0
 10
49.1963755707
 20
40.2894407815
 10
49.1352631856
 20
40.314006654
 10
48.9543664158
 20
40.3859839938
  0
LINE
  5
280
100
AcDbEntity
  8
0
100
AcDbLine
 62
7
  6
CONTINUOUS
 10
54.2015010301
 20
34.6651834072
 11
54.2840158657
 21
34.5963757134
  0
LINE
  5
281
100
AcDbEntity
  8
0
100
AcDbLine
 62
7
  6
CONTINUOUS
 10
54.195096538
 20
34.1262237017
 11
54.2540741981
 21
34.0752184728
  0
LINE
  5
282
100
AcDbEntity
  8
0
100
AcDbLine
 62
7
  6
CONTINUOUS
 10
54.2840158657
 20
34.5963757134
 11
54.4768754105
 21
34.1688647966
  0
LINE
  5
283
100
AcDbEntity
  8
0
100
AcDbLine
 62
7
  6
CONTINUOUS
 10
50.6813480376
 20
42.5823938689
 11
50.4884884929
 21
43.0099047856
  0
LWPOLYLINE
  5
284
100
AcDbEntity
  8
0
100
AcDbPolyline
 62
7
  6
CONTINUOUS
 90
16
 70
0
 10
50.8038128931
 20
34.0407091079
 10
50.8028614888
 20
34.046850201
 10
50.8011265002
 20
34.0571755775
 10
50.7993591157
 20
34.0668379445
 10
50.7975592664
 20
34.0758350445
 10
50.7957270212
 20
34.0841691349
 10
50.7938695309
 20
34.0918036224
 10
50.7919869078
 20
34.0987361282
 10
50.7900790396
 20
34.1049690311
 10
50.7881527406
 20
34.1104728739
 10
50.7862080032
 20
34.1152463986
 10
50.7842448349
 20
34.1192908632
 10
50.7822700723
 20
34.1225805849
 10
50.7802831915
 20
34.1251141969
 10
50.7782847164
 20
34.1268930661
 10
50.7766718617
 20
34.1277625865
  0
LINE
  5
285
100
AcDbEntity
  8
0
100
AcDbLine
 62
7
  6
CONTINUOUS
 10
54.0520565401
 20
32.9335200335
 11
54.0148965814
 21
33.2904551903
  0
LINE
  5
286
100
AcDbEntity
  8
0
100
AcDbLine
 62
7
  6
CONTINUOUS
 10
54.0324864476
 20
43.7085386985
 11
54.0148965814
 21
43.8883143919
  0
LINE
  5
287
100
AcDbEntity
  8
0
100
AcDbLine
 62
7
  6
CONTINUOUS
 10
54.1067651287
 20
43.6858808452
 11
54.0520565401
 21
44.2452495488
  0
LINE
  5
288
100
AcDbEntity
  8
0
100
AcDbLine
 62
7
  6
CONTINUOUS
 10
54.1172273024
 20
42.8286038366
 11
54.084937145
 21
43.1666359687
  0
LINE
  5
289
100
AcDbEntity
  8
0
100
AcDbLine
 62
7
  6
CONTINUOUS
 10
54.7326819517
 20
34.4629456482
 11
54.7326819517
 21
34.2948615674
  0
LINE
  5
28A
100
AcDbEntity
  8
0
100
AcDbLine
 62
7
  6
CONTINUOUS
 10
54.7326819517
 20
42.715823934
 11
54.7326819517
 21
42.8839080148
  0
LINE
  5
28B
100
AcDbEntity
  8
0
100
AcDbLine
 62
7
  6
CONTINUOUS
 10
54.9826819517
 20
42.7433201923
 11
54.9826819517
 21
42.5680635708
  0
LINE
  5
28C
100
AcDbEntity
  8
RACCORDO
100
AcDbLine
 62
7
  6
CONTINUOUS
 10
54.9826819517
 20
34.4354493899
 11
54.9826819517
 21
34.6107060154
  0
LINE
  5
28D
100
AcDbEntity
  8
0
100
AcDbLine
 62
7
  6
CONTINUOUS
 10
55.2326819517
 20
34.778075112
 11
55.2326819517
 21
34.5968162963
  0
LINE
  5
28E
100
AcDbEntity
  8
SUPERFICI
100
AcDbLine
 62
7
  6
CONTINUOUS
 10
55.2326819517
 20
34.778075112
 11
55.2326819517
 21
34.5968162963
  0
LINE
  5
28F
100
AcDbEntity
  8
VARIANTE_COLORE
100
AcDbLine
 62
7
  6
CONTINUOUS
 10
55.2326819517
 20
34.778075112
 11
55.2326819517
 21
34.5968162963
  0
LINE
  5
290
100
AcDbEntity
  8
0
100
AcDbLine
 62
7
  6
CONTINUOUS
 10
54.0148965814
 20
33.2904551903
 11
54.032486558
 21
33.4702309175
  0
LWPOLYLINE
  5
291
100
AcDbEntity
  8
0
100
AcDbPolyline
 62
7
  6
CONTINUOUS
 90
22
 70
0
 10
54.0849370399
 20
34.0121335743
 10
54.1172391386
 20
34.3502952109
 10
54.1201960593
 20
34.3783727453
 10
54.1232428905
 20
34.4053071767
 10
54.1263837522
 20
34.4311289306
 10
54.1296145244
 20
34.4558075813
 10
54.1329228476
 20
34.4792518524
 10
54.1363089992
 20
34.5014601857
 10
54.1397727017
 20
34.5224341392
 10
54.1433007634
 20
34.5420871108
 10
54.1468931784
 20
34.5604156806
 10
54.1505499525
 20
34.5774232684
 10
54.1542579111
 20
34.5930335305
 10
54.1580169142
 20
34.6072435654
 10
54.1618271018
 20
34.6200562746
 10
54.16567572
 20
34.6314040187
 10
54.1695628731
 20
34.6412854014
 10
54.1734884569
 20
34.649701819
 10
54.1774394043
 20
34.6565898208
 10
54.1814169361
 20
34.6619471747
 10
54.1854198317
 20
34.6657761126
 10
54.1886920324
 20
34.6677280377
  0
LINE
  5
292
100
AcDbEntity
  8
0
100
AcDbLine
 62
7
  6
CONTINUOUS
 10
54.0520565401
 20
32.9335200335
 11
54.1067651867
 21
33.4928887547
  0
LINE
  5
293
100
AcDbEntity
  8
0
100
AcDbLine
 62
7
  6
CONTINUOUS
 10
54.0148965814
 20
43.8883143919
 11
54.0520565401
 21
44.2452495488
  0
LINE
  5
294
100
AcDbEntity
  8
0
100
AcDbLine
 62
7
  6
CONTINUOUS
 10
50.7112897041
 20
34.0752184732
 11
50.7702673654
 21
34.1262237017
  0
LINE
  5
295
100
AcDbEntity
  8
0
100
AcDbLine
 62
7
  6
CONTINUOUS
 10
50.6813480376
 20
34.5963757134
 11
50.7638628733
 21
34.6651834072
  0
LWPOLYLINE
  5
296
100
AcDbEntity
  8
0
100
AcDbPolyline
 62
7
  6
CONTINUOUS
 90
5
 70
0
 10
50.7638628733
 20
34.6651834072
 10
50.7679115272
 20
34.6677319789
 10
50.7719569533
 20
34.6686693539
 10
50.7759991518
 20
34.6679955323
 10
50.7766718628
 20
34.6677262789
  0
LINE
  5
297
100
AcDbEntity
  8
RACCORDO
100
AcDbLine
 62
250
  6
CONTINUOUS
 10
48.6262100402
 20
36.6656168194
 11
48.7824336564
 21
36.7256382611
  0
LINE
  5
298
100
AcDbEntity
  8
RACCORDO
100
AcDbLine
 62
250
  6
CONTINUOUS
 10
48.4529027128
 20
36.6000732295
 11
48.6262100402
 21
36.6656168194
  0
LINE
  5
299
100
AcDbEntity
  8
RACCORDO
100
AcDbLine
 62
250
  6
CONTINUOUS
 10
48.2908596087
 20
36.5397253689
 11
48.4529027128
 21
36.6000732295
  0
LINE
  5
29A
100
AcDbEntity
  8
RACCORDO
100
AcDbLine
 62
250
  6
CONTINUOUS
 10
48.2588954751
 20
36.527922252
 11
48.2908596087
 21
36.5397253689
  0
LINE
  5
29B
100
AcDbEntity
  8
0
100
AcDbLine
 62
7
  6
CONTINUOUS
 10
55.4826819517
 20
39.2893847911
 11
53.9208140021
 21
39.2893847911
  0
LINE
  5
29C
100
AcDbEntity
  8
RACCORDO
100
AcDbLine
 62
7
  6
CONTINUOUS
 10
50.9262437101
 20
39.2893847911
 11
50.8368355894
 21
39.2893847911
  0
LINE
  5
29D
100
AcDbEntity
  8
SMUSSO
100
AcDbLine
 62
7
  6
CONTINUOUS
 10
57.0927648391
 20
40.0893847911
 11
56.9360490783
 21
40.0893847911
  0
LWPOLYLINE
  5
29E
100
AcDbEntity
  8
0
100
AcDbPolyline
 62
7
  6
CONTINUOUS
 90
4
 70
0
 43
0.3500000006
 10
74.1603869934
 20
40.5179582062
 10
73.3032445221
 20
40.5179582062
 10
72.8746755524
 20
40.9465271759
 10
72.8746755524
 20
41.5893851624
  0
LINE
  5
29F
100
AcDbEntity
  8
SMUSSO
100
AcDbLine
 62
7
  6
CONTINUOUS
 10
56.6366173529
 20
41.0893847911
 11
56.4608252225
 21
41.0893847911
  0
LINE
  5
2A0
100
AcDbEntity
  8
RACCORDO
100
AcDbLine
 62
7
  6
CONTINUOUS
 10
50.8368355894
 20
39.2893847911
 11
47.7950891034
 21
39.8257267651
  0
LINE
  5
2A1
100
AcDbEntity
  8
RACCORDO
100
AcDbLine
 62
250
  6
CONTINUOUS
 10
51.534300832
 20
39.8772014791
 11
49.1963755707
 21
40.2894407815
  0
LINE
  5
2A2
100
AcDbEntity
  8
RACCORDO
100
AcDbLine
 62
250
  6
CONTINUOUS
 10
48.3556642683
 20
40.6150140763
 11
48.2588954751
 21
40.6508473302
  0
LINE
  5
2A3
100
AcDbEntity
  8
RACCORDO
100
AcDbLine
 62
250
  6
CONTINUOUS
 10
48.4918911019
 20
40.5640496502
 11
48.3556642683
 21
40.6150140763
  0
LINE
  5
2A4
100
AcDbEntity
  8
RACCORDO
100
AcDbLine
 62
250
  6
CONTINUOUS
 10
48.6761260106
 20
40.4940647591
 11
48.4918911019
 21
40.5640496502
  0
LINE
  5
2A5
100
AcDbEntity
  8
RACCORDO
100
AcDbLine
 62
250
  6
CONTINUOUS
 10
48.7824336559
 20
40.45313132
 11
48.6761260106
 21
40.4940647591
  0
LWPOLYLINE
  5
2A6
100
AcDbEntity
  8
0
100
AcDbPolyline
 62
7
  6
CONTINUOUS
 90
5
 70
0
 10
50.7702673654
 20
43.0525458806
 10
50.7722861897
 20
43.0512035561
 10
50.7743037843
 20
43.0506500952
 10
50.776320149
 20
43.0508854977
 10
50.7766718589
 20
43.0510076622
  0
LINE
  5
2A7
100
AcDbEntity
  8
0
100
AcDbLine
 62
7
  6
CONTINUOUS
 10
50.7638628733
 20
42.5135861751
 11
50.6813480376
 21
42.5823938689
  0
LINE
  5
2A8
100
AcDbEntity
  8
0
100
AcDbLine
 62
7
  6
CONTINUOUS
 10
50.7702673654
 20
43.0525458806
 11
50.7112897053
 21
43.1035511095
  0
LWPOLYLINE
  5
2A9
100
AcDbEntity
  8
0
100
AcDbPolyline
 62
7
  6
CONTINUOUS
 90
16
 70
0
 10
54.1615510103
 20
43.1380604744
 10
54.1625024146
 20
43.1319193813
 10
54.1642374032
 20
43.1215940047
 10
54.1660047877
 20
43.1119316378
 10
54.167804637
 20
43.1029345377
 10
54.1696368822
 20
43.0946004473
 10
54.1714943725
 20
43.0869659599
 10
54.1733769956
 20
43.080033454
 10
54.1752848638
 20
43.0738005511
 10
54.1772111628
 20
43.0682967083
 10
54.1791559002
 20
43.0635231836
 10
54.1811190685
 20
43.059478719
 10
54.1830938311
 20
43.0561889974
 10
54.1850807119
 20
43.0536553853
 10
54.187079187
 20
43.0518765161
 10
54.1886920417
 20
43.0510069958
  0
LWPOLYLINE
  5
2AA
100
AcDbEntity
  8
0
100
AcDbPolyline
 62
7
  6
CONTINUOUS
 90
16
 70
0
 10
54.1886920445
 20
34.1277619201
 10
54.1870248454
 20
34.1268524401
 10
54.1850071663
 20
34.1250319322
 10
54.183002039
 20
34.122444696
 10
54.1810100956
 20
34.1190853482
 10
54.179030704
 20
34.1149592721
 10
54.1770732906
 20
34.1101047526
 10
54.17513839
 20
34.1045188419
 10
54.1732254674
 20
34.0982044879
 10
54.1713423453
 20
34.0912088187
 10
54.1694899429
 20
34.0835337823
 10
54.167667341
 20
34.0751774308
 10
54.1658796035
 20
34.0661810484
 10
54.1641269745
 20
34.0565468417
 10
54.1624092099
 20
34.046272604
 10
54.1615508316
 20
34.0407090412
  0
LWPOLYLINE
  5
2AB
100
AcDbEntity
  8
0
100
AcDbPolyline
 62
7
  6
CONTINUOUS
 90
5
 70
0
 10
54.1886920324
 20
34.6677280377
 10
54.1894313617
 20
34.6680198803
 10
54.19344595
 20
34.6686595596
 10
54.1974691728
 20
34.6677140685
 10
54.2015010301
 20
34.6651834072
  0
LWPOLYLINE
  5
2AC
100
AcDbEntity
  8
0
100
AcDbPolyline
 62
7
  6
CONTINUOUS
 90
5
 70
0
 10
54.1886920417
 20
43.0510069958
 10
54.1890808481
 20
43.0508739728
 10
54.1910828922
 20
43.0506549496
 10
54.1930881221
 20
43.0512122522
 10
54.195096538
 20
43.0525458806
  0
LWPOLYLINE
  5
2AD
100
AcDbEntity
  8
0
100
AcDbPolyline
 62
7
  6
CONTINUOUS
 90
21
 70
0
 10
54.1886920406
 20
42.5110433034
 10
54.1853179066
 20
42.513077705
 10
54.1812742894
 20
42.5169925567
 10
54.1772575222
 20
42.522462695
 10
54.1732690389
 20
42.5295001752
 10
54.1693074056
 20
42.538092942
 10
54.1653919435
 20
42.5481489205
 10
54.1615240563
 20
42.5596732827
 10
54.1577023402
 20
42.5726608565
 10
54.1539419053
 20
42.5870040502
 10
54.1502449939
 20
42.6026954042
 10
54.1466093636
 20
42.6197423782
 10
54.1430433978
 20
42.6380597592
 10
54.1395475182
 20
42.6576402703
 10
54.1361213032
 20
42.6784911883
 10
54.132771871
 20
42.7005491308
 10
54.1294989954
 20
42.7238086196
 10
54.1263029028
 20
42.7482751328
 10
54.1231913901
 20
42.7739017232
 10
54.1201670563
 20
42.8006727414
 10
54.1172273024
 20
42.8286038366
  0
LWPOLYLINE
  5
2AE
100
AcDbEntity
  8
0
100
AcDbPolyline
 62
7
  6
CONTINUOUS
 90
10
 70
0
 43
0.3500000006
 10
74.0889603424
 20
39.4465267181
 10
74.2318181763
 20
39.517957901
 10
74.3032448273
 20
39.517957901
 10
74.4461026611
 20
39.3751000671
 10
74.4461026611
 20
39.3036688843
 10
74.3746714783
 20
39.2322422333
 10
74.3032448273
 20
39.2322422333
 10
74.1603869934
 20
39.3036688843
 10
74.0889603424
 20
39.3751000671
 10
74.0889603424
 20
39.4465267181
  0
LWPOLYLINE
  5
2AF
100
AcDbEntity
  8
0
100
AcDbPolyline
 62
7
  6
CONTINUOUS
 90
3
 70
0
 43
0.3500000006
 10
74.3032448273
 20
39.517957901
 10
74.5175293121
 20
39.4465267181
 10
74.8032449799
 20
39.3036688843
  0
LINE
  5
2B0
100
AcDbEntity
  8
SUPERFICI
100
AcDbLine
 62
250
  6
CONTINUOUS
 10
62.9960970143
 20
64.9026285162
 11
62.9960970143
 21
12.2761410661
  0
LINE
  5
2B1
100
AcDbEntity
  8
SUPERFICI
100
AcDbLine
 62
250
  6
CONTINUOUS
 10
63.4959256768
 20
64.4027998537
 11
63.4959256768
 21
12.7759697285
  0
LINE
  5
2B2
100
AcDbEntity
  8
RACCORDO
100
AcDbLine
 62
7
  6
CONTINUOUS
 10
63.5826819517
 20
56.2458424428
 11
63.5826819517
 21
20.9329271394
  0
LINE
  5
2B3
100
AcDbEntity
  8
SUPERFICI
100
AcDbLine
 62
7
  6
CONTINUOUS
 10
63.5826819517
 20
12.6892134536
 11
63.5826819517
 21
64.4895561286
  0
LINE
  5
2B4
100
AcDbEntity
  8
SUPERFICI
100
AcDbLine
 62
250
  6
CONTINUOUS
 10
41.3826819517
 20
12.6892134536
 11
41.4694382266
 21
12.7759697285
  0
LINE
  5
2B5
100
AcDbEntity
  8
SUPERFICI
100
AcDbLine
 62
250
  6
CONTINUOUS
 10
41.8825106142
 20
12.1893847911
 11
41.9692668891
 21
12.2761410661
  0
LINE
  5
2B6
100
AcDbEntity
  8
SUPERFICI
100
AcDbLine
 62
250
  6
CONTINUOUS
 10
41.4694382266
 20
64.4027998537
 11
41.3826819517
 21
64.4895561286
  0
LINE
  5
2B7
100
AcDbEntity
  8
SUPERFICI
100
AcDbLine
 62
250
  6
CONTINUOUS
 10
41.9692668891
 20
64.9026285162
 11
41.8825106142
 21
64.9893847911
  0
LWPOLYLINE
  5
2B8
100
AcDbEntity
  8
SUPERFICI
100
AcDbPolyline
 62
250
  6
CONTINUOUS
 90
16
 70
0
 10
63.4959256768
 20
64.4027998537
 10
63.4931373417
 20
64.4551823226
 10
63.48487487
 20
64.5069877083
 10
63.471229313
 20
64.5576454624
 10
63.4523485174
 20
64.6066032497
 10
63.4284417962
 20
64.6533158158
 10
63.3997833303
 20
64.6972538348
 10
63.3667012729
 20
64.737928133
 10
63.3295580048
 20
64.7749052268
 10
63.2887521586
 20
64.8077927257
 10
63.2446683697
 20
64.8362664719
 10
63.1978475931
 20
64.859963931
 10
63.1490007796
 20
64.8785618055
 10
63.0987515411
 20
64.8919030439
 10
63.0475973631
 20
64.899932953
 10
62.9960970141
 20
64.902628516
  0
LWPOLYLINE
  5
2B9
100
AcDbEntity
  8
SUPERFICI
100
AcDbPolyline
 62
250
  6
CONTINUOUS
 90
16
 70
0
 10
63.4959256768
 20
12.7759697285
 10
63.4931377123
 20
12.7235907535
 10
63.4848763029
 20
12.6717885758
 10
63.4712324228
 20
12.6211336447
 10
63.4523537332
 20
12.5721779952
 10
63.4284495004
 20
12.5254670525
 10
63.3997942205
 20
12.4815306717
 10
63.3667168414
 20
12.4408586642
 10
63.3295792129
 20
12.4038833649
 10
63.2887778809
 20
12.3709954536
 10
63.2446963777
 20
12.3425191856
 10
63.1978757984
 20
12.3188181152
 10
63.1490264065
 20
12.3002160294
 10
63.0987715072
 20
12.2868707423
 10
63.0476087309
 20
12.2788378146
 10
62.9960970143
 20
12.2761410661
  0
LWPOLYLINE
  5
2BA
100
AcDbEntity
  8
0
100
AcDbPolyline
 62
7
  6
CONTINUOUS
 90
13
 70
0
 43
0.3500000006
 10
72.8746755524
 20
40.9465271759
 10
72.6603865356
 20
40.6608115082
 10
72.0175330811
 20
40.6608115082
 10
71.5889595795
 20
40.9465271759
 10
71.5889595795
 20
41.5893851624
 10
72.0175330811
 20
41.8751008301
 10
72.6603865356
 20
41.8751008301
 10
72.8746755524
 20
41.5893851624
 10
73.3032445221
 20
42.0179541321
 10
74.1603869934
 20
42.0179541321
 10
74.588960495
 20
41.5893851624
 10
74.588960495
 20
40.9465271759
 10
74.1603869934
 20
40.5179582062
  0
LWPOLYLINE
  5
2BB
100
AcDbEntity
  8
0
100
AcDbPolyline
 62
7
  6
CONTINUOUS
 90
10
 70
0
 43
0.3500000006
 10
53.4469663696
 20
74.4524152222
 10
53.5183975525
 20
74.3095528564
 10
53.5183975525
 20
74.2381216736
 10
53.3755397186
 20
74.0952683716
 10
53.3041085358
 20
74.0952683716
 10
53.2326818848
 20
74.1666995544
 10
53.2326818848
 20
74.2381216736
 10
53.3041085358
 20
74.3809840393
 10
53.3755397186
 20
74.4524152222
 10
53.4469663696
 20
74.4524152222
  0
LWPOLYLINE
  5
2BC
100
AcDbEntity
  8
0
100
AcDbPolyline
 62
7
  6
CONTINUOUS
 90
7
 70
0
 43
0.3500000006
 10
74.588960495
 20
37.9465262604
 10
74.588960495
 20
36.4465258026
 10
72.4461020508
 20
37.9465262604
 10
72.0175330811
 20
37.9465262604
 10
71.5889595795
 20
37.5179572906
 10
71.5889595795
 20
36.8750993042
 10
72.2318175659
 20
36.4465258026
  0
LWPOLYLINE
  5
2BD
100
AcDbEntity
  8
0
100
AcDbPolyline
 62
7
  6
CONTINUOUS
 90
8
 70
0
 43
0.3500000006
 10
74.588960495
 20
34.3036718903
 10
74.588960495
 20
35.1608143616
 10
74.1603869934
 20
35.5893833313
 10
73.3032445221
 20
35.5893833313
 10
72.8746755524
 20
35.1608143616
 10
72.8746755524
 20
34.3036718903
 10
71.5889595795
 20
34.3036718903
 10
71.5889595795
 20
35.5893833313
  0
LINE
  5
2BE
100
AcDbEntity
  8
SUPERFICI
100
AcDbLine
 62
7
  6
CONTINUOUS
 10
55.9925222643
 20
64.9893847911
 11
55.7326819517
 21
64.9639913276
  0
LINE
  5
2BF
100
AcDbEntity
  8
SUPERFICI
100
AcDbLine
 62
250
  6
CONTINUOUS
 10
41.4694382266
 20
64.4027998537
 11
63.4959256768
 21
64.4027998537
  0
LINE
  5
2C0
100
AcDbEntity
  8
SUPERFICI
100
AcDbLine
 62
250
  6
CONTINUOUS
 10
62.9960970143
 20
64.9026285162
 11
41.9692668891
 21
64.9026285162
  0
LINE
  5
2C1
100
AcDbEntity
  8
SUPERFICI
100
AcDbLine
 62
7
  6
CONTINUOUS
 10
49.2326819517
 20
64.9639913276
 11
55.7326819517
 21
64.9639913276
  0
LINE
  5
2C2
100
AcDbEntity
  8
SUPERFICI
100
AcDbLine
 62
7
  6
CONTINUOUS
 10
63.0828532892
 20
64.9893847911
 11
55.9925222643
 21
64.9893847911
  0
LINE
  5
2C3
100
AcDbEntity
  8
SUPERFICI
100
AcDbLine
 62
7
  6
CONTINUOUS
 10
48.9728416391
 20
64.9893847911
 11
41.8825106142
 21
64.9893847911
  0
LINE
  5
2C4
100
AcDbEntity
  8
SUPERFICI
100
AcDbLine
 62
7
  6
CONTINUOUS
 10
48.9728416391
 20
64.9893847911
 11
49.2326819517
 21
64.9639913276
  0
LWPOLYLINE
  5
2C5
100
AcDbEntity
  8
0
100
AcDbPolyline
 62
7
  6
CONTINUOUS
 90
7
 70
0
 43
0.3500000006
 10
56.0183983154
 20
73.9524150696
 10
54.5183978577
 20
73.9524150696
 10
56.0183983154
 20
76.0952689819
 10
56.0183983154
 20
76.5238379517
 10
55.5898248138
 20
76.9524159851
 10
54.9469668274
 20
76.9524159851
 10
54.5183978577
 20
76.3095534668
  0
LWPOLYLINE
  5
2C6
100
AcDbEntity
  8
0
100
AcDbPolyline
 62
7
  6
CONTINUOUS
 90
7
 70
0
 43
0.3500000006
 10
51.9469659119
 20
73.9524150696
 10
50.4469654541
 20
73.9524150696
 10
51.9469659119
 20
76.0952689819
 10
51.9469659119
 20
76.5238379517
 10
51.5183969421
 20
76.9524159851
 10
50.8755389557
 20
76.9524159851
 10
50.4469654541
 20
76.3095534668
  0
LWPOLYLINE
  5
2C7
100
AcDbEntity
  8
0
100
AcDbPolyline
 62
7
  6
CONTINUOUS
 90
7
 70
0
 43
0.3500000006
 10
49.5898229828
 20
73.9524150696
 10
48.0898270569
 20
73.9524150696
 10
49.5898229828
 20
76.0952689819
 10
49.5898229828
 20
76.5238379517
 10
49.1612540131
 20
76.9524159851
 10
48.5183960266
 20
76.9524159851
 10
48.0898270569
 20
76.3095534668
  0
LWPOLYLINE
  5
2C8
100
AcDbEntity
  8
0
100
AcDbPolyline
 62
7
  6
CONTINUOUS
 90
5
 70
0
 43
0.3500000006
 10
6.0943596954
 20
85.6666940002
 10
6.4515020142
 20
85.8809875488
 10
6.4515020142
 20
86.5238410034
 10
6.0943596954
 20
86.9524099731
 10
5.2372166576
 20
86.9524099731
  0
LWPOLYLINE
  5
2C9
100
AcDbEntity
  8
0
100
AcDbPolyline
 62
7
  6
CONTINUOUS
 90
5
 70
0
 43
0.3500000006
 10
9.265787859
 20
75.6667000122
 10
9.6229307442
 20
75.8809844971
 10
9.6229307442
 20
76.5238379517
 10
9.265787859
 20
76.9524159851
 10
8.4086453876
 20
76.9524159851
  0
LINE
  5
2CA
100
AcDbEntity
  8
ASSI
100
AcDbLine
 62
250
  6
CONTINUOUS
 10
-2.7103865498
 20
61.7204412348
 11
-2.2735786767
 21
61.8794262988
  0
LINE
  5
2CB
100
AcDbEntity
  8
SUPERFICI
100
AcDbLine
 62
7
  6
CONTINUOUS
 10
-8.8901576321
 20
12.2761410661
 11
-5.577069158
 21
12.1893847911
  0
LINE
  5
2CC
100
AcDbEntity
  8
SUPERFICI
100
AcDbLine
 62
250
  6
CONTINUOUS
 10
-8.8901576321
 20
12.7759697285
 11
-5.577069158
 21
12.6892134536
  0
LWPOLYLINE
  5
2CD
100
AcDbEntity
  8
ASSI
100
AcDbPolyline
 62
250
  6
CONTINUOUS
 90
16
 70
0
 10
-4.9270440743
 20
14.2219562974
 10
-4.9073431268
 20
14.2168299787
 10
-4.8878843976
 20
14.2119392414
 10
-4.8688711347
 20
14.2073351699
 10
-4.8505010286
 20
14.2030656491
 10
-4.8329669477
 20
14.1991755194
 10
-4.8164544669
 20
14.1957059091
 10
-4.8011370332
 20
14.1926931389
 10
-4.7871722058
 20
14.1901680651
 10
-4.7747032334
 20
14.188156537
 10
-4.763852805
 20
14.1866786565
 10
-4.7547442189
 20
14.185751573
 10
-4.7474858564
 20
14.1853851626
 10
-4.742144687
 20
14.1855794243
 10
-4.7387583134
 20
14.1863284183
 10
-4.7373493903
 20
14.1876209821
  0
LINE
  5
2CE
100
AcDbEntity
  8
ASSI
100
AcDbLine
 62
250
  6
CONTINUOUS
 10
-2.710386734
 20
15.4583284144
 11
-2.2735786767
 21
15.2993432835
  0
LINE
  5
2CF
100
AcDbEntity
  8
RACCORDO
100
AcDbLine
 62
7
  6
CONTINUOUS
 10
-4.7921793008
 20
57.8040761995
 11
-4.077069158
 21
58.4870763755
  0
LINE
  5
2D0
100
AcDbEntity
  8
ASSI
100
AcDbLine
 62
7
  6
CONTINUOUS
 10
-2.6454731866
 20
61.5325026437
 11
-2.2086651293
 21
61.6914877746
  0
LWPOLYLINE
  5
2D1
100
AcDbEntity
  8
ASSI
100
AcDbPolyline
 62
250
  6
CONTINUOUS
 90
10
 70
0
 10
2.0111305744
 20
61.753307319
 10
1.9893016223
 20
61.7457999548
 10
1.9678134957
 20
61.7386283422
 10
1.9469555266
 20
61.7318890449
 10
1.9270085619
 20
61.7256728053
 10
1.9082411934
 20
61.7200633284
 10
1.890906139
 20
61.7151361533
 10
1.8752368228
 20
61.7109576281
 10
1.8614442356
 20
61.7075840186
 10
1.8497141029
 20
61.7050607552
  0
LWPOLYLINE
  5
2D2
100
AcDbEntity
  8
ASSI
100
AcDbPolyline
 62
250
  6
CONTINUOUS
 90
16
 70
0
 10
-1.084426008
 20
14.0219562974
 10
-1.0736109327
 20
14.0222036744
 10
-1.0631308907
 20
14.022754347
 10
-1.0529858821
 20
14.0236083152
 10
-1.0431738789
 20
14.0247947079
 10
-1.0336969091
 20
14.0262843963
 10
-1.0245610564
 20
14.027989994
 10
-1.0157685479
 20
14.0299083332
 10
-1.0073171565
 20
14.0320425817
 10
-0.9992062853
 20
14.0343148559
 10
-0.9914375965
 20
14.0367224287
 10
-0.984009428
 20
14.0392680271
 10
-0.9769161954
 20
14.0418819498
 10
-0.9701560374
 20
14.0445409628
 10
-0.9637308154
 20
14.0472683
 10
-0.9576405295
 20
14.0500639613
  0
LINE
  5
2D3
100
AcDbEntity
  8
ASSI
100
AcDbLine
 62
7
  6
CONTINUOUS
 10
-2.2735786767
 20
14.647047432
 11
-5.577069158
 21
14.5893847911
  0
LINE
  5
2D4
100
AcDbEntity
  8
SUPERFICI
100
AcDbLine
 62
250
  6
CONTINUOUS
 10
-8.8901576321
 20
12.7759697285
 11
-9.377069158
 21
12.7759697285
  0
LINE
  5
2D5
100
AcDbEntity
  8
ASSI
100
AcDbLine
 62
7
  6
CONTINUOUS
 10
-1.2842488349
 20
13.8393847911
 11
-1.0879164893
 21
13.8393847911
  0
LINE
  5
2D6
100
AcDbEntity
  8
ASSI
100
AcDbLine
 62
250
  6
CONTINUOUS
 10
-1.2807583536
 20
14.0219562974
 11
-1.084426008
 21
14.0219562974
  0
LINE
  5
2D7
100
AcDbEntity
  8
ASSI
100
AcDbLine
 62
7
  6
CONTINUOUS
 10
-5.577069158
 20
14.0393847911
 11
-4.9305345556
 21
14.0393847911
  0
LINE
  5
2D8
100
AcDbEntity
  8
ASSI
100
AcDbLine
 62
250
  6
CONTINUOUS
 10
-5.577069158
 20
14.2219562974
 11
-4.9270440743
 21
14.2219562974
  0
LINE
  5
2D9
100
AcDbEntity
  8
ASSI
100
AcDbLine
 62
250
  6
CONTINUOUS
 10
-2.077069158
 20
14.847016971
 11
-2.2735786767
 21
14.847016971
  0
LWPOLYLINE
  5
2DA
100
AcDbEntity
  8
ASSI
100
AcDbPolyline
 62
250
  6
CONTINUOUS
 90
13
 70
0
 10
-2.077069158
 20
15.0213832084
 10
-2.0543484625
 20
15.0202963058
 10
-2.020591819
 20
15.0159523925
 10
-1.9877791235
 20
15.0089245575
 10
-1.9559434579
 20
14.9992874512
 10
-1.9250517404
 20
14.9869664233
 10
-1.8950047256
 20
14.9717375227
 10
-1.8653850612
 20
14.953411107
 10
-1.8366100995
 20
14.9321768187
 10
-1.8098326525
 20
14.9083796339
 10
-1.7854369906
 20
14.8821345447
 10
-1.7630388434
 20
14.8533265591
 10
-1.7426382108
 20
14.821955677
  0
LWPOLYLINE
  5
2DB
100
AcDbEntity
  8
ASSI
100
AcDbPolyline
 62
250
  6
CONTINUOUS
 90
10
 70
0
 10
2.0111284918
 20
15.4254588568
 10
1.9892993325
 20
15.4329664561
 10
1.9678111293
 20
15.4401382978
 10
1.9469532118
 20
15.4468778129
 10
1.9270064215
 20
15.4530942494
 10
1.9082393264
 20
15.4587039108
 10
1.8909046063
 20
15.463631279
 10
1.8752356558
 20
15.4678100113
 10
1.8614434418
 20
15.471183838
 10
1.8497136595
 20
15.473707334
  0
LINE
  5
2DC
100
AcDbEntity
  8
ASSI
100
AcDbLine
 62
7
  6
CONTINUOUS
 10
-2.6454731866
 20
15.6462669386
 11
-2.2086651293
 21
15.4872818076
  0
LINE
  5
2DD
100
AcDbEntity
  8
RACCORDO
100
AcDbLine
 62
7
  6
CONTINUOUS
 10
-4.077069158
 20
18.6916932067
 11
-4.7921793008
 21
19.3746933827
  0
LINE
  5
2DE
100
AcDbEntity
  8
ASSI
100
AcDbLine
 62
7
  6
CONTINUOUS
 10
-1.4574539157
 20
63.2393847911
 11
-1.919334131
 21
62.4393847911
  0
LINE
  5
2DF
100
AcDbEntity
  8
ASSI
100
AcDbLine
 62
250
  6
CONTINUOUS
 10
-1.2807583536
 20
63.1568132848
 11
-1.742638569
 21
62.3568132848
  0
LWPOLYLINE
  5
2E0
100
AcDbEntity
  8
ASSI
100
AcDbPolyline
 62
250
  6
CONTINUOUS
 90
16
 70
0
 10
-1.742638569
 20
62.3568132848
 10
-1.7593341073
 20
62.330854846
 10
-1.7770698869
 20
62.3068254226
 10
-1.7958459075
 20
62.2847250145
 10
-1.8158246839
 20
62.2645929084
 10
-1.8368437014
 20
62.2463898176
 10
-1.8584154167
 20
62.2299978827
 10
-1.8802890276
 20
62.2154811114
 10
-1.9027153364
 20
62.202775496
 10
-1.9259592059
 20
62.191571154
 10
-1.9498893759
 20
62.1817069691
 10
-1.9746371068
 20
62.1733440576
 10
-2.0008610432
 20
62.1666558868
 10
-2.0287807334
 20
62.1617002789
 10
-2.0581766292
 20
62.1584194116
 10
-2.077069158
 20
62.1574365243
  0
LWPOLYLINE
  5
2E1
100
AcDbEntity
  8
ASSI
100
AcDbPolyline
 62
250
  6
CONTINUOUS
 90
10
 70
0
 10
1.8807788784
 20
61.8659680152
 10
1.8686813707
 20
61.8533914624
 10
1.856933259
 20
61.8415279354
 10
1.8456394332
 20
61.8304833521
 10
1.8349007289
 20
61.820356318
 10
1.8248130221
 20
61.8112372493
 10
1.8154663745
 20
61.8032075644
 10
1.8069442349
 20
61.7963389534
 10
1.7993226931
 20
61.7906927388
 10
1.7926697968
 20
61.7863193305
  0
LWPOLYLINE
  5
2E2
100
AcDbEntity
  8
0
100
AcDbPolyline
 62
7
  6
CONTINUOUS
 90
3
 70
0
 43
0.3500000006
 10
14.6229311371
 20
76.0952689819
 10
15.4800736084
 20
76.9524159851
 10
15.4800736084
 20
73.9524150696
  0
LWPOLYLINE
  5
2E3
100
AcDbEntity
  8
RACCORDO
100
AcDbPolyline
 62
250
  6
CONTINUOUS
 90
10
 70
0
 10
6.6674295805
 20
61.6542824972
 10
6.6828417318
 20
61.6607602792
 10
6.6977655343
 20
61.6668056498
 10
6.7117762136
 20
61.6722465406
 10
6.7244749855
 20
61.6769280884
 10
6.7355004062
 20
61.680717043
 10
6.7445386606
 20
61.6835055599
 10
6.7513324944
 20
61.68521427
 10
6.7556885362
 20
61.6857945386
 10
6.7574828014
 20
61.6852298498
  0
LWPOLYLINE
  5
2E4
100
AcDbEntity
  8
RACCORDO
100
AcDbPolyline
 62
250
  6
CONTINUOUS
 90
10
 70
0
 10
7.0164745442
 20
60.8464030591
 10
7.0318866962
 20
60.8528808306
 10
7.0468104994
 20
60.8589261935
 10
7.0608211794
 20
60.8643670794
 10
7.0735199519
 20
60.8690486249
 10
7.0845453733
 20
60.87283758
 10
7.0935836284
 20
60.8756260998
 10
7.1003774623
 20
60.8773348153
 10
7.104733503
 20
60.8779150914
 10
7.106527765
 20
60.8773504117
  0
LWPOLYLINE
  5
2E5
100
AcDbEntity
  8
ASSI
100
AcDbPolyline
 62
250
  6
CONTINUOUS
 90
13
 70
0
 10
4.4719487023
 20
15.5396354079
 10
4.4626524416
 20
15.5376657435
 10
4.4517883378
 20
15.5357462064
 10
4.4394783397
 20
15.5338958917
 10
4.425859916
 20
15.5321436789
 10
4.4110654543
 20
15.5304933435
 10
4.3951970139
 20
15.5289263641
 10
4.378351912
 20
15.5274440447
 10
4.360720905
 20
15.5260723362
 10
4.3425461615
 20
15.524828578
 10
4.3240256469
 20
15.5237240496
 10
4.3053221178
 20
15.5227643805
 10
4.2866261771
 20
15.521956305
  0
LWPOLYLINE
  5
2E6
100
AcDbEntity
  8
ASSI
100
AcDbPolyline
 62
250
  6
CONTINUOUS
 90
10
 70
0
 10
2.0303039225
 20
15.5568132847
 10
2.0071818202
 20
15.5555247226
 10
1.9844183197
 20
15.5540186753
 10
1.9623201587
 20
15.5523154367
 10
1.9411851095
 20
15.5504379578
 10
1.9212979669
 20
15.5484115375
 10
1.9029267105
 20
15.5462634819
 10
1.8863188931
 20
15.544022736
 10
1.8716983051
 20
15.5417194937
 10
1.8592619592
 20
15.5393847912
  0
LINE
  5
2E7
100
AcDbEntity
  8
0
100
AcDbLine
 62
7
  6
CONTINUOUS
 10
-5.577069158
 20
15.6107731222
 11
-4.077069158
 21
15.6893847911
  0
LWPOLYLINE
  5
2E8
100
AcDbEntity
  8
ASSI
100
AcDbPolyline
 62
250
  6
CONTINUOUS
 90
10
 70
0
 10
5.5610166544
 20
15.5568132631
 10
5.5358634616
 20
15.5556743866
 10
5.511166964
 20
15.5542757923
 10
5.4873209173
 20
15.5526397792
 10
5.4647055178
 20
15.5507924314
 10
5.4436813409
 20
15.5487632024
 10
5.4245835923
 20
15.5465844461
 10
5.4077167628
 20
15.5442908998
 10
5.3933497738
 20
15.5419191315
 10
5.3817116902
 20
15.5395069561
  0
LINE
  5
2E9
100
AcDbEntity
  8
ASSI
100
AcDbLine
 62
250
  6
CONTINUOUS
 10
-2.2735786767
 20
14.847016971
 11
-5.577069158
 21
14.7893543302
  0
LINE
  5
2EA
100
AcDbEntity
  8
RACCORDO
100
AcDbLine
 62
7
  6
CONTINUOUS
 10
-4.2735786767
 20
15.8859547047
 11
-5.577069158
 21
15.8632021937
  0
LINE
  5
2EB
100
AcDbEntity
  8
RACCORDO
100
AcDbLine
 62
250
  6
CONTINUOUS
 10
-5.577069158
 20
16.0631717328
 11
-4.2735786767
 21
16.0859242437
  0
LINE
  5
2EC
100
AcDbEntity
  8
RACCORDO
100
AcDbLine
 62
7
  6
CONTINUOUS
 10
2.622930842
 20
16.8779569464
 11
6.9264213233
 21
16.9530746521
  0
LWPOLYLINE
  5
2ED
100
AcDbEntity
  8
ASSI
100
AcDbPolyline
 62
250
  6
CONTINUOUS
 90
13
 70
0
 10
2.5757236981
 20
15.5219562974
 10
2.5260023601
 20
15.5211510885
 10
2.4768636741
 20
15.5190118204
 10
2.42830764
 20
15.5155384931
 10
2.3803907914
 20
15.5107123625
 10
2.3330565946
 20
15.5045521727
 10
2.2861354492
 20
15.4971141556
 10
2.2396380416
 20
15.4884283614
 10
2.1935536854
 20
15.4784647399
 10
2.1476807205
 20
15.4671893724
 10
2.101951927
 20
15.4545909528
 10
2.0564345249
 20
15.4406807873
 10
2.0111285142
 20
15.4254588758
  0
LWPOLYLINE
  5
2EE
100
AcDbEntity
  8
ASSI
100
AcDbPolyline
 62
250
  6
CONTINUOUS
 90
16
 70
0
 10
1.5166935135
 20
15.3398969872
 10
1.5448812965
 20
15.3402507973
 10
1.5712889495
 20
15.3408323161
 10
1.5957559392
 20
15.3416641947
 10
1.6181948562
 20
15.3427965599
 10
1.6389038633
 20
15.3443047963
 10
1.6581621495
 20
15.3461912439
 10
1.6758729272
 20
15.3484599059
 10
1.6922392946
 20
15.3511857749
 10
1.7079022406
 20
15.3544657806
 10
1.7228707522
 20
15.3583122472
 10
1.7371427081
 20
15.3628290185
 10
1.7512845032
 20
15.3683349042
 10
1.7654259766
 20
15.3750582206
 10
1.7792727198
 20
15.3830577921
 10
1.7926894263
 20
15.3924655528
  0
LWPOLYLINE
  5
2EF
100
AcDbEntity
  8
RACCORDO
100
AcDbPolyline
 62
250
  6
CONTINUOUS
 90
10
 70
0
 10
7.0246760827
 20
16.3720281225
 10
7.0418213433
 20
16.3721837159
 10
7.0584052783
 20
16.372593627
 10
7.073935101
 20
16.3732456756
 10
7.0879493474
 20
16.3741204862
 10
7.1000315882
 20
16.3751920641
 10
7.1098228034
 20
16.3764285677
 10
7.1170320498
 20
16.3777932546
 10
7.1214451069
 20
16.3792455736
 10
7.122930842
 20
16.3807423694
  0
LWPOLYLINE
  5
2F0
100
AcDbEntity
  8
RACCORDO
100
AcDbPolyline
 62
250
  6
CONTINUOUS
 90
10
 70
0
 10
6.628544267
 20
15.5219562974
 10
6.6328195864
 20
15.5219860715
 10
6.6371024989
 20
15.522077837
 10
6.6413930045
 20
15.5222315939
 10
6.645686137
 20
15.522446189
 10
6.6499868626
 20
15.5227227754
 10
6.6543100802
 20
15.523064813
 10
6.658660756
 20
15.5234734549
 10
6.6630339238
 20
15.5239475478
 10
6.6674295835
 20
15.5244870918
  0
LINE
  5
2F1
100
AcDbEntity
  8
ASSI
100
AcDbLine
 62
250
  6
CONTINUOUS
 10
1.4544896009
 20
15.3396101112
 11
1.5166935135
 21
15.3398969872
  0
LINE
  5
2F2
100
AcDbEntity
  8
ASSI
100
AcDbLine
 62
250
  6
CONTINUOUS
 10
-2.077069158
 20
15.2993432835
 11
-2.2735786767
 21
15.2993432835
  0
LINE
  5
2F3
100
AcDbEntity
  8
RACCORDO
100
AcDbLine
 62
7
  6
CONTINUOUS
 10
4.6523332392
 20
15.3393847911
 11
4.2831356961
 21
15.3393847911
  0
LINE
  5
2F4
100
AcDbEntity
  8
ASSI
100
AcDbLine
 62
7
  6
CONTINUOUS
 10
5.558858905
 20
15.3393847911
 11
2.5722332168
 21
15.3393847911
  0
LINE
  5
2F5
100
AcDbEntity
  8
RACCORDO
100
AcDbLine
 62
7
  6
CONTINUOUS
 10
5.1978924493
 20
15.3393847911
 11
6.6251751628
 21
15.3393847911
  0
LINE
  5
2F6
100
AcDbEntity
  8
ASSI
100
AcDbLine
 62
250
  6
CONTINUOUS
 10
4.286626177
 20
15.5219562974
 11
2.5757236981
 21
15.5219562974
  0
LINE
  5
2F7
100
AcDbEntity
  8
ASSI
100
AcDbLine
 62
250
  6
CONTINUOUS
 10
5.5623494068
 20
15.5219562974
 11
6.628544267
 21
15.5219562974
  0
LINE
  5
2F8
100
AcDbEntity
  8
ASSI
100
AcDbLine
 62
250
  6
CONTINUOUS
 10
5.3812000167
 20
15.5393847911
 11
4.4719485822
 21
15.5393847911
  0
LINE
  5
2F9
100
AcDbEntity
  8
ASSI
100
AcDbLine
 62
250
  6
CONTINUOUS
 10
0.9954212255
 20
15.5393847911
 11
1.8592619592
 21
15.5393847911
  0
LINE
  5
2FA
100
AcDbEntity
  8
ASSI
100
AcDbLine
 62
250
  6
CONTINUOUS
 10
-2.777069158
 20
15.8342054628
 11
-2.9735786767
 21
15.8342054629
  0
LINE
  5
2FB
100
AcDbEntity
  8
RACCORDO
100
AcDbLine
 62
250
  6
CONTINUOUS
 10
-4.077069158
 20
16.0859242437
 11
-4.2735786767
 21
16.0859242437
  0
LINE
  5
2FC
100
AcDbEntity
  8
RACCORDO
100
AcDbLine
 62
7
  6
CONTINUOUS
 10
-4.277069158
 20
16.5893847911
 11
-5.577069158
 21
16.5893847911
  0
LINE
  5
2FD
100
AcDbEntity
  8
RACCORDO
100
AcDbLine
 62
250
  6
CONTINUOUS
 10
-4.077069158
 20
17.0893847911
 11
-5.577069158
 21
17.0893847911
  0
LINE
  5
2FE
100
AcDbEntity
  8
ASSI
100
AcDbLine
 62
250
  6
CONTINUOUS
 10
1.386826265
 20
15.3396480516
 11
1.4544896009
 21
15.3396101112
  0
LINE
  5
2FF
100
AcDbEntity
  8
ASSI
100
AcDbLine
 62
250
  6
CONTINUOUS
 10
1.3822235094
 20
15.1573204541
 11
1.4166247181
 21
15.1572020287
  0
LINE
  5
300
100
AcDbEntity
  8
ASSI
100
AcDbLine
 62
250
  6
CONTINUOUS
 10
1.3560713924
 20
15.3398179947
 11
1.386826265
 21
15.3396480516
  0
LWPOLYLINE
  5
301
100
AcDbEntity
  8
RACCORDO
100
AcDbPolyline
 62
250
  6
CONTINUOUS
 90
22
 70
0
 10
-2.9735786767
 20
17.311158987
 10
-2.9612355388
 20
17.310820799
 10
-2.9486245345
 20
17.3088373681
 10
-2.9358034606
 20
17.3052086942
 10
-2.9227989891
 20
17.2999729392
 10
-2.9097254904
 20
17.2930919414
 10
-2.8967766298
 20
17.2844512151
 10
-2.8840499032
 20
17.2739874247
 10
-2.8716084527
 20
17.261763906
 10
-2.8595864036
 20
17.2478561805
 10
-2.8480742458
 20
17.2322200262
 10
-2.8371437264
 20
17.2148996652
 10
-2.8268922353
 20
17.1961032855
 10
-2.8174196523
 20
17.1758460157
 10
-2.8087750596
 20
17.1541127273
 10
-2.8009899913
 20
17.1310662226
 10
-2.7941722126
 20
17.1067614742
 10
-2.7883818378
 20
17.0811435095
 10
-2.7836429244
 20
17.0542102136
 10
-2.7800764779
 20
17.0259608815
 10
-2.7778418975
 20
16.9963962181
 10
-2.777069158
 20
16.9655162234
  0
LWPOLYLINE
  5
302
100
AcDbEntity
  8
ASSI
100
AcDbPolyline
 62
250
  6
CONTINUOUS
 90
16
 70
0
 10
5.5623494078
 20
15.5219562743
 10
5.5474237476
 20
15.5225916084
 10
5.5325031974
 20
15.5233244309
 10
5.5176845767
 20
15.5241514527
 10
5.503055043
 20
15.525069632
 10
5.4887234428
 20
15.5260747083
 10
5.4748093385
 20
15.5271600167
 10
5.4613913458
 20
15.5283205843
 10
5.4485532692
 20
15.5295494314
 10
5.4364076703
 20
15.5308349783
 10
5.4250529569
 20
15.5321550258
 10
5.4145135417
 20
15.5335161528
 10
5.4047933647
 20
15.5349495672
 10
5.395945571
 20
15.5364599086
 10
5.3880582536
 20
15.5380248125
 10
5.3811998744
 20
15.5396344617
  0
LWPOLYLINE
  5
303
100
AcDbEntity
  8
ASSI
100
AcDbPolyline
 62
250
  6
CONTINUOUS
 90
10
 70
0
 10
0.8209269783
 20
15.5568132828
 10
0.8440928167
 20
15.5555247157
 10
0.8669934464
 20
15.5540186594
 10
0.8893202807
 20
15.5523154111
 10
0.9107724364
 20
15.5504379288
 10
0.9310608922
 20
15.5484115103
 10
0.9499123623
 20
15.5462634508
 10
0.9670728433
 20
15.5440226916
 10
0.9823110583
 20
15.5417194313
 10
0.9954216626
 20
15.5393847067
  0
LWPOLYLINE
  5
304
100
AcDbEntity
  8
ASSI
100
AcDbPolyline
 62
250
  6
CONTINUOUS
 90
10
 70
0
 10
4.4719485822
 20
15.5393847912
 10
4.4593683245
 20
15.5418522333
 10
4.4440827863
 20
15.5442652884
 10
4.4263880007
 20
15.5465851784
 10
4.406650724
 20
15.5487717438
 10
4.3851910766
 20
15.5507965285
 10
4.3622442579
 20
15.5526400745
 10
4.3381283343
 20
15.5542759743
 10
4.3132698823
 20
15.5556744769
 10
4.2880651995
 20
15.556813285
  0
LWPOLYLINE
  5
305
100
AcDbEntity
  8
RACCORDO
100
AcDbPolyline
 62
250
  6
CONTINUOUS
 90
10
 70
0
 10
6.6674295805
 20
15.524487085
 10
6.6828417325
 20
15.5180093136
 10
6.6977655358
 20
15.5119639507
 10
6.7117762158
 20
15.5065230648
 10
6.7244749883
 20
15.5018415192
 10
6.7355004097
 20
15.4980525642
 10
6.7445386647
 20
15.4952640443
 10
6.7513324986
 20
15.4935553288
 10
6.7556885393
 20
15.4929750528
 10
6.7574828014
 20
15.4935397325
  0
LWPOLYLINE
  5
306
100
AcDbEntity
  8
RACCORDO
100
AcDbPolyline
 62
250
  6
CONTINUOUS
 90
10
 70
0
 10
7.0164745442
 20
16.3323665231
 10
7.0318866962
 20
16.3258887516
 10
7.0468104995
 20
16.3198433887
 10
7.0608211795
 20
16.3144025029
 10
7.073519952
 20
16.3097209573
 10
7.0845453734
 20
16.3059320023
 10
7.0935836284
 20
16.3031434824
 10
7.1003774623
 20
16.3014347669
 10
7.104733503
 20
16.3008544909
 10
7.106527765
 20
16.3014191706
  0
LWPOLYLINE
  5
307
100
AcDbEntity
  8
ASSI
100
AcDbPolyline
 62
250
  6
CONTINUOUS
 90
10
 70
0
 10
1.8808182951
 20
15.3128254304
 10
1.8687181996
 20
15.3254008341
 10
1.8569675424
 20
15.3372632538
 10
1.8456712378
 20
15.348306773
 10
1.8349301402
 20
15.3584327844
 10
1.8248401527
 20
15.367550879
 10
1.8154913693
 20
15.3755796518
 10
1.8069672592
 20
15.3824474177
 10
1.7993439241
 20
15.3880928534
 10
1.7926894263
 20
15.3924655528
  0
LINE
  5
308
100
AcDbEntity
  8
ASSI
100
AcDbLine
 62
7
  6
CONTINUOUS
 10
-1.919334131
 20
14.7393847911
 11
-1.4574539157
 21
13.9393847911
  0
LINE
  5
309
100
AcDbEntity
  8
ASSI
100
AcDbLine
 62
250
  6
CONTINUOUS
 10
-1.7426382108
 20
14.821955677
 11
-1.2807583536
 21
14.0219562974
  0
LINE
  5
30A
100
AcDbEntity
  8
ASSI
100
AcDbLine
 62
250
  6
CONTINUOUS
 10
-0.9576405295
 20
63.1287056209
 11
-0.9370460779
 21
63.1723568593
  0
LWPOLYLINE
  5
30B
100
AcDbEntity
  8
ASSI
100
AcDbPolyline
 62
250
  6
CONTINUOUS
 90
10
 70
0
 10
-0.9370460779
 20
63.1723568593
 10
-0.9179179441
 20
63.2122894101
 10
-0.9092732083
 20
63.2300882907
 10
-0.9014208681
 20
63.2460717069
 10
-0.8944809221
 20
63.2599953995
 10
-0.8885594315
 20
63.271646574
 10
-0.883746899
 20
63.2808471544
 10
-0.880116876
 20
63.2874565226
 10
-0.877724842
 20
63.2913736603
 10
-0.876607361
 20
63.2925386858
  0
LWPOLYLINE
  5
30C
100
AcDbEntity
  8
ASSI
100
AcDbPolyline
 62
250
  6
CONTINUOUS
 90
15
 70
0
 10
1.5371505396
 20
15.1832863385
 10
1.564787809
 20
15.1896833254
 10
1.5915969561
 20
15.1962505912
 10
1.6175880458
 20
15.2029905145
 10
1.6427554237
 20
15.2098874781
 10
1.6672331221
 20
15.2171077198
 10
1.6908595869
 20
15.2245716688
 10
1.713803636
 20
15.2323401809
 10
1.7366960259
 20
15.2407874931
 10
1.7595081273
 20
15.2497901825
 10
1.7822736435
 20
15.259459104
 10
1.805716875
 20
15.270519894
 10
1.8300783532
 20
15.2832166454
 10
1.8551140496
 20
15.2973138647
 10
1.8808186743
 20
15.3128246472
  0
LWPOLYLINE
  5
30D
100
AcDbEntity
  8
ASSI
100
AcDbPolyline
 62
250
  6
CONTINUOUS
 90
4
 70
0
 10
1.4166247181
 20
15.1572020287
 10
1.4482397482
 20
15.1637861389
 10
1.4788756058
 20
15.1703379681
 10
1.5371505396
 20
15.1832863385
  0
LWPOLYLINE
  5
30E
100
AcDbEntity
  8
RACCORDO
100
AcDbPolyline
 62
250
  6
CONTINUOUS
 90
13
 70
0
 10
6.9264213233
 20
17.8197970127
 10
6.952205
 20
17.8218883303
 10
6.9774988414
 20
17.8272398491
 10
7.0018796133
 20
17.8357620236
 10
7.02493936
 20
17.8473122552
 10
7.0462922298
 20
17.8616972772
 10
7.0655809319
 20
17.8786763895
 10
7.0824827143
 20
17.8979654861
 10
7.0967147648
 20
17.9192418084
 10
7.1080389428
 20
17.9421493463
 10
7.1162657646
 20
17.9663047951
 10
7.1212575731
 20
17.9913039691
 10
7.122930842
 20
18.0167285651
  0
LWPOLYLINE
  5
30F
100
AcDbEntity
  8
RACCORDO
100
AcDbPolyline
 62
250
  6
CONTINUOUS
 90
13
 70
0
 10
6.9264213233
 20
17.9056483304
 10
6.952205
 20
17.907739648
 10
6.9774988414
 20
17.9130911668
 10
7.0018796133
 20
17.9216133414
 10
7.02493936
 20
17.9331635729
 10
7.0462922298
 20
17.9475485949
 10
7.0655809319
 20
17.9645277073
 10
7.0824827143
 20
17.9838168038
 10
7.0967147647
 20
18.0050931261
 10
7.1080389428
 20
18.028000664
 10
7.1162657646
 20
18.0521561128
 10
7.1212575731
 20
18.0771552869
 10
7.122930842
 20
18.1025798828
  0
LINE
  5
310
100
AcDbEntity
  8
RACCORDO
100
AcDbLine
 62
250
  6
CONTINUOUS
 10
-2.5805596393
 20
17.036709401
 11
2.6107150879
 21
17.2238388414
  0
LINE
  5
311
100
AcDbEntity
  8
RACCORDO
100
AcDbLine
 62
7
  6
CONTINUOUS
 10
-2.5840490573
 20
16.6961252016
 11
2.622930842
 21
16.8779569464
  0
LINE
  5
312
100
AcDbEntity
  8
ASSI
100
AcDbLine
 62
7
  6
CONTINUOUS
 10
-2.5840490573
 20
16.6961252015
 11
1.8011460975
 21
16.8492595907
  0
LWPOLYLINE
  5
313
100
AcDbEntity
  8
RACCORDO
100
AcDbPolyline
 62
250
  6
CONTINUOUS
 90
19
 70
0
 10
6.2264213233
 20
18.1764467306
 10
6.2326917687
 20
18.1766300693
 10
6.2390822663
 20
18.1771355454
 10
6.2455854508
 20
18.1779740698
 10
6.2521635545
 20
18.1791455793
 10
6.2588374661
 20
18.1806700161
 10
6.2656850514
 20
18.182596346
 10
6.2727123969
 20
18.1849520015
 10
6.2798855412
 20
18.1877487255
 10
6.2872172935
 20
18.1910231617
 10
6.2946872791
 20
18.1948044216
 10
6.3022742965
 20
18.1991067684
 10
6.3099839524
 20
18.2039506117
 10
6.3177818974
 20
18.2093669729
 10
6.3256418811
 20
18.2153715602
 10
6.3335720308
 20
18.2219695248
 10
6.3415436197
 20
18.2291820679
 10
6.349494823
 20
18.2370398373
 10
6.3573743966
 20
18.2455649278
  0
LWPOLYLINE
  5
314
100
AcDbEntity
  8
RACCORDO
100
AcDbPolyline
 62
250
  6
CONTINUOUS
 90
19
 70
0
 10
6.2259515221
 20
18.0784039841
 10
6.2369490634
 20
18.0786486219
 10
6.2481305464
 20
18.0792061192
 10
6.2594959389
 20
18.0800768674
 10
6.2710126054
 20
18.0812373279
 10
6.282713047
 20
18.0827126343
 10
6.2946948746
 20
18.0845768872
 10
6.3070027344
 20
18.0868321217
 10
6.3195916105
 20
18.0894802806
 10
6.3324244952
 20
18.092596531
 10
6.3455146873
 20
18.0961854646
 10
6.3588481716
 20
18.1002486962
 10
6.3723467858
 20
18.1048580973
 10
6.3860220246
 20
18.1100153463
 10
6.3998612387
 20
18.1157247575
 10
6.4137498067
 20
18.1220624106
 10
6.4276489163
 20
18.1290539699
 10
6.4415956821
 20
18.1366734118
 10
6.4555892016
 20
18.1449167101
  0
LINE
  5
315
100
AcDbEntity
  8
RACCORDO
100
AcDbLine
 62
250
  6
CONTINUOUS
 10
2.6107150879
 20
17.2238388414
 11
3.7264213233
 21
17.2435635331
  0
LINE
  5
316
100
AcDbEntity
  8
RACCORDO
100
AcDbLine
 62
250
  6
CONTINUOUS
 10
6.9264213233
 20
17.2030365759
 11
3.922930842
 21
17.1506104546
  0
LINE
  5
317
100
AcDbEntity
  8
RACCORDO
100
AcDbLine
 62
250
  6
CONTINUOUS
 10
0.422930842
 20
18.54131293
 11
6.2264213233
 21
18.6331221836
  0
LINE
  5
318
100
AcDbEntity
  8
RACCORDO
100
AcDbLine
 62
250
  6
CONTINUOUS
 10
3.922930842
 20
17.5296418331
 11
6.9264213233
 21
17.5736325722
  0
LINE
  5
319
100
AcDbEntity
  8
RACCORDO
100
AcDbLine
 62
250
  6
CONTINUOUS
 10
3.922930842
 20
17.7758062736
 11
6.9264213233
 21
17.8197970127
  0
LINE
  5
31A
100
AcDbEntity
  8
RACCORDO
100
AcDbLine
 62
250
  6
CONTINUOUS
 10
6.9264213233
 20
17.9056483304
 11
3.922930842
 21
17.8616575913
  0
LINE
  5
31B
100
AcDbEntity
  8
RACCORDO
100
AcDbLine
 62
250
  6
CONTINUOUS
 10
6.9264213233
 20
18.1518127709
 11
6.4555892016
 21
18.1449167101
  0
LINE
  5
31C
100
AcDbEntity
  8
RACCORDO
100
AcDbLine
 62
250
  6
CONTINUOUS
 10
3.9229308406
 20
18.050414349
 11
6.2259515221
 21
18.0784039841
  0
LINE
  5
31D
100
AcDbEntity
  8
RACCORDO
100
AcDbLine
 62
250
  6
CONTINUOUS
 10
3.922930842
 20
18.1518966659
 11
6.2264213233
 21
18.1764467306
  0
LINE
  5
31E
100
AcDbEntity
  8
RACCORDO
100
AcDbLine
 62
250
  6
CONTINUOUS
 10
-4.077069158
 20
17.3026066634
 11
-2.9735786767
 21
17.3111592548
  0
LINE
  5
31F
100
AcDbEntity
  8
RACCORDO
100
AcDbLine
 62
250
  6
CONTINUOUS
 10
-4.077069158
 20
17.4509241345
 11
-2.9735786767
 21
17.4595167132
  0
LINE
  5
320
100
AcDbEntity
  8
RACCORDO
100
AcDbLine
 62
7
  6
CONTINUOUS
 10
0.422930842
 20
18.4411316906
 11
3.7264213233
 21
18.4585888451
  0
LINE
  5
321
100
AcDbEntity
  8
RACCORDO
100
AcDbLine
 62
250
  6
CONTINUOUS
 10
3.7264213233
 20
17.6888889748
 11
0.422930842
 21
17.6864854548
  0
LINE
  5
322
100
AcDbEntity
  8
RACCORDO
100
AcDbLine
 62
250
  6
CONTINUOUS
 10
3.7264213233
 20
17.3980869046
 11
0.3246760827
 21
17.3959101257
  0
LINE
  5
323
100
AcDbEntity
  8
RACCORDO
100
AcDbLine
 62
250
  6
CONTINUOUS
 10
6.9264213233
 20
17.2030365759
 11
7.122930842
 21
17.2030365759
  0
LINE
  5
324
100
AcDbEntity
  8
RACCORDO
100
AcDbLine
 62
250
  6
CONTINUOUS
 10
6.9264213233
 20
17.5736325722
 11
7.122930842
 21
17.5736325722
  0
LINE
  5
325
100
AcDbEntity
  8
RACCORDO
100
AcDbLine
 62
250
  6
CONTINUOUS
 10
6.9264213233
 20
18.1518127709
 11
7.122930842
 21
18.1518127709
  0
LINE
  5
326
100
AcDbEntity
  8
RACCORDO
100
AcDbLine
 62
250
  6
CONTINUOUS
 10
6.5703129811
 20
18.4298943101
 11
6.422930842
 21
18.4298943101
  0
LINE
  5
327
100
AcDbEntity
  8
RACCORDO
100
AcDbLine
 62
250
  6
CONTINUOUS
 10
7.122930842
 20
18.8369891307
 11
6.9264213233
 21
18.8369891307
  0
LINE
  5
328
100
AcDbEntity
  8
RACCORDO
100
AcDbLine
 62
250
  6
CONTINUOUS
 10
6.5703129811
 20
18.843205025
 11
6.422930842
 21
18.843205025
  0
LINE
  5
329
100
AcDbEntity
  8
RACCORDO
100
AcDbLine
 62
250
  6
CONTINUOUS
 10
7.122930842
 20
19.0382111201
 11
6.9264213233
 21
19.0382111201
  0
LWPOLYLINE
  5
32A
100
AcDbEntity
  8
RACCORDO
100
AcDbPolyline
 62
250
  6
CONTINUOUS
 90
22
 70
0
 10
-2.9735786767
 20
17.4595167132
 10
-2.9486718304
 20
17.4591879175
 10
-2.9234869782
 20
17.4572223756
 10
-2.8980241202
 20
17.4536208185
 10
-2.872054401
 20
17.448424406
 10
-2.8458066759
 20
17.4415948199
 10
-2.8199675107
 20
17.4330144138
 10
-2.7945687179
 20
17.4226248826
 10
-2.769578485
 20
17.4104907544
 10
-2.74558794
 20
17.3966793975
 10
-2.7226244894
 20
17.3811518138
 10
-2.7006607268
 20
17.3639559935
 10
-2.680205561
 20
17.3452897146
 10
-2.6612976973
 20
17.3251736955
 10
-2.6438984305
 20
17.3035974512
 10
-2.6284005535
 20
17.2807112882
 10
-2.614770865
 20
17.2565753624
 10
-2.6030425664
 20
17.2311405016
 10
-2.5937080548
 20
17.2043929252
 10
-2.5869314626
 20
17.1763324254
 10
-2.5825486574
 20
17.1469723265
 10
-2.5805596393
 20
17.1163196681
  0
LINE
  5
32B
100
AcDbEntity
  8
RACCORDO
100
AcDbLine
 62
250
  6
CONTINUOUS
 10
6.9264213233
 20
18.8369891307
 11
6.5703129811
 21
18.843205025
  0
LINE
  5
32C
100
AcDbEntity
  8
RACCORDO
100
AcDbLine
 62
7
  6
CONTINUOUS
 10
6.9264213233
 20
19.0369586698
 11
6.422930842
 21
19.0457471288
  0
LINE
  5
32D
100
AcDbEntity
  8
SUPERFICI
100
AcDbLine
 62
7
  6
CONTINUOUS
 10
-4.9941490025
 20
19.4577008949
 11
-5.577069158
 21
19.4678758041
  0
LWPOLYLINE
  5
32E
100
AcDbEntity
  8
RACCORDO
100
AcDbPolyline
 62
250
  6
CONTINUOUS
 90
12
 70
0
 10
6.569249717
 20
18.9689703235
 10
6.5500138237
 20
18.9700504749
 10
6.5311574858
 20
18.9726754275
 10
6.5129933074
 20
18.9768018565
 10
6.495822518
 20
18.9823615379
 10
6.4799297474
 20
18.9892624171
 10
6.4655783659
 20
18.9973901987
 10
6.4530066124
 20
19.0066100396
 10
6.4424228987
 20
19.0167693237
 10
6.4340025194
 20
19.0277003507
 10
6.4278855826
 20
19.0392221984
 10
6.4241742993
 20
19.0511435543
  0
LINE
  5
32F
100
AcDbEntity
  8
RACCORDO
100
AcDbLine
 62
250
  6
CONTINUOUS
 10
6.4217338406
 20
19.0735023068
 11
6.9264213233
 21
19.0382111201
  0
LINE
  5
330
100
AcDbEntity
  8
RACCORDO
100
AcDbLine
 62
7
  6
CONTINUOUS
 10
6.422930842
 20
19.2736629057
 11
6.9368821368
 21
19.2377239302
  0
LWPOLYLINE
  5
331
100
AcDbEntity
  8
RACCORDO
100
AcDbPolyline
 62
7
  6
CONTINUOUS
 90
3
 70
0
 10
6.466666255
 20
19.0460734353
 10
6.4781746367
 20
19.0448252616
 10
6.481057836
 20
19.0447325182
  0
LWPOLYLINE
  5
332
100
AcDbEntity
  8
ASSI
100
AcDbPolyline
 62
250
  6
CONTINUOUS
 90
8
 70
0
 10
-0.9092726505
 20
13.9486802181
 10
-0.9014203589
 20
13.9326969164
 10
-0.894480497
 20
13.9187734054
 10
-0.8885591118
 20
13.9071224482
 10
-0.8837466869
 20
13.8979220813
 10
-0.8801167603
 20
13.8913128944
 10
-0.8777248004
 20
13.8873958814
 10
-0.8766073584
 20
13.8862308976
  0
LINE
  5
333
100
AcDbEntity
  8
ASSI
100
AcDbLine
 62
250
  6
CONTINUOUS
 10
-0.9272224547
 20
13.9858214965
 11
-0.9092726505
 21
13.9486802181
  0
LWPOLYLINE
  5
334
100
AcDbEntity
  8
ASSI
100
AcDbPolyline
 62
250
  6
CONTINUOUS
 90
3
 70
0
 10
-0.9576405295
 20
14.0500639613
 10
-0.9472369476
 20
14.0279357117
 10
-0.9272224547
 20
13.9858214965
  0
LINE
  5
335
100
AcDbEntity
  8
SUPERFICI
100
AcDbLine
 62
250
  6
CONTINUOUS
 10
-8.8901576321
 20
64.4027998537
 11
-8.8925965115
 21
64.5069877083
  0
LINE
  5
336
100
AcDbEntity
  8
SUPERFICI
100
AcDbLine
 62
250
  6
CONTINUOUS
 10
-8.8925965115
 20
64.5069877083
 11
-8.8943533038
 21
64.6066032497
  0
LWPOLYLINE
  5
337
100
AcDbEntity
  8
SUPERFICI
100
AcDbPolyline
 62
250
  6
CONTINUOUS
 90
11
 70
0
 10
-8.8943533038
 20
64.6066032497
 10
-8.895350605
 20
64.6972538348
 10
-8.8955494149
 20
64.737928133
 10
-8.8955450634
 20
64.7749052268
 10
-8.8953377142
 20
64.8077927257
 10
-8.8949289506
 20
64.8362664719
 10
-8.894323445
 20
64.859963931
 10
-8.8935313491
 20
64.8785618055
 10
-8.8925648806
 20
64.8919030439
 10
-8.8914356341
 20
64.899932953
 10
-8.8901576387
 20
64.902628516
  0
LINE
  5
338
100
AcDbEntity
  8
SUPERFICI
100
AcDbLine
 62
7
  6
CONTINUOUS
 10
-9.377069158
 20
64.4027998537
 11
-9.377069158
 21
12.7759697285
  0
LWPOLYLINE
  5
339
100
AcDbEntity
  8
SUPERFICI
100
AcDbPolyline
 62
250
  6
CONTINUOUS
 90
9
 70
0
 10
-8.8955493717
 20
12.4408586642
 10
-8.895545121
 20
12.4038833649
 10
-8.8953379008
 20
12.3709954536
 10
-8.8949292633
 20
12.3425191856
 10
-8.8943238577
 20
12.3188181152
 10
-8.8935318041
 20
12.3002160294
 10
-8.8925652919
 20
12.2868707423
 10
-8.891435897
 20
12.2788378146
 10
-8.8901576321
 20
12.2761410661
  0
LINE
  5
33A
100
AcDbEntity
  8
SUPERFICI
100
AcDbLine
 62
250
  6
CONTINUOUS
 10
-8.8901576321
 20
64.4027998537
 11
-8.8901576321
 21
12.7759697285
  0
LINE
  5
33B
100
AcDbEntity
  8
SUPERFICI
100
AcDbLine
 62
250
  6
CONTINUOUS
 10
-8.8949503497
 20
12.5254670525
 11
-8.8955493717
 21
12.4408586642
  0
LINE
  5
33C
100
AcDbEntity
  8
SUPERFICI
100
AcDbLine
 62
250
  6
CONTINUOUS
 10
-8.8935655421
 20
12.6211336447
 11
-8.8949503497
 21
12.5254670525
  0
LWPOLYLINE
  5
33D
100
AcDbEntity
  8
SUPERFICI
100
AcDbPolyline
 62
250
  6
CONTINUOUS
 90
3
 70
0
 10
-8.8901576321
 20
12.7759697285
 10
-8.8914562184
 20
12.7235907535
 10
-8.8935655421
 20
12.6211336447
  0
LWPOLYLINE
  5
33E
100
AcDbEntity
  8
ASSI
100
AcDbPolyline
 62
250
  6
CONTINUOUS
 90
10
 70
0
 10
1.9099101011
 20
61.9262027132
 10
1.9192956233
 20
61.9450944895
 10
1.9233737109
 20
61.9531633814
 10
1.9270064107
 20
61.9602433618
 10
1.9301705398
 20
61.9662891454
 10
1.9328458788
 20
61.9712619993
 10
1.9350153611
 20
61.9751300216
 10
1.9366651861
 20
61.9778685003
 10
1.9377848778
 20
61.9794600064
 10
1.9383673518
 20
61.9798944198
  0
LWPOLYLINE
  5
33F
100
AcDbEntity
  8
RACCORDO
100
AcDbPolyline
 62
250
  6
CONTINUOUS
 90
13
 70
0
 10
0.3246760827
 20
20.8441529376
 10
0.337567921
 20
20.8448158372
 10
0.3502148417
 20
20.8465121456
 10
0.3624052277
 20
20.8492134789
 10
0.373935101
 20
20.8528746367
 10
0.3846115359
 20
20.8574343578
 10
0.394255887
 20
20.8628163459
 10
0.4027067782
 20
20.8689305459
 10
0.4098228034
 20
20.8756746508
 10
0.4154848924
 20
20.8829358134
 10
0.4195983033
 20
20.8905925352
 10
0.4220942076
 20
20.8985166984
 10
0.422930842
 20
20.9065757106
  0
LINE
  5
340
100
AcDbEntity
  8
SUPERFICI
100
AcDbLine
 62
7
  6
CONTINUOUS
 10
-4.0851655832
 20
20.4093832843
 11
-5.5756214182
 21
20.3677388545
  0
LINE
  5
341
100
AcDbEntity
  8
RACCORDO
100
AcDbLine
 62
7
  6
CONTINUOUS
 10
0.422930842
 20
19.6893847911
 11
26.9316573775
 21
19.9207229429
  0
LINE
  5
342
100
AcDbEntity
  8
SUPERFICI
100
AcDbLine
 62
7
  6
CONTINUOUS
 10
0.422930842
 20
19.6893847911
 11
26.9316573775
 21
19.9207229429
  0
LINE
  5
343
100
AcDbEntity
  8
VARIANTE_COLORE
100
AcDbLine
 62
7
  6
CONTINUOUS
 10
0.422930842
 20
19.6893847911
 11
26.9316573775
 21
19.9207229429
  0
LINE
  5
344
100
AcDbEntity
  8
RACCORDO
100
AcDbLine
 62
250
  6
CONTINUOUS
 10
-5.577069158
 20
20.808280979
 11
0.3246760827
 21
20.8441528881
  0
LINE
  5
345
100
AcDbEntity
  8
RACCORDO
100
AcDbLine
 62
250
  6
CONTINUOUS
 10
-5.577069158
 20
20.9329271394
 11
0.3246760827
 21
20.9689985061
  0
LINE
  5
346
100
AcDbEntity
  8
SUPERFICI
100
AcDbLine
 62
250
  6
CONTINUOUS
 10
-5.5770689854
 20
19.9533205031
 11
-4.0770691582
 21
19.9607245336
  0
LINE
  5
347
100
AcDbEntity
  8
RACCORDO
100
AcDbLine
 62
250
  6
CONTINUOUS
 10
0.3246760827
 20
20.9689984836
 11
0.422930842
 21
20.9689984836
  0
LINE
  5
348
100
AcDbEntity
  8
DRAFT
100
AcDbLine
 62
7
  6
CONTINUOUS
 10
0.6036046533
 20
19.6909615076
 11
6.2264213233
 21
19.5928148775
  0
LWPOLYLINE
  5
349
100
AcDbEntity
  8
RACCORDO
100
AcDbPolyline
 62
7
  6
CONTINUOUS
 90
13
 70
0
 10
-4.2666019667
 20
20.5190482849
 10
-4.2414805073
 20
20.5170802934
 10
-4.2169240877
 20
20.5126727085
 10
-4.1933258782
 20
20.5058930459
 10
-4.1710609681
 20
20.4968272732
 10
-4.1504900437
 20
20.4856261478
 10
-4.1319509745
 20
20.4725057265
 10
-4.1157413015
 20
20.4576568036
 10
-4.1021150966
 20
20.4413060644
 10
-4.0912874197
 20
20.4237620099
 10
-4.0834294719
 20
20.4053055751
 10
-4.078665299
 20
20.3861862552
 10
-4.077069158
 20
20.3666845282
  0
LWPOLYLINE
  5
34A
100
AcDbEntity
  8
ASSI
100
AcDbPolyline
 62
250
  6
CONTINUOUS
 90
9
 70
0
 10
1.9099136831
 20
15.2525725189
 10
1.9159552985
 20
15.2403462445
 10
1.9213753505
 20
15.2295172108
 10
1.9261196705
 20
15.2201936449
 10
1.9301408051
 20
15.2124688039
 10
1.9333985533
 20
15.206419916
 10
1.9358603463
 20
15.2021074542
 10
1.9375015726
 20
15.1995745319
 10
1.9383058242
 20
15.1988464717
  0
LWPOLYLINE
  5
34B
100
AcDbEntity
  8
RACCORDO
100
AcDbPolyline
 62
7
  6
CONTINUOUS
 90
13
 70
0
 10
-5.577069158
 20
20.7044892108
 10
-5.5754716346
 20
20.6847063057
 10
-5.5707040032
 20
20.6653438468
 10
-5.5628415801
 20
20.6466824568
 10
-5.5520097426
 20
20.6289750504
 10
-5.5383805287
 20
20.6124988393
 10
-5.5221686794
 20
20.5975517481
 10
-5.5036278555
 20
20.5843613245
 10
-5.4830563446
 20
20.5731172053
 10
-5.4607929852
 20
20.5640218326
 10
-5.4371989429
 20
20.5572209895
 10
-5.4126490635
 20
20.5528045508
 10
-5.3875363492
 20
20.550839505
  0
LINE
  5
34C
100
AcDbEntity
  8
RACCORDO
100
AcDbLine
 62
7
  6
CONTINUOUS
 10
-5.577069158
 20
20.808280979
 11
-5.577069158
 21
56.3704886033
  0
LINE
  5
34D
100
AcDbEntity
  8
SUPERFICI
100
AcDbLine
 62
7
  6
CONTINUOUS
 10
-5.577069158
 20
12.1893847911
 11
-5.577069158
 21
64.9893847911
  0
LWPOLYLINE
  5
34E
100
AcDbEntity
  8
RACCORDO
100
AcDbPolyline
 62
7
  6
CONTINUOUS
 90
13
 70
0
 10
-4.077069158
 20
56.8120850541
 10
-4.078665299
 20
56.792583327
 10
-4.0834294719
 20
56.7734640071
 10
-4.0912874197
 20
56.7550075724
 10
-4.1021150966
 20
56.7374635178
 10
-4.1157413015
 20
56.7211127787
 10
-4.1319509745
 20
56.7062638557
 10
-4.1504900437
 20
56.6931434344
 10
-4.1710609681
 20
56.6819423091
 10
-4.1933258782
 20
56.6728765363
 10
-4.2169240877
 20
56.6660968738
 10
-4.2414805073
 20
56.6616892888
 10
-4.2666019667
 20
56.6597212974
  0
LINE
  5
34F
100
AcDbEntity
  8
ASSI
100
AcDbLine
 62
250
  6
CONTINUOUS
 10
1.8807785761
 20
61.8659680592
 11
1.8932255055
 21
61.8919265059
  0
LWPOLYLINE
  5
350
100
AcDbEntity
  8
ASSI
100
AcDbPolyline
 62
250
  6
CONTINUOUS
 90
3
 70
0
 10
1.8932255055
 20
61.8919265059
 10
1.9046626415
 20
61.9155007682
 10
1.9099101011
 20
61.9262027132
  0
LWPOLYLINE
  5
351
100
AcDbEntity
  8
RACCORDO
100
AcDbPolyline
 62
250
  6
CONTINUOUS
 90
3
 70
0
 10
6.369842745
 20
58.9464020079
 10
6.3627031861
 20
58.9389032009
 10
6.3573743966
 20
58.9332046544
  0
LINE
  5
352
100
AcDbEntity
  8
RACCORDO
100
AcDbLine
 62
250
  6
CONTINUOUS
 10
6.388980896
 20
58.966200211
 11
6.369842745
 21
58.9464020079
  0
LINE
  5
353
100
AcDbEntity
  8
RACCORDO
100
AcDbLine
 62
250
  6
CONTINUOUS
 10
6.413344193
 20
58.9911047866
 11
6.388980896
 21
58.966200211
  0
LINE
  5
354
100
AcDbEntity
  8
RACCORDO
100
AcDbLine
 62
250
  6
CONTINUOUS
 10
6.4555892017
 20
59.033852872
 11
6.413344193
 21
58.9911047866
  0
LINE
  5
355
100
AcDbEntity
  8
CURVE
100
AcDbLine
 62
250
  6
CONTINUOUS
 10
3.9307994358
 20
52.7218177911
 11
6.9341707044
 21
53.5900697911
  0
LINE
  5
356
100
AcDbEntity
  8
RACCORDO
100
AcDbLine
 62
250
  6
CONTINUOUS
 10
0.422930842
 20
23.1892515218
 11
26.9316573775
 21
23.4205896736
  0
LINE
  5
357
100
AcDbEntity
  8
SUPERFICI
100
AcDbLine
 62
250
  6
CONTINUOUS
 10
0.422930842
 20
23.1892515218
 11
26.9316573775
 21
23.4205896736
  0
LINE
  5
358
100
AcDbEntity
  8
VARIANTE_COLORE
100
AcDbLine
 62
250
  6
CONTINUOUS
 10
0.422930842
 20
23.1892515218
 11
26.9316573775
 21
23.4205896736
  0
LINE
  5
359
100
AcDbEntity
  8
0
100
AcDbLine
 62
7
  6
CONTINUOUS
 10
27.922930842
 20
22.4893847911
 11
28.122930842
 21
22.4893847911
  0
LINE
  5
35A
100
AcDbEntity
  8
SUPERFICI
100
AcDbLine
 62
7
  6
CONTINUOUS
 10
27.922930842
 20
22.4893847911
 11
28.122930842
 21
22.4893847911
  0
LINE
  5
35B
100
AcDbEntity
  8
VARIANTE_COLORE
100
AcDbLine
 62
7
  6
CONTINUOUS
 10
27.922930842
 20
22.4893847911
 11
28.122930842
 21
22.4893847911
  0
LINE
  5
35C
100
AcDbEntity
  8
RACCORDO
100
AcDbLine
 62
250
  6
CONTINUOUS
 10
27.922930842
 20
23.4205896736
 11
26.9316573775
 21
23.4205896745
  0
LINE
  5
35D
100
AcDbEntity
  8
SUPERFICI
100
AcDbLine
 62
250
  6
CONTINUOUS
 10
27.922930842
 20
23.4205896736
 11
26.9316573775
 21
23.4205896745
  0
LINE
  5
35E
100
AcDbEntity
  8
VARIANTE_COLORE
100
AcDbLine
 62
250
  6
CONTINUOUS
 10
27.922930842
 20
23.4205896736
 11
26.9316573775
 21
23.4205896745
  0
LINE
  5
35F
100
AcDbEntity
  8
CURVE
100
AcDbLine
 62
250
  6
CONTINUOUS
 10
9.6047778333
 20
23.5893847911
 11
10.9046788352
 21
23.5893847911
  0
LINE
  5
360
100
AcDbEntity
  8
RACCORDO
100
AcDbLine
 62
250
  6
CONTINUOUS
 10
6.4555892016
 20
18.1449167102
 11
6.4133439396
 21
18.18766473
  0
LINE
  5
361
100
AcDbEntity
  8
RACCORDO
100
AcDbLine
 62
250
  6
CONTINUOUS
 10
6.4133439396
 20
18.18766473
 11
6.388980645
 21
18.2125692655
  0
LWPOLYLINE
  5
362
100
AcDbEntity
  8
RACCORDO
100
AcDbPolyline
 62
250
  6
CONTINUOUS
 90
4
 70
0
 10
6.388980645
 20
18.2125692655
 10
6.3698425922
 20
18.2323674865
 10
6.3627031051
 20
18.2398663286
 10
6.3573743965
 20
18.2455649278
  0
LINE
  5
363
100
AcDbEntity
  8
ASSI
100
AcDbLine
 62
250
  6
CONTINUOUS
 10
1.8962126803
 20
15.2807157267
 11
1.9099136831
 21
15.2525725189
  0
LINE
  5
364
100
AcDbEntity
  8
ASSI
100
AcDbLine
 62
250
  6
CONTINUOUS
 10
1.8808186743
 20
15.3128246472
 11
1.8962126803
 21
15.2807157267
  0
LWPOLYLINE
  5
365
100
AcDbEntity
  8
ASSI
100
AcDbPolyline
 62
250
  6
CONTINUOUS
 90
16
 70
0
 10
-2.9735786767
 20
15.8342054628
 10
-2.9716607136
 20
15.7984878886
 10
-2.9671494955
 20
15.7640985179
 10
-2.9600450223
 20
15.7310373505
 10
-2.950096875
 20
15.6991282039
 10
-2.9375554727
 20
15.6685472606
 10
-2.9231720722
 20
15.6398230691
 10
-2.9071383293
 20
15.6132127985
 10
-2.8892625883
 20
15.5884592796
 10
-2.8697211395
 20
15.5653195527
 10
-2.8488489842
 20
15.5437702791
 10
-2.826311121
 20
15.5238347975
 10
-2.8012788358
 20
15.5053401646
 10
-2.7734758905
 20
15.4882287326
 10
-2.7431785233
 20
15.4725581492
 10
-2.710386734
 20
15.4583284144
  0
LWPOLYLINE
  5
366
100
AcDbEntity
  8
ASSI
100
AcDbPolyline
 62
250
  6
CONTINUOUS
 90
7
 70
0
 10
-4.9281730185
 20
63.087132677
 10
-4.9285115073
 20
63.102679166
 10
-4.9288811032
 20
63.1157150766
 10
-4.9292746769
 20
63.1260081149
 10
-4.9296854807
 20
63.1334236169
 10
-4.930107587
 20
63.1378942914
 10
-4.9305345556
 20
63.1393847911
  0
LINE
  5
367
100
AcDbEntity
  8
ASSI
100
AcDbLine
 62
250
  6
CONTINUOUS
 10
-4.9276102434
 20
63.0495533075
 11
-4.9281730185
 21
63.087132677
  0
LINE
  5
368
100
AcDbEntity
  8
RACCORDO
100
AcDbLine
 62
250
  6
CONTINUOUS
 10
-4.2726713569
 20
16.0241415846
 11
-4.2735786767
 21
16.0859242437
  0
LWPOLYLINE
  5
369
100
AcDbEntity
  8
RACCORDO
100
AcDbPolyline
 62
250
  6
CONTINUOUS
 90
7
 70
0
 10
-4.2721943625
 20
61.2546022802
 10
-4.2723017298
 20
61.2660034889
 10
-4.2724613106
 20
61.2755082827
 10
-4.2726713569
 20
61.2830125343
 10
-4.272929568
 20
61.2884340541
 10
-4.2732331161
 20
61.2917134735
 10
-4.2735786767
 20
61.2928148775
  0
LINE
  5
36A
100
AcDbEntity
  8
RACCORDO
100
AcDbLine
 62
250
  6
CONTINUOUS
 10
-4.2723017298
 20
15.9859566161
 11
-4.2726713569
 21
16.0241415846
  0
LINE
  5
36B
100
AcDbEntity
  8
ASSI
100
AcDbLine
 62
250
  6
CONTINUOUS
 10
-4.9272259894
 20
63.0052153749
 11
-4.9276102434
 21
63.0495533075
  0
LINE
  5
36C
100
AcDbEntity
  8
RACCORDO
100
AcDbLine
 62
250
  6
CONTINUOUS
 10
-4.2721403842
 20
15.9521392019
 11
-4.2723017298
 21
15.9859566161
  0
LINE
  5
36D
100
AcDbEntity
  8
ASSI
100
AcDbLine
 62
250
  6
CONTINUOUS
 10
-4.9270440743
 20
62.9568132848
 11
-4.9272259894
 21
63.0052153749
  0
LINE
  5
36E
100
AcDbEntity
  8
RACCORDO
100
AcDbLine
 62
250
  6
CONTINUOUS
 10
-5.3805596393
 20
56.8055805459
 11
-5.3805596393
 21
56.6279300773
  0
LINE
  5
36F
100
AcDbEntity
  8
RACCORDO
100
AcDbLine
 62
250
  6
CONTINUOUS
 10
-5.3805596393
 20
20.3731890238
 11
-5.3805596393
 21
20.550839505
  0
LINE
  5
370
100
AcDbEntity
  8
RACCORDO
100
AcDbLine
 62
250
  6
CONTINUOUS
 10
-4.277069158
 20
60.5893847911
 11
-4.277069158
 21
58.296056801
  0
LINE
  5
371
100
AcDbEntity
  8
RACCORDO
100
AcDbLine
 62
250
  6
CONTINUOUS
 10
-4.277069158
 20
18.8827127812
 11
-4.277069158
 21
16.5893847911
  0
LINE
  5
372
100
AcDbEntity
  8
RACCORDO
100
AcDbLine
 62
250
  6
CONTINUOUS
 10
-4.2735786767
 20
16.0859242437
 11
-4.2735786767
 21
16.5893847911
  0
LINE
  5
373
100
AcDbEntity
  8
RACCORDO
100
AcDbLine
 62
250
  6
CONTINUOUS
 10
-4.2735786767
 20
20.4041188842
 11
-4.2735786767
 21
20.5190482849
  0
LINE
  5
374
100
AcDbEntity
  8
RACCORDO
100
AcDbLine
 62
250
  6
CONTINUOUS
 10
-4.2735786767
 20
56.6597212974
 11
-4.2735786767
 21
56.7746506823
  0
LINE
  5
375
100
AcDbEntity
  8
RACCORDO
100
AcDbLine
 62
250
  6
CONTINUOUS
 10
-4.2735786767
 20
60.5893847911
 11
-4.2735786767
 21
61.0928453385
  0
LINE
  5
376
100
AcDbEntity
  8
RACCORDO
100
AcDbLine
 62
250
  6
CONTINUOUS
 10
-4.2721403856
 20
61.2266295809
 11
-4.2721943625
 21
61.2546022802
  0
LINE
  5
377
100
AcDbEntity
  8
RACCORDO
100
AcDbLine
 62
7
  6
CONTINUOUS
 10
-4.077069158
 20
61.4893847911
 11
-4.077069158
 21
58.4870763755
  0
LINE
  5
378
100
AcDbEntity
  8
RACCORDO
100
AcDbLine
 62
7
  6
CONTINUOUS
 10
-4.077069158
 20
18.6916932067
 11
-4.077069158
 21
15.6893847911
  0
LINE
  5
379
100
AcDbEntity
  8
RACCORDO
100
AcDbLine
 62
7
  6
CONTINUOUS
 10
-4.077069158
 20
19.4863091225
 11
-4.077069158
 21
20.3733546437
  0
LINE
  5
37A
100
AcDbEntity
  8
RACCORDO
100
AcDbLine
 62
7
  6
CONTINUOUS
 10
-4.077069158
 20
56.8054149385
 11
-4.077069158
 21
57.6924604597
  0
LINE
  5
37B
100
AcDbEntity
  8
ASSI
100
AcDbLine
 62
250
  6
CONTINUOUS
 10
-4.9270440743
 20
14.2219562974
 11
-4.927226006
 21
14.1735514922
  0
LINE
  5
37C
100
AcDbEntity
  8
RACCORDO
100
AcDbLine
 62
250
  6
CONTINUOUS
 10
-4.2723017354
 20
61.1928122042
 11
-4.2721403856
 21
61.2266295809
  0
LINE
  5
37D
100
AcDbEntity
  8
ASSI
100
AcDbLine
 62
250
  6
CONTINUOUS
 10
-4.927226006
 20
14.1735514922
 11
-4.927610307
 21
14.1292107727
  0
LINE
  5
37E
100
AcDbEntity
  8
RACCORDO
100
AcDbLine
 62
250
  6
CONTINUOUS
 10
-4.2729295724
 20
61.1344132562
 11
-4.2723017354
 21
61.1928122042
  0
LINE
  5
37F
100
AcDbEntity
  8
RACCORDO
100
AcDbLine
 62
250
  6
CONTINUOUS
 10
-4.2735786767
 20
61.0928453385
 11
-4.2729295724
 21
61.1344132562
  0
LWPOLYLINE
  5
380
100
AcDbEntity
  8
ASSI
100
AcDbPolyline
 62
250
  6
CONTINUOUS
 90
8
 70
0
 10
-4.927610307
 20
14.1292107727
 10
-4.928173151
 20
14.0916300045
 10
-4.9285116592
 20
14.0760842872
 10
-4.928881261
 20
14.063049686
 10
-4.9292748234
 20
14.0527582461
 10
-4.9296855967
 20
14.0453443114
 10
-4.9301076538
 20
14.040874823
 10
-4.9305345556
 20
14.0393847911
  0
LWPOLYLINE
  5
381
100
AcDbEntity
  8
ASSI
100
AcDbPolyline
 62
250
  6
CONTINUOUS
 90
13
 70
0
 10
-2.9735786767
 20
61.344563875
 10
-2.9714524213
 20
61.3853571531
 10
-2.9654058897
 20
61.4250542128
 10
-2.9554390819
 20
61.463655054
 10
-2.9414206293
 20
61.5015360604
 10
-2.9234819004
 20
61.5383208483
 10
-2.9020170008
 20
61.5728802668
 10
-2.8767713611
 20
61.6052380985
 10
-2.8479995507
 20
61.6353705607
 10
-2.816859383
 20
61.6620771553
 10
-2.7837367958
 20
61.6849577161
 10
-2.7482458515
 20
61.7044124093
 10
-2.7103865498
 20
61.7204412348
  0
LWPOLYLINE
  5
382
100
AcDbEntity
  8
0
100
AcDbPolyline
 62
7
  6
CONTINUOUS
 90
3
 70
0
 43
0.3500000006
 10
10.4515021019
 20
84.2381247253
 10
10.380073185
 20
84.0238402405
 10
10.2372164841
 20
83.7381245728
  0
LWPOLYLINE
  5
383
100
AcDbEntity
  8
RACCORDO
100
AcDbPolyline
 62
250
  6
CONTINUOUS
 90
10
 70
0
 10
6.3733336737
 20
59.0735574187
 10
6.3647781933
 20
59.0589647082
 10
6.3563748277
 20
59.0448712765
 10
6.3482348841
 20
59.0314637984
 10
6.3404659673
 20
59.0189195227
 10
6.3331712138
 20
59.0074049892
 10
6.3264477829
 20
58.997073519
 10
6.3203847172
 20
58.988061845
 10
6.3150619168
 20
58.980488623
 10
6.3105496446
 20
58.97445372
  0
LINE
  5
384
100
AcDbEntity
  8
CURVE
100
AcDbLine
 62
7
  6
CONTINUOUS
 10
3.9307994358
 20
52.5851572138
 11
4.1230334049
 21
52.7773911829
  0
LINE
  5
385
100
AcDbEntity
  8
CURVE
100
AcDbLine
 62
7
  6
CONTINUOUS
 10
3.9307994358
 20
52.3751464998
 11
4.4184455412
 21
52.8627926052
  0
LINE
  5
386
100
AcDbEntity
  8
CURVE
100
AcDbLine
 62
7
  6
CONTINUOUS
 10
4.0239590779
 20
52.2582954279
 11
4.7138576776
 21
52.9481940276
  0
LINE
  5
387
100
AcDbEntity
  8
CURVE
100
AcDbLine
 62
7
  6
CONTINUOUS
 10
4.1863499051
 20
52.2106755411
 11
4.4247215376
 21
52.4490471736
  0
LINE
  5
388
100
AcDbEntity
  8
CURVE
100
AcDbLine
 62
7
  6
CONTINUOUS
 10
4.5455805192
 20
52.5699061552
 11
5.009269814
 21
53.03359545
  0
LINE
  5
389
100
AcDbEntity
  8
CURVE
100
AcDbLine
 62
7
  6
CONTINUOUS
 10
4.3487407323
 20
52.1630556543
 11
4.5904496341
 21
52.4047645561
  0
LINE
  5
38A
100
AcDbEntity
  8
CURVE
100
AcDbLine
 62
7
  6
CONTINUOUS
 10
4.8321675973
 20
52.6464825193
 11
5.3046819504
 21
53.1189968724
  0
LINE
  5
38B
100
AcDbEntity
  8
CURVE
100
AcDbLine
 62
7
  6
CONTINUOUS
 10
4.5111315595
 20
52.1154357675
 11
4.7561777306
 21
52.3604819386
  0
LINE
  5
38C
100
AcDbEntity
  8
CURVE
100
AcDbLine
 62
7
  6
CONTINUOUS
 10
5.1187546754
 20
52.7230588834
 11
5.6000940868
 21
53.2043982947
  0
LINE
  5
38D
100
AcDbEntity
  8
CURVE
100
AcDbLine
 62
7
  6
CONTINUOUS
 10
4.6735223868
 20
52.0678158807
 11
4.9219058271
 21
52.3161993211
  0
LINE
  5
38E
100
AcDbEntity
  8
CURVE
100
AcDbLine
 62
7
  6
CONTINUOUS
 10
5.4053417535
 20
52.7996352475
 11
5.8955062231
 21
53.2897997171
  0
LINE
  5
38F
100
AcDbEntity
  8
CURVE
100
AcDbLine
 62
7
  6
CONTINUOUS
 10
3.9308194343
 20
51.1151022142
 11
3.9962930112
 21
51.1805757911
  0
LINE
  5
390
100
AcDbEntity
  8
CURVE
100
AcDbLine
 62
7
  6
CONTINUOUS
 10
4.835913214
 20
52.0201959939
 11
5.0876339236
 21
52.2719167036
  0
LINE
  5
391
100
AcDbEntity
  8
CURVE
100
AcDbLine
 62
7
  6
CONTINUOUS
 10
5.6919288316
 20
52.8762116116
 11
6.1909183595
 21
53.3752011395
  0
LINE
  5
392
100
AcDbEntity
  8
0
100
AcDbLine
 62
250
  6
CONTINUOUS
 10
20.2314616032
 20
25.5205087911
 11
23.5935545801
 21
25.8145587911
  0
LINE
  5
393
100
AcDbEntity
  8
CURVE
100
AcDbLine
 62
250
  6
CONTINUOUS
 10
16.6042447664
 20
23.8370038434
 11
17.9041457682
 21
23.8370038434
  0
LINE
  5
394
100
AcDbEntity
  8
CURVE
100
AcDbLine
 62
250
  6
CONTINUOUS
 10
10.7189786837
 20
24.2393847911
 11
9.7904779654
 21
24.2393847911
  0
LINE
  5
395
100
AcDbEntity
  8
CURVE
100
AcDbLine
 62
250
  6
CONTINUOUS
 10
16.6042447664
 20
24.4250990658
 11
17.9041457682
 21
24.4250990658
  0
LINE
  5
396
100
AcDbEntity
  8
0
100
AcDbLine
 62
250
  6
CONTINUOUS
 10
26.422930842
 20
24.4970227911
 11
25.4039576429
 21
24.4970227911
  0
LINE
  5
397
100
AcDbEntity
  8
CURVE
100
AcDbLine
 62
250
  6
CONTINUOUS
 10
9.6047778333
 20
25.0131943076
 11
10.9046788352
 21
25.0131943076
  0
LINE
  5
398
100
AcDbEntity
  8
0
100
AcDbLine
 62
7
  6
CONTINUOUS
 10
27.922930842
 20
25.1171416047
 11
28.122930842
 21
25.1171416047
  0
LINE
  5
399
100
AcDbEntity
  8
SUPERFICI
100
AcDbLine
 62
7
  6
CONTINUOUS
 10
27.922930842
 20
25.1171416047
 11
28.122930842
 21
25.1171416047
  0
LINE
  5
39A
100
AcDbEntity
  8
VARIANTE_COLORE
100
AcDbLine
 62
7
  6
CONTINUOUS
 10
27.922930842
 20
25.1171416047
 11
28.122930842
 21
25.1171416047
  0
LINE
  5
39B
100
AcDbEntity
  8
CURVE
100
AcDbLine
 62
250
  6
CONTINUOUS
 10
16.7899448984
 20
25.353670439
 11
17.7184456168
 21
25.353670439
  0
LINE
  5
39C
100
AcDbEntity
  8
CURVE
100
AcDbLine
 62
250
  6
CONTINUOUS
 10
9.6047778333
 20
25.6012896268
 11
10.9046788352
 21
25.6012896268
  0
LINE
  5
39D
100
AcDbEntity
  8
0
100
AcDbLine
 62
250
  6
CONTINUOUS
 10
20.2314616032
 20
25.8076007911
 11
19.836858629
 21
25.8076007911
  0
LINE
  5
39E
100
AcDbEntity
  8
CURVE
100
AcDbLine
 62
250
  6
CONTINUOUS
 10
5.982087842
 20
24.8467407911
 11
3.917343842
 21
25.4359927911
  0
LINE
  5
39F
100
AcDbEntity
  8
CURVE
100
AcDbLine
 62
250
  6
CONTINUOUS
 10
3.917343842
 20
26.0617077911
 11
6.916982842
 21
25.0975037911
  0
LWPOLYLINE
  5
3A0
100
AcDbEntity
  8
RACCORDO
100
AcDbPolyline
 62
250
  6
CONTINUOUS
 90
4
 70
0
 10
-2.5835414348
 20
60.4658161566
 10
-2.5837561888
 20
60.4754842821
 10
-2.5839299781
 20
60.4809323057
 10
-2.584049072
 20
60.4826443812
  0
LINE
  5
3A1
100
AcDbEntity
  8
ASSI
100
AcDbLine
 62
250
  6
CONTINUOUS
 10
-2.2726692394
 20
14.7850544112
 11
-2.2735786767
 21
14.847016971
  0
LINE
  5
3A2
100
AcDbEntity
  8
RACCORDO
100
AcDbLine
 62
250
  6
CONTINUOUS
 10
-2.5830566152
 20
60.4316341132
 11
-2.5835414348
 21
60.4658161566
  0
LWPOLYLINE
  5
3A3
100
AcDbEntity
  8
ASSI
100
AcDbPolyline
 62
250
  6
CONTINUOUS
 90
7
 70
0
 10
-2.2721963071
 20
62.493802906
 10
-2.2723053797
 20
62.505194397
 10
-2.2724669718
 20
62.5146740593
 10
-2.2726783638
 20
62.5221117108
 10
-2.2729362837
 20
62.5274445372
 10
-2.2732376374
 20
62.5306510228
 10
-2.2735786767
 20
62.5317221503
  0
LINE
  5
3A4
100
AcDbEntity
  8
ASSI
100
AcDbLine
 62
250
  6
CONTINUOUS
 10
-2.2722996883
 20
14.7467718096
 11
-2.2726692394
 21
14.7850544112
  0
LINE
  5
3A5
100
AcDbEntity
  8
RACCORDO
100
AcDbLine
 62
250
  6
CONTINUOUS
 10
-2.5805595876
 20
60.1420601794
 11
-2.5830566152
 21
60.4316341132
  0
LINE
  5
3A6
100
AcDbEntity
  8
RACCORDO
100
AcDbLine
 62
250
  6
CONTINUOUS
 10
-2.9735786518
 20
59.7192528681
 11
-2.9738038589
 21
59.7465726749
  0
LINE
  5
3A7
100
AcDbEntity
  8
RACCORDO
100
AcDbLine
 62
250
  6
CONTINUOUS
 10
-2.9735786721
 20
17.3111589858
 11
-2.9738693358
 21
17.3661544471
  0
LINE
  5
3A8
100
AcDbEntity
  8
ASSI
100
AcDbLine
 62
250
  6
CONTINUOUS
 10
-2.2721398481
 20
14.7129173483
 11
-2.2722996883
 21
14.7467718096
  0
LWPOLYLINE
  5
3A9
100
AcDbEntity
  8
ASSI
100
AcDbPolyline
 62
250
  6
CONTINUOUS
 90
3
 70
0
 10
-1.2807583536
 20
63.1568132848
 10
-1.2808227969
 20
63.1812895712
 10
-1.2811072354
 20
63.2279434318
  0
LINE
  5
3AA
100
AcDbEntity
  8
RACCORDO
100
AcDbLine
 62
250
  6
CONTINUOUS
 10
-2.9738038589
 20
59.7465726749
 11
-2.9739017938
 21
59.7950223072
  0
LINE
  5
3AB
100
AcDbEntity
  8
RACCORDO
100
AcDbLine
 62
250
  6
CONTINUOUS
 10
-2.9735786767
 20
17.3111592548
 11
-2.9735786767
 21
15.8342054628
  0
LINE
  5
3AC
100
AcDbEntity
  8
RACCORDO
100
AcDbLine
 62
250
  6
CONTINUOUS
 10
-2.9735786767
 20
59.8676103275
 11
-2.9735786767
 21
61.344563875
  0
LINE
  5
3AD
100
AcDbEntity
  8
RACCORDO
100
AcDbLine
 62
7
  6
CONTINUOUS
 10
-2.777069158
 20
16.9655162234
 11
-2.777069158
 21
15.8342054628
  0
LINE
  5
3AE
100
AcDbEntity
  8
RACCORDO
100
AcDbLine
 62
7
  6
CONTINUOUS
 10
-2.777069158
 20
60.2132533588
 11
-2.777069158
 21
61.3445641195
  0
LINE
  5
3AF
100
AcDbEntity
  8
RACCORDO
100
AcDbLine
 62
250
  6
CONTINUOUS
 10
-2.5805596393
 20
17.1163196681
 11
-2.5805596393
 21
17.036709401
  0
LINE
  5
3B0
100
AcDbEntity
  8
RACCORDO
100
AcDbLine
 62
250
  6
CONTINUOUS
 10
-2.5805596393
 20
60.0624499142
 11
-2.5805596393
 21
60.1420601813
  0
LINE
  5
3B1
100
AcDbEntity
  8
ASSI
100
AcDbLine
 62
250
  6
CONTINUOUS
 10
-2.2735786767
 20
15.2993432835
 11
-2.2735786767
 21
14.847016971
  0
LINE
  5
3B2
100
AcDbEntity
  8
ASSI
100
AcDbLine
 62
250
  6
CONTINUOUS
 10
-2.2735786767
 20
61.8794262988
 11
-2.2735786767
 21
62.3317526113
  0
LINE
  5
3B3
100
AcDbEntity
  8
ASSI
100
AcDbLine
 62
250
  6
CONTINUOUS
 10
-2.2721398481
 20
62.4658522339
 11
-2.2721963071
 21
62.493802906
  0
LINE
  5
3B4
100
AcDbEntity
  8
ASSI
100
AcDbLine
 62
7
  6
CONTINUOUS
 10
-2.077069158
 20
15.2993432835
 11
-2.077069158
 21
14.847016971
  0
LINE
  5
3B5
100
AcDbEntity
  8
ASSI
100
AcDbLine
 62
7
  6
CONTINUOUS
 10
-2.077069158
 20
61.8794262988
 11
-2.077069158
 21
62.3317526113
  0
LINE
  5
3B6
100
AcDbEntity
  8
RACCORDO
100
AcDbLine
 62
250
  6
CONTINUOUS
 10
-2.9738693358
 20
17.3661544471
 11
-2.9738693475
 21
17.4169115724
  0
LWPOLYLINE
  5
3B7
100
AcDbEntity
  8
ASSI
100
AcDbPolyline
 62
250
  6
CONTINUOUS
 90
3
 70
0
 10
-1.2807583536
 20
14.0219562974
 10
-1.2809396874
 20
13.9736494856
 10
-1.2811072222
 20
13.9508276714
  0
LWPOLYLINE
  5
3B8
100
AcDbEntity
  8
RACCORDO
100
AcDbPolyline
 62
250
  6
CONTINUOUS
 90
3
 70
0
 10
-2.9739017938
 20
59.7950223072
 10
-2.9737068587
 20
59.8490665115
 10
-2.973578671
 20
59.8676105925
  0
LINE
  5
3B9
100
AcDbEntity
  8
ASSI
100
AcDbLine
 62
250
  6
CONTINUOUS
 10
-2.2722996883
 20
62.4319977726
 11
-2.2721398481
 21
62.4658522339
  0
LWPOLYLINE
  5
3BA
100
AcDbEntity
  8
RACCORDO
100
AcDbPolyline
 62
250
  6
CONTINUOUS
 90
3
 70
0
 10
-2.9738693475
 20
17.4169115724
 10
-2.9737068896
 20
17.4464396703
 10
-2.9735786593
 20
17.4595167139
  0
LWPOLYLINE
  5
3BB
100
AcDbEntity
  8
RACCORDO
100
AcDbPolyline
 62
250
  6
CONTINUOUS
 90
3
 70
0
 10
-2.5805596393
 20
17.036709401
 10
-2.5809355025
 20
16.9878659049
 10
-2.5812821349
 20
16.9422661393
  0
LINE
  5
3BC
100
AcDbEntity
  8
ASSI
100
AcDbLine
 62
250
  6
CONTINUOUS
 10
-2.2729278741
 20
62.3734441776
 11
-2.2722996883
 21
62.4319977726
  0
LWPOLYLINE
  5
3BD
100
AcDbEntity
  8
RACCORDO
100
AcDbPolyline
 62
250
  6
CONTINUOUS
 90
5
 70
0
 10
-2.5812821349
 20
16.9422661393
 10
-2.5833785104
 20
16.7231347595
 10
-2.5835934787
 20
16.7084483018
 10
-2.5838099095
 20
16.6992877378
 10
-2.5840490829
 20
16.6961252007
  0
LINE
  5
3BE
100
AcDbEntity
  8
ASSI
100
AcDbLine
 62
250
  6
CONTINUOUS
 10
-2.2735786767
 20
62.3317526113
 11
-2.2729278741
 21
62.3734441776
  0
LWPOLYLINE
  5
3BF
100
AcDbEntity
  8
ASSI
100
AcDbPolyline
 62
250
  6
CONTINUOUS
 90
7
 70
0
 10
-2.2086651293
 20
15.4872818076
 10
-2.2087113135
 20
15.4861675189
 10
-2.2094871204
 20
15.4830564952
 10
-2.2109901036
 20
15.4779660518
 10
-2.2132109069
 20
15.4709320648
 10
-2.216130683
 20
15.462017081
 10
-2.2197184329
 20
15.4513173207
  0
LINE
  5
3C0
100
AcDbEntity
  8
CURVE
100
AcDbLine
 62
7
  6
CONTINUOUS
 10
3.9308194343
 20
50.9050915002
 11
4.2063037252
 21
51.1805757911
  0
LINE
  5
3C1
100
AcDbEntity
  8
CURVE
100
AcDbLine
 62
7
  6
CONTINUOUS
 10
4.9983040412
 20
51.9725761071
 11
5.2533620201
 21
52.227634086
  0
LINE
  5
3C2
100
AcDbEntity
  8
CURVE
100
AcDbLine
 62
7
  6
CONTINUOUS
 10
5.8914871133
 20
52.8657591792
 11
6.4863304959
 21
53.4606025618
  0
LINE
  5
3C3
100
AcDbEntity
  8
CURVE
100
AcDbLine
 62
7
  6
CONTINUOUS
 10
3.9308194343
 20
50.6950807862
 11
4.2132909217
 21
50.9775522737
  0
LINE
  5
3C4
100
AcDbEntity
  8
CURVE
100
AcDbLine
 62
7
  6
CONTINUOUS
 10
5.1606948684
 20
51.9249562204
 11
5.4190901166
 21
52.1833514685
  0
LINE
  5
3C5
100
AcDbEntity
  8
CURVE
100
AcDbLine
 62
7
  6
CONTINUOUS
 10
5.8914871133
 20
52.6557484652
 11
6.1739616006
 21
52.9382229525
  0
LINE
  5
3C6
100
AcDbEntity
  8
CURVE
100
AcDbLine
 62
7
  6
CONTINUOUS
 10
6.2770989946
 20
53.0413603465
 11
6.7817426323
 21
53.5460039842
  0
LINE
  5
3C7
100
AcDbEntity
  8
CURVE
100
AcDbLine
 62
7
  6
CONTINUOUS
 10
3.9308194343
 20
50.4850700722
 11
4.2132909217
 21
50.7675415596
  0
LINE
  5
3C8
100
AcDbEntity
  8
CURVE
100
AcDbLine
 62
7
  6
CONTINUOUS
 10
5.3230856957
 20
51.8773363336
 11
5.5848182131
 21
52.139068851
  0
LINE
  5
3C9
100
AcDbEntity
  8
CURVE
100
AcDbLine
 62
7
  6
CONTINUOUS
 10
5.8914871133
 20
52.4457377512
 11
6.1739616006
 21
52.7282122385
  0
LINE
  5
3CA
100
AcDbEntity
  8
CURVE
100
AcDbLine
 62
7
  6
CONTINUOUS
 10
6.5682398299
 20
53.1224904678
 11
6.9341707044
 21
53.4884213423
  0
LINE
  5
3CB
100
AcDbEntity
  8
CURVE
100
AcDbLine
 62
7
  6
CONTINUOUS
 10
3.9308194343
 20
50.2750593582
 11
4.2132909217
 21
50.5575308456
  0
LINE
  5
3CC
100
AcDbEntity
  8
CURVE
100
AcDbLine
 62
7
  6
CONTINUOUS
 10
5.4854765229
 20
51.8297164468
 11
5.7505463096
 21
52.0947862335
  0
LINE
  5
3CD
100
AcDbEntity
  8
CURVE
100
AcDbLine
 62
7
  6
CONTINUOUS
 10
5.8914871133
 20
52.2357270372
 11
6.1739616006
 21
52.5182015244
  0
LINE
  5
3CE
100
AcDbEntity
  8
CURVE
100
AcDbLine
 62
7
  6
CONTINUOUS
 10
6.8593806653
 20
53.2036205892
 11
6.9341707044
 21
53.2784106283
  0
LINE
  5
3CF
100
AcDbEntity
  8
CURVE
100
AcDbLine
 62
7
  6
CONTINUOUS
 10
3.9308194343
 20
50.0650486441
 11
4.2132909217
 21
50.3475201316
  0
LINE
  5
3D0
100
AcDbEntity
  8
CURVE
100
AcDbLine
 62
7
  6
CONTINUOUS
 10
5.6478673501
 20
51.78209656
 11
6.1739616006
 21
52.3081908104
  0
LINE
  5
3D1
100
AcDbEntity
  8
CURVE
100
AcDbLine
 62
7
  6
CONTINUOUS
 10
3.9308194343
 20
49.8550379301
 11
4.2260862953
 21
50.1503047911
  0
LINE
  5
3D2
100
AcDbEntity
  8
CURVE
100
AcDbLine
 62
7
  6
CONTINUOUS
 10
5.8102581773
 20
51.7344766732
 11
6.1739616006
 21
52.0981800964
  0
LINE
  5
3D3
100
AcDbEntity
  8
CURVE
100
AcDbLine
 62
7
  6
CONTINUOUS
 10
4.0829810093
 20
49.7971887911
 11
4.4360970093
 21
50.1503047911
  0
LINE
  5
3D4
100
AcDbEntity
  8
CURVE
100
AcDbLine
 62
7
  6
CONTINUOUS
 10
5.2434834641
 20
50.957691246
 11
5.4123630093
 21
51.1265707911
  0
LINE
  5
3D5
100
AcDbEntity
  8
CURVE
100
AcDbLine
 62
7
  6
CONTINUOUS
 10
5.9726490046
 20
51.6868567864
 11
6.2378665539
 21
51.9520743358
  0
LINE
  5
3D6
100
AcDbEntity
  8
CURVE
100
AcDbLine
 62
7
  6
CONTINUOUS
 10
4.2929917233
 20
49.7971887911
 11
4.6461077233
 21
50.1503047911
  0
LINE
  5
3D7
100
AcDbEntity
  8
CURVE
100
AcDbLine
 62
7
  6
CONTINUOUS
 10
5.2434834641
 20
50.747680532
 11
5.5259559515
 21
51.0301530194
  0
LINE
  5
3D8
100
AcDbEntity
  8
CURVE
100
AcDbLine
 62
7
  6
CONTINUOUS
 10
6.1350398318
 20
51.6392368996
 11
6.4021039371
 21
51.9063010049
  0
LINE
  5
3D9
100
AcDbEntity
  8
CURVE
100
AcDbLine
 62
7
  6
CONTINUOUS
 10
3.9308194343
 20
49.2250057881
 11
3.9532904373
 21
49.2474767911
  0
LINE
  5
3DA
100
AcDbEntity
  8
CURVE
100
AcDbLine
 62
7
  6
CONTINUOUS
 10
4.5030024373
 20
49.7971887911
 11
4.8561184373
 21
50.1503047911
  0
LINE
  5
3DB
100
AcDbEntity
  8
CURVE
100
AcDbLine
 62
7
  6
CONTINUOUS
 10
5.2434834641
 20
50.5376698179
 11
5.5259559515
 21
50.8201423053
  0
LINE
  5
3DC
100
AcDbEntity
  8
CURVE
100
AcDbLine
 62
7
  6
CONTINUOUS
 10
6.297430659
 20
51.5916170128
 11
6.5663413202
 21
51.8605276741
  0
LINE
  5
3DD
100
AcDbEntity
  8
CURVE
100
AcDbLine
 62
7
  6
CONTINUOUS
 10
3.9308194343
 20
49.0149950741
 11
4.1633011513
 21
49.2474767911
  0
LINE
  5
3DE
100
AcDbEntity
  8
CURVE
100
AcDbLine
 62
7
  6
CONTINUOUS
 10
4.7130131513
 20
49.7971887911
 11
5.0661291513
 21
50.1503047911
  0
LINE
  5
3DF
100
AcDbEntity
  8
CURVE
100
AcDbLine
 62
7
  6
CONTINUOUS
 10
5.2434834641
 20
50.3276591039
 11
5.5259559515
 21
50.6101315913
  0
LINE
  5
3E0
100
AcDbEntity
  8
CURVE
100
AcDbLine
 62
7
  6
CONTINUOUS
 10
6.4598214862
 20
51.5439971261
 11
6.7305787034
 21
51.8147543432
  0
LINE
  5
3E1
100
AcDbEntity
  8
CURVE
100
AcDbLine
 62
7
  6
CONTINUOUS
 10
4.0450928653
 20
48.9192577911
 11
4.3733118653
 21
49.2474767911
  0
LINE
  5
3E2
100
AcDbEntity
  8
CURVE
100
AcDbLine
 62
7
  6
CONTINUOUS
 10
4.9230238653
 20
49.7971887911
 11
5.5259559515
 21
50.4001208773
  0
LINE
  5
3E3
100
AcDbEntity
  8
CURVE
100
AcDbLine
 62
7
  6
CONTINUOUS
 10
6.6222123135
 20
51.4963772393
 11
6.8948160865
 21
51.7689810123
  0
LINE
  5
3E4
100
AcDbEntity
  8
CURVE
100
AcDbLine
 62
7
  6
CONTINUOUS
 10
4.2551035793
 20
48.9192577911
 11
4.5833225793
 21
49.2474767911
  0
LINE
  5
3E5
100
AcDbEntity
  8
CURVE
100
AcDbLine
 62
7
  6
CONTINUOUS
 10
5.1330345793
 20
49.7971887911
 11
5.5259559515
 21
50.1901101633
  0
LINE
  5
3E6
100
AcDbEntity
  8
CURVE
100
AcDbLine
 62
7
  6
CONTINUOUS
 10
6.7846031407
 20
51.4487573525
 11
6.9341707044
 21
51.5983249162
  0
LINE
  5
3E7
100
AcDbEntity
  8
CURVE
100
AcDbLine
 62
7
  6
CONTINUOUS
 10
4.4651142933
 20
48.9192577911
 11
4.7933332933
 21
49.2474767911
  0
LINE
  5
3E8
100
AcDbEntity
  8
CURVE
100
AcDbLine
 62
7
  6
CONTINUOUS
 10
5.3430452933
 20
49.7971887911
 11
5.6961612933
 21
50.1503047911
  0
LINE
  5
3E9
100
AcDbEntity
  8
CURVE
100
AcDbLine
 62
7
  6
CONTINUOUS
 10
6.6516902176
 20
51.1058337154
 11
6.7555132933
 21
51.2096567911
  0
LINE
  5
3EA
100
AcDbEntity
  8
CURVE
100
AcDbLine
 62
7
  6
CONTINUOUS
 10
4.6751250074
 20
48.9192577911
 11
5.0033440074
 21
49.2474767911
  0
LINE
  5
3EB
100
AcDbEntity
  8
CURVE
100
AcDbLine
 62
7
  6
CONTINUOUS
 10
5.5530560074
 20
49.7971887911
 11
5.9061720074
 21
50.1503047911
  0
LINE
  5
3EC
100
AcDbEntity
  8
CURVE
100
AcDbLine
 62
7
  6
CONTINUOUS
 10
6.6516902176
 20
50.8958230014
 11
6.9341617051
 21
51.1782944888
  0
LINE
  5
3ED
100
AcDbEntity
  8
CURVE
100
AcDbLine
 62
250
  6
CONTINUOUS
 10
9.6047778333
 20
53.5822418897
 11
9.7904779654
 21
53.737003824
  0
LINE
  5
3EE
100
AcDbEntity
  8
CURVE
100
AcDbLine
 62
250
  6
CONTINUOUS
 10
9.9761780974
 20
51.1679562418
 11
9.7904779654
 21
51.0750991433
  0
LINE
  5
3EF
100
AcDbEntity
  8
CURVE
100
AcDbLine
 62
250
  6
CONTINUOUS
 10
3.9308194343
 20
47.9097587911
 11
6.6309207994
 21
48.9192577911
  0
LINE
  5
3F0
100
AcDbEntity
  8
CURVE
100
AcDbLine
 62
250
  6
CONTINUOUS
 10
3.917343842
 20
24.2749547911
 11
5.982087842
 21
24.8467407911
  0
LWPOLYLINE
  5
3F1
100
AcDbEntity
  8
0
100
AcDbPolyline
 62
250
  6
CONTINUOUS
 90
17
 70
0
 10
23.4724151929
 20
27.1364927911
 10
23.5341001201
 20
27.1425412814
 10
23.5934354876
 20
27.1604563672
 10
23.6481612297
 20
27.1895556684
 10
23.6969780988
 20
27.2295133343
 10
23.7363191634
 20
27.277409754
 10
23.7656082079
 20
27.332035671
 10
23.7837296214
 20
27.3913104011
 10
23.7899951
 20
27.4540847911
 10
23.78394684
 20
27.5157720672
 10
23.7660324363
 20
27.5751096941
 10
23.7369342431
 20
27.62983752
 10
23.6969780988
 20
27.678656248
 10
23.6490835028
 20
27.7179988107
 10
23.5944596658
 20
27.7472889704
 10
23.5351871927
 20
27.765411074
 10
23.4724151651
 20
27.7716767911
  0
LWPOLYLINE
  5
3F2
100
AcDbEntity
  8
0
100
AcDbPolyline
 62
250
  6
CONTINUOUS
 90
17
 70
0
 10
23.4724151929
 20
27.3135747911
 10
23.4997060224
 20
27.3162507822
 10
23.5259573527
 20
27.3241768279
 10
23.5501692787
 20
27.3370510276
 10
23.5717669836
 20
27.3547292173
 10
23.5891723748
 20
27.3759196942
 10
23.6021305212
 20
27.4000874553
 10
23.610147851
 20
27.4263119582
 10
23.6129198427
 20
27.4540847911
 10
23.6102439535
 20
27.4813766598
 10
23.6023182096
 20
27.5076289897
 10
23.5894445002
 20
27.5318418377
 10
23.5717669836
 20
27.5534403649
 10
23.5505773136
 20
27.5708464189
 10
23.5264104726
 20
27.5838050587
 10
23.5001869683
 20
27.5918226939
 10
23.4724151806
 20
27.5945947911
  0
LWPOLYLINE
  5
3F3
100
AcDbEntity
  8
0
100
AcDbPolyline
 62
250
  6
CONTINUOUS
 90
17
 70
0
 10
23.4724151929
 20
27.5945947911
 10
23.4451243634
 20
27.5919188
 10
23.4188730331
 20
27.5839927543
 10
23.3946611071
 20
27.5711185547
 10
23.3730634022
 20
27.5534403649
 10
23.3556580111
 20
27.5322498881
 10
23.3426998647
 20
27.5080821269
 10
23.3346825348
 20
27.481857624
 10
23.3319105431
 20
27.4540847911
 10
23.3345864323
 20
27.4267929224
 10
23.3425121762
 20
27.4005405925
 10
23.3553858857
 20
27.3763277445
 10
23.3730634022
 20
27.3547292173
 10
23.3942530723
 20
27.3373231633
 10
23.4184199132
 20
27.3243645235
 10
23.4446434175
 20
27.3163468884
 10
23.4724152052
 20
27.3135747911
  0
LWPOLYLINE
  5
3F4
100
AcDbEntity
  8
0
100
AcDbPolyline
 62
250
  6
CONTINUOUS
 90
17
 70
0
 10
23.4724151929
 20
27.7716767911
 10
23.4107302657
 20
27.7656283008
 10
23.3513948982
 20
27.747713215
 10
23.2966691561
 20
27.7186139138
 10
23.2478522871
 20
27.678656248
 10
23.2085112224
 20
27.6307598282
 10
23.179222178
 20
27.5761339112
 10
23.1611007644
 20
27.5168591812
 10
23.1548352858
 20
27.4540847911
 10
23.1608835458
 20
27.3923975151
 10
23.1787979495
 20
27.3330598882
 10
23.2078961427
 20
27.2783320622
 10
23.2478522871
 20
27.2295133343
 10
23.295746883
 20
27.1901707716
 10
23.3503707201
 20
27.1608806118
 10
23.4096431931
 20
27.1427585082
 10
23.4724152207
 20
27.1364927911
  0
LWPOLYLINE
  5
3F5
100
AcDbEntity
  8
0
100
AcDbPolyline
 62
250
  6
CONTINUOUS
 90
17
 70
0
 10
20.1269885814
 20
27.6867157911
 10
20.1643931969
 20
27.6903834854
 10
20.2003730822
 20
27.7012468669
 10
20.2335577747
 20
27.7188921527
 10
20.2631594343
 20
27.743121753
 10
20.2870151389
 20
27.7721652689
 10
20.3047754815
 20
27.8052894293
 10
20.3157639764
 20
27.8412325452
 10
20.3195632484
 20
27.8792977911
 10
20.3158956938
 20
27.9167038309
 10
20.305032726
 20
27.9526850863
 10
20.287388112
 20
27.9858710425
 10
20.2631594343
 20
28.0154738293
 10
20.2341170243
 20
28.0393304422
 10
20.2009941252
 20
28.0570914612
 10
20.1650523779
 20
28.0680803745
 10
20.1269885645
 20
28.0718797911
  0
LWPOLYLINE
  5
3F6
100
AcDbEntity
  8
0
100
AcDbPolyline
 62
250
  6
CONTINUOUS
 90
17
 70
0
 10
20.1269885814
 20
28.0718797911
 10
20.0895839658
 20
28.0682120969
 10
20.0536040805
 20
28.0573487154
 10
20.020419388
 20
28.0397034295
 10
19.9908177284
 20
28.0154738293
 10
19.9669620238
 20
27.9864303133
 10
19.9492016812
 20
27.953306153
 10
19.9382131863
 20
27.917363037
 10
19.9344139143
 20
27.8792977911
 10
19.9380814689
 20
27.8418917513
 10
19.9489444367
 20
27.8059104959
 10
19.9665890507
 20
27.7727245398
 10
19.9908177284
 20
27.743121753
 10
20.0198601384
 20
27.7192651401
 10
20.0529830375
 20
27.7015041211
 10
20.0889247848
 20
27.6905152078
 10
20.1269885982
 20
27.6867157911
  0
LINE
  5
3F7
100
AcDbEntity
  8
0
100
AcDbLine
 62
250
  6
CONTINUOUS
 10
23.7899951
 20
25.8712677911
 11
23.5935545801
 21
25.8712677911
  0
LINE
  5
3F8
100
AcDbEntity
  8
0
100
AcDbLine
 62
250
  6
CONTINUOUS
 10
19.836858629
 20
25.9069747911
 11
20.2314616032
 21
25.9069747911
  0
LINE
  5
3F9
100
AcDbEntity
  8
0
100
AcDbLine
 62
250
  6
CONTINUOUS
 10
23.5935545801
 20
25.9888877911
 11
23.7899951
 21
25.9888877911
  0
LINE
  5
3FA
100
AcDbEntity
  8
CURVE
100
AcDbLine
 62
250
  6
CONTINUOUS
 10
10.1618782295
 20
26.2512896268
 11
9.7904779654
 21
26.2512896268
  0
LINE
  5
3FB
100
AcDbEntity
  8
CURVE
100
AcDbLine
 62
250
  6
CONTINUOUS
 10
3.917163842
 20
26.2940707911
 11
6.916982842
 21
26.2940707911
  0
LINE
  5
3FC
100
AcDbEntity
  8
0
100
AcDbLine
 62
250
  6
CONTINUOUS
 10
21.2748478727
 20
26.3774547911
 11
21.0592200835
 21
26.3774547911
  0
LINE
  5
3FD
100
AcDbEntity
  8
0
100
AcDbLine
 62
250
  6
CONTINUOUS
 10
19.9613738877
 20
26.4324577911
 11
19.7438881692
 21
26.4324577911
  0
LINE
  5
3FE
100
AcDbEntity
  8
CURVE
100
AcDbLine
 62
250
  6
CONTINUOUS
 10
9.6047778333
 20
26.6227180211
 11
10.9046788352
 21
26.6227180211
  0
LINE
  5
3FF
100
AcDbEntity
  8
CURVE
100
AcDbLine
 62
250
  6
CONTINUOUS
 10
6.916982842
 20
26.9202127911
 11
3.917163842
 21
26.9202127911
  0
LINE
  5
400
100
AcDbEntity
  8
0
100
AcDbLine
 62
250
  6
CONTINUOUS
 10
19.744446148
 20
27.0054607911
 11
19.9619318664
 21
27.0054607911
  0
LINE
  5
401
100
AcDbEntity
  8
0
100
AcDbLine
 62
250
  6
CONTINUOUS
 10
21.0592200835
 20
27.2007947911
 11
21.2748478727
 21
27.2007947911
  0
LINE
  5
402
100
AcDbEntity
  8
CURVE
100
AcDbLine
 62
250
  6
CONTINUOUS
 10
9.7904779654
 20
27.5512896268
 11
10.7189786837
 21
27.5512896268
  0
LINE
  5
403
100
AcDbEntity
  8
0
100
AcDbLine
 62
250
  6
CONTINUOUS
 10
20.9668076024
 20
27.6572717911
 11
20.5943577847
 21
27.6572717911
  0
LINE
  5
404
100
AcDbEntity
  8
CURVE
100
AcDbLine
 62
250
  6
CONTINUOUS
 10
17.9041457682
 20
27.8298609226
 11
16.6042447664
 21
27.8298609226
  0
LINE
  5
405
100
AcDbEntity
  8
CURVE
100
AcDbLine
 62
250
  6
CONTINUOUS
 10
4.958274842
 20
27.9914207911
 11
6.916982842
 21
27.8562997911
  0
LINE
  5
406
100
AcDbEntity
  8
CURVE
100
AcDbLine
 62
250
  6
CONTINUOUS
 10
6.916982842
 20
27.2572847911
 11
3.917343842
 21
27.5281347911
  0
LWPOLYLINE
  5
407
100
AcDbEntity
  8
RACCORDO
100
AcDbPolyline
 62
7
  6
CONTINUOUS
 90
10
 70
0
 10
6.422930842
 20
19.0719334972
 10
6.4238090395
 20
19.0704706644
 10
6.425680568
 20
19.0678980304
 10
6.4282651192
 20
19.0649425944
 10
6.4317083781
 20
19.0616705469
 10
6.4361660285
 20
19.0581896746
 10
6.4416956293
 20
19.0547082169
 10
6.448453236
 20
19.0513866309
 10
6.456746328
 20
19.0483936546
 10
6.466666255
 20
19.0460734353
  0
LINE
  5
408
100
AcDbEntity
  8
ASSI
100
AcDbLine
 62
250
  6
CONTINUOUS
 10
1.9655869746
 20
16.6415470732
 11
1.9498775627
 21
16.8544534077
  0
LINE
  5
409
100
AcDbEntity
  8
ASSI
100
AcDbLine
 62
250
  6
CONTINUOUS
 10
1.9814913979
 20
16.4091409421
 11
1.9655869746
 21
16.6415470732
  0
LINE
  5
40A
100
AcDbEntity
  8
ASSI
100
AcDbLine
 62
250
  6
CONTINUOUS
 10
1.9976744936
 20
16.1525514351
 11
1.9814913979
 21
16.4091409421
  0
LINE
  5
40B
100
AcDbEntity
  8
ASSI
100
AcDbLine
 62
250
  6
CONTINUOUS
 10
2.0140522193
 20
15.8684156365
 11
1.9976744936
 21
16.1525514351
  0
LINE
  5
40C
100
AcDbEntity
  8
ASSI
100
AcDbLine
 62
250
  6
CONTINUOUS
 10
2.0303039224
 20
15.5568132848
 11
2.0140522193
 21
15.8684156365
  0
LINE
  5
40D
100
AcDbEntity
  8
ASSI
100
AcDbLine
 62
250
  6
CONTINUOUS
 10
1.816306504
 20
16.559036233
 11
1.8011461173
 21
16.8492595915
  0
LINE
  5
40E
100
AcDbEntity
  8
ASSI
100
AcDbLine
 62
250
  6
CONTINUOUS
 10
1.831756683
 20
16.2308941169
 11
1.816306504
 21
16.559036233
  0
LINE
  5
40F
100
AcDbEntity
  8
ASSI
100
AcDbLine
 62
250
  6
CONTINUOUS
 10
1.8435661973
 20
15.9533658598
 11
1.831756683
 21
16.2308941169
  0
LWPOLYLINE
  5
410
100
AcDbEntity
  8
ASSI
100
AcDbPolyline
 62
250
  6
CONTINUOUS
 90
3
 70
0
 10
1.8592619592
 20
15.5393847911
 10
1.8553675399
 20
15.6475677695
 10
1.8435661973
 20
15.9533658598
  0
LWPOLYLINE
  5
411
100
AcDbEntity
  8
ASSI
100
AcDbPolyline
 62
250
  6
CONTINUOUS
 90
7
 70
0
 10
-1.2818842787
 20
63.2869752632
 10
-1.2822219199
 20
63.302522853
 10
-1.2825906811
 20
63.3155711737
 10
-1.2829840826
 20
63.3259006768
 10
-1.2833956959
 20
63.3333655259
 10
-1.2838194366
 20
63.3378772142
 10
-1.2842488349
 20
63.3393847911
  0
LWPOLYLINE
  5
412
100
AcDbEntity
  8
ASSI
100
AcDbPolyline
 62
250
  6
CONTINUOUS
 90
7
 70
0
 10
-1.0855493322
 20
63.2868393583
 10
-1.0858859514
 20
63.3023759987
 10
-1.0862535659
 20
63.3154246478
 10
-1.0866465643
 20
63.3257861235
 10
-1.0870589475
 20
63.3333022624
 10
-1.0874844207
 20
63.3378583338
 10
-1.0879164893
 20
63.3393847911
  0
LINE
  5
413
100
AcDbEntity
  8
ASSI
100
AcDbLine
 62
250
  6
CONTINUOUS
 10
-1.0849890814
 20
63.2492851024
 11
-1.0855493322
 21
63.2868393583
  0
LWPOLYLINE
  5
414
100
AcDbEntity
  8
ASSI
100
AcDbPolyline
 62
250
  6
CONTINUOUS
 90
3
 70
0
 10
-1.2811072354
 20
63.2279434318
 10
-1.2813228182
 20
63.2494057456
 10
-1.2818842787
 20
63.2869752632
  0
LINE
  5
415
100
AcDbEntity
  8
ASSI
100
AcDbLine
 62
250
  6
CONTINUOUS
 10
-1.0846068911
 20
63.2050461284
 11
-1.0849890814
 21
63.2492851024
  0
LWPOLYLINE
  5
416
100
AcDbEntity
  8
ASSI
100
AcDbPolyline
 62
250
  6
CONTINUOUS
 90
37
 70
0
 10
0.8209269294
 20
15.5568138149
 10
0.8210521542
 20
15.523075475
 10
0.824048739
 20
15.4903798235
 10
0.8299166838
 20
15.4587268604
 10
0.8390345396
 20
15.4277312464
 10
0.8510237555
 20
15.3977783208
 10
0.8647486776
 20
15.3700241016
 10
0.880168789
 20
15.3448848599
 10
0.8973246066
 20
15.3219443246
 10
0.9152020283
 20
15.3011096996
 10
0.9336673592
 20
15.2824868108
 10
0.9528542942
 20
15.2659698324
 10
0.9721498148
 20
15.2511484911
 10
0.9914740532
 20
15.2380217243
 10
1.0109068773
 20
15.2265905946
 10
1.0300748724
 20
15.2164480169
 10
1.0489257258
 20
15.2075779083
 10
1.0675117502
 20
15.1999963518
 10
1.0856164692
 20
15.1933445109
 10
1.1031614806
 20
15.1876076463
 10
1.1202251866
 20
15.1828004975
 10
1.1368263168
 20
15.178608446
 10
1.152887553
 20
15.1750041751
 10
1.1684862135
 20
15.1720150015
 10
1.1838729834
 20
15.1694082577
 10
1.1990694651
 20
15.1671486606
 10
1.2140540563
 20
15.1652714931
 10
1.2290126348
 20
15.1636499363
 10
1.2439951841
 20
15.1622675797
 10
1.2589517208
 20
15.1611408337
 10
1.2739181719
 20
15.1601921103
 10
1.288843089
 20
15.1594179913
 10
1.3037779204
 20
15.158821895
 10
1.3189129386
 20
15.1583364875
 10
1.3342257453
 20
15.1579545766
 10
1.3497387387
 20
15.1576833547
 10
1.3822235094
 20
15.1573204541
  0
LINE
  5
417
100
AcDbEntity
  8
ASSI
100
AcDbLine
 62
250
  6
CONTINUOUS
 10
-1.084426008
 20
63.1568132848
 11
-1.0846068911
 21
63.2050461284
  0
LINE
  5
418
100
AcDbEntity
  8
RACCORDO
100
AcDbLine
 62
250
  6
CONTINUOUS
 10
0.3246760827
 20
56.2097711026
 11
0.324780131
 21
20.9024377055
  0
LINE
  5
419
100
AcDbEntity
  8
SUPERFICI
100
AcDbLine
 62
7
  6
CONTINUOUS
 10
0.422930842
 20
20.9065757139
 11
0.422930842
 21
21.0589649012
  0
LINE
  5
41A
100
AcDbEntity
  8
VARIANTE_COLORE
100
AcDbLine
 62
7
  6
CONTINUOUS
 10
0.422930842
 20
20.9065757139
 11
0.422930842
 21
21.0589649012
  0
LINE
  5
41B
100
AcDbEntity
  8
RACCORDO
100
AcDbLine
 62
7
  6
CONTINUOUS
 10
0.422930842
 20
17.5845731854
 11
0.422930842
 21
59.5941963968
  0
LINE
  5
41C
100
AcDbEntity
  8
SUPERFICI
100
AcDbLine
 62
7
  6
CONTINUOUS
 10
0.422930842
 20
22.3533627389
 11
0.422930842
 21
54.8254068434
  0
LINE
  5
41D
100
AcDbEntity
  8
VARIANTE_COLORE
100
AcDbLine
 62
7
  6
CONTINUOUS
 10
0.422930842
 20
22.3533627389
 11
0.422930842
 21
54.8254068434
  0
LINE
  5
41E
100
AcDbEntity
  8
SUPERFICI
100
AcDbLine
 62
7
  6
CONTINUOUS
 10
0.422930842
 20
56.119804681
 11
0.422930842
 21
56.2721941034
  0
LINE
  5
41F
100
AcDbEntity
  8
VARIANTE_COLORE
100
AcDbLine
 62
7
  6
CONTINUOUS
 10
0.422930842
 20
56.119804681
 11
0.422930842
 21
56.2721941034
  0
LINE
  5
420
100
AcDbEntity
  8
RACCORDO
100
AcDbLine
 62
250
  6
CONTINUOUS
 10
0.3246760827
 20
59.7828594566
 11
0.3246760827
 21
56.2097710987
  0
LINE
  5
421
100
AcDbEntity
  8
RACCORDO
100
AcDbLine
 62
250
  6
CONTINUOUS
 10
0.324780131
 20
20.9024377055
 11
0.3246760827
 21
17.3959101257
  0
LINE
  5
422
100
AcDbEntity
  8
ASSI
100
AcDbLine
 62
250
  6
CONTINUOUS
 10
-1.084426008
 20
14.0219562974
 11
-1.0846068694
 21
13.9737243481
  0
LINE
  5
423
100
AcDbEntity
  8
ASSI
100
AcDbLine
 62
250
  6
CONTINUOUS
 10
-1.0846068694
 20
13.9737243481
 11
-1.0849890408
 21
13.9294857154
  0
LWPOLYLINE
  5
424
100
AcDbEntity
  8
ASSI
100
AcDbPolyline
 62
250
  6
CONTINUOUS
 90
9
 70
0
 10
-1.2811072222
 20
13.9508276714
 10
-1.2815831034
 20
13.9095896952
 10
-1.2818842333
 20
13.8917966921
 10
-1.2822218683
 20
13.8762488181
 10
-1.282590628
 20
13.8632000395
 10
-1.2829840336
 20
13.85286999
 10
-1.2833956571
 20
13.8454046115
 10
-1.2838194144
 20
13.8408925247
 10
-1.2842488349
 20
13.8393847911
  0
LWPOLYLINE
  5
425
100
AcDbEntity
  8
ASSI
100
AcDbPolyline
 62
250
  6
CONTINUOUS
 90
8
 70
0
 10
-1.0849890408
 20
13.9294857154
 10
-1.0855492811
 20
13.8919313091
 10
-1.0858858998
 20
13.8763944686
 10
-1.0862535174
 20
13.863345578
 10
-1.0866465225
 20
13.8529838629
 10
-1.0870589161
 20
13.8454675188
 10
-1.0874844033
 20
13.8409113029
 10
-1.0879164893
 20
13.8393847911
  0
LINE
  5
426
100
AcDbEntity
  8
ASSI
100
AcDbLine
 62
250
  6
CONTINUOUS
 10
1.8444357734
 20
61.246900336
 11
1.8592619594
 21
61.6393847911
  0
LINE
  5
427
100
AcDbEntity
  8
ASSI
100
AcDbLine
 62
250
  6
CONTINUOUS
 10
1.8289042454
 20
60.8845509189
 11
1.8444357734
 21
61.246900336
  0
LWPOLYLINE
  5
428
100
AcDbEntity
  8
ASSI
100
AcDbPolyline
 62
250
  6
CONTINUOUS
 90
10
 70
0
 10
1.8592619557
 20
61.6393847911
 10
1.8596094258
 20
61.6469094924
 10
1.8595963612
 20
61.6543939964
 10
1.8592267741
 20
61.6618279755
 10
1.8585067159
 20
61.6691923769
 10
1.8574399571
 20
61.6764865503
 10
1.8560250676
 20
61.6837276938
 10
1.854262527
 20
61.6909147526
 10
1.8521576178
 20
61.6980289965
 10
1.8497141029
 20
61.7050607551
  0
LINE
  5
429
100
AcDbEntity
  8
ASSI
100
AcDbLine
 62
250
  6
CONTINUOUS
 10
1.8130289677
 20
60.5545208638
 11
1.8289042454
 21
60.8845509189
  0
LINE
  5
42A
100
AcDbEntity
  8
ASSI
100
AcDbLine
 62
250
  6
CONTINUOUS
 10
2.0150246149
 20
61.3281030578
 11
2.0303039232
 21
61.6219562974
  0
LINE
  5
42B
100
AcDbEntity
  8
ASSI
100
AcDbLine
 62
250
  6
CONTINUOUS
 10
1.8011461173
 20
60.3295099908
 11
1.8130289677
 21
60.5545208638
  0
LINE
  5
42C
100
AcDbEntity
  8
ASSI
100
AcDbLine
 62
250
  6
CONTINUOUS
 10
1.9991412865
 20
61.0505934956
 11
2.0150246149
 21
61.3281030578
  0
LINE
  5
42D
100
AcDbEntity
  8
ASSI
100
AcDbLine
 62
250
  6
CONTINUOUS
 10
1.9828377965
 20
60.7901570785
 11
1.9991412865
 21
61.0505934956
  0
LINE
  5
42E
100
AcDbEntity
  8
ASSI
100
AcDbLine
 62
250
  6
CONTINUOUS
 10
1.9663354601
 20
60.5477614857
 11
1.9828377965
 21
60.7901570785
  0
LINE
  5
42F
100
AcDbEntity
  8
ASSI
100
AcDbLine
 62
250
  6
CONTINUOUS
 10
1.949880619
 20
60.3243160676
 11
1.9663354601
 21
60.5477614857
  0
LWPOLYLINE
  5
430
100
AcDbEntity
  8
RACCORDO
100
AcDbPolyline
 62
250
  6
CONTINUOUS
 90
6
 70
0
 10
-2.777069158
 20
16.8853468605
 10
-2.7753958386
 20
16.9048886206
 10
-2.7704039015
 20
16.9241033249
 10
-2.762176908
 20
16.9426694565
 10
-2.7508525532
 20
16.9602763527
 10
-2.7366203527
 20
16.976629414
  0
LWPOLYLINE
  5
431
100
AcDbEntity
  8
RACCORDO
100
AcDbPolyline
 62
250
  6
CONTINUOUS
 90
13
 70
0
 10
-2.777069158
 20
16.9655162234
 10
-2.775395889
 20
16.9849855091
 10
-2.7704040805
 20
17.0041290212
 10
-2.7621772588
 20
17.0226264374
 10
-2.7508530807
 20
17.0401682461
 10
-2.7366210302
 20
17.0564609257
 10
-2.7197192478
 20
17.0712318559
 10
-2.7004305457
 20
17.0842338792
 10
-2.6790776759
 20
17.0952494368
 10
-2.6560179292
 20
17.1040942089
 10
-2.6316371573
 20
17.1106201986
 10
-2.606343316
 20
17.1147182086
 10
-2.5805596393
 20
17.1163196681
  0
LWPOLYLINE
  5
432
100
AcDbEntity
  8
ASSI
100
AcDbPolyline
 62
250
  6
CONTINUOUS
 90
7
 70
0
 10
-2.6454731866
 20
15.6462669386
 10
-2.6456531684
 20
15.6445254016
 10
-2.6469916401
 20
15.6396221153
 10
-2.6494658735
 20
15.6316403409
 10
-2.6530338546
 20
15.620715614
 10
-2.6576349966
 20
15.607033444
 10
-2.6631911691
 20
15.5908261632
  0
LINE
  5
433
100
AcDbEntity
  8
RACCORDO
100
AcDbLine
 62
250
  6
CONTINUOUS
 10
4.1020869428
 20
57.4572772822
 11
4.1182878333
 21
57.5491570978
  0
LINE
  5
434
100
AcDbEntity
  8
SUPERFICI
100
AcDbLine
 62
250
  6
CONTINUOUS
 10
4.1020869428
 20
57.4572772822
 11
4.1182878333
 21
57.5491570978
  0
LINE
  5
435
100
AcDbEntity
  8
VARIANTE_COLORE
100
AcDbLine
 62
250
  6
CONTINUOUS
 10
4.1020869428
 20
57.4572772822
 11
4.1182878333
 21
57.5491570978
  0
LINE
  5
436
100
AcDbEntity
  8
CURVE
100
AcDbLine
 62
7
  6
CONTINUOUS
 10
4.8851357214
 20
48.9192577911
 11
5.2133547214
 21
49.2474767911
  0
LINE
  5
437
100
AcDbEntity
  8
CURVE
100
AcDbLine
 62
7
  6
CONTINUOUS
 10
5.7630667214
 20
49.7971887911
 11
6.1161827214
 21
50.1503047911
  0
LINE
  5
438
100
AcDbEntity
  8
CURVE
100
AcDbLine
 62
7
  6
CONTINUOUS
 10
6.6516902176
 20
50.6858122873
 11
6.9341617051
 21
50.9682837748
  0
LINE
  5
439
100
AcDbEntity
  8
CURVE
100
AcDbLine
 62
7
  6
CONTINUOUS
 10
3.9308194343
 20
47.75493079
 11
4.1780989281
 21
48.0022102839
  0
LINE
  5
43A
100
AcDbEntity
  8
CURVE
100
AcDbLine
 62
7
  6
CONTINUOUS
 10
5.0951464354
 20
48.9192577911
 11
5.4233654354
 21
49.2474767911
  0
LINE
  5
43B
100
AcDbEntity
  8
CURVE
100
AcDbLine
 62
7
  6
CONTINUOUS
 10
5.9730774354
 20
49.7971887911
 11
6.3261934354
 21
50.1503047911
  0
LINE
  5
43C
100
AcDbEntity
  8
CURVE
100
AcDbLine
 62
7
  6
CONTINUOUS
 10
6.6516902176
 20
50.4758015733
 11
6.9341617051
 21
50.7582730608
  0
LINE
  5
43D
100
AcDbEntity
  8
CURVE
100
AcDbLine
 62
7
  6
CONTINUOUS
 10
3.9308194343
 20
47.544920076
 11
4.5135120491
 21
48.1276126908
  0
LINE
  5
43E
100
AcDbEntity
  8
CURVE
100
AcDbLine
 62
7
  6
CONTINUOUS
 10
5.3051571494
 20
48.9192577911
 11
5.6333761494
 21
49.2474767911
  0
LINE
  5
43F
100
AcDbEntity
  8
CURVE
100
AcDbLine
 62
7
  6
CONTINUOUS
 10
6.1830881494
 20
49.7971887911
 11
6.5362041494
 21
50.1503047911
  0
LINE
  5
440
100
AcDbEntity
  8
CURVE
100
AcDbLine
 62
7
  6
CONTINUOUS
 10
6.6516902176
 20
50.2657908593
 11
6.9341617051
 21
50.5482623468
  0
LINE
  5
441
100
AcDbEntity
  8
CURVE
100
AcDbLine
 62
250
  6
CONTINUOUS
 10
10.1618782295
 20
53.5822418897
 11
10.3475784003
 21
53.7679560869
  0
LINE
  5
442
100
AcDbEntity
  8
CURVE
100
AcDbLine
 62
7
  6
CONTINUOUS
 10
3.9572988634
 20
47.3613887911
 11
4.2854908634
 21
47.6895807911
  0
LINE
  5
443
100
AcDbEntity
  8
CURVE
100
AcDbLine
 62
7
  6
CONTINUOUS
 10
4.3162012072
 20
47.7202911349
 11
4.8489251701
 21
48.2530150978
  0
LINE
  5
444
100
AcDbEntity
  8
CURVE
100
AcDbLine
 62
7
  6
CONTINUOUS
 10
5.5151678634
 20
48.9192577911
 11
5.8433868634
 21
49.2474767911
  0
LINE
  5
445
100
AcDbEntity
  8
CURVE
100
AcDbLine
 62
7
  6
CONTINUOUS
 10
6.3930988634
 20
49.7971887911
 11
6.9341617051
 21
50.3382516328
  0
LINE
  5
446
100
AcDbEntity
  8
CURVE
100
AcDbLine
 62
7
  6
CONTINUOUS
 10
4.1673095774
 20
47.3613887911
 11
4.4955015774
 21
47.6895807911
  0
LINE
  5
447
100
AcDbEntity
  8
CURVE
100
AcDbLine
 62
7
  6
CONTINUOUS
 10
4.6516141298
 20
47.8456933435
 11
5.184338291
 21
48.3784175047
  0
LINE
  5
448
100
AcDbEntity
  8
CURVE
100
AcDbLine
 62
7
  6
CONTINUOUS
 10
5.7251785774
 20
48.9192577911
 11
6.0533975774
 21
49.2474767911
  0
LINE
  5
449
100
AcDbEntity
  8
CURVE
100
AcDbLine
 62
7
  6
CONTINUOUS
 10
6.6031095774
 20
49.7971887911
 11
6.9341617051
 21
50.1282409188
  0
LINE
  5
44A
100
AcDbEntity
  8
CURVE
100
AcDbLine
 62
7
  6
CONTINUOUS
 10
4.3773202914
 20
47.3613887911
 11
4.7055122914
 21
47.6895807911
  0
LINE
  5
44B
100
AcDbEntity
  8
CURVE
100
AcDbLine
 62
7
  6
CONTINUOUS
 10
4.9870270523
 20
47.971095552
 11
5.519751412
 21
48.5038199117
  0
LINE
  5
44C
100
AcDbEntity
  8
CURVE
100
AcDbLine
 62
7
  6
CONTINUOUS
 10
5.9351892914
 20
48.9192577911
 11
6.2634082914
 21
49.2474767911
  0
LINE
  5
44D
100
AcDbEntity
  8
CURVE
100
AcDbLine
 62
7
  6
CONTINUOUS
 10
6.8131202914
 20
49.7971887911
 11
6.9341617051
 21
49.9182302048
  0
LINE
  5
44E
100
AcDbEntity
  8
CURVE
100
AcDbLine
 62
7
  6
CONTINUOUS
 10
3.9308134347
 20
46.7048712204
 11
4.0334420054
 21
46.8074997911
  0
LINE
  5
44F
100
AcDbEntity
  8
CURVE
100
AcDbLine
 62
7
  6
CONTINUOUS
 10
4.5873310054
 20
47.3613887911
 11
4.9155230054
 21
47.6895807911
  0
LINE
  5
450
100
AcDbEntity
  8
CURVE
100
AcDbLine
 62
7
  6
CONTINUOUS
 10
5.3224399749
 20
48.0964977606
 11
5.855164533
 21
48.6292223186
  0
LINE
  5
451
100
AcDbEntity
  8
CURVE
100
AcDbLine
 62
7
  6
CONTINUOUS
 10
6.1452000054
 20
48.9192577911
 11
6.4734190054
 21
49.2474767911
  0
LINE
  5
452
100
AcDbEntity
  8
CURVE
100
AcDbLine
 62
7
  6
CONTINUOUS
 10
3.9308134347
 20
46.4948605064
 11
4.2434527195
 21
46.8074997911
  0
LINE
  5
453
100
AcDbEntity
  8
CURVE
100
AcDbLine
 62
7
  6
CONTINUOUS
 10
4.7973417195
 20
47.3613887911
 11
5.1255337195
 21
47.6895807911
  0
LINE
  5
454
100
AcDbEntity
  8
CURVE
100
AcDbLine
 62
7
  6
CONTINUOUS
 10
5.6578528975
 20
48.2218999691
 11
6.1905776539
 21
48.7546247256
  0
LINE
  5
455
100
AcDbEntity
  8
CURVE
100
AcDbLine
 62
7
  6
CONTINUOUS
 10
6.3552107195
 20
48.9192577911
 11
6.6834297195
 21
49.2474767911
  0
LINE
  5
456
100
AcDbEntity
  8
CURVE
100
AcDbLine
 62
7
  6
CONTINUOUS
 10
4.1003464335
 20
46.4543827911
 11
4.4534634335
 21
46.8074997911
  0
LINE
  5
457
100
AcDbEntity
  8
CURVE
100
AcDbLine
 62
7
  6
CONTINUOUS
 10
5.0073524335
 20
47.3613887911
 11
5.3355444335
 21
47.6895807911
  0
LINE
  5
458
100
AcDbEntity
  8
CURVE
100
AcDbLine
 62
7
  6
CONTINUOUS
 10
5.99326582
 20
48.3473021777
 11
6.5259907749
 21
48.8800271326
  0
LINE
  5
459
100
AcDbEntity
  8
CURVE
100
AcDbLine
 62
7
  6
CONTINUOUS
 10
6.5652214335
 20
48.9192577911
 11
6.8934404335
 21
49.2474767911
  0
LINE
  5
45A
100
AcDbEntity
  8
CURVE
100
AcDbLine
 62
7
  6
CONTINUOUS
 10
4.3103571475
 20
46.4543827911
 11
4.6634741475
 21
46.8074997911
  0
LINE
  5
45B
100
AcDbEntity
  8
CURVE
100
AcDbLine
 62
7
  6
CONTINUOUS
 10
5.2173631475
 20
47.3613887911
 11
5.5455551475
 21
47.6895807911
  0
LINE
  5
45C
100
AcDbEntity
  8
CURVE
100
AcDbLine
 62
7
  6
CONTINUOUS
 10
6.3286787426
 20
48.4727043862
 11
6.9341617051
 21
49.0781873487
  0
LINE
  5
45D
100
AcDbEntity
  8
CURVE
100
AcDbLine
 62
7
  6
CONTINUOUS
 10
4.5203678615
 20
46.4543827911
 11
4.8734848615
 21
46.8074997911
  0
LINE
  5
45E
100
AcDbEntity
  8
CURVE
100
AcDbLine
 62
7
  6
CONTINUOUS
 10
5.4273738615
 20
47.3613887911
 11
5.7555658615
 21
47.6895807911
  0
LINE
  5
45F
100
AcDbEntity
  8
CURVE
100
AcDbLine
 62
7
  6
CONTINUOUS
 10
6.6640916652
 20
48.5981065948
 11
6.9341617051
 21
48.8681766347
  0
LINE
  5
460
100
AcDbEntity
  8
CURVE
100
AcDbLine
 62
250
  6
CONTINUOUS
 10
10.1618782295
 20
51.9108133404
 11
10.3475784003
 21
52.0965276925
  0
LINE
  5
461
100
AcDbEntity
  8
CURVE
100
AcDbLine
 62
7
  6
CONTINUOUS
 10
4.7303785755
 20
46.4543827911
 11
5.0834955755
 21
46.8074997911
  0
LINE
  5
462
100
AcDbEntity
  8
CURVE
100
AcDbLine
 62
7
  6
CONTINUOUS
 10
5.6373845755
 20
47.3613887911
 11
5.9655765755
 21
47.6895807911
  0
LINE
  5
463
100
AcDbEntity
  8
CURVE
100
AcDbLine
 62
7
  6
CONTINUOUS
 10
4.9403892895
 20
46.4543827911
 11
5.2935062895
 21
46.8074997911
  0
LINE
  5
464
100
AcDbEntity
  8
CURVE
100
AcDbLine
 62
7
  6
CONTINUOUS
 10
5.8473952895
 20
47.3613887911
 11
6.1755872895
 21
47.6895807911
  0
LINE
  5
465
100
AcDbEntity
  8
CURVE
100
AcDbLine
 62
7
  6
CONTINUOUS
 10
5.1504000035
 20
46.4543827911
 11
5.5035170035
 21
46.8074997911
  0
LINE
  5
466
100
AcDbEntity
  8
CURVE
100
AcDbLine
 62
7
  6
CONTINUOUS
 10
6.0574060035
 20
47.3613887911
 11
6.3855980035
 21
47.6895807911
  0
LINE
  5
467
100
AcDbEntity
  8
CURVE
100
AcDbLine
 62
250
  6
CONTINUOUS
 10
9.7904779654
 20
51.0750991433
 11
9.6047778333
 21
50.8893847911
  0
LINE
  5
468
100
AcDbEntity
  8
CURVE
100
AcDbLine
 62
7
  6
CONTINUOUS
 10
3.9308194343
 20
45.0247915078
 11
4.0028977175
 21
45.0968697911
  0
LINE
  5
469
100
AcDbEntity
  8
CURVE
100
AcDbLine
 62
7
  6
CONTINUOUS
 10
5.3604107175
 20
46.4543827911
 11
5.7135277175
 21
46.8074997911
  0
LINE
  5
46A
100
AcDbEntity
  8
CURVE
100
AcDbLine
 62
7
  6
CONTINUOUS
 10
6.2674167175
 20
47.3613887911
 11
6.5956087175
 21
47.6895807911
  0
LINE
  5
46B
100
AcDbEntity
  8
CURVE
100
AcDbLine
 62
250
  6
CONTINUOUS
 10
9.6047778333
 20
51.9108133404
 11
9.7904779654
 21
52.0655752747
  0
LINE
  5
46C
100
AcDbEntity
  8
CURVE
100
AcDbLine
 62
250
  6
CONTINUOUS
 10
9.6047778333
 20
49.9608133792
 11
9.7904779654
 21
50.1155752747
  0
LINE
  5
46D
100
AcDbEntity
  8
CURVE
100
AcDbLine
 62
250
  6
CONTINUOUS
 10
10.5332785323
 20
50.5179562418
 11
10.7189786837
 21
50.6108133404
  0
LINE
  5
46E
100
AcDbEntity
  8
CURVE
100
AcDbLine
 62
250
  6
CONTINUOUS
 10
6.9341617051
 20
48.6990787911
 11
4.23406034
 21
47.6895807911
  0
LINE
  5
46F
100
AcDbEntity
  8
CURVE
100
AcDbLine
 62
250
  6
CONTINUOUS
 10
6.916982842
 20
29.6869037911
 11
4.966439842
 21
29.5582607911
  0
LINE
  5
470
100
AcDbEntity
  8
0
100
AcDbLine
 62
250
  6
CONTINUOUS
 10
20.5943577847
 20
28.0073317911
 11
20.9668076024
 21
28.0073317911
  0
LINE
  5
471
100
AcDbEntity
  8
CURVE
100
AcDbLine
 62
250
  6
CONTINUOUS
 10
17.7184456168
 20
28.2012896268
 11
17.2541952673
 21
28.2012896268
  0
LINE
  5
472
100
AcDbEntity
  8
0
100
AcDbLine
 62
7
  6
CONTINUOUS
 10
27.922930842
 20
28.2893847911
 11
28.122930842
 21
28.2893847911
  0
LINE
  5
473
100
AcDbEntity
  8
SUPERFICI
100
AcDbLine
 62
7
  6
CONTINUOUS
 10
27.922930842
 20
28.2893847911
 11
28.122930842
 21
28.2893847911
  0
LINE
  5
474
100
AcDbEntity
  8
VARIANTE_COLORE
100
AcDbLine
 62
7
  6
CONTINUOUS
 10
27.922930842
 20
28.2893847911
 11
28.122930842
 21
28.2893847911
  0
LINE
  5
475
100
AcDbEntity
  8
0
100
AcDbLine
 62
250
  6
CONTINUOUS
 10
25.4039576429
 20
28.6817467911
 11
26.422930842
 21
28.6817467911
  0
LINE
  5
476
100
AcDbEntity
  8
CURVE
100
AcDbLine
 62
250
  6
CONTINUOUS
 10
17.3470453333
 20
28.8512893169
 11
17.7184456168
 21
28.8512893169
  0
LINE
  5
477
100
AcDbEntity
  8
CURVE
100
AcDbLine
 62
250
  6
CONTINUOUS
 10
9.6047778333
 20
29.0060512512
 11
10.9046788352
 21
29.0060512512
  0
LINE
  5
478
100
AcDbEntity
  8
CURVE
100
AcDbLine
 62
250
  6
CONTINUOUS
 10
17.1613451625
 20
29.2227183311
 11
16.7899448984
 21
29.2227183311
  0
LINE
  5
479
100
AcDbEntity
  8
CURVE
100
AcDbLine
 62
250
  6
CONTINUOUS
 10
16.7899448984
 20
29.8727183311
 11
17.1613451625
 21
29.8727183311
  0
LINE
  5
47A
100
AcDbEntity
  8
0
100
AcDbLine
 62
250
  6
CONTINUOUS
 10
23.1554272633
 20
27.4699777911
 11
20.2590125541
 21
27.7392237911
  0
LINE
  5
47B
100
AcDbEntity
  8
CURVE
100
AcDbLine
 62
250
  6
CONTINUOUS
 10
6.916982842
 20
30.3977587911
 11
3.917343842
 21
31.3386367911
  0
LINE
  5
47C
100
AcDbEntity
  8
CURVE
100
AcDbLine
 62
250
  6
CONTINUOUS
 10
5.582752842
 20
28.7732887911
 11
3.917343842
 21
29.3994307911
  0
LINE
  5
47D
100
AcDbEntity
  8
CURVE
100
AcDbLine
 62
250
  6
CONTINUOUS
 10
4.966439842
 20
29.5582607911
 11
6.916982842
 21
28.8137777911
  0
LINE
  5
47E
100
AcDbEntity
  8
CURVE
100
AcDbLine
 62
250
  6
CONTINUOUS
 10
10.9046788352
 20
24.0536705165
 11
10.7189786837
 21
24.2393847911
  0
LINE
  5
47F
100
AcDbEntity
  8
RACCORDO
100
AcDbLine
 62
250
  6
CONTINUOUS
 10
4.1182878333
 20
19.6296124845
 11
4.1020869428
 21
19.7214923
  0
LINE
  5
480
100
AcDbEntity
  8
SUPERFICI
100
AcDbLine
 62
250
  6
CONTINUOUS
 10
4.1182878333
 20
19.6296124845
 11
4.1020869428
 21
19.7214923
  0
LINE
  5
481
100
AcDbEntity
  8
VARIANTE_COLORE
100
AcDbLine
 62
250
  6
CONTINUOUS
 10
4.1182878333
 20
19.6296124845
 11
4.1020869428
 21
19.7214923
  0
LINE
  5
482
100
AcDbEntity
  8
ASSI
100
AcDbLine
 62
250
  6
CONTINUOUS
 10
0.8865378205
 20
60.5701521909
 11
0.9024323061
 21
60.3608937693
  0
LWPOLYLINE
  5
483
100
AcDbEntity
  8
RACCORDO
100
AcDbPolyline
 62
250
  6
CONTINUOUS
 90
16
 70
0
 10
3.922930842
 20
17.5474891577
 10
3.9218495809
 20
17.5621747855
 10
3.9186176026
 20
17.576701242
 10
3.9132700207
 20
17.5909114854
 10
3.9058699864
 20
17.604643639
 10
3.8964949197
 20
17.6177583222
 10
3.8852237701
 20
17.6301360134
 10
3.872135279
 20
17.6416646216
 10
3.857388257
 20
17.6521820505
 10
3.841226817
 20
17.661519992
 10
3.8238613516
 20
17.669581402
 10
3.8054750958
 20
17.6763038428
 10
3.7863176193
 20
17.6816199083
 10
3.7666195606
 20
17.6854951284
 10
3.7465831003
 20
17.6879180912
 10
3.7264213233
 20
17.6888889748
  0
LINE
  5
484
100
AcDbEntity
  8
ASSI
100
AcDbLine
 62
250
  6
CONTINUOUS
 10
0.8703825664
 20
60.7983520022
 11
0.8865378205
 21
60.5701521909
  0
LINE
  5
485
100
AcDbEntity
  8
ASSI
100
AcDbLine
 62
250
  6
CONTINUOUS
 10
0.8539473247
 20
61.0489033145
 11
0.8703825664
 21
60.7983520022
  0
LINE
  5
486
100
AcDbEntity
  8
ASSI
100
AcDbLine
 62
250
  6
CONTINUOUS
 10
0.8373610565
 20
61.3237000389
 11
0.8539473247
 21
61.0489033145
  0
LINE
  5
487
100
AcDbEntity
  8
ASSI
100
AcDbLine
 62
250
  6
CONTINUOUS
 10
0.8209268991
 20
61.6219562974
 11
0.8373610565
 21
61.3237000389
  0
LINE
  5
488
100
AcDbEntity
  8
ASSI
100
AcDbLine
 62
250
  6
CONTINUOUS
 10
1.0394178544
 20
60.6427690138
 11
1.0549243045
 21
60.3555686311
  0
LWPOLYLINE
  5
489
100
AcDbEntity
  8
ASSI
100
AcDbPolyline
 62
250
  6
CONTINUOUS
 90
4
 70
0
 10
2.6214845797
 20
16.9004496941
 10
2.6220910554
 20
16.887964617
 10
2.6225726407
 20
16.880458365
 10
2.622930842
 20
16.8779569464
  0
LINE
  5
48A
100
AcDbEntity
  8
ASSI
100
AcDbLine
 62
250
  6
CONTINUOUS
 10
1.0235637108
 20
60.9666920887
 11
1.0394178544
 21
60.6427690138
  0
LINE
  5
48B
100
AcDbEntity
  8
ASSI
100
AcDbLine
 62
250
  6
CONTINUOUS
 10
1.0074291264
 20
61.3346108581
 11
1.0235637108
 21
60.9666920887
  0
LINE
  5
48C
100
AcDbEntity
  8
ASSI
100
AcDbLine
 62
250
  6
CONTINUOUS
 10
2.6198853974
 20
16.9401639575
 11
2.6214845797
 21
16.9004496941
  0
LINE
  5
48D
100
AcDbEntity
  8
ASSI
100
AcDbLine
 62
250
  6
CONTINUOUS
 10
0.9954212253
 20
61.6393847911
 11
1.0074291264
 21
61.3346108581
  0
LINE
  5
48E
100
AcDbEntity
  8
ASSI
100
AcDbLine
 62
250
  6
CONTINUOUS
 10
2.6152769296
 20
17.0762147734
 11
2.6198853974
 21
16.9401639575
  0
LINE
  5
48F
100
AcDbEntity
  8
ASSI
100
AcDbLine
 62
250
  6
CONTINUOUS
 10
2.6107150879
 20
17.2238388414
 11
2.6152769296
 21
17.0762147734
  0
LINE
  5
490
100
AcDbEntity
  8
RACCORDO
100
AcDbLine
 62
250
  6
CONTINUOUS
 10
3.7264213233
 20
17.6888889748
 11
3.7268016435
 21
17.6727275719
  0
LWPOLYLINE
  5
491
100
AcDbEntity
  8
ASSI
100
AcDbPolyline
 62
250
  6
CONTINUOUS
 90
7
 70
0
 10
1.4178462906
 20
61.8945549531
 10
1.4181865188
 20
61.8790385554
 10
1.4185544668
 20
61.8658210815
 10
1.4189448463
 20
61.8550924973
 10
1.4193520467
 20
61.847006997
 10
1.4197702157
 20
61.8416807875
 10
1.4201933434
 20
61.8391904192
  0
LWPOLYLINE
  5
492
100
AcDbEntity
  8
ASSI
100
AcDbPolyline
 62
250
  6
CONTINUOUS
 90
7
 70
0
 10
2.5746003525
 20
61.786840476
 10
2.5742637326
 20
61.8023768972
 10
2.5738961194
 20
61.8154252892
 10
2.5735031242
 20
61.8257865197
 10
2.5730907456
 20
61.8333024552
 10
2.5726652785
 20
61.837858386
 10
2.5722332175
 20
61.8393847911
  0
LINE
  5
493
100
AcDbEntity
  8
ASSI
100
AcDbLine
 62
250
  6
CONTINUOUS
 10
1.4172680838
 20
61.9315626634
 11
1.4178462906
 21
61.8945549531
  0
LINE
  5
494
100
AcDbEntity
  8
ASSI
100
AcDbLine
 62
250
  6
CONTINUOUS
 10
2.5751606094
 20
61.7492864127
 11
2.5746003525
 21
61.786840476
  0
LINE
  5
495
100
AcDbEntity
  8
ASSI
100
AcDbLine
 62
250
  6
CONTINUOUS
 10
1.4168529667
 20
61.9747243261
 11
1.4172680838
 21
61.9315626634
  0
LINE
  5
496
100
AcDbEntity
  8
ASSI
100
AcDbLine
 62
250
  6
CONTINUOUS
 10
2.575542809
 20
61.7050470962
 11
2.5751606094
 21
61.7492864127
  0
LINE
  5
497
100
AcDbEntity
  8
ASSI
100
AcDbLine
 62
250
  6
CONTINUOUS
 10
1.416624718
 20
62.0215675536
 11
1.4168529667
 21
61.9747243261
  0
LINE
  5
498
100
AcDbEntity
  8
ASSI
100
AcDbLine
 62
250
  6
CONTINUOUS
 10
2.5757236981
 20
61.6568132848
 11
2.575542809
 21
61.7050470962
  0
LINE
  5
499
100
AcDbEntity
  8
ASSI
100
AcDbLine
 62
250
  6
CONTINUOUS
 10
2.5755428093
 20
15.4737225326
 11
2.5757236981
 21
15.5219562974
  0
LINE
  5
49A
100
AcDbEntity
  8
ASSI
100
AcDbLine
 62
250
  6
CONTINUOUS
 10
1.4166247182
 20
15.1572020288
 11
1.4168552662
 21
15.2040449232
  0
LINE
  5
49B
100
AcDbEntity
  8
ASSI
100
AcDbLine
 62
250
  6
CONTINUOUS
 10
2.5751606102
 20
15.4294832325
 11
2.5755428093
 21
15.4737225326
  0
LINE
  5
49C
100
AcDbEntity
  8
ASSI
100
AcDbLine
 62
250
  6
CONTINUOUS
 10
1.4168552662
 20
15.2040449232
 11
1.4172717785
 21
15.2472065283
  0
LWPOLYLINE
  5
49D
100
AcDbEntity
  8
ASSI
100
AcDbPolyline
 62
250
  6
CONTINUOUS
 90
8
 70
0
 10
1.4172717785
 20
15.2472065283
 10
1.4178504798
 20
15.2842143729
 10
1.4181905839
 20
15.2997308516
 10
1.4185581628
 20
15.3129484046
 10
1.4189479558
 20
15.3236770415
 10
1.4193543564
 20
15.3317625686
 10
1.4197714921
 20
15.3370887906
 10
1.4201933441
 20
15.3395791631
  0
LWPOLYLINE
  5
49E
100
AcDbEntity
  8
ASSI
100
AcDbPolyline
 62
250
  6
CONTINUOUS
 90
35
 70
0
 10
0.9954216626
 20
15.5393847911
 10
0.9950783339
 20
15.5226743484
 10
0.9964927676
 20
15.5062915838
 10
0.9995996152
 20
15.4903416025
 10
1.0043934309
 20
15.4747735546
 10
1.0107446818
 20
15.4598275334
 10
1.0183054031
 20
15.4459901843
 10
1.0268485909
 20
15.433400497
 10
1.0362690329
 20
15.421916923
 10
1.0463284604
 20
15.4115334166
 10
1.0568726349
 20
15.4022333919
 10
1.0678161333
 20
15.3939412804
 10
1.0790483241
 20
15.3865526175
 10
1.0904956099
 20
15.3800097205
 10
1.102090444
 20
15.3742568653
 10
1.1137563204
 20
15.3692023715
 10
1.1254600257
 20
15.364789703
 10
1.1371633598
 20
15.3609645283
 10
1.1487958992
 20
15.357650501
 10
1.1603164854
 20
15.3548047129
 10
1.1717413831
 20
15.352373858
 10
1.1830912936
 20
15.3502824122
 10
1.1943168773
 20
15.3484983953
 10
1.2054689985
 20
15.3469855367
 10
1.2167178149
 20
15.3456822953
 10
1.22807946
 20
15.3445621709
 10
1.2395500437
 20
15.3436117699
 10
1.2512682486
 20
15.34280313
 10
1.2632868891
 20
15.3421173171
 10
1.275572424
 20
15.3415446429
 10
1.2881364797
 20
15.341074212
 10
1.3009586374
 20
15.3406924518
 10
1.3140860011
 20
15.3403865406
 10
1.3276379992
 20
15.3401463979
 10
1.3560713924
 20
15.3398179947
  0
LWPOLYLINE
  5
49F
100
AcDbEntity
  8
ASSI
100
AcDbPolyline
 62
250
  6
CONTINUOUS
 90
10
 70
0
 10
2.0303039232
 20
61.6219562974
 10
2.0307020266
 20
61.6370391942
 10
2.0304645784
 20
61.6520013191
 10
2.0295915786
 20
61.666842672
 10
2.0280784973
 20
61.6815649876
 10
2.0259298644
 20
61.6961665313
 10
2.0231592698
 20
61.7106420988
 10
2.0197712436
 20
61.7249899553
 10
2.0157612556
 20
61.7392118357
 10
2.0111293061
 20
61.7533077399
  0
LINE
  5
4A0
100
AcDbEntity
  8
ASSI
100
AcDbLine
 62
250
  6
CONTINUOUS
 10
2.6107150879
 20
59.9549307408
 11
2.6178064507
 21
60.1797361336
  0
LWPOLYLINE
  5
4A1
100
AcDbEntity
  8
ASSI
100
AcDbPolyline
 62
250
  6
CONTINUOUS
 90
6
 70
0
 10
2.6178064507
 20
60.1797361336
 10
2.6207463813
 20
60.2608981312
 10
2.6214845796
 20
60.2783198886
 10
2.6221001278
 20
60.2908069511
 10
2.6225838737
 20
60.2983137071
 10
2.622930842
 20
60.3008126359
  0
LINE
  5
4A2
100
AcDbEntity
  8
ASSI
100
AcDbLine
 62
250
  6
CONTINUOUS
 10
1.0097822505
 20
15.9005624039
 11
0.9954212255
 21
15.5393847911
  0
LWPOLYLINE
  5
4A3
100
AcDbEntity
  8
RACCORDO
100
AcDbPolyline
 62
7
  6
CONTINUOUS
 90
16
 70
0
 10
0.422930842
 20
17.5845731854
 10
0.4223848388
 20
17.5723538504
 10
0.4207675114
 20
17.5597770098
 10
0.4181180519
 20
17.546922074
 10
0.4144938204
 20
17.5338631528
 10
0.4099487933
 20
17.5206683429
 10
0.4045142987
 20
17.5074059271
 10
0.3982527729
 20
17.4941417437
 10
0.3912280727
 20
17.4809335939
 10
0.383452703
 20
17.4678486923
 10
0.3749922072
 20
17.4549381478
 10
0.3659254975
 20
17.4422727598
 10
0.3562724584
 20
17.429969055
 10
0.3460991167
 20
17.4181130851
 10
0.3355289421
 20
17.4067432647
 10
0.3246760827
 20
17.3959101257
  0
LINE
  5
4A4
100
AcDbEntity
  8
ASSI
100
AcDbLine
 62
250
  6
CONTINUOUS
 10
1.0246840098
 20
16.2360835127
 11
1.0097822505
 21
15.9005624039
  0
LINE
  5
4A5
100
AcDbEntity
  8
ASSI
100
AcDbLine
 62
250
  6
CONTINUOUS
 10
1.039846838
 20
16.5443218946
 11
1.0246840098
 21
16.2360835127
  0
LINE
  5
4A6
100
AcDbEntity
  8
ASSI
100
AcDbLine
 62
250
  6
CONTINUOUS
 10
0.8339560393
 20
15.7953454728
 11
0.8209269294
 21
15.5568138149
  0
LINE
  5
4A7
100
AcDbEntity
  8
ASSI
100
AcDbLine
 62
250
  6
CONTINUOUS
 10
1.0549243045
 20
16.8232009515
 11
1.039846838
 21
16.5443218946
  0
LINE
  5
4A8
100
AcDbEntity
  8
ASSI
100
AcDbLine
 62
250
  6
CONTINUOUS
 10
0.8473242336
 20
16.0230278718
 11
0.8339560393
 21
15.7953454728
  0
LINE
  5
4A9
100
AcDbEntity
  8
ASSI
100
AcDbLine
 62
250
  6
CONTINUOUS
 10
0.8609910316
 20
16.2396931327
 11
0.8473242336
 21
16.0230278718
  0
LINE
  5
4AA
100
AcDbEntity
  8
ASSI
100
AcDbLine
 62
250
  6
CONTINUOUS
 10
0.8748279795
 20
16.4448191189
 11
0.8609910316
 21
16.2396931327
  0
LINE
  5
4AB
100
AcDbEntity
  8
ASSI
100
AcDbLine
 62
250
  6
CONTINUOUS
 10
0.8886612474
 20
16.6376214664
 11
0.8748279795
 21
16.4448191189
  0
LWPOLYLINE
  5
4AC
100
AcDbEntity
  8
RACCORDO
100
AcDbPolyline
 62
250
  6
CONTINUOUS
 90
16
 70
0
 10
3.922930842
 20
59.6312804245
 10
3.9218519529
 20
59.6166108702
 10
3.9186269201
 20
59.6020995657
 10
3.9132905299
 20
59.587903073
 10
3.905899105
 20
59.5741725671
 10
3.8965330424
 20
59.5610583623
 10
3.8852988092
 20
59.5487072956
 10
3.8723241546
 20
59.5372547946
 10
3.8577478564
 20
59.5268190139
 10
3.8417208949
 20
59.5175066944
 10
3.8243857134
 20
59.5094056751
 10
3.8059549283
 20
59.5026200167
 10
3.7867166998
 20
59.4972443018
 10
3.7669181103
 20
59.4933218796
 10
3.7467476134
 20
59.4908653943
 10
3.7264213233
 20
59.4898806074
  0
LINE
  5
4AD
100
AcDbEntity
  8
ASSI
100
AcDbLine
 62
250
  6
CONTINUOUS
 10
0.9024406311
 20
16.8178761042
 11
0.8886612474
 21
16.6376214664
  0
LINE
  5
4AE
100
AcDbEntity
  8
RACCORDO
100
AcDbLine
 62
7
  6
CONTINUOUS
 10
5.115953435
 20
57.4484294034
 11
5.1368493728
 21
57.5669361556
  0
LINE
  5
4AF
100
AcDbEntity
  8
SUPERFICI
100
AcDbLine
 62
7
  6
CONTINUOUS
 10
5.115953435
 20
57.4484294034
 11
5.1368493728
 21
57.5669361556
  0
LINE
  5
4B0
100
AcDbEntity
  8
VARIANTE_COLORE
100
AcDbLine
 62
7
  6
CONTINUOUS
 10
5.115953435
 20
57.4484294034
 11
5.1368493728
 21
57.5669361556
  0
LINE
  5
4B1
100
AcDbEntity
  8
ASSI
100
AcDbLine
 62
250
  6
CONTINUOUS
 10
-4.9270440743
 20
14.2219562974
 11
-4.8250747753
 21
14.6025109019
  0
LINE
  5
4B2
100
AcDbEntity
  8
ASSI
100
AcDbLine
 62
7
  6
CONTINUOUS
 10
-4.7373493903
 20
14.1876209821
 11
-4.625245355
 21
14.6059989374
  0
LWPOLYLINE
  5
4B3
100
AcDbEntity
  8
RACCORDO
100
AcDbPolyline
 62
250
  6
CONTINUOUS
 90
8
 70
0
 10
-4.2735786767
 20
15.8859547047
 10
-4.2732331186
 20
15.8870560919
 10
-4.2729295724
 20
15.8903354607
 10
-4.2726713624
 20
15.8957568958
 10
-4.2724613166
 20
15.9032610212
 10
-4.2723017354
 20
15.9127656533
 10
-4.2721943664
 20
15.924166704
 10
-4.2721403842
 20
15.9521392019
  0
LWPOLYLINE
  5
4B4
100
AcDbEntity
  8
0
100
AcDbPolyline
 62
7
  6
CONTINUOUS
 90
3
 70
0
 43
0.3500000006
 10
13.6229308319
 20
74.2381216736
 10
13.551501915
 20
74.0238371887
 10
13.4086452141
 20
73.7381305847
  0
LINE
  5
4B5
100
AcDbEntity
  8
CURVE
100
AcDbLine
 62
7
  6
CONTINUOUS
 10
3.9308194343
 20
44.8147807938
 11
4.2129084316
 21
45.0968697911
  0
LINE
  5
4B6
100
AcDbEntity
  8
CURVE
100
AcDbLine
 62
7
  6
CONTINUOUS
 10
5.5704214316
 20
46.4543827911
 11
5.9235384316
 21
46.8074997911
  0
LINE
  5
4B7
100
AcDbEntity
  8
CURVE
100
AcDbLine
 62
7
  6
CONTINUOUS
 10
6.4774274316
 20
47.3613887911
 11
6.8056194316
 21
47.6895807911
  0
LINE
  5
4B8
100
AcDbEntity
  8
CURVE
100
AcDbLine
 62
7
  6
CONTINUOUS
 10
4.0698021456
 20
44.7437527911
 11
4.4229191456
 21
45.0968697911
  0
LINE
  5
4B9
100
AcDbEntity
  8
CURVE
100
AcDbLine
 62
7
  6
CONTINUOUS
 10
5.7804321456
 20
46.4543827911
 11
6.1335491456
 21
46.8074997911
  0
LINE
  5
4BA
100
AcDbEntity
  8
CURVE
100
AcDbLine
 62
7
  6
CONTINUOUS
 10
6.6874381456
 20
47.3613887911
 11
6.9341617051
 21
47.6081123506
  0
LINE
  5
4BB
100
AcDbEntity
  8
CURVE
100
AcDbLine
 62
7
  6
CONTINUOUS
 10
4.2798128596
 20
44.7437527911
 11
4.6329298596
 21
45.0968697911
  0
LINE
  5
4BC
100
AcDbEntity
  8
CURVE
100
AcDbLine
 62
7
  6
CONTINUOUS
 10
5.9904428596
 20
46.4543827911
 11
6.3435598596
 21
46.8074997911
  0
LINE
  5
4BD
100
AcDbEntity
  8
CURVE
100
AcDbLine
 62
7
  6
CONTINUOUS
 10
6.8974488596
 20
47.3613887911
 11
6.9341617051
 21
47.3981016366
  0
LINE
  5
4BE
100
AcDbEntity
  8
CURVE
100
AcDbLine
 62
7
  6
CONTINUOUS
 10
4.4898235736
 20
44.7437527911
 11
4.8429405736
 21
45.0968697911
  0
LINE
  5
4BF
100
AcDbEntity
  8
CURVE
100
AcDbLine
 62
7
  6
CONTINUOUS
 10
6.2004535736
 20
46.4543827911
 11
6.5535705736
 21
46.8074997911
  0
LINE
  5
4C0
100
AcDbEntity
  8
CURVE
100
AcDbLine
 62
7
  6
CONTINUOUS
 10
4.6998342876
 20
44.7437527911
 11
5.0529512876
 21
45.0968697911
  0
LINE
  5
4C1
100
AcDbEntity
  8
CURVE
100
AcDbLine
 62
7
  6
CONTINUOUS
 10
6.4104642876
 20
46.4543827911
 11
6.7635812876
 21
46.8074997911
  0
LINE
  5
4C2
100
AcDbEntity
  8
CURVE
100
AcDbLine
 62
250
  6
CONTINUOUS
 10
10.7189786837
 20
50.6108133404
 11
10.9046788352
 21
50.7965276151
  0
LINE
  5
4C3
100
AcDbEntity
  8
CURVE
100
AcDbLine
 62
7
  6
CONTINUOUS
 10
4.9098450016
 20
44.7437527911
 11
5.2629620016
 21
45.0968697911
  0
LINE
  5
4C4
100
AcDbEntity
  8
CURVE
100
AcDbLine
 62
7
  6
CONTINUOUS
 10
6.6204750016
 20
46.4543827911
 11
6.9341557055
 21
46.768063495
  0
LINE
  5
4C5
100
AcDbEntity
  8
CURVE
100
AcDbLine
 62
250
  6
CONTINUOUS
 10
10.1618782295
 20
49.9608133792
 11
10.3475784003
 21
50.1465276538
  0
LINE
  5
4C6
100
AcDbEntity
  8
CURVE
100
AcDbLine
 62
7
  6
CONTINUOUS
 10
5.1198557156
 20
44.7437527911
 11
5.4729727156
 21
45.0968697911
  0
LINE
  5
4C7
100
AcDbEntity
  8
CURVE
100
AcDbLine
 62
7
  6
CONTINUOUS
 10
6.8304857156
 20
46.4543827911
 11
6.9341557055
 21
46.558052781
  0
LINE
  5
4C8
100
AcDbEntity
  8
CURVE
100
AcDbLine
 62
7
  6
CONTINUOUS
 10
5.3298664296
 20
44.7437527911
 11
5.6829834296
 21
45.0968697911
  0
LINE
  5
4C9
100
AcDbEntity
  8
CURVE
100
AcDbLine
 62
7
  6
CONTINUOUS
 10
5.5398771437
 20
44.7437527911
 11
5.8929941437
 21
45.0968697911
  0
LINE
  5
4CA
100
AcDbEntity
  8
CURVE
100
AcDbLine
 62
7
  6
CONTINUOUS
 10
6.6516902176
 20
45.8555658651
 11
6.8360241437
 21
46.0398997911
  0
LINE
  5
4CB
100
AcDbEntity
  8
CURVE
100
AcDbLine
 62
7
  6
CONTINUOUS
 10
5.7498878577
 20
44.7437527911
 11
6.1030048577
 21
45.0968697911
  0
LINE
  5
4CC
100
AcDbEntity
  8
CURVE
100
AcDbLine
 62
7
  6
CONTINUOUS
 10
6.6516902176
 20
45.645555151
 11
6.9341617051
 21
45.9280266385
  0
LINE
  5
4CD
100
AcDbEntity
  8
CURVE
100
AcDbLine
 62
7
  6
CONTINUOUS
 10
5.9598985717
 20
44.7437527911
 11
6.3130155717
 21
45.0968697911
  0
LINE
  5
4CE
100
AcDbEntity
  8
CURVE
100
AcDbLine
 62
7
  6
CONTINUOUS
 10
6.6516902176
 20
45.435544437
 11
6.9341617051
 21
45.7180159245
  0
LINE
  5
4CF
100
AcDbEntity
  8
CURVE
100
AcDbLine
 62
7
  6
CONTINUOUS
 10
6.1699092857
 20
44.7437527911
 11
6.5230262857
 21
45.0968697911
  0
LINE
  5
4D0
100
AcDbEntity
  8
CURVE
100
AcDbLine
 62
7
  6
CONTINUOUS
 10
6.6516902176
 20
45.225533723
 11
6.9341617051
 21
45.5080052105
  0
LINE
  5
4D1
100
AcDbEntity
  8
CURVE
100
AcDbLine
 62
7
  6
CONTINUOUS
 10
6.3799199997
 20
44.7437527911
 11
6.9341617051
 21
45.2979944965
  0
LINE
  5
4D2
100
AcDbEntity
  8
CURVE
100
AcDbLine
 62
7
  6
CONTINUOUS
 10
6.5899307137
 20
44.7437527911
 11
6.9341617051
 21
45.0879837825
  0
LINE
  5
4D3
100
AcDbEntity
  8
CURVE
100
AcDbLine
 62
7
  6
CONTINUOUS
 10
6.7999414277
 20
44.7437527911
 11
6.9341617051
 21
44.8779730685
  0
LINE
  5
4D4
100
AcDbEntity
  8
0
100
AcDbLine
 62
250
  6
CONTINUOUS
 10
17.3470453333
 20
51.1179563968
 11
16.6042447664
 21
50.7465273826
  0
LINE
  5
4D5
100
AcDbEntity
  8
0
100
AcDbLine
 62
250
  6
CONTINUOUS
 10
24.9036127013
 20
51.5155757396
 11
23.6037116994
 21
51.1441461055
  0
LINE
  5
4D6
100
AcDbEntity
  8
CURVE
100
AcDbLine
 62
250
  6
CONTINUOUS
 10
3.917343842
 20
30.0189377911
 11
6.916982842
 21
30.2994377911
  0
LINE
  5
4D7
100
AcDbEntity
  8
CURVE
100
AcDbLine
 62
250
  6
CONTINUOUS
 10
9.9761780974
 20
30.770337054
 11
10.5332785323
 21
30.770337054
  0
LINE
  5
4D8
100
AcDbEntity
  8
CURVE
100
AcDbLine
 62
250
  6
CONTINUOUS
 10
10.5332785323
 20
31.420337054
 11
9.9761780974
 21
31.420337054
  0
LINE
  5
4D9
100
AcDbEntity
  8
CURVE
100
AcDbLine
 62
250
  6
CONTINUOUS
 10
16.7899448984
 20
31.8227183311
 11
16.9756450305
 21
31.8227183311
  0
LINE
  5
4DA
100
AcDbEntity
  8
CURVE
100
AcDbLine
 62
250
  6
CONTINUOUS
 10
17.1613451625
 20
29.8727183311
 11
17.5327454654
 21
29.7798609226
  0
LINE
  5
4DB
100
AcDbEntity
  8
CURVE
100
AcDbLine
 62
250
  6
CONTINUOUS
 10
4.741567842
 20
31.6297307911
 11
5.854771842
 21
31.3179647911
  0
LINE
  5
4DC
100
AcDbEntity
  8
CURVE
100
AcDbLine
 62
250
  6
CONTINUOUS
 10
6.318147842
 20
31.1898837911
 11
6.916982842
 21
31.0171077911
  0
LINE
  5
4DD
100
AcDbEntity
  8
CURVE
100
AcDbLine
 62
250
  6
CONTINUOUS
 10
9.7904779654
 20
30.8631944625
 11
9.9761780974
 21
30.770337054
  0
LINE
  5
4DE
100
AcDbEntity
  8
CURVE
100
AcDbLine
 62
250
  6
CONTINUOUS
 10
10.3475784003
 20
26.0655752747
 11
10.1618782295
 21
26.2512896268
  0
LINE
  5
4DF
100
AcDbEntity
  8
CURVE
100
AcDbLine
 62
250
  6
CONTINUOUS
 10
9.6047778333
 20
27.737003824
 11
9.7904779654
 21
27.5512896268
  0
LINE
  5
4E0
100
AcDbEntity
  8
ASSI
100
AcDbLine
 62
250
  6
CONTINUOUS
 10
-4.8250747753
 20
62.5762586803
 11
-4.9270440743
 21
62.9568132848
  0
LINE
  5
4E1
100
AcDbEntity
  8
ASSI
100
AcDbLine
 62
7
  6
CONTINUOUS
 10
-4.625245355
 20
62.5727706448
 11
-4.7373493903
 21
62.9911486001
  0
LWPOLYLINE
  5
4E2
100
AcDbEntity
  8
RACCORDO
100
AcDbPolyline
 62
250
  6
CONTINUOUS
 90
7
 70
0
 10
6.9368821368
 20
19.2377239302
 10
6.9371686269
 20
19.2366073086
 10
6.9372993674
 20
19.233320397
 10
6.9372729282
 20
19.2278991517
 10
6.9370895984
 20
19.2204028775
 10
6.9367513837
 20
19.2109135768
 10
6.9362619834
 20
19.1995350491
  0
LINE
  5
4E3
100
AcDbEntity
  8
RACCORDO
100
AcDbLine
 62
7
  6
CONTINUOUS
 10
5.1368493728
 20
19.6118334267
 11
5.115953435
 21
19.7303401788
  0
LINE
  5
4E4
100
AcDbEntity
  8
SUPERFICI
100
AcDbLine
 62
7
  6
CONTINUOUS
 10
5.1368493728
 20
19.6118334267
 11
5.115953435
 21
19.7303401788
  0
LINE
  5
4E5
100
AcDbEntity
  8
VARIANTE_COLORE
100
AcDbLine
 62
7
  6
CONTINUOUS
 10
5.1368493728
 20
19.6118334267
 11
5.115953435
 21
19.7303401788
  0
LWPOLYLINE
  5
4E6
100
AcDbEntity
  8
RACCORDO
100
AcDbPolyline
 62
250
  6
CONTINUOUS
 90
16
 70
0
 10
3.922930842
 20
59.6312804245
 10
3.9218592277
 20
59.6469364856
 10
3.9186333833
 20
59.6622587762
 10
3.9132700207
 20
59.6771602121
 10
3.9058606181
 20
59.6916609596
 10
3.8965024043
 20
59.7055890653
 10
3.8852237703
 20
59.7186046281
 10
3.8720947308
 20
59.7307643673
 10
3.8573507043
 20
59.7419730977
 10
3.8412268174
 20
59.7517647638
 10
3.8237720299
 20
59.7602268251
 10
3.8052956884
 20
59.7674274486
 10
3.7863176196
 20
59.7730022227
 10
3.766961773
 20
59.7769333007
 10
3.7470356465
 20
59.7794725536
 10
3.7264213233
 20
59.7806826777
  0
LINE
  5
4E7
100
AcDbEntity
  8
ASSI
100
AcDbLine
 62
250
  6
CONTINUOUS
 10
5.5067792079
 20
16.6988933211
 11
5.4931184015
 21
16.9280562565
  0
LINE
  5
4E8
100
AcDbEntity
  8
ASSI
100
AcDbLine
 62
250
  6
CONTINUOUS
 10
5.5204856536
 20
16.4499245051
 11
5.5067792079
 21
16.6988933211
  0
LINE
  5
4E9
100
AcDbEntity
  8
ASSI
100
AcDbLine
 62
250
  6
CONTINUOUS
 10
5.5342151913
 20
16.1775716857
 11
5.5204856536
 21
16.4499245051
  0
LWPOLYLINE
  5
4EA
100
AcDbEntity
  8
ASSI
100
AcDbPolyline
 62
250
  6
CONTINUOUS
 90
16
 70
0
 10
4.4719485796
 20
15.5393847911
 10
4.4729367943
 20
15.5184790652
 10
4.4758906087
 20
15.4978023974
 10
4.4807776572
 20
15.4775813256
 10
4.4875443924
 20
15.4580373987
 10
4.4961166743
 20
15.4393847395
 10
4.5064005863
 20
15.4218277008
 10
4.5182834577
 20
15.4055586384
 10
4.531635096
 20
15.3907558024
 10
4.546309218
 20
15.3775813755
 10
4.5621450505
 20
15.3661796999
 10
4.5789690934
 20
15.3566756941
 10
4.5965970204
 20
15.3491734855
 10
4.6148356969
 20
15.3437552702
 10
4.633485296
 20
15.3404804119
 10
4.6523414887
 20
15.3393847911
  0
LINE
  5
4EB
100
AcDbEntity
  8
ASSI
100
AcDbLine
 62
250
  6
CONTINUOUS
 10
4.3019845922
 20
61.3048062197
 11
4.3162651309
 21
61.011078416
  0
LINE
  5
4EC
100
AcDbEntity
  8
ASSI
100
AcDbLine
 62
250
  6
CONTINUOUS
 10
5.5478188471
 20
15.879764229
 11
5.5342151913
 21
16.1775716857
  0
LINE
  5
4ED
100
AcDbEntity
  8
ASSI
100
AcDbLine
 62
250
  6
CONTINUOUS
 10
4.2866261775
 20
61.6568132848
 11
4.3019845922
 21
61.3048062197
  0
LINE
  5
4EE
100
AcDbEntity
  8
ASSI
100
AcDbLine
 62
250
  6
CONTINUOUS
 10
5.3452446051
 20
16.6126993693
 11
5.3320499685
 21
16.9252447967
  0
LINE
  5
4EF
100
AcDbEntity
  8
ASSI
100
AcDbLine
 62
250
  6
CONTINUOUS
 10
4.4994392289
 20
60.8331089394
 11
4.5132579808
 21
60.4957385911
  0
LINE
  5
4F0
100
AcDbEntity
  8
ASSI
100
AcDbLine
 62
250
  6
CONTINUOUS
 10
5.5623494068
 20
15.5219562974
 11
5.5478188471
 21
15.879764229
  0
LINE
  5
4F1
100
AcDbEntity
  8
ASSI
100
AcDbLine
 62
250
  6
CONTINUOUS
 10
5.3584867509
 20
16.2622259558
 11
5.3452446051
 21
16.6126993693
  0
LINE
  5
4F2
100
AcDbEntity
  8
ASSI
100
AcDbLine
 62
250
  6
CONTINUOUS
 10
4.4855272747
 20
61.2142306462
 11
4.4994392289
 21
60.8331089394
  0
LINE
  5
4F3
100
AcDbEntity
  8
ASSI
100
AcDbLine
 62
250
  6
CONTINUOUS
 10
5.3716451294
 20
15.8664523457
 11
5.3584867509
 21
16.2622259558
  0
LINE
  5
4F4
100
AcDbEntity
  8
ASSI
100
AcDbLine
 62
250
  6
CONTINUOUS
 10
4.4719485821
 20
61.6393847911
 11
4.4855272747
 21
61.2142306462
  0
LINE
  5
4F5
100
AcDbEntity
  8
RACCORDO
100
AcDbLine
 62
250
  6
CONTINUOUS
 10
3.7264213233
 20
60.2815511379
 11
3.7264907116
 21
60.2791330256
  0
LINE
  5
4F6
100
AcDbEntity
  8
ASSI
100
AcDbLine
 62
250
  6
CONTINUOUS
 10
5.3812000167
 20
15.5393847911
 11
5.3716451294
 21
15.8664523457
  0
LINE
  5
4F7
100
AcDbEntity
  8
RACCORDO
100
AcDbLine
 62
250
  6
CONTINUOUS
 10
3.7264213233
 20
59.7806826777
 11
3.7268016434
 21
59.7653932173
  0
LWPOLYLINE
  5
4F8
100
AcDbEntity
  8
ASSI
100
AcDbPolyline
 62
250
  6
CONTINUOUS
 90
7
 70
0
 10
4.2855028532
 20
61.7868393579
 10
4.285166234
 20
61.8023759984
 10
4.2847986195
 20
61.8154246476
 10
4.2844056211
 20
61.8257861234
 10
4.2839932379
 20
61.8333022624
 10
4.2835677647
 20
61.8378583337
 10
4.2831356961
 20
61.8393847911
  0
LINE
  5
4F9
100
AcDbEntity
  8
RACCORDO
100
AcDbLine
 62
250
  6
CONTINUOUS
 10
3.7268016434
 20
59.7653932173
 11
3.7274215535
 21
59.7302736932
  0
LINE
  5
4FA
100
AcDbEntity
  8
RACCORDO
100
AcDbLine
 62
250
  6
CONTINUOUS
 10
3.7268016435
 20
17.6727275719
 11
3.7274215535
 21
17.6361868131
  0
LINE
  5
4FB
100
AcDbEntity
  8
ASSI
100
AcDbLine
 62
250
  6
CONTINUOUS
 10
4.286063104
 20
61.7492851017
 11
4.2855028532
 21
61.7868393579
  0
LINE
  5
4FC
100
AcDbEntity
  8
RACCORDO
100
AcDbLine
 62
250
  6
CONTINUOUS
 10
3.7274215535
 20
17.6361868131
 11
3.7278304946
 21
17.5954791692
  0
LINE
  5
4FD
100
AcDbEntity
  8
RACCORDO
100
AcDbLine
 62
250
  6
CONTINUOUS
 10
3.7274215535
 20
59.7302736932
 11
3.7278304948
 21
59.6905035767
  0
LINE
  5
4FE
100
AcDbEntity
  8
ASSI
100
AcDbLine
 62
250
  6
CONTINUOUS
 10
4.2864452943
 20
61.7050461279
 11
4.286063104
 21
61.7492851017
  0
LINE
  5
4FF
100
AcDbEntity
  8
RACCORDO
100
AcDbLine
 62
250
  6
CONTINUOUS
 10
3.7264907116
 20
60.2791330256
 11
3.7265971923
 21
60.2598456178
  0
LINE
  5
500
100
AcDbEntity
  8
RACCORDO
100
AcDbLine
 62
250
  6
CONTINUOUS
 10
3.7278304946
 20
17.5954791692
 11
3.7280092558
 21
17.5525168737
  0
LINE
  5
501
100
AcDbEntity
  8
RACCORDO
100
AcDbLine
 62
250
  6
CONTINUOUS
 10
3.7278304948
 20
59.6905035767
 11
3.7280092557
 21
59.6479511976
  0
LINE
  5
502
100
AcDbEntity
  8
ASSI
100
AcDbLine
 62
250
  6
CONTINUOUS
 10
4.2866261774
 20
61.6568132848
 11
4.2864452943
 21
61.7050461279
  0
LINE
  5
503
100
AcDbEntity
  8
RACCORDO
100
AcDbLine
 62
250
  6
CONTINUOUS
 10
3.7264213233
 20
59.4898806074
 11
3.7264213233
 21
58.7201807371
  0
LINE
  5
504
100
AcDbEntity
  8
RACCORDO
100
AcDbLine
 62
250
  6
CONTINUOUS
 10
3.7264213233
 20
18.4585888451
 11
3.7264213233
 21
17.6888889748
  0
LINE
  5
505
100
AcDbEntity
  8
CURVE
100
AcDbLine
 62
250
  6
CONTINUOUS
 10
3.917163842
 20
26.9202127911
 11
3.917163842
 21
26.2940707911
  0
LINE
  5
506
100
AcDbEntity
  8
CURVE
100
AcDbLine
 62
250
  6
CONTINUOUS
 10
3.917343842
 20
23.5947707911
 11
3.917343842
 21
24.2749547911
  0
LINE
  5
507
100
AcDbEntity
  8
CURVE
100
AcDbLine
 62
250
  6
CONTINUOUS
 10
3.917343842
 20
25.4359927911
 11
3.917343842
 21
26.0617077911
  0
LINE
  5
508
100
AcDbEntity
  8
CURVE
100
AcDbLine
 62
250
  6
CONTINUOUS
 10
3.917343842
 20
27.5281347911
 11
3.917343842
 21
28.1537597911
  0
LINE
  5
509
100
AcDbEntity
  8
CURVE
100
AcDbLine
 62
250
  6
CONTINUOUS
 10
3.917343842
 20
29.3994307911
 11
3.917343842
 21
30.0189377911
  0
LINE
  5
50A
100
AcDbEntity
  8
CURVE
100
AcDbLine
 62
250
  6
CONTINUOUS
 10
3.917343842
 20
31.3386367911
 11
3.917343842
 21
31.9443547911
  0
LINE
  5
50B
100
AcDbEntity
  8
RACCORDO
100
AcDbLine
 62
7
  6
CONTINUOUS
 10
3.922930842
 20
60.0815815988
 11
3.922930842
 21
58.8075341331
  0
LINE
  5
50C
100
AcDbEntity
  8
RACCORDO
100
AcDbLine
 62
7
  6
CONTINUOUS
 10
3.922930842
 20
18.3712354491
 11
3.922930842
 21
17.0971879834
  0
LINE
  5
50D
100
AcDbEntity
  8
CURVE
100
AcDbLine
 62
250
  6
CONTINUOUS
 10
3.9307994358
 20
52.2856137911
 11
3.9307994358
 21
52.7218177911
  0
LINE
  5
50E
100
AcDbEntity
  8
CURVE
100
AcDbLine
 62
250
  6
CONTINUOUS
 10
3.9308134347
 20
46.4543827911
 11
3.9308134347
 21
46.8074997911
  0
LINE
  5
50F
100
AcDbEntity
  8
CURVE
100
AcDbLine
 62
250
  6
CONTINUOUS
 10
3.9308194343
 20
44.7437527911
 11
3.9308194343
 21
45.0968697911
  0
LINE
  5
510
100
AcDbEntity
  8
CURVE
100
AcDbLine
 62
250
  6
CONTINUOUS
 10
3.9308194343
 20
47.3613887911
 11
3.9308194343
 21
47.9097587911
  0
LINE
  5
511
100
AcDbEntity
  8
CURVE
100
AcDbLine
 62
250
  6
CONTINUOUS
 10
3.9308194343
 20
48.9192577911
 11
3.9308194343
 21
49.2474767911
  0
LINE
  5
512
100
AcDbEntity
  8
CURVE
100
AcDbLine
 62
250
  6
CONTINUOUS
 10
3.9308194343
 20
49.7971887911
 11
3.9308194343
 21
51.1805757911
  0
LINE
  5
513
100
AcDbEntity
  8
CURVE
100
AcDbLine
 62
250
  6
CONTINUOUS
 10
4.2132909217
 20
51.1805757911
 11
4.2132909217
 21
50.1503047911
  0
LINE
  5
514
100
AcDbEntity
  8
CURVE
100
AcDbLine
 62
250
  6
CONTINUOUS
 10
5.2434834641
 20
50.1503047911
 11
5.2434834641
 21
51.1265707911
  0
LINE
  5
515
100
AcDbEntity
  8
CURVE
100
AcDbLine
 62
250
  6
CONTINUOUS
 10
5.2518210552
 20
34.0092786417
 11
5.2518210552
 21
33.6514444944
  0
LINE
  5
516
100
AcDbEntity
  8
RACCORDO
100
AcDbLine
 62
250
  6
CONTINUOUS
 10
3.7264213233
 20
17.3980869046
 11
3.7266347364
 21
16.9397190702
  0
LINE
  5
517
100
AcDbEntity
  8
RACCORDO
100
AcDbLine
 62
250
  6
CONTINUOUS
 10
3.7265971923
 20
60.2598456178
 11
3.7264213233
 21
59.7806826777
  0
LINE
  5
518
100
AcDbEntity
  8
RACCORDO
100
AcDbLine
 62
250
  6
CONTINUOUS
 10
3.7280092557
 20
59.6479511976
 11
3.7279494378
 21
59.6046155694
  0
LINE
  5
519
100
AcDbEntity
  8
RACCORDO
100
AcDbLine
 62
250
  6
CONTINUOUS
 10
3.7280092558
 20
17.5525168737
 11
3.7279494369
 21
17.5093182333
  0
LWPOLYLINE
  5
51A
100
AcDbEntity
  8
RACCORDO
100
AcDbPolyline
 62
250
  6
CONTINUOUS
 90
4
 70
0
 10
3.7266347364
 20
16.9397190702
 10
3.7265604387
 20
16.9081612958
 10
3.7265002144
 20
16.8999910178
 10
3.7264213233
 20
16.8972184444
  0
LINE
  5
51B
100
AcDbEntity
  8
ASSI
100
AcDbLine
 62
250
  6
CONTINUOUS
 10
4.2866261771
 20
15.5219562974
 11
4.2864452941
 21
15.4737234582
  0
LINE
  5
51C
100
AcDbEntity
  8
RACCORDO
100
AcDbLine
 62
250
  6
CONTINUOUS
 10
3.7279494378
 20
59.6046155694
 11
3.7276538481
 21
59.562532379
  0
LINE
  5
51D
100
AcDbEntity
  8
RACCORDO
100
AcDbLine
 62
250
  6
CONTINUOUS
 10
3.7279494369
 20
17.5093182333
 11
3.7276538469
 21
17.4679128127
  0
LINE
  5
51E
100
AcDbEntity
  8
ASSI
100
AcDbLine
 62
250
  6
CONTINUOUS
 10
4.2864452941
 20
15.4737234582
 11
4.2860631037
 21
15.4294844846
  0
LWPOLYLINE
  5
51F
100
AcDbEntity
  8
RACCORDO
100
AcDbPolyline
 62
250
  6
CONTINUOUS
 90
4
 70
0
 10
3.7276538481
 20
59.562532379
 10
3.7271363727
 20
59.5236789351
 10
3.7268016463
 20
59.5060421406
 10
3.7264213233
 20
59.4898806072
  0
LWPOLYLINE
  5
520
100
AcDbEntity
  8
RACCORDO
100
AcDbPolyline
 62
250
  6
CONTINUOUS
 90
4
 70
0
 10
3.7276538469
 20
17.4679128127
 10
3.7271363721
 20
17.4302458404
 10
3.7268016459
 20
17.4133764776
 10
3.7264213233
 20
17.3980869046
  0
LWPOLYLINE
  5
521
100
AcDbEntity
  8
ASSI
100
AcDbPolyline
 62
250
  6
CONTINUOUS
 90
8
 70
0
 10
4.2860631037
 20
15.4294844846
 10
4.2855028529
 20
15.3919302265
 10
4.2851662336
 20
15.3763935854
 10
4.284798619
 20
15.3633449357
 10
4.2844056206
 20
15.3529834594
 10
4.2839932374
 20
15.3454673202
 10
4.2835677641
 20
15.3409112486
 10
4.2831356955
 20
15.3393847911
  0
LINE
  5
522
100
AcDbEntity
  8
ASSI
100
AcDbLine
 62
250
  6
CONTINUOUS
 10
5.3698844706
 20
61.2560662091
 11
5.3812000168
 21
61.6393847911
  0
LINE
  5
523
100
AcDbEntity
  8
ASSI
100
AcDbLine
 62
250
  6
CONTINUOUS
 10
4.4839194075
 20
15.9172581678
 11
4.4719485822
 21
15.5393847911
  0
LINE
  5
524
100
AcDbEntity
  8
ASSI
100
AcDbLine
 62
250
  6
CONTINUOUS
 10
5.3577529888
 20
60.8960051763
 11
5.3698844706
 21
61.2560662091
  0
LINE
  5
525
100
AcDbEntity
  8
ASSI
100
AcDbLine
 62
250
  6
CONTINUOUS
 10
4.4966531479
 20
16.2730202552
 11
4.4839194075
 21
15.9172581678
  0
LINE
  5
526
100
AcDbEntity
  8
ASSI
100
AcDbLine
 62
250
  6
CONTINUOUS
 10
5.3450421027
 20
60.5610128889
 11
5.3577529888
 21
60.8960051763
  0
LINE
  5
527
100
AcDbEntity
  8
ASSI
100
AcDbLine
 62
250
  6
CONTINUOUS
 10
5.5507163993
 20
61.3669719289
 11
5.5623494283
 21
61.6568132848
  0
LWPOLYLINE
  5
528
100
AcDbEntity
  8
ASSI
100
AcDbPolyline
 62
250
  6
CONTINUOUS
 90
3
 70
0
 10
4.5144272078
 20
16.7100234305
 10
4.5099337588
 20
16.6051211208
 10
4.4966531479
 20
16.2730202552
  0
LINE
  5
529
100
AcDbEntity
  8
ASSI
100
AcDbLine
 62
250
  6
CONTINUOUS
 10
5.3320499685
 20
60.2535247851
 11
5.3450421027
 21
60.5610128889
  0
LINE
  5
52A
100
AcDbEntity
  8
ASSI
100
AcDbLine
 62
250
  6
CONTINUOUS
 10
4.2989230926
 20
15.8068656859
 11
4.286626177
 21
15.5219562974
  0
LINE
  5
52B
100
AcDbEntity
  8
ASSI
100
AcDbLine
 62
250
  6
CONTINUOUS
 10
5.5399072877
 20
61.1219999654
 11
5.5507163993
 21
61.3669719289
  0
LWPOLYLINE
  5
52C
100
AcDbEntity
  8
ASSI
100
AcDbPolyline
 62
250
  6
CONTINUOUS
 90
16
 70
0
 10
4.4719485821
 20
61.6393847911
 10
4.4729367933
 20
61.6602904842
 10
4.4758905999
 20
61.6809671298
 10
4.4807776393
 20
61.7011881902
 10
4.487544368
 20
61.7207321193
 10
4.4961166481
 20
61.7393847898
 10
4.50640056
 20
61.7569418394
 10
4.5182834311
 20
61.7732109095
 10
4.5316350702
 20
61.7880137528
 10
4.546309194
 20
61.8011881864
 10
4.5621450299
 20
61.8125898684
 10
4.5789690772
 20
61.8220938796
 10
4.5965970087
 20
61.8295960922
 10
4.6148356894
 20
61.8350143101
 10
4.6334852924
 20
61.8382891699
 10
4.6523414886
 20
61.8393847911
  0
LINE
  5
52D
100
AcDbEntity
  8
ASSI
100
AcDbLine
 62
250
  6
CONTINUOUS
 10
5.5286250205
 20
60.8872325798
 11
5.5399072877
 21
61.1219999654
  0
LWPOLYLINE
  5
52E
100
AcDbEntity
  8
ASSI
100
AcDbPolyline
 62
250
  6
CONTINUOUS
 90
3
 70
0
 10
4.3160937149
 20
16.164264001
 10
4.310251605
 20
16.0474850349
 10
4.2989230926
 20
15.8068656859
  0
LINE
  5
52F
100
AcDbEntity
  8
ASSI
100
AcDbLine
 62
250
  6
CONTINUOUS
 10
5.5169812797
 20
60.6632660101
 11
5.5286250205
 21
60.8872325798
  0
LINE
  5
530
100
AcDbEntity
  8
ASSI
100
AcDbLine
 62
250
  6
CONTINUOUS
 10
5.5051293242
 20
60.4510067392
 11
5.5169812797
 21
60.6632660101
  0
LINE
  5
531
100
AcDbEntity
  8
ASSI
100
AcDbLine
 62
250
  6
CONTINUOUS
 10
5.4931133496
 20
60.2507134156
 11
5.5051293242
 21
60.4510067392
  0
LWPOLYLINE
  5
532
100
AcDbEntity
  8
RACCORDO
100
AcDbPolyline
 62
250
  6
CONTINUOUS
 90
16
 70
0
 10
3.922930842
 20
17.5474891577
 10
3.9218519529
 20
17.531989389
 10
3.9186269201
 20
17.5166568261
 10
3.9132905299
 20
17.5016568916
 10
3.905899105
 20
17.4871493161
 10
3.8965330424
 20
17.473292921
 10
3.8852988092
 20
17.4602428532
 10
3.8723241546
 20
17.4481422049
 10
3.8577478564
 20
17.4371158175
 10
3.8417208949
 20
17.427276473
 10
3.8243857134
 20
17.4187169815
 10
3.8059549283
 20
17.4115472929
 10
3.7867166997
 20
17.4058673428
 10
3.7669181103
 20
17.4017229334
 10
3.7467476134
 20
17.3991274249
 10
3.7264213233
 20
17.3980869046
  0
LWPOLYLINE
  5
533
100
AcDbEntity
  8
CURVE
100
AcDbPolyline
 62
250
  6
CONTINUOUS
 90
49
 70
0
 10
4.4107026922
 20
34.1419604994
 10
4.4123243406
 20
34.1543897357
 10
4.4142832382
 20
34.1666770191
 10
4.4165736705
 20
34.1788260743
 10
4.4191899232
 20
34.1908406256
 10
4.4221262817
 20
34.2027243975
 10
4.4253770317
 20
34.2144811145
 10
4.4289370007
 20
34.2261124054
 10
4.4328031836
 20
34.2376115151
 10
4.4369731173
 20
34.2489695931
 10
4.4414443387
 20
34.2601777886
 10
4.4462143846
 20
34.271227251
 10
4.4512807919
 20
34.2821091296
 10
4.4566411424
 20
34.2928142262
 10
4.4622931974
 20
34.3033319523
 10
4.4682347634
 20
34.3136513722
 10
4.4744636465
 20
34.3237615499
 10
4.4809776531
 20
34.3336515496
 10
4.4877745894
 20
34.3433104354
 10
4.4948517148
 20
34.3527272103
 10
4.5022040999
 20
34.3618906326
 10
4.5098262684
 20
34.3707893996
 10
4.5177127441
 20
34.3794122087
 10
4.5258580506
 20
34.387747757
 10
4.5342567115
 20
34.3957847417
 10
4.5429021117
 20
34.4035139976
 10
4.5517830805
 20
34.4109349082
 10
4.5608873083
 20
34.4180489948
 10
4.5702024854
 20
34.4248577783
 10
4.5797163022
 20
34.4313627798
 10
4.5894164492
 20
34.4375655203
 10
4.5992912308
 20
34.4434670301
 10
4.6093314072
 20
34.4490663751
 10
4.6195283529
 20
34.4543621305
 10
4.629873442
 20
34.4593528715
 10
4.640358049
 20
34.464037173
 10
4.6509735482
 20
34.4684136104
 10
4.6617111949
 20
34.4724804311
 10
4.6725617686
 20
34.4762345726
 10
4.6835159299
 20
34.4796726448
 10
4.6945643393
 20
34.4827912577
 10
4.7056976572
 20
34.485587021
 10
4.7169065443
 20
34.4880565447
 10
4.7281837658
 20
34.4901956658
 10
4.7395305055
 20
34.4919971294
 10
4.7509500522
 20
34.4934529077
 10
4.7624456945
 20
34.4945549731
 10
4.774020721
 20
34.4952952976
 10
4.7856784204
 20
34.4956658536
  0
LINE
  5
534
100
AcDbEntity
  8
CURVE
100
AcDbLine
 62
250
  6
CONTINUOUS
 10
6.916982842
 20
32.2047897911
 11
6.318147842
 21
32.0425857911
  0
LINE
  5
535
100
AcDbEntity
  8
CURVE
100
AcDbLine
 62
250
  6
CONTINUOUS
 10
5.854771842
 20
31.9174517911
 11
4.741567842
 21
31.6297307911
  0
LWPOLYLINE
  5
536
100
AcDbEntity
  8
CURVE
100
AcDbPolyline
 62
250
  6
CONTINUOUS
 90
56
 70
0
 10
4.7856784204
 20
34.4956658536
 10
4.8016273372
 20
34.4957572618
 10
4.8175015242
 20
34.4955232548
 10
4.833314889
 20
34.4949417192
 10
4.8490813391
 20
34.4939905417
 10
4.8648147819
 20
34.4926476091
 10
4.880529125
 20
34.490890808
 10
4.8962283183
 20
34.4886982031
 10
4.9118764809
 20
34.4860485708
 10
4.9274277743
 20
34.4829208654
 10
4.9390036051
 20
34.4802477769
 10
4.9505008605
 20
34.4772795733
 10
4.9619212384
 20
34.4740018937
 10
4.9732664364
 20
34.4704003772
 10
4.9845341482
 20
34.4664627427
 10
4.9957060513
 20
34.4621850277
 10
5.0067598189
 20
34.4575653495
 10
5.0176731244
 20
34.4526018252
 10
5.028425264
 20
34.4472946683
 10
5.0390020252
 20
34.4416524759
 10
5.0493908188
 20
34.4356859415
 10
5.0595790553
 20
34.4294057585
 10
5.0695548767
 20
34.4228215906
 10
5.0793093512
 20
34.4159389827
 10
5.0888342785
 20
34.4087624498
 10
5.0981214581
 20
34.4012965073
 10
5.1071617675
 20
34.3935457565
 10
5.1159423953
 20
34.385515144
 10
5.124449608
 20
34.3772097026
 10
5.132669672
 20
34.368634465
 10
5.1405905066
 20
34.3597951262
 10
5.1482066421
 20
34.3507000297
 10
5.1555142617
 20
34.3413581813
 10
5.1625095486
 20
34.3317785868
 10
5.1691902134
 20
34.3219710686
 10
5.175560076
 20
34.3119487168
 10
5.1816244839
 20
34.3017254382
 10
5.1873887845
 20
34.2913151395
 10
5.1936161751
 20
34.2792060759
 10
5.1994679782
 20
34.2668891742
 10
5.2049535989
 20
34.2543827033
 10
5.2100824423
 20
34.2417049323
 10
5.2148639134
 20
34.2288741302
 10
5.2193074173
 20
34.2159085658
 10
5.2234223591
 20
34.2028265082
 10
5.2278206554
 20
34.187436376
 10
5.2318009754
 20
34.1719123401
 10
5.2353797513
 20
34.1562541909
 10
5.238573415
 20
34.1404617189
 10
5.2413983985
 20
34.1245347145
 10
5.2438711339
 20
34.1084729682
 10
5.2463933093
 20
34.0890208578
 10
5.2484406493
 20
34.0693748936
 10
5.2500218937
 20
34.049535552
 10
5.2511457824
 20
34.0295033092
 10
5.2518210552
 20
34.0092786417
  0
LINE
  5
537
100
AcDbEntity
  8
CURVE
100
AcDbLine
 62
250
  6
CONTINUOUS
 10
10.0690282022
 20
32.8131944625
 11
10.8118287595
 21
32.8131944625
  0
LINE
  5
538
100
AcDbEntity
  8
0
100
AcDbLine
 62
250
  6
CONTINUOUS
 10
21.3858214511
 20
32.8247947911
 11
22.1563181118
 21
32.8247947911
  0
LINE
  5
539
100
AcDbEntity
  8
0
100
AcDbLine
 62
250
  6
CONTINUOUS
 10
25.6895675714
 20
32.8247947911
 11
26.4600642321
 21
32.8247947911
  0
LINE
  5
53A
100
AcDbEntity
  8
CURVE
100
AcDbLine
 62
250
  6
CONTINUOUS
 10
3.9523891327
 20
33.0485834821
 11
6.9169825101
 21
33.0485834821
  0
LINE
  5
53B
100
AcDbEntity
  8
CURVE
100
AcDbLine
 62
250
  6
CONTINUOUS
 10
10.9046788352
 20
33.370337054
 11
9.6047778333
 21
33.370337054
  0
LINE
  5
53C
100
AcDbEntity
  8
CURVE
100
AcDbLine
 62
250
  6
CONTINUOUS
 10
5.2518210552
 20
33.6514444944
 11
4.4283616345
 21
33.6514444944
  0
LINE
  5
53D
100
AcDbEntity
  8
CURVE
100
AcDbLine
 62
250
  6
CONTINUOUS
 10
6.9169825101
 20
33.6722064329
 11
5.7430894596
 21
33.6722064329
  0
LINE
  5
53E
100
AcDbEntity
  8
CURVE
100
AcDbLine
 62
250
  6
CONTINUOUS
 10
9.6047778333
 20
33.7417654483
 11
10.9046788352
 21
33.7417654483
  0
LINE
  5
53F
100
AcDbEntity
  8
CURVE
100
AcDbLine
 62
250
  6
CONTINUOUS
 10
10.0690282022
 20
34.2989086597
 11
9.7904779654
 21
34.2989086597
  0
LINE
  5
540
100
AcDbEntity
  8
CURVE
100
AcDbLine
 62
250
  6
CONTINUOUS
 10
10.7189786837
 20
34.3917654483
 11
10.4404284663
 21
34.3917654483
  0
LINE
  5
541
100
AcDbEntity
  8
CURVE
100
AcDbLine
 62
250
  6
CONTINUOUS
 10
10.7189786837
 20
31.3274802654
 11
10.5332785323
 21
31.420337054
  0
LINE
  5
542
100
AcDbEntity
  8
CURVE
100
AcDbLine
 62
250
  6
CONTINUOUS
 10
17.2541952673
 20
28.2012896268
 11
16.8827950032
 21
28.387003824
  0
LINE
  5
543
100
AcDbEntity
  8
CURVE
100
AcDbLine
 62
250
  6
CONTINUOUS
 10
9.6047778333
 20
31.0489086597
 11
9.7904779654
 21
30.8631944625
  0
LINE
  5
544
100
AcDbEntity
  8
CURVE
100
AcDbLine
 62
250
  6
CONTINUOUS
 10
10.9046788352
 20
31.1417654483
 11
10.7189786837
 21
31.3274802654
  0
LINE
  5
545
100
AcDbEntity
  8
CURVE
100
AcDbLine
 62
250
  6
CONTINUOUS
 10
16.6042447664
 20
25.5393847911
 11
16.7899448984
 21
25.353670439
  0
LWPOLYLINE
  5
546
100
AcDbEntity
  8
CURVE
100
AcDbPolyline
 62
250
  6
CONTINUOUS
 90
86
 70
0
 10
5.4990523296
 20
34.6583647716
 10
5.4976502849
 20
34.6653468935
 10
5.4953579076
 20
34.6722759363
 10
5.4923433562
 20
34.6791439521
 10
5.4888048023
 20
34.6859786403
 10
5.4849299865
 20
34.6928670582
 10
5.4808769939
 20
34.6998719037
 10
5.4766745221
 20
34.7069762528
 10
5.4723261886
 20
34.7141518376
 10
5.4631572453
 20
34.7286842042
 10
5.453224301
 20
34.7435074731
 10
5.4423861693
 20
34.758617585
 10
5.4305819706
 20
34.7739944109
 10
5.4177748937
 20
34.7896227866
 10
5.4039466217
 20
34.805502535
 10
5.38907603
 20
34.8216360775
 10
5.3731122692
 20
34.8380212423
 10
5.3618325716
 20
34.8490798362
 10
5.3500172885
 20
34.8602298027
 10
5.3376425898
 20
34.8714521579
 10
5.3246827979
 20
34.8827285383
 10
5.3111048448
 20
34.8940430612
 10
5.2968738149
 20
34.9053804647
 10
5.2819575336
 20
34.9167225139
 10
5.2663347899
 20
34.9280390836
 10
5.2499871137
 20
34.9392970757
 10
5.2328925506
 20
34.9504638642
 10
5.2150152089
 20
34.9615087107
 10
5.1963157127
 20
34.9724013485
 10
5.1767557472
 20
34.9831088626
 10
5.1563012426
 20
34.9935877434
 10
5.1349191899
 20
35.003791833
 10
5.112578376
 20
35.0136719302
 10
5.08925477
 20
35.0231666606
 10
5.0649261367
 20
35.0322116066
 10
5.046005602
 20
35.038661437
 10
5.0264910436
 20
35.0447951115
 10
5.0063662733
 20
35.050585713
 10
4.9856151027
 20
35.0560063241
 10
4.9642276095
 20
35.0610283645
 10
4.9422189363
 20
35.0656166014
 10
4.9196104917
 20
35.0697341389
 10
4.8964236844
 20
35.0733440808
 10
4.8726722226
 20
35.0764118302
 10
4.8483390127
 20
35.0789119854
 10
4.8233992608
 20
35.0808214434
 10
4.7978281728
 20
35.0821171015
 10
4.771601579
 20
35.0827717165
 10
4.7446978062
 20
35.0827414846
 10
4.7170958056
 20
35.0819784614
 10
4.6887745284
 20
35.0804347028
 10
4.6655858044
 20
35.078598149
 10
4.6419144262
 20
35.0761634993
 10
4.6177515479
 20
35.0730630125
 10
4.5930883234
 20
35.0692289479
 10
4.567915907
 20
35.0645935642
 10
4.5422371468
 20
35.0590899694
 10
4.5161016679
 20
35.0526546658
 10
4.4895707894
 20
35.045225005
 10
4.4627058304
 20
35.0367383381
 10
4.4355681102
 20
35.0271320165
 10
4.4127961132
 20
35.0182302574
 10
4.3899541098
 20
35.0084951907
 10
4.3671189283
 20
34.9979145531
 10
4.3443661508
 20
34.9864798924
 10
4.3217663745
 20
34.9741980017
 10
4.2993889507
 20
34.9610794852
 10
4.2772968411
 20
34.9471331906
 10
4.2555274515
 20
34.9323609383
 10
4.2341117982
 20
34.9167627923
 10
4.213078214
 20
34.9003358261
 10
4.1924442971
 20
34.8830651533
 10
4.1722249619
 20
34.8649328977
 10
4.1524460509
 20
34.8459331142
 10
4.1331771182
 20
34.8261075848
 10
4.114498646
 20
34.8055100228
 10
4.0964869655
 20
34.7842012748
 10
4.0792018043
 20
34.7622707195
 10
4.0626987391
 20
34.7398148691
 10
4.0470355038
 20
34.7169051748
 10
4.0322784623
 20
34.6935128457
 10
4.0184961354
 20
34.6695840302
 10
4.0088447669
 20
34.6512493123
 10
3.9998361276
 20
34.632537959
 10
3.9915261266
 20
34.6134053999
 10
3.983970673
 20
34.5938070646
  0
LWPOLYLINE
  5
547
100
AcDbEntity
  8
CURVE
100
AcDbPolyline
 62
250
  6
CONTINUOUS
 90
24
 70
0
 10
4.4283616345
 20
33.6514444944
 10
4.4247748695
 20
33.6729496366
 10
4.4213803066
 20
33.6943411091
 10
4.4181898897
 20
33.7156130872
 10
4.415215563
 20
33.7367597467
 10
4.4124692704
 20
33.7577752631
 10
4.4099629559
 20
33.778653812
 10
4.4077085637
 20
33.7993895691
 10
4.4057180376
 20
33.81997671
 10
4.4040013106
 20
33.8404143358
 10
4.4025602704
 20
33.8607212503
 10
4.4013947939
 20
33.880921183
 10
4.4005047577
 20
33.901037863
 10
4.3998900385
 20
33.9210950199
 10
4.3995505129
 20
33.941116383
 10
4.3994860577
 20
33.9611256816
 10
4.3996965495
 20
33.9811466451
 10
4.4002719841
 20
34.004064798
 10
4.4011963525
 20
34.0270185708
 10
4.4024596354
 20
34.0499973539
 10
4.4040518131
 20
34.0729905379
 10
4.4059628662
 20
34.0959875134
 10
4.4081827751
 20
34.118977671
 10
4.4107015203
 20
34.141950401
  0
LWPOLYLINE
  5
548
100
AcDbEntity
  8
RACCORDO
100
AcDbPolyline
 62
250
  6
CONTINUOUS
 90
22
 70
0
 10
6.5692497171
 20
18.9689703161
 10
6.5680979943
 20
18.9791686039
 10
6.5661680666
 20
18.9883050306
 10
6.5634630863
 20
18.9964321559
 10
6.5598208243
 20
19.0035925489
 10
6.5554095744
 20
19.0098737746
 10
6.5507276681
 20
19.0153908737
 10
6.5458619772
 20
19.0201942871
 10
6.5407299562
 20
19.0243530632
 10
6.5355747289
 20
19.0279803875
 10
6.5304399678
 20
19.0311231331
 10
6.525284655
 20
19.0338181699
 10
6.5202240107
 20
19.0361342797
 10
6.5152787462
 20
19.0381038264
 10
6.5104298617
 20
19.0397542505
 10
6.5057324965
 20
19.0411274557
 10
6.5011980958
 20
19.0422457806
 10
6.4968163486
 20
19.0431298048
 10
6.4926094384
 20
19.0438052656
 10
6.4885849664
 20
19.0442885231
 10
6.484736072
 20
19.0445926079
 10
6.4810631064
 20
19.0447324264
  0
LWPOLYLINE
  5
549
100
AcDbEntity
  8
RACCORDO
100
AcDbPolyline
 62
250
  6
CONTINUOUS
 90
13
 70
0
 10
3.922930842
 20
59.7847143799
 10
3.9212575731
 20
59.8041434142
 10
3.9162657646
 20
59.8232473485
 10
3.9080389428
 20
59.8417065226
 10
3.8967147648
 20
59.8592120649
 10
3.8824827143
 20
59.8754710605
 10
3.8655809319
 20
59.8902114528
 10
3.8462922298
 20
59.9031865954
 10
3.82493936
 20
59.9141793791
 10
3.8018796133
 20
59.9230058653
 10
3.7774988414
 20
59.929518363
 10
3.752205
 20
59.9336079006
 10
3.7264213233
 20
59.9352060492
  0
LINE
  5
54A
100
AcDbEntity
  8
ASSI
100
AcDbLine
 62
250
  6
CONTINUOUS
 10
4.3448371026
 20
60.4959072857
 11
4.358884089
 21
60.2705114593
  0
LINE
  5
54B
100
AcDbEntity
  8
ASSI
100
AcDbLine
 62
250
  6
CONTINUOUS
 10
4.3306119141
 20
60.7418037888
 11
4.3448371026
 21
60.4959072857
  0
LINE
  5
54C
100
AcDbEntity
  8
ASSI
100
AcDbLine
 62
250
  6
CONTINUOUS
 10
4.3162651309
 20
61.011078416
 11
4.3306119141
 21
60.7418037888
  0
LWPOLYLINE
  5
54D
100
AcDbEntity
  8
ASSI
100
AcDbPolyline
 62
250
  6
CONTINUOUS
 90
16
 70
0
 10
5.3812000284
 20
61.6393847911
 10
5.3801958449
 20
61.660290527
 10
5.3771943007
 20
61.6809672012
 10
5.3722282851
 20
61.7011882758
 10
5.3653522123
 20
61.720732201
 10
5.3566414207
 20
61.7393848555
 10
5.3461913436
 20
61.7569418899
 10
5.3341164713
 20
61.7732109492
 10
5.3205491005
 20
61.7880137826
 10
5.3056378779
 20
61.8011882072
 10
5.2895461748
 20
61.8125898808
 10
5.2724502943
 20
61.8220938853
 10
5.254537539
 20
61.829596094
 10
5.2360041633
 20
61.8350143104
 10
5.2170532234
 20
61.8382891698
 10
5.1978923497
 20
61.8393847911
  0
LINE
  5
54E
100
AcDbEntity
  8
ASSI
100
AcDbLine
 62
250
  6
CONTINUOUS
 10
4.5132579808
 20
60.4957385911
 11
4.5234758178
 21
60.2676385
  0
LWPOLYLINE
  5
54F
100
AcDbEntity
  8
RACCORDO
100
AcDbPolyline
 62
250
  6
CONTINUOUS
 90
13
 70
0
 10
6.5703129811
 20
58.7488752721
 10
6.5692241495
 20
58.7763417686
 10
6.5667175004
 20
58.8028621497
 10
6.5627930335
 20
58.8284364155
 10
6.5574765244
 20
58.8528769323
 10
6.5507421976
 20
58.8763713337
 10
6.5425127272
 20
58.8994825206
 10
6.5329843391
 20
58.9223009069
 10
6.5219608074
 20
58.9447360786
 10
6.5087761281
 20
58.967079695
 10
6.4932083001
 20
58.989428976
 10
6.4754793246
 20
59.0116867017
 10
6.4555892016
 20
59.0338528721
  0
LWPOLYLINE
  5
550
100
AcDbEntity
  8
RACCORDO
100
AcDbPolyline
 62
250
  6
CONTINUOUS
 90
13
 70
0
 10
6.422930842
 20
58.7488742588
 10
6.4224300007
 20
58.7665931832
 10
6.4209738684
 20
58.7837886425
 10
6.4186338909
 20
58.8004070206
 10
6.4155257557
 20
58.8162320456
 10
6.4117000774
 20
58.8314026626
 10
6.4070451652
 20
58.8463850857
 10
6.4015590088
 20
58.8611275115
 10
6.3952310562
 20
58.875569311
 10
6.3877655337
 20
58.8900900553
 10
6.3789697718
 20
58.9047084833
 10
6.3688591
 20
58.9191323044
 10
6.357374671
 20
58.933204721
  0
LWPOLYLINE
  5
551
100
AcDbEntity
  8
ASSI
100
AcDbPolyline
 62
250
  6
CONTINUOUS
 90
7
 70
0
 10
5.5612261035
 20
61.7868393458
 10
5.5608894844
 20
61.8023759904
 10
5.56052187
 20
61.815424643
 10
5.5601288718
 20
61.8257861211
 10
5.5597164887
 20
61.8333022615
 10
5.5592910157
 20
61.8378583336
 10
5.5588589473
 20
61.8393847911
  0
LWPOLYLINE
  5
552
100
AcDbEntity
  8
RACCORDO
100
AcDbPolyline
 62
250
  6
CONTINUOUS
 90
7
 70
0
 10
6.9275154252
 20
60.2053665483
 10
6.9273932814
 20
60.2110408456
 10
6.9272505826
 20
60.2159065256
 10
6.9270841005
 20
60.2199481922
 10
6.9268910418
 20
60.2230389624
 10
6.9266705372
 20
60.225003938
 10
6.9264213233
 20
60.2256949301
  0
LWPOLYLINE
  5
553
100
AcDbEntity
  8
RACCORDO
100
AcDbPolyline
 62
250
  6
CONTINUOUS
 90
5
 70
0
 10
6.9270928385
 20
59.2516051236
 10
6.9269627959
 20
59.2583012712
 10
6.9268083999
 20
59.264248099
 10
6.9266284163
 20
59.2692415792
 10
6.9264213233
 20
59.2731212518
  0
LWPOLYLINE
  5
554
100
AcDbEntity
  8
RACCORDO
100
AcDbPolyline
 62
250
  6
CONTINUOUS
 90
13
 70
0
 10
7.0246760827
 20
60.8067414597
 10
7.0246354386
 20
60.8097984405
 10
7.0244921006
 20
60.8128863714
 10
7.0242460688
 20
60.8160052525
 10
7.0239046696
 20
60.8191457723
 10
7.0234605765
 20
60.8223172422
 10
7.0228918105
 20
60.825547597
 10
7.0222037337
 20
60.8288394488
 10
7.021390984
 20
60.8321901854
 10
7.0204154967
 20
60.835619905
 10
7.0192645835
 20
60.8391353068
 10
7.0179509326
 20
60.8427296915
 10
7.0164745442
 20
60.8464030591
  0
LINE
  5
555
100
AcDbEntity
  8
ASSI
100
AcDbLine
 62
250
  6
CONTINUOUS
 10
5.561786354
 20
61.7492850777
 11
5.5612261035
 21
61.7868393458
  0
LWPOLYLINE
  5
556
100
AcDbEntity
  8
RACCORDO
100
AcDbPolyline
 62
250
  6
CONTINUOUS
 90
5
 70
0
 10
6.9272613289
 20
17.7857284738
 10
6.9271104632
 20
17.7972812367
 10
6.9269207872
 20
17.8068955527
 10
6.9266914803
 20
17.814442077
 10
6.9264209888
 20
17.8197970078
  0
LINE
  5
557
100
AcDbEntity
  8
RACCORDO
100
AcDbLine
 62
250
  6
CONTINUOUS
 10
6.6274230564
 20
61.7867287133
 11
6.6279822437
 21
61.7491939055
  0
LINE
  5
558
100
AcDbEntity
  8
RACCORDO
100
AcDbLine
 62
250
  6
CONTINUOUS
 10
6.9264213233
 20
58.3417804515
 11
6.9273171278
 21
58.2809712947
  0
LINE
  5
559
100
AcDbEntity
  8
RACCORDO
100
AcDbLine
 62
250
  6
CONTINUOUS
 10
6.9277011092
 20
60.19189902
 11
6.9275154252
 21
60.2053665483
  0
LINE
  5
55A
100
AcDbEntity
  8
RACCORDO
100
AcDbLine
 62
250
  6
CONTINUOUS
 10
6.9272910368
 20
59.2362569986
 11
6.9270928385
 21
59.2516051236
  0
LINE
  5
55B
100
AcDbEntity
  8
RACCORDO
100
AcDbLine
 62
250
  6
CONTINUOUS
 10
6.9273980987
 20
17.1182270902
 11
6.9264213233
 21
17.2030365759
  0
LWPOLYLINE
  5
55C
100
AcDbEntity
  8
RACCORDO
100
AcDbPolyline
 62
250
  6
CONTINUOUS
 90
7
 70
0
 10
6.9278070904
 20
18.9985231763
 10
6.9277003117
 20
19.0099867023
 10
6.9275409397
 20
19.0195482063
 10
6.9273307606
 20
19.0270977363
 10
6.9270721259
 20
19.0325515583
 10
6.9267678626
 20
19.0358506493
 10
6.9264213233
 20
19.0369586698
  0
LINE
  5
55D
100
AcDbEntity
  8
RACCORDO
100
AcDbLine
 62
250
  6
CONTINUOUS
 10
6.5703129811
 20
18.843205025
 11
6.5696112122
 21
18.9074926852
  0
LINE
  5
55E
100
AcDbEntity
  8
RACCORDO
100
AcDbLine
 62
250
  6
CONTINUOUS
 10
6.9273171278
 20
58.2809712947
 11
6.9276908943
 21
58.2428041186
  0
LINE
  5
55F
100
AcDbEntity
  8
ASSI
100
AcDbLine
 62
250
  6
CONTINUOUS
 10
5.562168544
 20
61.7050461049
 11
5.561786354
 21
61.7492850777
  0
LINE
  5
560
100
AcDbEntity
  8
RACCORDO
100
AcDbLine
 62
250
  6
CONTINUOUS
 10
6.6279822437
 20
61.7491939055
 11
6.6283636976
 21
61.7049945837
  0
LINE
  5
561
100
AcDbEntity
  8
RACCORDO
100
AcDbLine
 62
250
  6
CONTINUOUS
 10
6.9272013107
 20
18.0679435446
 11
6.9264213233
 21
18.1518127709
  0
LINE
  5
562
100
AcDbEntity
  8
RACCORDO
100
AcDbLine
 62
250
  6
CONTINUOUS
 10
6.9272652584
 20
59.511452281
 11
6.9264210128
 21
59.6051370146
  0
LINE
  5
563
100
AcDbEntity
  8
RACCORDO
100
AcDbLine
 62
250
  6
CONTINUOUS
 10
6.9278170418
 20
60.1756242132
 11
6.9277011092
 21
60.19189902
  0
LINE
  5
564
100
AcDbEntity
  8
RACCORDO
100
AcDbLine
 62
250
  6
CONTINUOUS
 10
6.9277697118
 20
17.064581394
 11
6.9273980987
 21
17.1182270902
  0
LINE
  5
565
100
AcDbEntity
  8
RACCORDO
100
AcDbLine
 62
250
  6
CONTINUOUS
 10
6.9274494198
 20
17.7574847687
 11
6.9272613289
 21
17.7857284738
  0
LINE
  5
566
100
AcDbEntity
  8
RACCORDO
100
AcDbLine
 62
250
  6
CONTINUOUS
 10
6.5696112122
 20
18.9074926852
 11
6.5693075223
 21
18.9532790566
  0
LINE
  5
567
100
AcDbEntity
  8
RACCORDO
100
AcDbLine
 62
250
  6
CONTINUOUS
 10
6.9274562223
 20
59.2087037015
 11
6.9272910368
 21
59.2362569986
  0
LINE
  5
568
100
AcDbEntity
  8
RACCORDO
100
AcDbLine
 62
250
  6
CONTINUOUS
 10
6.5693075223
 20
18.9532790566
 11
6.5692497171
 21
18.9689703161
  0
LINE
  5
569
100
AcDbEntity
  8
RACCORDO
100
AcDbLine
 62
250
  6
CONTINUOUS
 10
6.9276908943
 20
58.2428041186
 11
6.9278583512
 21
58.2086935448
  0
LINE
  5
56A
100
AcDbEntity
  8
ASSI
100
AcDbLine
 62
250
  6
CONTINUOUS
 10
5.5623494269
 20
61.6568132848
 11
5.562168544
 21
61.7050461049
  0
LINE
  5
56B
100
AcDbEntity
  8
RACCORDO
100
AcDbLine
 62
250
  6
CONTINUOUS
 10
6.6283636976
 20
61.7049945837
 11
6.628544267
 21
61.6568132848
  0
LINE
  5
56C
100
AcDbEntity
  8
RACCORDO
100
AcDbLine
 62
250
  6
CONTINUOUS
 10
6.927485082
 20
59.4526044683
 11
6.9272652584
 21
59.511452281
  0
LINE
  5
56D
100
AcDbEntity
  8
RACCORDO
100
AcDbLine
 62
250
  6
CONTINUOUS
 10
6.927479421
 20
18.0023584558
 11
6.9272013107
 21
18.0679435446
  0
LINE
  5
56E
100
AcDbEntity
  8
RACCORDO
100
AcDbLine
 62
250
  6
CONTINUOUS
 10
6.227232657
 20
59.0753253292
 11
6.2271463175
 21
59.1131827124
  0
LINE
  5
56F
100
AcDbEntity
  8
RACCORDO
100
AcDbLine
 62
250
  6
CONTINUOUS
 10
6.2259515222
 20
18.0784039841
 11
6.2258401022
 21
18.1187033842
  0
LINE
  5
570
100
AcDbEntity
  8
CURVE
100
AcDbLine
 62
250
  6
CONTINUOUS
 10
5.5259559515
 20
51.1265707911
 11
5.5259559515
 21
50.1503047911
  0
LINE
  5
571
100
AcDbEntity
  8
CURVE
100
AcDbLine
 62
250
  6
CONTINUOUS
 10
5.7430894596
 20
33.6722064329
 11
5.7430894596
 21
34.0079290032
  0
LINE
  5
572
100
AcDbEntity
  8
CURVE
100
AcDbLine
 62
250
  6
CONTINUOUS
 10
5.854771842
 20
31.3179647911
 11
5.854771842
 21
31.9174517911
  0
LINE
  5
573
100
AcDbEntity
  8
CURVE
100
AcDbLine
 62
250
  6
CONTINUOUS
 10
5.8914871133
 20
52.0571267911
 11
5.8914871133
 21
52.9295337911
  0
LINE
  5
574
100
AcDbEntity
  8
CURVE
100
AcDbLine
 62
250
  6
CONTINUOUS
 10
6.1739616006
 20
53.0126197911
 11
6.1739616006
 21
51.9698847911
  0
LINE
  5
575
100
AcDbEntity
  8
RACCORDO
100
AcDbLine
 62
250
  6
CONTINUOUS
 10
6.2264213233
 20
19.5928148775
 11
6.2264213233
 21
18.1764467306
  0
LINE
  5
576
100
AcDbEntity
  8
RACCORDO
100
AcDbLine
 62
250
  6
CONTINUOUS
 10
6.2264213233
 20
57.5859547047
 11
6.2264213233
 21
58.9927405287
  0
LINE
  5
577
100
AcDbEntity
  8
CURVE
100
AcDbLine
 62
250
  6
CONTINUOUS
 10
6.318147842
 20
32.0425857911
 11
6.318147842
 21
31.1898837911
  0
LINE
  5
578
100
AcDbEntity
  8
RACCORDO
100
AcDbLine
 62
7
  6
CONTINUOUS
 10
6.422930842
 20
19.3928453309
 11
6.422930842
 21
18.4298943101
  0
LINE
  5
579
100
AcDbEntity
  8
RACCORDO
100
AcDbLine
 62
7
  6
CONTINUOUS
 10
6.422930842
 20
57.785924252
 11
6.422930842
 21
58.7488752721
  0
LINE
  5
57A
100
AcDbEntity
  8
RACCORDO
100
AcDbLine
 62
250
  6
CONTINUOUS
 10
6.5703129811
 20
18.4298943101
 11
6.5703129811
 21
18.843205025
  0
LINE
  5
57B
100
AcDbEntity
  8
RACCORDO
100
AcDbLine
 62
250
  6
CONTINUOUS
 10
6.5703129811
 20
58.3355645573
 11
6.5703129811
 21
58.7488752721
  0
LINE
  5
57C
100
AcDbEntity
  8
CURVE
100
AcDbLine
 62
250
  6
CONTINUOUS
 10
6.6516902176
 20
45.0968697911
 11
6.6516902176
 21
46.0398997911
  0
LINE
  5
57D
100
AcDbEntity
  8
CURVE
100
AcDbLine
 62
250
  6
CONTINUOUS
 10
6.6516902176
 20
50.1503047911
 11
6.6516902176
 21
51.2096567911
  0
LINE
  5
57E
100
AcDbEntity
  8
CURVE
100
AcDbLine
 62
250
  6
CONTINUOUS
 10
6.9169825101
 20
33.0485834821
 11
6.9169825101
 21
33.6722064329
  0
LINE
  5
57F
100
AcDbEntity
  8
CURVE
100
AcDbLine
 62
250
  6
CONTINUOUS
 10
6.9169825101
 20
34.6310570865
 11
6.9169825101
 21
35.2333332554
  0
LINE
  5
580
100
AcDbEntity
  8
CURVE
100
AcDbLine
 62
250
  6
CONTINUOUS
 10
6.916982842
 20
32.8647177911
 11
6.916982842
 21
32.2047897911
  0
LINE
  5
581
100
AcDbEntity
  8
CURVE
100
AcDbLine
 62
250
  6
CONTINUOUS
 10
6.916982842
 20
31.0171077911
 11
6.916982842
 21
30.3977587911
  0
LINE
  5
582
100
AcDbEntity
  8
CURVE
100
AcDbLine
 62
250
  6
CONTINUOUS
 10
6.916982842
 20
30.2994377911
 11
6.916982842
 21
29.6869037911
  0
LINE
  5
583
100
AcDbEntity
  8
CURVE
100
AcDbLine
 62
250
  6
CONTINUOUS
 10
6.916982842
 20
28.8137777911
 11
6.916982842
 21
28.7259617911
  0
LINE
  5
584
100
AcDbEntity
  8
CURVE
100
AcDbLine
 62
250
  6
CONTINUOUS
 10
6.916982842
 20
27.8562997911
 11
6.916982842
 21
27.2572847911
  0
LINE
  5
585
100
AcDbEntity
  8
CURVE
100
AcDbLine
 62
250
  6
CONTINUOUS
 10
6.916982842
 20
25.0975037911
 11
6.916982842
 21
24.5457147911
  0
LINE
  5
586
100
AcDbEntity
  8
CURVE
100
AcDbLine
 62
250
  6
CONTINUOUS
 10
6.916982842
 20
26.2940707911
 11
6.916982842
 21
26.9202127911
  0
LINE
  5
587
100
AcDbEntity
  8
RACCORDO
100
AcDbLine
 62
250
  6
CONTINUOUS
 10
6.9264213233
 20
17.2030365759
 11
6.9264213233
 21
17.5736325722
  0
LINE
  5
588
100
AcDbEntity
  8
RACCORDO
100
AcDbLine
 62
250
  6
CONTINUOUS
 10
6.9264213233
 20
17.8197970127
 11
6.9264213233
 21
17.9056483304
  0
LINE
  5
589
100
AcDbEntity
  8
RACCORDO
100
AcDbLine
 62
250
  6
CONTINUOUS
 10
6.9264213233
 20
18.1518127709
 11
6.9264213233
 21
18.8369891307
  0
LINE
  5
58A
100
AcDbEntity
  8
RACCORDO
100
AcDbLine
 62
250
  6
CONTINUOUS
 10
6.9264213233
 20
58.3417804515
 11
6.9264213233
 21
59.0269568113
  0
LINE
  5
58B
100
AcDbEntity
  8
RACCORDO
100
AcDbLine
 62
250
  6
CONTINUOUS
 10
6.9264213233
 20
59.2731212518
 11
6.9264213233
 21
59.3589725696
  0
LINE
  5
58C
100
AcDbEntity
  8
RACCORDO
100
AcDbLine
 62
250
  6
CONTINUOUS
 10
6.9264213233
 20
59.6051370101
 11
6.9264213233
 21
59.9757330063
  0
LINE
  5
58D
100
AcDbEntity
  8
CURVE
100
AcDbLine
 62
250
  6
CONTINUOUS
 10
6.9341557055
 20
46.8074997911
 11
6.9341557055
 21
46.4543827911
  0
LINE
  5
58E
100
AcDbEntity
  8
CURVE
100
AcDbLine
 62
250
  6
CONTINUOUS
 10
6.9341617051
 20
51.2096567911
 11
6.9341617051
 21
49.7971887911
  0
LINE
  5
58F
100
AcDbEntity
  8
CURVE
100
AcDbLine
 62
250
  6
CONTINUOUS
 10
6.9341617051
 20
49.2474767911
 11
6.9341617051
 21
48.6990787911
  0
LINE
  5
590
100
AcDbEntity
  8
CURVE
100
AcDbLine
 62
250
  6
CONTINUOUS
 10
6.9341617051
 20
47.6895807911
 11
6.9341617051
 21
47.3613887911
  0
LINE
  5
591
100
AcDbEntity
  8
CURVE
100
AcDbLine
 62
250
  6
CONTINUOUS
 10
6.9341617051
 20
46.0398997911
 11
6.9341617051
 21
44.7437527911
  0
LINE
  5
592
100
AcDbEntity
  8
CURVE
100
AcDbLine
 62
250
  6
CONTINUOUS
 10
6.9341707044
 20
53.5900697911
 11
6.9341707044
 21
53.2244617911
  0
LINE
  5
593
100
AcDbEntity
  8
CURVE
100
AcDbLine
 62
250
  6
CONTINUOUS
 10
6.9341707044
 20
51.7580127911
 11
6.9341707044
 21
51.4048977911
  0
LINE
  5
594
100
AcDbEntity
  8
RACCORDO
100
AcDbLine
 62
250
  6
CONTINUOUS
 10
7.0246760827
 20
16.3720281225
 11
7.0246760827
 21
16.9808585181
  0
LINE
  5
595
100
AcDbEntity
  8
RACCORDO
100
AcDbLine
 62
250
  6
CONTINUOUS
 10
7.0246760827
 20
60.1979110641
 11
7.0246760827
 21
60.8067414597
  0
LINE
  5
596
100
AcDbEntity
  8
RACCORDO
100
AcDbLine
 62
7
  6
CONTINUOUS
 10
7.122930842
 20
16.3807423694
 11
7.122930842
 21
19.0382111201
  0
LINE
  5
597
100
AcDbEntity
  8
RACCORDO
100
AcDbLine
 62
7
  6
CONTINUOUS
 10
7.122930842
 20
58.1405584621
 11
7.122930842
 21
60.7980272128
  0
LWPOLYLINE
  5
598
100
AcDbEntity
  8
0
100
AcDbPolyline
 62
7
  6
CONTINUOUS
 90
4
 70
0
 43
0.3500000006
 10
7.3800739689
 20
86.3095565186
 10
7.3800739689
 20
86.9524099731
 10
8.8800738602
 20
86.9524099731
 10
8.0229308224
 20
83.9524090576
  0
LINE
  5
599
100
AcDbEntity
  8
RACCORDO
100
AcDbLine
 62
250
  6
CONTINUOUS
 10
6.9278635524
 20
60.1463411791
 11
6.9278170418
 21
60.1756242132
  0
LINE
  5
59A
100
AcDbEntity
  8
RACCORDO
100
AcDbLine
 62
250
  6
CONTINUOUS
 10
6.9278590059
 20
18.9704303812
 11
6.9278070904
 21
18.9985231763
  0
LINE
  5
59B
100
AcDbEntity
  8
RACCORDO
100
AcDbLine
 62
250
  6
CONTINUOUS
 10
6.9278634283
 20
17.0202629965
 11
6.9277697118
 21
17.064581394
  0
LINE
  5
59C
100
AcDbEntity
  8
RACCORDO
100
AcDbLine
 62
250
  6
CONTINUOUS
 10
6.9274813755
 20
17.7238636267
 11
6.9274494198
 21
17.7574847687
  0
LINE
  5
59D
100
AcDbEntity
  8
RACCORDO
100
AcDbLine
 62
250
  6
CONTINUOUS
 10
6.9274556389
 20
59.1641348568
 11
6.9274562223
 21
59.2087037015
  0
LINE
  5
59E
100
AcDbEntity
  8
RACCORDO
100
AcDbLine
 62
250
  6
CONTINUOUS
 10
6.9274556384
 20
17.9698742093
 11
6.927479421
 21
18.0023584558
  0
LINE
  5
59F
100
AcDbEntity
  8
RACCORDO
100
AcDbLine
 62
250
  6
CONTINUOUS
 10
6.9274439369
 20
59.4197516599
 11
6.927485082
 21
59.4526044683
  0
LWPOLYLINE
  5
5A0
100
AcDbEntity
  8
RACCORDO
100
AcDbPolyline
 62
250
  6
CONTINUOUS
 90
8
 70
0
 10
6.9278583512
 20
58.2086935448
 10
6.9278077224
 20
58.1803444088
 10
6.9277010875
 20
58.168844274
 10
6.9275419831
 20
58.1592697575
 10
6.9273319774
 20
58.1517056413
 10
6.9270731771
 20
58.14623439
 10
6.9267685149
 20
58.142923355
 10
6.9264213233
 20
58.1418109125
  0
LINE
  5
5A1
100
AcDbEntity
  8
ASSI
100
AcDbLine
 62
250
  6
CONTINUOUS
 10
5.5623494079
 20
15.5219562974
 11
5.5621685241
 21
15.4737234398
  0
LINE
  5
5A2
100
AcDbEntity
  8
RACCORDO
100
AcDbLine
 62
250
  6
CONTINUOUS
 10
6.2271390413
 20
59.042215813
 11
6.227232657
 21
59.0753253292
  0
LINE
  5
5A3
100
AcDbEntity
  8
RACCORDO
100
AcDbLine
 62
250
  6
CONTINUOUS
 10
6.2258401022
 20
18.1187033842
 11
6.2259176413
 21
18.142059565
  0
LINE
  5
5A4
100
AcDbEntity
  8
RACCORDO
100
AcDbLine
 62
250
  6
CONTINUOUS
 10
6.628544267
 20
15.5219562974
 11
6.6283638766
 21
15.4738044243
  0
LINE
  5
5A5
100
AcDbEntity
  8
RACCORDO
100
AcDbLine
 62
250
  6
CONTINUOUS
 10
6.9276953949
 20
60.1001970742
 11
6.9278635524
 21
60.1463411791
  0
LINE
  5
5A6
100
AcDbEntity
  8
RACCORDO
100
AcDbLine
 62
250
  6
CONTINUOUS
 10
6.9272441804
 20
17.6642759494
 11
6.9274813755
 21
17.7238636267
  0
LINE
  5
5A7
100
AcDbEntity
  8
RACCORDO
100
AcDbLine
 62
250
  6
CONTINUOUS
 10
6.9276946203
 20
18.9364640189
 11
6.9278590059
 21
18.9704303812
  0
LINE
  5
5A8
100
AcDbEntity
  8
RACCORDO
100
AcDbLine
 62
250
  6
CONTINUOUS
 10
6.9277606588
 20
16.9937022788
 11
6.9278634283
 21
17.0202629965
  0
LINE
  5
5A9
100
AcDbEntity
  8
RACCORDO
100
AcDbLine
 62
250
  6
CONTINUOUS
 10
6.5692497171
 20
58.2097992662
 11
6.5694684201
 21
58.2533719943
  0
LINE
  5
5AA
100
AcDbEntity
  8
RACCORDO
100
AcDbLine
 62
250
  6
CONTINUOUS
 10
6.9271341348
 20
59.1012887848
 11
6.9274556389
 21
59.1641348568
  0
LINE
  5
5AB
100
AcDbEntity
  8
RACCORDO
100
AcDbLine
 62
250
  6
CONTINUOUS
 10
6.9273008149
 20
17.9435493027
 11
6.9274556384
 21
17.9698742093
  0
LINE
  5
5AC
100
AcDbEntity
  8
RACCORDO
100
AcDbLine
 62
250
  6
CONTINUOUS
 10
6.2269796089
 20
59.0230396736
 11
6.2271390413
 21
59.042215813
  0
LINE
  5
5AD
100
AcDbEntity
  8
ASSI
100
AcDbLine
 62
250
  6
CONTINUOUS
 10
5.5621685241
 20
15.4737234398
 11
5.5617863335
 21
15.4294844646
  0
LINE
  5
5AE
100
AcDbEntity
  8
RACCORDO
100
AcDbLine
 62
250
  6
CONTINUOUS
 10
6.6283638766
 20
15.4738044243
 11
6.6279828428
 21
15.4296277498
  0
LINE
  5
5AF
100
AcDbEntity
  8
RACCORDO
100
AcDbLine
 62
250
  6
CONTINUOUS
 10
6.927036503
 20
60.0246325487
 11
6.9276953949
 21
60.1001970742
  0
LINE
  5
5B0
100
AcDbEntity
  8
RACCORDO
100
AcDbLine
 62
250
  6
CONTINUOUS
 10
6.9264213233
 20
59.0269568113
 11
6.9271341348
 21
59.1012887848
  0
LINE
  5
5B1
100
AcDbEntity
  8
RACCORDO
100
AcDbLine
 62
250
  6
CONTINUOUS
 10
6.9264210238
 20
17.5736325678
 11
6.9272441804
 21
17.6642759494
  0
LINE
  5
5B2
100
AcDbEntity
  8
RACCORDO
100
AcDbLine
 62
250
  6
CONTINUOUS
 10
6.5694684201
 20
58.2533719943
 11
6.5700755882
 21
58.3164185489
  0
LWPOLYLINE
  5
5B3
100
AcDbEntity
  8
RACCORDO
100
AcDbPolyline
 62
250
  6
CONTINUOUS
 90
4
 70
0
 10
6.2259176413
 20
18.142059565
 10
6.2261138676
 20
18.1615544565
 10
6.2262543275
 20
18.169615704
 10
6.2264213233
 20
18.1764467306
  0
LWPOLYLINE
  5
5B4
100
AcDbEntity
  8
CURVE
100
AcDbPolyline
 62
250
  6
CONTINUOUS
 90
48
 70
0
 10
5.7430894596
 20
34.0079290032
 10
5.7432124096
 20
34.0175473411
 10
5.7435792216
 20
34.0270378119
 10
5.7441868391
 20
34.0364199061
 10
5.7450322054
 20
34.0457131145
 10
5.7461122639
 20
34.0549369277
 10
5.7474239579
 20
34.0641108365
 10
5.7492999739
 20
34.0750722273
 10
5.7515030298
 20
34.0859702893
 10
5.7540310121
 20
34.0967854895
 10
5.7568818072
 20
34.1074982952
 10
5.7600533014
 20
34.1180891733
 10
5.7629402284
 20
34.1268094445
 10
5.7660505411
 20
34.1354307999
 10
5.7693863854
 20
34.14395256
 10
5.7729499071
 20
34.1523740454
 10
5.7767432518
 20
34.1606945766
 10
5.7807685655
 20
34.1689134743
 10
5.7850275627
 20
34.1770300009
 10
5.7895202329
 20
34.1850431868
 10
5.7942461346
 20
34.1929520041
 10
5.799204826
 20
34.2007554252
 10
5.8043958655
 20
34.2084524222
 10
5.8098188114
 20
34.2160419673
 10
5.815473155
 20
34.2235223134
 10
5.8213581191
 20
34.2308888351
 10
5.8274728593
 20
34.2381361877
 10
5.8338165312
 20
34.2452590265
 10
5.8403882907
 20
34.2522520065
 10
5.8471872933
 20
34.2591097832
 10
5.8542130423
 20
34.2658277776
 10
5.8614664322
 20
34.2724044746
 10
5.8689487049
 20
34.2788391248
 10
5.8766611022
 20
34.285130979
 10
5.8846048663
 20
34.2912792878
 10
5.8927812391
 20
34.297283302
 10
5.9011897457
 20
34.3031417679
 10
5.9098230437
 20
34.3088514144
 10
5.9186720738
 20
34.3144084663
 10
5.9277277767
 20
34.3198091481
 10
5.9369810931
 20
34.3250496843
 10
5.9464229638
 20
34.3301262997
 10
5.956048344
 20
34.3350367383
 10
5.9658682475
 20
34.3397848218
 10
5.9758977026
 20
34.3443758913
 10
5.9861517376
 20
34.3488152881
 10
5.9966453809
 20
34.3531083533
 10
6.0073936607
 20
34.3572604281
  0
LINE
  5
5B5
100
AcDbEntity
  8
RACCORDO
100
AcDbLine
 62
250
  6
CONTINUOUS
 10
6.5700755882
 20
58.3164185489
 11
6.5703129811
 21
58.3355645573
  0
LINE
  5
5B6
100
AcDbEntity
  8
RACCORDO
100
AcDbLine
 62
250
  6
CONTINUOUS
 10
6.9270637163
 20
18.8780694115
 11
6.9276946203
 21
18.9364640189
  0
LINE
  5
5B7
100
AcDbEntity
  8
RACCORDO
100
AcDbLine
 62
250
  6
CONTINUOUS
 10
6.9264213233
 20
59.9757330063
 11
6.927036503
 21
60.0246325487
  0
LINE
  5
5B8
100
AcDbEntity
  8
RACCORDO
100
AcDbLine
 62
250
  6
CONTINUOUS
 10
6.9271341308
 20
17.9297056525
 11
6.9273008149
 21
17.9435493027
  0
LINE
  5
5B9
100
AcDbEntity
  8
RACCORDO
100
AcDbLine
 62
250
  6
CONTINUOUS
 10
6.9264213233
 20
18.8369891307
 11
6.9270637163
 21
18.8780694115
  0
LWPOLYLINE
  5
5BA
100
AcDbEntity
  8
ASSI
100
AcDbPolyline
 62
250
  6
CONTINUOUS
 90
8
 70
0
 10
5.5617863335
 20
15.4294844646
 10
5.5612260831
 20
15.3919302152
 10
5.560889464
 20
15.376393577
 10
5.5605218497
 20
15.3633449299
 10
5.5601288514
 20
15.352983456
 10
5.559716468
 20
15.3454673185
 10
5.5592909946
 20
15.3409112481
 10
5.5588589257
 20
15.3393847911
  0
LWPOLYLINE
  5
5BB
100
AcDbEntity
  8
RACCORDO
100
AcDbPolyline
 62
250
  6
CONTINUOUS
 90
8
 70
0
 10
6.6279828428
 20
15.4296277498
 10
6.6274242623
 20
15.3921040731
 10
6.6270888762
 20
15.3765786894
 10
6.6267225805
 20
15.3635260585
 10
6.6263300063
 20
15.3531236065
 10
6.6259166651
 20
15.3455444807
 10
6.6254890828
 20
15.3409342356
 10
6.6250537857
 20
15.3393847911
  0
LWPOLYLINE
  5
5BC
100
AcDbEntity
  8
RACCORDO
100
AcDbPolyline
 62
250
  6
CONTINUOUS
 90
4
 70
0
 10
6.2264213233
 20
58.9927405287
 10
6.2265910495
 20
58.9991710498
 10
6.2267405436
 20
59.0064074614
 10
6.2269796089
 20
59.0230396736
  0
LINE
  5
5BD
100
AcDbEntity
  8
ASSI
100
AcDbLine
 62
250
  6
CONTINUOUS
 10
4.5234758177
 20
16.9111310817
 11
4.5144272078
 21
16.7100234305
  0
LWPOLYLINE
  5
5BE
100
AcDbEntity
  8
ASSI
100
AcDbPolyline
 62
250
  6
CONTINUOUS
 90
16
 70
0
 10
5.3812000114
 20
15.5393847911
 10
5.3801958335
 20
15.5184791068
 10
5.3771943017
 20
15.4978024672
 10
5.3722283007
 20
15.4775814099
 10
5.365352238
 20
15.4580374806
 10
5.356641449
 20
15.4393848075
 10
5.3461913712
 20
15.421827755
 10
5.3341164981
 20
15.4055586822
 10
5.3205491243
 20
15.3907558362
 10
5.305637897
 20
15.3775814004
 10
5.2895461869
 20
15.3661797168
 10
5.2724502981
 20
15.3566757044
 10
5.2545375359
 20
15.349173491
 10
5.2360041563
 20
15.3437552725
 10
5.2170532148
 20
15.3404804125
 10
5.197892342
 20
15.3393847911
  0
LWPOLYLINE
  5
5BF
100
AcDbEntity
  8
RACCORDO
100
AcDbPolyline
 62
250
  6
CONTINUOUS
 90
6
 70
0
 10
6.926421003
 20
59.3589725743
 10
6.9266863692
 20
59.3641533938
 10
6.9269115339
 20
59.3714470408
 10
6.9270985115
 20
59.3807654375
 10
6.9272493253
 20
59.3920364312
 10
6.9274439369
 20
59.4197516599
  0
LINE
  5
5C0
100
AcDbEntity
  8
ASSI
100
AcDbLine
 62
250
  6
CONTINUOUS
 10
4.3280315837
 20
16.3902548186
 11
4.3160937149
 21
16.164264001
  0
LWPOLYLINE
  5
5C1
100
AcDbEntity
  8
RACCORDO
100
AcDbPolyline
 62
250
  6
CONTINUOUS
 90
16
 70
0
 10
6.422930842
 20
18.814356134
 10
6.4218594113
 20
18.7956189067
 10
6.4186565989
 20
18.7770824359
 10
6.4133567206
 20
18.7589453269
 10
6.406016561
 20
18.7414019063
 10
6.3967147648
 20
18.7246401397
 10
6.3855509942
 20
18.7088396178
 10
6.3726448615
 20
18.6941696322
 10
6.3581346468
 20
18.6807873618
 10
6.342175817
 20
18.6688361881
 10
6.32493936
 20
18.6584441598
 10
6.3066099524
 20
18.6497226203
 10
6.2873839811
 20
18.6427650148
 10
6.2674674391
 20
18.6376458892
 10
6.2470737183
 20
18.6344200914
 10
6.2264213233
 20
18.6331221836
  0
LINE
  5
5C2
100
AcDbEntity
  8
ASSI
100
AcDbLine
 62
250
  6
CONTINUOUS
 10
4.3402644452
 20
16.6058977805
 11
4.3280315837
 21
16.3902548186
  0
LWPOLYLINE
  5
5C3
100
AcDbEntity
  8
ASSI
100
AcDbPolyline
 62
250
  6
CONTINUOUS
 90
3
 70
0
 10
4.3588817636
 20
16.9082580807
 10
4.3526346472
 20
16.8102520551
 10
4.3402644452
 20
16.6058977805
  0
LWPOLYLINE
  5
5C4
100
AcDbEntity
  8
RACCORDO
100
AcDbPolyline
 62
250
  6
CONTINUOUS
 90
13
 70
0
 10
3.922930842
 20
17.3940552023
 10
3.9212576708
 20
17.3746267331
 10
3.9162661116
 20
17.3555232204
 10
3.9080396229
 20
17.3370643116
 10
3.8967157883
 20
17.3195588708
 10
3.8824840298
 20
17.3032998329
 10
3.8655824531
 20
17.2885592958
 10
3.8462938257
 20
17.2755839296
 10
3.8249408734
 20
17.26459088
 10
3.8018809157
 20
17.2557641395
 10
3.7774998216
 20
17.2492514296
 10
3.7522055405
 20
17.2451617425
 10
3.7264213233
 20
17.2435635331
  0
LWPOLYLINE
  5
5C5
100
AcDbEntity
  8
ASSI
100
AcDbPolyline
 62
250
  6
CONTINUOUS
 90
8
 70
0
 10
-2.2735786767
 20
14.647047432
 10
-2.2732376374
 20
14.6481185594
 10
-2.2729362837
 20
14.651325045
 10
-2.2726783638
 20
14.6566578714
 10
-2.2724669718
 20
14.664095523
 10
-2.2723053797
 20
14.6735751853
 10
-2.2721963071
 20
14.6849666763
 10
-2.2721398481
 20
14.7129173483
  0
LWPOLYLINE
  5
5C6
100
AcDbEntity
  8
CURVE
100
AcDbPolyline
 62
250
  6
CONTINUOUS
 90
32
 70
0
 10
3.983970673
 20
34.5938070646
 10
3.9723413733
 20
34.5601333299
 10
3.9615457431
 20
34.5258472384
 10
3.9515597411
 20
34.4909553232
 10
3.9423593258
 20
34.4554641171
 10
3.9339204558
 20
34.4193801531
 10
3.9262190899
 20
34.3827099641
 10
3.9192311865
 20
34.345460083
 10
3.9129327043
 20
34.3076370429
 10
3.9072996019
 20
34.2692473767
 10
3.9017295888
 20
34.2253910148
 10
3.8969479866
 20
34.1808421284
 10
3.8929315124
 20
34.1356170612
 10
3.8896568832
 20
34.0897321565
 10
3.8871008159
 20
34.043203758
 10
3.8852400275
 20
33.996048209
 10
3.8840512352
 20
33.9482818533
 10
3.8835111559
 20
33.8999210342
 10
3.8836611493
 20
33.8439410364
 10
3.8846097874
 20
33.7872090908
 10
3.8863388268
 20
33.729728345
 10
3.8888300239
 20
33.6715019464
 10
3.8920651352
 20
33.6125330425
 10
3.8960259174
 20
33.5528247808
 10
3.9006941269
 20
33.4923803088
 10
3.9060536836
 20
33.4312017944
 10
3.9120971607
 20
33.3692874866
 10
3.9188192948
 20
33.3066346552
 10
3.9262148225
 20
33.2432405695
 10
3.9342784803
 20
33.179102499
 10
3.9430050049
 20
33.1142177134
 10
3.9523891327
 20
33.0485834821
  0
LINE
  5
5C7
100
AcDbEntity
  8
ASSI
100
AcDbLine
 62
250
  6
CONTINUOUS
 10
-2.2197184329
 20
15.4513173207
 11
-2.2287483203
 21
15.4250110716
  0
LINE
  5
5C8
100
AcDbEntity
  8
ASSI
100
AcDbLine
 62
250
  6
CONTINUOUS
 10
-2.6631911691
 20
15.5908261632
 11
-2.6767766004
 21
15.5519753159
  0
LINE
  5
5C9
100
AcDbEntity
  8
ASSI
100
AcDbLine
 62
250
  6
CONTINUOUS
 10
-2.2287483203
 20
15.4250110716
 11
-2.2398820991
 21
15.3932349527
  0
LINE
  5
5CA
100
AcDbEntity
  8
ASSI
100
AcDbLine
 62
250
  6
CONTINUOUS
 10
-2.6767766004
 20
15.5519753159
 11
-2.6928713069
 21
15.506790723
  0
LINE
  5
5CB
100
AcDbEntity
  8
ASSI
100
AcDbLine
 62
250
  6
CONTINUOUS
 10
-2.2398820991
 20
15.3932349527
 11
-2.2594380884
 21
15.3384156645
  0
LINE
  5
5CC
100
AcDbEntity
  8
ASSI
100
AcDbLine
 62
250
  6
CONTINUOUS
 10
-2.6928713069
 20
15.506790723
 11
-2.710386734
 21
15.4583284144
  0
LINE
  5
5CD
100
AcDbEntity
  8
ASSI
100
AcDbLine
 62
250
  6
CONTINUOUS
 10
-2.2594380884
 20
15.3384156645
 11
-2.2735786767
 21
15.2993432835
  0
LINE
  5
5CE
100
AcDbEntity
  8
0
100
AcDbLine
 62
250
  6
CONTINUOUS
 10
16.6042447664
 20
49.1679563968
 11
16.7899448984
 21
49.353670594
  0
LINE
  5
5CF
100
AcDbEntity
  8
0
100
AcDbLine
 62
250
  6
CONTINUOUS
 10
24.1608120956
 20
53.0941461055
 11
23.6037116994
 21
52.7227177112
  0
LINE
  5
5D0
100
AcDbEntity
  8
0
100
AcDbLine
 62
250
  6
CONTINUOUS
 10
16.7899448984
 20
47.2489086597
 11
16.6042447664
 21
47.1250989883
  0
LINE
  5
5D1
100
AcDbEntity
  8
0
100
AcDbLine
 62
250
  6
CONTINUOUS
 10
16.9756450305
 20
45.3608133404
 11
16.7899448984
 21
45.2679562418
  0
LINE
  5
5D2
100
AcDbEntity
  8
0
100
AcDbLine
 62
250
  6
CONTINUOUS
 10
17.5327454654
 20
44.7108133404
 11
17.7184456168
 21
44.8036705165
  0
LWPOLYLINE
  5
5D3
100
AcDbEntity
  8
CURVE
100
AcDbPolyline
 62
250
  6
CONTINUOUS
 90
39
 70
0
 10
6.0243729545
 20
34.9970830505
 10
6.0050498319
 20
34.9915966035
 10
5.9861063617
 20
34.986094686
 10
5.9675259671
 20
34.9805548784
 10
5.9492856566
 20
34.9749546243
 10
5.9313624387
 20
34.9692713675
 10
5.913733322
 20
34.9634825516
 10
5.8920808255
 20
34.9560665532
 10
5.8708391065
 20
34.9484232815
 10
5.8499953336
 20
34.9405256433
 10
5.8295366751
 20
34.9323465455
 10
5.8094487504
 20
34.9238566741
 10
5.7897109808
 20
34.9150178318
 10
5.7703012386
 20
34.9057896005
 10
5.7511973959
 20
34.8961315619
 10
5.7361251186
 20
34.8880681873
 10
5.7212556397
 20
34.8796812454
 10
5.7066101439
 20
34.8709481133
 10
5.6922098158
 20
34.861846168
 10
5.6780758399
 20
34.8523527866
 10
5.6665169564
 20
34.8441273552
 10
5.6551741062
 20
34.83560762
 10
5.6440636446
 20
34.8267868181
 10
5.6332019263
 20
34.8176581868
 10
5.6226053066
 20
34.8082149631
 10
5.6122901404
 20
34.7984503843
 10
5.6022730523
 20
34.7883608829
 10
5.5925717455
 20
34.7779556727
 10
5.5832041924
 20
34.7672471629
 10
5.5741883657
 20
34.7562477628
 10
5.565542238
 20
34.7449698815
 10
5.5572837819
 20
34.7334259282
 10
5.5505269833
 20
34.7233261079
 10
5.5440777247
 20
34.7130319095
 10
5.5379455218
 20
34.7025353195
 10
5.5321398904
 20
34.6918283242
 10
5.5266703461
 20
34.6809029102
 10
5.5215464045
 20
34.6697510639
 10
5.5167775816
 20
34.6583647716
  0
LINE
  5
5D4
100
AcDbEntity
  8
CURVE
100
AcDbLine
 62
250
  6
CONTINUOUS
 10
6.0641154178
 20
35.0080968849
 11
6.0243729545
 21
34.9970830505
  0
LINE
  5
5D5
100
AcDbEntity
  8
CURVE
100
AcDbLine
 62
250
  6
CONTINUOUS
 10
6.1745082201
 20
35.0380707005
 11
6.0641154178
 21
35.0080968849
  0
LINE
  5
5D6
100
AcDbEntity
  8
CURVE
100
AcDbLine
 62
250
  6
CONTINUOUS
 10
6.9169825101
 20
35.2333332554
 11
6.784579879
 21
35.1980594895
  0
LINE
  5
5D7
100
AcDbEntity
  8
CURVE
100
AcDbLine
 62
250
  6
CONTINUOUS
 10
6.3804343713
 20
35.0927361546
 11
6.1745082201
 21
35.0380707005
  0
LINE
  5
5D8
100
AcDbEntity
  8
CURVE
100
AcDbLine
 62
250
  6
CONTINUOUS
 10
6.784579879
 20
35.1980594895
 11
6.3804343713
 21
35.0927361546
  0
LINE
  5
5D9
100
AcDbEntity
  8
CURVE
100
AcDbLine
 62
250
  6
CONTINUOUS
 10
5.5167775816
 20
34.6583647716
 11
5.4990523296
 21
34.6583647716
  0
LINE
  5
5DA
100
AcDbEntity
  8
0
100
AcDbLine
 62
250
  6
CONTINUOUS
 10
23.540457406
 20
36.6497947911
 11
24.3054282772
 21
36.6497947911
  0
LINE
  5
5DB
100
AcDbEntity
  8
CURVE
100
AcDbLine
 62
250
  6
CONTINUOUS
 10
16.8827950032
 20
31.1727183311
 11
16.6042447664
 21
31.3584325282
  0
LINE
  5
5DC
100
AcDbEntity
  8
CURVE
100
AcDbLine
 62
250
  6
CONTINUOUS
 10
10.2547283342
 20
34.1131938426
 11
10.0690282022
 21
34.2989086597
  0
LINE
  5
5DD
100
AcDbEntity
  8
CURVE
100
AcDbLine
 62
250
  6
CONTINUOUS
 10
16.6042447664
 20
27.8298609226
 11
16.9756450305
 21
27.4584325282
  0
LINE
  5
5DE
100
AcDbEntity
  8
CURVE
100
AcDbLine
 62
250
  6
CONTINUOUS
 10
10.9046788352
 20
34.206051871
 11
10.7189786837
 21
34.3917654483
  0
LINE
  5
5DF
100
AcDbEntity
  8
CURVE
100
AcDbLine
 62
250
  6
CONTINUOUS
 10
16.8827950032
 20
28.387003824
 11
16.6042447664
 21
28.6655751197
  0
LINE
  5
5E0
100
AcDbEntity
  8
CURVE
100
AcDbLine
 62
250
  6
CONTINUOUS
 10
9.9761780974
 20
32.9989086597
 11
10.0690282022
 21
32.8131944625
  0
LINE
  5
5E1
100
AcDbEntity
  8
ASSI
100
AcDbLine
 62
250
  6
CONTINUOUS
 10
-2.710386734
 20
61.7204411678
 11
-2.6928713069
 21
61.6719788592
  0
LINE
  5
5E2
100
AcDbEntity
  8
ASSI
100
AcDbLine
 62
250
  6
CONTINUOUS
 10
-2.2735786767
 20
61.8794262988
 11
-2.2526238922
 21
61.8213667416
  0
LINE
  5
5E3
100
AcDbEntity
  8
ASSI
100
AcDbLine
 62
250
  6
CONTINUOUS
 10
-2.6928713069
 20
61.6719788592
 11
-2.6767766004
 21
61.6267942664
  0
LINE
  5
5E4
100
AcDbEntity
  8
ASSI
100
AcDbLine
 62
250
  6
CONTINUOUS
 10
-2.2526238922
 20
61.8213667416
 11
-2.239882099
 21
61.7855346295
  0
LINE
  5
5E5
100
AcDbEntity
  8
ASSI
100
AcDbLine
 62
250
  6
CONTINUOUS
 10
-2.239882099
 20
61.7855346295
 11
-2.2287483203
 21
61.7537585106
  0
LWPOLYLINE
  5
5E6
100
AcDbEntity
  8
ASSI
100
AcDbPolyline
 62
250
  6
CONTINUOUS
 90
8
 70
0
 10
-2.6767766004
 20
61.6267942664
 10
-2.6631911691
 20
61.587943419
 10
-2.6576349966
 20
61.5717361382
 10
-2.6530338546
 20
61.5580539682
 10
-2.6494658735
 20
61.5471292414
 10
-2.6469916401
 20
61.5391474669
 10
-2.6456531684
 20
61.5342441806
 10
-2.6454731866
 20
61.5325026437
  0
LWPOLYLINE
  5
5E7
100
AcDbEntity
  8
ASSI
100
AcDbPolyline
 62
250
  6
CONTINUOUS
 90
8
 70
0
 10
-2.2287483203
 20
61.7537585106
 10
-2.2197184328
 20
61.7274522614
 10
-2.216130683
 20
61.7167525011
 10
-2.2132109069
 20
61.7078375174
 10
-2.2109901036
 20
61.7008035304
 10
-2.2094871204
 20
61.6957130871
 10
-2.2087113135
 20
61.6926020633
 10
-2.2086651293
 20
61.6914877746
  0
LINE
  5
5E8
100
AcDbEntity
  8
RACCORDO
100
AcDbLine
 62
250
  6
CONTINUOUS
 10
6.9264213233
 20
58.1405584621
 11
6.9305573836
 21
58.0789519784
  0
LINE
  5
5E9
100
AcDbEntity
  8
RACCORDO
100
AcDbLine
 62
250
  6
CONTINUOUS
 10
6.9305573836
 20
58.0789519784
 11
6.9329230004
 21
58.040872456
  0
LINE
  5
5EA
100
AcDbEntity
  8
RACCORDO
100
AcDbLine
 62
250
  6
CONTINUOUS
 10
6.9329230004
 20
58.040872456
 11
6.9348525952
 21
58.0071428296
  0
LINE
  5
5EB
100
AcDbEntity
  8
RACCORDO
100
AcDbLine
 62
7
  6
CONTINUOUS
 10
6.7077886352
 20
61.7850305576
 11
6.7071631171
 21
61.7966035326
  0
LWPOLYLINE
  5
5EC
100
AcDbEntity
  8
RACCORDO
100
AcDbPolyline
 62
250
  6
CONTINUOUS
 90
8
 70
0
 10
6.9348525952
 20
58.0071428296
 10
6.9362619617
 20
57.979235007
 10
6.93675137
 20
57.9678563496
 10
6.9370895916
 20
57.9583669291
 10
6.9372729261
 20
57.9508705582
 10
6.9372993681
 20
57.945449243
 10
6.9371686283
 20
57.9421622884
 10
6.9368821368
 20
57.941045652
  0
LINE
  5
5ED
100
AcDbEntity
  8
CURVE
100
AcDbLine
 62
250
  6
CONTINUOUS
 10
9.6047778333
 20
50.8893847911
 11
9.6047778333
 21
50.7965276151
  0
LINE
  5
5EE
100
AcDbEntity
  8
CURVE
100
AcDbLine
 62
250
  6
CONTINUOUS
 10
9.6047778333
 20
34.020337054
 11
9.6047778333
 21
33.7417654483
  0
LINE
  5
5EF
100
AcDbEntity
  8
CURVE
100
AcDbLine
 62
250
  6
CONTINUOUS
 10
9.6047778333
 20
31.1417654483
 11
9.6047778333
 21
31.0489086597
  0
LINE
  5
5F0
100
AcDbEntity
  8
CURVE
100
AcDbLine
 62
250
  6
CONTINUOUS
 10
9.6047778333
 20
29.3774802654
 11
9.6047778333
 21
28.6346228568
  0
LINE
  5
5F1
100
AcDbEntity
  8
CURVE
100
AcDbLine
 62
250
  6
CONTINUOUS
 10
9.6047778333
 20
28.1084325282
 11
9.6047778333
 21
27.737003824
  0
LINE
  5
5F2
100
AcDbEntity
  8
CURVE
100
AcDbLine
 62
250
  6
CONTINUOUS
 10
9.6047778333
 20
27.1798609226
 11
9.6047778333
 21
26.6227180211
  0
LINE
  5
5F3
100
AcDbEntity
  8
CURVE
100
AcDbLine
 62
250
  6
CONTINUOUS
 10
9.6047778333
 20
26.0655752747
 11
9.6047778333
 21
25.6012896268
  0
LINE
  5
5F4
100
AcDbEntity
  8
CURVE
100
AcDbLine
 62
250
  6
CONTINUOUS
 10
9.6047778333
 20
24.0536705165
 11
9.6047778333
 21
23.5893847911
  0
LINE
  5
5F5
100
AcDbEntity
  8
CURVE
100
AcDbLine
 62
250
  6
CONTINUOUS
 10
9.6047778333
 20
49.5893847911
 11
9.6047778333
 21
49.9608133792
  0
LINE
  5
5F6
100
AcDbEntity
  8
CURVE
100
AcDbLine
 62
250
  6
CONTINUOUS
 10
9.6047778333
 20
51.5393847911
 11
9.6047778333
 21
51.9108133404
  0
LINE
  5
5F7
100
AcDbEntity
  8
CURVE
100
AcDbLine
 62
250
  6
CONTINUOUS
 10
9.6047778333
 20
53.2108134954
 11
9.6047778333
 21
53.5822418897
  0
LINE
  5
5F8
100
AcDbEntity
  8
RACCORDO
100
AcDbLine
 62
250
  6
CONTINUOUS
 10
6.9362619834
 20
19.1995350491
 11
6.9348526362
 21
19.1716275097
  0
LWPOLYLINE
  5
5F9
100
AcDbEntity
  8
RACCORDO
100
AcDbPolyline
 62
250
  6
CONTINUOUS
 90
6
 70
0
 10
6.9264213233
 20
17.9056483304
 10
6.9265551682
 20
17.9079734138
 10
6.9266846648
 20
17.9109247573
 10
6.9268085992
 20
17.9145392495
 10
6.9269256761
 20
17.9188608867
 10
6.9271341308
 20
17.9297056525
  0
LINE
  5
5FA
100
AcDbEntity
  8
RACCORDO
100
AcDbLine
 62
250
  6
CONTINUOUS
 10
6.9348526362
 20
19.1716275097
 11
6.9329230472
 21
19.137897909
  0
LINE
  5
5FB
100
AcDbEntity
  8
RACCORDO
100
AcDbLine
 62
250
  6
CONTINUOUS
 10
6.9329230472
 20
19.137897909
 11
6.9292427184
 21
19.0796606886
  0
LINE
  5
5FC
100
AcDbEntity
  8
RACCORDO
100
AcDbLine
 62
250
  6
CONTINUOUS
 10
6.9292427184
 20
19.0796606886
 11
6.9264213233
 21
19.0382111201
  0
LWPOLYLINE
  5
5FD
100
AcDbEntity
  8
ASSI
100
AcDbPolyline
 62
250
  6
CONTINUOUS
 90
8
 70
0
 10
2.5722332168
 20
15.3393847911
 10
2.5726652784
 20
15.3409111988
 10
2.573090746
 20
15.3454671362
 10
2.573503125
 20
15.3529830815
 10
2.5738961204
 20
15.3633443238
 10
2.5742637336
 20
15.3763927281
 10
2.5746003535
 20
15.3919291599
 10
2.5751606102
 20
15.4294832325
  0
LWPOLYLINE
  5
5FE
100
AcDbEntity
  8
ASSI
100
AcDbPolyline
 62
250
  6
CONTINUOUS
 90
13
 70
0
 10
2.0111285142
 20
15.4254588758
 10
2.0151542959
 20
15.4377876178
 10
2.0186880077
 20
15.4498785458
 10
2.0217296496
 20
15.4617316598
 10
2.024247423
 20
15.4733595555
 10
2.0262731265
 20
15.4847496373
 10
2.0279021555
 20
15.4958641179
 10
2.0291379026
 20
15.5066857541
 10
2.0299769753
 20
15.5172317891
 10
2.0305045918
 20
15.5275161654
 10
2.0307491582
 20
15.5375435306
 10
2.0306822684
 20
15.547309237
 10
2.0303039224
 20
15.5568132848
  0
LINE
  5
5FF
100
AcDbEntity
  8
0
100
AcDbLine
 62
250
  6
CONTINUOUS
 10
17.1613451625
 20
48.1465276925
 11
17.3470453333
 21
48.3322418897
  0
LINE
  5
600
100
AcDbEntity
  8
0
100
AcDbLine
 62
250
  6
CONTINUOUS
 10
17.9041457682
 20
47.8679560869
 11
17.7184456168
 21
47.6822418897
  0
LINE
  5
601
100
AcDbEntity
  8
0
100
AcDbLine
 62
250
  6
CONTINUOUS
 10
17.3470453333
 20
47.3108134954
 11
17.1613451625
 21
47.1250989883
  0
LINE
  5
602
100
AcDbEntity
  8
0
100
AcDbLine
 62
250
  6
CONTINUOUS
 10
17.7184456168
 20
46.6608134954
 11
17.9041457682
 21
46.8465276925
  0
LINE
  5
603
100
AcDbEntity
  8
0
100
AcDbLine
 62
250
  6
CONTINUOUS
 10
24.9036127013
 20
47.4298609226
 11
23.6037116994
 21
46.7798609226
  0
LINE
  5
604
100
AcDbEntity
  8
CURVE
100
AcDbLine
 62
250
  6
CONTINUOUS
 10
17.23752985
 20
39.3143847911
 11
17.4458473281
 21
39.3560514628
  0
LINE
  5
605
100
AcDbEntity
  8
CURVE
100
AcDbLine
 62
250
  6
CONTINUOUS
 10
16.6042447664
 20
37.1108133404
 11
16.8827950032
 21
37.1108133404
  0
LINE
  5
606
100
AcDbEntity
  8
0
100
AcDbLine
 62
250
  6
CONTINUOUS
 10
21.3858214511
 20
37.1597947911
 11
22.1563181118
 21
37.1597947911
  0
LINE
  5
607
100
AcDbEntity
  8
0
100
AcDbLine
 62
250
  6
CONTINUOUS
 10
25.6895675714
 20
37.1597947911
 11
26.4600642321
 21
37.1597947911
  0
LINE
  5
608
100
AcDbEntity
  8
CURVE
100
AcDbLine
 62
250
  6
CONTINUOUS
 10
16.6042447664
 20
38.1322418897
 11
17.1613451625
 21
38.1322418897
  0
LINE
  5
609
100
AcDbEntity
  8
CURVE
100
AcDbLine
 62
250
  6
CONTINUOUS
 10
17.3470453333
 20
38.6893847911
 11
17.7184456168
 21
38.6893847911
  0
LINE
  5
60A
100
AcDbEntity
  8
CURVE
100
AcDbLine
 62
250
  6
CONTINUOUS
 10
16.9756450305
 20
31.8227183311
 11
17.9041457682
 21
31.1727183311
  0
LINE
  5
60B
100
AcDbEntity
  8
0
100
AcDbLine
 62
250
  6
CONTINUOUS
 10
24.3332884122
 20
24.2137627911
 11
19.3232011883
 21
29.1503947911
  0
LINE
  5
60C
100
AcDbEntity
  8
CURVE
100
AcDbLine
 62
250
  6
CONTINUOUS
 10
16.7899448984
 20
29.2227183311
 11
16.6042447664
 21
29.4084325282
  0
LINE
  5
60D
100
AcDbEntity
  8
CURVE
100
AcDbLine
 62
250
  6
CONTINUOUS
 10
17.7184456168
 20
28.8512893169
 11
17.9041457682
 21
28.6655751197
  0
LINE
  5
60E
100
AcDbEntity
  8
CURVE
100
AcDbLine
 62
250
  6
CONTINUOUS
 10
17.5327454654
 20
29.7798609226
 11
17.9041457682
 21
29.4084325282
  0
LINE
  5
60F
100
AcDbEntity
  8
CURVE
100
AcDbLine
 62
250
  6
CONTINUOUS
 10
9.9761780974
 20
33.370337054
 11
9.9761780974
 21
32.9989086597
  0
LINE
  5
610
100
AcDbEntity
  8
CURVE
100
AcDbLine
 62
250
  6
CONTINUOUS
 10
10.1618782295
 20
26.6227180211
 11
10.1618782295
 21
26.9941467254
  0
LINE
  5
611
100
AcDbEntity
  8
CURVE
100
AcDbLine
 62
250
  6
CONTINUOUS
 10
10.1618782295
 20
49.7750990851
 11
10.1618782295
 21
49.9608133792
  0
LINE
  5
612
100
AcDbEntity
  8
CURVE
100
AcDbLine
 62
250
  6
CONTINUOUS
 10
10.1618782295
 20
51.7250991433
 11
10.1618782295
 21
51.9108133404
  0
LINE
  5
613
100
AcDbEntity
  8
CURVE
100
AcDbLine
 62
250
  6
CONTINUOUS
 10
10.1618782295
 20
53.3965276925
 11
10.1618782295
 21
53.5822418897
  0
LINE
  5
614
100
AcDbEntity
  8
CURVE
100
AcDbLine
 62
250
  6
CONTINUOUS
 10
10.2547283342
 20
33.7417654483
 11
10.2547283342
 21
34.206051871
  0
LINE
  5
615
100
AcDbEntity
  8
CURVE
100
AcDbLine
 62
250
  6
CONTINUOUS
 10
10.3475784003
 20
25.6012896268
 11
10.3475784003
 21
26.0655752747
  0
LINE
  5
616
100
AcDbEntity
  8
CURVE
100
AcDbLine
 62
250
  6
CONTINUOUS
 10
10.9046788352
 20
53.6750989883
 11
10.9046788352
 21
53.2108134954
  0
LINE
  5
617
100
AcDbEntity
  8
CURVE
100
AcDbLine
 62
250
  6
CONTINUOUS
 10
10.9046788352
 20
52.003670439
 11
10.9046788352
 21
51.5393847911
  0
LINE
  5
618
100
AcDbEntity
  8
CURVE
100
AcDbLine
 62
250
  6
CONTINUOUS
 10
10.9046788352
 20
50.0536705165
 11
10.9046788352
 21
49.5893847911
  0
LINE
  5
619
100
AcDbEntity
  8
CURVE
100
AcDbLine
 62
250
  6
CONTINUOUS
 10
10.9046788352
 20
27.1798609226
 11
10.9046788352
 21
26.6227180211
  0
LINE
  5
61A
100
AcDbEntity
  8
CURVE
100
AcDbLine
 62
250
  6
CONTINUOUS
 10
10.9046788352
 20
23.5893847911
 11
10.9046788352
 21
24.0536705165
  0
LINE
  5
61B
100
AcDbEntity
  8
CURVE
100
AcDbLine
 62
250
  6
CONTINUOUS
 10
10.9046788352
 20
27.737003824
 11
10.9046788352
 21
28.1084325282
  0
LINE
  5
61C
100
AcDbEntity
  8
CURVE
100
AcDbLine
 62
250
  6
CONTINUOUS
 10
10.9046788352
 20
31.0489086597
 11
10.9046788352
 21
31.1417654483
  0
LINE
  5
61D
100
AcDbEntity
  8
CURVE
100
AcDbLine
 62
250
  6
CONTINUOUS
 10
10.9046788352
 20
32.9989086597
 11
10.9046788352
 21
33.370337054
  0
LINE
  5
61E
100
AcDbEntity
  8
CURVE
100
AcDbLine
 62
250
  6
CONTINUOUS
 10
10.9046788352
 20
33.7417654483
 11
10.9046788352
 21
34.206051871
  0
LINE
  5
61F
100
AcDbEntity
  8
CURVE
100
AcDbLine
 62
250
  6
CONTINUOUS
 10
10.9046788352
 20
50.7965276151
 11
10.9046788352
 21
50.8893847911
  0
LWPOLYLINE
  5
620
100
AcDbEntity
  8
0
100
AcDbPolyline
 62
7
  6
CONTINUOUS
 90
4
 70
0
 43
0.3500000006
 10
11.4515024071
 20
84.3809870911
 10
11.4515024071
 20
85.2381250305
 10
11.8800736427
 20
85.6666940002
 10
12.5229304962
 20
85.6666940002
  0
LWPOLYLINE
  5
621
100
AcDbEntity
  8
RACCORDO
100
AcDbPolyline
 62
250
  6
CONTINUOUS
 90
7
 70
0
 10
6.6527453188
 20
15.4476685176
 10
6.6551435068
 20
15.4588373997
 10
6.6575614089
 20
15.4706015569
 10
6.6600488786
 20
15.483064652
 10
6.6625771976
 20
15.4962464746
 10
6.665056706
 20
15.5100699804
 10
6.6674295805
 20
15.524487085
  0
LINE
  5
622
100
AcDbEntity
  8
CURVE
100
AcDbLine
 62
250
  6
CONTINUOUS
 10
9.6357278941
 20
34.1131938426
 11
9.6047778333
 21
34.020337054
  0
LWPOLYLINE
  5
623
100
AcDbEntity
  8
ASSI
100
AcDbPolyline
 62
250
  6
CONTINUOUS
 90
13
 70
0
 10
1.8497136595
 20
15.4737073339
 10
1.8518605927
 20
15.4798559414
 10
1.8537145534
 20
15.4859049921
 10
1.8552865345
 20
15.4918439763
 10
1.8565807197
 20
15.4976620176
 10
1.8576153146
 20
15.5033519215
 10
1.8584222489
 20
15.5089102077
 10
1.8590136014
 20
15.514324043
 10
1.8593993762
 20
15.5195935696
 10
1.8596065717
 20
15.5247362322
 10
1.8596495748
 20
15.5297552106
 10
1.8595317657
 20
15.5346391608
 10
1.8592619544
 20
15.5393847911
  0
LINE
  5
624
100
AcDbEntity
  8
0
100
AcDbLine
 62
250
  6
CONTINUOUS
 10
17.0684951352
 20
46.7227180211
 11
17.1613451625
 21
46.8465276925
  0
LINE
  5
625
100
AcDbEntity
  8
0
100
AcDbLine
 62
250
  6
CONTINUOUS
 10
16.7899448984
 20
45.2679562418
 11
16.6042447664
 21
45.0822418897
  0
LINE
  5
626
100
AcDbEntity
  8
0
100
AcDbLine
 62
250
  6
CONTINUOUS
 10
17.7184456168
 20
44.8036705165
 11
17.9041457682
 21
44.9893847911
  0
LINE
  5
627
100
AcDbEntity
  8
CURVE
100
AcDbLine
 62
250
  6
CONTINUOUS
 10
17.4458473281
 20
39.3560514628
 11
17.6541648063
 21
39.4393847911
  0
LINE
  5
628
100
AcDbEntity
  8
0
100
AcDbLine
 62
250
  6
CONTINUOUS
 10
24.9036127013
 20
42.4465276925
 11
23.6037116994
 21
42.0750991433
  0
LINE
  5
629
100
AcDbEntity
  8
CURVE
100
AcDbLine
 62
250
  6
CONTINUOUS
 10
17.23752985
 20
40.3977181642
 11
16.9875488881
 21
40.3560514181
  0
LINE
  5
62A
100
AcDbEntity
  8
0
100
AcDbLine
 62
250
  6
CONTINUOUS
 10
23.6037116994
 20
40.5893847911
 11
24.9036127013
 21
40.5893847911
  0
LINE
  5
62B
100
AcDbEntity
  8
CURVE
100
AcDbLine
 62
250
  6
CONTINUOUS
 10
16.9875488881
 20
39.3560514628
 11
17.23752985
 21
39.3143847911
  0
LINE
  5
62C
100
AcDbEntity
  8
CURVE
100
AcDbLine
 62
250
  6
CONTINUOUS
 10
17.9041457682
 20
37.3893847911
 11
16.6042447664
 21
37.7608133404
  0
LINE
  5
62D
100
AcDbEntity
  8
CURVE
100
AcDbLine
 62
250
  6
CONTINUOUS
 10
17.9041457682
 20
36.0893847911
 11
16.6042447664
 21
36.7393847911
  0
LWPOLYLINE
  5
62E
100
AcDbEntity
  8
ASSI
100
AcDbPolyline
 62
250
  6
CONTINUOUS
 90
10
 70
0
 10
1.8497141029
 20
61.7050607551
 10
1.844829368
 20
61.7173141956
 10
1.8393895965
 20
61.7287303012
 10
1.8335004573
 20
61.7393080364
 10
1.8273005516
 20
61.7490531011
 10
1.820841692
 20
61.7579879713
 10
1.8140888359
 20
61.7661488886
 10
1.8070786007
 20
61.7735693609
 10
1.7999188609
 20
61.7802802575
 10
1.7926697968
 20
61.7863193305
  0
LWPOLYLINE
  5
62F
100
AcDbEntity
  8
RACCORDO
100
AcDbPolyline
 62
250
  6
CONTINUOUS
 90
4
 70
0
 10
6.6546307152
 20
61.7223463566
 10
6.6529471968
 20
61.7301850384
 10
6.6512057862
 20
61.7380687434
 10
6.6476150831
 20
61.7538799415
  0
LWPOLYLINE
  5
630
100
AcDbEntity
  8
RACCORDO
100
AcDbPolyline
 62
250
  6
CONTINUOUS
 90
9
 70
0
 10
6.6674295805
 20
61.6542824972
 10
6.6661870825
 20
61.6618201105
 10
6.6648982099
 20
61.66936489
 10
6.663565313
 20
61.676905754
 10
6.662195381
 20
61.6843941141
 10
6.6607879331
 20
61.6918561641
 10
6.6593303051
 20
61.6993892291
 10
6.6578159712
 20
61.7069836893
 10
6.6546307152
 20
61.7223463566
  0
LWPOLYLINE
  5
631
100
AcDbEntity
  8
RACCORDO
100
AcDbPolyline
 62
250
  6
CONTINUOUS
 90
3
 70
0
 10
6.6459331371
 20
15.417766233
 10
6.6481286256
 20
15.4271259894
 10
6.6527453188
 20
15.4476685176
  0
LINE
  5
632
100
AcDbEntity
  8
RACCORDO
100
AcDbLine
 62
250
  6
CONTINUOUS
 10
6.6418322059
 20
15.4008033084
 11
6.6459331371
 21
15.417766233
  0
LWPOLYLINE
  5
633
100
AcDbEntity
  8
RACCORDO
100
AcDbPolyline
 62
250
  6
CONTINUOUS
 90
3
 70
0
 10
6.6365848973
 20
15.3801106373
 10
6.6381920502
 20
15.3863867087
 10
6.6418322059
 20
15.4008033084
  0
LINE
  5
634
100
AcDbEntity
  8
RACCORDO
100
AcDbLine
 62
250
  6
CONTINUOUS
 10
6.6325013818
 20
15.3646978824
 11
6.6365848973
 21
15.3801106373
  0
LWPOLYLINE
  5
635
100
AcDbEntity
  8
RACCORDO
100
AcDbPolyline
 62
250
  6
CONTINUOUS
 90
4
 70
0
 10
6.628669282
 20
15.3508201379
 10
6.629473444
 20
15.3536763013
 10
6.6303675489
 20
15.3569127361
 10
6.6325013818
 20
15.3646978824
  0
LWPOLYLINE
  5
636
100
AcDbEntity
  8
RACCORDO
100
AcDbPolyline
 62
250
  6
CONTINUOUS
 90
3
 70
0
 10
6.6268009527
 20
15.344351287
 10
6.6273387498
 20
15.3461835361
 10
6.628669282
 20
15.3508201379
  0
LINE
  5
637
100
AcDbEntity
  8
CURVE
100
AcDbLine
 62
250
  6
CONTINUOUS
 10
10.8118287595
 20
32.8131944625
 11
10.9046788352
 21
32.9989086597
  0
LINE
  5
638
100
AcDbEntity
  8
CURVE
100
AcDbLine
 62
250
  6
CONTINUOUS
 10
9.7904779654
 20
34.2989086597
 11
9.6357278941
 21
34.1131938426
  0
LINE
  5
639
100
AcDbEntity
  8
CURVE
100
AcDbLine
 62
250
  6
CONTINUOUS
 10
10.4404284663
 20
34.3917654483
 11
10.2547283342
 21
34.206051871
  0
LINE
  5
63A
100
AcDbEntity
  8
CURVE
100
AcDbLine
 62
250
  6
CONTINUOUS
 10
16.8625584667
 20
40.2727181642
 11
16.7792314397
 21
40.1893847911
  0
LINE
  5
63B
100
AcDbEntity
  8
CURVE
100
AcDbLine
 62
250
  6
CONTINUOUS
 10
17.6541648063
 20
39.4393847911
 11
17.9041457682
 21
39.6477181344
  0
LINE
  5
63C
100
AcDbEntity
  8
CURVE
100
AcDbLine
 62
250
  6
CONTINUOUS
 10
16.9875488881
 20
40.3560514181
 11
16.8625584667
 21
40.2727181642
  0
LINE
  5
63D
100
AcDbEntity
  8
0
100
AcDbLine
 62
250
  6
CONTINUOUS
 10
24.3465122664
 20
40.9608133792
 11
23.6037116994
 21
40.5893847911
  0
LWPOLYLINE
  5
63E
100
AcDbEntity
  8
CURVE
100
AcDbPolyline
 62
250
  6
CONTINUOUS
 90
6
 70
0
 10
6.0073936607
 20
34.3572604281
 10
6.030005819
 20
34.3655524079
 10
6.0528564961
 20
34.3735576256
 10
6.0759313589
 20
34.3813154256
 10
6.1109301134
 20
34.3925774294
 10
6.1463374579
 20
34.4035229317
  0
LINE
  5
63F
100
AcDbEntity
  8
CURVE
100
AcDbLine
 62
250
  6
CONTINUOUS
 10
6.1463374579
 20
34.4035229317
 11
6.4908251107
 21
34.5067659927
  0
LINE
  5
640
100
AcDbEntity
  8
CURVE
100
AcDbLine
 62
250
  6
CONTINUOUS
 10
6.4908251107
 20
34.5067659927
 11
6.6463984791
 21
34.5525925921
  0
LINE
  5
641
100
AcDbEntity
  8
CURVE
100
AcDbLine
 62
250
  6
CONTINUOUS
 10
6.6463984791
 20
34.5525925921
 11
6.9169825101
 21
34.6310570865
  0
LINE
  5
642
100
AcDbEntity
  8
0
100
AcDbLine
 62
250
  6
CONTINUOUS
 10
24.9036127013
 20
41.3322419672
 11
23.6037116994
 21
41.3322419672
  0
LINE
  5
643
100
AcDbEntity
  8
0
100
AcDbLine
 62
250
  6
CONTINUOUS
 10
23.6037116994
 20
42.8179562418
 11
24.9036127013
 21
42.8179562418
  0
LINE
  5
644
100
AcDbEntity
  8
CURVE
100
AcDbLine
 62
250
  6
CONTINUOUS
 10
17.4458473281
 20
40.3560514181
 11
17.23752985
 21
40.3977181642
  0
LINE
  5
645
100
AcDbEntity
  8
CURVE
100
AcDbLine
 62
250
  6
CONTINUOUS
 10
17.6541648063
 20
40.2727181642
 11
17.4458473281
 21
40.3560514181
  0
LWPOLYLINE
  5
646
100
AcDbEntity
  8
RACCORDO
100
AcDbPolyline
 62
250
  6
CONTINUOUS
 90
4
 70
0
 10
6.6258927122
 20
61.8374066838
 10
6.625559063
 20
61.838457525
 10
6.6253002071
 20
61.8391379772
 10
6.6251173623
 20
61.83938472
  0
LWPOLYLINE
  5
647
100
AcDbEntity
  8
RACCORDO
100
AcDbPolyline
 62
250
  6
CONTINUOUS
 90
3
 70
0
 10
6.6273281671
 20
61.8326235956
 10
6.6267883078
 20
61.8344625005
 10
6.6258927122
 20
61.8374066838
  0
LINE
  5
648
100
AcDbEntity
  8
RACCORDO
100
AcDbLine
 62
250
  6
CONTINUOUS
 10
6.629254766
 20
61.8258726513
 11
6.6273281671
 21
61.8326235956
  0
LWPOLYLINE
  5
649
100
AcDbEntity
  8
RACCORDO
100
AcDbPolyline
 62
250
  6
CONTINUOUS
 90
7
 70
0
 10
6.6250537857
 20
61.8393847911
 10
6.6254879096
 20
61.8378437198
 10
6.6259147256
 20
61.8332531969
 10
6.6263277191
 20
61.825696985
 10
6.6267204475
 20
61.8153094172
 10
6.6270872224
 20
61.8022582074
 10
6.6274230564
 20
61.7867287133
  0
LINE
  5
64A
100
AcDbEntity
  8
RACCORDO
100
AcDbLine
 62
250
  6
CONTINUOUS
 10
6.6316873979
 20
61.8170675977
 11
6.629254766
 21
61.8258726513
  0
LINE
  5
64B
100
AcDbEntity
  8
RACCORDO
100
AcDbLine
 62
250
  6
CONTINUOUS
 10
6.6360731309
 20
61.8006242059
 11
6.6316873979
 21
61.8170675977
  0
LINE
  5
64C
100
AcDbEntity
  8
RACCORDO
100
AcDbLine
 62
250
  6
CONTINUOUS
 10
6.6405059156
 20
61.7833111482
 11
6.6360731309
 21
61.8006242059
  0
LWPOLYLINE
  5
64D
100
AcDbEntity
  8
RACCORDO
100
AcDbPolyline
 62
250
  6
CONTINUOUS
 90
4
 70
0
 10
6.6476150831
 20
61.7538799415
 10
6.6457677012
 20
61.7617337384
 10
6.6439540405
 20
61.7692664309
 10
6.6405059156
 20
61.7833111482
  0
LINE
  5
64E
100
AcDbEntity
  8
CURVE
100
AcDbLine
 62
250
  6
CONTINUOUS
 10
16.6959044127
 20
40.0227181046
 11
16.6542409587
 21
39.8560514777
  0
LWPOLYLINE
  5
64F
100
AcDbEntity
  8
RACCORDO
100
AcDbPolyline
 62
250
  6
CONTINUOUS
 90
10
 70
0
 10
7.0164745442
 20
16.3323665231
 10
7.0180140148
 20
16.3360640997
 10
7.019410832
 20
16.3399386381
 10
7.0206649958
 20
16.3439901384
 10
7.021795698
 20
16.3482181271
 10
7.0227837468
 20
16.3526230777
 10
7.0235715672
 20
16.3572064104
 10
7.0241399674
 20
16.3619685989
 10
7.0245081393
 20
16.3669091696
 10
7.0246760827
 20
16.3720281225
  0
LINE
  5
650
100
AcDbEntity
  8
RACCORDO
100
AcDbLine
 62
250
  6
CONTINUOUS
 10
6.6674295835
 20
15.5244870918
 11
7.0164745442
 21
16.3323665231
  0
LINE
  5
651
100
AcDbEntity
  8
RACCORDO
100
AcDbLine
 62
7
  6
CONTINUOUS
 10
6.7170527505
 20
15.3999626574
 11
7.106527765
 21
16.3014191706
  0
LINE
  5
652
100
AcDbEntity
  8
CURVE
100
AcDbLine
 62
250
  6
CONTINUOUS
 10
16.7792314397
 20
40.1893847911
 11
16.6959044127
 21
40.0227181046
  0
LINE
  5
653
100
AcDbEntity
  8
CURVE
100
AcDbLine
 62
250
  6
CONTINUOUS
 10
9.7904779654
 20
31.3274802654
 11
9.6047778333
 21
31.1417654483
  0
LINE
  5
654
100
AcDbEntity
  8
CURVE
100
AcDbLine
 62
250
  6
CONTINUOUS
 10
17.1613451625
 20
38.503670439
 11
17.3470453333
 21
38.6893847911
  0
LINE
  5
655
100
AcDbEntity
  8
CURVE
100
AcDbLine
 62
250
  6
CONTINUOUS
 10
10.7189786837
 20
30.8631944625
 11
10.9046788352
 21
31.0489086597
  0
LINE
  5
656
100
AcDbEntity
  8
0
100
AcDbLine
 62
250
  6
CONTINUOUS
 10
23.7894118315
 20
43.4679560869
 11
23.6037116994
 21
43.2822418897
  0
LINE
  5
657
100
AcDbEntity
  8
CURVE
100
AcDbLine
 62
250
  6
CONTINUOUS
 10
9.9761780974
 20
31.420337054
 11
9.7904779654
 21
31.3274802654
  0
LINE
  5
658
100
AcDbEntity
  8
CURVE
100
AcDbLine
 62
250
  6
CONTINUOUS
 10
3.917343842
 20
31.9443547911
 11
6.916982842
 21
32.8647177911
  0
LINE
  5
659
100
AcDbEntity
  8
0
100
AcDbLine
 62
250
  6
CONTINUOUS
 10
24.7179125498
 20
43.4679560869
 11
23.7894118315
 21
43.4679560869
  0
LINE
  5
65A
100
AcDbEntity
  8
0
100
AcDbLine
 62
250
  6
CONTINUOUS
 10
23.6037116994
 20
43.9941467254
 11
24.9036127013
 21
43.9941467254
  0
LINE
  5
65B
100
AcDbEntity
  8
0
100
AcDbLine
 62
250
  6
CONTINUOUS
 10
17.2541952673
 20
44.1227181374
 11
17.9041457682
 21
44.1227181374
  0
LINE
  5
65C
100
AcDbEntity
  8
0
100
AcDbLine
 62
250
  6
CONTINUOUS
 10
16.9756450305
 20
44.7108133404
 11
17.5327454654
 21
44.7108133404
  0
LINE
  5
65D
100
AcDbEntity
  8
CURVE
100
AcDbLine
 62
250
  6
CONTINUOUS
 10
6.9341617051
 20
44.7437527911
 11
3.9308194343
 21
44.7437527911
  0
LINE
  5
65E
100
AcDbEntity
  8
CURVE
100
AcDbLine
 62
250
  6
CONTINUOUS
 10
3.9308194343
 20
45.0968697911
 11
6.6516902176
 21
45.0968697911
  0
LINE
  5
65F
100
AcDbEntity
  8
0
100
AcDbLine
 62
250
  6
CONTINUOUS
 10
17.5327454654
 20
45.3608133404
 11
16.9756450305
 21
45.3608133404
  0
LINE
  5
660
100
AcDbEntity
  8
CURVE
100
AcDbLine
 62
250
  6
CONTINUOUS
 10
16.8625584667
 20
39.4393847911
 11
16.9875488881
 21
39.3560514628
  0
LINE
  5
661
100
AcDbEntity
  8
CURVE
100
AcDbLine
 62
250
  6
CONTINUOUS
 10
17.9041457682
 20
40.0643847911
 11
17.6541648063
 21
40.2727181642
  0
LINE
  5
662
100
AcDbEntity
  8
CURVE
100
AcDbLine
 62
250
  6
CONTINUOUS
 10
16.7792314397
 20
39.5227181344
 11
16.8625584667
 21
39.4393847911
  0
LINE
  5
663
100
AcDbEntity
  8
CURVE
100
AcDbLine
 62
250
  6
CONTINUOUS
 10
17.7184456168
 20
38.6893847911
 11
17.9041457682
 21
38.503670439
  0
LINE
  5
664
100
AcDbEntity
  8
CURVE
100
AcDbLine
 62
250
  6
CONTINUOUS
 10
10.0690282022
 20
50.1155752747
 11
10.1618782295
 21
49.9608133792
  0
LINE
  5
665
100
AcDbEntity
  8
RACCORDO
100
AcDbLine
 62
250
  6
CONTINUOUS
 10
7.0164745442
 20
60.8464030591
 11
6.667429581
 21
61.6542824962
  0
LINE
  5
666
100
AcDbEntity
  8
RACCORDO
100
AcDbLine
 62
7
  6
CONTINUOUS
 10
7.106527765
 20
60.8773504117
 11
6.7169492892
 21
61.7790463905
  0
LINE
  5
667
100
AcDbEntity
  8
0
100
AcDbLine
 62
250
  6
CONTINUOUS
 10
16.6042447664
 20
47.1250989883
 11
16.6042447664
 21
46.8465276925
  0
LINE
  5
668
100
AcDbEntity
  8
0
100
AcDbLine
 62
250
  6
CONTINUOUS
 10
16.6042447664
 20
45.0822418897
 11
16.6042447664
 21
44.9893847911
  0
LINE
  5
669
100
AcDbEntity
  8
CURVE
100
AcDbLine
 62
250
  6
CONTINUOUS
 10
16.6042447664
 20
38.6893847911
 11
16.6042447664
 21
38.1322418897
  0
LINE
  5
66A
100
AcDbEntity
  8
CURVE
100
AcDbLine
 62
250
  6
CONTINUOUS
 10
16.6042447664
 20
37.7608133404
 11
16.6042447664
 21
37.1108133404
  0
LINE
  5
66B
100
AcDbEntity
  8
CURVE
100
AcDbLine
 62
250
  6
CONTINUOUS
 10
16.6042447664
 20
36.7393847911
 11
16.6042447664
 21
36.0893847911
  0
LINE
  5
66C
100
AcDbEntity
  8
CURVE
100
AcDbLine
 62
250
  6
CONTINUOUS
 10
16.6042447664
 20
25.9108133404
 11
16.6042447664
 21
25.5393847911
  0
LINE
  5
66D
100
AcDbEntity
  8
CURVE
100
AcDbLine
 62
250
  6
CONTINUOUS
 10
16.6042447664
 20
24.9822418897
 11
16.6042447664
 21
24.4250990658
  0
LINE
  5
66E
100
AcDbEntity
  8
CURVE
100
AcDbLine
 62
250
  6
CONTINUOUS
 10
16.6042447664
 20
29.4084325282
 11
16.6042447664
 21
29.6870041339
  0
LINE
  5
66F
100
AcDbEntity
  8
CURVE
100
AcDbLine
 62
250
  6
CONTINUOUS
 10
16.6042447664
 20
31.3584325282
 11
16.6042447664
 21
31.6370041339
  0
LINE
  5
670
100
AcDbEntity
  8
0
100
AcDbLine
 62
250
  6
CONTINUOUS
 10
16.6042447664
 20
48.8893847911
 11
16.6042447664
 21
49.1679563968
  0
LINE
  5
671
100
AcDbEntity
  8
0
100
AcDbLine
 62
250
  6
CONTINUOUS
 10
16.9756450305
 20
53.4393847911
 11
16.9756450305
 21
52.8822421996
  0
LINE
  5
672
100
AcDbEntity
  8
0
100
AcDbLine
 62
250
  6
CONTINUOUS
 10
17.1613451625
 20
52.5108131854
 11
17.1613451625
 21
51.8608131854
  0
LINE
  5
673
100
AcDbEntity
  8
0
100
AcDbLine
 62
250
  6
CONTINUOUS
 10
17.1613451625
 20
47.1250989883
 11
17.1613451625
 21
46.8465276925
  0
LINE
  5
674
100
AcDbEntity
  8
CURVE
100
AcDbLine
 62
250
  6
CONTINUOUS
 10
17.1613451625
 20
24.4250990658
 11
17.1613451625
 21
24.7965276151
  0
LINE
  5
675
100
AcDbEntity
  8
CURVE
100
AcDbLine
 62
250
  6
CONTINUOUS
 10
17.1613451625
 20
28.2631944625
 11
17.1613451625
 21
28.6655751197
  0
LINE
  5
676
100
AcDbEntity
  8
CURVE
100
AcDbLine
 62
250
  6
CONTINUOUS
 10
17.1613451625
 20
38.1322418897
 11
17.1613451625
 21
38.503670439
  0
LINE
  5
677
100
AcDbEntity
  8
0
100
AcDbLine
 62
250
  6
CONTINUOUS
 10
17.1613451625
 20
47.7441467254
 11
17.1613451625
 21
48.1465276925
  0
LINE
  5
678
100
AcDbEntity
  8
CURVE
100
AcDbLine
 62
250
  6
CONTINUOUS
 10
17.3470453333
 20
29.8108131854
 11
17.3470453333
 21
29.4084325282
  0
LINE
  5
679
100
AcDbEntity
  8
0
100
AcDbLine
 62
250
  6
CONTINUOUS
 10
17.4398953993
 20
46.2893847911
 11
17.4398953993
 21
45.7322418897
  0
LINE
  5
67A
100
AcDbEntity
  8
CURVE
100
AcDbLine
 62
250
  6
CONTINUOUS
 10
17.4398953993
 20
30.8012893169
 11
17.4398953993
 21
30.2441467254
  0
LINE
  5
67B
100
AcDbEntity
  8
0
100
AcDbLine
 62
250
  6
CONTINUOUS
 10
17.6255955508
 20
43.6893847911
 11
17.6255955508
 21
44.3393847911
  0
LINE
  5
67C
100
AcDbEntity
  8
0
100
AcDbLine
 62
250
  6
CONTINUOUS
 10
17.9041457682
 20
53.4393847911
 11
17.9041457682
 21
52.8822421996
  0
LINE
  5
67D
100
AcDbEntity
  8
0
100
AcDbLine
 62
250
  6
CONTINUOUS
 10
17.9041457682
 20
48.1465276925
 11
17.9041457682
 21
47.8679560869
  0
LINE
  5
67E
100
AcDbEntity
  8
CURVE
100
AcDbLine
 62
250
  6
CONTINUOUS
 10
17.9041457682
 20
40.5227181642
 11
17.9041457682
 21
40.0643847911
  0
LINE
  5
67F
100
AcDbEntity
  8
CURVE
100
AcDbLine
 62
250
  6
CONTINUOUS
 10
17.9041457682
 20
39.6477181344
 11
17.9041457682
 21
39.1893847911
  0
LINE
  5
680
100
AcDbEntity
  8
CURVE
100
AcDbLine
 62
250
  6
CONTINUOUS
 10
17.9041457682
 20
38.503670439
 11
17.9041457682
 21
38.1322418897
  0
LINE
  5
681
100
AcDbEntity
  8
CURVE
100
AcDbLine
 62
250
  6
CONTINUOUS
 10
17.9041457682
 20
36.7393847911
 11
17.9041457682
 21
36.0893847911
  0
LINE
  5
682
100
AcDbEntity
  8
CURVE
100
AcDbLine
 62
250
  6
CONTINUOUS
 10
17.9041457682
 20
28.6655751197
 11
17.9041457682
 21
28.387003824
  0
LINE
  5
683
100
AcDbEntity
  8
CURVE
100
AcDbLine
 62
250
  6
CONTINUOUS
 10
17.9041457682
 20
24.9822418897
 11
17.9041457682
 21
24.4250990658
  0
LINE
  5
684
100
AcDbEntity
  8
CURVE
100
AcDbLine
 62
250
  6
CONTINUOUS
 10
17.9041457682
 20
25.5393847911
 11
17.9041457682
 21
25.9108133404
  0
LINE
  5
685
100
AcDbEntity
  8
CURVE
100
AcDbLine
 62
250
  6
CONTINUOUS
 10
17.9041457682
 20
31.1727183311
 11
17.9041457682
 21
31.8227183311
  0
LINE
  5
686
100
AcDbEntity
  8
0
100
AcDbLine
 62
250
  6
CONTINUOUS
 10
17.9041457682
 20
44.9893847911
 11
17.9041457682
 21
45.0822418897
  0
LINE
  5
687
100
AcDbEntity
  8
0
100
AcDbLine
 62
250
  6
CONTINUOUS
 10
17.9041457682
 20
46.8465276925
 11
17.9041457682
 21
47.1250989883
  0
LINE
  5
688
100
AcDbEntity
  8
0
100
AcDbLine
 62
250
  6
CONTINUOUS
 10
17.9041457682
 20
48.703670594
 11
17.9041457682
 21
49.353670594
  0
LWPOLYLINE
  5
689
100
AcDbEntity
  8
RACCORDO
100
AcDbPolyline
 62
250
  6
CONTINUOUS
 90
11
 70
0
 10
6.9264213233
 20
16.9530746521
 10
6.9265825447
 20
16.9533591895
 10
6.9267394395
 20
16.9542322345
 10
6.9268908114
 20
16.955730951
 10
6.9270352648
 20
16.9578932747
 10
6.927171637
 20
16.9607532863
 10
6.9272990998
 20
16.9643363681
 10
6.9274165764
 20
16.9686768646
 10
6.9275225237
 20
16.9737942968
 10
6.9276158036
 20
16.9796705056
 10
6.9277606588
 20
16.9937022788
  0
LINE
  5
68A
100
AcDbEntity
  8
CURVE
100
AcDbLine
 62
250
  6
CONTINUOUS
 10
10.7189786837
 20
27.5512896268
 11
10.9046788352
 21
27.737003824
  0
LINE
  5
68B
100
AcDbEntity
  8
CURVE
100
AcDbLine
 62
250
  6
CONTINUOUS
 10
9.7904779654
 20
26.2512896268
 11
9.6047778333
 21
26.0655752747
  0
LWPOLYLINE
  5
68C
100
AcDbEntity
  8
RACCORDO
100
AcDbPolyline
 62
250
  6
CONTINUOUS
 90
8
 70
0
 10
-2.7366203527
 20
16.976629414
 10
-2.7197184649
 20
16.9914550312
 10
-2.7004297251
 20
17.0045051426
 10
-2.6790768985
 20
17.015561402
 10
-2.6560172608
 20
17.0244388341
 10
-2.6316366546
 20
17.0309889091
 10
-2.6063430389
 20
17.0351020352
 10
-2.5805596393
 20
17.036709401
  0
LINE
  5
68D
100
AcDbEntity
  8
CURVE
100
AcDbLine
 62
250
  6
CONTINUOUS
 10
10.5332785323
 20
30.770337054
 11
10.7189786837
 21
30.8631944625
  0
LINE
  5
68E
100
AcDbEntity
  8
CURVE
100
AcDbLine
 62
250
  6
CONTINUOUS
 10
6.916982842
 20
28.7259617911
 11
4.958274842
 21
27.9914207911
  0
LINE
  5
68F
100
AcDbEntity
  8
CURVE
100
AcDbLine
 62
250
  6
CONTINUOUS
 10
3.917343842
 20
28.1537597911
 11
5.582752842
 21
28.7732887911
  0
LWPOLYLINE
  5
690
100
AcDbEntity
  8
0
100
AcDbPolyline
 62
250
  6
CONTINUOUS
 90
8
 70
0
 10
24.3054282772
 20
35.1612587911
 10
24.6652285464
 20
35.2814667271
 10
24.991501098
 20
35.4749974883
 10
25.2695087844
 20
35.7331096364
 10
25.4896890837
 20
36.0496086704
 10
25.6350206725
 20
36.4000272223
 10
25.7030207678
 20
36.7732452225
 10
25.6895671256
 20
37.1597947629
  0
LINE
  5
691
100
AcDbEntity
  8
CURVE
100
AcDbLine
 62
250
  6
CONTINUOUS
 10
6.6516902176
 20
46.0398997911
 11
6.9341617051
 21
46.0398997911
  0
LINE
  5
692
100
AcDbEntity
  8
0
100
AcDbLine
 62
250
  6
CONTINUOUS
 10
23.6037116994
 20
46.1917654483
 11
24.9036127013
 21
46.1917654483
  0
LINE
  5
693
100
AcDbEntity
  8
CURVE
100
AcDbLine
 62
250
  6
CONTINUOUS
 10
6.9341557055
 20
46.4543827911
 11
3.9308134347
 21
46.4543827911
  0
LINE
  5
694
100
AcDbEntity
  8
0
100
AcDbLine
 62
250
  6
CONTINUOUS
 10
17.3470453333
 20
46.6608134954
 11
17.7184456168
 21
46.6608134954
  0
LINE
  5
695
100
AcDbEntity
  8
0
100
AcDbLine
 62
250
  6
CONTINUOUS
 10
16.7899448984
 20
46.7227180211
 11
17.0684951352
 21
46.7227180211
  0
LINE
  5
696
100
AcDbEntity
  8
0
100
AcDbLine
 62
250
  6
CONTINUOUS
 10
23.6037116994
 20
46.7798609226
 11
24.9036127013
 21
46.7798609226
  0
LINE
  5
697
100
AcDbEntity
  8
CURVE
100
AcDbLine
 62
250
  6
CONTINUOUS
 10
3.9308134347
 20
46.8074997911
 11
6.9341557055
 21
46.8074997911
  0
LINE
  5
698
100
AcDbEntity
  8
0
100
AcDbLine
 62
250
  6
CONTINUOUS
 10
17.0684951352
 20
47.2489086597
 11
16.7899448984
 21
47.2489086597
  0
LINE
  5
699
100
AcDbEntity
  8
0
100
AcDbLine
 62
250
  6
CONTINUOUS
 10
17.7184456168
 20
47.3108134954
 11
17.3470453333
 21
47.3108134954
  0
LINE
  5
69A
100
AcDbEntity
  8
CURVE
100
AcDbLine
 62
250
  6
CONTINUOUS
 10
6.9341617051
 20
47.3613887911
 11
3.9308194343
 21
47.3613887911
  0
LINE
  5
69B
100
AcDbEntity
  8
0
100
AcDbLine
 62
250
  6
CONTINUOUS
 10
23.6037116994
 20
47.4298609226
 11
24.9036127013
 21
47.4298609226
  0
LINE
  5
69C
100
AcDbEntity
  8
0
100
AcDbLine
 62
250
  6
CONTINUOUS
 10
16.6042447664
 20
43.9679562225
 11
17.6255955508
 21
43.6893847911
  0
LINE
  5
69D
100
AcDbEntity
  8
0
100
AcDbLine
 62
250
  6
CONTINUOUS
 10
23.6037116994
 20
42.0750991433
 11
24.9036127013
 21
41.7036705165
  0
LINE
  5
69E
100
AcDbEntity
  8
0
100
AcDbLine
 62
250
  6
CONTINUOUS
 10
23.6037116994
 20
41.3322419672
 11
24.3465122664
 21
40.9608133792
  0
LINE
  5
69F
100
AcDbEntity
  8
0
100
AcDbLine
 62
250
  6
CONTINUOUS
 10
16.7899448984
 20
44.8036705165
 11
16.9756450305
 21
44.7108133404
  0
LWPOLYLINE
  5
6A0
100
AcDbEntity
  8
RACCORDO
100
AcDbPolyline
 62
7
  6
CONTINUOUS
 90
16
 70
0
 10
0.3246760827
 20
59.7828594566
 10
0.3355289421
 20
59.7720263175
 10
0.3460991167
 20
59.7606564972
 10
0.3562724584
 20
59.7488005273
 10
0.3659254975
 20
59.7364968225
 10
0.3749922072
 20
59.7238314344
 10
0.383452703
 20
59.7109208899
 10
0.3912280727
 20
59.6978359884
 10
0.3982527729
 20
59.6846278385
 10
0.4045142987
 20
59.6713636552
 10
0.4099487933
 20
59.6581012394
 10
0.4144938204
 20
59.6449064295
 10
0.4181180519
 20
59.6318475082
 10
0.4207675114
 20
59.6189925725
 10
0.4223848388
 20
59.6064157318
 10
0.422930842
 20
59.5941963968
  0
LINE
  5
6A1
100
AcDbEntity
  8
CURVE
100
AcDbLine
 62
250
  6
CONTINUOUS
 10
9.6047778333
 20
50.7965276151
 11
9.7904779654
 21
50.6108133404
  0
LINE
  5
6A2
100
AcDbEntity
  8
CURVE
100
AcDbLine
 62
250
  6
CONTINUOUS
 10
10.0690282022
 20
52.0655752747
 11
10.1618782295
 21
51.9108133404
  0
LINE
  5
6A3
100
AcDbEntity
  8
CURVE
100
AcDbLine
 62
250
  6
CONTINUOUS
 10
10.0690282022
 20
53.737003824
 11
10.1618782295
 21
53.5822418897
  0
LINE
  5
6A4
100
AcDbEntity
  8
CURVE
100
AcDbLine
 62
250
  6
CONTINUOUS
 10
16.6959044127
 20
39.6893847911
 11
16.7792314397
 21
39.5227181344
  0
LINE
  5
6A5
100
AcDbEntity
  8
CURVE
100
AcDbLine
 62
250
  6
CONTINUOUS
 10
16.6542409587
 20
39.8560514777
 11
16.6959044127
 21
39.6893847911
  0
LWPOLYLINE
  5
6A6
100
AcDbEntity
  8
0
100
AcDbPolyline
 62
250
  6
CONTINUOUS
 90
57
 70
0
 10
19.7960668503
 20
26.4324574615
 10
19.7977421001
 20
26.3949867122
 10
19.8000762653
 20
26.3574384045
 10
19.8030563646
 20
26.3198668246
 10
19.8066694169
 20
26.2823262587
 10
19.810902441
 20
26.2448709931
 10
19.8157424555
 20
26.2075553139
 10
19.8211764793
 20
26.1704335075
 10
19.8271915313
 20
26.1335598599
 10
19.83377463
 20
26.0969886575
 10
19.8409127945
 20
26.0607741864
 10
19.8457904639
 20
26.0377275883
 10
19.8509350995
 20
26.0148208313
 10
19.8563901849
 20
25.9920243088
 10
19.862199204
 20
25.9693084139
 10
19.8684056407
 20
25.9466435397
 10
19.8750529786
 20
25.9240000795
 10
19.8821847016
 20
25.9013484264
 10
19.8898442936
 20
25.8786589736
 10
19.8980752382
 20
25.8559021144
 10
19.9069210194
 20
25.8330482418
 10
19.9164251209
 20
25.8100677491
 10
19.9266310265
 20
25.7869310294
 10
19.9375822201
 20
25.763608476
 10
19.943370688
 20
25.7518313825
 10
19.9493574134
 20
25.7400249213
 10
19.9555420628
 20
25.7282139669
 10
19.9619243026
 20
25.7164233937
 10
19.9685037992
 20
25.704678076
 10
19.9752802191
 20
25.6930028882
 10
19.9822532287
 20
25.6814227047
 10
19.9894224946
 20
25.6699624
 10
19.996787683
 20
25.6586468483
 10
20.0043484605
 20
25.6475009241
 10
20.0121044936
 20
25.6365495018
 10
20.0200554486
 20
25.6258174557
 10
20.0282009921
 20
25.6153296603
 10
20.0365407904
 20
25.60511099
 10
20.04507451
 20
25.595186319
 10
20.0538018174
 20
25.5855805219
 10
20.0627223791
 20
25.576318473
 10
20.0718358613
 20
25.5674250467
 10
20.0811419307
 20
25.5589251174
 10
20.0906402537
 20
25.5508435594
 10
20.1003304967
 20
25.5432052472
 10
20.1102123261
 20
25.5360350552
 10
20.1202854084
 20
25.5293578577
 10
20.1305494101
 20
25.5231985291
 10
20.1410039975
 20
25.5175819439
 10
20.1516488372
 20
25.5125329763
 10
20.1624835956
 20
25.5080765009
 10
20.1735079392
 20
25.5042373919
 10
20.1847215343
 20
25.5010405238
 10
20.1961240475
 20
25.498510771
 10
20.2077151451
 20
25.4966730079
 10
20.2194944937
 20
25.4955521088
 10
20.2314617597
 20
25.4951729481
  0
LINE
  5
6A7
100
AcDbEntity
  8
0
100
AcDbLine
 62
250
  6
CONTINUOUS
 10
19.836858629
 20
25.8076007911
 11
19.836858629
 21
25.9069747911
  0
LINE
  5
6A8
100
AcDbEntity
  8
0
100
AcDbLine
 62
250
  6
CONTINUOUS
 10
20.2314616032
 20
25.2794117911
 11
20.2314616032
 21
27.7173187911
  0
LINE
  5
6A9
100
AcDbEntity
  8
0
100
AcDbLine
 62
250
  6
CONTINUOUS
 10
20.5943577847
 20
27.6572717911
 11
20.5943577847
 21
28.0073317911
  0
LINE
  5
6AA
100
AcDbEntity
  8
0
100
AcDbLine
 62
250
  6
CONTINUOUS
 10
19.7438881692
 20
26.4324577911
 11
19.744446148
 21
27.0054607911
  0
LINE
  5
6AB
100
AcDbEntity
  8
0
100
AcDbLine
 62
250
  6
CONTINUOUS
 10
19.9619318664
 20
27.0054607911
 11
19.9613738877
 21
26.4324577911
  0
LWPOLYLINE
  5
6AC
100
AcDbEntity
  8
RACCORDO
100
AcDbPolyline
 62
250
  6
CONTINUOUS
 90
19
 70
0
 10
6.3573743966
 20
18.2455649278
 10
6.3631076439
 20
18.2522651999
 10
6.3686103697
 20
18.2592225652
 10
6.3738756015
 20
18.2664277651
 10
6.3788373541
 20
18.2737793247
 10
6.3835548903
 20
18.2813555927
 10
6.3881835265
 20
18.2894351792
 10
6.3927370172
 20
18.2981154063
 10
6.3971263287
 20
18.3073154801
 10
6.4013215455
 20
18.3170636009
 10
6.4052810099
 20
18.3273644092
 10
6.4089611456
 20
18.3382148459
 10
6.4123221692
 20
18.349629458
 10
6.4153111171
 20
18.3615899231
 10
6.4178819632
 20
18.3740983829
 10
6.4199922574
 20
18.3871972733
 10
6.4215818539
 20
18.4008884365
 10
6.4225828414
 20
18.4151304438
 10
6.422930842
 20
18.4298943101
  0
LINE
  5
6AD
100
AcDbEntity
  8
CURVE
100
AcDbLine
 62
250
  6
CONTINUOUS
 10
16.6042447664
 20
31.6370041339
 11
16.7899448984
 21
31.8227183311
  0
LINE
  5
6AE
100
AcDbEntity
  8
CURVE
100
AcDbLine
 62
250
  6
CONTINUOUS
 10
9.7904779654
 20
24.2393847911
 11
9.6047778333
 21
24.0536705165
  0
LINE
  5
6AF
100
AcDbEntity
  8
CURVE
100
AcDbLine
 62
250
  6
CONTINUOUS
 10
10.9046788352
 20
26.2512896268
 11
10.3475784003
 21
25.8798609226
  0
LINE
  5
6B0
100
AcDbEntity
  8
RACCORDO
100
AcDbLine
 62
7
  6
CONTINUOUS
 10
28.2403619906
 20
50.5076507835
 11
28.122930842
 21
50.4971445143
  0
LINE
  5
6B1
100
AcDbEntity
  8
0
100
AcDbLine
 62
250
  6
CONTINUOUS
 10
17.7184456168
 20
47.6822418897
 11
17.2541952673
 21
47.6822418897
  0
LINE
  5
6B2
100
AcDbEntity
  8
CURVE
100
AcDbLine
 62
250
  6
CONTINUOUS
 10
4.23406034
 20
47.6895807911
 11
6.9341617051
 21
47.6895807911
  0
LINE
  5
6B3
100
AcDbEntity
  8
0
100
AcDbLine
 62
250
  6
CONTINUOUS
 10
17.3470453333
 20
48.3322418897
 11
17.7184456168
 21
48.3322418897
  0
LINE
  5
6B4
100
AcDbEntity
  8
0
100
AcDbLine
 62
7
  6
CONTINUOUS
 10
27.922930842
 20
48.3893847911
 11
28.122930842
 21
48.3893847911
  0
LINE
  5
6B5
100
AcDbEntity
  8
SUPERFICI
100
AcDbLine
 62
7
  6
CONTINUOUS
 10
27.922930842
 20
48.3893847911
 11
28.122930842
 21
48.3893847911
  0
LINE
  5
6B6
100
AcDbEntity
  8
VARIANTE_COLORE
100
AcDbLine
 62
7
  6
CONTINUOUS
 10
27.922930842
 20
48.3893847911
 11
28.122930842
 21
48.3893847911
  0
LINE
  5
6B7
100
AcDbEntity
  8
CURVE
100
AcDbLine
 62
250
  6
CONTINUOUS
 10
6.6309207994
 20
48.9192577911
 11
3.9308194343
 21
48.9192577911
  0
LINE
  5
6B8
100
AcDbEntity
  8
0
100
AcDbLine
 62
250
  6
CONTINUOUS
 10
23.6037116994
 20
49.070337054
 11
24.9036127013
 21
49.070337054
  0
LINE
  5
6B9
100
AcDbEntity
  8
CURVE
100
AcDbLine
 62
250
  6
CONTINUOUS
 10
3.9308194343
 20
49.2474767911
 11
6.9341617051
 21
49.2474767911
  0
LINE
  5
6BA
100
AcDbEntity
  8
0
100
AcDbLine
 62
250
  6
CONTINUOUS
 10
16.7899448984
 20
49.353670594
 11
16.9756450305
 21
49.353670594
  0
LINE
  5
6BB
100
AcDbEntity
  8
0
100
AcDbLine
 62
250
  6
CONTINUOUS
 10
17.7184456168
 20
45.2679562418
 11
17.5327454654
 21
45.3608133404
  0
LINE
  5
6BC
100
AcDbEntity
  8
CURVE
100
AcDbLine
 62
250
  6
CONTINUOUS
 10
9.7904779654
 20
50.6108133404
 11
9.9761780974
 21
50.5179562418
  0
LINE
  5
6BD
100
AcDbEntity
  8
0
100
AcDbLine
 62
250
  6
CONTINUOUS
 10
16.6042447664
 20
46.8465276925
 11
16.7899448984
 21
46.7227180211
  0
LINE
  5
6BE
100
AcDbEntity
  8
CURVE
100
AcDbLine
 62
250
  6
CONTINUOUS
 10
10.8118287595
 20
50.1465276538
 11
10.9046788352
 21
50.0536705165
  0
LINE
  5
6BF
100
AcDbEntity
  8
0
100
AcDbLine
 62
250
  6
CONTINUOUS
 10
16.6042447664
 20
44.9893847911
 11
16.7899448984
 21
44.8036705165
  0
LINE
  5
6C0
100
AcDbEntity
  8
CURVE
100
AcDbLine
 62
250
  6
CONTINUOUS
 10
10.9046788352
 20
50.8893847911
 11
10.7189786837
 21
51.0750991433
  0
LINE
  5
6C1
100
AcDbEntity
  8
CURVE
100
AcDbLine
 62
250
  6
CONTINUOUS
 10
9.6047778333
 20
52.8393847911
 11
9.9761780974
 21
52.4679560869
  0
LINE
  5
6C2
100
AcDbEntity
  8
CURVE
100
AcDbLine
 62
250
  6
CONTINUOUS
 10
10.8118287595
 20
52.0965276925
 11
10.9046788352
 21
52.003670439
  0
LINE
  5
6C3
100
AcDbEntity
  8
0
100
AcDbLine
 62
250
  6
CONTINUOUS
 10
17.9041457682
 20
45.0822418897
 11
17.7184456168
 21
45.2679562418
  0
LWPOLYLINE
  5
6C4
100
AcDbEntity
  8
ASSI
100
AcDbPolyline
 62
250
  6
CONTINUOUS
 90
10
 70
0
 10
2.0111305836
 20
61.7533072982
 10
1.9980296985
 20
61.7685344449
 10
1.984515808
 20
61.783046286
 10
1.9705688828
 20
61.7968606628
 10
1.9560222754
 20
61.8100277152
 10
1.9410100238
 20
61.8225590131
 10
1.9259576697
 20
61.8344078162
 10
1.9109896077
 20
61.8455661087
 10
1.8959372143
 20
61.856080669
 10
1.8807802084
 20
61.865971517
  0
LWPOLYLINE
  5
6C5
100
AcDbEntity
  8
0
100
AcDbPolyline
 62
250
  6
CONTINUOUS
 90
17
 70
0
 10
22.1495507316
 20
32.3671459923
 10
22.222684568
 20
32.026538625
 10
22.3636031469
 20
31.7011751058
 10
22.5660496068
 20
31.4100852788
 10
22.8220358862
 20
31.1647548647
 10
23.1158991152
 20
30.9776715411
 10
23.4465040045
 20
30.849558072
 10
23.795908051
 20
30.7893211025
 10
24.1503245919
 20
30.799337442
 10
24.4957691832
 20
30.8792118693
 10
24.8132165682
 20
31.022675548
 10
25.1014403442
 20
31.229174231
 10
25.3431633774
 20
31.4885706519
 10
25.5288478447
 20
31.7906296372
 10
25.649598509
 20
32.1174025104
 10
25.704948871
 20
32.4676268413
 10
25.6895675712
 20
32.8247947922
  0
LINE
  5
6C6
100
AcDbEntity
  8
0
100
AcDbLine
 62
250
  6
CONTINUOUS
 10
20.9668076024
 20
28.0073317911
 11
20.9668076024
 21
27.6572717911
  0
LINE
  5
6C7
100
AcDbEntity
  8
0
100
AcDbLine
 62
250
  6
CONTINUOUS
 10
21.0592200835
 20
26.3774547911
 11
21.0592200835
 21
27.2007947911
  0
LINE
  5
6C8
100
AcDbEntity
  8
0
100
AcDbLine
 62
250
  6
CONTINUOUS
 10
21.2748478727
 20
27.2007947911
 11
21.2748478727
 21
26.3774547911
  0
LWPOLYLINE
  5
6C9
100
AcDbEntity
  8
0
100
AcDbPolyline
 62
250
  6
CONTINUOUS
 90
17
 70
0
 10
21.3858214511
 20
37.1597947911
 10
21.3846126602
 20
36.6621234636
 10
21.4826548759
 20
36.1651723865
 10
21.6769851219
 20
35.697405072
 10
21.9599355832
 20
35.2772785193
 10
22.3203416993
 20
34.9213699352
 10
22.7360975601
 20
34.6478519073
 10
23.205596965
 20
34.4577811248
 10
23.703401153
 20
34.364263753
 10
24.2098679403
 20
34.3709897676
 10
24.7050133372
 20
34.4776937758
 10
25.1615273667
 20
34.6758282773
 10
25.5776463662
 20
34.9646278136
 10
25.9284746519
 20
35.329981781
 10
26.2001693639
 20
35.7574741702
 10
26.382010067
 20
36.2302371357
 10
26.4667703766
 20
36.7288720038
  0
LWPOLYLINE
  5
6CA
100
AcDbEntity
  8
0
100
AcDbPolyline
 62
250
  6
CONTINUOUS
 90
17
 70
0
 10
21.3858214511
 20
32.8247947911
 10
21.3846126602
 20
32.3271234636
 10
21.4826548759
 20
31.8301723865
 10
21.6769851219
 20
31.362405072
 10
21.9599355832
 20
30.9422785193
 10
22.3203416993
 20
30.5863699352
 10
22.7360975601
 20
30.3128519073
 10
23.205596965
 20
30.1227811248
 10
23.703401153
 20
30.029263753
 10
24.2098679403
 20
30.0359897676
 10
24.7050133372
 20
30.1426937758
 10
25.1615273667
 20
30.3408282773
 10
25.5776463662
 20
30.6296278136
 10
25.9284746519
 20
30.994981781
 10
26.2001693639
 20
31.4224741702
 10
26.382010067
 20
31.8952371357
 10
26.4667703766
 20
32.3938720038
  0
LWPOLYLINE
  5
6CB
100
AcDbEntity
  8
0
100
AcDbPolyline
 62
250
  6
CONTINUOUS
 90
8
 70
0
 10
22.1563181118
 20
37.1597947911
 10
22.1423299802
 20
36.7806900169
 10
22.2087689469
 20
36.4071908333
 10
22.3526340824
 20
36.0561675305
 10
22.5714891218
 20
35.7387504658
 10
22.8484151924
 20
35.4794779768
 10
23.1738757552
 20
35.2845844991
 10
23.5404573455
 20
35.1612583486
  0
LWPOLYLINE
  5
6CC
100
AcDbEntity
  8
0
100
AcDbPolyline
 62
250
  6
CONTINUOUS
 90
7
 70
0
 10
22.1563181118
 20
32.8247947911
 10
22.1471898567
 20
32.7505897304
 10
22.1411768758
 20
32.6760674938
 10
22.1382897178
 20
32.6013588189
 10
22.1386951096
 20
32.5203660447
 10
22.1423299802
 20
32.4456900169
 10
22.1495507337
 20
32.3671459737
  0
LWPOLYLINE
  5
6CD
100
AcDbEntity
  8
RACCORDO
100
AcDbPolyline
 62
250
  6
CONTINUOUS
 90
6
 70
0
 10
6.6251189983
 20
15.3393849608
 10
6.6252293996
 20
15.3395283448
 10
6.625408934
 20
15.3399418448
 10
6.6256569033
 20
15.3406284374
 10
6.6259664027
 20
15.3415871954
 10
6.6268009527
 20
15.344351287
  0
LWPOLYLINE
  5
6CE
100
AcDbEntity
  8
RACCORDO
100
AcDbPolyline
 62
250
  6
CONTINUOUS
 90
19
 70
0
 10
6.4555892016
 20
18.1449167101
 10
6.4656415694
 20
18.1553257567
 10
6.4752673813
 20
18.1661006585
 10
6.484466637
 20
18.1772414155
 10
6.4931729578
 20
18.1886061852
 10
6.5014527225
 20
18.20033681
 10
6.509505068
 20
18.2128588177
 10
6.5174591006
 20
18.2262962386
 10
6.5251857139
 20
18.2405250424
 10
6.5324967262
 20
18.2555986652
 10
6.5394067636
 20
18.2715315994
 10
6.5459012
 20
18.2883093528
 10
6.5517479742
 20
18.3059418842
 10
6.5569604962
 20
18.3244255883
 10
6.5615253562
 20
18.3437640706
 10
6.5651702637
 20
18.3639781063
 10
6.5678044552
 20
18.3850746207
 10
6.5695186944
 20
18.4070466887
 10
6.5703129811
 20
18.4298943101
  0
LINE
  5
6CF
100
AcDbEntity
  8
CURVE
100
AcDbLine
 62
250
  6
CONTINUOUS
 10
16.6042447664
 20
29.6870041339
 11
16.7899448984
 21
29.8727183311
  0
LINE
  5
6D0
100
AcDbEntity
  8
CURVE
100
AcDbLine
 62
250
  6
CONTINUOUS
 10
17.3470453333
 20
29.4084325282
 11
17.1613451625
 21
29.2227183311
  0
LINE
  5
6D1
100
AcDbEntity
  8
CURVE
100
AcDbLine
 62
250
  6
CONTINUOUS
 10
17.1613451625
 20
28.6655751197
 11
17.3470453333
 21
28.8512893169
  0
LINE
  5
6D2
100
AcDbEntity
  8
CURVE
100
AcDbLine
 62
250
  6
CONTINUOUS
 10
17.9041457682
 20
28.387003824
 11
17.7184456168
 21
28.2012896268
  0
LWPOLYLINE
  5
6D3
100
AcDbEntity
  8
ASSI
100
AcDbPolyline
 62
250
  6
CONTINUOUS
 90
16
 70
0
 10
1.7926894263
 20
15.3924655528
 10
1.7971540919
 20
15.3960951536
 10
1.8015159001
 20
15.399899803
 10
1.8057667204
 20
15.4038827481
 10
1.8098616003
 20
15.4080134687
 10
1.8138293705
 20
15.412326441
 10
1.8177651557
 20
15.4169292416
 10
1.8216744817
 20
15.4218596497
 10
1.8255141915
 20
15.4270988511
 10
1.8292960581
 20
15.4326774085
 10
1.8329961524
 20
15.4386111474
 10
1.8365896429
 20
15.4449000315
 10
1.8400833049
 20
15.4515506386
 10
1.8434604868
 20
15.4585675211
 10
1.8466808496
 20
15.4659529294
 10
1.8497136595
 20
15.4737073339
  0
LINE
  5
6D4
100
AcDbEntity
  8
CURVE
100
AcDbLine
 62
250
  6
CONTINUOUS
 10
6.916982842
 20
24.5457147911
 11
3.917343842
 21
23.5947707911
  0
LINE
  5
6D5
100
AcDbEntity
  8
CURVE
100
AcDbLine
 62
250
  6
CONTINUOUS
 10
6.9341617051
 20
49.7971887911
 11
3.9308194343
 21
49.7971887911
  0
LINE
  5
6D6
100
AcDbEntity
  8
0
100
AcDbLine
 62
250
  6
CONTINUOUS
 10
23.6037116994
 20
50.0298609226
 11
24.9036127013
 21
50.0298609226
  0
LINE
  5
6D7
100
AcDbEntity
  8
CURVE
100
AcDbLine
 62
250
  6
CONTINUOUS
 10
9.7904779654
 20
50.1155752747
 11
10.0690282022
 21
50.1155752747
  0
LINE
  5
6D8
100
AcDbEntity
  8
CURVE
100
AcDbLine
 62
250
  6
CONTINUOUS
 10
10.3475784003
 20
50.1465276538
 11
10.8118287595
 21
50.1465276538
  0
LINE
  5
6D9
100
AcDbEntity
  8
CURVE
100
AcDbLine
 62
250
  6
CONTINUOUS
 10
4.2132909217
 20
50.1503047911
 11
5.2434834641
 21
50.1503047911
  0
LINE
  5
6DA
100
AcDbEntity
  8
CURVE
100
AcDbLine
 62
250
  6
CONTINUOUS
 10
5.5259559515
 20
50.1503047911
 11
6.6516902176
 21
50.1503047911
  0
LINE
  5
6DB
100
AcDbEntity
  8
CURVE
100
AcDbLine
 62
250
  6
CONTINUOUS
 10
9.9761780974
 20
50.5179562418
 11
10.5332785323
 21
50.5179562418
  0
LINE
  5
6DC
100
AcDbEntity
  8
0
100
AcDbLine
 62
250
  6
CONTINUOUS
 10
16.6042447664
 20
50.7465273826
 11
17.9041457682
 21
50.7465273826
  0
LINE
  5
6DD
100
AcDbEntity
  8
0
100
AcDbLine
 62
7
  6
CONTINUOUS
 10
27.922930842
 20
51.0171416047
 11
28.122930842
 21
51.0171416047
  0
LINE
  5
6DE
100
AcDbEntity
  8
SUPERFICI
100
AcDbLine
 62
7
  6
CONTINUOUS
 10
27.922930842
 20
51.0171416047
 11
28.122930842
 21
51.0171416047
  0
LINE
  5
6DF
100
AcDbEntity
  8
VARIANTE_COLORE
100
AcDbLine
 62
7
  6
CONTINUOUS
 10
27.922930842
 20
51.0171416047
 11
28.122930842
 21
51.0171416047
  0
LINE
  5
6E0
100
AcDbEntity
  8
CURVE
100
AcDbLine
 62
250
  6
CONTINUOUS
 10
5.2434834641
 20
51.1265707911
 11
5.5259559515
 21
51.1265707911
  0
LINE
  5
6E1
100
AcDbEntity
  8
CURVE
100
AcDbLine
 62
250
  6
CONTINUOUS
 10
10.5332785323
 20
51.1679562418
 11
9.9761780974
 21
51.1679562418
  0
LINE
  5
6E2
100
AcDbEntity
  8
CURVE
100
AcDbLine
 62
250
  6
CONTINUOUS
 10
3.9308194343
 20
51.1805757911
 11
4.2132909217
 21
51.1805757911
  0
LINE
  5
6E3
100
AcDbEntity
  8
CURVE
100
AcDbLine
 62
250
  6
CONTINUOUS
 10
6.6516902176
 20
51.2096567911
 11
6.9341617051
 21
51.2096567911
  0
LINE
  5
6E4
100
AcDbEntity
  8
0
100
AcDbLine
 62
250
  6
CONTINUOUS
 10
17.9041457682
 20
51.4893847911
 11
16.6042447664
 21
51.4893847911
  0
LINE
  5
6E5
100
AcDbEntity
  8
0
100
AcDbLine
 62
250
  6
CONTINUOUS
 10
16.6042447664
 20
51.8608131854
 11
17.9041457682
 21
51.8608131854
  0
LINE
  5
6E6
100
AcDbEntity
  8
0
100
AcDbLine
 62
250
  6
CONTINUOUS
 10
24.9036127013
 20
51.8870041339
 11
23.6037116994
 21
51.8870041339
  0
LINE
  5
6E7
100
AcDbEntity
  8
CURVE
100
AcDbLine
 62
250
  6
CONTINUOUS
 10
4.2589934411
 20
52.4933297911
 11
5.8914871133
 21
52.0571267911
  0
LINE
  5
6E8
100
AcDbEntity
  8
CURVE
100
AcDbLine
 62
250
  6
CONTINUOUS
 10
6.1739616006
 20
51.9698847911
 11
6.9341707044
 21
51.7580127911
  0
LINE
  5
6E9
100
AcDbEntity
  8
CURVE
100
AcDbLine
 62
250
  6
CONTINUOUS
 10
6.9341707044
 20
51.4048977911
 11
3.9307994358
 21
52.2856137911
  0
LINE
  5
6EA
100
AcDbEntity
  8
0
100
AcDbLine
 62
250
  6
CONTINUOUS
 10
17.2541952673
 20
47.6822418897
 11
16.8827950032
 21
47.8679560869
  0
LINE
  5
6EB
100
AcDbEntity
  8
CURVE
100
AcDbLine
 62
250
  6
CONTINUOUS
 10
10.7189786837
 20
51.0750991433
 11
10.5332785323
 21
51.1679562418
  0
LINE
  5
6EC
100
AcDbEntity
  8
0
100
AcDbLine
 62
250
  6
CONTINUOUS
 10
16.8827950032
 20
48.703670594
 11
16.6042447664
 21
48.8893847911
  0
LINE
  5
6ED
100
AcDbEntity
  8
0
100
AcDbLine
 62
250
  6
CONTINUOUS
 10
16.9756450305
 20
49.353670594
 11
17.9041457682
 21
48.703670594
  0
LINE
  5
6EE
100
AcDbEntity
  8
0
100
AcDbLine
 62
250
  6
CONTINUOUS
 10
17.1613451625
 20
46.8465276925
 11
17.3470453333
 21
46.6608134954
  0
LINE
  5
6EF
100
AcDbEntity
  8
CURVE
100
AcDbLine
 62
250
  6
CONTINUOUS
 10
10.8118287595
 20
53.7679560869
 11
10.9046788352
 21
53.6750989883
  0
LINE
  5
6F0
100
AcDbEntity
  8
0
100
AcDbLine
 62
250
  6
CONTINUOUS
 10
16.8827950032
 20
47.8679560869
 11
16.6042447664
 21
48.1465276925
  0
LINE
  5
6F1
100
AcDbEntity
  8
0
100
AcDbLine
 62
250
  6
CONTINUOUS
 10
17.9041457682
 20
47.1250989883
 11
17.7184456168
 21
47.3108134954
  0
LINE
  5
6F2
100
AcDbEntity
  8
0
100
AcDbLine
 62
250
  6
CONTINUOUS
 10
17.7184456168
 20
48.3322418897
 11
17.9041457682
 21
48.1465276925
  0
LWPOLYLINE
  5
6F3
100
AcDbEntity
  8
RACCORDO
100
AcDbPolyline
 62
250
  6
CONTINUOUS
 90
13
 70
0
 10
6.3105475704
 20
58.9744487944
 10
6.3029072868
 20
58.9825267022
 10
6.295347296
 20
58.9910432509
 10
6.2878907372
 20
59.0001159069
 10
6.2805553594
 20
59.0099331778
 10
6.2733539004
 20
59.0205573369
 10
6.2663007353
 20
59.0318679307
 10
6.2594321526
 20
59.043941844
 10
6.252736336
 20
59.0568270972
 10
6.2461575939
 20
59.0702461091
 10
6.2396843131
 20
59.084068621
 10
6.2333451267
 20
59.0983787552
 10
6.2271463335
 20
59.1131537406
  0
LWPOLYLINE
  5
6F4
100
AcDbEntity
  8
RACCORDO
100
AcDbPolyline
 62
250
  6
CONTINUOUS
 90
10
 70
0
 10
6.357374671
 20
58.933204721
 10
6.3524904636
 20
58.9385574049
 10
6.3475127457
 20
58.9437187042
 10
6.3424500986
 20
58.9486885156
 10
6.3373182793
 20
58.9534682724
 10
6.3321185024
 20
58.9580576777
 10
6.3268358607
 20
58.9624525812
 10
6.321469143
 20
58.9666502362
 10
6.3160323954
 20
58.9706514044
 10
6.3105321081
 20
58.974455623
  0
LINE
  5
6F5
100
AcDbEntity
  8
0
100
AcDbLine
 62
250
  6
CONTINUOUS
 10
17.1613451625
 20
47.1250989883
 11
17.0684951352
 21
47.2489086597
  0
LINE
  5
6F6
100
AcDbEntity
  8
0
100
AcDbLine
 62
250
  6
CONTINUOUS
 10
23.540457406
 20
36.6497947911
 11
23.540457406
 21
35.1612587911
  0
LINE
  5
6F7
100
AcDbEntity
  8
0
100
AcDbLine
 62
250
  6
CONTINUOUS
 10
23.5935545801
 20
25.8145587911
 11
23.5935545801
 21
27.1604257911
  0
LINE
  5
6F8
100
AcDbEntity
  8
0
100
AcDbLine
 62
250
  6
CONTINUOUS
 10
23.6037116994
 20
50.4012893169
 11
23.6037116994
 21
49.6584325282
  0
LINE
  5
6F9
100
AcDbEntity
  8
0
100
AcDbLine
 62
250
  6
CONTINUOUS
 10
23.6037116994
 20
44.5512896268
 11
23.6037116994
 21
43.9941467254
  0
LINE
  5
6FA
100
AcDbEntity
  8
0
100
AcDbLine
 62
250
  6
CONTINUOUS
 10
23.6037116994
 20
43.2822418897
 11
23.6037116994
 21
42.8179562418
  0
LINE
  5
6FB
100
AcDbEntity
  8
0
100
AcDbLine
 62
250
  6
CONTINUOUS
 10
23.7899951
 20
25.9888877911
 11
23.7899951
 21
25.8712677911
  0
LINE
  5
6FC
100
AcDbEntity
  8
0
100
AcDbLine
 62
250
  6
CONTINUOUS
 10
24.1608120956
 20
43.9941467254
 11
24.1608120956
 21
44.3655751197
  0
LINE
  5
6FD
100
AcDbEntity
  8
0
100
AcDbLine
 62
250
  6
CONTINUOUS
 10
24.3054282772
 20
36.6497947911
 11
24.3054282772
 21
35.1612587911
  0
LINE
  5
6FE
100
AcDbEntity
  8
0
100
AcDbLine
 62
250
  6
CONTINUOUS
 10
24.5322123984
 20
51.3917654483
 11
24.5322123984
 21
50.8965273826
  0
LINE
  5
6FF
100
AcDbEntity
  8
0
100
AcDbLine
 62
250
  6
CONTINUOUS
 10
24.5322123984
 20
42.3227181761
 11
24.5322123984
 21
41.8274800329
  0
LINE
  5
700
100
AcDbEntity
  8
0
100
AcDbLine
 62
250
  6
CONTINUOUS
 10
24.9036127013
 20
52.3512893169
 11
24.9036127013
 21
51.8870041339
  0
LINE
  5
701
100
AcDbEntity
  8
0
100
AcDbLine
 62
250
  6
CONTINUOUS
 10
24.9036127013
 20
44.5512896268
 11
24.9036127013
 21
43.9941467254
  0
LINE
  5
702
100
AcDbEntity
  8
0
100
AcDbLine
 62
250
  6
CONTINUOUS
 10
24.9036127013
 20
42.8179562418
 11
24.9036127013
 21
43.2822418897
  0
LWPOLYLINE
  5
703
100
AcDbEntity
  8
0
100
AcDbPolyline
 62
250
  6
CONTINUOUS
 90
36
 70
0
 10
20.0782848459
 20
27.6929276821
 10
20.0651415046
 20
27.679492705
 10
20.0523996516
 20
27.6656816998
 10
20.0400535891
 20
27.6515090782
 10
20.0280976192
 20
27.6369892513
 10
20.0165260441
 20
27.6221366308
 10
20.005333166
 20
27.6069656281
 10
19.994513287
 20
27.5914906545
 10
19.9840607092
 20
27.5757261216
 10
19.9739697349
 20
27.5596864407
 10
19.9642346661
 20
27.5433860233
 10
19.954849805
 20
27.5268392808
 10
19.9458094538
 20
27.5100606247
 10
19.9371079146
 20
27.4930644664
 10
19.9287394896
 20
27.4758652174
 10
19.920698481
 20
27.458477289
 10
19.9129791908
 20
27.4409150927
 10
19.9055759213
 20
27.42319304
 10
19.8984829746
 20
27.4053255423
 10
19.8916946529
 20
27.3873270109
 10
19.8852052582
 20
27.3692118575
 10
19.8790090928
 20
27.3509944933
 10
19.8731004589
 20
27.3326893299
 10
19.8674736585
 20
27.3143107786
 10
19.8621229938
 20
27.295873251
 10
19.8570427671
 20
27.2773911584
 10
19.8522272803
 20
27.2588789122
 10
19.8476708358
 20
27.240350924
 10
19.8433677356
 20
27.2218216051
 10
19.8375226841
 20
27.1947950165
 10
19.8321433968
 20
27.1677852475
 10
19.8271680701
 20
27.1407812514
 10
19.8225349005
 20
27.1137719815
 10
19.8181820844
 20
27.0867463911
 10
19.8140478181
 20
27.0596934333
 10
19.8061877207
 20
27.0054612292
  0
LINE
  5
704
100
AcDbEntity
  8
CURVE
100
AcDbLine
 62
250
  6
CONTINUOUS
 10
17.7184456168
 20
25.353670439
 11
17.9041457682
 21
25.5393847911
  0
LWPOLYLINE
  5
705
100
AcDbEntity
  8
ASSI
100
AcDbPolyline
 62
250
  6
CONTINUOUS
 90
16
 70
0
 10
1.8808183281
 20
15.3128253486
 10
1.889966851
 20
15.3188043065
 10
1.8990066466
 20
15.3249078784
 10
1.907940012
 20
15.3311408257
 10
1.9167286453
 20
15.3374614547
 10
1.9254147177
 20
15.3439214431
 10
1.9341243206
 20
15.3506646212
 10
1.9429356037
 20
15.3577362238
 10
1.9517825142
 20
15.3650980658
 10
1.9605778384
 20
15.3727701101
 10
1.9693434631
 20
15.3807720289
 10
1.9780698031
 20
15.3890952426
 10
1.9866207697
 20
15.3977218266
 10
1.9949537287
 20
15.4066510184
 10
2.0031214719
 20
15.4158957424
 10
2.0111298669
 20
15.4254593852
  0
LWPOLYLINE
  5
706
100
AcDbEntity
  8
ASSI
100
AcDbPolyline
 62
250
  6
CONTINUOUS
 90
13
 70
0
 10
-1.742638569
 20
14.8219562974
 10
-1.7648895446
 20
14.8093410183
 10
-1.7868310339
 20
14.7972213625
 10
-1.8081010744
 20
14.7857972644
 10
-1.8283487806
 20
14.7752571841
 10
-1.847240132
 20
14.7657749981
 10
-1.8644634835
 20
14.7575071313
 10
-1.8797347065
 20
14.7505899763
 10
-1.8928018761
 20
14.7451376433
 10
-1.9034494271
 20
14.7412400779
 10
-1.9115017099
 20
14.7389615772
 10
-1.9168258883
 20
14.7383397287
 10
-1.919334131
 20
14.7393847911
  0
LINE
  5
707
100
AcDbEntity
  8
CURVE
100
AcDbLine
 62
250
  6
CONTINUOUS
 10
6.9341707044
 20
53.2244617911
 11
6.1739616006
 21
53.0126197911
  0
LINE
  5
708
100
AcDbEntity
  8
CURVE
100
AcDbLine
 62
250
  6
CONTINUOUS
 10
5.8914871133
 20
52.9295337911
 11
4.2589934411
 21
52.4933297911
  0
LINE
  5
709
100
AcDbEntity
  8
CURVE
100
AcDbLine
 62
250
  6
CONTINUOUS
 10
9.7904779654
 20
52.0655752747
 11
10.0690282022
 21
52.0655752747
  0
LINE
  5
70A
100
AcDbEntity
  8
CURVE
100
AcDbLine
 62
250
  6
CONTINUOUS
 10
10.3475784003
 20
52.0965276925
 11
10.8118287595
 21
52.0965276925
  0
LINE
  5
70B
100
AcDbEntity
  8
0
100
AcDbLine
 62
250
  6
CONTINUOUS
 10
17.9041457682
 20
52.5108131854
 11
16.6042447664
 21
52.5108131854
  0
LINE
  5
70C
100
AcDbEntity
  8
CURVE
100
AcDbLine
 62
250
  6
CONTINUOUS
 10
10.9046788352
 20
52.8393847911
 11
9.6047778333
 21
52.8393847911
  0
LINE
  5
70D
100
AcDbEntity
  8
0
100
AcDbLine
 62
250
  6
CONTINUOUS
 10
24.9036127013
 20
53.0941461055
 11
24.1608120956
 21
53.0941461055
  0
LINE
  5
70E
100
AcDbEntity
  8
CURVE
100
AcDbLine
 62
250
  6
CONTINUOUS
 10
9.7904779654
 20
53.737003824
 11
10.0690282022
 21
53.737003824
  0
LINE
  5
70F
100
AcDbEntity
  8
RACCORDO
100
AcDbLine
 62
250
  6
CONTINUOUS
 10
27.922930842
 20
53.7581799086
 11
26.9316573775
 21
53.7581799086
  0
LINE
  5
710
100
AcDbEntity
  8
SUPERFICI
100
AcDbLine
 62
250
  6
CONTINUOUS
 10
27.922930842
 20
53.7581799086
 11
26.9316573775
 21
53.7581799086
  0
LINE
  5
711
100
AcDbEntity
  8
VARIANTE_COLORE
100
AcDbLine
 62
250
  6
CONTINUOUS
 10
27.922930842
 20
53.7581799086
 11
26.9316573775
 21
53.7581799086
  0
LINE
  5
712
100
AcDbEntity
  8
CURVE
100
AcDbLine
 62
250
  6
CONTINUOUS
 10
10.3475784003
 20
53.7679560869
 11
10.8118287595
 21
53.7679560869
  0
LINE
  5
713
100
AcDbEntity
  8
RACCORDO
100
AcDbLine
 62
250
  6
CONTINUOUS
 10
0.422930842
 20
53.9895180604
 11
26.9316573775
 21
53.7581799086
  0
LINE
  5
714
100
AcDbEntity
  8
SUPERFICI
100
AcDbLine
 62
250
  6
CONTINUOUS
 10
0.422930842
 20
53.9895180604
 11
26.9316573775
 21
53.7581799086
  0
LINE
  5
715
100
AcDbEntity
  8
VARIANTE_COLORE
100
AcDbLine
 62
250
  6
CONTINUOUS
 10
0.422930842
 20
53.9895180604
 11
26.9316573775
 21
53.7581799086
  0
LINE
  5
716
100
AcDbEntity
  8
0
100
AcDbLine
 62
250
  6
CONTINUOUS
 10
16.6042447664
 20
51.4893847911
 11
17.3470453333
 21
51.1179563968
  0
LWPOLYLINE
  5
717
100
AcDbEntity
  8
ASSI
100
AcDbPolyline
 62
250
  6
CONTINUOUS
 90
13
 70
0
 10
-1.742638569
 20
62.3568132848
 10
-1.7648895137
 20
62.3694285466
 10
-1.7868309795
 20
62.3815481901
 10
-1.8081010049
 20
62.392972281
 10
-1.8283487046
 20
62.4035123592
 10
-1.8472400574
 20
62.4129945474
 10
-1.8644634162
 20
62.4212624194
 10
-1.8797346512
 20
62.4281795817
 10
-1.8928018355
 20
62.4336319228
 10
-1.903449401
 20
62.4375294956
 10
-1.9115016964
 20
62.4398080021
 10
-1.9168258841
 20
62.4404298537
 10
-1.919334131
 20
62.4393847911
  0
LWPOLYLINE
  5
718
100
AcDbEntity
  8
ASSI
100
AcDbPolyline
 62
250
  6
CONTINUOUS
 90
30
 70
0
 10
1.7926697968
 20
61.7863193305
 10
1.7876140373
 20
61.790121773
 10
1.7824382745
 20
61.7937169455
 10
1.7771515332
 20
61.7971105821
 10
1.7718080429
 20
61.8002873786
 10
1.7663700099
 20
61.8032763608
 10
1.7607039356
 20
61.8061433574
 10
1.7547910118
 20
61.8089040831
 10
1.7486555172
 20
61.8115412422
 10
1.742223716
 20
61.8140634425
 10
1.735502028
 20
61.8164713806
 10
1.7284864168
 20
61.8187621791
 10
1.7210840691
 20
61.8209376365
 10
1.7132932542
 20
61.8229999584
 10
1.7051133371
 20
61.8249441459
 10
1.6964476852
 20
61.826762249
 10
1.6872871153
 20
61.8284578234
 10
1.6776312441
 20
61.8300277271
 10
1.6673873303
 20
61.8314589465
 10
1.6565388712
 20
61.8327578043
 10
1.6450814238
 20
61.8339258985
 10
1.6329251857
 20
61.8349518802
 10
1.6200404425
 20
61.8358467702
 10
1.6064200203
 20
61.8366176397
 10
1.591985437
 20
61.8372587029
 10
1.5766859075
 20
61.8377861878
 10
1.5605170389
 20
61.8382122858
 10
1.5434391024
 20
61.8385378183
 10
1.5253826007
 20
61.8387824418
 10
1.4863502306
 20
61.839077875
  0
LINE
  5
719
100
AcDbEntity
  8
0
100
AcDbLine
 62
250
  6
CONTINUOUS
 10
24.9036127013
 20
43.2822418897
 11
24.7179125498
 21
43.4679560869
  0
LINE
  5
71A
100
AcDbEntity
  8
RACCORDO
100
AcDbLine
 62
250
  6
CONTINUOUS
 10
26.9331920589
 20
57.1907692014
 11
26.9343323703
 21
56.9916178658
  0
LINE
  5
71B
100
AcDbEntity
  8
SUPERFICI
100
AcDbLine
 62
250
  6
CONTINUOUS
 10
26.9331920589
 20
57.1907692014
 11
26.9343323703
 21
56.9916178658
  0
LINE
  5
71C
100
AcDbEntity
  8
VARIANTE_COLORE
100
AcDbLine
 62
250
  6
CONTINUOUS
 10
26.9331920589
 20
57.1907692014
 11
26.9343323703
 21
56.9916178658
  0
LINE
  5
71D
100
AcDbEntity
  8
RACCORDO
100
AcDbLine
 62
250
  6
CONTINUOUS
 10
26.9316573775
 20
23.4205896736
 11
26.93220109
 21
23.1916393692
  0
LINE
  5
71E
100
AcDbEntity
  8
SUPERFICI
100
AcDbLine
 62
250
  6
CONTINUOUS
 10
26.9316573775
 20
23.4205896736
 11
26.93220109
 21
23.1916393692
  0
LINE
  5
71F
100
AcDbEntity
  8
VARIANTE_COLORE
100
AcDbLine
 62
250
  6
CONTINUOUS
 10
26.9316573775
 20
23.4205896736
 11
26.93220109
 21
23.1916393692
  0
LINE
  5
720
100
AcDbEntity
  8
RACCORDO
100
AcDbLine
 62
250
  6
CONTINUOUS
 10
26.93220109
 20
23.1916393692
 11
26.9343323703
 21
22.0812539149
  0
LINE
  5
721
100
AcDbEntity
  8
SUPERFICI
100
AcDbLine
 62
250
  6
CONTINUOUS
 10
26.93220109
 20
23.1916393692
 11
26.9343323703
 21
22.0812539149
  0
LINE
  5
722
100
AcDbEntity
  8
VARIANTE_COLORE
100
AcDbLine
 62
250
  6
CONTINUOUS
 10
26.93220109
 20
23.1916393692
 11
26.9343323703
 21
22.0812539149
  0
LINE
  5
723
100
AcDbEntity
  8
RACCORDO
100
AcDbLine
 62
250
  6
CONTINUOUS
 10
26.9343323703
 20
56.9916178658
 11
26.9351671972
 21
56.5347839289
  0
LINE
  5
724
100
AcDbEntity
  8
SUPERFICI
100
AcDbLine
 62
250
  6
CONTINUOUS
 10
26.9343323703
 20
56.9916178658
 11
26.9351671972
 21
56.5347839289
  0
LINE
  5
725
100
AcDbEntity
  8
VARIANTE_COLORE
100
AcDbLine
 62
250
  6
CONTINUOUS
 10
26.9343323703
 20
56.9916178658
 11
26.9351671972
 21
56.5347839289
  0
LINE
  5
726
100
AcDbEntity
  8
RACCORDO
100
AcDbLine
 62
250
  6
CONTINUOUS
 10
26.9343323703
 20
22.0812539149
 11
26.9351671972
 21
21.290005843
  0
LINE
  5
727
100
AcDbEntity
  8
SUPERFICI
100
AcDbLine
 62
250
  6
CONTINUOUS
 10
26.9343323703
 20
22.0812539149
 11
26.9351671972
 21
21.290005843
  0
LINE
  5
728
100
AcDbEntity
  8
VARIANTE_COLORE
100
AcDbLine
 62
250
  6
CONTINUOUS
 10
26.9343323703
 20
22.0812539149
 11
26.9351671972
 21
21.290005843
  0
LINE
  5
729
100
AcDbEntity
  8
0
100
AcDbLine
 62
250
  6
CONTINUOUS
 10
25.4039576429
 20
24.4970227911
 11
25.4039576429
 21
28.6817467911
  0
LINE
  5
72A
100
AcDbEntity
  8
0
100
AcDbLine
 62
250
  6
CONTINUOUS
 10
26.422930842
 20
28.6817467911
 11
26.422930842
 21
24.4970227911
  0
LINE
  5
72B
100
AcDbEntity
  8
RACCORDO
100
AcDbLine
 62
250
  6
CONTINUOUS
 10
26.9316573775
 20
53.7581799086
 11
26.9316573775
 21
23.4205896736
  0
LINE
  5
72C
100
AcDbEntity
  8
SUPERFICI
100
AcDbLine
 62
250
  6
CONTINUOUS
 10
26.9316573775
 20
53.7581799086
 11
26.9316573775
 21
23.4205896736
  0
LINE
  5
72D
100
AcDbEntity
  8
VARIANTE_COLORE
100
AcDbLine
 62
250
  6
CONTINUOUS
 10
26.9316573775
 20
53.7581799086
 11
26.9316573775
 21
23.4205896736
  0
LINE
  5
72E
100
AcDbEntity
  8
RACCORDO
100
AcDbLine
 62
250
  6
CONTINUOUS
 10
26.9351671972
 20
56.5347839289
 11
26.9351672106
 21
55.8887572988
  0
LINE
  5
72F
100
AcDbEntity
  8
SUPERFICI
100
AcDbLine
 62
250
  6
CONTINUOUS
 10
26.9351671972
 20
56.5347839289
 11
26.9351672106
 21
55.8887572988
  0
LINE
  5
730
100
AcDbEntity
  8
VARIANTE_COLORE
100
AcDbLine
 62
250
  6
CONTINUOUS
 10
26.9351671972
 20
56.5347839289
 11
26.9351672106
 21
55.8887572988
  0
LINE
  5
731
100
AcDbEntity
  8
RACCORDO
100
AcDbLine
 62
250
  6
CONTINUOUS
 10
26.9351671972
 20
21.290005843
 11
26.9351672106
 21
20.6439807116
  0
LINE
  5
732
100
AcDbEntity
  8
SUPERFICI
100
AcDbLine
 62
250
  6
CONTINUOUS
 10
26.9351671972
 20
21.290005843
 11
26.9351672106
 21
20.6439807116
  0
LINE
  5
733
100
AcDbEntity
  8
VARIANTE_COLORE
100
AcDbLine
 62
250
  6
CONTINUOUS
 10
26.9351671972
 20
21.290005843
 11
26.9351672106
 21
20.6439807116
  0
LINE
  5
734
100
AcDbEntity
  8
RACCORDO
100
AcDbLine
 62
250
  6
CONTINUOUS
 10
26.9351672106
 20
55.8887572988
 11
26.9343324161
 21
55.0975072422
  0
LINE
  5
735
100
AcDbEntity
  8
SUPERFICI
100
AcDbLine
 62
250
  6
CONTINUOUS
 10
26.9351672106
 20
55.8887572988
 11
26.9343324161
 21
55.0975072422
  0
LINE
  5
736
100
AcDbEntity
  8
VARIANTE_COLORE
100
AcDbLine
 62
250
  6
CONTINUOUS
 10
26.9351672106
 20
55.8887572988
 11
26.9343324161
 21
55.0975072422
  0
LWPOLYLINE
  5
737
100
AcDbEntity
  8
RACCORDO
100
AcDbPolyline
 62
250
  6
CONTINUOUS
 90
3
 70
0
 10
26.9343324161
 20
55.0975072422
 10
26.9322010938
 20
53.9871255456
 10
26.9316573775
 20
53.7581799086
  0
LWPOLYLINE
  5
738
100
AcDbEntity
  8
SUPERFICI
100
AcDbPolyline
 62
250
  6
CONTINUOUS
 90
3
 70
0
 10
26.9343324161
 20
55.0975072422
 10
26.9322010938
 20
53.9871255456
 10
26.9316573775
 20
53.7581799086
  0
LWPOLYLINE
  5
739
100
AcDbEntity
  8
VARIANTE_COLORE
100
AcDbPolyline
 62
250
  6
CONTINUOUS
 90
3
 70
0
 10
26.9343324161
 20
55.0975072422
 10
26.9322010938
 20
53.9871255456
 10
26.9316573775
 20
53.7581799086
  0
LINE
  5
73A
100
AcDbEntity
  8
RACCORDO
100
AcDbLine
 62
250
  6
CONTINUOUS
 10
26.9351672106
 20
20.6439807116
 11
26.9343324161
 21
20.1871482273
  0
LINE
  5
73B
100
AcDbEntity
  8
SUPERFICI
100
AcDbLine
 62
250
  6
CONTINUOUS
 10
26.9351672106
 20
20.6439807116
 11
26.9343324161
 21
20.1871482273
  0
LINE
  5
73C
100
AcDbEntity
  8
VARIANTE_COLORE
100
AcDbLine
 62
250
  6
CONTINUOUS
 10
26.9351672106
 20
20.6439807116
 11
26.9343324161
 21
20.1871482273
  0
LWPOLYLINE
  5
73D
100
AcDbEntity
  8
RACCORDO
100
AcDbPolyline
 62
250
  6
CONTINUOUS
 90
5
 70
0
 10
26.9343324161
 20
20.1871482273
 10
26.9331920817
 20
19.9879983826
 10
26.9327152105
 20
19.9506821691
 10
26.9322010938
 20
19.9282237925
 10
26.9316573775
 20
19.9207229429
  0
LWPOLYLINE
  5
73E
100
AcDbEntity
  8
SUPERFICI
100
AcDbPolyline
 62
250
  6
CONTINUOUS
 90
5
 70
0
 10
26.9343324161
 20
20.1871482273
 10
26.9331920817
 20
19.9879983826
 10
26.9327152105
 20
19.9506821691
 10
26.9322010938
 20
19.9282237925
 10
26.9316573775
 20
19.9207229429
  0
LWPOLYLINE
  5
73F
100
AcDbEntity
  8
VARIANTE_COLORE
100
AcDbPolyline
 62
250
  6
CONTINUOUS
 90
5
 70
0
 10
26.9343324161
 20
20.1871482273
 10
26.9331920817
 20
19.9879983826
 10
26.9327152105
 20
19.9506821691
 10
26.9322010938
 20
19.9282237925
 10
26.9316573775
 20
19.9207229429
  0
LWPOLYLINE
  5
740
100
AcDbEntity
  8
0
100
AcDbPolyline
 62
250
  6
CONTINUOUS
 90
7
 70
0
 10
26.4667703893
 20
36.7288721874
 10
26.4706904496
 20
36.7999713154
 10
26.4726238529
 20
36.8711521816
 10
26.4725690916
 20
36.9423592812
 10
26.4705262085
 20
37.0135370892
 10
26.4664967965
 20
37.0846301032
 10
26.4600642313
 20
37.159794799
  0
LWPOLYLINE
  5
741
100
AcDbEntity
  8
0
100
AcDbPolyline
 62
250
  6
CONTINUOUS
 90
7
 70
0
 10
26.4667703893
 20
32.3938721874
 10
26.4706904496
 20
32.4649713154
 10
26.4726238529
 20
32.5361521816
 10
26.4725690916
 20
32.6073592812
 10
26.4705262085
 20
32.6785370892
 10
26.4664967965
 20
32.7496301032
 10
26.4600642313
 20
32.824794799
  0
LINE
  5
742
100
AcDbEntity
  8
0
100
AcDbLine
 62
250
  6
CONTINUOUS
 10
19.3468752868
 20
24.0892547911
 11
24.323971767
 21
28.8209407911
  0
LWPOLYLINE
  5
743
100
AcDbEntity
  8
ASSI
100
AcDbPolyline
 62
250
  6
CONTINUOUS
 90
16
 70
0
 10
-1.2807583536
 20
14.0219562974
 10
-1.2986139222
 20
14.0118075044
 10
-1.3163122393
 20
14.0019540257
 10
-1.3336657807
 20
13.9925000947
 10
-1.3504875753
 20
13.9835473327
 10
-1.3666035329
 20
13.9751881476
 10
-1.3818527118
 20
13.9675060399
 10
-1.3960808674
 20
13.9605791739
 10
-1.4091263946
 20
13.9544867198
 10
-1.4208362705
 20
13.9492999186
 10
-1.4310885951
 20
13.9450718863
 10
-1.4397805477
 20
13.941844024
 10
-1.446819653
 20
13.9396490954
 10
-1.4521389062
 20
13.9385052496
 10
-1.4556931204
 20
13.9384185851
 10
-1.4574539157
 20
13.9393847911
  0
LINE
  5
744
100
AcDbEntity
  8
0
100
AcDbLine
 62
7
  6
CONTINUOUS
 10
27.922930842
 20
54.1893847911
 11
28.122930842
 21
54.1893847911
  0
LINE
  5
745
100
AcDbEntity
  8
SUPERFICI
100
AcDbLine
 62
7
  6
CONTINUOUS
 10
27.922930842
 20
54.1893847911
 11
28.122930842
 21
54.1893847911
  0
LINE
  5
746
100
AcDbEntity
  8
VARIANTE_COLORE
100
AcDbLine
 62
7
  6
CONTINUOUS
 10
27.922930842
 20
54.1893847911
 11
28.122930842
 21
54.1893847911
  0
LINE
  5
747
100
AcDbEntity
  8
RACCORDO
100
AcDbLine
 62
250
  6
CONTINUOUS
 10
0.3246760827
 20
56.2097710987
 11
0.422930842
 21
56.2097710987
  0
LINE
  5
748
100
AcDbEntity
  8
RACCORDO
100
AcDbLine
 62
250
  6
CONTINUOUS
 10
0.3246760827
 20
56.2097711026
 11
-5.577069158
 21
56.2458424428
  0
LINE
  5
749
100
AcDbEntity
  8
RACCORDO
100
AcDbLine
 62
250
  6
CONTINUOUS
 10
0.3246760827
 20
56.3346166359
 11
-5.577069158
 21
56.3704886032
  0
LWPOLYLINE
  5
74A
100
AcDbEntity
  8
RACCORDO
100
AcDbPolyline
 62
250
  6
CONTINUOUS
 90
13
 70
0
 10
0.3246760827
 20
56.3346166446
 10
0.337567921
 20
56.333953745
 10
0.3502148417
 20
56.3322574367
 10
0.3624052277
 20
56.3295561033
 10
0.373935101
 20
56.3258949456
 10
0.3846115359
 20
56.3213352244
 10
0.394255887
 20
56.3159532363
 10
0.4027067782
 20
56.3098390363
 10
0.4098228034
 20
56.3030949315
 10
0.4154848924
 20
56.2958337688
 10
0.4195983033
 20
56.2881770471
 10
0.4220942076
 20
56.2802528838
 10
0.422930842
 20
56.2721938717
  0
LINE
  5
74B
100
AcDbEntity
  8
0
100
AcDbLine
 62
250
  6
CONTINUOUS
 10
23.6037116994
 20
51.1441461055
 11
24.9036127013
 21
50.7727183311
  0
LWPOLYLINE
  5
74C
100
AcDbEntity
  8
ASSI
100
AcDbPolyline
 62
250
  6
CONTINUOUS
 90
16
 70
0
 10
-1.2807583536
 20
63.1568132848
 10
-1.2985859663
 20
63.1669463499
 10
-1.3162619046
 20
63.1767878302
 10
-1.3335991657
 20
63.1862336076
 10
-1.3504146325
 20
63.1951839091
 10
-1.3665300757
 20
63.2035438631
 10
-1.3817741801
 20
63.2112246178
 10
-1.395985329
 20
63.2181447954
 10
-1.4090139817
 20
63.224231633
 10
-1.4207231819
 20
63.2294211685
 10
-1.4309928649
 20
63.2336600015
 10
-1.439709405
 20
63.2369010186
 10
-1.4467734765
 20
63.2391079996
 10
-1.4521144895
 20
63.2402609382
 10
-1.455685116
 20
63.2403523189
 10
-1.4574539157
 20
63.2393847911
  0
LINE
  5
74D
100
AcDbEntity
  8
0
100
AcDbLine
 62
250
  6
CONTINUOUS
 10
17.9041457682
 20
52.8822421996
 11
16.9756450305
 21
53.4393847911
  0
LWPOLYLINE
  5
74E
100
AcDbEntity
  8
RACCORDO
100
AcDbPolyline
 62
250
  6
CONTINUOUS
 90
10
 70
0
 10
6.4555892016
 20
59.0338528721
 10
6.4469737755
 20
59.0390671885
 10
6.4382264228
 20
59.0440821717
 10
6.429347326
 20
59.0488963009
 10
6.4203360101
 20
59.0535072846
 10
6.4111933097
 20
59.0579155944
 10
6.4019213649
 20
59.0621244048
 10
6.3925209976
 20
59.0661347839
 10
6.3829917149
 20
59.0699456734
 10
6.3733336741
 20
59.0735574185
  0
LWPOLYLINE
  5
74F
100
AcDbEntity
  8
ASSI
100
AcDbPolyline
 62
250
  6
CONTINUOUS
 90
31
 70
0
 10
1.8807785761
 20
61.8659680592
 10
1.8710016818
 20
61.8721935139
 10
1.8612109392
 20
61.8782041176
 10
1.8514069448
 20
61.8840013582
 10
1.8416555333
 20
61.8895474379
 10
1.8318918465
 20
61.8948825728
 10
1.8219202781
 20
61.90012486
 10
1.8116973819
 20
61.90530695
 10
1.8012670022
 20
61.9103971706
 10
1.7905643207
 20
61.9154167686
 10
1.77959129
 20
61.9203675111
 10
1.7683458987
 20
61.925247487
 10
1.7567572465
 20
61.9300720938
 10
1.744817184
 20
61.9348445355
 10
1.7325332354
 20
61.9395600695
 10
1.7198578211
 20
61.9442217033
 10
1.706780546
 20
61.9488291301
 10
1.6933105481
 20
61.9533795304
 10
1.6794293565
 20
61.9578716546
 10
1.6651325483
 20
61.9622998734
 10
1.6504228077
 20
61.9666653976
 10
1.635292259
 20
61.9709770404
 10
1.6197439616
 20
61.9752261012
 10
1.6037730704
 20
61.9794165357
 10
1.587360012
 20
61.9835764804
 10
1.570517135
 20
61.9876968442
 10
1.5532308266
 20
61.9917829551
 10
1.53544292
 20
61.995885379
 10
1.5171873182
 20
61.9999962126
 10
1.4984298205
 20
62.0041216222
 10
1.4588760728
 20
62.0126575708
  0
LWPOLYLINE
  5
750
100
AcDbEntity
  8
RACCORDO
100
AcDbPolyline
 62
250
  6
CONTINUOUS
 90
4
 70
0
 10
26.9316573775
 20
57.2580466393
 10
26.93220109
 20
57.2505454838
 10
26.9327151984
 20
57.2280863569
 10
26.9331920589
 20
57.1907692014
  0
LWPOLYLINE
  5
751
100
AcDbEntity
  8
SUPERFICI
100
AcDbPolyline
 62
250
  6
CONTINUOUS
 90
4
 70
0
 10
26.9316573775
 20
57.2580466393
 10
26.93220109
 20
57.2505454838
 10
26.9327151984
 20
57.2280863569
 10
26.9331920589
 20
57.1907692014
  0
LWPOLYLINE
  5
752
100
AcDbEntity
  8
VARIANTE_COLORE
100
AcDbPolyline
 62
250
  6
CONTINUOUS
 90
4
 70
0
 10
26.9316573775
 20
57.2580466393
 10
26.93220109
 20
57.2505454838
 10
26.9327151984
 20
57.2280863569
 10
26.9331920589
 20
57.1907692014
  0
LINE
  5
753
100
AcDbEntity
  8
RACCORDO
100
AcDbLine
 62
7
  6
CONTINUOUS
 10
27.922930842
 20
56.2580847163
 11
27.922930842
 21
20.920684866
  0
LINE
  5
754
100
AcDbEntity
  8
SUPERFICI
100
AcDbLine
 62
7
  6
CONTINUOUS
 10
27.922930842
 20
56.2580847163
 11
27.922930842
 21
20.920684866
  0
LINE
  5
755
100
AcDbEntity
  8
VARIANTE_COLORE
100
AcDbLine
 62
7
  6
CONTINUOUS
 10
27.922930842
 20
56.2580847163
 11
27.922930842
 21
20.920684866
  0
LINE
  5
756
100
AcDbEntity
  8
0
100
AcDbLine
 62
7
  6
CONTINUOUS
 10
28.122930842
 20
54.1893847911
 11
28.122930842
 21
48.3893847911
  0
LINE
  5
757
100
AcDbEntity
  8
SUPERFICI
100
AcDbLine
 62
7
  6
CONTINUOUS
 10
28.122930842
 20
54.1893847911
 11
28.122930842
 21
48.3893847911
  0
LINE
  5
758
100
AcDbEntity
  8
VARIANTE_COLORE
100
AcDbLine
 62
7
  6
CONTINUOUS
 10
28.122930842
 20
54.1893847911
 11
28.122930842
 21
48.3893847911
  0
LINE
  5
759
100
AcDbEntity
  8
0
100
AcDbLine
 62
7
  6
CONTINUOUS
 10
28.122930842
 20
28.2893847911
 11
28.122930842
 21
22.4893847911
  0
LINE
  5
75A
100
AcDbEntity
  8
SUPERFICI
100
AcDbLine
 62
7
  6
CONTINUOUS
 10
28.122930842
 20
28.2893847911
 11
28.122930842
 21
22.4893847911
  0
LINE
  5
75B
100
AcDbEntity
  8
VARIANTE_COLORE
100
AcDbLine
 62
7
  6
CONTINUOUS
 10
28.122930842
 20
28.2893847911
 11
28.122930842
 21
22.4893847911
  0
LINE
  5
75C
100
AcDbEntity
  8
RACCORDO
100
AcDbLine
 62
250
  6
CONTINUOUS
 10
28.2403619906
 20
55.1711187987
 11
28.2403619906
 21
50.5076507835
  0
LINE
  5
75D
100
AcDbEntity
  8
RACCORDO
100
AcDbLine
 62
7
  6
CONTINUOUS
 10
28.422930842
 20
54.9668873666
 11
28.422930842
 21
50.711882479
  0
LWPOLYLINE
  5
75E
100
AcDbEntity
  8
RACCORDO
100
AcDbPolyline
 62
7
  6
CONTINUOUS
 90
19
 70
0
 10
28.422930842
 20
50.7118478078
 10
28.422260163
 20
50.6948465122
 10
28.420234712
 20
50.6781041107
 10
28.4168544889
 20
50.6616206035
 10
28.4120549695
 20
50.6452280484
 10
28.405900678
 20
50.6290943875
 10
28.3985851876
 20
50.613723447
 10
28.3901152778
 20
50.5992230912
 10
28.380484169
 20
50.5854854557
 10
28.3698650955
 20
50.5726907736
 10
28.3582472401
 20
50.5608333202
 10
28.34564142
 20
50.5499188201
 10
28.3322533219
 20
50.5401446805
 10
28.3179865551
 20
50.53150972
 10
28.3029375103
 20
50.52401512
 10
28.2876010456
 20
50.5178618312
 10
28.2721421137
 20
50.5131168374
 10
28.2563957621
 20
50.5097131548
 10
28.2403619906
 20
50.5076507835
  0
LINE
  5
75F
100
AcDbEntity
  8
ASSI
100
AcDbLine
 62
250
  6
CONTINUOUS
 10
-0.9576405295
 20
14.0500639613
 11
1.4166247181
 21
15.1572020287
  0
LINE
  5
760
100
AcDbEntity
  8
ASSI
100
AcDbLine
 62
7
  6
CONTINUOUS
 10
-0.8766073584
 20
13.8862308976
 11
1.9383058242
 21
15.1988464717
  0
LWPOLYLINE
  5
761
100
AcDbEntity
  8
RACCORDO
100
AcDbPolyline
 62
7
  6
CONTINUOUS
 90
13
 70
0
 10
-5.3875363492
 20
56.6279300773
 10
-5.4125302108
 20
56.6259812958
 10
-5.4369884138
 20
56.6215984045
 10
-5.4605206312
 20
56.6148419778
 10
-5.4827516095
 20
56.6057964994
 10
-5.5033197
 20
56.5946005944
 10
-5.5218848176
 20
56.5814472708
 10
-5.5381434156
 20
56.5665194385
 10
-5.5518325726
 20
56.5500414709
 10
-5.5627276671
 20
56.5323085078
 10
-5.5706470538
 20
56.5135967644
 10
-5.5754558616
 20
56.4941597687
 10
-5.577069158
 20
56.4742803715
  0
LWPOLYLINE
  5
762
100
AcDbEntity
  8
RACCORDO
100
AcDbPolyline
 62
7
  6
CONTINUOUS
 90
10
 70
0
 10
6.4811053177
 20
58.1340379037
 10
6.4696024704
 20
58.1331533082
 10
6.4590320414
 20
58.1310231702
 10
6.4501569217
 20
58.128086705
 10
6.4428405452
 20
58.1246891163
 10
6.4368952758
 20
58.121086285
 10
6.4321865949
 20
58.1175081511
 10
6.4285861325
 20
58.1141596413
 10
6.4258904677
 20
58.1111326409
 10
6.423941473
 20
58.1084972204
  0
LINE
  5
763
100
AcDbEntity
  8
RACCORDO
100
AcDbLine
 62
7
  6
CONTINUOUS
 10
6.9368821368
 20
57.941045652
 11
6.422930842
 21
57.9051066765
  0
LINE
  5
764
100
AcDbEntity
  8
RACCORDO
100
AcDbLine
 62
250
  6
CONTINUOUS
 10
6.9264213233
 20
58.1405584621
 11
6.4236290374
 21
58.1053998005
  0
LWPOLYLINE
  5
765
100
AcDbEntity
  8
RACCORDO
100
AcDbPolyline
 62
250
  6
CONTINUOUS
 90
12
 70
0
 10
6.5692497171
 20
58.2097992658
 10
6.5500116729
 20
58.208720167
 10
6.5311535756
 20
58.2060956082
 10
6.5129880965
 20
58.2019690922
 10
6.4958164346
 20
58.1964090279
 10
6.4799232994
 20
58.1895075891
 10
6.4655721954
 20
58.181379181
 10
6.4530010871
 20
58.1721585592
 10
6.442418436
 20
58.1619985956
 10
6.4339997289
 20
58.1510677296
 10
6.4278845861
 20
58.1395471908
 10
6.4241744391
 20
58.1276279966
  0
LWPOLYLINE
  5
766
100
AcDbEntity
  8
RACCORDO
100
AcDbPolyline
 62
250
  6
CONTINUOUS
 90
34
 70
0
 10
6.481106376
 20
58.1340379216
 10
6.4859181654
 20
58.1342514828
 10
6.4906983884
 20
58.1347102404
 10
6.4954039909
 20
58.1353934905
 10
6.5000541768
 20
58.1362803454
 10
6.504630238
 20
58.1373521089
 10
6.509075478
 20
58.1385960361
 10
6.5133818317
 20
58.1399981397
 10
6.5175577719
 20
58.1415428007
 10
6.5215713202
 20
58.1432202226
 10
6.5254166987
 20
58.145018441
 10
6.5291000691
 20
58.1469246674
 10
6.5326073156
 20
58.1489308005
 10
6.5359335823
 20
58.1510256405
 10
6.5390840942
 20
58.1531990758
 10
6.5420598152
 20
58.1554469584
 10
6.5448568111
 20
58.1577584327
 10
6.5474793507
 20
58.1601265813
 10
6.549940635
 20
58.162556211
 10
6.5522410643
 20
58.1650407464
 10
6.5543804847
 20
58.1675738294
 10
6.5563711782
 20
58.1701640512
 10
6.558211253
 20
58.1727988567
 10
6.5599027806
 20
58.1754812325
 10
6.5614638363
 20
58.1782483809
 10
6.5629002094
 20
58.1810912844
 10
6.5642060764
 20
58.1840168245
 10
6.5653818083
 20
58.187095082
 10
6.5664435866
 20
58.1903341986
 10
6.5673748143
 20
58.193734903
 10
6.5681263478
 20
58.1973661845
 10
6.5686814681
 20
58.2012589343
 10
6.5690560632
 20
58.2054005636
 10
6.5692497171
 20
58.2097992662
  0
LINE
  5
767
100
AcDbEntity
  8
DRAFT
100
AcDbLine
 62
7
  6
CONTINUOUS
 10
0.6036046533
 20
57.4878080747
 11
6.2264213233
 21
57.5859547047
  0
LINE
  5
768
100
AcDbEntity
  8
SUPERFICI
100
AcDbLine
 62
7
  6
CONTINUOUS
 10
-5.577069158
 20
57.7108937781
 11
-4.9941490025
 21
57.7210686873
  0
LINE
  5
769
100
AcDbEntity
  8
RACCORDO
100
AcDbLine
 62
7
  6
CONTINUOUS
 10
6.4810631064
 20
58.1340371559
 11
6.9264213233
 21
58.1418109125
  0
LINE
  5
76A
100
AcDbEntity
  8
RACCORDO
100
AcDbLine
 62
250
  6
CONTINUOUS
 10
6.5703129811
 20
58.3355645573
 11
6.9264213233
 21
58.3417804515
  0
LINE
  5
76B
100
AcDbEntity
  8
RACCORDO
100
AcDbLine
 62
250
  6
CONTINUOUS
 10
7.122930842
 20
58.1405584621
 11
6.9264213233
 21
58.1405584621
  0
LINE
  5
76C
100
AcDbEntity
  8
RACCORDO
100
AcDbLine
 62
250
  6
CONTINUOUS
 10
6.5703129811
 20
58.3355645573
 11
6.422930842
 21
58.3355645573
  0
LINE
  5
76D
100
AcDbEntity
  8
RACCORDO
100
AcDbLine
 62
250
  6
CONTINUOUS
 10
6.9264213233
 20
58.3417804515
 11
7.122930842
 21
58.3417804515
  0
LINE
  5
76E
100
AcDbEntity
  8
SUPERFICI
100
AcDbLine
 62
250
  6
CONTINUOUS
 10
-5.577069158
 20
57.22544908
 11
-4.077069158
 21
57.2180450487
  0
LINE
  5
76F
100
AcDbEntity
  8
RACCORDO
100
AcDbLine
 62
7
  6
CONTINUOUS
 10
0.422930842
 20
57.4893847911
 11
26.9316573775
 21
57.2580466393
  0
LINE
  5
770
100
AcDbEntity
  8
SUPERFICI
100
AcDbLine
 62
7
  6
CONTINUOUS
 10
0.422930842
 20
57.4893847911
 11
26.9316573775
 21
57.2580466393
  0
LINE
  5
771
100
AcDbEntity
  8
VARIANTE_COLORE
100
AcDbLine
 62
7
  6
CONTINUOUS
 10
0.422930842
 20
57.4893847911
 11
26.9316573775
 21
57.2580466393
  0
LINE
  5
772
100
AcDbEntity
  8
SUPERFICI
100
AcDbLine
 62
7
  6
CONTINUOUS
 10
-5.5756225609
 20
56.8110307476
 11
-4.0851655901
 21
56.7693862818
  0
LWPOLYLINE
  5
773
100
AcDbEntity
  8
RACCORDO
100
AcDbPolyline
 62
250
  6
CONTINUOUS
 90
16
 70
0
 10
6.2264213233
 20
58.5456473987
 10
6.2470737182
 20
58.5443494909
 10
6.267467439
 20
58.5411236931
 10
6.287383981
 20
58.5360045675
 10
6.3066099523
 20
58.529046962
 10
6.3249393599
 20
58.5203254225
 10
6.342175817
 20
58.5099333942
 10
6.3581346468
 20
58.4979822205
 10
6.3726448615
 20
58.48459995
 10
6.3855509942
 20
58.4699299645
 10
6.3967147647
 20
58.4541294426
 10
6.406016561
 20
58.4373676759
 10
6.4133567206
 20
58.4198242554
 10
6.4186565989
 20
58.4016871464
 10
6.4218594113
 20
58.3831506755
 10
6.422930842
 20
58.3644134483
  0
LINE
  5
774
100
AcDbEntity
  8
RACCORDO
100
AcDbLine
 62
7
  6
CONTINUOUS
 10
27.922930842
 20
55.1995140774
 11
28.2403619906
 21
55.1711187987
  0
LWPOLYLINE
  5
775
100
AcDbEntity
  8
RACCORDO
100
AcDbPolyline
 62
7
  6
CONTINUOUS
 90
19
 70
0
 10
28.2403619906
 20
55.1711187987
 10
28.2563957621
 20
55.1690564275
 10
28.2721421137
 20
55.1656527449
 10
28.2876010456
 20
55.160907751
 10
28.3029375103
 20
55.1547544623
 10
28.3179865551
 20
55.1472598622
 10
28.3322533219
 20
55.1386249017
 10
28.34564142
 20
55.1288507621
 10
28.3582472401
 20
55.1179362621
 10
28.3698650955
 20
55.1060788086
 10
28.380484169
 20
55.0932841265
 10
28.3901152778
 20
55.079546491
 10
28.3985851876
 20
55.0650461352
 10
28.405900678
 20
55.0496751947
 10
28.4120549695
 20
55.0335415338
 10
28.4168544889
 20
55.0171489788
 10
28.420234712
 20
55.0006654715
 10
28.422260163
 20
54.9839230701
 10
28.422930842
 20
54.9669217744
  0
LWPOLYLINE
  5
776
100
AcDbEntity
  8
RACCORDO
100
AcDbPolyline
 62
250
  6
CONTINUOUS
 90
10
 70
0
 10
6.3733336741
 20
59.0735574185
 10
6.3554206206
 20
59.0795977501
 10
6.3379048662
 20
59.0851776279
 10
6.3207869501
 20
59.0902998856
 10
6.3040426028
 20
59.0949097562
 10
6.2876971111
 20
59.0990699338
 10
6.2718251139
 20
59.1029579732
 10
6.256451564
 20
59.106633625
 10
6.2415519291
 20
59.1100411616
 10
6.2271264193
 20
59.1131829582
  0
LWPOLYLINE
  5
777
100
AcDbEntity
  8
ASSI
100
AcDbPolyline
 62
250
  6
CONTINUOUS
 90
16
 70
0
 10
-0.9576405295
 20
63.1287056209
 10
-0.9675463851
 20
63.133051886
 10
-0.9772768546
 20
63.1369817272
 10
-0.9868319382
 20
63.1404951446
 10
-0.9962257874
 20
63.143566605
 10
-1.0054442507
 20
63.1462216416
 10
-1.0144448729
 20
63.1485368539
 10
-1.0232242993
 20
63.1505141683
 10
-1.0317858847
 20
63.1521516585
 10
-1.0400972391
 20
63.1535201439
 10
-1.0481557039
 20
63.1546213911
 10
-1.0559639376
 20
63.1554536337
 10
-1.0634975263
 20
63.1560823922
 10
-1.0707483319
 20
63.1565295071
 10
-1.0777244925
 20
63.1567731379
 10
-1.084426008
 20
63.1568132848
  0
LINE
  5
778
100
AcDbEntity
  8
ASSI
100
AcDbLine
 62
250
  6
CONTINUOUS
 10
1.416624718
 20
62.0215675536
 11
-0.9576405295
 21
63.1287056209
  0
LINE
  5
779
100
AcDbEntity
  8
ASSI
100
AcDbLine
 62
7
  6
CONTINUOUS
 10
1.9383058242
 20
61.9799231106
 11
-0.8766073584
 21
63.2925386846
  0
LWPOLYLINE
  5
77A
100
AcDbEntity
  8
0
100
AcDbPolyline
 62
7
  6
CONTINUOUS
 90
10
 70
0
 43
0.3500000006
 10
13.551501915
 20
74.4524152222
 10
13.6229308319
 20
74.3095528564
 10
13.6229308319
 20
74.2381216736
 10
13.480074131
 20
74.0952683716
 10
13.4086452141
 20
74.0952683716
 10
13.3372162971
 20
74.1666995544
 10
13.3372162971
 20
74.2381216736
 10
13.4086452141
 20
74.3809840393
 10
13.480074131
 20
74.4524152222
 10
13.551501915
 20
74.4524152222
  0
LWPOLYLINE
  5
77B
100
AcDbEntity
  8
RACCORDO
100
AcDbPolyline
 62
250
  6
CONTINUOUS
 90
22
 70
0
 10
-2.9735786767
 20
59.8676105914
 10
-2.9612984629
 20
59.8679448604
 10
-2.9487526486
 20
59.869906632
 10
-2.9359981082
 20
59.8734959063
 10
-2.923060085
 20
59.8786755524
 10
-2.9100520632
 20
59.8854827011
 10
-2.8971673811
 20
59.8940287447
 10
-2.8845047775
 20
59.9043723961
 10
-2.8721227819
 20
59.9164549423
 10
-2.8601471664
 20
59.9302116375
 10
-2.8486736253
 20
59.9456711961
 10
-2.837766689
 20
59.9628049036
 10
-2.8275025956
 20
59.9814618707
 10
-2.8179804751
 20
60.0016376346
 10
-2.8092627364
 20
60.0233366582
 10
-2.801387132
 20
60.0464214408
 10
-2.7944647324
 20
60.070864768
 10
-2.7885713808
 20
60.0966938541
 10
-2.7837497467
 20
60.123852842
 10
-2.7801249147
 20
60.1523231125
 10
-2.7778542213
 20
60.1821232848
 10
-2.777069158
 20
60.2132533588
  0
LWPOLYLINE
  5
77C
100
AcDbEntity
  8
RACCORDO
100
AcDbPolyline
 62
250
  6
CONTINUOUS
 90
22
 70
0
 10
-2.9735786767
 20
59.719252869
 10
-2.9488013218
 20
59.7195779013
 10
-2.9237462768
 20
59.7215219948
 10
-2.8984135419
 20
59.7250844332
 10
-2.872576307
 20
59.7302251502
 10
-2.8464613822
 20
59.7369814292
 10
-2.8207491967
 20
59.7454677593
 10
-2.7954764967
 20
59.7557379419
 10
-2.770606536
 20
59.7677320982
 10
-2.7467095057
 20
59.7813934313
 10
-2.7238163761
 20
59.7967454918
 10
-2.7018961769
 20
59.8137559141
 10
-2.6814261881
 20
59.8322838975
 10
-2.6624208177
 20
59.8523189226
 10
-2.6448656578
 20
59.8738609717
 10
-2.6291947639
 20
59.896785341
 10
-2.6153693939
 20
59.9210591216
 10
-2.6034282899
 20
59.9467034947
 10
-2.5939217342
 20
59.9736751081
 10
-2.5870331542
 20
60.0019551636
 10
-2.5825791226
 20
60.0315491568
 10
-2.5805596393
 20
60.0624499142
  0
LINE
  5
77D
100
AcDbEntity
  8
RACCORDO
100
AcDbLine
 62
250
  6
CONTINUOUS
 10
6.5703129811
 20
58.7488752721
 11
6.422930842
 21
58.7488752721
  0
LINE
  5
77E
100
AcDbEntity
  8
RACCORDO
100
AcDbLine
 62
250
  6
CONTINUOUS
 10
6.9264213233
 20
59.0269568113
 11
7.122930842
 21
59.0269568113
  0
LINE
  5
77F
100
AcDbEntity
  8
RACCORDO
100
AcDbLine
 62
250
  6
CONTINUOUS
 10
6.9264213233
 20
59.6051370101
 11
7.122930842
 21
59.6051370101
  0
LINE
  5
780
100
AcDbEntity
  8
RACCORDO
100
AcDbLine
 62
250
  6
CONTINUOUS
 10
6.9264213233
 20
59.9757330063
 11
7.122930842
 21
59.9757330063
  0
LINE
  5
781
100
AcDbEntity
  8
RACCORDO
100
AcDbLine
 62
250
  6
CONTINUOUS
 10
-4.077069158
 20
60.0893847911
 11
-5.577069158
 21
60.0893847911
  0
LINE
  5
782
100
AcDbEntity
  8
RACCORDO
100
AcDbLine
 62
7
  6
CONTINUOUS
 10
-4.277069158
 20
60.5893847911
 11
-5.577069158
 21
60.5893847911
  0
LINE
  5
783
100
AcDbEntity
  8
RACCORDO
100
AcDbLine
 62
250
  6
CONTINUOUS
 10
0.422930842
 20
59.4922841275
 11
3.7264213233
 21
59.4898806074
  0
LINE
  5
784
100
AcDbEntity
  8
RACCORDO
100
AcDbLine
 62
250
  6
CONTINUOUS
 10
0.3246760827
 20
59.7828594566
 11
3.7264213233
 21
59.7806826777
  0
LINE
  5
785
100
AcDbEntity
  8
RACCORDO
100
AcDbLine
 62
7
  6
CONTINUOUS
 10
0.422930842
 20
58.7376378917
 11
3.7264213233
 21
58.7201807371
  0
LINE
  5
786
100
AcDbEntity
  8
RACCORDO
100
AcDbLine
 62
250
  6
CONTINUOUS
 10
-4.077069158
 20
59.7278454473
 11
-2.9735786767
 21
59.719252869
  0
LINE
  5
787
100
AcDbEntity
  8
RACCORDO
100
AcDbLine
 62
250
  6
CONTINUOUS
 10
-4.077069158
 20
59.8761629191
 11
-2.9735786767
 21
59.8676103275
  0
LINE
  5
788
100
AcDbEntity
  8
RACCORDO
100
AcDbLine
 62
250
  6
CONTINUOUS
 10
6.2264213233
 20
58.9927405287
 11
3.922930842
 21
59.0169987791
  0
LINE
  5
789
100
AcDbEntity
  8
RACCORDO
100
AcDbLine
 62
250
  6
CONTINUOUS
 10
6.2271264193
 20
59.1131829582
 11
3.922930842
 21
59.1416630963
  0
LINE
  5
78A
100
AcDbEntity
  8
RACCORDO
100
AcDbLine
 62
250
  6
CONTINUOUS
 10
6.4555892016
 20
59.0338528721
 11
6.9264213233
 21
59.0269568113
  0
LINE
  5
78B
100
AcDbEntity
  8
RACCORDO
100
AcDbLine
 62
250
  6
CONTINUOUS
 10
6.9264213233
 20
59.2731212518
 11
3.922930842
 21
59.3171119909
  0
LINE
  5
78C
100
AcDbEntity
  8
RACCORDO
100
AcDbLine
 62
250
  6
CONTINUOUS
 10
6.9264213233
 20
59.3589725696
 11
3.922930842
 21
59.4029633087
  0
LINE
  5
78D
100
AcDbEntity
  8
RACCORDO
100
AcDbLine
 62
250
  6
CONTINUOUS
 10
6.9264213233
 20
59.6051370101
 11
3.922930842
 21
59.6491277492
  0
LINE
  5
78E
100
AcDbEntity
  8
RACCORDO
100
AcDbLine
 62
250
  6
CONTINUOUS
 10
0.422930842
 20
58.6374566522
 11
6.2264213233
 21
58.5456473987
  0
LINE
  5
78F
100
AcDbEntity
  8
RACCORDO
100
AcDbLine
 62
250
  6
CONTINUOUS
 10
3.922930842
 20
60.0281591277
 11
6.9264213233
 21
59.9757330063
  0
LINE
  5
790
100
AcDbEntity
  8
RACCORDO
100
AcDbLine
 62
7
  6
CONTINUOUS
 10
2.622930842
 20
60.3008126359
 11
6.9264213233
 21
60.2256949301
  0
LINE
  5
791
100
AcDbEntity
  8
RACCORDO
100
AcDbLine
 62
250
  6
CONTINUOUS
 10
2.6107150888
 20
59.9549307408
 11
3.7264213233
 21
59.9352060492
  0
LINE
  5
792
100
AcDbEntity
  8
RACCORDO
100
AcDbLine
 62
7
  6
CONTINUOUS
 10
-2.5840490573
 20
60.4826443807
 11
2.622930842
 21
60.3008126359
  0
LINE
  5
793
100
AcDbEntity
  8
ASSI
100
AcDbLine
 62
7
  6
CONTINUOUS
 10
1.8011460895
 20
60.3295099918
 11
0.9024360179
 21
60.360893639
  0
LINE
  5
794
100
AcDbEntity
  8
RACCORDO
100
AcDbLine
 62
250
  6
CONTINUOUS
 10
-2.5805596393
 20
60.1420601813
 11
2.6107150888
 21
59.9549307408
  0
LWPOLYLINE
  5
795
100
AcDbEntity
  8
RACCORDO
100
AcDbPolyline
 62
250
  6
CONTINUOUS
 90
7
 70
0
 10
6.2264213233
 20
58.9927405287
 10
6.2409327199
 20
58.9920323801
 10
6.2553472019
 20
58.9903713733
 10
6.2695887359
 20
58.9877666463
 10
6.2835822505
 20
58.9842323103
 10
6.2972540311
 20
58.9797873708
 10
6.3105321081
 20
58.974455623
  0
LWPOLYLINE
  5
796
100
AcDbEntity
  8
RACCORDO
100
AcDbPolyline
 62
250
  6
CONTINUOUS
 90
13
 70
0
 10
-2.5805596393
 20
60.0624499142
 10
-2.606343316
 20
60.0640513737
 10
-2.6316371573
 20
60.0681493836
 10
-2.6560179292
 20
60.0746753733
 10
-2.6790776759
 20
60.0835201454
 10
-2.7004305457
 20
60.0945357031
 10
-2.7197192478
 20
60.1075377264
 10
-2.7366210302
 20
60.1223086565
 10
-2.7508530807
 20
60.1386013361
 10
-2.7621772588
 20
60.1561431449
 10
-2.7704040805
 20
60.174640561
 10
-2.775395889
 20
60.1937840732
 10
-2.777069158
 20
60.2132533588
  0
LWPOLYLINE
  5
797
100
AcDbEntity
  8
RACCORDO
100
AcDbPolyline
 62
250
  6
CONTINUOUS
 90
12
 70
0
 10
-2.5805596393
 20
60.1420601813
 10
-2.6063426763
 20
60.1436675061
 10
-2.6316359962
 20
60.1477805314
 10
-2.656016385
 20
60.1543304628
 10
-2.679075879
 20
60.1632077221
 10
-2.700428648
 20
60.1742638003
 10
-2.7197174368
 20
60.1873137587
 10
-2.7366194624
 20
60.2021392763
 10
-2.7508518594
 20
60.2184923075
 10
-2.7621764466
 20
60.2360992717
 10
-2.7704036659
 20
60.2546655838
 10
-2.7753957723
 20
60.2738805757
  0
LWPOLYLINE
  5
798
100
AcDbEntity
  8
RACCORDO
100
AcDbPolyline
 62
250
  6
CONTINUOUS
 90
13
 70
0
 10
6.9264213233
 20
59.2731212518
 10
6.952205
 20
59.2710299342
 10
6.9774988414
 20
59.2656784154
 10
7.0018796133
 20
59.2571562409
 10
7.02493936
 20
59.2456060093
 10
7.0462922298
 20
59.2312209873
 10
7.0655809319
 20
59.214241875
 10
7.0824827143
 20
59.1949527784
 10
7.0967147648
 20
59.1736764561
 10
7.1080389428
 20
59.1507689182
 10
7.1162657646
 20
59.1266134694
 10
7.1212575731
 20
59.1016142954
 10
7.122930842
 20
59.0761896994
  0
LWPOLYLINE
  5
799
100
AcDbEntity
  8
RACCORDO
100
AcDbPolyline
 62
250
  6
CONTINUOUS
 90
13
 70
0
 10
6.9264213233
 20
59.3589725696
 10
6.9522050478
 20
59.356881245
 10
6.9774989277
 20
59.3515297091
 10
7.0018797275
 20
59.3430075103
 10
7.0249394917
 20
59.3314572502
 10
7.0462923677
 20
59.3170721987
 10
7.0655810625
 20
59.3000930618
 10
7.0824828267
 20
59.2808039497
 10
7.0967148517
 20
59.2595276236
 10
7.1080390003
 20
59.2366200976
 10
7.1162657938
 20
59.2124646785
 10
7.1212575813
 20
59.187465551
 10
7.122930842
 20
59.1620410172
  0
LWPOLYLINE
  5
79A
100
AcDbEntity
  8
ASSI
100
AcDbPolyline
 62
250
  6
CONTINUOUS
 90
10
 70
0
 10
5.3812000168
 20
61.6393847911
 10
5.3929872164
 20
61.636917356
 10
5.4075453722
 20
61.6345043051
 10
5.4245893316
 20
61.6321844167
 10
5.4437626426
 20
61.6299978494
 10
5.4647514979
 20
61.6279730608
 10
5.4873247215
 20
61.6261295122
 10
5.5111697538
 20
61.6244936112
 10
5.5358651471
 20
61.6230951075
 10
5.5610172035
 20
61.6219562976
  0
LINE
  5
79B
100
AcDbEntity
  8
ASSI
100
AcDbLine
 62
250
  6
CONTINUOUS
 10
1.4588760728
 20
62.0126575708
 11
1.416624718
 21
62.0215675536
  0
LINE
  5
79C
100
AcDbEntity
  8
0
100
AcDbLine
 62
250
  6
CONTINUOUS
 10
23.6037116994
 20
53.4655757396
 11
24.1608120956
 21
53.0941461055
  0
LWPOLYLINE
  5
79D
100
AcDbEntity
  8
0
100
AcDbPolyline
 62
7
  6
CONTINUOUS
 90
10
 70
0
 43
0.3500000006
 10
10.380073185
 20
84.4524092102
 10
10.4515021019
 20
84.3095559082
 10
10.4515021019
 20
84.2381247253
 10
10.308645401
 20
84.0952714233
 10
10.2372164841
 20
84.0952714233
 10
10.1657875671
 20
84.1666935425
 10
10.1657875671
 20
84.2381247253
 10
10.2372164841
 20
84.3809870911
 10
10.308645401
 20
84.4524092102
 10
10.380073185
 20
84.4524092102
  0
LWPOLYLINE
  5
79E
100
AcDbEntity
  8
ASSI
100
AcDbPolyline
 62
250
  6
CONTINUOUS
 90
13
 70
0
 10
5.3811999388
 20
61.6391342289
 10
5.3898861622
 20
61.6411038087
 10
5.4001739588
 20
61.6430232909
 10
5.4119471704
 20
61.6448735707
 10
5.4250740469
 20
61.6466257665
 10
5.4394255249
 20
61.6482760991
 10
5.4549019114
 20
61.6498430788
 10
5.4714086015
 20
61.6513253955
 10
5.4887586984
 20
61.6526971066
 10
5.5067136278
 20
61.6539408809
 10
5.5250770553
 20
61.6550454368
 10
5.5436859215
 20
61.6560051367
 10
5.5623494268
 20
61.6568132418
  0
LWPOLYLINE
  5
79F
100
AcDbEntity
  8
ASSI
100
AcDbPolyline
 62
250
  6
CONTINUOUS
 90
10
 70
0
 10
0.8209268992
 20
61.6219562961
 10
0.8440924502
 20
61.6232448588
 10
0.8669928812
 20
61.6247509066
 10
0.8893196092
 20
61.6264541456
 10
0.910771782
 20
61.6283316248
 10
0.9310603318
 20
61.6303580452
 10
0.9499118705
 20
61.6325061008
 10
0.9670723737
 20
61.6347468466
 10
0.9823106037
 20
61.6370500886
 10
0.9954212253
 20
61.6393847907
  0
LWPOLYLINE
  5
7A0
100
AcDbEntity
  8
ASSI
100
AcDbPolyline
 62
250
  6
CONTINUOUS
 90
10
 70
0
 10
4.2880657109
 20
61.6219563177
 10
4.3132715554
 20
61.623095197
 10
4.3381311659
 20
61.6244937952
 10
4.3622481844
 20
61.6261298133
 10
4.3852380926
 20
61.627977167
 10
4.4067343423
 20
61.6300064023
 10
4.4263942001
 20
61.6321851654
 10
4.4439042116
 20
61.6344787183
 10
4.4589851994
 20
61.636850493
 10
4.4713967142
 20
61.6392626743
  0
LWPOLYLINE
  5
7A1
100
AcDbEntity
  8
ASSI
100
AcDbPolyline
 62
250
  6
CONTINUOUS
 90
32
 70
0
 10
1.3132227476
 20
61.8383635501
 10
1.3004390683
 20
61.8380630086
 10
1.2879529529
 20
61.8376898985
 10
1.2756812132
 20
61.8372299733
 10
1.2635454129
 20
61.8366658876
 10
1.2515743497
 20
61.8359874557
 10
1.2397162429
 20
61.8351728906
 10
1.2277669982
 20
61.8341772069
 10
1.21566428
 20
61.83297306
 10
1.2034494257
 20
61.8315300152
 10
1.1910650879
 20
61.8297780812
 10
1.1784619812
 20
61.8276671441
 10
1.1656810936
 20
61.8251529069
 10
1.1527956676
 20
61.8221517927
 10
1.1398301704
 20
61.8186053797
 10
1.1267889705
 20
61.8144461768
 10
1.1137214032
 20
61.8095530424
 10
1.1006693665
 20
61.8038463845
 10
1.087692514
 20
61.7972462279
 10
1.0748905346
 20
61.7896045033
 10
1.0622589225
 20
61.7807305982
 10
1.0500339792
 20
61.7706326173
 10
1.0386764507
 20
61.7595037106
 10
1.0283069249
 20
61.7472378879
 10
1.0190687794
 20
61.7339237177
 10
1.0113284644
 20
61.7201905238
 10
1.0051854232
 20
61.7062077899
 10
1.0005673913
 20
61.6919991306
 10
0.9973840005
 20
61.6780775539
 10
0.995512178
 20
61.6646860323
 10
0.9948876338
 20
61.6517666565
 10
0.9954215646
 20
61.6393847911
  0
LWPOLYLINE
  5
7A2
100
AcDbEntity
  8
ASSI
100
AcDbPolyline
 62
250
  6
CONTINUOUS
 90
35
 70
0
 10
1.346097377
 20
62.021037882
 10
1.3317891836
 20
62.0207538236
 10
1.3173520903
 20
62.0203842276
 10
1.3028179159
 20
62.0199236616
 10
1.2882418826
 20
62.0193127447
 10
1.2736929469
 20
62.0185624221
 10
1.2591021522
 20
62.0176617485
 10
1.2443178504
 20
62.0165185069
 10
1.2293997942
 20
62.0151626149
 10
1.214288231
 20
62.0135641548
 10
1.198652255
 20
62.0115411574
 10
1.1824337094
 20
62.0091304983
 10
1.1656907511
 20
62.0062953019
 10
1.1482669439
 20
62.0027429718
 10
1.1300766387
 20
61.9985052588
 10
1.1112054847
 20
61.9935504122
 10
1.0917539936
 20
61.9874905832
 10
1.0716825462
 20
61.9803725837
 10
1.0510307617
 20
61.9721496018
 10
1.030018009
 20
61.9622933533
 10
1.0085403506
 20
61.950835358
 10
0.9867017239
 20
61.937744096
 10
0.9650333113
 20
61.9223967244
 10
0.9432582216
 20
61.9045160334
 10
0.921653346
 20
61.8843792327
 10
0.9015805391
 20
61.8621951084
 10
0.8831390077
 20
61.8375581563
 10
0.866229545
 20
61.8108738807
 10
0.8519163857
 20
61.7835675798
 10
0.8406195105
 20
61.7556536696
 10
0.8319189385
 20
61.7271177343
 10
0.8256189622
 20
61.6993418243
 10
0.8216543456
 20
61.6727866233
 10
0.8200903245
 20
61.6469914476
 10
0.8209268991
 20
61.6219562974
  0
LINE
  5
7A3
100
AcDbEntity
  8
ASSI
100
AcDbLine
 62
250
  6
CONTINUOUS
 10
1.3393832696
 20
61.8387835524
 11
1.3132227476
 21
61.8383635501
  0
LINE
  5
7A4
100
AcDbEntity
  8
ASSI
100
AcDbLine
 62
250
  6
CONTINUOUS
 10
1.3744627562
 20
62.0213761735
 11
1.346097377
 21
62.021037882
  0
LINE
  5
7A5
100
AcDbEntity
  8
ASSI
100
AcDbLine
 62
250
  6
CONTINUOUS
 10
1.3660148169
 20
61.8390222472
 11
1.3393832696
 21
61.8387835524
  0
LINE
  5
7A6
100
AcDbEntity
  8
ASSI
100
AcDbLine
 62
250
  6
CONTINUOUS
 10
1.4201933434
 20
61.8391904192
 11
1.3660148169
 21
61.8390222472
  0
LWPOLYLINE
  5
7A7
100
AcDbEntity
  8
ASSI
100
AcDbPolyline
 62
250
  6
CONTINUOUS
 90
3
 70
0
 10
1.416624718
 20
62.0215675536
 10
1.4026275764
 20
62.0215516457
 10
1.3744627562
 20
62.0213761735
  0
LINE
  5
7A8
100
AcDbEntity
  8
RACCORDO
100
AcDbLine
 62
250
  6
CONTINUOUS
 10
-4.077069158
 20
61.0928453385
 11
-4.2735786767
 21
61.0928453385
  0
LINE
  5
7A9
100
AcDbEntity
  8
ASSI
100
AcDbLine
 62
250
  6
CONTINUOUS
 10
-2.9735786767
 20
61.3445641195
 11
-2.777069158
 21
61.3445641195
  0
LINE
  5
7AA
100
AcDbEntity
  8
ASSI
100
AcDbLine
 62
250
  6
CONTINUOUS
 10
1.8592619594
 20
61.6393847911
 11
0.9954212253
 21
61.6393847911
  0
LINE
  5
7AB
100
AcDbEntity
  8
ASSI
100
AcDbLine
 62
250
  6
CONTINUOUS
 10
4.4719485821
 20
61.6393847911
 11
5.3812000168
 21
61.6393847911
  0
LINE
  5
7AC
100
AcDbEntity
  8
ASSI
100
AcDbLine
 62
250
  6
CONTINUOUS
 10
4.2866261775
 20
61.6568132848
 11
2.5757236981
 21
61.6568132848
  0
LINE
  5
7AD
100
AcDbEntity
  8
ASSI
100
AcDbLine
 62
250
  6
CONTINUOUS
 10
5.5623494283
 20
61.6568132848
 11
6.628544267
 21
61.6568132848
  0
LINE
  5
7AE
100
AcDbEntity
  8
RACCORDO
100
AcDbLine
 62
7
  6
CONTINUOUS
 10
4.2831356961
 20
61.8393847911
 11
4.6523362766
 21
61.8393847911
  0
LINE
  5
7AF
100
AcDbEntity
  8
ASSI
100
AcDbLine
 62
7
  6
CONTINUOUS
 10
2.5722332168
 20
61.8393847911
 11
5.5588589006
 21
61.8393847911
  0
LINE
  5
7B0
100
AcDbEntity
  8
RACCORDO
100
AcDbLine
 62
7
  6
CONTINUOUS
 10
5.1978929206
 20
61.8393847911
 11
6.6251508277
 21
61.8393847911
  0
LINE
  5
7B1
100
AcDbEntity
  8
ASSI
100
AcDbLine
 62
250
  6
CONTINUOUS
 10
-2.2735786767
 20
61.8794262988
 11
-2.077069158
 21
61.8794262988
  0
LINE
  5
7B2
100
AcDbEntity
  8
ASSI
100
AcDbLine
 62
250
  6
CONTINUOUS
 10
-2.2735786767
 20
62.3317526113
 11
-2.077069158
 21
62.3317526113
  0
LINE
  5
7B3
100
AcDbEntity
  8
ASSI
100
AcDbLine
 62
250
  6
CONTINUOUS
 10
1.4863502306
 20
61.839077875
 11
1.4201933434
 21
61.8391904192
  0
LWPOLYLINE
  5
7B4
100
AcDbEntity
  8
RACCORDO
100
AcDbPolyline
 62
250
  6
CONTINUOUS
 90
10
 70
0
 10
6.628544267
 20
61.6568132848
 10
6.6327956345
 20
61.6567843151
 10
6.6370611217
 20
61.6566932952
 10
6.6413407287
 20
61.6565402253
 10
6.6456302075
 20
61.656326448
 10
6.649933806
 20
61.6560506206
 10
6.6542642682
 20
61.6557087146
 10
6.6586258421
 20
61.6552993871
 10
6.6630142797
 20
61.6548239809
 10
6.667429581
 20
61.6542824962
  0
LWPOLYLINE
  5
7B5
100
AcDbEntity
  8
RACCORDO
100
AcDbPolyline
 62
250
  6
CONTINUOUS
 90
10
 70
0
 10
7.0246760827
 20
60.8067414597
 10
7.041821338
 20
60.8065858666
 10
7.0584052696
 20
60.8061759557
 10
7.0739350909
 20
60.8055239074
 10
7.0879493377
 20
60.804649097
 10
7.1000315804
 20
60.8035775192
 10
7.109822798
 20
60.8023410156
 10
7.117032047
 20
60.8009763285
 10
7.1214451061
 20
60.7995240092
 10
7.122930842
 20
60.7980272128
  0
LWPOLYLINE
  5
7B6
100
AcDbEntity
  8
ASSI
100
AcDbPolyline
 62
250
  6
CONTINUOUS
 90
13
 70
0
 10
2.5757236981
 20
61.6568132848
 10
2.5258350976
 20
61.6576259184
 10
2.4765315144
 20
61.6597808414
 10
2.4278129484
 20
61.6632780539
 10
2.3797191774
 20
61.6681404387
 10
2.3322104236
 20
61.674345113
 10
2.2851673539
 20
61.6818234281
 10
2.2385990917
 20
61.6905523061
 10
2.1924965136
 20
61.7005548249
 10
2.1467129163
 20
61.7118315692
 10
2.1011993987
 20
61.7243827339
 10
2.056004862
 20
61.7382081241
 10
2.0111293061
 20
61.7533077399
  0
LINE
  5
7B7
100
AcDbEntity
  8
RACCORDO
100
AcDbLine
 62
250
  6
CONTINUOUS
 10
-5.577069158
 20
61.1155978495
 11
-4.2735786767
 21
61.0928453385
  0
LINE
  5
7B8
100
AcDbEntity
  8
RACCORDO
100
AcDbLine
 62
7
  6
CONTINUOUS
 10
-4.2735786767
 20
61.2928148775
 11
-5.577069158
 21
61.3155673885
  0
LINE
  5
7B9
100
AcDbEntity
  8
ASSI
100
AcDbLine
 62
250
  6
CONTINUOUS
 10
-2.2735786767
 20
62.3317526113
 11
-5.577069158
 21
62.3894152521
  0
LINE
  5
7BA
100
AcDbEntity
  8
ASSI
100
AcDbLine
 62
7
  6
CONTINUOUS
 10
-2.2735786767
 20
62.5317221503
 11
-5.577069158
 21
62.5893847911
  0
LWPOLYLINE
  5
7BB
100
AcDbEntity
  8
ASSI
100
AcDbPolyline
 62
250
  6
CONTINUOUS
 90
13
 70
0
 10
4.2866261774
 20
61.6568132838
 10
4.3053248485
 20
61.6560050817
 10
4.3240305152
 20
61.6550452719
 10
4.3425526573
 20
61.6539405945
 10
4.3607285315
 20
61.6526966873
 10
4.3783602358
 20
61.6513248354
 10
4.3952057663
 20
61.649842374
 10
4.4110748016
 20
61.6482751233
 10
4.4258695099
 20
61.6466245335
 10
4.4394868289
 20
61.6448725079
 10
4.4517944244
 20
61.6430229836
 10
4.46265557
 20
61.6411046965
 10
4.4719487107
 20
61.6391367132
  0
LINE
  5
7BC
100
AcDbEntity
  8
0
100
AcDbLine
 62
7
  6
CONTINUOUS
 10
-5.577069158
 20
61.56799646
 11
-4.077069158
 21
61.4893847911
  0
LWPOLYLINE
  5
7BD
100
AcDbEntity
  8
ASSI
100
AcDbPolyline
 62
250
  6
CONTINUOUS
 90
10
 70
0
 10
2.0303039231
 20
61.6219562955
 10
2.0071815179
 20
61.6232448629
 10
1.984417807
 20
61.6247509195
 10
1.9623195315
 20
61.6264541682
 10
1.9411844666
 20
61.6283316534
 10
1.9212973899
 20
61.630358075
 10
1.9029262492
 20
61.6325061292
 10
1.8863185763
 20
61.6347468706
 10
1.8716981482
 20
61.6370501032
 10
1.8592619557
 20
61.6393847907
  0
LINE
  5
7BE
100
AcDbEntity
  8
SUPERFICI
100
AcDbLine
 62
250
  6
CONTINUOUS
 10
-5.577069158
 20
64.4895561286
 11
-8.8901576321
 21
64.4027998537
  0
LINE
  5
7BF
100
AcDbEntity
  8
ASSI
100
AcDbLine
 62
250
  6
CONTINUOUS
 10
-4.9270440743
 20
62.9568132848
 11
-5.577069158
 21
62.9568132848
  0
LINE
  5
7C0
100
AcDbEntity
  8
ASSI
100
AcDbLine
 62
7
  6
CONTINUOUS
 10
-4.9305345556
 20
63.1393847911
 11
-5.577069158
 21
63.1393847911
  0
LINE
  5
7C1
100
AcDbEntity
  8
ASSI
100
AcDbLine
 62
250
  6
CONTINUOUS
 10
-1.084426008
 20
63.1568132848
 11
-1.2807583536
 21
63.1568132848
  0
LINE
  5
7C2
100
AcDbEntity
  8
ASSI
100
AcDbLine
 62
7
  6
CONTINUOUS
 10
-1.0879164893
 20
63.3393847911
 11
-1.2842488349
 21
63.3393847911
  0
LINE
  5
7C3
100
AcDbEntity
  8
SUPERFICI
100
AcDbLine
 62
250
  6
CONTINUOUS
 10
-8.8901576321
 20
64.4027998537
 11
-9.377069158
 21
64.4027998537
  0
LWPOLYLINE
  5
7C4
100
AcDbEntity
  8
ASSI
100
AcDbPolyline
 62
250
  6
CONTINUOUS
 90
16
 70
0
 10
-4.9270440743
 20
62.9568132848
 10
-4.9072938881
 20
62.9619521982
 10
-4.887796902
 20
62.9668519328
 10
-4.8687570945
 20
62.9714614784
 10
-4.8503800468
 20
62.9757314234
 10
-4.8328495372
 20
62.9796194383
 10
-4.8163291256
 20
62.983089193
 10
-4.800977243
 20
62.9861066488
 10
-4.786977015
 20
62.9886349881
 10
-4.774504844
 20
62.990642691
 10
-4.7636874815
 20
62.9921107997
 10
-4.7546252197
 20
62.9930273638
 10
-4.747411496
 20
62.9933853896
 10
-4.7421070842
 20
62.9931860585
 10
-4.7387470887
 20
62.9924363631
 10
-4.7373493903
 20
62.9911486001
  0
LINE
  5
7C5
100
AcDbEntity
  8
SUPERFICI
100
AcDbLine
 62
7
  6
CONTINUOUS
 10
-5.577069158
 20
64.9893847911
 11
-8.8901576321
 21
64.9026285162
  0
LWPOLYLINE
  5
7C6
100
AcDbEntity
  8
0
100
AcDbPolyline
 62
7
  6
CONTINUOUS
 90
7
 70
0
 43
0.3500000006
 10
12.0515025902
 20
73.9524150696
 10
10.5515021324
 20
73.9524150696
 10
12.0515025902
 20
76.0952689819
 10
12.0515025902
 20
76.5238379517
 10
11.6229313545
 20
76.9524159851
 10
10.9800733681
 20
76.9524159851
 10
10.5515021324
 20
76.3095534668
  0
LWPOLYLINE
  5
7C7
100
AcDbEntity
  8
0
100
AcDbPolyline
 62
7
  6
CONTINUOUS
 90
6
 70
0
 43
0.3500000006
 10
8.4086453876
 20
73.9524150696
 10
9.4800734768
 20
73.9524150696
 10
9.6943596611
 20
74.1666995544
 10
9.6943596611
 20
75.2381219788
 10
9.265787859
 20
75.6667000122
 10
8.8372166233
 20
75.6667000122
  0
LWPOLYLINE
  5
7C8
100
AcDbEntity
  8
0
100
AcDbPolyline
 62
7
  6
CONTINUOUS
 90
6
 70
0
 43
0.3500000006
 10
5.2372166576
 20
83.9524090576
 10
6.3086453133
 20
83.9524090576
 10
6.5229309311
 20
84.1666935425
 10
6.5229309311
 20
85.2381250305
 10
6.0943596954
 20
85.6666940002
 10
5.6657878933
 20
85.6666940002
  0
LWPOLYLINE
  5
7C9
100
AcDbEntity
  8
0
100
AcDbPolyline
 62
7
  6
CONTINUOUS
 90
13
 70
0
 43
0.3500000006
 10
11.8800736427
 20
85.6666940002
 10
11.594359108
 20
85.8809875488
 10
11.594359108
 20
86.5238410034
 10
11.8800736427
 20
86.9524099731
 10
12.5229304962
 20
86.9524099731
 10
12.808645031
 20
86.5238410034
 10
12.808645031
 20
85.8809875488
 10
12.5229304962
 20
85.6666940002
 10
12.9515017319
 20
85.2381250305
 10
12.9515017319
 20
84.3809870911
 10
12.5229304962
 20
83.9524090576
 10
11.8800736427
 20
83.9524090576
 10
11.4515024071
 20
84.3809870911
  0
ARC
  5
7CA
100
AcDbEntity
  8
RACCORDO
100
AcDbCircle
 62
7
  6
CONTINUOUS
 10
48.8879711333
 20
36.8349487775
 40
0.7
100
AcDbArc
 50
100.0000894753
 51
206.0151420595
  0
ARC
  5
7CB
100
AcDbEntity
  8
RACCORDO
100
AcDbCircle
 62
7
  6
CONTINUOUS
 10
50.9262437101
 20
37.5893847911
 40
0.3
100
AcDbArc
 50
63.3944050933
 51
90.0
  0
ARC
  5
7CC
100
AcDbEntity
  8
RACCORDO
100
AcDbCircle
 62
7
  6
CONTINUOUS
 10
48.8879700567
 20
40.3438209946
 40
0.7
100
AcDbArc
 50
153.984833255
 51
260.0
  0
ARC
  5
7CD
100
AcDbEntity
  8
RACCORDO
100
AcDbCircle
 62
7
  6
CONTINUOUS
 10
50.9262437101
 20
39.5893847911
 40
0.3
100
AcDbArc
 50
270.0
 51
296.6054938983
  0
CIRCLE
  5
7CE
100
AcDbEntity
  8
RACCORDO
100
AcDbCircle
 62
250
  6
CONTINUOUS
 10
52.4826819517
 20
38.5893847911
 40
7.6622947095
  0
CIRCLE
  5
7CF
100
AcDbEntity
  8
RACCORDO
100
AcDbCircle
 62
250
  6
CONTINUOUS
 10
52.4826819517
 20
38.5893847911
 40
7.1623708619
  0
CIRCLE
  5
7D0
100
AcDbEntity
  8
DRAFT
100
AcDbCircle
 62
7
  6
CONTINUOUS
 10
52.4826819517
 20
38.5893847911
 40
7.15
  0
CIRCLE
  5
7D1
100
AcDbEntity
  8
RACCORDO
100
AcDbCircle
 62
250
  6
CONTINUOUS
 10
52.4826819517
 20
38.5893847911
 40
6.9262633318
  0
CIRCLE
  5
7D2
100
AcDbEntity
  8
RACCORDO
100
AcDbCircle
 62
250
  6
CONTINUOUS
 10
52.4826819517
 20
38.5893847911
 40
6.7263851664
  0
CIRCLE
  5
7D3
100
AcDbEntity
  8
DRAFT
100
AcDbCircle
 62
7
  6
CONTINUOUS
 10
52.4826819517
 20
38.5893847911
 40
6.1
  0
ARC
  5
7D4
100
AcDbEntity
  8
0
100
AcDbCircle
 62
7
  6
CONTINUOUS
 10
52.4826819517
 20
38.5893847911
 40
5.8695606953
100
AcDbArc
 50
74.4918683422
 51
105.5081316578
  0
ARC
  5
7D5
100
AcDbEntity
  8
0
100
AcDbCircle
 62
7
  6
CONTINUOUS
 10
52.4826819517
 20
38.5893847911
 40
5.8695606953
100
AcDbArc
 50
254.4918683422
 51
285.5081316578
  0
ARC
  5
7D6
100
AcDbEntity
  8
0
100
AcDbCircle
 62
7
  6
CONTINUOUS
 10
52.4826819517
 20
38.5893847911
 40
5.5160073047
100
AcDbArc
 50
73.8724838229
 51
106.1275161771
  0
ARC
  5
7D7
100
AcDbEntity
  8
0
100
AcDbCircle
 62
7
  6
CONTINUOUS
 10
52.4826819517
 20
38.5893847911
 40
5.5160073047
100
AcDbArc
 50
253.8724838229
 51
286.1275161771
  0
CIRCLE
  5
7D8
100
AcDbEntity
  8
0
100
AcDbCircle
 62
7
  6
CONTINUOUS
 10
52.4826819517
 20
38.5893847911
 40
5.35
  0
CIRCLE
  5
7D9
100
AcDbEntity
  8
0
100
AcDbCircle
 62
7
  6
CONTINUOUS
 10
52.4826819517
 20
38.5893847911
 40
4.85
  0
ARC
  5
7DA
100
AcDbEntity
  8
0
100
AcDbCircle
 62
250
  6
CONTINUOUS
 10
52.4826819517
 20
38.5893847911
 40
4.7803944007
100
AcDbArc
 50
69.0093145697
 51
69.1681365031
  0
ARC
  5
7DB
100
AcDbEntity
  8
0
100
AcDbCircle
 62
250
  6
CONTINUOUS
 10
52.4826819517
 20
38.5893847911
 40
4.7803944007
100
AcDbArc
 50
110.8317771076
 51
110.9906854303
  0
ARC
  5
7DC
100
AcDbEntity
  8
0
100
AcDbCircle
 62
250
  6
CONTINUOUS
 10
52.4826819517
 20
38.5893847911
 40
4.7803944007
100
AcDbArc
 50
249.0093145697
 51
249.1681365031
  0
ARC
  5
7DD
100
AcDbEntity
  8
0
100
AcDbCircle
 62
250
  6
CONTINUOUS
 10
52.4826819517
 20
38.5893847911
 40
4.7803944007
100
AcDbArc
 50
290.8317771076
 51
290.9906854303
  0
ARC
  5
7DE
100
AcDbEntity
  8
RACCORDO
100
AcDbCircle
 62
7
  6
CONTINUOUS
 10
52.4826819517
 20
38.5893847911
 40
4.7
100
AcDbArc
 50
114.2812062477
 51
153.984833255
  0
ARC
  5
7DF
100
AcDbEntity
  8
RACCORDO
100
AcDbCircle
 62
7
  6
CONTINUOUS
 10
52.4826819517
 20
38.5893847911
 40
4.7
100
AcDbArc
 50
294.2812643401
 51
65.7187356634
  0
ARC
  5
7E0
100
AcDbEntity
  8
RACCORDO
100
AcDbCircle
 62
7
  6
CONTINUOUS
 10
52.4826819517
 20
38.5893847911
 40
4.7
100
AcDbArc
 50
206.015166745
 51
245.7187937754
  0
ARC
  5
7E1
100
AcDbEntity
  8
0
100
AcDbCircle
 62
250
  6
CONTINUOUS
 10
52.4826819517
 20
38.5893847911
 40
4.5695606953
100
AcDbArc
 50
69.0791381144
 51
110.9208618856
  0
ARC
  5
7E2
100
AcDbEntity
  8
0
100
AcDbCircle
 62
250
  6
CONTINUOUS
 10
52.4826819517
 20
38.5893847911
 40
4.5695606953
100
AcDbArc
 50
249.0791381144
 51
290.9208618856
  0
ARC
  5
7E3
100
AcDbEntity
  8
0
100
AcDbCircle
 62
7
  6
CONTINUOUS
 10
52.4826819517
 20
38.5893847911
 40
4.2766674765
100
AcDbArc
 50
66.4898767705
 51
113.5101232295
  0
ARC
  5
7E4
100
AcDbEntity
  8
0
100
AcDbCircle
 62
7
  6
CONTINUOUS
 10
52.4826819517
 20
38.5893847911
 40
4.2766674765
100
AcDbArc
 50
246.4898767705
 51
293.5101232295
  0
ARC
  5
7E5
100
AcDbEntity
  8
RACCORDO
100
AcDbCircle
 62
250
  6
CONTINUOUS
 10
52.4826819517
 20
38.5893847911
 40
3.7
100
AcDbArc
 50
207.3532090805
 51
152.6467909195
  0
ARC
  5
7E6
100
AcDbEntity
  8
RACCORDO
100
AcDbCircle
 62
250
  6
CONTINUOUS
 10
52.4826819517
 20
38.5893847911
 40
1.7
100
AcDbArc
 50
335.6682737626
 51
24.3316407812
  0
ARC
  5
7E7
100
AcDbEntity
  8
0
100
AcDbCircle
 62
7
  6
CONTINUOUS
 10
52.4826819517
 20
38.5893847911
 40
1.6
100
AcDbArc
 50
185.3793789911
 51
174.6206210089
  0
ARC
  5
7E8
100
AcDbEntity
  8
0
100
AcDbCircle
 62
7
  6
CONTINUOUS
 10
52.4826819517
 20
38.5893847911
 40
1.0
100
AcDbArc
 50
188.6269265587
 51
171.3730734413
  0
ARC
  5
7E9
100
AcDbEntity
  8
RACCORDO
100
AcDbCircle
 62
7
  6
CONTINUOUS
 10
55.4826819517
 20
38.5893847911
 40
0.7
100
AcDbArc
 50
270.0
 51
90.0
  0
ARC
  5
7EA
100
AcDbEntity
  8
SUPERFICI
100
AcDbCircle
 62
7
  6
CONTINUOUS
 10
-8.877069158
 20
12.7759697285
 40
0.5
100
AcDbArc
 50
180.0
 51
268.5
  0
ARC
  5
7EB
100
AcDbEntity
  8
ASSI
100
AcDbCircle
 62
7
  6
CONTINUOUS
 10
-4.9305345556
 20
14.2393847911
 40
0.2
100
AcDbArc
 50
270.0
 51
345.0
  0
ARC
  5
7EC
100
AcDbEntity
  8
ASSI
100
AcDbCircle
 62
7
  6
CONTINUOUS
 10
-1.2842488349
 20
14.0393847911
 40
0.2
100
AcDbArc
 50
210.0
 51
270.0
  0
ARC
  5
7ED
100
AcDbEntity
  8
ASSI
100
AcDbCircle
 62
7
  6
CONTINUOUS
 10
-1.0879164893
 20
14.3393847911
 40
0.5
100
AcDbArc
 50
270.0
 51
295.0
  0
ARC
  5
7EE
100
AcDbEntity
  8
ASSI
100
AcDbCircle
 62
7
  6
CONTINUOUS
 10
-2.0925392118
 20
14.6393847911
 40
0.2
100
AcDbArc
 50
30.0
 51
85.6838888483
  0
ARC
  5
7EF
100
AcDbEntity
  8
ASSI
100
AcDbCircle
 62
7
  6
CONTINUOUS
 10
-2.577069158
 20
15.8342054628
 40
0.2
100
AcDbArc
 50
180.0
 51
250.0
  0
ARC
  5
7F0
100
AcDbEntity
  8
ASSI
100
AcDbCircle
 62
7
  6
CONTINUOUS
 10
-2.277069158
 20
15.2993432835
 40
0.2
100
AcDbArc
 50
0.0
 51
70.0
  0
ARC
  5
7F1
100
AcDbEntity
  8
ASSI
100
AcDbCircle
 62
7
  6
CONTINUOUS
 10
-2.277069158
 20
14.847016971
 40
0.2
100
AcDbArc
 50
271.0
 51
360.0
  0
ARC
  5
7F2
100
AcDbEntity
  8
SUPERFICI
100
AcDbCircle
 62
7
  6
CONTINUOUS
 10
-4.9993847244
 20
19.1577465864
 40
0.3
100
AcDbArc
 50
46.3156631378
 51
89.0
  0
ARC
  5
7F3
100
AcDbEntity
  8
RACCORDO
100
AcDbCircle
 62
7
  6
CONTINUOUS
 10
-4.277069158
 20
16.7893847911
 40
0.2
100
AcDbArc
 50
270.0
 51
360.0
  0
ARC
  5
7F4
100
AcDbEntity
  8
RACCORDO
100
AcDbCircle
 62
7
  6
CONTINUOUS
 10
-4.277069158
 20
16.0859242437
 40
0.2
100
AcDbArc
 50
271.0
 51
360.0
  0
ARC
  5
7F5
100
AcDbEntity
  8
RACCORDO
100
AcDbCircle
 62
7
  6
CONTINUOUS
 10
-2.577069158
 20
16.4962470362
 40
0.2
100
AcDbArc
 50
92.0
 51
180.0
  0
ARC
  5
7F6
100
AcDbEntity
  8
ASSI
100
AcDbCircle
 62
7
  6
CONTINUOUS
 10
2.5722332168
 20
13.8393847911
 40
1.5
100
AcDbArc
 50
90.0
 51
115.0
  0
ARC
  5
7F7
100
AcDbEntity
  8
RACCORDO
100
AcDbCircle
 62
7
  6
CONTINUOUS
 10
6.6251508328
 20
15.439384803
 40
0.1
100
AcDbArc
 50
270.0139401175
 51
336.6332023413
  0
ARC
  5
7F8
100
AcDbEntity
  8
RACCORDO
100
AcDbCircle
 62
7
  6
CONTINUOUS
 10
6.222930842
 20
19.3928453385
 40
0.2
100
AcDbArc
 50
0.0
 51
89.0
  0
ARC
  5
7F9
100
AcDbEntity
  8
RACCORDO
100
AcDbCircle
 62
7
  6
CONTINUOUS
 10
6.922930842
 20
18.8369891307
 40
0.2
100
AcDbArc
 50
0.0
 51
89.0
  0
ARC
  5
7FA
100
AcDbEntity
  8
RACCORDO
100
AcDbCircle
 62
7
  6
CONTINUOUS
 10
6.922930842
 20
19.0382111201
 40
0.2
100
AcDbArc
 50
0.0
 51
86.0
  0
ARC
  5
7FB
100
AcDbEntity
  8
RACCORDO
100
AcDbCircle
 62
7
  6
CONTINUOUS
 10
6.922930842
 20
17.1530441912
 40
0.2
100
AcDbArc
 50
271.0
 51
360.0
  0
ARC
  5
7FC
100
AcDbEntity
  8
RACCORDO
100
AcDbCircle
 62
7
  6
CONTINUOUS
 10
6.922930842
 20
16.3807423694
 40
0.2
100
AcDbArc
 50
336.6332023413
 51
360.0
  0
ARC
  5
7FD
100
AcDbEntity
  8
RACCORDO
100
AcDbCircle
 62
7
  6
CONTINUOUS
 10
3.722930842
 20
17.0971879834
 40
0.2
100
AcDbArc
 50
271.0
 51
360.0
  0
ARC
  5
7FE
100
AcDbEntity
  8
SUPERFICI
100
AcDbCircle
 62
7
  6
CONTINUOUS
 10
-4.9993847244
 20
58.0210229958
 40
0.3
100
AcDbArc
 50
271.0
 51
313.6843368622
  0
ARC
  5
7FF
100
AcDbEntity
  8
RACCORDO
100
AcDbCircle
 62
7
  6
CONTINUOUS
 10
-4.277069158
 20
60.3893847911
 40
0.2
100
AcDbArc
 50
0.0
 51
90.0
  0
ARC
  5
800
100
AcDbEntity
  8
RACCORDO
100
AcDbCircle
 62
7
  6
CONTINUOUS
 10
-4.277069158
 20
61.0928453385
 40
0.2
100
AcDbArc
 50
0.0
 51
89.0
  0
ARC
  5
801
100
AcDbEntity
  8
RACCORDO
100
AcDbCircle
 62
7
  6
CONTINUOUS
 10
-2.577069158
 20
60.6825225461
 40
0.2
100
AcDbArc
 50
180.0
 51
268.0
  0
ARC
  5
802
100
AcDbEntity
  8
SUPERFICI
100
AcDbCircle
 62
7
  6
CONTINUOUS
 10
-8.877069158
 20
64.4027998537
 40
0.5
100
AcDbArc
 50
91.5
 51
180.0
  0
ARC
  5
803
100
AcDbEntity
  8
ASSI
100
AcDbCircle
 62
7
  6
CONTINUOUS
 10
-1.0879164893
 20
62.8393847911
 40
0.5
100
AcDbArc
 50
65.0
 51
90.0
  0
ARC
  5
804
100
AcDbEntity
  8
ASSI
100
AcDbCircle
 62
7
  6
CONTINUOUS
 10
-1.2842488349
 20
63.1393847911
 40
0.2
100
AcDbArc
 50
90.0
 51
150.0
  0
ARC
  5
805
100
AcDbEntity
  8
ASSI
100
AcDbCircle
 62
7
  6
CONTINUOUS
 10
-4.9305345556
 20
62.9393847911
 40
0.2
100
AcDbArc
 50
15.0
 51
90.0
  0
ARC
  5
806
100
AcDbEntity
  8
ASSI
100
AcDbCircle
 62
7
  6
CONTINUOUS
 10
-2.0925392118
 20
62.5393847911
 40
0.2
100
AcDbArc
 50
274.3466611405
 51
330.0
  0
ARC
  5
807
100
AcDbEntity
  8
ASSI
100
AcDbCircle
 62
7
  6
CONTINUOUS
 10
-2.577069158
 20
61.3445641195
 40
0.2
100
AcDbArc
 50
110.0
 51
180.0
  0
ARC
  5
808
100
AcDbEntity
  8
ASSI
100
AcDbCircle
 62
7
  6
CONTINUOUS
 10
-2.277069158
 20
61.8794262988
 40
0.2
100
AcDbArc
 50
290.0
 51
360.0
  0
ARC
  5
809
100
AcDbEntity
  8
ASSI
100
AcDbCircle
 62
7
  6
CONTINUOUS
 10
-2.277069158
 20
62.3317526113
 40
0.2
100
AcDbArc
 50
0.0
 51
89.0
  0
ARC
  5
80A
100
AcDbEntity
  8
RACCORDO
100
AcDbCircle
 62
7
  6
CONTINUOUS
 10
6.222930842
 20
57.7859242437
 40
0.2
100
AcDbArc
 50
271.0
 51
360.0
  0
ARC
  5
80B
100
AcDbEntity
  8
RACCORDO
100
AcDbCircle
 62
7
  6
CONTINUOUS
 10
6.922930842
 20
58.3417804515
 40
0.2
100
AcDbArc
 50
271.0
 51
360.0
  0
ARC
  5
80C
100
AcDbEntity
  8
RACCORDO
100
AcDbCircle
 62
7
  6
CONTINUOUS
 10
6.922930842
 20
58.1405584621
 40
0.2
100
AcDbArc
 50
274.0
 51
360.0
  0
ARC
  5
80D
100
AcDbEntity
  8
RACCORDO
100
AcDbCircle
 62
7
  6
CONTINUOUS
 10
3.722930842
 20
60.0815815988
 40
0.2
100
AcDbArc
 50
0.0
 51
88.999999997
  0
ARC
  5
80E
100
AcDbEntity
  8
RACCORDO
100
AcDbCircle
 62
7
  6
CONTINUOUS
 10
6.922930842
 20
60.0257253911
 40
0.2
100
AcDbArc
 50
0.0
 51
89.0
  0
ARC
  5
80F
100
AcDbEntity
  8
RACCORDO
100
AcDbCircle
 62
7
  6
CONTINUOUS
 10
6.922930842
 20
60.7980272128
 40
0.2
100
AcDbArc
 50
0.0
 51
23.3667976587
  0
ARC
  5
810
100
AcDbEntity
  8
ASSI
100
AcDbCircle
 62
7
  6
CONTINUOUS
 10
2.5722332168
 20
63.3393847911
 40
1.5
100
AcDbArc
 50
245.0
 51
270.0
  0
ARC
  5
811
100
AcDbEntity
  8
RACCORDO
100
AcDbCircle
 62
7
  6
CONTINUOUS
 10
6.6251508277
 20
61.7393847911
 40
0.1
100
AcDbArc
 50
23.3667976587
 51
90.0
  0
ARC
  5
812
100
AcDbEntity
  8
RACCORDO
100
AcDbCircle
 62
7
  6
CONTINUOUS
 10
26.922930842
 20
20.9206908907
 40
1.0
100
AcDbArc
 50
270.4999969877
 51
360.0
  0
ARC
  5
813
100
AcDbEntity
  8
SUPERFICI
100
AcDbCircle
 62
7
  6
CONTINUOUS
 10
26.922930842
 20
20.9206908907
 40
1.0
100
AcDbArc
 50
270.4999969877
 51
360.0
  0
ARC
  5
814
100
AcDbEntity
  8
VARIANTE_COLORE
100
AcDbCircle
 62
7
  6
CONTINUOUS
 10
26.922930842
 20
20.9206908907
 40
1.0
100
AcDbArc
 50
270.4999969877
 51
360.0
  0
ARC
  5
815
100
AcDbEntity
  8
RACCORDO
100
AcDbCircle
 62
7
  6
CONTINUOUS
 10
26.922930842
 20
56.2580786916
 40
1.0
100
AcDbArc
 50
0.00034519
 51
89.5000030123
  0
ARC
  5
816
100
AcDbEntity
  8
SUPERFICI
100
AcDbCircle
 62
7
  6
CONTINUOUS
 10
26.922930842
 20
56.2580786916
 40
1.0
100
AcDbArc
 50
0.00034519
 51
89.5000030123
  0
ARC
  5
817
100
AcDbEntity
  8
VARIANTE_COLORE
100
AcDbCircle
 62
7
  6
CONTINUOUS
 10
26.922930842
 20
56.2580786916
 40
1.0
100
AcDbArc
 50
0.00034519
 51
89.5000030123
  0
ELLIPSE
  5
818
100
AcDbEntity
  8
SUPERFICI
100
AcDbEllipse
 62
7
  6
CONTINUOUS
 10
41.8828533479
 20
12.6895561874
 30
0.0
 11
0.35379574
 21
0.35379574
 31
0.0
 40
0.999315002
 41
2.3565371065
 42
3.9266482006
  0
ELLIPSE
  5
819
100
AcDbEntity
  8
SUPERFICI
100
AcDbEllipse
 62
7
  6
CONTINUOUS
 10
63.0825105555
 20
12.6895561874
 30
0.0
 11
0.35379574
 21
-0.35379574
 31
0.0
 40
0.999315002
 41
-0.7850555471
 42
0.7850555471
  0
ELLIPSE
  5
81A
100
AcDbEntity
  8
SUPERFICI
100
AcDbEllipse
 62
7
  6
CONTINUOUS
 10
63.0825105555
 20
64.4892133949
 30
0.0
 11
-0.35379574
 21
-0.35379574
 31
0.0
 40
0.999315002
 41
2.3565371065
 42
3.9266482006
  0
ELLIPSE
  5
81B
100
AcDbEntity
  8
SUPERFICI
100
AcDbEllipse
 62
7
  6
CONTINUOUS
 10
41.8828533479
 20
64.4892133949
 30
0.0
 11
-0.35379574
 21
0.35379574
 31
0.0
 40
0.999315002
 41
-0.7850555471
 42
0.7850555471
  0
ELLIPSE
  5
81C
100
AcDbEntity
  8
RACCORDO
100
AcDbEllipse
 62
7
  6
CONTINUOUS
 10
-147.7215607702
 20
31.286827049
 30
0.0
 11
591.6544903202
 21
21.9522363776
 31
0.0
 40
0.0348940885
 41
1.324596945
 42
1.3265493164
  0
ELLIPSE
  5
81D
100
AcDbEntity
  8
RACCORDO
100
AcDbEllipse
 62
7
  6
CONTINUOUS
 10
-147.7215607702
 20
45.8919425333
 30
0.0
 11
591.6544903202
 21
-21.9522363776
 31
0.0
 40
0.0348940885
 41
-1.3265493164
 42
-1.324596945
  0
ELLIPSE
  5
81E
100
AcDbEntity
  8
0
100
AcDbEllipse
 62
7
  6
CONTINUOUS
 10
-1355.2680400558
 20
38.5893847911
 30
0.0
 11
1491.5228640581
 21
0.0
 31
0.0
 40
0.0302453443
 41
6.7204492196
 42
6.7217244522
  0
ELLIPSE
  5
81F
100
AcDbEntity
  8
0
100
AcDbEllipse
 62
7
  6
CONTINUOUS
 10
-1355.2680400558
 20
38.5893847911
 30
0.0
 11
1491.5228640581
 21
0.0
 31
0.0
 40
0.0302453443
 41
5.8446461622
 42
5.8459213948
  0
ELLIPSE
  5
820
100
AcDbEntity
  8
RACCORDO
100
AcDbEllipse
 62
7
  6
CONTINUOUS
 10
3.722930842
 20
58.8101610761
 30
0.0
 11
0.1999945198
 21
-0.0032927393
 31
0.0
 40
0.4496437241
 41
-1.5459401688
 42
0.0074028654
  0
ELLIPSE
  5
821
100
AcDbEntity
  8
RACCORDO
100
AcDbEllipse
 62
7
  6
CONTINUOUS
 10
3.722930842
 20
18.3686085061
 30
0.0
 11
0.1999945198
 21
0.0032927393
 31
0.0
 40
0.4496437241
 41
-0.0074028654
 42
1.5459401688
  0
ENDSEC
  0
SECTION
  2
OBJECTS
  0
DICTIONARY
  5
C
100
AcDbDictionary
280
0
281
1
  3
ACAD_GROUP
350
D
  3
ACAD_MLINESTYLE
350
17
  3
ACAD_LAYOUT
350
1A
  3
ACAD_PLOTSETTINGS
350
19
  3
ACAD_PLOTSTYLENAME
350
E
  0
DICTIONARY
  5
D
102
{ACAD_REACTORS
330
C
102
}
100
AcDbDictionary
280
0
281
1
  0
ACDBDICTIONARYWDFLT
  5
E
102
{ACAD_REACTORS
330
C
102
}
100
AcDbDictionary
281
1
  3
Normal
350
F
100
AcDbDictionaryWithDefault
340
F
  0
DICTIONARY
  5
17
102
{ACAD_REACTORS
330
C
102
}
100
AcDbDictionary
280
0
281
1
  3
Standard
350
18
  0
DICTIONARY
  5
19
102
{ACAD_REACTORS
330
C
102
}
100
AcDbDictionary
281
1
  0
DICTIONARY
  5
1A
102
{ACAD_REACTORS
330
C
102
}
100
AcDbDictionary
281
1
  3
Model
350
822
  3
Layout1
350
823
  0
ACDBPLACEHOLDER
  5
F
102
{ACAD_REACTORS
330
E
102
}
  0
MLINESTYLE
  5
18
102
{ACAD_REACTORS
330
17
102
}
100
AcDbMlineStyle
  2
STANDARD
 70
0
  3

 62
256
 51
90.0
 52
90.0
 71
2
 49
0.5
 62
256
  6
BYLAYER
 49
-0.5
 62
256
  6
BYLAYER
  0
LAYOUT
  5
822
102
{ACAD_REACTORS
330
1A
102
}
100
AcDbPlotSettings
  1

  2
none_device
  4
ISO_A4_(297.00_x_210.00_MM)
  6

 40
0.0
 41
0.0
 42
0.0
 43
0.0
 44
297.0
 45
210.0
 46
0.0
 47
0.0
 48
0.0
 49
0.0
140
0.0
141
0.0
142
1.0
143
1.0
 70
1024
 72
1
 73
0
 74
0
  7

 75
0
147
1.0
148
0.0
149
0.0
100
AcDbLayout
  1
Model
 70
0
 71
0
 10
0.0
 20
0.0
 11
297.0
 21
210.0
 12
0.0
 22
0.0
 32
0.0
 14
0.0
 24
0.0
 34
0.0
 15
0.0
 25
0.0
 35
0.0
146
0.0
 13
0.0
 23
0.0
 33
0.0
 16
1.0
 26
0.0
 36
0.0
 17
0.0
 27
1.0
 37
0.0
 76
0
330
219
345
0
346
0
  0
LAYOUT
  5
823
102
{ACAD_REACTORS
330
1A
102
}
100
AcDbPlotSettings
  1

  2
none_device
  4
ISO_A4_(297.00_x_210.00_MM)
  6

 40
0.0
 41
0.0
 42
0.0
 43
0.0
 44
297.0
 45
210.0
 46
0.0
 47
0.0
 48
0.0
 49
0.0
140
0.0
141
0.0
142
1.0
143
1.0
 70
0
 72
1
 73
0
 74
0
  7

 75
0
147
1.0
148
0.0
149
0.0
100
AcDbLayout
  1
Layout1
 70
0
 71
1
 10
0.0
 20
0.0
 11
297.0
 21
210.0
 12
0.0
 22
0.0
 32
0.0
 14
0.0
 24
0.0
 34
0.0
 15
0.0
 25
0.0
 35
0.0
146
0.0
 13
0.0
 23
0.0
 33
0.0
 16
1.0
 26
0.0
 36
0.0
 17
0.0
 27
1.0
 37
0.0
 76
0
330
21A
345
0
346
0
  0
ENDSEC
  0
EOF
