  0
SECTION
  2
HEADER
  9
$ACADVER
  1
AC1024
  9
$DWGCODEPAGE
  3
ANSI_1252
  9
$EXTMAX
 10
297.0
 20
210.0
 30
0.0
  9
$EXTMIN
 10
0.0
 20
0.0
 30
0.0
  9
$LIMMIN
 10
0.0
 20
0.0
  9
$LIMMAX
 10
297.0
 20
210.0
  9
$VIEWCTR
 10
148.5
 20
105.0
  9
$VIEWSIZE
 40
210.0
  9
$CLAYER
  8
0
  9
$LTSCALE
 40
16.335
  9
$CELTYPE
  6
BYLAYER
  9
$DIMSCALE
 40
1.0
  9
$DIMASZ
 40
3.0
  9
$DIMEXO
 40
0.5
  9
$DIMDLI
 40
11.286
  9
$DIMEXE
 40
1.5
  9
$DIMCEN
 40
2.673
  9
$DIMLFAC
 40
1.0
  9
$DIMBLK
  1
_FILLED
  9
$DIMALT
 70
0
  9
$DIMALTF
 40
0.0393700787
  9
$DIMTXT
 40
3.0
  9
$DIMTOL
 70
1
  9
$DIMLIM
 70
0
  9
$DIMTFAC
 40
1.0
  9
$DIMTP
 40
0.01
  9
$DIMTM
 40
0.01
  9
$DIMGAP
 40
0.625
  9
$DIMDSEP
 70
44
  9
$AUNITS
 70
0
  9
$PDMODE
 70
3
  9
$PDSIZE
 40
3.0
  9
$HANDSEED
  5
677
  9
$TILEMODE
 70
1
  9
$MEASUREMENT
 70
1
  9
$INSUNITS
 70
4
  0
ENDSEC
  0
SECTION
  2
CLASSES
  0
CLASS
  1
ACDBDICTIONARYWDFLT
  2
AcDbDictionaryWithDefault
  3
AutoCAD 2000
 90
0
 91
1
280
0
281
0
  0
CLASS
  1
ACDBPLACEHOLDER
  2
AcDbPlaceHolder
  3
AutoCAD 2000
 90
0
 91
1
280
0
281
0
  0
CLASS
  1
LAYOUT
  2
AcDbLayout
  3
AutoCAD 2000
 90
0
 91
0
280
0
281
0
  0
ENDSEC
  0
SECTION
  2
TABLES
  0
TABLE
  2
VPORT
  5
8
100
AcDbSymbolTable
 70
2
  0
VPORT
  5
1F4
100
AcDbSymbolTableRecord
100
AcDbViewportTableRecord
  2
*ACTIVE
 70
0
 10
0.0
 20
0.0
 11
1.0
 21
1.0
 12
148.5
 22
105.0
 13
0.0
 23
0.0
 14
1.0
 24
1.0
 15
0.0
 25
0.0
 16
0.0
 26
0.0
 36
1.0
 17
0.0
 27
0.0
 37
0.0
 40
210.0
 41
1.4142857143
 42
50.0
 43
0.0
 44
0.0
 50
0.0
 51
0.0
 71
0
 72
100
 73
1
 74
1
 75
0
 76
0
 77
0
 78
0
  0
ENDTAB
  0
TABLE
  2
LTYPE
  5
5
100
AcDbSymbolTable
 70
6
  0
LTYPE
  5
14
100
AcDbSymbolTableRecord
100
AcDbLinetypeTableRecord
  2
BYBLOCK
 70
0
  3

 72
65
 73
0
 40
0.0
  0
LTYPE
  5
15
100
AcDbSymbolTableRecord
100
AcDbLinetypeTableRecord
  2
BYLAYER
 70
0
  3

 72
65
 73
0
 40
0.0
  0
LTYPE
  5
16
100
AcDbSymbolTableRecord
100
AcDbLinetypeTableRecord
  2
CONTINUOUS
 70
64
  3
Solid line
 72
65
 73
0
 40
0.0
  0
LTYPE
  5
1F5
100
AcDbSymbolTableRecord
100
AcDbLinetypeTableRecord
  2
CENTER
 70
64
  3
____ _ ____ _ ____ _ ____ _ ____ _ ____ _ ____
 72
65
 73
4
 40
0.6
 49
0.375
 74
0
 49
-0.075
 74
0
 49
0.075
 74
0
 49
-0.075
 74
0
  0
LTYPE
  5
1F6
100
AcDbSymbolTableRecord
100
AcDbLinetypeTableRecord
  2
HIDDEN
 70
64
  3
- - - - - - - - - - - - - - - - - - - -
 72
65
 73
2
 40
0.2
 49
0.1
 74
0
 49
-0.1
 74
0
  0
LTYPE
  5
1F7
100
AcDbSymbolTableRecord
100
AcDbLinetypeTableRecord
  2
PHANTOM
 70
64
  3
_____ _ _ _____ _ _ _____ _ _ _____
 72
65
 73
6
 40
0.8
 49
0.45
 74
0
 49
-0.05
 74
0
 49
0.1
 74
0
 49
-0.05
 74
0
 49
0.1
 74
0
 49
-0.05
 74
0
  0
LTYPE
  5
1F8
100
AcDbSymbolTableRecord
100
AcDbLinetypeTableRecord
  2
DOT
 70
64
  3
. . . . . . . . . . . . . . . . . . . .
 72
65
 73
2
 40
0.2
 49
0.1
 74
0
 49
-0.1
 74
0
  0
LTYPE
  5
1F9
100
AcDbSymbolTableRecord
100
AcDbLinetypeTableRecord
  2
DASHED
 70
64
  3
- - - - - - - - - - - - - - - - - - - -
 72
65
 73
2
 40
0.2
 49
0.1
 74
0
 49
-0.1
 74
0
  0
ENDTAB
  0
TABLE
  2
LAYER
  5
2
100
AcDbSymbolTable
 70
36
  0
LAYER
  5
10
100
AcDbSymbolTableRecord
100
AcDbLayerTableRecord
  2
0
 70
0
 62
7
  6
CONTINUOUS
370
-3
390
F
  0
LAYER
  5
1FA
100
AcDbSymbolTableRecord
100
AcDbLayerTableRecord
  2
DEFAULT_1
 70
0
 62
7
  6
CENTER
370
-3
390
F
  0
LAYER
  5
1FB
100
AcDbSymbolTableRecord
100
AcDbLayerTableRecord
  2
DEFAULT_2
 70
0
 62
7
  6
HIDDEN
370
-3
390
F
  0
LAYER
  5
1FC
100
AcDbSymbolTableRecord
100
AcDbLayerTableRecord
  2
DEFAULT_3
 70
0
 62
7
  6
PHANTOM
370
-3
390
F
  0
LAYER
  5
1FD
100
AcDbSymbolTableRecord
100
AcDbLayerTableRecord
  2
ASSI
 70
0
 62
7
  6
CONTINUOUS
370
-3
390
F
  0
LAYER
  5
1FE
100
AcDbSymbolTableRecord
100
AcDbLayerTableRecord
  2
COORDINATE
 70
0
 62
7
  6
CONTINUOUS
370
-3
390
F
  0
LAYER
  5
1FF
100
AcDbSymbolTableRecord
100
AcDbLayerTableRecord
  2
COORD_ORIGINE
 70
0
 62
7
  6
CONTINUOUS
370
-3
390
F
  0
LAYER
  5
200
100
AcDbSymbolTableRecord
100
AcDbLayerTableRecord
  2
COPY_PUBLISH
 70
0
 62
7
  6
CONTINUOUS
370
-3
390
F
  0
LAYER
  5
201
100
AcDbSymbolTableRecord
100
AcDbLayerTableRecord
  2
COSMETICHE
 70
0
 62
7
  6
CONTINUOUS
370
-3
390
F
  0
LAYER
  5
202
100
AcDbSymbolTableRecord
100
AcDbLayerTableRecord
  2
COSMETICI
 70
0
 62
7
  6
CONTINUOUS
370
-3
390
F
  0
LAYER
  5
203
100
AcDbSymbolTableRecord
100
AcDbLayerTableRecord
  2
CURVE
 70
0
 62
7
  6
CONTINUOUS
370
-3
390
F
  0
LAYER
  5
204
100
AcDbSymbolTableRecord
100
AcDbLayerTableRecord
  2
DRAFT
 70
0
 62
7
  6
CONTINUOUS
370
-3
390
F
  0
LAYER
  5
205
100
AcDbSymbolTableRecord
100
AcDbLayerTableRecord
  2
IMPORT_IGES
 70
0
 62
7
  6
CONTINUOUS
370
-3
390
F
  0
LAYER
  5
206
100
AcDbSymbolTableRecord
100
AcDbLayerTableRecord
  2
INTF_9
 70
0
 62
7
  6
CONTINUOUS
370
-3
390
F
  0
LAYER
  5
207
100
AcDbSymbolTableRecord
100
AcDbLayerTableRecord
  2
NOTE
 70
0
 62
7
  6
CONTINUOUS
370
-3
390
F
  0
LAYER
  5
208
100
AcDbSymbolTableRecord
100
AcDbLayerTableRecord
  2
PIANI
 70
0
 62
7
  6
CONTINUOUS
370
-3
390
F
  0
LAYER
  5
209
100
AcDbSymbolTableRecord
100
AcDbLayerTableRecord
  2
PIANI_ORIGINE
 70
0
 62
7
  6
CONTINUOUS
370
-3
390
F
  0
LAYER
  5
20A
100
AcDbSymbolTableRecord
100
AcDbLayerTableRecord
  2
PUNTI
 70
0
 62
7
  6
CONTINUOUS
370
-3
390
F
  0
LAYER
  5
20B
100
AcDbSymbolTableRecord
100
AcDbLayerTableRecord
  2
RACCORDO
 70
0
 62
7
  6
CONTINUOUS
370
-3
390
F
  0
LAYER
  5
20C
100
AcDbSymbolTableRecord
100
AcDbLayerTableRecord
  2
SIMBOLI
 70
0
 62
7
  6
CONTINUOUS
370
-3
390
F
  0
LAYER
  5
20D
100
AcDbSymbolTableRecord
100
AcDbLayerTableRecord
  2
SMUSSO
 70
0
 62
7
  6
CONTINUOUS
370
-3
390
F
  0
LAYER
  5
20E
100
AcDbSymbolTableRecord
100
AcDbLayerTableRecord
  2
SNAPLINE
 70
0
 62
7
  6
CONTINUOUS
370
-3
390
F
  0
LAYER
  5
20F
100
AcDbSymbolTableRecord
100
AcDbLayerTableRecord
  2
SUPERFICI
 70
0
 62
7
  6
CONTINUOUS
370
-3
390
F
  0
LAYER
  5
210
100
AcDbSymbolTableRecord
100
AcDbLayerTableRecord
  2
TRASH
 70
0
 62
7
  6
CONTINUOUS
370
-3
390
F
  0
ENDTAB
  0
TABLE
  2
STYLE
  5
3
100
AcDbSymbolTable
 70
1
  0
STYLE
  5
11
100
AcDbSymbolTableRecord
100
AcDbTextStyleTableRecord
  2
STANDARD
 70
0
 40
0.0
 41
0.8
 50
0.0
 71
0
 42
0.2
  3
txt
  4

  0
STYLE
  5
211
100
AcDbSymbolTableRecord
100
AcDbTextStyleTableRecord
  2
TEXTSTYLE_1
 70
0
 40
0.0
 41
0.8
 50
0.0
 71
0
 42
0.2
  3
gdt
  4

  0
ENDTAB
  0
TABLE
  2
VIEW
  5
6
100
AcDbSymbolTable
 70
0
  0
ENDTAB
  0
TABLE
  2
UCS
  5
7
100
AcDbSymbolTable
 70
0
  0
ENDTAB
  0
TABLE
  2
APPID
  5
9
100
AcDbSymbolTable
 70
1
  0
APPID
  5
212
100
AcDbSymbolTableRecord
100
AcDbRegAppTableRecord
  2
ACAD
 70
0
  0
ENDTAB
  0
TABLE
  2
BLOCK_RECORD
  5
1
100
AcDbSymbolTable
 70
0
  0
BLOCK_RECORD
  5
213
100
AcDbSymbolTableRecord
100
AcDbBlockTableRecord
  2
*Model_Space
  0
BLOCK_RECORD
  5
214
100
AcDbSymbolTableRecord
100
AcDbBlockTableRecord
  2
*Paper_Space
  0
BLOCK_RECORD
  5
215
100
AcDbSymbolTableRecord
100
AcDbBlockTableRecord
  2
_FILLED
  0
BLOCK_RECORD
  5
216
100
AcDbSymbolTableRecord
100
AcDbBlockTableRecord
  2
*D0
  0
BLOCK_RECORD
  5
217
100
AcDbSymbolTableRecord
100
AcDbBlockTableRecord
  2
*D1
  0
BLOCK_RECORD
  5
218
100
AcDbSymbolTableRecord
100
AcDbBlockTableRecord
  2
*D2
  0
ENDTAB
  0
TABLE
  2
DIMSTYLE
  5
A
100
AcDbSymbolTable
 70
1
100
AcDbDimStyleTable
 71
0
  0
DIMSTYLE
105
219
100
AcDbSymbolTableRecord
100
AcDbDimStyleTableRecord
  2
STANDARD
 70
0
  3

  4

 40
1.0
 41
3.0
 42
0.5
 43
0.38
 44
1.5
 45
0.0
 46
0.0
 47
0.01
 48
0.01
140
3.0
141
0.09
142
0.0
143
25.4
144
1.0
145
0.0
146
1.0
147
0.625
 71
1
 72
0
 73
0
 74
0
 75
0
 76
0
 77
1
 78
8
 79
2
170
0
171
1
172
0
173
0
174
0
175
0
176
0
177
0
178
0
270
2
179
2
271
2
272
2
273
2
274
2
275
0
280
0
281
0
282
0
283
1
284
8
285
0
286
0
287
3
288
0
340
11
278
44
341
215
342
215
343
215
344
215
  0
DIMSTYLE
105
21A
100
AcDbSymbolTableRecord
100
AcDbDimStyleTableRecord
  2
DIMSTYLE_1
 70
0
  3

  4

 40
1.0
 41
3.0
 42
0.5
 43
0.38
 44
1.5
 45
0.0
 46
0.0
 47
0.0
 48
0.0
140
3.0
141
0.09
142
0.0
143
25.4
144
1.0
145
0.0
146
1.0
147
0.75
 71
0
 72
0
 73
0
 74
0
 75
0
 76
0
 77
1
 78
8
 79
2
170
0
171
1
172
0
173
0
174
0
175
0
176
0
177
0
178
0
270
2
179
2
271
2
272
2
273
2
274
2
275
0
280
0
281
0
282
0
283
1
284
8
285
0
286
0
287
3
288
0
340
11
278
44
341
215
342
215
343
215
344
215
  0
DIMSTYLE
105
21B
100
AcDbSymbolTableRecord
100
AcDbDimStyleTableRecord
  2
DIMSTYLE_2
 70
0
  3

  4

 40
1.0
 41
3.0
 42
0.5
 43
0.38
 44
1.5
 45
0.0
 46
0.0
 47
0.0
 48
0.0
140
3.0
141
0.09
142
0.0
143
25.4
144
1.0
145
0.0
146
1.0
147
0.75
 71
0
 72
0
 73
0
 74
0
 75
0
 76
0
 77
1
 78
8
 79
2
170
0
171
1
172
0
173
0
174
0
175
0
176
0
177
0
178
0
270
2
179
2
271
1
272
1
273
2
274
2
275
0
280
0
281
0
282
0
283
1
284
8
285
0
286
0
287
3
288
0
340
11
278
44
341
215
342
215
343
215
344
215
  0
ENDTAB
  0
ENDSEC
  0
SECTION
  2
BLOCKS
  0
BLOCK
  5
20
100
AcDbEntity
  8
0
100
AcDbBlockBegin
  2
*Model_Space
 70
0
 10
0.0
 20
0.0
 30
0.0
  3
*Model_Space
  1

  0
ENDBLK
  5
21
100
AcDbEntity
  8
0
100
AcDbBlockEnd
  0
BLOCK
  5
1C
100
AcDbEntity
  8
0
100
AcDbBlockBegin
  2
*Paper_Space
 70
0
 10
0.0
 20
0.0
 30
0.0
  3
*Paper_Space
  1

  0
ENDBLK
  5
1D
100
AcDbEntity
  8
0
100
AcDbBlockEnd
  0
BLOCK
  5
21C
100
AcDbEntity
  8
0
100
AcDbBlockBegin
  2
_FILLED
 70
64
 10
0.0
 20
0.0
  3
_FILLED
  1

  0
SOLID
  5
21D
100
AcDbEntity
  8
0
  6
BYBLOCK
 62
0
100
AcDbTrace
 10
0.0
 20
0.0
 11
-1.0
 21
0.3166666667
 12
-1.0
 22
-0.3166666667
 13
-1.0
 23
-0.3166666667
  0
ENDBLK
  5
21E
100
AcDbEntity
  8
0
  6
BYBLOCK
 62
0
100
AcDbBlockEnd
  0
BLOCK
  5
21F
100
AcDbEntity
  8
0
100
AcDbBlockBegin
 62
7
  6
CONTINUOUS
  2
*D0
 70
65
 10
0.0
 20
0.0
  3
*D0
  1

  0
MTEXT
  5
220
100
AcDbEntity
  8
0
100
AcDbMText
 62
7
  6
CONTINUOUS
  7
STANDARD
 71
2
 72
1
 10
-18.6178484008
 20
80.9679456384
 30
0.0
 11
1.0
 21
0.0
 31
0.0
 73
2
 44
0.9
  1
{\ftxt;\W0.0001;\H0.0001;\~}{\ftxt;\W2.1428571429;\H3.0; }{\ftxt;\W0.0001;\H0.0001;\~}
 40
3.0
 41
9.6428571429
  0
LINE
  5
221
100
AcDbEntity
  8
0
100
AcDbLine
 62
7
  6
CONTINUOUS
 10
-15.2678484008
 20
68.2188593979
 11
-15.2678484008
 21
78.7179456384
  0
LINE
  5
222
100
AcDbEntity
  8
0
100
AcDbLine
 62
7
  6
CONTINUOUS
 10
-21.9678484008
 20
60.3523131627
 11
-21.9678484008
 21
78.7179456384
  0
LINE
  5
223
100
AcDbEntity
  8
0
100
AcDbLine
 62
7
  6
CONTINUOUS
 10
-15.2678484008
 20
77.2179456384
 11
-11.2678484008
 21
77.2179456384
  0
LINE
  5
224
100
AcDbEntity
  8
0
100
AcDbLine
 62
7
  6
CONTINUOUS
 10
-11.2678484008
 20
77.2179456384
 11
-18.6178484008
 21
77.2179456384
  0
LINE
  5
225
100
AcDbEntity
  8
0
100
AcDbLine
 62
7
  6
CONTINUOUS
 10
-21.9678484008
 20
77.2179456384
 11
-25.9678484008
 21
77.2179456384
  0
LINE
  5
226
100
AcDbEntity
  8
0
100
AcDbLine
 62
7
  6
CONTINUOUS
 10
-25.9678484008
 20
77.2179456384
 11
-18.6178484008
 21
77.2179456384
  0
INSERT
  5
227
100
AcDbEntity
  8
0
100
AcDbBlockReference
 62
7
  6
CONTINUOUS
  2
_FILLED
 10
-15.2678484008
 20
77.2179456384
 41
3.0
 42
3.0
 43
3.0
 50
180.0
  0
INSERT
  5
228
100
AcDbEntity
  8
0
100
AcDbBlockReference
 62
7
  6
CONTINUOUS
  2
_FILLED
 10
-21.9678484008
 20
77.2179456384
 41
3.0
 42
3.0
 43
3.0
  0
ENDBLK
  5
229
100
AcDbEntity
  8
0
  6
BYBLOCK
 62
0
100
AcDbBlockEnd
  0
BLOCK
  5
22A
100
AcDbEntity
  8
0
100
AcDbBlockBegin
 62
7
  6
CONTINUOUS
  2
*D1
 70
65
 10
0.0
 20
0.0
  3
*D1
  1

  0
MTEXT
  5
22B
100
AcDbEntity
  8
0
100
AcDbMText
 62
7
  6
CONTINUOUS
  7
STANDARD
 71
2
 72
1
 10
45.6126183094
 20
80.9679456384
 30
0.0
 11
1.0
 21
0.0
 31
0.0
 73
2
 44
0.9
  1
{\ftxt;\W0.0001;\H0.0001;\~}{\ftxt;\W2.9285714286;\H3.0; }{\ftxt;\W0.0001;\H0.0001;\~}
 40
3.0
 41
13.1785714286
  0
LINE
  5
22C
100
AcDbEntity
  8
0
100
AcDbLine
 62
7
  6
CONTINUOUS
 10
10.4335707711
 20
46.5168508186
 11
10.4335707711
 21
78.7179456384
  0
LINE
  5
22D
100
AcDbEntity
  8
0
100
AcDbLine
 62
7
  6
CONTINUOUS
 10
80.7916658477
 20
46.5168508186
 11
80.7916658477
 21
78.7179456384
  0
LINE
  5
22E
100
AcDbEntity
  8
0
100
AcDbLine
 62
7
  6
CONTINUOUS
 10
10.4335707711
 20
77.2179456384
 11
45.6126183094
 21
77.2179456384
  0
LINE
  5
22F
100
AcDbEntity
  8
0
100
AcDbLine
 62
7
  6
CONTINUOUS
 10
80.7916658477
 20
77.2179456384
 11
45.6126183094
 21
77.2179456384
  0
INSERT
  5
230
100
AcDbEntity
  8
0
100
AcDbBlockReference
 62
7
  6
CONTINUOUS
  2
_FILLED
 10
10.4335707711
 20
77.2179456384
 41
3.0
 42
3.0
 43
3.0
 50
180.0
  0
INSERT
  5
231
100
AcDbEntity
  8
0
100
AcDbBlockReference
 62
7
  6
CONTINUOUS
  2
_FILLED
 10
80.7916658477
 20
77.2179456384
 41
3.0
 42
3.0
 43
3.0
 50
0.0
  0
ENDBLK
  5
232
100
AcDbEntity
  8
0
  6
BYBLOCK
 62
0
100
AcDbBlockEnd
  0
BLOCK
  5
233
100
AcDbEntity
  8
0
100
AcDbBlockBegin
 62
7
  6
CONTINUOUS
  2
*D2
 70
65
 10
0.0
 20
0.0
  3
*D2
  1

  0
MTEXT
  5
234
100
AcDbEntity
  8
0
100
AcDbMText
 62
7
  6
CONTINUOUS
  7
STANDARD
 71
2
 72
1
 10
85.0416658477
 20
34.0388981001
 30
0.0
 11
0.0
 21
1.0
 31
0.0
 73
2
 44
0.9
  1
{\ftxt;\W0.0001;\H0.0001;\~}{\ftxt;\W2.9285714286;\H3.0; }{\ftxt;\W0.0001;\H0.0001;\~}
 40
3.0
 41
13.1785714286
  0
LINE
  5
235
100
AcDbEntity
  8
0
100
AcDbLine
 62
7
  6
CONTINUOUS
 10
75.9925796072
 20
69.2179456384
 11
90.2916658477
 21
69.2179456384
  0
LINE
  5
236
100
AcDbEntity
  8
0
100
AcDbLine
 62
7
  6
CONTINUOUS
 10
70.7925796072
 20
-1.1401494382
 11
90.2916658477
 21
-1.1401494382
  0
LINE
  5
237
100
AcDbEntity
  8
0
100
AcDbLine
 62
7
  6
CONTINUOUS
 10
88.7916658477
 20
69.2179456384
 11
88.7916658477
 21
34.0388981001
  0
LINE
  5
238
100
AcDbEntity
  8
0
100
AcDbLine
 62
7
  6
CONTINUOUS
 10
88.7916658477
 20
-1.1401494382
 11
88.7916658477
 21
34.0388981001
  0
INSERT
  5
239
100
AcDbEntity
  8
0
100
AcDbBlockReference
 62
7
  6
CONTINUOUS
  2
_FILLED
 10
88.7916658477
 20
69.2179456384
 41
3.0
 42
3.0
 43
3.0
 50
90.0
  0
INSERT
  5
23A
100
AcDbEntity
  8
0
100
AcDbBlockReference
 62
7
  6
CONTINUOUS
  2
_FILLED
 10
88.7916658477
 20
-1.1401494382
 41
3.0
 42
3.0
 43
3.0
 50
270.0
  0
ENDBLK
  5
23B
100
AcDbEntity
  8
0
  6
BYBLOCK
 62
0
100
AcDbBlockEnd
  0
ENDSEC
  0
SECTION
  2
ENTITIES
  0
DIMENSION
  5
23C
100
AcDbEntity
  8
0
100
AcDbDimension
 62
7
  6
CONTINUOUS
  2
*D0
 10
-21.9678484008
 20
77.2179456384
 11
-19.0464194126
 21
77.2179456384
 70
160
 71
2
 72
2
 41
0.9
 42
6.7
  1
{\ftxt;\W0.0001;\H0.0001;\~}{\ftxt;\W2.1428571429;\H3.0; }{\ftxt;\W0.0001;\H0.0001;\~}
  3
DIMSTYLE_1
100
AcDbAlignedDimension
 13
-15.2678484008
 23
67.7188593979
 14
-21.9678484008
 24
59.8523131627
 50
180.0
100
AcDbRotatedDimension
  0
DIMENSION
  5
23D
100
AcDbEntity
  8
0
100
AcDbDimension
 62
7
  6
CONTINUOUS
  2
*D1
 10
80.7916658477
 20
77.2179456384
 11
45.1840480499
 21
77.2179456384
 70
160
 71
2
 72
2
 41
0.9
 42
70.3580950766
  1
{\ftxt;\W0.0001;\H0.0001;\~}{\ftxt;\W2.9285714286;\H3.0; }{\ftxt;\W0.0001;\H0.0001;\~}
  3
DIMSTYLE_2
100
AcDbAlignedDimension
 13
10.4335707711
 23
46.0168508186
 14
80.7916658477
 24
46.0168508186
100
AcDbRotatedDimension
  0
DIMENSION
  5
23E
100
AcDbEntity
  8
0
100
AcDbDimension
 62
7
  6
CONTINUOUS
  2
*D2
 10
88.7916658477
 20
-1.1401494382
 11
88.7916658477
 21
33.6103263272
 70
160
 71
2
 72
2
 41
0.9
 42
70.3580950766
  1
{\ftxt;\W0.0001;\H0.0001;\~}{\ftxt;\W2.9285714286;\H3.0; }{\ftxt;\W0.0001;\H0.0001;\~}
  3
DIMSTYLE_2
100
AcDbAlignedDimension
 13
75.4925796072
 23
69.2179456384
 14
70.2925796072
 24
-1.1401494382
 50
270.0
100
AcDbRotatedDimension
  0
LINE
  5
23F
100
AcDbEntity
  8
RACCORDO
100
AcDbLine
 62
7
  6
CONTINUOUS
 10
11.4126183094
 20
58.1888981001
 11
11.4310375174
 21
58.2073173081
  0
LINE
  5
240
100
AcDbEntity
  8
RACCORDO
100
AcDbLine
 62
250
  6
CONTINUOUS
 10
13.2313116662
 20
58.3573173081
 11
13.2128924581
 21
58.3388981001
  0
LINE
  5
241
100
AcDbEntity
  8
RACCORDO
100
AcDbLine
 62
7
  6
CONTINUOUS
 10
11.4126183094
 20
9.8888981001
 11
11.4310375174
 21
9.8704788921
  0
LINE
  5
242
100
AcDbEntity
  8
RACCORDO
100
AcDbLine
 62
250
  6
CONTINUOUS
 10
13.2313116662
 20
9.7204788921
 11
13.2128924581
 21
9.7388981001
  0
LINE
  5
243
100
AcDbEntity
  8
RACCORDO
100
AcDbLine
 62
7
  6
CONTINUOUS
 10
12.619565505
 20
54.3737189882
 11
12.6072904001
 21
54.3121934347
  0
LINE
  5
244
100
AcDbEntity
  8
DRAFT
100
AcDbLine
 62
7
  6
CONTINUOUS
 10
12.619565505
 20
54.3737189882
 11
12.6257096081
 21
54.4045145977
  0
LINE
  5
245
100
AcDbEntity
  8
RACCORDO
100
AcDbLine
 62
250
  6
CONTINUOUS
 10
15.0310375174
 20
56.5575914569
 11
15.0126183094
 21
56.5391722488
  0
LINE
  5
246
100
AcDbEntity
  8
RACCORDO
100
AcDbLine
 62
250
  6
CONTINUOUS
 10
10.4775873481
 20
58.4889437985
 11
10.5075137457
 21
58.5039024383
  0
LINE
  5
247
100
AcDbEntity
  8
RACCORDO
100
AcDbLine
 62
250
  6
CONTINUOUS
 10
10.7772217608
 20
58.1888981001
 11
10.8073309938
 21
58.2039481297
  0
LINE
  5
248
100
AcDbEntity
  8
RACCORDO
100
AcDbLine
 62
250
  6
CONTINUOUS
 10
10.5075137457
 20
9.5738937619
 11
10.4775873481
 21
9.5888524017
  0
LINE
  5
249
100
AcDbEntity
  8
RACCORDO
100
AcDbLine
 62
250
  6
CONTINUOUS
 10
10.8073309938
 20
9.8738480704
 11
10.7772217608
 21
9.8888981001
  0
LINE
  5
24A
100
AcDbEntity
  8
RACCORDO
100
AcDbLine
 62
250
  6
CONTINUOUS
 10
15.0310375174
 20
11.5202047433
 11
15.0126183094
 21
11.5386239514
  0
LINE
  5
24B
100
AcDbEntity
  8
RACCORDO
100
AcDbLine
 62
7
  6
CONTINUOUS
 10
12.6072904001
 20
13.7656027655
 11
12.619565505
 21
13.704077212
  0
LINE
  5
24C
100
AcDbEntity
  8
DRAFT
100
AcDbLine
 62
7
  6
CONTINUOUS
 10
12.6257096081
 20
13.6732816025
 11
12.619565505
 21
13.704077212
  0
LWPOLYLINE
  5
24D
100
AcDbEntity
  8
RACCORDO
100
AcDbPolyline
 62
250
  6
CONTINUOUS
 90
16
 70
0
 10
10.5075137457
 20
21.9039024383
 10
10.5091740435
 20
21.8725602169
 10
10.5140985853
 20
21.8415611983
 10
10.5222334365
 20
21.8112447589
 10
10.5334895198
 20
21.7819427917
 10
10.5477435829
 20
21.753976094
 10
10.5648395415
 20
21.7276508524
 10
10.584590206
 20
21.7032552593
 10
10.6067793299
 20
21.6810563735
 10
10.6311639614
 20
21.6612972114
 10
10.6574771226
 20
21.644194067
 10
10.6854307322
 20
21.6299341498
 10
10.7147187491
 20
21.6186735435
 10
10.7450205306
 20
21.6105354927
 10
10.776004344
 20
21.6056090554
 10
10.8073309944
 20
21.6039481301
  0
LWPOLYLINE
  5
24E
100
AcDbEntity
  8
RACCORDO
100
AcDbPolyline
 62
250
  6
CONTINUOUS
 90
16
 70
0
 10
10.5075137457
 20
58.5039024383
 10
10.5091740435
 20
58.4725602169
 10
10.5140985853
 20
58.4415611983
 10
10.5222334365
 20
58.4112447589
 10
10.5334895198
 20
58.3819427917
 10
10.5477435829
 20
58.353976094
 10
10.5648395415
 20
58.3276508524
 10
10.584590206
 20
58.3032552593
 10
10.6067793299
 20
58.2810563735
 10
10.6311639614
 20
58.2612972114
 10
10.6574771226
 20
58.244194067
 10
10.6854307322
 20
58.2299341498
 10
10.7147187491
 20
58.2186735435
 10
10.7450205306
 20
58.2105354927
 10
10.776004344
 20
58.2056090554
 10
10.8073309944
 20
58.2039481301
  0
LWPOLYLINE
  5
24F
100
AcDbEntity
  8
RACCORDO
100
AcDbPolyline
 62
7
  6
CONTINUOUS
 90
12
 70
0
 10
10.4775873481
 20
21.8889437985
 10
10.4792086597
 20
21.8577788493
 10
10.4840642888
 20
21.8269125554
 10
10.4921135173
 20
21.7966814726
 10
10.5032807254
 20
21.7674163931
 10
10.5174554943
 20
21.7394416493
 10
10.5344926259
 20
21.7130710357
 10
10.5542203226
 20
21.6885936085
 10
10.5764266309
 20
21.6662922862
 10
10.6008538093
 20
21.6464366859
 10
10.6272416019
 20
21.6292438726
 10
10.6434366553
 20
21.6205176534
  0
LWPOLYLINE
  5
250
100
AcDbEntity
  8
RACCORDO
100
AcDbPolyline
 62
7
  6
CONTINUOUS
 90
12
 70
0
 10
10.4775873481
 20
58.4889437985
 10
10.4792086597
 20
58.4577788493
 10
10.4840642888
 20
58.4269125554
 10
10.4921135173
 20
58.3966814726
 10
10.5032807254
 20
58.3674163931
 10
10.5174554943
 20
58.3394416493
 10
10.5344926259
 20
58.3130710357
 10
10.5542203226
 20
58.2885936085
 10
10.5764266309
 20
58.2662922862
 10
10.6008538093
 20
58.2464366859
 10
10.6272416019
 20
58.2292438726
 10
10.6434366553
 20
58.2205176534
  0
LWPOLYLINE
  5
251
100
AcDbEntity
  8
RACCORDO
100
AcDbPolyline
 62
7
  6
CONTINUOUS
 90
19
 70
0
 10
12.6257096081
 20
10.2388219477
 10
12.6275970642
 20
10.1961604892
 10
12.6329155162
 20
10.1543912905
 10
12.6416649641
 20
10.1135143517
 10
12.6539562949
 20
10.0732534002
 10
12.6696786216
 20
10.0338847085
 10
12.6884992827
 20
9.9962370937
 10
12.7104840452
 20
9.9603465942
 10
12.7355671421
 20
9.9261771715
 10
12.7632186107
 20
9.8944495278
 10
12.7934927754
 20
9.8652156503
 10
12.8263353118
 20
9.8384235518
 10
12.8610532844
 20
9.8146379725
 10
12.8977079463
 20
9.7939342254
 10
12.9362380444
 20
9.7762369976
 10
12.9757668837
 20
9.7618850904
 10
13.0160022324
 20
9.7509914377
 10
13.0572363224
 20
9.7434431056
 10
13.0994691535
 20
9.7392400942
  0
LWPOLYLINE
  5
252
100
AcDbEntity
  8
RACCORDO
100
AcDbPolyline
 62
250
  6
CONTINUOUS
 90
25
 70
0
 10
11.0072091592
 20
9.4328797769
 10
11.0094907073
 20
9.3667846675
 10
11.0159091562
 20
9.3016743507
 10
11.0264645061
 20
9.2375488264
 10
11.0412339105
 20
9.1742014263
 10
11.0601402158
 20
9.1118388188
 10
11.0829519608
 20
9.0510810085
 10
11.1097218458
 20
8.9918886226
 10
11.1403971706
 20
8.934301034
 10
11.1745883734
 20
8.8790563652
 10
11.2123411545
 20
8.8261870623
 10
11.2536098136
 20
8.7756606794
 10
11.2978676875
 20
8.7281180015
 10
11.3451062425
 20
8.6836183063
 10
11.3953340123
 20
8.6421023162
 10
11.448049935
 20
8.6040329835
 10
11.5033174441
 20
8.5694090269
 10
11.5610731062
 20
8.5382317279
 10
11.6206255589
 20
8.5109678833
 10
11.6820291691
 20
8.4876624255
 10
11.7452295698
 20
8.4682704221
 10
11.8093722982
 20
8.4531238729
 10
11.8741725332
 20
8.4423334444
 10
11.9399150959
 20
8.4357884701
 10
12.0065999862
 20
8.4334889499
  0
LWPOLYLINE
  5
253
100
AcDbEntity
  8
RACCORDO
100
AcDbPolyline
 62
250
  6
CONTINUOUS
 90
25
 70
0
 10
10.5075137457
 20
9.4328797769
 10
10.510785737
 20
9.3344497758
 10
10.5204782921
 20
9.2366818394
 10
10.5365038511
 20
9.1399904431
 10
10.5587265877
 20
9.0448614548
 10
10.5870187983
 20
8.9516046087
 10
10.62131411
 20
8.8603677843
 10
10.6615106624
 20
8.7714562242
 10
10.7074123026
 20
8.6853328156
 10
10.7588176196
 20
8.6023797122
 10
10.815507252
 20
8.5229499698
 10
10.8772422277
 20
8.4473771913
 10
10.9437534151
 20
8.3759889908
 10
11.0147000129
 20
8.309136791
 10
11.0898313326
 20
8.2470431841
 10
11.1690109121
 20
8.1898455894
 10
11.2519868732
 20
8.1377844931
 10
11.3383719942
 20
8.0911588442
 10
11.4278259891
 20
8.050199582
 10
11.52001542
 20
8.0151108689
 10
11.6145256621
 20
7.9861004751
 10
11.7108664689
 20
7.9633539287
 10
11.8085930594
 20
7.9469985462
 10
11.9073138903
 20
7.9371223619
 10
12.0065999862
 20
7.9337935364
  0
LINE
  5
254
100
AcDbEntity
  8
RACCORDO
100
AcDbLine
 62
7
  6
CONTINUOUS
 10
10.4335707711
 20
63.9188593979
 11
10.4335707711
 21
58.5109453816
  0
LINE
  5
255
100
AcDbEntity
  8
RACCORDO
100
AcDbLine
 62
7
  6
CONTINUOUS
 10
10.4335707711
 20
46.0168508186
 11
10.4335707711
 21
22.0609453816
  0
LINE
  5
256
100
AcDbEntity
  8
RACCORDO
100
AcDbLine
 62
7
  6
CONTINUOUS
 10
10.4335707711
 20
9.5668508186
 11
10.4335707711
 21
9.3589368023
  0
LINE
  5
257
100
AcDbEntity
  8
RACCORDO
100
AcDbLine
 62
7
  6
CONTINUOUS
 10
10.437062848
 20
21.9091998751
 11
10.437062848
 21
22.0591998751
  0
LINE
  5
258
100
AcDbEntity
  8
RACCORDO
100
AcDbLine
 62
7
  6
CONTINUOUS
 10
10.437062848
 20
46.0185963251
 11
10.437062848
 21
46.1685963251
  0
LINE
  5
259
100
AcDbEntity
  8
DRAFT
100
AcDbLine
 62
7
  6
CONTINUOUS
 10
10.4626183094
 20
49.3415163598
 11
10.4626183094
 21
55.3362798404
  0
LINE
  5
25A
100
AcDbEntity
  8
DRAFT
100
AcDbLine
 62
7
  6
CONTINUOUS
 10
10.4652830829
 20
18.7362333266
 11
10.4652830829
 21
12.7415628736
  0
LINE
  5
25B
100
AcDbEntity
  8
RACCORDO
100
AcDbLine
 62
250
  6
CONTINUOUS
 10
10.5075137457
 20
63.8449164233
 11
10.5075137457
 21
58.5039024383
  0
LINE
  5
25C
100
AcDbEntity
  8
RACCORDO
100
AcDbLine
 62
250
  6
CONTINUOUS
 10
10.5075137457
 20
46.1738937619
 11
10.5075137457
 21
21.9039024383
  0
LINE
  5
25D
100
AcDbEntity
  8
RACCORDO
100
AcDbLine
 62
250
  6
CONTINUOUS
 10
10.5075137457
 20
9.5738937619
 11
10.5075137457
 21
9.4328797769
  0
LINE
  5
25E
100
AcDbEntity
  8
RACCORDO
100
AcDbLine
 62
250
  6
CONTINUOUS
 10
11.0072091592
 20
63.8449164233
 11
11.0072091592
 21
58.2073173081
  0
LINE
  5
25F
100
AcDbEntity
  8
RACCORDO
100
AcDbLine
 62
250
  6
CONTINUOUS
 10
11.0072091592
 20
9.4328797769
 11
11.007209139
 21
9.8704788921
  0
LINE
  5
260
100
AcDbEntity
  8
RACCORDO
100
AcDbLine
 62
250
  6
CONTINUOUS
 10
11.0072091592
 20
21.6073173081
 11
11.007209139
 21
46.4704788921
  0
LINE
  5
261
100
AcDbEntity
  8
DRAFT
100
AcDbLine
 62
7
  6
CONTINUOUS
 10
11.4126183094
 20
9.8888981001
 11
11.4126183094
 21
12.7388981001
  0
LINE
  5
262
100
AcDbEntity
  8
DRAFT
100
AcDbLine
 62
7
  6
CONTINUOUS
 10
11.4126183094
 20
18.7388981001
 11
11.4126183094
 21
21.5888981001
  0
LINE
  5
263
100
AcDbEntity
  8
DRAFT
100
AcDbLine
 62
7
  6
CONTINUOUS
 10
11.4126183094
 20
46.4888981001
 11
11.4126183094
 21
49.3388981001
  0
LINE
  5
264
100
AcDbEntity
  8
DRAFT
100
AcDbLine
 62
7
  6
CONTINUOUS
 10
11.4126183094
 20
55.3388981001
 11
11.4126183094
 21
58.1888981001
  0
LINE
  5
265
100
AcDbEntity
  8
RACCORDO
100
AcDbLine
 62
7
  6
CONTINUOUS
 10
11.432159982
 20
58.2154429756
 11
11.432159982
 21
55.3193564275
  0
LINE
  5
266
100
AcDbEntity
  8
RACCORDO
100
AcDbLine
 62
7
  6
CONTINUOUS
 10
11.432159982
 20
49.3584397727
 11
11.432159982
 21
46.4623532246
  0
LINE
  5
267
100
AcDbEntity
  8
RACCORDO
100
AcDbLine
 62
7
  6
CONTINUOUS
 10
11.432159982
 20
21.6154429756
 11
11.432159982
 21
18.7193564275
  0
LINE
  5
268
100
AcDbEntity
  8
RACCORDO
100
AcDbLine
 62
7
  6
CONTINUOUS
 10
11.432159982
 20
12.7584397727
 11
11.432159982
 21
9.8623532246
  0
LINE
  5
269
100
AcDbEntity
  8
RACCORDO
100
AcDbLine
 62
7
  6
CONTINUOUS
 10
11.6626183094
 20
58.5072716167
 11
11.6626183094
 21
46.1705245835
  0
LINE
  5
26A
100
AcDbEntity
  8
RACCORDO
100
AcDbLine
 62
7
  6
CONTINUOUS
 10
11.6626183094
 20
21.9072716167
 11
11.6626183094
 21
9.5705245835
  0
LINE
  5
26B
100
AcDbEntity
  8
RACCORDO
100
AcDbLine
 62
250
  6
CONTINUOUS
 10
12.0065999862
 20
8.4334889499
 11
12.0065999862
 21
7.9337935364
  0
LINE
  5
26C
100
AcDbEntity
  8
RACCORDO
100
AcDbLine
 62
250
  6
CONTINUOUS
 10
12.0065999862
 20
64.8443072503
 11
12.0065999862
 21
65.3440026638
  0
LINE
  5
26D
100
AcDbEntity
  8
RACCORDO
100
AcDbLine
 62
250
  6
CONTINUOUS
 10
12.3073360915
 20
10.2204027396
 11
12.3073360915
 21
13.7913912982
  0
LINE
  5
26E
100
AcDbEntity
  8
RACCORDO
100
AcDbLine
 62
250
  6
CONTINUOUS
 10
12.3073360915
 20
17.686404902
 11
12.3073360915
 21
21.2573934606
  0
LINE
  5
26F
100
AcDbEntity
  8
RACCORDO
100
AcDbLine
 62
250
  6
CONTINUOUS
 10
12.3073360915
 20
46.8204027396
 11
12.3073360915
 21
50.3913912982
  0
LINE
  5
270
100
AcDbEntity
  8
RACCORDO
100
AcDbLine
 62
250
  6
CONTINUOUS
 10
12.3073360915
 20
54.286404902
 11
12.3073360915
 21
57.8573934606
  0
LINE
  5
271
100
AcDbEntity
  8
RACCORDO
100
AcDbLine
 62
250
  6
CONTINUOUS
 10
12.3818851551
 20
13.7913912982
 11
12.3818851551
 21
17.686404902
  0
LINE
  5
272
100
AcDbEntity
  8
RACCORDO
100
AcDbLine
 62
250
  6
CONTINUOUS
 10
12.3818851551
 20
50.3913912982
 11
12.3818851551
 21
54.286404902
  0
LINE
  5
273
100
AcDbEntity
  8
RACCORDO
100
AcDbLine
 62
250
  6
CONTINUOUS
 10
12.6072904001
 20
10.2204027396
 11
12.6072904001
 21
13.7656027655
  0
LINE
  5
274
100
AcDbEntity
  8
RACCORDO
100
AcDbLine
 62
250
  6
CONTINUOUS
 10
12.6072904001
 20
17.7121934347
 11
12.6072904001
 21
21.2573934606
  0
LINE
  5
275
100
AcDbEntity
  8
RACCORDO
100
AcDbLine
 62
250
  6
CONTINUOUS
 10
12.6072904001
 20
46.8204027396
 11
12.6072904001
 21
50.3656027655
  0
LINE
  5
276
100
AcDbEntity
  8
RACCORDO
100
AcDbLine
 62
250
  6
CONTINUOUS
 10
12.6072904001
 20
54.3121934347
 11
12.6072904001
 21
57.8573934606
  0
LINE
  5
277
100
AcDbEntity
  8
RACCORDO
100
AcDbLine
 62
7
  6
CONTINUOUS
 10
12.6257096081
 20
57.8389742525
 11
12.6257096081
 21
54.4045145977
  0
LINE
  5
278
100
AcDbEntity
  8
RACCORDO
100
AcDbLine
 62
7
  6
CONTINUOUS
 10
12.6257096081
 20
21.2389742525
 11
12.6257096081
 21
17.8045145977
  0
LINE
  5
279
100
AcDbEntity
  8
RACCORDO
100
AcDbLine
 62
7
  6
CONTINUOUS
 10
12.6257096081
 20
10.2388219477
 11
12.6257096081
 21
13.6732816025
  0
LINE
  5
27A
100
AcDbEntity
  8
RACCORDO
100
AcDbLine
 62
7
  6
CONTINUOUS
 10
12.6257096081
 20
46.8388219477
 11
12.6257096081
 21
50.2732816025
  0
LWPOLYLINE
  5
27B
100
AcDbEntity
  8
RACCORDO
100
AcDbPolyline
 62
250
  6
CONTINUOUS
 90
22
 70
0
 10
12.607290404
 20
57.8573934567
 10
12.6086829108
 20
57.8947822974
 10
12.6128544915
 20
57.9318794061
 10
12.6197636293
 20
57.9684802324
 10
12.6293442912
 20
58.0043539431
 10
12.6415309388
 20
58.03933989
 10
12.6562820724
 20
58.0733406112
 10
12.6735434365
 20
58.1062088228
 10
12.6932058857
 20
58.1377177634
 10
12.7151372904
 20
58.1676577106
 10
12.7391801541
 20
58.1958325631
 10
12.7652243896
 20
58.2221305953
 10
12.7931993836
 20
58.2464734685
 10
12.8229439346
 20
58.268703076
 10
12.8543192089
 20
58.288698838
 10
12.8873061492
 20
58.3064082263
 10
12.9218734059
 20
58.3217370308
 10
12.9577252389
 20
58.3344790754
 10
12.9944253161
 20
58.3444534638
 10
13.0316768887
 20
58.3515939295
 10
13.069345487
 20
58.3558887046
 10
13.107214252
 20
58.3573173038
  0
LWPOLYLINE
  5
27C
100
AcDbEntity
  8
RACCORDO
100
AcDbPolyline
 62
250
  6
CONTINUOUS
 90
22
 70
0
 10
12.3073360915
 20
57.8573934606
 10
12.3097243746
 20
57.9177360646
 10
12.3163863751
 20
57.9769727374
 10
12.327322093
 20
58.035103479
 10
12.3426327949
 20
58.0923840767
 10
12.3622172141
 20
58.1485587432
 10
12.3857715508
 20
58.2028601162
 10
12.4133800344
 20
58.2553261995
 10
12.4449584355
 20
58.3059189893
 10
12.4799502649
 20
58.353757112
 10
12.5183574187
 20
58.3987470495
 10
12.5601780009
 20
58.4409823198
 10
12.6048498345
 20
58.4798621035
 10
12.6523652167
 20
58.515364412
 10
12.7027318504
 20
58.5475112338
 10
12.7554106678
 20
58.5757677147
 10
12.8106570556
 20
58.6001506854
 10
12.8682156271
 20
58.6206433153
 10
12.9267811548
 20
58.636660258
 10
12.9859185628
 20
58.6480063981
 10
13.0460629271
 20
58.654876851
 10
13.1072142476
 20
58.6572716167
  0
LWPOLYLINE
  5
27D
100
AcDbEntity
  8
RACCORDO
100
AcDbPolyline
 62
7
  6
CONTINUOUS
 90
12
 70
0
 10
10.4775873481
 20
46.1888524017
 10
10.47920933
 20
46.2200173509
 10
10.4840648225
 20
46.2508836448
 10
10.4921135173
 20
46.2811147275
 10
10.5032805729
 20
46.3103798071
 10
10.5174555897
 20
46.3383545509
 10
10.5344926259
 20
46.3647251645
 10
10.5542201686
 20
46.3892025917
 10
10.5764266758
 20
46.411503914
 10
10.6008538093
 20
46.4313595143
 10
10.6272297424
 20
46.4485455493
 10
10.6434365532
 20
46.4572785494
  0
LWPOLYLINE
  5
27E
100
AcDbEntity
  8
RACCORDO
100
AcDbPolyline
 62
7
  6
CONTINUOUS
 90
12
 70
0
 10
10.4775873481
 20
9.5888524017
 10
10.47920933
 20
9.6200173509
 10
10.4840648225
 20
9.6508836448
 10
10.4921135173
 20
9.6811147275
 10
10.5032805729
 20
9.7103798071
 10
10.5174555897
 20
9.7383545509
 10
10.5344926259
 20
9.7647251645
 10
10.5542201686
 20
9.7892025917
 10
10.5764266758
 20
9.811503914
 10
10.6008538093
 20
9.8313595143
 10
10.6272297424
 20
9.8485455493
 10
10.6434365532
 20
9.8572785494
  0
LWPOLYLINE
  5
27F
100
AcDbEntity
  8
RACCORDO
100
AcDbPolyline
 62
250
  6
CONTINUOUS
 90
16
 70
0
 10
10.5075137457
 20
46.1738937619
 10
10.5091739838
 20
46.205235418
 10
10.5140983622
 20
46.2362339543
 10
10.5222329702
 20
46.2665500073
 10
10.5334887523
 20
46.2958516854
 10
10.5477424834
 20
46.323818202
 10
10.5648381173
 20
46.3501433874
 10
10.5845884958
 20
46.3745390409
 10
10.6067773973
 20
46.3967380856
 10
10.6311619037
 20
46.4164974926
 10
10.6574750605
 20
46.4336009414
 10
10.6854287983
 20
46.4478611882
 10
10.7147170874
 20
46.4591221157
 10
10.7450192878
 20
46.4672604426
 10
10.7760036593
 20
46.4721870726
 10
10.8073309938
 20
46.4738480704
  0
LWPOLYLINE
  5
280
100
AcDbEntity
  8
RACCORDO
100
AcDbPolyline
 62
250
  6
CONTINUOUS
 90
16
 70
0
 10
10.5075137457
 20
9.5738937619
 10
10.5091739838
 20
9.605235418
 10
10.5140983622
 20
9.6362339543
 10
10.5222329702
 20
9.6665500073
 10
10.5334887523
 20
9.6958516854
 10
10.5477424834
 20
9.723818202
 10
10.5648381173
 20
9.7501433874
 10
10.5845884958
 20
9.7745390409
 10
10.6067773973
 20
9.7967380856
 10
10.6311619037
 20
9.8164974926
 10
10.6574750605
 20
9.8336009414
 10
10.6854287983
 20
9.8478611882
 10
10.7147170874
 20
9.8591221157
 10
10.7450192878
 20
9.8672604426
 10
10.7760036593
 20
9.8721870726
 10
10.8073309938
 20
9.8738480704
  0
LINE
  5
281
100
AcDbEntity
  8
DRAFT
100
AcDbLine
 62
7
  6
CONTINUOUS
 10
11.4126183094
 20
49.3388981001
 11
11.432159982
 21
49.3584397727
  0
LWPOLYLINE
  5
282
100
AcDbEntity
  8
RACCORDO
100
AcDbPolyline
 62
250
  6
CONTINUOUS
 90
25
 70
0
 10
70.2186366326
 20
-0.5665110501
 10
70.284731742
 20
-0.564229502
 10
70.3498420588
 20
-0.5578110531
 10
70.4139675831
 20
-0.5472557032
 10
70.4773149832
 20
-0.5324862988
 10
70.5396775907
 20
-0.5135799935
 10
70.600435401
 20
-0.4907682485
 10
70.6596277869
 20
-0.4639983635
 10
70.7172153755
 20
-0.4333230387
 10
70.7724600443
 20
-0.3991318359
 10
70.8253293471
 20
-0.3613790548
 10
70.8758557301
 20
-0.3201103957
 10
70.923398408
 20
-0.2758525218
 10
70.9678981032
 20
-0.2286139668
 10
71.0094140933
 20
-0.178386197
 10
71.047483426
 20
-0.1256702743
 10
71.0821073825
 20
-0.0704027652
 10
71.1132846816
 20
-0.0126471031
 10
71.1405485262
 20
0.0469053496
 10
71.163853984
 20
0.1083089597
 10
71.1832459874
 20
0.1715093605
 10
71.1983925366
 20
0.2356520889
 10
71.2091829651
 20
0.3004523239
 10
71.2157279394
 20
0.3661948866
 10
71.2180274596
 20
0.4328797769
  0
LWPOLYLINE
  5
283
100
AcDbEntity
  8
RACCORDO
100
AcDbPolyline
 62
250
  6
CONTINUOUS
 90
25
 70
0
 10
70.2186366326
 20
-1.0662064636
 10
70.3170666337
 20
-1.0629344724
 10
70.4148345701
 20
-1.0532419172
 10
70.5115259664
 20
-1.0372163582
 10
70.6066549547
 20
-1.0149936216
 10
70.6999118008
 20
-0.986701411
 10
70.7911486251
 20
-0.9524060993
 10
70.8800601853
 20
-0.9122095469
 10
70.9661835939
 20
-0.8663079067
 10
71.0491366973
 20
-0.8149025897
 10
71.1285664397
 20
-0.7582129573
 10
71.2041392182
 20
-0.6964779816
 10
71.2755274187
 20
-0.6299667943
 10
71.3423796185
 20
-0.5590201964
 10
71.4044732254
 20
-0.4838888767
 10
71.4616708201
 20
-0.4047092972
 10
71.5137319164
 20
-0.3217333361
 10
71.5603575653
 20
-0.2353482151
 10
71.6013168275
 20
-0.1458942202
 10
71.6364055406
 20
-0.0537047893
 10
71.6654159344
 20
0.0408054528
 10
71.6881624808
 20
0.1371462596
 10
71.7045178633
 20
0.2348728501
 10
71.7143940476
 20
0.333593681
 10
71.7177228731
 20
0.4328797769
  0
LINE
  5
284
100
AcDbEntity
  8
RACCORDO
100
AcDbLine
 62
7
  6
CONTINUOUS
 10
15.7326570116
 20
-1.1401494382
 11
70.2925796072
 21
-1.1401494382
  0
LINE
  5
285
100
AcDbEntity
  8
RACCORDO
100
AcDbLine
 62
250
  6
CONTINUOUS
 10
15.8065999862
 20
-1.0662064636
 11
70.2186366326
 21
-1.0662064636
  0
LINE
  5
286
100
AcDbEntity
  8
RACCORDO
100
AcDbLine
 62
250
  6
CONTINUOUS
 10
15.8065999862
 20
-0.5665110501
 11
70.2186366326
 21
-0.5665110501
  0
LINE
  5
287
100
AcDbEntity
  8
RACCORDO
100
AcDbLine
 62
250
  6
CONTINUOUS
 10
14.8072091592
 20
0.4328797769
 11
14.3075137457
 21
0.4328797769
  0
LINE
  5
288
100
AcDbEntity
  8
RACCORDO
100
AcDbLine
 62
250
  6
CONTINUOUS
 10
71.2180274596
 20
0.4328797769
 11
71.7177228731
 21
0.4328797769
  0
LINE
  5
289
100
AcDbEntity
  8
DRAFT
100
AcDbLine
 62
7
  6
CONTINUOUS
 10
11.432159982
 20
18.7193564275
 11
11.4126183094
 21
18.7388981001
  0
LWPOLYLINE
  5
28A
100
AcDbEntity
  8
RACCORDO
100
AcDbPolyline
 62
7
  6
CONTINUOUS
 90
19
 70
0
 10
12.6257096081
 20
46.8388219477
 10
12.6275970642
 20
46.7961604892
 10
12.6329155162
 20
46.7543912905
 10
12.6416649641
 20
46.7135143517
 10
12.6539562949
 20
46.6732534002
 10
12.6696786216
 20
46.6338847085
 10
12.6884992827
 20
46.5962370937
 10
12.7104840452
 20
46.5603465942
 10
12.7355671421
 20
46.5261771715
 10
12.7632186107
 20
46.4944495278
 10
12.7934927754
 20
46.4652156503
 10
12.8263353118
 20
46.4384235518
 10
12.8610532844
 20
46.4146379725
 10
12.8977079463
 20
46.3939342254
 10
12.9362380444
 20
46.3762369976
 10
12.9757668837
 20
46.3618850904
 10
13.0160022324
 20
46.3509914377
 10
13.0572363224
 20
46.3434431056
 10
13.0994691535
 20
46.3392400942
  0
LWPOLYLINE
  5
28B
100
AcDbEntity
  8
RACCORDO
100
AcDbPolyline
 62
250
  6
CONTINUOUS
 90
25
 70
0
 10
14.8072091592
 20
0.4328797769
 10
14.8094828991
 20
0.366846796
 10
14.8158913849
 20
0.3017865363
 10
14.8264346167
 20
0.2376989979
 10
14.8411882876
 20
0.1743760916
 10
14.8600767044
 20
0.1120259066
 10
14.8828727877
 20
0.0512727101
 10
14.909632424
 20
-0.0079251992
 10
14.9402997267
 20
-0.0655261199
 10
14.9744799574
 20
-0.12078068
 10
15.0122135344
 20
-0.1736490941
 10
15.0534600393
 20
-0.2241711475
 10
15.097703478
 20
-0.2717168246
 10
15.1449372675
 20
-0.3162318571
 10
15.1951679908
 20
-0.3577705131
 10
15.2478994021
 20
-0.3958655823
 10
15.3032032033
 20
-0.4305206983
 10
15.3610076925
 20
-0.4617322273
 10
15.4206015189
 20
-0.4890220573
 10
15.4820334125
 20
-0.5123396354
 10
15.5452546433
 20
-0.5317355144
 10
15.6094076702
 20
-0.5468832407
 10
15.6742066462
 20
-0.5576739965
 10
15.7399374181
 20
-0.5642165997
 10
15.8065999862
 20
-0.5665110501
  0
LWPOLYLINE
  5
28C
100
AcDbEntity
  8
RACCORDO
100
AcDbPolyline
 62
250
  6
CONTINUOUS
 90
25
 70
0
 10
14.3075137457
 20
0.4328797769
 10
14.3107795959
 20
0.3345425733
 10
14.3204560561
 20
0.2368499153
 10
14.3364589439
 20
0.1402156273
 10
14.358656298
 20
0.0451236053
 10
14.3869234977
 20
-0.0481143718
 10
14.4211952819
 20
-0.1393447316
 10
14.46137393
 20
-0.2282657173
 10
14.5072638618
 20
-0.3144091936
 10
14.5586549624
 20
-0.3973758888
 10
14.6153180596
 20
-0.4768023563
 10
14.6770200818
 20
-0.5523681983
 10
14.7435071002
 20
-0.6237632491
 10
14.8144456716
 20
-0.6906386459
 10
14.8895825836
 20
-0.7527644521
 10
14.9687851427
 20
-0.8100022294
 10
15.051813294
 20
-0.862114322
 10
15.1382715509
 20
-0.9087911037
 10
15.2277899376
 20
-0.9497853203
 10
15.3200227997
 20
-0.984891667
 10
15.4145634366
 20
-1.0139097689
 10
15.5109195098
 20
-1.0366567588
 10
15.6086450332
 20
-1.0530083996
 10
15.7073482132
 20
-1.0628799336
 10
15.8065999862
 20
-1.0662064636
  0
LWPOLYLINE
  5
28D
100
AcDbEntity
  8
RACCORDO
100
AcDbPolyline
 62
7
  6
CONTINUOUS
 90
25
 70
0
 10
15.0126183094
 20
19.9391722488
 10
15.0087811645
 20
20.0566527658
 10
14.9972731386
 20
20.1737230049
 10
14.9781252078
 20
20.2898814252
 10
14.9513894127
 20
20.4046730204
 10
14.9171684448
 20
20.5175558114
 10
14.8756443095
 20
20.6279117658
 10
14.8270304754
 20
20.7352155123
 10
14.7715234794
 20
20.8390692635
 10
14.7093430526
 20
20.9390705056
 10
14.6407455752
 20
21.0348035567
 10
14.5660324015
 20
21.1258449625
 10
14.4855240594
 20
21.2118038501
 10
14.3995651718
 20
21.2923121922
 10
14.308523766
 20
21.3670253659
 10
14.2127907149
 20
21.4356228433
 10
14.1127894728
 20
21.4978032701
 10
14.0089357216
 20
21.5533102661
 10
13.9016319751
 20
21.6019241001
 10
13.7912760207
 20
21.6434482355
 10
13.6783932297
 20
21.6776692034
 10
13.5636016345
 20
21.7044049985
 10
13.4474432142
 20
21.7235529292
 10
13.3303729751
 20
21.7350609552
 10
13.2128924581
 20
21.7388981001
  0
LINE
  5
28E
100
AcDbEntity
  8
RACCORDO
100
AcDbLine
 62
250
  6
CONTINUOUS
 10
12.7623343654
 20
13.7760313954
 11
12.7623343654
 21
17.7017648048
  0
LINE
  5
28F
100
AcDbEntity
  8
RACCORDO
100
AcDbLine
 62
250
  6
CONTINUOUS
 10
12.7623343654
 20
50.3760313954
 11
12.7623343654
 21
54.3017648048
  0
LINE
  5
290
100
AcDbEntity
  8
DRAFT
100
AcDbLine
 62
7
  6
CONTINUOUS
 10
13.0126183094
 20
13.7241072761
 11
13.0126183094
 21
17.7536889241
  0
LINE
  5
291
100
AcDbEntity
  8
DRAFT
100
AcDbLine
 62
7
  6
CONTINUOUS
 10
13.0126183094
 20
50.3241072761
 11
13.0126183094
 21
54.3536889241
  0
LINE
  5
292
100
AcDbEntity
  8
RACCORDO
100
AcDbLine
 62
250
  6
CONTINUOUS
 10
13.1072142476
 20
58.6572716167
 11
13.1072142476
 21
58.3573173081
  0
LINE
  5
293
100
AcDbEntity
  8
RACCORDO
100
AcDbLine
 62
250
  6
CONTINUOUS
 10
13.1072142476
 20
22.0572716167
 11
13.1072142476
 21
21.7573173081
  0
LINE
  5
294
100
AcDbEntity
  8
RACCORDO
100
AcDbLine
 62
250
  6
CONTINUOUS
 10
13.1072142476
 20
9.4205245835
 11
13.1072142476
 21
9.7204788921
  0
LINE
  5
295
100
AcDbEntity
  8
RACCORDO
100
AcDbLine
 62
250
  6
CONTINUOUS
 10
13.1072142476
 20
46.0205245835
 11
13.1072142476
 21
46.3204788921
  0
LINE
  5
296
100
AcDbEntity
  8
RACCORDO
100
AcDbLine
 62
250
  6
CONTINUOUS
 10
13.2313116662
 20
58.6572716167
 11
13.2313116662
 21
58.3573173081
  0
LINE
  5
297
100
AcDbEntity
  8
RACCORDO
100
AcDbLine
 62
250
  6
CONTINUOUS
 10
13.2313116662
 20
22.0572716167
 11
13.2313116662
 21
21.7573173081
  0
LINE
  5
298
100
AcDbEntity
  8
RACCORDO
100
AcDbLine
 62
250
  6
CONTINUOUS
 10
13.2313116662
 20
9.4205245835
 11
13.2313116662
 21
9.7204788921
  0
LINE
  5
299
100
AcDbEntity
  8
RACCORDO
100
AcDbLine
 62
250
  6
CONTINUOUS
 10
13.2313116662
 20
46.0205245835
 11
13.2313116662
 21
46.3204788921
  0
LINE
  5
29A
100
AcDbEntity
  8
RACCORDO
100
AcDbLine
 62
250
  6
CONTINUOUS
 10
13.8078183322
 20
8.4334889499
 11
13.8078183322
 21
7.9337935364
  0
LINE
  5
29B
100
AcDbEntity
  8
RACCORDO
100
AcDbLine
 62
7
  6
CONTINUOUS
 10
14.2335707711
 20
0.3589368023
 11
14.2335707711
 21
7.3601551483
  0
LINE
  5
29C
100
AcDbEntity
  8
RACCORDO
100
AcDbLine
 62
250
  6
CONTINUOUS
 10
14.3075137457
 20
7.4340981229
 11
14.3075137457
 21
0.4328797769
  0
LINE
  5
29D
100
AcDbEntity
  8
RACCORDO
100
AcDbLine
 62
250
  6
CONTINUOUS
 10
14.8072091592
 20
7.4340981229
 11
14.8072091592
 21
0.4328797769
  0
LINE
  5
29E
100
AcDbEntity
  8
RACCORDO
100
AcDbLine
 62
7
  6
CONTINUOUS
 10
15.0126183094
 20
11.5386239514
 11
15.0126183094
 21
19.9391722488
  0
LINE
  5
29F
100
AcDbEntity
  8
RACCORDO
100
AcDbLine
 62
7
  6
CONTINUOUS
 10
15.0126183094
 20
48.1386239514
 11
15.0126183094
 21
56.5391722488
  0
LINE
  5
2A0
100
AcDbEntity
  8
RACCORDO
100
AcDbLine
 62
250
  6
CONTINUOUS
 10
15.0310375174
 20
56.5575914569
 11
15.0310375174
 21
48.1202047433
  0
LINE
  5
2A1
100
AcDbEntity
  8
RACCORDO
100
AcDbLine
 62
250
  6
CONTINUOUS
 10
15.0310375174
 20
19.9575914569
 11
15.0310375174
 21
11.5202047433
  0
LINE
  5
2A2
100
AcDbEntity
  8
RACCORDO
100
AcDbLine
 62
250
  6
CONTINUOUS
 10
15.330991826
 20
56.5575914569
 11
15.330991826
 21
48.1202047433
  0
LINE
  5
2A3
100
AcDbEntity
  8
RACCORDO
100
AcDbLine
 62
250
  6
CONTINUOUS
 10
15.330991826
 20
19.9575914569
 11
15.330991826
 21
11.5202047433
  0
LINE
  5
2A4
100
AcDbEntity
  8
RACCORDO
100
AcDbLine
 62
250
  6
CONTINUOUS
 10
15.8065999862
 20
-0.5665110501
 11
15.8065999862
 21
-1.0662064636
  0
LWPOLYLINE
  5
2A5
100
AcDbEntity
  8
RACCORDO
100
AcDbPolyline
 62
250
  6
CONTINUOUS
 90
28
 70
0
 10
15.0310375174
 20
48.1202047433
 10
15.0280313253
 20
48.0161145997
 10
15.019041475
 20
47.9126307512
 10
15.0041423392
 20
47.8100937384
 10
14.9834767013
 20
47.7090467889
 10
14.9571307822
 20
47.6095983147
 10
14.9250142205
 20
47.5114525698
 10
14.8870056783
 20
47.4145697556
 10
14.8432876132
 20
47.3196981059
 10
14.7942446789
 20
47.2277094644
 10
14.7402222375
 20
47.139122965
 10
14.6813103307
 20
47.0539701109
 10
14.6175984511
 20
46.9723479715
 10
14.5492749957
 20
46.8945023832
 10
14.4765858445
 20
46.8207176455
 10
14.3996853316
 20
46.7511642953
 10
14.3189230972
 20
46.6861691812
 10
14.2344572919
 20
46.6258697277
 10
14.1461107729
 20
46.5702186966
 10
14.0539174298
 20
46.5193910148
 10
13.9583303642
 20
46.4737858485
 10
13.8597940131
 20
46.4337217326
 10
13.7584761674
 20
46.3993694641
 10
13.6548476303
 20
46.3709892909
 10
13.5498750033
 20
46.3488725556
 10
13.4441454334
 20
46.333092988
 10
13.3378322434
 20
46.3236272981
 10
13.2313116662
 20
46.3204788921
  0
LWPOLYLINE
  5
2A6
100
AcDbEntity
  8
RACCORDO
100
AcDbPolyline
 62
250
  6
CONTINUOUS
 90
28
 70
0
 10
15.0310375174
 20
11.5202047433
 10
15.0280313253
 20
11.4161145997
 10
15.019041475
 20
11.3126307512
 10
15.0041423392
 20
11.2100937384
 10
14.9834767013
 20
11.1090467889
 10
14.9571307822
 20
11.0095983147
 10
14.9250142205
 20
10.9114525698
 10
14.8870056783
 20
10.8145697556
 10
14.8432876132
 20
10.7196981059
 10
14.7942446789
 20
10.6277094644
 10
14.7402222375
 20
10.539122965
 10
14.6813103307
 20
10.4539701109
 10
14.6175984511
 20
10.3723479715
 10
14.5492749957
 20
10.2945023832
 10
14.4765858445
 20
10.2207176455
 10
14.3996853316
 20
10.1511642953
 10
14.3189230972
 20
10.0861691812
 10
14.2344572919
 20
10.0258697277
 10
14.1461107729
 20
9.9702186966
 10
14.0539174298
 20
9.9193910148
 10
13.9583303642
 20
9.8737858485
 10
13.8597940131
 20
9.8337217326
 10
13.7584761674
 20
9.7993694641
 10
13.6548476303
 20
9.7709892909
 10
13.5498750033
 20
9.7488725556
 10
13.4441454334
 20
9.733092988
 10
13.3378322434
 20
9.7236272981
 10
13.2313116662
 20
9.7204788921
  0
LWPOLYLINE
  5
2A7
100
AcDbEntity
  8
RACCORDO
100
AcDbPolyline
 62
250
  6
CONTINUOUS
 90
28
 70
0
 10
15.330991826
 20
48.1202047433
 10
15.3272975176
 20
47.9981251966
 10
15.316832692
 20
47.8775320615
 10
15.2995973491
 20
47.7584253379
 10
15.2755659234
 20
47.6406568988
 10
15.2447639805
 20
47.5243748713
 10
15.2072682167
 20
47.4100236366
 10
15.1628550868
 20
47.297168716
 10
15.1117481359
 20
47.1862445882
 10
15.0546946957
 20
47.0789990698
 10
14.9917446854
 20
46.9757643157
 10
14.9228481857
 20
46.876208171
 10
14.8486027703
 20
46.7810819879
 10
14.7689654186
 20
46.6903743547
 10
14.6839791513
 20
46.604096683
 10
14.5943706039
 20
46.5230345592
 10
14.5002558457
 20
46.4472679108
 10
14.4015188076
 20
46.3767168104
 10
14.2985379179
 20
46.3119270619
 10
14.1910443879
 20
46.2527695211
 10
14.0793070063
 20
46.1993733322
 10
13.9645105687
 20
46.1526717322
 10
13.8464036989
 20
46.1127680368
 10
13.7252377731
 20
46.0795589303
 10
13.6029517146
 20
46.0536677028
 10
13.4801918311
 20
46.0353021175
 10
13.356311815
 20
46.024254411
 10
13.2313116662
 20
46.0205245835
  0
LWPOLYLINE
  5
2A8
100
AcDbEntity
  8
RACCORDO
100
AcDbPolyline
 62
250
  6
CONTINUOUS
 90
28
 70
0
 10
15.330991826
 20
11.5202047433
 10
15.3272975176
 20
11.3981251966
 10
15.316832692
 20
11.2775320615
 10
15.2995973491
 20
11.1584253379
 10
15.2755659234
 20
11.0406568988
 10
15.2447639805
 20
10.9243748713
 10
15.2072682167
 20
10.8100236366
 10
15.1628550868
 20
10.697168716
 10
15.1117481359
 20
10.5862445882
 10
15.0546946957
 20
10.4789990698
 10
14.9917446854
 20
10.3757643157
 10
14.9228481857
 20
10.276208171
 10
14.8486027703
 20
10.1810819879
 10
14.7689654186
 20
10.0903743547
 10
14.6839791513
 20
10.004096683
 10
14.5943706039
 20
9.9230345592
 10
14.5002558457
 20
9.8472679108
 10
14.4015188076
 20
9.7767168104
 10
14.2985379179
 20
9.7119270619
 10
14.1910443879
 20
9.6527695211
 10
14.0793070063
 20
9.5993733322
 10
13.9645105687
 20
9.5526717322
 10
13.8464036989
 20
9.5127680368
 10
13.7252377731
 20
9.4795589303
 10
13.6029517146
 20
9.4536677028
 10
13.4801918311
 20
9.4353021175
 10
13.356311815
 20
9.424254411
 10
13.2313116662
 20
9.4205245835
  0
LWPOLYLINE
  5
2A9
100
AcDbEntity
  8
RACCORDO
100
AcDbPolyline
 62
7
  6
CONTINUOUS
 90
25
 70
0
 10
15.0126183094
 20
11.5386239514
 10
15.0087811645
 20
11.4211434344
 10
14.9972731386
 20
11.3040731953
 10
14.9781252078
 20
11.187914775
 10
14.9513894127
 20
11.0731231798
 10
14.9171684448
 20
10.9602403888
 10
14.8756443095
 20
10.8498844344
 10
14.8270304754
 20
10.7425806879
 10
14.7715234794
 20
10.6387269367
 10
14.7093430526
 20
10.5387256946
 10
14.6407455752
 20
10.4429926435
 10
14.5660324015
 20
10.3519512376
 10
14.4855240594
 20
10.2659923501
 10
14.3995651718
 20
10.185484008
 10
14.308523766
 20
10.1107708343
 10
14.2127907149
 20
10.0421733569
 10
14.1127894728
 20
9.9799929301
 10
14.0089357216
 20
9.9244859341
 10
13.9016319751
 20
9.8758721
 10
13.7912760207
 20
9.8343479646
 10
13.6783932297
 20
9.8001269967
 10
13.5636016345
 20
9.7733912017
 10
13.4474432142
 20
9.7542432709
 10
13.3303729751
 20
9.742735245
 10
13.2128924581
 20
9.7388981001
  0
LWPOLYLINE
  5
2AA
100
AcDbEntity
  8
RACCORDO
100
AcDbPolyline
 62
250
  6
CONTINUOUS
 90
22
 70
0
 10
12.607290404
 20
21.2573934567
 10
12.6086829108
 20
21.2947822974
 10
12.6128544915
 20
21.3318794061
 10
12.6197636293
 20
21.3684802324
 10
12.6293442912
 20
21.4043539431
 10
12.6415309388
 20
21.43933989
 10
12.6562820724
 20
21.4733406112
 10
12.6735434365
 20
21.5062088228
 10
12.6932058857
 20
21.5377177634
 10
12.7151372904
 20
21.5676577106
 10
12.7391801541
 20
21.5958325631
 10
12.7652243896
 20
21.6221305953
 10
12.7931993836
 20
21.6464734685
 10
12.8229439346
 20
21.668703076
 10
12.8543192089
 20
21.688698838
 10
12.8873061492
 20
21.7064082263
 10
12.9218734059
 20
21.7217370308
 10
12.9577252389
 20
21.7344790754
 10
12.9944253161
 20
21.7444534638
 10
13.0316768887
 20
21.7515939295
 10
13.069345487
 20
21.7558887046
 10
13.107214252
 20
21.7573173038
  0
LWPOLYLINE
  5
2AB
100
AcDbEntity
  8
RACCORDO
100
AcDbPolyline
 62
250
  6
CONTINUOUS
 90
22
 70
0
 10
12.3073360915
 20
21.2573934606
 10
12.3097243746
 20
21.3177360646
 10
12.3163863751
 20
21.3769727374
 10
12.327322093
 20
21.435103479
 10
12.3426327949
 20
21.4923840767
 10
12.3622172141
 20
21.5485587432
 10
12.3857715508
 20
21.6028601162
 10
12.4133800344
 20
21.6553261995
 10
12.4449584355
 20
21.7059189893
 10
12.4799502649
 20
21.753757112
 10
12.5183574187
 20
21.7987470495
 10
12.5601780009
 20
21.8409823198
 10
12.6048498345
 20
21.8798621035
 10
12.6523652167
 20
21.915364412
 10
12.7027318504
 20
21.9475112338
 10
12.7554106678
 20
21.9757677147
 10
12.8106570556
 20
22.0001506854
 10
12.8682156271
 20
22.0206433153
 10
12.9267811548
 20
22.036660258
 10
12.9859185628
 20
22.0480063981
 10
13.0460629271
 20
22.054876851
 10
13.1072142476
 20
22.0572716167
  0
LINE
  5
2AC
100
AcDbEntity
  8
RACCORDO
100
AcDbLine
 62
250
  6
CONTINUOUS
 10
12.6072904001
 20
46.8204027396
 11
12.6257096081
 21
46.8388219477
  0
LINE
  5
2AD
100
AcDbEntity
  8
RACCORDO
100
AcDbLine
 62
250
  6
CONTINUOUS
 10
13.1072142476
 20
46.3204788921
 11
13.1256334557
 21
46.3388981001
  0
LWPOLYLINE
  5
2AE
100
AcDbEntity
  8
RACCORDO
100
AcDbPolyline
 62
250
  6
CONTINUOUS
 90
7
 70
0
 10
80.417905625
 20
9.8738480704
 10
80.4165040578
 20
9.8735491316
 10
80.4137902026
 20
9.8732587061
 10
80.4097640595
 20
9.8729767937
 10
80.4043820398
 20
9.8727021573
 10
80.3976877321
 20
9.8724360342
 10
80.3898119027
 20
9.8721821361
  0
LWPOLYLINE
  5
2AF
100
AcDbEntity
  8
RACCORDO
100
AcDbPolyline
 62
250
  6
CONTINUOUS
 90
25
 70
0
 10
79.2186366326
 20
3.2334889499
 10
79.2846696135
 20
3.2357626898
 10
79.3497298732
 20
3.2421711756
 10
79.4138174116
 20
3.2527144074
 10
79.4771403179
 20
3.2674680782
 10
79.5394905029
 20
3.2863564951
 10
79.6002436993
 20
3.3091525784
 10
79.6594416087
 20
3.3359122147
 10
79.7170425294
 20
3.3665795174
 10
79.7722970895
 20
3.4007597481
 10
79.8251655036
 20
3.4384933251
 10
79.875687557
 20
3.47973983
 10
79.9232332341
 20
3.5239832687
 10
79.9677482666
 20
3.5712170582
 10
80.0092869226
 20
3.6214477815
 10
80.0473819917
 20
3.6741791928
 10
80.0820371078
 20
3.729482994
 10
80.1132486368
 20
3.7872874832
 10
80.1405384668
 20
3.8468813096
 10
80.1638560449
 20
3.9083132032
 10
80.1832519239
 20
3.971534434
 10
80.1983996502
 20
4.0356874609
 10
80.209190406
 20
4.1004864368
 10
80.2157330091
 20
4.1662172088
 10
80.2180274596
 20
4.2328797769
  0
LWPOLYLINE
  5
2B0
100
AcDbEntity
  8
RACCORDO
100
AcDbPolyline
 62
250
  6
CONTINUOUS
 90
25
 70
0
 10
79.2186366326
 20
2.7337935364
 10
79.3169738362
 20
2.7370593866
 10
79.4146664942
 20
2.7467358468
 10
79.5113007822
 20
2.7627387346
 10
79.6063928042
 20
2.7849360887
 10
79.6996307813
 20
2.8132032883
 10
79.7908611411
 20
2.8474750726
 10
79.8797821268
 20
2.8876537207
 10
79.9659256031
 20
2.9335436525
 10
80.0488922983
 20
2.9849347531
 10
80.1283187658
 20
3.0415978503
 10
80.2038846078
 20
3.1032998725
 10
80.2752796586
 20
3.1697868909
 10
80.3421550554
 20
3.2407254623
 10
80.4042808616
 20
3.3158623743
 10
80.4615186389
 20
3.3950649334
 10
80.5136307315
 20
3.4780930847
 10
80.5603075132
 20
3.5645513416
 10
80.6013017298
 20
3.6540697283
 10
80.6364080765
 20
3.7463025904
 10
80.6654261784
 20
3.8408432272
 10
80.6881731683
 20
3.9371993005
 10
80.7045248091
 20
4.0349248239
 10
80.7143963431
 20
4.1336280039
 10
80.7177228731
 20
4.2328797769
  0
LINE
  5
2B1
100
AcDbEntity
  8
RACCORDO
100
AcDbLine
 62
250
  6
CONTINUOUS
 10
71.2180274596
 20
2.2340981229
 11
71.7177228731
 21
2.2340981229
  0
LINE
  5
2B2
100
AcDbEntity
  8
RACCORDO
100
AcDbLine
 62
7
  6
CONTINUOUS
 10
79.2925796072
 20
2.6598505618
 11
72.2913612612
 21
2.6598505618
  0
LINE
  5
2B3
100
AcDbEntity
  8
RACCORDO
100
AcDbLine
 62
250
  6
CONTINUOUS
 10
72.2174182866
 20
2.7337935364
 11
79.2186366326
 21
2.7337935364
  0
LINE
  5
2B4
100
AcDbEntity
  8
RACCORDO
100
AcDbLine
 62
250
  6
CONTINUOUS
 10
72.2174182866
 20
3.2334889499
 11
79.2186366326
 21
3.2334889499
  0
LINE
  5
2B5
100
AcDbEntity
  8
RACCORDO
100
AcDbLine
 62
250
  6
CONTINUOUS
 10
12.6072904001
 20
21.2573934606
 11
12.6257096081
 21
21.2389742525
  0
LINE
  5
2B6
100
AcDbEntity
  8
RACCORDO
100
AcDbLine
 62
250
  6
CONTINUOUS
 10
13.1072142476
 20
21.7573173081
 11
13.1256334557
 21
21.7388981001
  0
LINE
  5
2B7
100
AcDbEntity
  8
RACCORDO
100
AcDbLine
 62
250
  6
CONTINUOUS
 10
19.0078183322
 20
64.8443072503
 11
19.0078183322
 21
65.3440026638
  0
LWPOLYLINE
  5
2B8
100
AcDbEntity
  8
RACCORDO
100
AcDbPolyline
 62
250
  6
CONTINUOUS
 90
25
 70
0
 10
19.5075137171
 20
65.8436981059
 10
19.506492233
 20
65.8111077701
 10
19.5033667985
 20
65.7787774894
 10
19.498173503
 20
65.746840788
 10
19.4909683796
 20
65.7154705902
 10
19.4817974342
 20
65.6847467503
 10
19.4706685575
 20
65.6546638994
 10
19.4576038002
 20
65.6253041419
 10
19.4426690752
 20
65.5968347445
 10
19.4259263052
 20
65.5693807675
 10
19.4074330404
 20
65.5430438705
 10
19.3872722784
 20
65.5179483705
 10
19.3655644791
 20
65.4942393809
 10
19.3424294454
 20
65.472030811
 10
19.3179472951
 20
65.4513834384
 10
19.2921901342
 20
65.4323520107
 10
19.2654042479
 20
65.4150982343
 10
19.2375700215
 20
65.3995906575
 10
19.2083131105
 20
65.3856788282
 10
19.177528042
 20
65.3734475113
 10
19.1454845961
 20
65.3631377074
 10
19.1123483222
 20
65.3549093221
 10
19.0782677981
 20
65.3488975162
 10
19.0433709494
 20
65.3452228669
 10
19.0078182962
 20
65.3440026998
  0
LWPOLYLINE
  5
2B9
100
AcDbEntity
  8
RACCORDO
100
AcDbPolyline
 62
250
  6
CONTINUOUS
 90
25
 70
0
 10
20.0072091592
 20
65.8436980773
 10
20.004941901
 20
65.7781634071
 10
19.9986442315
 20
65.7136626729
 10
19.9883161507
 20
65.6501958748
 10
19.9738888632
 20
65.5875991801
 10
19.9554311645
 20
65.5260364214
 10
19.9331494405
 20
65.4659990972
 10
19.9069924993
 20
65.4074105942
 10
19.8770115328
 20
65.3503475257
 10
19.8435665019
 20
65.2955312308
 10
19.8065842348
 20
65.2429716624
 10
19.7661379034
 20
65.1926588675
 10
19.7228069838
 20
65.1452843268
 10
19.6765987692
 20
65.1009332891
 10
19.6275059664
 20
65.0595205056
 10
19.5760861722
 20
65.02148171
 10
19.5226424623
 20
64.9869112635
 10
19.466871761
 20
64.9557148049
 10
19.4084224379
 20
64.9280449852
 10
19.3469163141
 20
64.9036594857
 10
19.2827315686
 20
64.8828006251
 10
19.216651107
 20
64.8663480105
 10
19.148935898
 20
64.8545948444
 10
19.0793249731
 20
64.8472479243
 10
19.0078183322
 20
64.8443072503
  0
LINE
  5
2BA
100
AcDbEntity
  8
RACCORDO
100
AcDbLine
 62
7
  6
CONTINUOUS
 10
12.619565505
 20
17.7737189882
 11
12.6072904001
 21
17.7121934347
  0
LINE
  5
2BB
100
AcDbEntity
  8
DRAFT
100
AcDbLine
 62
7
  6
CONTINUOUS
 10
12.619565505
 20
17.7737189882
 11
12.6257096081
 21
17.8045145977
  0
LINE
  5
2BC
100
AcDbEntity
  8
RACCORDO
100
AcDbLine
 62
7
  6
CONTINUOUS
 10
10.6434365908
 20
46.4572785682
 11
10.6031143373
 21
46.4371235841
  0
LINE
  5
2BD
100
AcDbEntity
  8
RACCORDO
100
AcDbLine
 62
250
  6
CONTINUOUS
 10
10.4775873481
 20
46.1888524017
 11
10.437062848
 21
46.1685963251
  0
LINE
  5
2BE
100
AcDbEntity
  8
RACCORDO
100
AcDbLine
 62
250
  6
CONTINUOUS
 10
10.437062848
 20
46.0185963251
 11
10.4335707711
 21
46.0168508186
  0
LWPOLYLINE
  5
2BF
100
AcDbEntity
  8
RACCORDO
100
AcDbPolyline
 62
7
  6
CONTINUOUS
 90
6
 70
0
 10
10.6434365532
 20
46.4572785494
 10
10.6552697172
 20
46.4628737932
 10
10.6846558286
 20
46.4741801828
 10
10.7150605553
 20
46.482339504
 10
10.7461519983
 20
46.4872634973
 10
10.7775874317
 20
46.4888981001
  0
LWPOLYLINE
  5
2C0
100
AcDbEntity
  8
RACCORDO
100
AcDbPolyline
 62
7
  6
CONTINUOUS
 90
19
 70
0
 10
78.1257674653
 20
9.7392400942
 10
78.1680002837
 20
9.7434431047
 10
78.20923436
 20
9.7509914325
 10
78.2494696944
 20
9.7618850776
 10
78.2889985164
 20
9.7762369726
 10
78.3275285964
 20
9.793934185
 10
78.3641832455
 20
9.8146379171
 10
78.3989012129
 20
9.8384234815
 10
78.4317437494
 20
9.8652155656
 10
78.4620179188
 20
9.8944494338
 10
78.4896693984
 20
9.9261770754
 10
78.5147525109
 20
9.960346501
 10
78.5367372887
 20
9.9962370083
 10
78.5555579639
 20
10.0338846375
 10
78.5712803044
 20
10.0732533483
 10
78.5835716458
 20
10.113514317
 10
78.5923210999
 20
10.1543912692
 10
78.5976395548
 20
10.1961604795
 10
78.5995270107
 20
10.2388219477
  0
LWPOLYLINE
  5
2C1
100
AcDbEntity
  8
RACCORDO
100
AcDbPolyline
 62
250
  6
CONTINUOUS
 90
4
 70
0
 10
80.7177228731
 20
9.5738937619
 10
80.7144370977
 20
9.5735945616
 10
80.7076159892
 20
9.5733039909
 10
80.6973689601
 20
9.5730220497
  0
LINE
  5
2C2
100
AcDbEntity
  8
RACCORDO
100
AcDbLine
 62
250
  6
CONTINUOUS
 10
80.2180274596
 20
4.2328797769
 11
80.7177228731
 21
4.2328797769
  0
LINE
  5
2C3
100
AcDbEntity
  8
RACCORDO
100
AcDbLine
 62
250
  6
CONTINUOUS
 10
14.8072091592
 20
7.4340981229
 11
14.3075137457
 21
7.4340981229
  0
LWPOLYLINE
  5
2C4
100
AcDbEntity
  8
RACCORDO
100
AcDbPolyline
 62
250
  6
CONTINUOUS
 90
25
 70
0
 10
13.8078183036
 20
7.9337935078
 10
13.8404086394
 20
7.9327720237
 10
13.8727389201
 20
7.9296465892
 10
13.9046756215
 20
7.9244532937
 10
13.9360458193
 20
7.9172481703
 10
13.9667696591
 20
7.9080772249
 10
13.9968525101
 20
7.8969483482
 10
14.0262122676
 20
7.8838835909
 10
14.054681665
 20
7.8689488659
 10
14.082135642
 20
7.8522060959
 10
14.108472539
 20
7.8337128311
 10
14.133568039
 20
7.8135520691
 10
14.1572770286
 20
7.7918442698
 10
14.1794855985
 20
7.7687092361
 10
14.2001329711
 20
7.7442270858
 10
14.2191643988
 20
7.7184699249
 10
14.2364181752
 20
7.6916840386
 10
14.251925752
 20
7.6638498122
 10
14.2658375813
 20
7.6345929012
 10
14.2780688982
 20
7.6038078327
 10
14.2883787021
 20
7.5717643868
 10
14.2966070874
 20
7.5386281129
 10
14.3026188933
 20
7.5045475888
 10
14.3062935426
 20
7.4696507401
 10
14.3075137097
 20
7.4340980869
  0
LWPOLYLINE
  5
2C5
100
AcDbEntity
  8
RACCORDO
100
AcDbPolyline
 62
250
  6
CONTINUOUS
 90
25
 70
0
 10
13.8078183322
 20
8.4334889499
 10
13.8733530024
 20
8.4312216917
 10
13.9378537366
 20
8.4249240222
 10
14.0013205346
 20
8.4145959414
 10
14.0639172294
 20
8.4001686539
 10
14.1254799881
 20
8.3817109552
 10
14.1855173122
 20
8.3594292312
 10
14.2441058153
 20
8.33327229
 10
14.3011688838
 20
8.3032913235
 10
14.3559851786
 20
8.2698462926
 10
14.4085447471
 20
8.2328640255
 10
14.458857542
 20
8.1924176941
 10
14.5062320827
 20
8.1490867745
 10
14.5505831204
 20
8.1028785599
 10
14.5919959039
 20
8.0537857571
 10
14.6300346994
 20
8.0023659629
 10
14.664605146
 20
7.948922253
 10
14.6958016046
 20
7.8931515517
 10
14.7234714243
 20
7.8347022286
 10
14.7478569238
 20
7.7731961048
 10
14.7687157844
 20
7.7090113593
 10
14.785168399
 20
7.6429308977
 10
14.7969215651
 20
7.5752156887
 10
14.8042684852
 20
7.5056047638
 10
14.8072091592
 20
7.4340981229
  0
LINE
  5
2C6
100
AcDbEntity
  8
RACCORDO
100
AcDbLine
 62
7
  6
CONTINUOUS
 10
10.6031143373
 20
21.6406726161
 11
10.6434365908
 21
21.620517632
  0
LINE
  5
2C7
100
AcDbEntity
  8
RACCORDO
100
AcDbLine
 62
250
  6
CONTINUOUS
 10
10.437062848
 20
21.9091998751
 11
10.4775873481
 21
21.8889437985
  0
LINE
  5
2C8
100
AcDbEntity
  8
RACCORDO
100
AcDbLine
 62
7
  6
CONTINUOUS
 10
12.6072904001
 20
50.3656027655
 11
12.619565505
 21
50.304077212
  0
LINE
  5
2C9
100
AcDbEntity
  8
DRAFT
100
AcDbLine
 62
7
  6
CONTINUOUS
 10
12.6257096081
 20
50.2732816025
 11
12.619565505
 21
50.304077212
  0
LINE
  5
2CA
100
AcDbEntity
  8
RACCORDO
100
AcDbLine
 62
250
  6
CONTINUOUS
 10
22.7202234823
 20
18.4001597842
 11
22.7133569726
 21
18.5388981001
  0
LWPOLYLINE
  5
2CB
100
AcDbEntity
  8
0
100
AcDbPolyline
 62
250
  6
CONTINUOUS
 90
19
 70
0
 10
23.3493745843
 20
8.2254830375
 10
23.351315451
 20
8.1818179459
 10
23.3570645196
 20
8.1384802489
 10
23.3665795262
 20
8.0958016495
 10
23.3797925582
 20
8.0541002937
 10
23.3966024634
 20
8.0137051765
 10
23.4168680455
 20
7.9749505548
 10
23.4404159965
 20
7.9381492539
 10
23.4670715927
 20
7.9035583578
 10
23.4966563264
 20
7.871409191
 10
23.5289791406
 20
7.8419248453
 10
23.5637700351
 20
7.8153658039
 10
23.6006962444
 20
7.7919794929
 10
23.6394682087
 20
7.7719309026
 10
23.6797822868
 20
7.7553595704
 10
23.7212455864
 20
7.7423983508
 10
23.763506561
 20
7.7331143302
 10
23.8062667814
 20
7.7275313824
 10
23.8492032469
 20
7.7256543751
  0
LINE
  5
2CC
100
AcDbEntity
  8
RACCORDO
100
AcDbLine
 62
7
  6
CONTINUOUS
 10
19.4335707711
 20
65.9176410519
 11
19.4335707711
 21
67.7188593979
  0
LINE
  5
2CD
100
AcDbEntity
  8
RACCORDO
100
AcDbLine
 62
250
  6
CONTINUOUS
 10
19.5075137457
 20
67.6449164233
 11
19.5075137457
 21
65.8436980773
  0
LINE
  5
2CE
100
AcDbEntity
  8
RACCORDO
100
AcDbLine
 62
250
  6
CONTINUOUS
 10
20.0072091592
 20
67.6449164233
 11
20.0072091592
 21
65.8436980773
  0
LINE
  5
2CF
100
AcDbEntity
  8
RACCORDO
100
AcDbLine
 62
250
  6
CONTINUOUS
 10
20.081476117
 20
18.8925636607
 11
20.081476117
 21
23.1852325395
  0
LINE
  5
2D0
100
AcDbEntity
  8
RACCORDO
100
AcDbLine
 62
250
  6
CONTINUOUS
 10
20.081476117
 20
44.8925636607
 11
20.081476117
 21
49.1852325395
  0
LINE
  5
2D1
100
AcDbEntity
  8
RACCORDO
100
AcDbLine
 62
7
  6
CONTINUOUS
 10
20.7126183094
 20
49.0464942236
 11
20.7126183094
 21
45.0313019766
  0
LINE
  5
2D2
100
AcDbEntity
  8
RACCORDO
100
AcDbLine
 62
7
  6
CONTINUOUS
 10
20.7126183094
 20
23.0464942236
 11
20.7126183094
 21
19.0313019766
  0
LINE
  5
2D3
100
AcDbEntity
  8
RACCORDO
100
AcDbLine
 62
250
  6
CONTINUOUS
 10
21.0065999862
 20
68.6443072503
 11
21.0065999862
 21
69.1440026638
  0
LINE
  5
2D4
100
AcDbEntity
  8
RACCORDO
100
AcDbLine
 62
250
  6
CONTINUOUS
 10
21.06628387
 20
50.1700402925
 11
21.06628387
 21
49.677636416
  0
LINE
  5
2D5
100
AcDbEntity
  8
RACCORDO
100
AcDbLine
 62
250
  6
CONTINUOUS
 10
21.06628387
 20
24.1700402925
 11
21.06628387
 21
23.677636416
  0
LINE
  5
2D6
100
AcDbEntity
  8
RACCORDO
100
AcDbLine
 62
250
  6
CONTINUOUS
 10
21.06628387
 20
17.9077559077
 11
21.06628387
 21
18.4001597842
  0
LINE
  5
2D7
100
AcDbEntity
  8
RACCORDO
100
AcDbLine
 62
250
  6
CONTINUOUS
 10
21.06628387
 20
43.9077559077
 11
21.06628387
 21
44.4001597842
  0
LINE
  5
2D8
100
AcDbEntity
  8
RACCORDO
100
AcDbLine
 62
250
  6
CONTINUOUS
 10
22.7202234823
 20
50.1700402925
 11
22.7202234823
 21
49.677636416
  0
LINE
  5
2D9
100
AcDbEntity
  8
RACCORDO
100
AcDbLine
 62
250
  6
CONTINUOUS
 10
22.7202234823
 20
24.1700402925
 11
22.7202234823
 21
23.677636416
  0
LINE
  5
2DA
100
AcDbEntity
  8
RACCORDO
100
AcDbLine
 62
250
  6
CONTINUOUS
 10
22.7202234823
 20
17.9077559077
 11
22.7202234823
 21
18.4001597842
  0
LINE
  5
2DB
100
AcDbEntity
  8
RACCORDO
100
AcDbLine
 62
250
  6
CONTINUOUS
 10
22.7202234823
 20
43.9077559077
 11
22.7202234823
 21
44.4001597842
  0
LWPOLYLINE
  5
2DC
100
AcDbEntity
  8
RACCORDO
100
AcDbPolyline
 62
250
  6
CONTINUOUS
 90
25
 70
0
 10
20.5738799935
 20
44.8925636607
 10
20.5739919672
 20
49.2185371801
 10
20.5762318332
 20
49.2514185696
 10
20.5805564223
 20
49.2837526119
 10
20.5868999163
 20
49.3153773441
 10
20.5952138883
 20
49.3462233941
 10
20.6054953794
 20
49.3763061676
 10
20.6177151051
 20
49.4055493674
 10
20.631807742
 20
49.4338039632
 10
20.6477342496
 20
49.4609716037
 10
20.6654398165
 20
49.4869536897
 10
20.6848478254
 20
49.5116409807
 10
20.705878752
 20
49.5349243608
 10
20.7284297274
 20
49.556691888
 10
20.7524298637
 20
49.5768806356
 10
20.7778467825
 20
49.5954536136
 10
20.804469541
 20
49.6122589022
 10
20.8323141322
 20
49.6272959297
 10
20.861731948
 20
49.6406748445
 10
20.8928347258
 20
49.6523079125
 10
20.9253591069
 20
49.6619544714
 10
20.9591081279
 20
49.6694369484
 10
20.9939255124
 20
49.6746198995
 10
21.0297021122
 20
49.6773912088
 10
21.0662846793
 20
49.6776356067
  0
LWPOLYLINE
  5
2DD
100
AcDbEntity
  8
RACCORDO
100
AcDbPolyline
 62
250
  6
CONTINUOUS
 90
25
 70
0
 10
20.5738799935
 20
18.8925636607
 10
20.5739919672
 20
23.2185371801
 10
20.5762318332
 20
23.2514185696
 10
20.5805564223
 20
23.2837526119
 10
20.5868999163
 20
23.3153773441
 10
20.5952138883
 20
23.3462233941
 10
20.6054953794
 20
23.3763061676
 10
20.6177151051
 20
23.4055493674
 10
20.631807742
 20
23.4338039632
 10
20.6477342496
 20
23.4609716037
 10
20.6654398165
 20
23.4869536897
 10
20.6848478254
 20
23.5116409807
 10
20.705878752
 20
23.5349243608
 10
20.7284297274
 20
23.556691888
 10
20.7524298637
 20
23.5768806356
 10
20.7778467825
 20
23.5954536136
 10
20.804469541
 20
23.6122589022
 10
20.8323141322
 20
23.6272959297
 10
20.861731948
 20
23.6406748445
 10
20.8928347258
 20
23.6523079125
 10
20.9253591069
 20
23.6619544714
 10
20.9591081279
 20
23.6694369484
 10
20.9939255124
 20
23.6746198995
 10
21.0297021122
 20
23.6773912088
 10
21.0662846793
 20
23.6776356067
  0
LWPOLYLINE
  5
2DE
100
AcDbEntity
  8
RACCORDO
100
AcDbPolyline
 62
250
  6
CONTINUOUS
 90
25
 70
0
 10
20.081476117
 20
49.1852325395
 10
20.0837117482
 20
49.2503968611
 10
20.0898563735
 20
49.3143840187
 10
20.099909993
 20
49.3771940125
 10
20.1139455974
 20
49.4389671396
 10
20.1318901959
 20
49.4995631028
 10
20.1535248164
 20
49.5585610104
 10
20.1788828393
 20
49.6160268881
 10
20.2079308841
 20
49.67189471
 10
20.2403498373
 20
49.7255455072
 10
20.2761888058
 20
49.7769724746
 10
20.3153986828
 20
49.8261824173
 10
20.3575130344
 20
49.8725767815
 10
20.4025175587
 20
49.9160956548
 10
20.4504265576
 20
49.9567989498
 10
20.5008165035
 20
49.9942678494
 10
20.5534352433
 20
50.0284425988
 10
20.6085349302
 20
50.059382953
 10
20.6664484963
 20
50.0868493601
 10
20.7275611175
 20
50.1110647664
 10
20.7914876181
 20
50.1318062256
 10
20.8574054031
 20
50.1481653469
 10
20.9250402743
 20
50.1598393333
 10
20.9946664299
 20
50.1671309819
 10
21.06628387
 20
50.1700402925
  0
LWPOLYLINE
  5
2DF
100
AcDbEntity
  8
RACCORDO
100
AcDbPolyline
 62
250
  6
CONTINUOUS
 90
25
 70
0
 10
20.081476117
 20
23.1852325395
 10
20.0837117482
 20
23.2503968611
 10
20.0898563735
 20
23.3143840187
 10
20.099909993
 20
23.3771940125
 10
20.1139455974
 20
23.4389671396
 10
20.1318901959
 20
23.4995631028
 10
20.1535248164
 20
23.5585610104
 10
20.1788828393
 20
23.6160268881
 10
20.2079308841
 20
23.67189471
 10
20.2403498373
 20
23.7255455072
 10
20.2761888058
 20
23.7769724746
 10
20.3153986828
 20
23.8261824173
 10
20.3575130344
 20
23.8725767815
 10
20.4025175587
 20
23.9160956548
 10
20.4504265576
 20
23.9567989498
 10
20.5008165035
 20
23.9942678494
 10
20.5534352433
 20
24.0284425988
 10
20.6085349302
 20
24.059382953
 10
20.6664484963
 20
24.0868493601
 10
20.7275611175
 20
24.1110647664
 10
20.7914876181
 20
24.1318062256
 10
20.8574054031
 20
24.1481653469
 10
20.9250402743
 20
24.1598393333
 10
20.9946664299
 20
24.1671309819
 10
21.06628387
 20
24.1700402925
  0
LWPOLYLINE
  5
2E0
100
AcDbEntity
  8
0
100
AcDbPolyline
 62
250
  6
CONTINUOUS
 90
19
 70
0
 10
23.3493745843
 20
59.8523131627
 10
23.3513106498
 20
59.8959238966
 10
23.3570443818
 20
59.9392023899
 10
23.36653215
 20
59.9818185232
 10
23.3797017363
 20
60.0234473488
 10
23.3964527602
 20
60.0637711572
 10
23.4166573266
 20
60.1024819485
 10
23.4401630383
 20
60.1392869058
 10
23.4667892894
 20
60.1739025233
 10
23.4963262463
 20
60.2060580443
 10
23.5285418969
 20
60.2355057964
 10
23.5631932378
 20
60.2620281513
 10
23.6000234115
 20
60.2854300008
 10
23.6387880248
 20
60.3055497762
 10
23.6791586939
 20
60.3222110631
 10
23.7207216197
 20
60.3352584251
 10
23.7631167754
 20
60.34461361
 10
23.806052611
 20
60.3502461586
 10
23.8492032468
 20
60.3521418252
  0
LINE
  5
2E1
100
AcDbEntity
  8
RACCORDO
100
AcDbLine
 62
250
  6
CONTINUOUS
 10
22.7202234823
 20
49.677636416
 11
22.7133569726
 21
49.5388981001
  0
LINE
  5
2E2
100
AcDbEntity
  8
RACCORDO
100
AcDbLine
 62
250
  6
CONTINUOUS
 10
20.5738799935
 20
44.8925636607
 11
20.7126183094
 21
45.0313019766
  0
LINE
  5
2E3
100
AcDbEntity
  8
RACCORDO
100
AcDbLine
 62
250
  6
CONTINUOUS
 10
21.06628387
 20
44.4001597842
 11
21.2050221859
 21
44.5388981001
  0
LINE
  5
2E4
100
AcDbEntity
  8
RACCORDO
100
AcDbLine
 62
7
  6
CONTINUOUS
 10
78.4629022534
 20
13.7760313954
 11
78.2126183094
 21
13.7503538751
  0
LINE
  5
2E5
100
AcDbEntity
  8
RACCORDO
100
AcDbLine
 62
250
  6
CONTINUOUS
 10
80.3898119027
 20
9.8721821361
 11
80.3705009807
 21
9.8717107136
  0
LINE
  5
2E6
100
AcDbEntity
  8
RACCORDO
100
AcDbLine
 62
250
  6
CONTINUOUS
 10
80.6973689601
 20
9.5730220497
 11
80.6672179563
 21
9.5724817176
  0
LINE
  5
2E7
100
AcDbEntity
  8
RACCORDO
100
AcDbLine
 62
250
  6
CONTINUOUS
 10
80.3705009807
 20
9.8717107136
 11
80.3469377693
 21
9.8713008122
  0
LINE
  5
2E8
100
AcDbEntity
  8
RACCORDO
100
AcDbLine
 62
250
  6
CONTINUOUS
 10
80.3469377693
 20
9.8713008122
 11
80.3041368906
 21
9.8708198667
  0
LINE
  5
2E9
100
AcDbEntity
  8
RACCORDO
100
AcDbLine
 62
250
  6
CONTINUOUS
 10
80.6672179563
 20
9.5724817176
 11
80.5992775189
 21
9.5717564859
  0
LINE
  5
2EA
100
AcDbEntity
  8
RACCORDO
100
AcDbLine
 62
250
  6
CONTINUOUS
 10
80.3041368906
 20
9.8708198667
 11
80.2540656657
 21
9.870537243
  0
LINE
  5
2EB
100
AcDbEntity
  8
RACCORDO
100
AcDbLine
 62
250
  6
CONTINUOUS
 10
80.5992775189
 20
9.5717564859
 11
80.4332772836
 21
9.5708655375
  0
LINE
  5
2EC
100
AcDbEntity
  8
0
100
AcDbLine
 62
7
  6
CONTINUOUS
 10
23.7545911954
 20
7.6310423236
 11
67.4706454234
 21
7.6310423236
  0
LINE
  5
2ED
100
AcDbEntity
  8
0
100
AcDbLine
 62
250
  6
CONTINUOUS
 10
23.8492032468
 20
7.725654375
 11
67.376033372
 21
7.725654375
  0
LINE
  5
2EE
100
AcDbEntity
  8
RACCORDO
100
AcDbLine
 62
7
  6
CONTINUOUS
 10
13.7338753576
 20
7.8598505618
 11
11.9326570116
 21
7.8598505618
  0
LINE
  5
2EF
100
AcDbEntity
  8
RACCORDO
100
AcDbLine
 62
250
  6
CONTINUOUS
 10
12.0065999862
 20
7.9337935364
 11
13.8078183322
 21
7.9337935364
  0
LINE
  5
2F0
100
AcDbEntity
  8
0
100
AcDbLine
 62
250
  6
CONTINUOUS
 10
23.3493745843
 20
8.2254830375
 11
67.8758620345
 21
8.2254830375
  0
LINE
  5
2F1
100
AcDbEntity
  8
RACCORDO
100
AcDbLine
 62
250
  6
CONTINUOUS
 10
12.0065999862
 20
8.4334889499
 11
13.8078183322
 21
8.4334889499
  0
LINE
  5
2F2
100
AcDbEntity
  8
RACCORDO
100
AcDbLine
 62
250
  6
CONTINUOUS
 10
78.1180223712
 20
9.4205245835
 11
77.9939249526
 21
9.4205245835
  0
LINE
  5
2F3
100
AcDbEntity
  8
RACCORDO
100
AcDbLine
 62
250
  6
CONTINUOUS
 10
13.2313116662
 20
9.4205245835
 11
13.1072142476
 21
9.4205245835
  0
LINE
  5
2F4
100
AcDbEntity
  8
RACCORDO
100
AcDbLine
 62
250
  6
CONTINUOUS
 10
11.0072091592
 20
9.4328797769
 11
10.5075137457
 21
9.4328797415
  0
LINE
  5
2F5
100
AcDbEntity
  8
RACCORDO
100
AcDbLine
 62
250
  6
CONTINUOUS
 10
80.4332772836
 20
9.5708655375
 11
79.5626183094
 21
9.5705245835
  0
LINE
  5
2F6
100
AcDbEntity
  8
RACCORDO
100
AcDbLine
 62
250
  6
CONTINUOUS
 10
78.1180223712
 20
9.7204788921
 11
77.9939249526
 21
9.7204788921
  0
LINE
  5
2F7
100
AcDbEntity
  8
RACCORDO
100
AcDbLine
 62
250
  6
CONTINUOUS
 10
13.2313116662
 20
9.7204788921
 11
13.1072142476
 21
9.7204788921
  0
LINE
  5
2F8
100
AcDbEntity
  8
RACCORDO
100
AcDbLine
 62
7
  6
CONTINUOUS
 10
13.0994510671
 20
9.7388983089
 11
13.2128924581
 21
9.7388981001
  0
LINE
  5
2F9
100
AcDbEntity
  8
RACCORDO
100
AcDbLine
 62
7
  6
CONTINUOUS
 10
78.0123441607
 20
9.7388981001
 11
78.1257855517
 21
9.7388983089
  0
LINE
  5
2FA
100
AcDbEntity
  8
RACCORDO
100
AcDbLine
 62
250
  6
CONTINUOUS
 10
80.2540656657
 20
9.870537243
 11
79.7941991014
 21
9.8704788921
  0
LINE
  5
2FB
100
AcDbEntity
  8
RACCORDO
100
AcDbLine
 62
7
  6
CONTINUOUS
 10
10.7775874317
 20
9.8888981001
 11
11.4126183094
 21
9.8888981001
  0
LINE
  5
2FC
100
AcDbEntity
  8
RACCORDO
100
AcDbLine
 62
7
  6
CONTINUOUS
 10
79.8126183094
 20
9.8888981001
 11
80.4476491871
 21
9.8888981001
  0
LINE
  5
2FD
100
AcDbEntity
  8
RACCORDO
100
AcDbLine
 62
250
  6
CONTINUOUS
 10
78.9179005273
 20
10.2204027396
 11
78.6179462187
 21
10.2204027392
  0
LINE
  5
2FE
100
AcDbEntity
  8
RACCORDO
100
AcDbLine
 62
250
  6
CONTINUOUS
 10
12.3073360915
 20
10.2204027396
 11
12.6072904001
 21
10.2204027396
  0
LINE
  5
2FF
100
AcDbEntity
  8
RACCORDO
100
AcDbLine
 62
250
  6
CONTINUOUS
 10
11.4310375174
 20
9.8704788921
 11
10.9572016936
 21
9.8705897799
  0
LINE
  5
300
100
AcDbEntity
  8
RACCORDO
100
AcDbLine
 62
250
  6
CONTINUOUS
 10
11.6626183094
 20
9.5705245835
 11
10.7311404224
 21
9.5711045655
  0
LINE
  5
301
100
AcDbEntity
  8
RACCORDO
100
AcDbLine
 62
250
  6
CONTINUOUS
 10
10.7311404224
 20
9.5711045655
 11
10.6097403419
 21
9.5718982533
  0
LINE
  5
302
100
AcDbEntity
  8
RACCORDO
100
AcDbLine
 62
250
  6
CONTINUOUS
 10
10.9572016936
 20
9.8705897799
 11
10.9109768865
 21
9.8709095712
  0
LINE
  5
303
100
AcDbEntity
  8
RACCORDO
100
AcDbLine
 62
250
  6
CONTINUOUS
 10
10.6097403419
 20
9.5718982533
 11
10.5637674076
 21
9.5724025863
  0
LINE
  5
304
100
AcDbEntity
  8
RACCORDO
100
AcDbLine
 62
250
  6
CONTINUOUS
 10
10.9109768865
 20
9.8709095712
 11
10.8833117691
 21
9.8712293626
  0
LINE
  5
305
100
AcDbEntity
  8
RACCORDO
100
AcDbLine
 62
250
  6
CONTINUOUS
 10
10.8833117691
 20
9.8712293626
 11
10.8589915155
 21
9.8716260849
  0
LWPOLYLINE
  5
306
100
AcDbEntity
  8
RACCORDO
100
AcDbPolyline
 62
250
  6
CONTINUOUS
 90
5
 70
0
 10
10.5637674076
 20
9.5724025863
 10
10.5301761792
 20
9.5729691942
 10
10.5187470797
 20
9.5732666322
 10
10.5111388623
 20
9.5735748215
 10
10.5075137457
 20
9.5738937619
  0
LWPOLYLINE
  5
307
100
AcDbEntity
  8
RACCORDO
100
AcDbPolyline
 62
250
  6
CONTINUOUS
 90
8
 70
0
 10
10.8589915155
 20
9.8716260849
 10
10.8384811979
 20
9.8720955468
 10
10.8298862708
 20
9.8723569477
 10
10.8224177716
 20
9.8726351675
 10
10.8163959676
 20
9.8729240093
 10
10.8119276145
 20
9.8732214076
 10
10.8089059565
 20
9.873529428
 10
10.8073309938
 20
9.8738480704
  0
LWPOLYLINE
  5
308
100
AcDbEntity
  8
RACCORDO
100
AcDbPolyline
 62
250
  6
CONTINUOUS
 90
28
 70
0
 10
77.9939249526
 20
9.7204788921
 10
77.889834809
 20
9.7234850842
 10
77.7863509605
 20
9.7324749345
 10
77.6838139477
 20
9.7473740703
 10
77.5827669982
 20
9.7680397082
 10
77.4833185241
 20
9.7943856273
 10
77.3851727791
 20
9.826502189
 10
77.2882899649
 20
9.8645107312
 10
77.1934183152
 20
9.9082287963
 10
77.1014296737
 20
9.9572717306
 10
77.0128431743
 20
10.011294172
 10
76.9276903202
 20
10.0702060788
 10
76.8460681808
 20
10.1339179584
 10
76.7682225925
 20
10.2022414138
 10
76.6944378548
 20
10.274930565
 10
76.6248845046
 20
10.3518310779
 10
76.5598893905
 20
10.4325933123
 10
76.499589937
 20
10.5170591175
 10
76.4439389059
 20
10.6054056366
 10
76.3931112241
 20
10.6975989797
 10
76.3475060578
 20
10.7931860453
 10
76.3074419419
 20
10.8917223964
 10
76.2730896734
 20
10.9930402421
 10
76.2447095002
 20
11.0966687792
 10
76.2225927649
 20
11.2016414062
 10
76.2068131973
 20
11.3073709761
 10
76.1973475074
 20
11.4136841661
 10
76.1941991014
 20
11.5202047433
  0
LWPOLYLINE
  5
309
100
AcDbEntity
  8
RACCORDO
100
AcDbPolyline
 62
250
  6
CONTINUOUS
 90
28
 70
0
 10
77.9939249526
 20
9.4205245835
 10
77.8718454059
 20
9.4242188919
 10
77.7512522708
 20
9.4346837175
 10
77.6321455472
 20
9.4519190604
 10
77.5143771081
 20
9.4759504861
 10
77.3980950806
 20
9.506752429
 10
77.2837438459
 20
9.5442481928
 10
77.1708889253
 20
9.5886613227
 10
77.0599647975
 20
9.6397682736
 10
76.9527192791
 20
9.6968217138
 10
76.849484525
 20
9.7597717241
 10
76.7499283803
 20
9.8286682238
 10
76.6548021972
 20
9.9029136392
 10
76.564094564
 20
9.9825509909
 10
76.4778168923
 20
10.0675372582
 10
76.3967547685
 20
10.1571458055
 10
76.3209881201
 20
10.2512605638
 10
76.2504370197
 20
10.3499976019
 10
76.1856472712
 20
10.4529784916
 10
76.1264897304
 20
10.5604720216
 10
76.0730935415
 20
10.6722094032
 10
76.0263919415
 20
10.7870058408
 10
75.9864882461
 20
10.9051127106
 10
75.9532791396
 20
11.0262786364
 10
75.9273879121
 20
11.1485646949
 10
75.9090223268
 20
11.2713245784
 10
75.8979746203
 20
11.3952045945
 10
75.8942447928
 20
11.5202047433
  0
LWPOLYLINE
  5
30A
100
AcDbEntity
  8
RACCORDO
100
AcDbPolyline
 62
250
  6
CONTINUOUS
 90
22
 70
0
 10
13.1072142515
 20
9.720478896
 10
13.0698254108
 20
9.7218714028
 10
13.0327283021
 20
9.7260429835
 10
12.9961274758
 20
9.7329521213
 10
12.9602537651
 20
9.7425327832
 10
12.9252678182
 20
9.7547194308
 10
12.891267097
 20
9.7694705644
 10
12.8583988854
 20
9.7867319285
 10
12.8268899448
 20
9.8063943777
 10
12.7969499976
 20
9.8283257824
 10
12.7687751451
 20
9.8523686461
 10
12.7424771129
 20
9.8784128816
 10
12.7181342397
 20
9.9063878756
 10
12.6959046322
 20
9.9361324266
 10
12.6759088702
 20
9.9675077009
 10
12.6581994818
 20
10.0004946412
 10
12.6428706774
 20
10.0350618979
 10
12.6301286328
 20
10.0709137309
 10
12.6201542444
 20
10.1076138081
 10
12.6130137787
 20
10.1448653807
 10
12.6087190036
 20
10.182533979
 10
12.6072904044
 20
10.220402744
  0
LWPOLYLINE
  5
30B
100
AcDbEntity
  8
RACCORDO
100
AcDbPolyline
 62
250
  6
CONTINUOUS
 90
22
 70
0
 10
13.1072142476
 20
9.4205245835
 10
13.0468716436
 20
9.4229128666
 10
12.9876349708
 20
9.4295748671
 10
12.9295042292
 20
9.440510585
 10
12.8722236314
 20
9.4558212869
 10
12.816048965
 20
9.4754057061
 10
12.761747592
 20
9.4989600428
 10
12.7092815087
 20
9.5265685264
 10
12.6586887189
 20
9.5581469275
 10
12.6108505962
 20
9.5931387569
 10
12.5658606587
 20
9.6315459107
 10
12.5236253884
 20
9.6733664929
 10
12.4847456047
 20
9.7180383265
 10
12.4492432962
 20
9.7655537087
 10
12.4170964744
 20
9.8159203424
 10
12.3888399935
 20
9.8685991598
 10
12.3644570227
 20
9.9238455476
 10
12.3439643929
 20
9.9814041191
 10
12.3279474502
 20
10.0399696468
 10
12.3166013101
 20
10.0991070548
 10
12.3097308572
 20
10.1592514191
 10
12.3073360915
 20
10.2204027396
  0
LINE
  5
30C
100
AcDbEntity
  8
RACCORDO
100
AcDbLine
 62
7
  6
CONTINUOUS
 10
13.0126183094
 20
13.7503538751
 11
12.7623343654
 21
13.7760313954
  0
LWPOLYLINE
  5
30D
100
AcDbEntity
  8
RACCORDO
100
AcDbPolyline
 62
7
  6
CONTINUOUS
 90
6
 70
0
 10
10.6434366553
 20
21.6205176534
 10
10.6552944689
 20
21.6149113823
 10
10.6846558286
 20
21.6036160174
 10
10.7149812205
 20
21.5954735913
 10
10.7459501287
 20
21.5905539313
 10
10.7772217608
 20
21.5888981001
  0
LINE
  5
30E
100
AcDbEntity
  8
RACCORDO
100
AcDbLine
 62
250
  6
CONTINUOUS
 10
10.4335707711
 20
22.0609453816
 11
10.437062848
 21
22.0591998751
  0
LINE
  5
30F
100
AcDbEntity
  8
RACCORDO
100
AcDbLine
 62
250
  6
CONTINUOUS
 10
20.5738799935
 20
23.1852325395
 11
20.7126183094
 21
23.0464942236
  0
LINE
  5
310
100
AcDbEntity
  8
RACCORDO
100
AcDbLine
 62
250
  6
CONTINUOUS
 10
21.06628387
 20
23.677636416
 11
21.2050221859
 21
23.5388981001
  0
LINE
  5
311
100
AcDbEntity
  8
RACCORDO
100
AcDbLine
 62
250
  6
CONTINUOUS
 10
22.7202234823
 20
44.4001597842
 11
22.7133569726
 21
44.5388981001
  0
LINE
  5
312
100
AcDbEntity
  8
RACCORDO
100
AcDbLine
 62
7
  6
CONTINUOUS
 10
23.2521150551
 20
18.4609986618
 11
23.2467310239
 21
18.8109728351
  0
LINE
  5
313
100
AcDbEntity
  8
RACCORDO
100
AcDbLine
 62
7
  6
CONTINUOUS
 10
23.2521150551
 20
44.4609986618
 11
23.2467310239
 21
44.8109728351
  0
LINE
  5
314
100
AcDbEntity
  8
RACCORDO
100
AcDbLine
 62
7
  6
CONTINUOUS
 10
23.2467310239
 20
18.8109728351
 11
23.2462379128
 21
18.8552918473
  0
LINE
  5
315
100
AcDbEntity
  8
RACCORDO
100
AcDbLine
 62
7
  6
CONTINUOUS
 10
23.2467310239
 20
44.8109728351
 11
23.2462379128
 21
44.8552918473
  0
LINE
  5
316
100
AcDbEntity
  8
RACCORDO
100
AcDbLine
 62
7
  6
CONTINUOUS
 10
23.2537470868
 20
18.3062870676
 11
23.2521150551
 21
18.4609986618
  0
LINE
  5
317
100
AcDbEntity
  8
RACCORDO
100
AcDbLine
 62
7
  6
CONTINUOUS
 10
23.2537470868
 20
44.3062870676
 11
23.2521150551
 21
44.4609986618
  0
LINE
  5
318
100
AcDbEntity
  8
RACCORDO
100
AcDbLine
 62
7
  6
CONTINUOUS
 10
23.2462379128
 20
18.8552918473
 11
23.2459767909
 21
18.89959505
  0
LINE
  5
319
100
AcDbEntity
  8
RACCORDO
100
AcDbLine
 62
7
  6
CONTINUOUS
 10
23.2462379128
 20
44.8552918473
 11
23.2459767909
 21
44.89959505
  0
LINE
  5
31A
100
AcDbEntity
  8
RACCORDO
100
AcDbLine
 62
7
  6
CONTINUOUS
 10
23.2545557282
 20
18.1679969651
 11
23.2537470868
 21
18.3062870676
  0
LINE
  5
31B
100
AcDbEntity
  8
RACCORDO
100
AcDbLine
 62
7
  6
CONTINUOUS
 10
23.2545557282
 20
44.1679969651
 11
23.2537470868
 21
44.3062870676
  0
LINE
  5
31C
100
AcDbEntity
  8
RACCORDO
100
AcDbLine
 62
7
  6
CONTINUOUS
 10
23.2126183094
 20
19.0458420442
 11
23.2126183094
 21
23.031954156
  0
LINE
  5
31D
100
AcDbEntity
  8
RACCORDO
100
AcDbLine
 62
7
  6
CONTINUOUS
 10
23.2126183094
 20
45.0458420442
 11
23.2126183094
 21
49.031954156
  0
LINE
  5
31E
100
AcDbEntity
  8
RACCORDO
100
AcDbLine
 62
7
  6
CONTINUOUS
 10
23.2187651945
 20
49.1561524043
 11
23.2187651945
 21
44.9216437959
  0
LINE
  5
31F
100
AcDbEntity
  8
RACCORDO
100
AcDbLine
 62
7
  6
CONTINUOUS
 10
23.2187651945
 20
23.1561524043
 11
23.2187651945
 21
18.9216437959
  0
LINE
  5
320
100
AcDbEntity
  8
RACCORDO
100
AcDbLine
 62
7
  6
CONTINUOUS
 10
23.2459767909
 20
18.89959505
 11
23.2459277226
 21
23.1561602885
  0
LINE
  5
321
100
AcDbEntity
  8
RACCORDO
100
AcDbLine
 62
7
  6
CONTINUOUS
 10
23.2459767909
 20
44.89959505
 11
23.2459277226
 21
49.1561602885
  0
LINE
  5
322
100
AcDbEntity
  8
RACCORDO
100
AcDbLine
 62
7
  6
CONTINUOUS
 10
23.2545557282
 20
44.1679969651
 11
23.2547625329
 21
24.0126569503
  0
LINE
  5
323
100
AcDbEntity
  8
RACCORDO
100
AcDbLine
 62
7
  6
CONTINUOUS
 10
23.2545557282
 20
18.1679969651
 11
23.2547625329
 21
8.1308709861
  0
LINE
  5
324
100
AcDbEntity
  8
0
100
AcDbLine
 62
250
  6
CONTINUOUS
 10
23.3493745843
 20
8.2254830375
 11
23.3493745843
 21
59.8523131627
  0
LINE
  5
325
100
AcDbEntity
  8
0
100
AcDbLine
 62
250
  6
CONTINUOUS
 10
23.8492032468
 20
7.725654375
 11
23.8492032468
 21
60.3521418252
  0
LINE
  5
326
100
AcDbEntity
  8
RACCORDO
100
AcDbLine
 62
7
  6
CONTINUOUS
 10
23.2543538666
 20
49.8610044638
 11
23.2547625329
 21
59.9469252141
  0
LINE
  5
327
100
AcDbEntity
  8
RACCORDO
100
AcDbLine
 62
7
  6
CONTINUOUS
 10
23.2543538666
 20
23.8610044638
 11
23.2547625329
 21
24.0126569503
  0
LINE
  5
328
100
AcDbEntity
  8
RACCORDO
100
AcDbLine
 62
7
  6
CONTINUOUS
 10
23.2459277226
 20
49.1561602885
 11
23.246079218
 21
49.2002038615
  0
LINE
  5
329
100
AcDbEntity
  8
RACCORDO
100
AcDbLine
 62
7
  6
CONTINUOUS
 10
23.2459277226
 20
23.1561602885
 11
23.246079218
 21
23.2002038615
  0
LINE
  5
32A
100
AcDbEntity
  8
RACCORDO
100
AcDbLine
 62
7
  6
CONTINUOUS
 10
23.246079218
 20
49.2002038615
 11
23.2464544042
 21
49.2443737598
  0
LINE
  5
32B
100
AcDbEntity
  8
RACCORDO
100
AcDbLine
 62
7
  6
CONTINUOUS
 10
23.246079218
 20
23.2002038615
 11
23.2464544042
 21
23.2443737598
  0
LINE
  5
32C
100
AcDbEntity
  8
RACCORDO
100
AcDbLine
 62
7
  6
CONTINUOUS
 10
23.2529733517
 20
49.6891959278
 11
23.2543538666
 21
49.8610044638
  0
LINE
  5
32D
100
AcDbEntity
  8
RACCORDO
100
AcDbLine
 62
7
  6
CONTINUOUS
 10
23.2529733517
 20
23.6891959278
 11
23.2543538666
 21
23.8610044638
  0
LINE
  5
32E
100
AcDbEntity
  8
RACCORDO
100
AcDbLine
 62
7
  6
CONTINUOUS
 10
23.2502863113
 20
49.4898167626
 11
23.2529733517
 21
49.6891959278
  0
LINE
  5
32F
100
AcDbEntity
  8
RACCORDO
100
AcDbLine
 62
7
  6
CONTINUOUS
 10
23.2502863113
 20
23.4898167626
 11
23.2529733517
 21
23.6891959278
  0
LWPOLYLINE
  5
330
100
AcDbEntity
  8
RACCORDO
100
AcDbPolyline
 62
7
  6
CONTINUOUS
 90
3
 70
0
 10
23.2464544042
 20
23.2443737598
 10
23.2485279749
 20
23.3832052778
 10
23.2502863113
 20
23.4898167626
  0
LINE
  5
331
100
AcDbEntity
  8
RACCORDO
100
AcDbLine
 62
7
  6
CONTINUOUS
 10
23.2464544042
 20
49.2443737598
 11
23.2502863113
 21
49.4898167626
  0
LWPOLYLINE
  5
332
100
AcDbEntity
  8
RACCORDO
100
AcDbPolyline
 62
250
  6
CONTINUOUS
 90
25
 70
0
 10
23.2187654316
 20
44.9216390062
 10
23.2177449661
 20
44.8874233595
 10
23.2145856689
 20
44.8533680795
 10
23.2092997745
 20
44.8196107525
 10
23.2019038552
 20
44.7862595871
 10
23.1924305997
 20
44.7534788372
 10
23.1809413354
 20
44.7214844402
 10
23.1675054203
 20
44.6904251891
 10
23.1521822536
 20
44.6603975164
 10
23.1350397159
 20
44.6315293833
 10
23.1161572537
 20
44.603932455
 10
23.0956220585
 20
44.5777117382
 10
23.0735210162
 20
44.5529784221
 10
23.049953059
 20
44.5298282614
 10
23.025021265
 20
44.5083462988
 10
22.9988246466
 20
44.4886201602
 10
22.9714871846
 20
44.4707324939
 10
22.943115014
 20
44.4547406639
 10
22.9137808578
 20
44.4406934868
 10
22.8837372381
 20
44.4286968841
 10
22.8529817788
 20
44.4187413413
 10
22.8211791256
 20
44.4107855092
 10
22.7882871131
 20
44.4049372586
 10
22.7545870777
 20
44.4013569357
 10
22.7202234823
 20
44.4001597842
  0
LWPOLYLINE
  5
333
100
AcDbEntity
  8
RACCORDO
100
AcDbPolyline
 62
250
  6
CONTINUOUS
 90
25
 70
0
 10
23.2187654316
 20
18.9216390062
 10
23.2177449661
 20
18.8874233595
 10
23.2145856689
 20
18.8533680795
 10
23.2092997745
 20
18.8196107525
 10
23.2019038552
 20
18.7862595871
 10
23.1924305997
 20
18.7534788372
 10
23.1809413354
 20
18.7214844402
 10
23.1675054203
 20
18.6904251891
 10
23.1521822536
 20
18.6603975164
 10
23.1350397159
 20
18.6315293833
 10
23.1161572537
 20
18.603932455
 10
23.0956220585
 20
18.5777117382
 10
23.0735210162
 20
18.5529784221
 10
23.049953059
 20
18.5298282614
 10
23.025021265
 20
18.5083462988
 10
22.9988246466
 20
18.4886201602
 10
22.9714871846
 20
18.4707324939
 10
22.943115014
 20
18.4547406639
 10
22.9137808578
 20
18.4406934868
 10
22.8837372381
 20
18.4286968841
 10
22.8529817788
 20
18.4187413413
 10
22.8211791256
 20
18.4107855092
 10
22.7882871131
 20
18.4049372586
 10
22.7545870777
 20
18.4013569357
 10
22.7202234823
 20
18.4001597842
  0
LINE
  5
334
100
AcDbEntity
  8
RACCORDO
100
AcDbLine
 62
250
  6
CONTINUOUS
 10
22.7202234823
 20
23.677636416
 11
22.7133569726
 21
23.5388981001
  0
LWPOLYLINE
  5
335
100
AcDbEntity
  8
RACCORDO
100
AcDbPolyline
 62
250
  6
CONTINUOUS
 90
10
 70
0
 10
23.2547624671
 20
44.0651456687
 10
23.201583747
 20
44.0332465161
 10
23.1468977306
 20
44.0048853095
 10
23.0907044181
 20
43.9800620487
 10
23.0330655814
 20
43.9586901946
 10
22.9739194485
 20
43.9408562863
 10
22.9130807037
 20
43.9268199417
 10
22.8504875751
 20
43.9166677001
 10
22.7862018347
 20
43.910313022
 10
22.7202234823
 20
43.9077559077
  0
LINE
  5
336
100
AcDbEntity
  8
RACCORDO
100
AcDbLine
 62
7
  6
CONTINUOUS
 10
42.3413167974
 20
56.0371196812
 11
42.2165818287
 21
55.9696891978
  0
LWPOLYLINE
  5
337
100
AcDbEntity
  8
RACCORDO
100
AcDbPolyline
 62
7
  6
CONTINUOUS
 90
5
 70
0
 10
42.2165818287
 20
55.9696891978
 10
42.2003026123
 20
55.9609914717
 10
42.1875794474
 20
55.9543603402
 10
42.1786125747
 20
55.9498846941
 10
42.1735374615
 20
55.9476427456
  0
LWPOLYLINE
  5
338
100
AcDbEntity
  8
RACCORDO
100
AcDbPolyline
 62
7
  6
CONTINUOUS
 90
3
 70
0
 10
42.437491942
 20
56.0881769934
 10
42.4046803441
 20
56.0708792534
 10
42.3413167974
 20
56.0371196812
  0
LINE
  5
339
100
AcDbEntity
  8
DRAFT
100
AcDbLine
 62
7
  6
CONTINUOUS
 10
11.432159982
 20
12.7584397727
 11
10.4652830829
 21
12.7415628736
  0
LINE
  5
33A
100
AcDbEntity
  8
RACCORDO
100
AcDbLine
 62
250
  6
CONTINUOUS
 10
15.330991826
 20
11.5202047433
 11
15.0310375174
 21
11.5202047433
  0
LINE
  5
33B
100
AcDbEntity
  8
RACCORDO
100
AcDbLine
 62
250
  6
CONTINUOUS
 10
75.8942447928
 20
11.5202047433
 11
76.1941991014
 21
11.5202047433
  0
LINE
  5
33C
100
AcDbEntity
  8
DRAFT
100
AcDbLine
 62
7
  6
CONTINUOUS
 10
10.4626183094
 20
12.7388981001
 11
11.4126183094
 21
12.7388981001
  0
LINE
  5
33D
100
AcDbEntity
  8
DRAFT
100
AcDbLine
 62
7
  6
CONTINUOUS
 10
79.8126183094
 20
12.7388981001
 11
80.7626183094
 21
12.7388981001
  0
LINE
  5
33E
100
AcDbEntity
  8
RACCORDO
100
AcDbLine
 62
7
  6
CONTINUOUS
 10
12.3073360915
 20
13.7913912982
 11
12.3818851551
 21
13.7913912982
  0
LINE
  5
33F
100
AcDbEntity
  8
RACCORDO
100
AcDbLine
 62
7
  6
CONTINUOUS
 10
78.8433514637
 20
13.7913912982
 11
78.9179005273
 21
13.7913912982
  0
LINE
  5
340
100
AcDbEntity
  8
DRAFT
100
AcDbLine
 62
7
  6
CONTINUOUS
 10
80.7599535359
 20
12.7415628736
 11
79.7930766368
 21
12.7584397727
  0
LWPOLYLINE
  5
341
100
AcDbEntity
  8
RACCORDO
100
AcDbPolyline
 62
7
  6
CONTINUOUS
 90
25
 70
0
 10
78.0123441607
 20
9.7388981001
 10
77.8948636437
 20
9.742735245
 10
77.7777934046
 20
9.7542432709
 10
77.6616349843
 20
9.7733912017
 10
77.5468433891
 20
9.8001269967
 10
77.4339605981
 20
9.8343479646
 10
77.3236046437
 20
9.8758721
 10
77.2163008972
 20
9.9244859341
 10
77.112447146
 20
9.9799929301
 10
77.0124459039
 20
10.0421733569
 10
76.9167128528
 20
10.1107708343
 10
76.825671447
 20
10.185484008
 10
76.7397125594
 20
10.2659923501
 10
76.6592042173
 20
10.3519512376
 10
76.5844910436
 20
10.4429926435
 10
76.5158935662
 20
10.5387256946
 10
76.4537131394
 20
10.6387269367
 10
76.3982061434
 20
10.7425806879
 10
76.3495923093
 20
10.8498844344
 10
76.308068174
 20
10.9602403888
 10
76.2738472061
 20
11.0731231798
 10
76.247111411
 20
11.187914775
 10
76.2279634802
 20
11.3040731953
 10
76.2164554543
 20
11.4211434344
 10
76.2126183094
 20
11.5386239514
  0
LINE
  5
342
100
AcDbEntity
  8
DRAFT
100
AcDbLine
 62
7
  6
CONTINUOUS
 10
12.6195306747
 20
13.7042517893
 11
13.0126183094
 21
13.7241072761
  0
LINE
  5
343
100
AcDbEntity
  8
DRAFT
100
AcDbLine
 62
7
  6
CONTINUOUS
 10
78.2126183094
 20
17.7536889241
 11
78.6057059441
 21
17.7735444108
  0
LWPOLYLINE
  5
344
100
AcDbEntity
  8
RACCORDO
100
AcDbPolyline
 62
250
  6
CONTINUOUS
 90
25
 70
0
 10
21.06628387
 20
17.9077559077
 10
21.0011195484
 20
17.9099915389
 10
20.9371323908
 20
17.9161361642
 10
20.874322397
 20
17.9261897837
 10
20.8125492699
 20
17.9402253881
 10
20.7519533067
 20
17.9581699866
 10
20.6929553991
 20
17.9798046071
 10
20.6354895214
 20
18.00516263
 10
20.5796216995
 20
18.0342106748
 10
20.5259709022
 20
18.066629628
 10
20.4745439349
 20
18.1024685965
 10
20.4253339922
 20
18.1416784735
 10
20.378939628
 20
18.1837928251
 10
20.3354207547
 20
18.2287973494
 10
20.2947174597
 20
18.2767063483
 10
20.2572485601
 20
18.3270962942
 10
20.2230738107
 20
18.379715034
 10
20.1921334565
 20
18.4348147209
 10
20.1646670494
 20
18.492728287
 10
20.1404516431
 20
18.5538409082
 10
20.1197101839
 20
18.6177674088
 10
20.1033510626
 20
18.6836851938
 10
20.0916770761
 20
18.751320065
 10
20.0843854276
 20
18.8209462206
 10
20.081476117
 20
18.8925636607
  0
LINE
  5
345
100
AcDbEntity
  8
DRAFT
100
AcDbLine
 62
7
  6
CONTINUOUS
 10
78.2126183094
 20
13.7241072761
 11
78.6057059441
 21
13.7042517893
  0
LINE
  5
346
100
AcDbEntity
  8
DRAFT
100
AcDbLine
 62
7
  6
CONTINUOUS
 10
12.6195306747
 20
17.7735444108
 11
13.0126183094
 21
17.7536889241
  0
LWPOLYLINE
  5
347
100
AcDbEntity
  8
0
100
AcDbPolyline
 62
7
  6
CONTINUOUS
 90
3
 70
0
 43
0.3500000006
 10
46.6483329163
 20
78.2536581116
 10
46.5769062653
 20
78.0393736267
 10
46.4340484314
 20
77.753657959
  0
LINE
  5
348
100
AcDbEntity
  8
RACCORDO
100
AcDbLine
 62
7
  6
CONTINUOUS
 10
11.4126183094
 20
21.5888981001
 11
11.4310375174
 21
21.6073173081
  0
LINE
  5
349
100
AcDbEntity
  8
RACCORDO
100
AcDbLine
 62
250
  6
CONTINUOUS
 10
13.2313116662
 20
21.7573173081
 11
13.2128924581
 21
21.7388981001
  0
LINE
  5
34A
100
AcDbEntity
  8
DRAFT
100
AcDbLine
 62
7
  6
CONTINUOUS
 10
39.3603460088
 20
46.8910272197
 11
39.5092807205
 21
46.9770147156
  0
LINE
  5
34B
100
AcDbEntity
  8
DRAFT
100
AcDbLine
 62
7
  6
CONTINUOUS
 10
39.9092807205
 20
46.2841943925
 11
39.7603460088
 21
46.1982068966
  0
LWPOLYLINE
  5
34C
100
AcDbEntity
  8
RACCORDO
100
AcDbPolyline
 62
7
  6
CONTINUOUS
 90
25
 70
0
 10
78.0123441607
 20
21.7388981001
 10
77.8948636437
 20
21.7350609552
 10
77.7777934046
 20
21.7235529292
 10
77.6616349843
 20
21.7044049985
 10
77.5468433891
 20
21.6776692034
 10
77.4339605981
 20
21.6434482355
 10
77.3236046437
 20
21.6019241001
 10
77.2163008972
 20
21.5533102661
 10
77.112447146
 20
21.4978032701
 10
77.0124459039
 20
21.4356228433
 10
76.9167128528
 20
21.3670253659
 10
76.825671447
 20
21.2923121922
 10
76.7397125594
 20
21.2118038501
 10
76.6592042173
 20
21.1258449625
 10
76.5844910436
 20
21.0348035567
 10
76.5158935662
 20
20.9390705056
 10
76.4537131394
 20
20.8390692635
 10
76.3982061434
 20
20.7352155123
 10
76.3495923093
 20
20.6279117658
 10
76.308068174
 20
20.5175558114
 10
76.2738472061
 20
20.4046730204
 10
76.247111411
 20
20.2898814252
 10
76.2279634802
 20
20.1737230049
 10
76.2164554543
 20
20.0566527658
 10
76.2126183094
 20
19.9391722488
  0
LINE
  5
34D
100
AcDbEntity
  8
DRAFT
100
AcDbLine
 62
7
  6
CONTINUOUS
 10
80.7599535359
 20
18.7362333266
 11
79.7930766368
 21
18.7193564275
  0
LINE
  5
34E
100
AcDbEntity
  8
RACCORDO
100
AcDbLine
 62
7
  6
CONTINUOUS
 10
78.9179005273
 20
17.686404902
 11
78.8433514637
 21
17.686404902
  0
LINE
  5
34F
100
AcDbEntity
  8
RACCORDO
100
AcDbLine
 62
7
  6
CONTINUOUS
 10
12.3818851551
 20
17.686404902
 11
12.3073360915
 21
17.686404902
  0
LINE
  5
350
100
AcDbEntity
  8
RACCORDO
100
AcDbLine
 62
250
  6
CONTINUOUS
 10
70.1589527488
 20
17.9077559077
 11
68.5050131365
 21
17.9077559077
  0
LINE
  5
351
100
AcDbEntity
  8
RACCORDO
100
AcDbLine
 62
250
  6
CONTINUOUS
 10
22.7202234823
 20
17.9077559077
 11
21.06628387
 21
17.9077559077
  0
LINE
  5
352
100
AcDbEntity
  8
RACCORDO
100
AcDbLine
 62
250
  6
CONTINUOUS
 10
70.1589527488
 20
18.4001597842
 11
68.5050131365
 21
18.4001597842
  0
LINE
  5
353
100
AcDbEntity
  8
RACCORDO
100
AcDbLine
 62
7
  6
CONTINUOUS
 10
21.2050221859
 20
18.5388981001
 11
22.7133569726
 21
18.5388981001
  0
LINE
  5
354
100
AcDbEntity
  8
RACCORDO
100
AcDbLine
 62
7
  6
CONTINUOUS
 10
68.5118796462
 20
18.5388981001
 11
70.0202144329
 21
18.5388981001
  0
LINE
  5
355
100
AcDbEntity
  8
DRAFT
100
AcDbLine
 62
7
  6
CONTINUOUS
 10
10.4626183094
 20
18.7388981001
 11
11.4126183094
 21
18.7388981001
  0
LINE
  5
356
100
AcDbEntity
  8
DRAFT
100
AcDbLine
 62
7
  6
CONTINUOUS
 10
79.8126183094
 20
18.7388981001
 11
80.7626183094
 21
18.7388981001
  0
LINE
  5
357
100
AcDbEntity
  8
RACCORDO
100
AcDbLine
 62
250
  6
CONTINUOUS
 10
71.1437605018
 20
18.8925636607
 11
70.6513566253
 21
18.8925636607
  0
LINE
  5
358
100
AcDbEntity
  8
RACCORDO
100
AcDbLine
 62
250
  6
CONTINUOUS
 10
20.081476117
 20
18.8925636607
 11
20.5738799935
 21
18.8925636607
  0
LINE
  5
359
100
AcDbEntity
  8
RACCORDO
100
AcDbLine
 62
250
  6
CONTINUOUS
 10
15.330991826
 20
19.9575914569
 11
15.0310375174
 21
19.9575914569
  0
LINE
  5
35A
100
AcDbEntity
  8
RACCORDO
100
AcDbLine
 62
250
  6
CONTINUOUS
 10
75.8942447928
 20
19.9575914569
 11
76.1941991014
 21
19.9575914569
  0
LINE
  5
35B
100
AcDbEntity
  8
RACCORDO
100
AcDbLine
 62
250
  6
CONTINUOUS
 10
67.9793088962
 20
18.9216359054
 11
68.0064714243
 21
18.9216314602
  0
LINE
  5
35C
100
AcDbEntity
  8
RACCORDO
100
AcDbLine
 62
250
  6
CONTINUOUS
 10
23.2459285704
 20
18.9216698318
 11
23.2187651945
 21
18.9216845154
  0
LWPOLYLINE
  5
35D
100
AcDbEntity
  8
RACCORDO
100
AcDbPolyline
 62
250
  6
CONTINUOUS
 90
25
 70
0
 10
22.7202234823
 20
18.4001597842
 10
21.0329792294
 20
18.4002717579
 10
21.0000978399
 20
18.4025116239
 10
20.9677637976
 20
18.406836213
 10
20.9361390654
 20
18.413179707
 10
20.9052930154
 20
18.421493679
 10
20.8752102419
 20
18.4317751701
 10
20.845967042
 20
18.4439948958
 10
20.8177124463
 20
18.4580875327
 10
20.7905448058
 20
18.4740140403
 10
20.7645627198
 20
18.4917196072
 10
20.7398754288
 20
18.511127616
 10
20.7165920487
 20
18.5321585427
 10
20.6948245215
 20
18.554709518
 10
20.6746357739
 20
18.5787096544
 10
20.6560627959
 20
18.6041265732
 10
20.6392575073
 20
18.6307493316
 10
20.6242204798
 20
18.6585939229
 10
20.610841565
 20
18.6880117387
 10
20.5992084969
 20
18.7191145165
 10
20.5895619381
 20
18.7516388976
 10
20.5820794611
 20
18.7853879186
 10
20.57689651
 20
18.8202053031
 10
20.5741252007
 20
18.8559819029
 10
20.5738808028
 20
18.89256447
  0
LINE
  5
35E
100
AcDbEntity
  8
DRAFT
100
AcDbLine
 62
7
  6
CONTINUOUS
 10
11.432159982
 20
18.7193564275
 11
10.4652830829
 21
18.7362333266
  0
LWPOLYLINE
  5
35F
100
AcDbEntity
  8
RACCORDO
100
AcDbPolyline
 62
250
  6
CONTINUOUS
 90
25
 70
0
 10
68.5050131365
 20
18.4001597842
 10
68.4723156265
 20
18.4012335735
 10
68.4398452912
 20
18.4045272589
 10
68.4077389042
 20
18.4100115932
 10
68.376169279
 20
18.4176402198
 10
68.3452254116
 20
18.4273708509
 10
68.3149195667
 20
18.4391903495
 10
68.2853463317
 20
18.453077264
 10
68.2566711242
 20
18.4689693192
 10
68.2290159183
 20
18.4868023156
 10
68.2025002967
 20
18.5065152429
 10
68.1772445352
 20
18.5280325325
 10
68.1533651651
 20
18.5512559079
 10
68.1309713935
 20
18.5760961417
 10
68.110162521
 20
18.6024583888
 10
68.0910313467
 20
18.6302249156
 10
68.0736578172
 20
18.6593053999
 10
68.0581350856
 20
18.6895691232
 10
68.0445565314
 20
18.720824443
 10
68.0329872816
 20
18.7529190527
 10
68.0234643229
 20
18.7857443524
 10
68.0160211602
 20
18.8191659322
 10
68.0106911487
 20
18.8530484028
 10
68.0075024244
 20
18.8872545049
 10
68.0064714947
 20
18.9216452188
  0
LWPOLYLINE
  5
360
100
AcDbEntity
  8
RACCORDO
100
AcDbPolyline
 62
250
  6
CONTINUOUS
 90
10
 70
0
 10
68.5050131365
 20
17.9077559077
 10
68.4416073242
 20
17.9098786098
 10
68.3790790114
 20
17.9158866457
 10
68.3174281982
 20
17.9257800153
 10
68.2564873544
 20
17.9396175774
 10
68.1964240102
 20
17.9573404733
 10
68.137740756
 20
17.9787721264
 10
68.080605122
 20
18.0038536778
 10
68.0248495781
 20
18.0326439864
 10
67.9704741242
 20
18.0651430522
  0
LINE
  5
361
100
AcDbEntity
  8
RACCORDO
100
AcDbLine
 62
7
  6
CONTINUOUS
 10
11.4126183094
 20
46.4888981001
 11
11.4310375174
 21
46.4704788921
  0
LINE
  5
362
100
AcDbEntity
  8
RACCORDO
100
AcDbLine
 62
250
  6
CONTINUOUS
 10
13.2313116662
 20
46.3204788921
 11
13.2128924581
 21
46.3388981001
  0
LINE
  5
363
100
AcDbEntity
  8
RACCORDO
100
AcDbLine
 62
250
  6
CONTINUOUS
 10
15.0310375174
 20
19.9575914569
 11
15.0126183094
 21
19.9391722488
  0
LINE
  5
364
100
AcDbEntity
  8
RACCORDO
100
AcDbLine
 62
7
  6
CONTINUOUS
 10
13.0126183094
 20
17.7274423251
 11
12.7623343654
 21
17.7017648048
  0
LINE
  5
365
100
AcDbEntity
  8
RACCORDO
100
AcDbLine
 62
250
  6
CONTINUOUS
 10
10.8354247161
 20
21.6056140641
 11
10.8547356381
 21
21.6060854866
  0
LINE
  5
366
100
AcDbEntity
  8
RACCORDO
100
AcDbLine
 62
250
  6
CONTINUOUS
 10
10.8547356381
 20
21.6060854866
 11
10.8782988495
 21
21.606495388
  0
LINE
  5
367
100
AcDbEntity
  8
RACCORDO
100
AcDbLine
 62
250
  6
CONTINUOUS
 10
10.5278676587
 20
21.9047741505
 11
10.5580186625
 21
21.9053144826
  0
LINE
  5
368
100
AcDbEntity
  8
RACCORDO
100
AcDbLine
 62
250
  6
CONTINUOUS
 10
10.8782988495
 20
21.606495388
 11
10.9210997282
 21
21.6069763335
  0
LINE
  5
369
100
AcDbEntity
  8
RACCORDO
100
AcDbLine
 62
250
  6
CONTINUOUS
 10
10.5580186625
 20
21.9053144826
 11
10.6259590999
 21
21.9060397143
  0
LINE
  5
36A
100
AcDbEntity
  8
RACCORDO
100
AcDbLine
 62
250
  6
CONTINUOUS
 10
10.9210997282
 20
21.6069763335
 11
10.9711709531
 21
21.6072589572
  0
LINE
  5
36B
100
AcDbEntity
  8
RACCORDO
100
AcDbLine
 62
250
  6
CONTINUOUS
 10
10.6259590999
 20
21.9060397143
 11
10.7919593352
 21
21.9069306627
  0
LINE
  5
36C
100
AcDbEntity
  8
RACCORDO
100
AcDbLine
 62
250
  6
CONTINUOUS
 10
78.9179005273
 20
21.2573934606
 11
78.6179462187
 21
21.2573934606
  0
LINE
  5
36D
100
AcDbEntity
  8
RACCORDO
100
AcDbLine
 62
250
  6
CONTINUOUS
 10
12.3073360915
 20
21.2573934606
 11
12.6072904001
 21
21.257393461
  0
LINE
  5
36E
100
AcDbEntity
  8
RACCORDO
100
AcDbLine
 62
7
  6
CONTINUOUS
 10
80.4476491871
 20
21.5888981001
 11
79.8126183094
 21
21.5888981001
  0
LINE
  5
36F
100
AcDbEntity
  8
RACCORDO
100
AcDbLine
 62
7
  6
CONTINUOUS
 10
11.4126183094
 20
21.5888981001
 11
10.7775874317
 21
21.5888981001
  0
LINE
  5
370
100
AcDbEntity
  8
RACCORDO
100
AcDbLine
 62
250
  6
CONTINUOUS
 10
10.9711709531
 20
21.6072589572
 11
11.4310375174
 21
21.6073173081
  0
LINE
  5
371
100
AcDbEntity
  8
RACCORDO
100
AcDbLine
 62
7
  6
CONTINUOUS
 10
78.1257855517
 20
21.7388978913
 11
78.0123441607
 21
21.7388981001
  0
LINE
  5
372
100
AcDbEntity
  8
RACCORDO
100
AcDbLine
 62
7
  6
CONTINUOUS
 10
13.2128924581
 20
21.7388981001
 11
13.0994510671
 21
21.7388978913
  0
LINE
  5
373
100
AcDbEntity
  8
RACCORDO
100
AcDbLine
 62
250
  6
CONTINUOUS
 10
13.1072142476
 20
21.7573173081
 11
13.2313116662
 21
21.7573173081
  0
LINE
  5
374
100
AcDbEntity
  8
RACCORDO
100
AcDbLine
 62
250
  6
CONTINUOUS
 10
77.9939249526
 20
21.7573173081
 11
78.1180223712
 21
21.7573173081
  0
LINE
  5
375
100
AcDbEntity
  8
RACCORDO
100
AcDbLine
 62
250
  6
CONTINUOUS
 10
10.7919593352
 20
21.9069306627
 11
11.6626183094
 21
21.9072716167
  0
LINE
  5
376
100
AcDbEntity
  8
RACCORDO
100
AcDbLine
 62
250
  6
CONTINUOUS
 10
13.1072142476
 20
22.0572716167
 11
13.2313116662
 21
22.0572716167
  0
LINE
  5
377
100
AcDbEntity
  8
RACCORDO
100
AcDbLine
 62
250
  6
CONTINUOUS
 10
77.9939249526
 20
22.0572716167
 11
78.1180223712
 21
22.0572716167
  0
LINE
  5
378
100
AcDbEntity
  8
RACCORDO
100
AcDbLine
 62
250
  6
CONTINUOUS
 10
71.1437605018
 20
23.1852325395
 11
70.6513566253
 21
23.1852325395
  0
LINE
  5
379
100
AcDbEntity
  8
RACCORDO
100
AcDbLine
 62
250
  6
CONTINUOUS
 10
20.081476117
 20
23.1852325395
 11
20.5738799935
 21
23.1852325395
  0
LINE
  5
37A
100
AcDbEntity
  8
RACCORDO
100
AcDbLine
 62
7
  6
CONTINUOUS
 10
70.0202144329
 20
23.5388981001
 11
68.5118796462
 21
23.5388981001
  0
LINE
  5
37B
100
AcDbEntity
  8
RACCORDO
100
AcDbLine
 62
7
  6
CONTINUOUS
 10
22.7133569726
 20
23.5388981001
 11
21.2050221859
 21
23.5388981001
  0
LINE
  5
37C
100
AcDbEntity
  8
RACCORDO
100
AcDbLine
 62
250
  6
CONTINUOUS
 10
21.06628387
 20
23.677636416
 11
22.7202234823
 21
23.677636416
  0
LINE
  5
37D
100
AcDbEntity
  8
RACCORDO
100
AcDbLine
 62
250
  6
CONTINUOUS
 10
23.2459277226
 20
23.1561602947
 11
23.2187651945
 21
23.15616474
  0
LINE
  5
37E
100
AcDbEntity
  8
RACCORDO
100
AcDbLine
 62
250
  6
CONTINUOUS
 10
67.9793080484
 20
23.1561263684
 11
68.0064714243
 21
23.1561116848
  0
LWPOLYLINE
  5
37F
100
AcDbEntity
  8
RACCORDO
100
AcDbPolyline
 62
250
  6
CONTINUOUS
 90
25
 70
0
 10
68.5050131365
 20
23.677636416
 10
70.1922573894
 20
23.6775244423
 10
70.2251387789
 20
23.6752845763
 10
70.2574728212
 20
23.6709599871
 10
70.2890975534
 20
23.6646164932
 10
70.3199436034
 20
23.6563025212
 10
70.3500263769
 20
23.6460210301
 10
70.3792695768
 20
23.6338013044
 10
70.4075241725
 20
23.6197086675
 10
70.434691813
 20
23.6037821599
 10
70.460673899
 20
23.586076593
 10
70.48536119
 20
23.5666685841
 10
70.5086445701
 20
23.5456376575
 10
70.5304120973
 20
23.5230866821
 10
70.5506008449
 20
23.4990865458
 10
70.5691738229
 20
23.473669627
 10
70.5859791115
 20
23.4470468685
 10
70.601016139
 20
23.4192022773
 10
70.6143950538
 20
23.3897844615
 10
70.6260281219
 20
23.3586816837
 10
70.6356746807
 20
23.3261573026
 10
70.6431571577
 20
23.2924082816
 10
70.6483401088
 20
23.2575908971
 10
70.6511114181
 20
23.2218142973
 10
70.651355816
 20
23.1852317301
  0
LINE
  5
380
100
AcDbEntity
  8
RACCORDO
100
AcDbLine
 62
250
  6
CONTINUOUS
 10
79.7941991014
 20
21.6073173081
 11
80.2680349252
 21
21.6072064203
  0
LINE
  5
381
100
AcDbEntity
  8
RACCORDO
100
AcDbLine
 62
250
  6
CONTINUOUS
 10
79.5626183094
 20
21.9072716167
 11
80.4940961964
 21
21.9066916347
  0
LINE
  5
382
100
AcDbEntity
  8
RACCORDO
100
AcDbLine
 62
250
  6
CONTINUOUS
 10
80.4940961964
 20
21.9066916347
 11
80.6154962769
 21
21.9058979469
  0
LINE
  5
383
100
AcDbEntity
  8
RACCORDO
100
AcDbLine
 62
250
  6
CONTINUOUS
 10
80.2680349252
 20
21.6072064203
 11
80.3142597323
 21
21.606886629
  0
LINE
  5
384
100
AcDbEntity
  8
RACCORDO
100
AcDbLine
 62
250
  6
CONTINUOUS
 10
80.6154962769
 20
21.9058979469
 11
80.6614692111
 21
21.9053936139
  0
LINE
  5
385
100
AcDbEntity
  8
RACCORDO
100
AcDbLine
 62
250
  6
CONTINUOUS
 10
80.3142597323
 20
21.606886629
 11
80.3419248497
 21
21.6065668376
  0
LINE
  5
386
100
AcDbEntity
  8
RACCORDO
100
AcDbLine
 62
250
  6
CONTINUOUS
 10
80.3419248497
 20
21.6065668376
 11
80.3662451033
 21
21.6061701153
  0
LWPOLYLINE
  5
387
100
AcDbEntity
  8
RACCORDO
100
AcDbPolyline
 62
250
  6
CONTINUOUS
 90
5
 70
0
 10
80.6614692111
 20
21.9053936139
 10
80.6950604396
 20
21.904827006
 10
80.7064895391
 20
21.904529568
 10
80.7140977565
 20
21.9042213787
 10
80.7177228731
 20
21.9039024383
  0
LWPOLYLINE
  5
388
100
AcDbEntity
  8
RACCORDO
100
AcDbPolyline
 62
250
  6
CONTINUOUS
 90
8
 70
0
 10
80.3662451033
 20
21.6061701153
 10
80.3867554209
 20
21.6057006534
 10
80.395350348
 20
21.6054392525
 10
80.4028188472
 20
21.6051610327
 10
80.4088406512
 20
21.6048721909
 10
80.4133090043
 20
21.6045747926
 10
80.4163306623
 20
21.6042667722
 10
80.417905625
 20
21.6039481297
  0
LWPOLYLINE
  5
389
100
AcDbEntity
  8
RACCORDO
100
AcDbPolyline
 62
250
  6
CONTINUOUS
 90
28
 70
0
 10
13.2313116662
 20
21.7573173081
 10
13.3354018098
 20
21.754311116
 10
13.4388856583
 20
21.7453212657
 10
13.5414226711
 20
21.7304221299
 10
13.6424696206
 20
21.709756492
 10
13.7419180947
 20
21.6834105729
 10
13.8400638397
 20
21.6512940111
 10
13.9369466539
 20
21.613285469
 10
14.0318183036
 20
21.5695674039
 10
14.1238069451
 20
21.5205244696
 10
14.2123934445
 20
21.4665020281
 10
14.2975462986
 20
21.4075901214
 10
14.379168438
 20
21.3438782418
 10
14.4570140263
 20
21.2755547864
 10
14.530798764
 20
21.2028656352
 10
14.6003521142
 20
21.1259651223
 10
14.6653472282
 20
21.0452028879
 10
14.7256466818
 20
20.9607370826
 10
14.7812977129
 20
20.8723905636
 10
14.8321253947
 20
20.7801972205
 10
14.877730561
 20
20.6846101549
 10
14.9177946769
 20
20.5860738038
 10
14.9521469454
 20
20.4847559581
 10
14.9805271186
 20
20.381127421
 10
15.0026438539
 20
20.276154794
 10
15.0184234215
 20
20.1704252241
 10
15.0278891114
 20
20.0641120341
 10
15.0310375174
 20
19.9575914569
  0
LWPOLYLINE
  5
38A
100
AcDbEntity
  8
RACCORDO
100
AcDbPolyline
 62
250
  6
CONTINUOUS
 90
28
 70
0
 10
13.2313116662
 20
22.0572716167
 10
13.3533912129
 20
22.0535773083
 10
13.473984348
 20
22.0431124827
 10
13.5930910716
 20
22.0258771398
 10
13.7108595107
 20
22.0018457141
 10
13.8271415382
 20
21.9710437712
 10
13.9414927729
 20
21.9335480074
 10
14.0543476935
 20
21.8891348775
 10
14.1652718213
 20
21.8380279266
 10
14.2725173397
 20
21.7809744864
 10
14.3757520938
 20
21.7180244761
 10
14.4753082385
 20
21.6491279764
 10
14.5704344216
 20
21.574882561
 10
14.6611420548
 20
21.4952452093
 10
14.7474197265
 20
21.410258942
 10
14.8284818503
 20
21.3206503946
 10
14.9042484987
 20
21.2265356364
 10
14.9747995991
 20
21.1277985983
 10
15.0395893476
 20
21.0248177086
 10
15.0987468884
 20
20.9173241786
 10
15.1521430773
 20
20.805586797
 10
15.1988446773
 20
20.6907903594
 10
15.2387483727
 20
20.5726834896
 10
15.2719574792
 20
20.4515175638
 10
15.2978487067
 20
20.3292315053
 10
15.316214292
 20
20.2064716218
 10
15.3272619985
 20
20.0825916057
 10
15.330991826
 20
19.9575914569
  0
LWPOLYLINE
  5
38B
100
AcDbEntity
  8
RACCORDO
100
AcDbPolyline
 62
250
  6
CONTINUOUS
 90
25
 70
0
 10
22.7202234823
 20
23.677636416
 10
22.7529209923
 20
23.6765626267
 10
22.7853913276
 20
23.6732689413
 10
22.8174977146
 20
23.667784607
 10
22.8490673398
 20
23.6601559804
 10
22.8800112072
 20
23.6504253493
 10
22.9103170521
 20
23.6386058507
 10
22.9398902871
 20
23.6247189362
 10
22.9685654945
 20
23.608826881
 10
22.9962207005
 20
23.5909938846
 10
23.0227363221
 20
23.5712809573
 10
23.0479920836
 20
23.5497636677
 10
23.0718714537
 20
23.5265402923
 10
23.0942652253
 20
23.5017000585
 10
23.1150740977
 20
23.4753378114
 10
23.1342052721
 20
23.4475712846
 10
23.1515788016
 20
23.4184908003
 10
23.1671015332
 20
23.388227077
 10
23.1806800874
 20
23.3569717572
 10
23.1922493372
 20
23.3248771474
 10
23.2017722959
 20
23.2920518478
 10
23.2092154586
 20
23.258630268
 10
23.2145454701
 20
23.2247477973
 10
23.2177341944
 20
23.1905416953
 10
23.2187651241
 20
23.1561509814
  0
LWPOLYLINE
  5
38C
100
AcDbEntity
  8
RACCORDO
100
AcDbPolyline
 62
250
  6
CONTINUOUS
 90
10
 70
0
 10
22.7202234823
 20
24.1700402925
 10
22.7836292946
 20
24.1679175904
 10
22.8461576074
 20
24.1619095545
 10
22.9078084206
 20
24.1520161849
 10
22.9687492644
 20
24.1381786227
 10
23.0288126086
 20
24.1204557269
 10
23.0874958628
 20
24.0990240738
 10
23.1446314968
 20
24.0739425224
 10
23.2003870407
 20
24.0451522138
 10
23.2547624946
 20
24.012653148
  0
LWPOLYLINE
  5
38D
100
AcDbEntity
  8
RACCORDO
100
AcDbPolyline
 62
250
  6
CONTINUOUS
 90
22
 70
0
 10
78.1180223673
 20
21.7573173042
 10
78.155411208
 20
21.7559247974
 10
78.1925083167
 20
21.7517532167
 10
78.229109143
 20
21.7448440789
 10
78.2649828537
 20
21.735263417
 10
78.2999688006
 20
21.7230767694
 10
78.3339695218
 20
21.7083256358
 10
78.3668377334
 20
21.6910642717
 10
78.398346674
 20
21.6714018225
 10
78.4282866212
 20
21.6494704178
 10
78.4564614737
 20
21.6254275541
 10
78.4827595059
 20
21.5993833186
 10
78.5071023791
 20
21.5714083246
 10
78.5293319866
 20
21.5416637736
 10
78.5493277486
 20
21.5102884993
 10
78.567037137
 20
21.477301559
 10
78.5823659414
 20
21.4427343023
 10
78.595107986
 20
21.4068824693
 10
78.6050823744
 20
21.3701823921
 10
78.6122228401
 20
21.3329308195
 10
78.6165176152
 20
21.2952622212
 10
78.6179462144
 20
21.2573934562
  0
LWPOLYLINE
  5
38E
100
AcDbEntity
  8
RACCORDO
100
AcDbPolyline
 62
250
  6
CONTINUOUS
 90
22
 70
0
 10
78.1180223712
 20
22.0572716167
 10
78.1783649752
 20
22.0548833336
 10
78.237601648
 20
22.0482213331
 10
78.2957323896
 20
22.0372856152
 10
78.3530129874
 20
22.0219749133
 10
78.4091876538
 20
22.0023904941
 10
78.4634890268
 20
21.9788361574
 10
78.5159551101
 20
21.9512276738
 10
78.5665478999
 20
21.9196492727
 10
78.6143860226
 20
21.8846574433
 10
78.6593759601
 20
21.8462502895
 10
78.7016112304
 20
21.8044297073
 10
78.7404910141
 20
21.7597578736
 10
78.7759933226
 20
21.7122424915
 10
78.8081401444
 20
21.6618758578
 10
78.8363966253
 20
21.6091970404
 10
78.8607795961
 20
21.5539506526
 10
78.8812722259
 20
21.4963920811
 10
78.8972891686
 20
21.4378265534
 10
78.9086353087
 20
21.3786891453
 10
78.9155057616
 20
21.3185447811
 10
78.9179005273
 20
21.2573934606
  0
LINE
  5
38F
100
AcDbEntity
  8
RACCORDO
100
AcDbLine
 62
7
  6
CONTINUOUS
 10
78.4629022534
 20
17.7017648048
 11
78.2126183094
 21
17.7274423251
  0
LINE
  5
390
100
AcDbEntity
  8
RACCORDO
100
AcDbLine
 62
250
  6
CONTINUOUS
 10
15.0310375174
 20
48.1202047433
 11
15.0126183094
 21
48.1386239514
  0
LINE
  5
391
100
AcDbEntity
  8
RACCORDO
100
AcDbLine
 62
7
  6
CONTINUOUS
 10
38.7823552867
 20
49.8728175224
 11
38.7848004129
 21
49.8010632952
  0
LINE
  5
392
100
AcDbEntity
  8
RACCORDO
100
AcDbLine
 62
7
  6
CONTINUOUS
 10
38.7783843139
 20
50.0145564157
 11
38.7823552867
 21
49.8728175224
  0
LINE
  5
393
100
AcDbEntity
  8
RACCORDO
100
AcDbLine
 62
7
  6
CONTINUOUS
 10
42.3236622029
 20
43.8618148522
 11
42.3790169244
 21
43.9674205107
  0
LINE
  5
394
100
AcDbEntity
  8
RACCORDO
100
AcDbLine
 62
7
  6
CONTINUOUS
 10
49.3182988221
 20
55.9767820846
 11
49.2538714478
 21
55.8750178399
  0
LINE
  5
395
100
AcDbEntity
  8
DRAFT
100
AcDbLine
 62
7
  6
CONTINUOUS
 10
11.432159982
 20
12.7584397727
 11
11.4126183094
 21
12.7388981001
  0
LINE
  5
396
100
AcDbEntity
  8
RACCORDO
100
AcDbLine
 62
250
  6
CONTINUOUS
 10
10.4335707711
 20
9.3589368023
 11
10.5075137457
 21
9.4328797769
  0
LINE
  5
397
100
AcDbEntity
  8
RACCORDO
100
AcDbLine
 62
250
  6
CONTINUOUS
 10
20.5738799935
 20
18.8925636607
 11
20.7126183094
 21
19.0313019766
  0
LINE
  5
398
100
AcDbEntity
  8
RACCORDO
100
AcDbLine
 62
250
  6
CONTINUOUS
 10
12.6072904001
 20
10.2204027396
 11
12.6257096081
 21
10.2388219477
  0
LINE
  5
399
100
AcDbEntity
  8
RACCORDO
100
AcDbLine
 62
250
  6
CONTINUOUS
 10
21.06628387
 20
18.4001597842
 11
21.2050221859
 21
18.5388981001
  0
LWPOLYLINE
  5
39A
100
AcDbEntity
  8
RACCORDO
100
AcDbPolyline
 62
7
  6
CONTINUOUS
 90
5
 70
0
 10
49.0102008529
 20
44.1061943974
 10
49.0146799939
 20
44.1094686001
 10
49.0230394534
 20
44.1149963166
 10
49.0351437643
 20
44.1226993349
 10
49.0508158242
 20
44.1324486867
  0
LINE
  5
39B
100
AcDbEntity
  8
RACCORDO
100
AcDbLine
 62
7
  6
CONTINUOUS
 10
49.201569941
 20
44.2254054785
 11
49.2638843218
 21
44.264518559
  0
LINE
  5
39C
100
AcDbEntity
  8
RACCORDO
100
AcDbLine
 62
7
  6
CONTINUOUS
 10
49.1430001977
 20
44.1891002565
 11
49.201569941
 21
44.2254054785
  0
LINE
  5
39D
100
AcDbEntity
  8
RACCORDO
100
AcDbLine
 62
7
  6
CONTINUOUS
 10
49.0508158242
 20
44.1324486867
 11
49.1430001977
 21
44.1891002565
  0
LINE
  5
39E
100
AcDbEntity
  8
RACCORDO
100
AcDbLine
 62
250
  6
CONTINUOUS
 10
80.7476492707
 20
58.4889437985
 11
80.7916658477
 21
58.5109453816
  0
LINE
  5
39F
100
AcDbEntity
  8
RACCORDO
100
AcDbLine
 62
7
  6
CONTINUOUS
 10
80.581800028
 20
58.220517632
 11
80.6256143585
 21
58.2424181226
  0
LWPOLYLINE
  5
3A0
100
AcDbEntity
  8
RACCORDO
100
AcDbPolyline
 62
7
  6
CONTINUOUS
 90
6
 70
0
 10
80.5818000656
 20
58.2205176508
 10
80.5699669016
 20
58.214922407
 10
80.5405807902
 20
58.2036160174
 10
80.5101760635
 20
58.1954566962
 10
80.4790846205
 20
58.1905327029
 10
80.4476491871
 20
58.1888981001
  0
LWPOLYLINE
  5
3A1
100
AcDbEntity
  8
RACCORDO
100
AcDbPolyline
 62
7
  6
CONTINUOUS
 90
19
 70
0
 10
13.0994691535
 20
21.738556106
 10
13.0572363351
 20
21.7343530955
 10
13.0160022588
 20
21.7268047677
 10
12.9757669244
 20
21.7159111226
 10
12.9362381024
 20
21.7015592276
 10
12.8977080224
 20
21.6838620152
 10
12.8610533733
 20
21.6631582831
 10
12.8263354059
 20
21.6393727187
 10
12.7934928694
 20
21.6125806346
 10
12.7632187
 20
21.5833467663
 10
12.7355672204
 20
21.5516191248
 10
12.7104841079
 20
21.5174496991
 10
12.6884993301
 20
21.4815591919
 10
12.6696786549
 20
21.4439115627
 10
12.6539563144
 20
21.4045428519
 10
12.641664973
 20
21.3642818832
 10
12.6329155189
 20
21.3234049309
 10
12.6275970639
 20
21.2816357207
 10
12.6257096081
 20
21.2389742525
  0
LWPOLYLINE
  5
3A2
100
AcDbEntity
  8
RACCORDO
100
AcDbPolyline
 62
250
  6
CONTINUOUS
 90
4
 70
0
 10
10.5075137457
 20
21.9039024383
 10
10.5107995211
 20
21.9042016386
 10
10.5176206296
 20
21.9044922093
 10
10.5278676587
 20
21.9047741505
  0
LINE
  5
3A3
100
AcDbEntity
  8
RACCORDO
100
AcDbLine
 62
250
  6
CONTINUOUS
 10
21.06628387
 20
24.1700402925
 11
22.7202234823
 21
24.1700402925
  0
LINE
  5
3A4
100
AcDbEntity
  8
RACCORDO
100
AcDbLine
 62
250
  6
CONTINUOUS
 10
68.5050131365
 20
24.1700402925
 11
70.1589527488
 21
24.1700402925
  0
LWPOLYLINE
  5
3A5
100
AcDbEntity
  8
RACCORDO
100
AcDbPolyline
 62
250
  6
CONTINUOUS
 90
25
 70
0
 10
70.1589527488
 20
24.1700402925
 10
70.2241170704
 20
24.1678046613
 10
70.288104228
 20
24.161660036
 10
70.3509142218
 20
24.1516064165
 10
70.4126873489
 20
24.1375708121
 10
70.4732833121
 20
24.1196262136
 10
70.5322812197
 20
24.0979915931
 10
70.5897470974
 20
24.0726335702
 10
70.6456149193
 20
24.0435855254
 10
70.6992657166
 20
24.0111665722
 10
70.7506926839
 20
23.9753276037
 10
70.7999026266
 20
23.9361177267
 10
70.8462969908
 20
23.8940033751
 10
70.8898158641
 20
23.8489988508
 10
70.9305191591
 20
23.8010898519
 10
70.9679880587
 20
23.7506999059
 10
71.0021628081
 20
23.6980811662
 10
71.0331031623
 20
23.6429814793
 10
71.0605695694
 20
23.5850679132
 10
71.0847849757
 20
23.5239552919
 10
71.1055264349
 20
23.4600287914
 10
71.1218855562
 20
23.3941110064
 10
71.1335595426
 20
23.3264761352
 10
71.1408511912
 20
23.2568499796
 10
71.1437605018
 20
23.1852325395
  0
LWPOLYLINE
  5
3A6
100
AcDbEntity
  8
RACCORDO
100
AcDbPolyline
 62
7
  6
CONTINUOUS
 90
6
 70
0
 10
80.5817999635
 20
9.8572785468
 10
80.5699421499
 20
9.8628848179
 10
80.5405807902
 20
9.8741801828
 10
80.5102553983
 20
9.8823226089
 10
80.4792864901
 20
9.8872422689
 10
80.448014858
 20
9.8888981001
  0
LINE
  5
3A7
100
AcDbEntity
  8
DRAFT
100
AcDbLine
 62
7
  6
CONTINUOUS
 10
11.4126183094
 20
55.3388981001
 11
11.432159982
 21
55.3193564275
  0
LINE
  5
3A8
100
AcDbEntity
  8
RACCORDO
100
AcDbLine
 62
250
  6
CONTINUOUS
 10
70.2925796072
 20
-1.1401494382
 11
70.2186366326
 21
-1.0662064636
  0
LINE
  5
3A9
100
AcDbEntity
  8
RACCORDO
100
AcDbLine
 62
250
  6
CONTINUOUS
 10
20.5738799935
 20
49.1852325395
 11
20.7126183094
 21
49.0464942236
  0
LINE
  5
3AA
100
AcDbEntity
  8
RACCORDO
100
AcDbLine
 62
250
  6
CONTINUOUS
 10
12.6072904001
 20
57.8573934606
 11
12.6257096081
 21
57.8389742525
  0
LWPOLYLINE
  5
3AB
100
AcDbEntity
  8
RACCORDO
100
AcDbPolyline
 62
7
  6
CONTINUOUS
 90
5
 70
0
 10
38.775954918
 20
50.0628571573
 10
38.7765508902
 20
50.0573410061
 10
38.7771583034
 20
50.0473376435
 10
38.7777771575
 20
50.0330034937
 10
38.7783843139
 20
50.0145564157
  0
LINE
  5
3AC
100
AcDbEntity
  8
RACCORDO
100
AcDbLine
 62
7
  6
CONTINUOUS
 10
38.7848004129
 20
49.8010632952
 11
38.7862259295
 21
49.7639987479
  0
LWPOLYLINE
  5
3AD
100
AcDbEntity
  8
0
100
AcDbPolyline
 62
7
  6
CONTINUOUS
 90
4
 70
0
 43
0.3500000006
 10
41.2197624207
 20
80.3250899048
 10
41.2197624207
 20
80.9679433594
 10
42.7197628784
 20
80.9679433594
 10
41.8626204071
 20
77.9679424438
  0
LINE
  5
3AE
100
AcDbEntity
  8
RACCORDO
100
AcDbLine
 62
250
  6
CONTINUOUS
 10
13.1072142476
 20
9.7204788921
 11
13.1256334557
 21
9.7388981001
  0
LINE
  5
3AF
100
AcDbEntity
  8
RACCORDO
100
AcDbLine
 62
250
  6
CONTINUOUS
 10
11.9326570116
 20
7.8598505618
 11
12.0065999862
 21
7.9337935364
  0
LINE
  5
3B0
100
AcDbEntity
  8
RACCORDO
100
AcDbLine
 62
250
  6
CONTINUOUS
 10
13.8078183322
 20
7.9337935364
 11
13.7338753576
 21
7.8598505618
  0
LINE
  5
3B1
100
AcDbEntity
  8
RACCORDO
100
AcDbLine
 62
250
  6
CONTINUOUS
 10
75.4186366326
 20
69.1440026638
 11
75.4925796072
 21
69.2179456384
  0
LINE
  5
3B2
100
AcDbEntity
  8
RACCORDO
100
AcDbLine
 62
250
  6
CONTINUOUS
 10
14.3075137457
 20
7.4340981229
 11
14.2335707711
 21
7.3601551483
  0
LINE
  5
3B3
100
AcDbEntity
  8
0
100
AcDbLine
 62
250
  6
CONTINUOUS
 10
67.376033372
 20
60.3521418252
 11
67.4706454234
 21
60.4467538766
  0
LINE
  5
3B4
100
AcDbEntity
  8
RACCORDO
100
AcDbLine
 62
250
  6
CONTINUOUS
 10
10.4775873481
 20
21.8889437985
 11
10.5075137457
 21
21.9039024383
  0
LINE
  5
3B5
100
AcDbEntity
  8
RACCORDO
100
AcDbLine
 62
250
  6
CONTINUOUS
 10
10.7772217608
 20
21.5888981001
 11
10.8073309938
 21
21.6039481297
  0
LWPOLYLINE
  5
3B6
100
AcDbEntity
  8
RACCORDO
100
AcDbPolyline
 62
250
  6
CONTINUOUS
 90
7
 70
0
 10
10.8073309938
 20
21.6039481297
 10
10.808732561
 20
21.6042470686
 10
10.8114464162
 20
21.6045374941
 10
10.8154725593
 20
21.6048194065
 10
10.820854579
 20
21.6050940429
 10
10.8275488867
 20
21.605360166
 10
10.8354247161
 20
21.6056140641
  0
LWPOLYLINE
  5
3B7
100
AcDbEntity
  8
0
100
AcDbPolyline
 62
7
  6
CONTINUOUS
 90
4
 70
0
 43
0.3500000006
 10
85.6845271912
 20
29.6460388184
 10
85.0416646729
 20
29.6460388184
 10
85.0416646729
 20
31.1460392761
 10
88.0416655884
 20
30.2888968048
  0
LINE
  5
3B8
100
AcDbEntity
  8
RACCORDO
100
AcDbLine
 62
250
  6
CONTINUOUS
 10
80.7916658477
 20
9.5668508186
 11
80.7476492707
 21
9.5888524017
  0
LINE
  5
3B9
100
AcDbEntity
  8
RACCORDO
100
AcDbLine
 62
7
  6
CONTINUOUS
 10
80.6256143585
 20
9.8353780776
 11
80.581800028
 21
9.8572785682
  0
LINE
  5
3BA
100
AcDbEntity
  8
RACCORDO
100
AcDbLine
 62
250
  6
CONTINUOUS
 10
10.5075137457
 20
46.1738937619
 11
10.4775873481
 21
46.1888524017
  0
LINE
  5
3BB
100
AcDbEntity
  8
RACCORDO
100
AcDbLine
 62
250
  6
CONTINUOUS
 10
10.8073309938
 20
46.4738480704
 11
10.7772217608
 21
46.4888981001
  0
LINE
  5
3BC
100
AcDbEntity
  8
RACCORDO
100
AcDbLine
 62
250
  6
CONTINUOUS
 10
21.06628387
 20
49.677636416
 11
21.2050221859
 21
49.5388981001
  0
LINE
  5
3BD
100
AcDbEntity
  8
RACCORDO
100
AcDbLine
 62
250
  6
CONTINUOUS
 10
13.1072142476
 20
58.3573173081
 11
13.1256334557
 21
58.3388981001
  0
LINE
  5
3BE
100
AcDbEntity
  8
RACCORDO
100
AcDbLine
 62
250
  6
CONTINUOUS
 10
71.7916658477
 20
0.3589368023
 11
71.7177228731
 21
0.4328797769
  0
LINE
  5
3BF
100
AcDbEntity
  8
RACCORDO
100
AcDbLine
 62
250
  6
CONTINUOUS
 10
71.7177228731
 20
2.2340981229
 11
71.7916658477
 21
2.1601551483
  0
LINE
  5
3C0
100
AcDbEntity
  8
RACCORDO
100
AcDbLine
 62
250
  6
CONTINUOUS
 10
10.5075137457
 20
63.8449164233
 11
10.4335707711
 21
63.9188593979
  0
LINE
  5
3C1
100
AcDbEntity
  8
RACCORDO
100
AcDbLine
 62
250
  6
CONTINUOUS
 10
72.2174182866
 20
2.7337935364
 11
72.2913612612
 21
2.6598505618
  0
LINE
  5
3C2
100
AcDbEntity
  8
0
100
AcDbLine
 62
250
  6
CONTINUOUS
 10
67.4706454234
 20
7.6310423236
 11
67.376033372
 21
7.725654375
  0
LWPOLYLINE
  5
3C3
100
AcDbEntity
  8
0
100
AcDbPolyline
 62
7
  6
CONTINUOUS
 90
13
 70
0
 43
0.3500000006
 10
43.5769053497
 20
78.825089447
 10
43.5769053497
 20
80.1108054199
 10
43.7911898346
 20
80.5393743896
 10
44.2197633362
 20
80.9679433594
 10
44.434047821
 20
80.9679433594
 10
44.8626167908
 20
80.5393743896
 10
45.0769058075
 20
80.1108054199
 10
45.0769058075
 20
78.825089447
 10
44.8626167908
 20
78.3965204773
 10
44.434047821
 20
77.9679424438
 10
44.2197633362
 20
77.9679424438
 10
43.7911898346
 20
78.3965204773
 10
43.5769053497
 20
78.825089447
  0
LINE
  5
3C4
100
AcDbEntity
  8
DRAFT
100
AcDbLine
 62
7
  6
CONTINUOUS
 10
45.2126183094
 20
56.8581895439
 11
45.2126183094
 21
57.027460184
  0
LINE
  5
3C5
100
AcDbEntity
  8
DRAFT
100
AcDbLine
 62
7
  6
CONTINUOUS
 10
46.0126183094
 20
57.027460184
 11
46.0126183094
 21
56.8581895439
  0
LINE
  5
3C6
100
AcDbEntity
  8
0
100
AcDbLine
 62
250
  6
CONTINUOUS
 10
67.8758620345
 20
59.8523131627
 11
67.9704740859
 21
59.9469252141
  0
LINE
  5
3C7
100
AcDbEntity
  8
RACCORDO
100
AcDbLine
 62
250
  6
CONTINUOUS
 10
76.9177228731
 20
67.6449164233
 11
76.9916658477
 21
67.7188593979
  0
LWPOLYLINE
  5
3C8
100
AcDbEntity
  8
RACCORDO
100
AcDbPolyline
 62
250
  6
CONTINUOUS
 90
10
 70
0
 10
67.9704741517
 20
50.0126505315
 10
68.0236528718
 20
50.044549684
 10
68.0783388882
 20
50.0729108907
 10
68.1345322007
 20
50.0977341515
 10
68.1921710374
 20
50.1191060056
 10
68.2513171703
 20
50.1369399139
 10
68.3121559151
 20
50.1509762584
 10
68.3747490437
 20
50.1611285001
 10
68.4390347841
 20
50.1674831782
 10
68.5050131365
 20
50.1700402925
  0
LWPOLYLINE
  5
3C9
100
AcDbEntity
  8
0
100
AcDbPolyline
 62
7
  6
CONTINUOUS
 90
13
 70
0
 43
0.3500000006
 10
87.1845185852
 20
32.0031817474
 10
85.898811676
 20
32.0031817474
 10
85.4702336426
 20
32.2174707642
 10
85.0416646729
 20
32.6460397339
 10
85.0416646729
 20
32.8603287506
 10
85.4702336426
 20
33.2888977203
 10
85.898811676
 20
33.5031822052
 10
87.1845185852
 20
33.5031822052
 10
87.6130966187
 20
33.2888977203
 10
88.0416655884
 20
32.8603287506
 10
88.0416655884
 20
32.6460397339
 10
87.6130966187
 20
32.2174707642
 10
87.1845185852
 20
32.0031817474
  0
LINE
  5
3CA
100
AcDbEntity
  8
0
100
AcDbLine
 62
250
  6
CONTINUOUS
 10
67.9704740859
 20
8.1308709861
 11
67.8758620345
 21
8.2254830375
  0
LINE
  5
3CB
100
AcDbEntity
  8
RACCORDO
100
AcDbLine
 62
250
  6
CONTINUOUS
 10
12.0065999862
 20
65.3440026638
 11
11.9326570116
 21
65.4179456384
  0
LWPOLYLINE
  5
3CC
100
AcDbEntity
  8
0
100
AcDbPolyline
 62
7
  6
CONTINUOUS
 90
2
 70
0
 43
0.3500000006
 10
48.6483335266
 20
77.9679424438
 10
48.6483335266
 20
79.4679429016
  0
LINE
  5
3CD
100
AcDbEntity
  8
RACCORDO
100
AcDbLine
 62
250
  6
CONTINUOUS
 10
14.3075137457
 20
0.4328797769
 11
14.2335707711
 21
0.3589368023
  0
LINE
  5
3CE
100
AcDbEntity
  8
0
100
AcDbLine
 62
250
  6
CONTINUOUS
 10
23.3493745843
 20
8.2254830375
 11
23.2547625329
 21
8.1308709861
  0
LINE
  5
3CF
100
AcDbEntity
  8
0
100
AcDbLine
 62
250
  6
CONTINUOUS
 10
23.8492032468
 20
7.725654375
 11
23.7545911954
 21
7.6310423236
  0
LINE
  5
3D0
100
AcDbEntity
  8
RACCORDO
100
AcDbLine
 62
250
  6
CONTINUOUS
 10
76.9177228731
 20
60.6436980773
 11
76.9916658477
 21
60.7176410519
  0
LINE
  5
3D1
100
AcDbEntity
  8
RACCORDO
100
AcDbLine
 62
250
  6
CONTINUOUS
 10
15.8065999862
 20
-1.0662064636
 11
15.7326570116
 21
-1.1401494382
  0
LINE
  5
3D2
100
AcDbEntity
  8
RACCORDO
100
AcDbLine
 62
250
  6
CONTINUOUS
 10
77.4174182866
 20
60.1440026638
 11
77.4913612612
 21
60.2179456384
  0
LWPOLYLINE
  5
3D3
100
AcDbEntity
  8
RACCORDO
100
AcDbPolyline
 62
250
  6
CONTINUOUS
 90
10
 70
0
 10
23.2547624671
 20
18.0651456687
 10
23.201583747
 20
18.0332465161
 10
23.1468977306
 20
18.0048853095
 10
23.0907044181
 20
17.9800620487
 10
23.0330655814
 20
17.9586901946
 10
22.9739194485
 20
17.9408562863
 10
22.9130807037
 20
17.9268199417
 10
22.8504875751
 20
17.9166677001
 10
22.7862018347
 20
17.910313022
 10
22.7202234823
 20
17.9077559077
  0
LWPOLYLINE
  5
3D4
100
AcDbEntity
  8
0
100
AcDbPolyline
 62
7
  6
CONTINUOUS
 90
2
 70
0
 43
0.3500000006
 10
88.0416655884
 20
37.0746144562
 10
86.5416651306
 20
37.0746144562
  0
LINE
  5
3D5
100
AcDbEntity
  8
RACCORDO
100
AcDbLine
 62
250
  6
CONTINUOUS
 10
79.2186366326
 20
2.7337935364
 11
79.2925796072
 21
2.6598505618
  0
LINE
  5
3D6
100
AcDbEntity
  8
0
100
AcDbLine
 62
250
  6
CONTINUOUS
 10
23.2547625329
 20
59.9469252141
 11
23.3493745843
 21
59.8523131627
  0
LINE
  5
3D7
100
AcDbEntity
  8
0
100
AcDbLine
 62
250
  6
CONTINUOUS
 10
23.7545911954
 20
60.4467538766
 11
23.8492032468
 21
60.3521418252
  0
LINE
  5
3D8
100
AcDbEntity
  8
RACCORDO
100
AcDbLine
 62
250
  6
CONTINUOUS
 10
19.0078183322
 20
65.3440026638
 11
18.9338753576
 21
65.4179456384
  0
LINE
  5
3D9
100
AcDbEntity
  8
RACCORDO
100
AcDbLine
 62
7
  6
CONTINUOUS
 10
52.4428813321
 20
49.8728175224
 11
52.4468523049
 21
50.0145564157
  0
LWPOLYLINE
  5
3DA
100
AcDbEntity
  8
RACCORDO
100
AcDbPolyline
 62
7
  6
CONTINUOUS
 90
5
 70
0
 10
52.4468523049
 20
50.0145564157
 10
52.4474594613
 20
50.0330034937
 10
52.4480783154
 20
50.0473376435
 10
52.4486857286
 20
50.0573410061
 10
52.4492817008
 20
50.0628571573
  0
LWPOLYLINE
  5
3DB
100
AcDbEntity
  8
RACCORDO
100
AcDbPolyline
 62
7
  6
CONTINUOUS
 90
3
 70
0
 10
52.4390106893
 20
49.7639987479
 10
52.4404362059
 20
49.8010632952
 10
52.4428813321
 20
49.8728175224
  0
LINE
  5
3DC
100
AcDbEntity
  8
RACCORDO
100
AcDbLine
 62
250
  6
CONTINUOUS
 10
79.2925796072
 20
60.2179456384
 11
79.2186366326
 21
60.1440026638
  0
LINE
  5
3DD
100
AcDbEntity
  8
RACCORDO
100
AcDbLine
 62
250
  6
CONTINUOUS
 10
78.1180223712
 20
58.3573173081
 11
78.0996031631
 21
58.3388981001
  0
LINE
  5
3DE
100
AcDbEntity
  8
RACCORDO
100
AcDbLine
 62
250
  6
CONTINUOUS
 10
70.1589527488
 20
49.677636416
 11
70.0202144329
 21
49.5388981001
  0
LINE
  5
3DF
100
AcDbEntity
  8
RACCORDO
100
AcDbLine
 62
250
  6
CONTINUOUS
 10
78.6179462187
 20
57.8573934606
 11
78.5995270107
 21
57.8389742525
  0
LINE
  5
3E0
100
AcDbEntity
  8
RACCORDO
100
AcDbLine
 62
250
  6
CONTINUOUS
 10
70.6513566253
 20
49.1852325395
 11
70.5126183094
 21
49.0464942236
  0
LINE
  5
3E1
100
AcDbEntity
  8
RACCORDO
100
AcDbLine
 62
250
  6
CONTINUOUS
 10
80.448014858
 20
46.4888981001
 11
80.417905625
 21
46.4738480704
  0
LINE
  5
3E2
100
AcDbEntity
  8
RACCORDO
100
AcDbLine
 62
250
  6
CONTINUOUS
 10
80.7476492707
 20
46.1888524017
 11
80.7177228731
 21
46.1738937619
  0
LINE
  5
3E3
100
AcDbEntity
  8
RACCORDO
100
AcDbLine
 62
7
  6
CONTINUOUS
 10
10.6434365908
 20
9.8572785682
 11
10.5996222603
 21
9.8353780776
  0
LINE
  5
3E4
100
AcDbEntity
  8
RACCORDO
100
AcDbLine
 62
250
  6
CONTINUOUS
 10
10.4775873481
 20
9.5888524017
 11
10.4335707711
 21
9.5668508186
  0
LWPOLYLINE
  5
3E5
100
AcDbEntity
  8
RACCORDO
100
AcDbPolyline
 62
7
  6
CONTINUOUS
 90
6
 70
0
 10
10.6434365532
 20
9.8572785494
 10
10.6552697172
 20
9.8628737932
 10
10.6846558286
 20
9.8741801828
 10
10.7150605553
 20
9.882339504
 10
10.7461519983
 20
9.8872634973
 10
10.7775874317
 20
9.8888981001
  0
LWPOLYLINE
  5
3E6
100
AcDbEntity
  8
RACCORDO
100
AcDbPolyline
 62
250
  6
CONTINUOUS
 90
7
 70
0
 10
80.417905625
 20
46.4738480704
 10
80.4165040578
 20
46.4735491316
 10
80.4137902026
 20
46.4732587061
 10
80.4097640595
 20
46.4729767937
 10
80.4043820398
 20
46.4727021573
 10
80.3976877321
 20
46.4724360342
 10
80.3898119027
 20
46.4721821361
  0
LINE
  5
3E7
100
AcDbEntity
  8
RACCORDO
100
AcDbLine
 62
250
  6
CONTINUOUS
 10
80.417905625
 20
21.6039481297
 11
80.448014858
 21
21.5888981001
  0
LINE
  5
3E8
100
AcDbEntity
  8
RACCORDO
100
AcDbLine
 62
250
  6
CONTINUOUS
 10
80.7177228731
 20
21.9039024383
 11
80.7476492707
 21
21.8889437985
  0
LINE
  5
3E9
100
AcDbEntity
  8
RACCORDO
100
AcDbLine
 62
7
  6
CONTINUOUS
 10
10.5996222603
 20
58.2424181226
 11
10.6434365908
 21
58.220517632
  0
LINE
  5
3EA
100
AcDbEntity
  8
RACCORDO
100
AcDbLine
 62
250
  6
CONTINUOUS
 10
10.4335707711
 20
58.5109453816
 11
10.4775873481
 21
58.4889437985
  0
LINE
  5
3EB
100
AcDbEntity
  8
RACCORDO
100
AcDbLine
 62
7
  6
CONTINUOUS
 10
42.0536567987
 20
44.2067570968
 11
42.1744207946
 21
44.1324486867
  0
LWPOLYLINE
  5
3EC
100
AcDbEntity
  8
RACCORDO
100
AcDbPolyline
 62
7
  6
CONTINUOUS
 90
5
 70
0
 10
42.1744207946
 20
44.1324486867
 10
42.1900928545
 20
44.1226993349
 10
42.2021971654
 20
44.1149963166
 10
42.2105566249
 20
44.1094686001
 10
42.2150357659
 20
44.1061943974
  0
LWPOLYLINE
  5
3ED
100
AcDbEntity
  8
RACCORDO
100
AcDbPolyline
 62
7
  6
CONTINUOUS
 90
3
 70
0
 10
41.961352297
 20
44.264518559
 10
41.9927383782
 20
44.2447517517
 10
42.0536567987
 20
44.2067570968
  0
LINE
  5
3EE
100
AcDbEntity
  8
RACCORDO
100
AcDbLine
 62
250
  6
CONTINUOUS
 10
80.7177228731
 20
4.2328797769
 11
80.7916658477
 21
4.1589368023
  0
LINE
  5
3EF
100
AcDbEntity
  8
RACCORDO
100
AcDbLine
 62
250
  6
CONTINUOUS
 10
19.5075137457
 20
65.8436980773
 11
19.4335707711
 21
65.9176410519
  0
LINE
  5
3F0
100
AcDbEntity
  8
RACCORDO
100
AcDbLine
 62
250
  6
CONTINUOUS
 10
19.4335707711
 20
67.7188593979
 11
19.5075137457
 21
67.6449164233
  0
LINE
  5
3F1
100
AcDbEntity
  8
RACCORDO
100
AcDbLine
 62
250
  6
CONTINUOUS
 10
78.1180223712
 20
9.7204788921
 11
78.0996031631
 21
9.7388981001
  0
LINE
  5
3F2
100
AcDbEntity
  8
RACCORDO
100
AcDbLine
 62
250
  6
CONTINUOUS
 10
70.1589527488
 20
18.4001597842
 11
70.0202144329
 21
18.5388981001
  0
LINE
  5
3F3
100
AcDbEntity
  8
RACCORDO
100
AcDbLine
 62
250
  6
CONTINUOUS
 10
78.6179462187
 20
10.2204027396
 11
78.5995270107
 21
10.2388219477
  0
LINE
  5
3F4
100
AcDbEntity
  8
RACCORDO
100
AcDbLine
 62
250
  6
CONTINUOUS
 10
80.7916658477
 20
58.7188593979
 11
80.7177228731
 21
58.6449164233
  0
LINE
  5
3F5
100
AcDbEntity
  8
DRAFT
100
AcDbLine
 62
7
  6
CONTINUOUS
 10
79.8126183094
 20
55.3388981001
 11
79.7930766368
 21
55.3193564275
  0
LWPOLYLINE
  5
3F6
100
AcDbEntity
  8
RACCORDO
100
AcDbPolyline
 62
7
  6
CONTINUOUS
 90
19
 70
0
 10
78.1257674653
 20
46.3392400942
 10
78.1680002837
 20
46.3434431047
 10
78.20923436
 20
46.3509914325
 10
78.2494696944
 20
46.3618850776
 10
78.2889985164
 20
46.3762369726
 10
78.3275285964
 20
46.393934185
 10
78.3641832455
 20
46.4146379171
 10
78.3989012129
 20
46.4384234815
 10
78.4317437494
 20
46.4652155656
 10
78.4620179188
 20
46.4944494338
 10
78.4896693984
 20
46.5261770754
 10
78.5147525109
 20
46.560346501
 10
78.5367372887
 20
46.5962370083
 10
78.5555579639
 20
46.6338846375
 10
78.5712803044
 20
46.6732533483
 10
78.5835716458
 20
46.713514317
 10
78.5923210999
 20
46.7543912692
 10
78.5976395548
 20
46.7961604795
 10
78.5995270107
 20
46.8388219477
  0
LWPOLYLINE
  5
3F7
100
AcDbEntity
  8
RACCORDO
100
AcDbPolyline
 62
250
  6
CONTINUOUS
 90
4
 70
0
 10
80.7177228731
 20
46.1738937619
 10
80.7144370977
 20
46.1735945616
 10
80.7076159892
 20
46.1733039909
 10
80.6973689601
 20
46.1730220497
  0
LINE
  5
3F8
100
AcDbEntity
  8
RACCORDO
100
AcDbLine
 62
250
  6
CONTINUOUS
 10
70.1589527488
 20
43.9077559077
 11
68.5050131365
 21
43.9077559077
  0
LINE
  5
3F9
100
AcDbEntity
  8
RACCORDO
100
AcDbLine
 62
250
  6
CONTINUOUS
 10
22.7202234823
 20
43.9077559077
 11
21.06628387
 21
43.9077559077
  0
LWPOLYLINE
  5
3FA
100
AcDbEntity
  8
RACCORDO
100
AcDbPolyline
 62
250
  6
CONTINUOUS
 90
25
 70
0
 10
21.06628387
 20
43.9077559077
 10
21.0011195484
 20
43.9099915389
 10
20.9371323908
 20
43.9161361642
 10
20.874322397
 20
43.9261897837
 10
20.8125492699
 20
43.9402253881
 10
20.7519533067
 20
43.9581699866
 10
20.6929553991
 20
43.9798046071
 10
20.6354895214
 20
44.00516263
 10
20.5796216995
 20
44.0342106748
 10
20.5259709022
 20
44.066629628
 10
20.4745439349
 20
44.1024685965
 10
20.4253339922
 20
44.1416784735
 10
20.378939628
 20
44.1837928251
 10
20.3354207547
 20
44.2287973494
 10
20.2947174597
 20
44.2767063483
 10
20.2572485601
 20
44.3270962942
 10
20.2230738107
 20
44.379715034
 10
20.1921334565
 20
44.4348147209
 10
20.1646670494
 20
44.492728287
 10
20.1404516431
 20
44.5538409082
 10
20.1197101839
 20
44.6177674088
 10
20.1033510626
 20
44.6836851938
 10
20.0916770761
 20
44.751320065
 10
20.0843854276
 20
44.8209462206
 10
20.081476117
 20
44.8925636607
  0
LWPOLYLINE
  5
3FB
100
AcDbEntity
  8
RACCORDO
100
AcDbPolyline
 62
7
  6
CONTINUOUS
 90
6
 70
0
 10
10.6434366553
 20
58.2205176534
 10
10.6552944689
 20
58.2149113823
 10
10.6846558286
 20
58.2036160174
 10
10.7149812205
 20
58.1954735913
 10
10.7459501287
 20
58.1905539313
 10
10.7772217608
 20
58.1888981001
  0
LINE
  5
3FC
100
AcDbEntity
  8
RACCORDO
100
AcDbLine
 62
250
  6
CONTINUOUS
 10
70.6513566253
 20
18.8925636607
 11
70.5126183094
 21
19.0313019766
  0
LINE
  5
3FD
100
AcDbEntity
  8
RACCORDO
100
AcDbLine
 62
250
  6
CONTINUOUS
 10
20.9326570116
 20
69.2179456384
 11
21.0065999862
 21
69.1440026638
  0
LINE
  5
3FE
100
AcDbEntity
  8
DRAFT
100
AcDbLine
 62
7
  6
CONTINUOUS
 10
79.8126183094
 20
12.7388981001
 11
79.7930766368
 21
12.7584397727
  0
LINE
  5
3FF
100
AcDbEntity
  8
RACCORDO
100
AcDbLine
 62
7
  6
CONTINUOUS
 10
41.9069377967
 20
55.9767820846
 11
41.971365171
 21
55.8750178399
  0
LINE
  5
400
100
AcDbEntity
  8
RACCORDO
100
AcDbLine
 62
7
  6
CONTINUOUS
 10
48.9015744159
 20
43.8618148522
 11
48.8462196944
 21
43.9674205107
  0
LINE
  5
401
100
AcDbEntity
  8
RACCORDO
100
AcDbLine
 62
250
  6
CONTINUOUS
 10
76.1941991014
 20
48.1202047433
 11
76.2126183094
 21
48.1386239514
  0
LINE
  5
402
100
AcDbEntity
  8
RACCORDO
100
AcDbLine
 62
7
  6
CONTINUOUS
 10
78.4629022534
 20
50.3760313954
 11
78.2126183094
 21
50.3503538751
  0
LWPOLYLINE
  5
403
100
AcDbEntity
  8
RACCORDO
100
AcDbPolyline
 62
7
  6
CONTINUOUS
 90
25
 70
0
 10
13.2128924581
 20
46.3388981001
 10
13.3303729751
 20
46.342735245
 10
13.4474432142
 20
46.3542432709
 10
13.5636016345
 20
46.3733912017
 10
13.6783932297
 20
46.4001269967
 10
13.7912760207
 20
46.4343479646
 10
13.9016319751
 20
46.4758721
 10
14.0089357216
 20
46.5244859341
 10
14.1127894728
 20
46.5799929301
 10
14.2127907149
 20
46.6421733569
 10
14.308523766
 20
46.7107708343
 10
14.3995651718
 20
46.785484008
 10
14.4855240594
 20
46.8659923501
 10
14.5660324015
 20
46.9519512376
 10
14.6407455752
 20
47.0429926435
 10
14.7093430526
 20
47.1387256946
 10
14.7715234794
 20
47.2387269367
 10
14.8270304754
 20
47.3425806879
 10
14.8756443095
 20
47.4498844344
 10
14.9171684448
 20
47.5602403888
 10
14.9513894127
 20
47.6731231798
 10
14.9781252078
 20
47.787914775
 10
14.9972731386
 20
47.9040731953
 10
15.0087811645
 20
48.0211434344
 10
15.0126183094
 20
48.1386239514
  0
LINE
  5
404
100
AcDbEntity
  8
RACCORDO
100
AcDbLine
 62
250
  6
CONTINUOUS
 10
80.3898119027
 20
46.4721821361
 11
80.3705009807
 21
46.4717107136
  0
LINE
  5
405
100
AcDbEntity
  8
RACCORDO
100
AcDbLine
 62
250
  6
CONTINUOUS
 10
80.6973689601
 20
46.1730220497
 11
80.6672179563
 21
46.1724817176
  0
LINE
  5
406
100
AcDbEntity
  8
RACCORDO
100
AcDbLine
 62
250
  6
CONTINUOUS
 10
80.3705009807
 20
46.4717107136
 11
80.3469377693
 21
46.4713008122
  0
LINE
  5
407
100
AcDbEntity
  8
RACCORDO
100
AcDbLine
 62
250
  6
CONTINUOUS
 10
80.3469377693
 20
46.4713008122
 11
80.3041368906
 21
46.4708198667
  0
LINE
  5
408
100
AcDbEntity
  8
RACCORDO
100
AcDbLine
 62
250
  6
CONTINUOUS
 10
80.6672179563
 20
46.1724817176
 11
80.5992775189
 21
46.1717564859
  0
LINE
  5
409
100
AcDbEntity
  8
RACCORDO
100
AcDbLine
 62
250
  6
CONTINUOUS
 10
80.3041368906
 20
46.4708198667
 11
80.2540656657
 21
46.470537243
  0
LINE
  5
40A
100
AcDbEntity
  8
RACCORDO
100
AcDbLine
 62
250
  6
CONTINUOUS
 10
80.5992775189
 20
46.1717564859
 11
80.4332772836
 21
46.1708655375
  0
LINE
  5
40B
100
AcDbEntity
  8
RACCORDO
100
AcDbLine
 62
250
  6
CONTINUOUS
 10
70.1589527488
 20
44.4001597842
 11
68.5050131365
 21
44.4001597842
  0
LINE
  5
40C
100
AcDbEntity
  8
RACCORDO
100
AcDbLine
 62
7
  6
CONTINUOUS
 10
21.2050221859
 20
44.5388981001
 11
22.7133569726
 21
44.5388981001
  0
LINE
  5
40D
100
AcDbEntity
  8
RACCORDO
100
AcDbLine
 62
7
  6
CONTINUOUS
 10
68.5118796462
 20
44.5388981001
 11
70.0202144329
 21
44.5388981001
  0
LINE
  5
40E
100
AcDbEntity
  8
RACCORDO
100
AcDbLine
 62
250
  6
CONTINUOUS
 10
71.1437605018
 20
44.8925636607
 11
70.6513566253
 21
44.8925636607
  0
LINE
  5
40F
100
AcDbEntity
  8
RACCORDO
100
AcDbLine
 62
250
  6
CONTINUOUS
 10
20.081476117
 20
44.8925636607
 11
20.5738799935
 21
44.8925636607
  0
LINE
  5
410
100
AcDbEntity
  8
RACCORDO
100
AcDbLine
 62
250
  6
CONTINUOUS
 10
78.1180223712
 20
46.0205245835
 11
77.9939249526
 21
46.0205245835
  0
LINE
  5
411
100
AcDbEntity
  8
RACCORDO
100
AcDbLine
 62
250
  6
CONTINUOUS
 10
13.2313116662
 20
46.0205245835
 11
13.1072142476
 21
46.0205245835
  0
LINE
  5
412
100
AcDbEntity
  8
RACCORDO
100
AcDbLine
 62
250
  6
CONTINUOUS
 10
80.4332772836
 20
46.1708655375
 11
79.5626183094
 21
46.1705245835
  0
LINE
  5
413
100
AcDbEntity
  8
RACCORDO
100
AcDbLine
 62
250
  6
CONTINUOUS
 10
78.1180223712
 20
46.3204788921
 11
77.9939249526
 21
46.3204788921
  0
LINE
  5
414
100
AcDbEntity
  8
RACCORDO
100
AcDbLine
 62
250
  6
CONTINUOUS
 10
13.2313116662
 20
46.3204788921
 11
13.1072142476
 21
46.3204788921
  0
LINE
  5
415
100
AcDbEntity
  8
RACCORDO
100
AcDbLine
 62
7
  6
CONTINUOUS
 10
13.0994510671
 20
46.3388983089
 11
13.2128924581
 21
46.3388981001
  0
LINE
  5
416
100
AcDbEntity
  8
RACCORDO
100
AcDbLine
 62
7
  6
CONTINUOUS
 10
78.0123441607
 20
46.3388981001
 11
78.1257855517
 21
46.3388983089
  0
LINE
  5
417
100
AcDbEntity
  8
RACCORDO
100
AcDbLine
 62
250
  6
CONTINUOUS
 10
80.2540656657
 20
46.470537243
 11
79.7941991014
 21
46.4704788921
  0
LINE
  5
418
100
AcDbEntity
  8
RACCORDO
100
AcDbLine
 62
7
  6
CONTINUOUS
 10
10.7775874317
 20
46.4888981001
 11
11.4126183094
 21
46.4888981001
  0
LINE
  5
419
100
AcDbEntity
  8
RACCORDO
100
AcDbLine
 62
7
  6
CONTINUOUS
 10
79.8126183094
 20
46.4888981001
 11
80.4476491871
 21
46.4888981001
  0
LINE
  5
41A
100
AcDbEntity
  8
RACCORDO
100
AcDbLine
 62
250
  6
CONTINUOUS
 10
78.9179005273
 20
46.8204027396
 11
78.6179462187
 21
46.8204027392
  0
LINE
  5
41B
100
AcDbEntity
  8
RACCORDO
100
AcDbLine
 62
250
  6
CONTINUOUS
 10
12.3073360915
 20
46.8204027396
 11
12.6072904001
 21
46.8204027396
  0
LINE
  5
41C
100
AcDbEntity
  8
RACCORDO
100
AcDbLine
 62
250
  6
CONTINUOUS
 10
67.9793088962
 20
44.9216359054
 11
68.0064714243
 21
44.9216314602
  0
LINE
  5
41D
100
AcDbEntity
  8
RACCORDO
100
AcDbLine
 62
250
  6
CONTINUOUS
 10
23.2459285704
 20
44.9216698318
 11
23.2187651945
 21
44.9216845154
  0
LWPOLYLINE
  5
41E
100
AcDbEntity
  8
RACCORDO
100
AcDbPolyline
 62
250
  6
CONTINUOUS
 90
25
 70
0
 10
22.7202234823
 20
44.4001597842
 10
21.0329792294
 20
44.4002717579
 10
21.0000978399
 20
44.4025116239
 10
20.9677637976
 20
44.406836213
 10
20.9361390654
 20
44.413179707
 10
20.9052930154
 20
44.421493679
 10
20.8752102419
 20
44.4317751701
 10
20.845967042
 20
44.4439948958
 10
20.8177124463
 20
44.4580875327
 10
20.7905448058
 20
44.4740140403
 10
20.7645627198
 20
44.4917196072
 10
20.7398754288
 20
44.511127616
 10
20.7165920487
 20
44.5321585427
 10
20.6948245215
 20
44.554709518
 10
20.6746357739
 20
44.5787096544
 10
20.6560627959
 20
44.6041265732
 10
20.6392575073
 20
44.6307493316
 10
20.6242204798
 20
44.6585939229
 10
20.610841565
 20
44.6880117387
 10
20.5992084969
 20
44.7191145165
 10
20.5895619381
 20
44.7516388976
 10
20.5820794611
 20
44.7853879186
 10
20.57689651
 20
44.8202053031
 10
20.5741252007
 20
44.8559819029
 10
20.5738808028
 20
44.89256447
  0
LINE
  5
41F
100
AcDbEntity
  8
RACCORDO
100
AcDbLine
 62
250
  6
CONTINUOUS
 10
11.4310375174
 20
46.4704788921
 11
10.9572016936
 21
46.4705897799
  0
LINE
  5
420
100
AcDbEntity
  8
RACCORDO
100
AcDbLine
 62
250
  6
CONTINUOUS
 10
11.6626183094
 20
46.1705245835
 11
10.7311404224
 21
46.1711045655
  0
LINE
  5
421
100
AcDbEntity
  8
RACCORDO
100
AcDbLine
 62
250
  6
CONTINUOUS
 10
10.7311404224
 20
46.1711045655
 11
10.6097403419
 21
46.1718982533
  0
LINE
  5
422
100
AcDbEntity
  8
RACCORDO
100
AcDbLine
 62
250
  6
CONTINUOUS
 10
10.9572016936
 20
46.4705897799
 11
10.9109768865
 21
46.4709095712
  0
LINE
  5
423
100
AcDbEntity
  8
RACCORDO
100
AcDbLine
 62
250
  6
CONTINUOUS
 10
10.6097403419
 20
46.1718982533
 11
10.5637674076
 21
46.1724025863
  0
LINE
  5
424
100
AcDbEntity
  8
RACCORDO
100
AcDbLine
 62
250
  6
CONTINUOUS
 10
10.9109768865
 20
46.4709095712
 11
10.8833117691
 21
46.4712293626
  0
LINE
  5
425
100
AcDbEntity
  8
RACCORDO
100
AcDbLine
 62
250
  6
CONTINUOUS
 10
10.8833117691
 20
46.4712293626
 11
10.8589915155
 21
46.4716260849
  0
LWPOLYLINE
  5
426
100
AcDbEntity
  8
RACCORDO
100
AcDbPolyline
 62
250
  6
CONTINUOUS
 90
5
 70
0
 10
10.5637674076
 20
46.1724025863
 10
10.5301761792
 20
46.1729691942
 10
10.5187470797
 20
46.1732666322
 10
10.5111388623
 20
46.1735748215
 10
10.5075137457
 20
46.1738937619
  0
LWPOLYLINE
  5
427
100
AcDbEntity
  8
RACCORDO
100
AcDbPolyline
 62
250
  6
CONTINUOUS
 90
8
 70
0
 10
10.8589915155
 20
46.4716260849
 10
10.8384811979
 20
46.4720955468
 10
10.8298862708
 20
46.4723569477
 10
10.8224177716
 20
46.4726351675
 10
10.8163959676
 20
46.4729240093
 10
10.8119276145
 20
46.4732214076
 10
10.8089059565
 20
46.473529428
 10
10.8073309938
 20
46.4738480704
  0
LWPOLYLINE
  5
428
100
AcDbEntity
  8
RACCORDO
100
AcDbPolyline
 62
250
  6
CONTINUOUS
 90
28
 70
0
 10
77.9939249526
 20
46.3204788921
 10
77.889834809
 20
46.3234850842
 10
77.7863509605
 20
46.3324749345
 10
77.6838139477
 20
46.3473740703
 10
77.5827669982
 20
46.3680397082
 10
77.4833185241
 20
46.3943856273
 10
77.3851727791
 20
46.426502189
 10
77.2882899649
 20
46.4645107312
 10
77.1934183152
 20
46.5082287963
 10
77.1014296737
 20
46.5572717306
 10
77.0128431743
 20
46.611294172
 10
76.9276903202
 20
46.6702060788
 10
76.8460681808
 20
46.7339179584
 10
76.7682225925
 20
46.8022414138
 10
76.6944378548
 20
46.874930565
 10
76.6248845046
 20
46.9518310779
 10
76.5598893905
 20
47.0325933123
 10
76.499589937
 20
47.1170591175
 10
76.4439389059
 20
47.2054056366
 10
76.3931112241
 20
47.2975989797
 10
76.3475060578
 20
47.3931860453
 10
76.3074419419
 20
47.4917223964
 10
76.2730896734
 20
47.5930402421
 10
76.2447095002
 20
47.6966687792
 10
76.2225927649
 20
47.8016414062
 10
76.2068131973
 20
47.9073709761
 10
76.1973475074
 20
48.0136841661
 10
76.1941991014
 20
48.1202047433
  0
LWPOLYLINE
  5
429
100
AcDbEntity
  8
RACCORDO
100
AcDbPolyline
 62
250
  6
CONTINUOUS
 90
28
 70
0
 10
77.9939249526
 20
46.0205245835
 10
77.8718454059
 20
46.0242188919
 10
77.7512522708
 20
46.0346837175
 10
77.6321455472
 20
46.0519190604
 10
77.5143771081
 20
46.0759504861
 10
77.3980950806
 20
46.106752429
 10
77.2837438459
 20
46.1442481928
 10
77.1708889253
 20
46.1886613227
 10
77.0599647975
 20
46.2397682736
 10
76.9527192791
 20
46.2968217138
 10
76.849484525
 20
46.3597717241
 10
76.7499283803
 20
46.4286682238
 10
76.6548021972
 20
46.5029136392
 10
76.564094564
 20
46.5825509909
 10
76.4778168923
 20
46.6675372582
 10
76.3967547685
 20
46.7571458055
 10
76.3209881201
 20
46.8512605638
 10
76.2504370197
 20
46.9499976019
 10
76.1856472712
 20
47.0529784916
 10
76.1264897304
 20
47.1604720216
 10
76.0730935415
 20
47.2722094032
 10
76.0263919415
 20
47.3870058408
 10
75.9864882461
 20
47.5051127106
 10
75.9532791396
 20
47.6262786364
 10
75.9273879121
 20
47.7485646949
 10
75.9090223268
 20
47.8713245784
 10
75.8979746203
 20
47.9952045945
 10
75.8942447928
 20
48.1202047433
  0
LWPOLYLINE
  5
42A
100
AcDbEntity
  8
RACCORDO
100
AcDbPolyline
 62
250
  6
CONTINUOUS
 90
25
 70
0
 10
68.5050131365
 20
44.4001597842
 10
68.4723156265
 20
44.4012335735
 10
68.4398452912
 20
44.4045272589
 10
68.4077389042
 20
44.4100115932
 10
68.376169279
 20
44.4176402198
 10
68.3452254116
 20
44.4273708509
 10
68.3149195667
 20
44.4391903495
 10
68.2853463317
 20
44.453077264
 10
68.2566711242
 20
44.4689693192
 10
68.2290159183
 20
44.4868023156
 10
68.2025002967
 20
44.5065152429
 10
68.1772445352
 20
44.5280325325
 10
68.1533651651
 20
44.5512559079
 10
68.1309713935
 20
44.5760961417
 10
68.110162521
 20
44.6024583888
 10
68.0910313467
 20
44.6302249156
 10
68.0736578172
 20
44.6593053999
 10
68.0581350856
 20
44.6895691232
 10
68.0445565314
 20
44.720824443
 10
68.0329872816
 20
44.7529190527
 10
68.0234643229
 20
44.7857443524
 10
68.0160211602
 20
44.8191659322
 10
68.0106911487
 20
44.8530484028
 10
68.0075024244
 20
44.8872545049
 10
68.0064714947
 20
44.9216452188
  0
LWPOLYLINE
  5
42B
100
AcDbEntity
  8
RACCORDO
100
AcDbPolyline
 62
250
  6
CONTINUOUS
 90
10
 70
0
 10
68.5050131365
 20
43.9077559077
 10
68.4416073242
 20
43.9098786098
 10
68.3790790114
 20
43.9158866457
 10
68.3174281982
 20
43.9257800153
 10
68.2564873544
 20
43.9396175774
 10
68.1964240102
 20
43.9573404733
 10
68.137740756
 20
43.9787721264
 10
68.080605122
 20
44.0038536778
 10
68.0248495781
 20
44.0326439864
 10
67.9704741242
 20
44.0651430522
  0
LWPOLYLINE
  5
42C
100
AcDbEntity
  8
RACCORDO
100
AcDbPolyline
 62
250
  6
CONTINUOUS
 90
22
 70
0
 10
13.1072142515
 20
46.320478896
 10
13.0698254108
 20
46.3218714028
 10
13.0327283021
 20
46.3260429835
 10
12.9961274758
 20
46.3329521213
 10
12.9602537651
 20
46.3425327832
 10
12.9252678182
 20
46.3547194308
 10
12.891267097
 20
46.3694705644
 10
12.8583988854
 20
46.3867319285
 10
12.8268899448
 20
46.4063943777
 10
12.7969499976
 20
46.4283257824
 10
12.7687751451
 20
46.4523686461
 10
12.7424771129
 20
46.4784128816
 10
12.7181342397
 20
46.5063878756
 10
12.6959046322
 20
46.5361324266
 10
12.6759088702
 20
46.5675077009
 10
12.6581994818
 20
46.6004946412
 10
12.6428706774
 20
46.6350618979
 10
12.6301286328
 20
46.6709137309
 10
12.6201542444
 20
46.7076138081
 10
12.6130137787
 20
46.7448653807
 10
12.6087190036
 20
46.782533979
 10
12.6072904044
 20
46.820402744
  0
LWPOLYLINE
  5
42D
100
AcDbEntity
  8
RACCORDO
100
AcDbPolyline
 62
250
  6
CONTINUOUS
 90
22
 70
0
 10
13.1072142476
 20
46.0205245835
 10
13.0468716436
 20
46.0229128666
 10
12.9876349708
 20
46.0295748671
 10
12.9295042292
 20
46.040510585
 10
12.8722236314
 20
46.0558212869
 10
12.816048965
 20
46.0754057061
 10
12.761747592
 20
46.0989600428
 10
12.7092815087
 20
46.1265685264
 10
12.6586887189
 20
46.1581469275
 10
12.6108505962
 20
46.1931387569
 10
12.5658606587
 20
46.2315459107
 10
12.5236253884
 20
46.2733664929
 10
12.4847456047
 20
46.3180383265
 10
12.4492432962
 20
46.3655537087
 10
12.4170964744
 20
46.4159203424
 10
12.3888399935
 20
46.4685991598
 10
12.3644570227
 20
46.5238455476
 10
12.3439643929
 20
46.5814041191
 10
12.3279474502
 20
46.6399696468
 10
12.3166013101
 20
46.6991070548
 10
12.3097308572
 20
46.7592514191
 10
12.3073360915
 20
46.8204027396
  0
LINE
  5
42E
100
AcDbEntity
  8
RACCORDO
100
AcDbLine
 62
7
  6
CONTINUOUS
 10
13.0126183094
 20
50.3503538751
 11
12.7623343654
 21
50.3760313954
  0
LINE
  5
42F
100
AcDbEntity
  8
DRAFT
100
AcDbLine
 62
7
  6
CONTINUOUS
 10
51.4648906099
 20
46.1982068966
 11
51.3159558983
 21
46.2841943925
  0
LINE
  5
430
100
AcDbEntity
  8
RACCORDO
100
AcDbLine
 62
250
  6
CONTINUOUS
 10
76.1941991014
 20
19.9575914569
 11
76.2126183094
 21
19.9391722488
  0
LINE
  5
431
100
AcDbEntity
  8
RACCORDO
100
AcDbLine
 62
250
  6
CONTINUOUS
 10
77.9939249526
 20
46.3204788921
 11
78.0123441607
 21
46.3388981001
  0
LINE
  5
432
100
AcDbEntity
  8
RACCORDO
100
AcDbLine
 62
7
  6
CONTINUOUS
 10
79.8126183094
 20
46.4888981001
 11
79.7941991014
 21
46.4704788921
  0
LINE
  5
433
100
AcDbEntity
  8
RACCORDO
100
AcDbLine
 62
7
  6
CONTINUOUS
 10
52.607050985
 20
50.2791382964
 11
52.4874728328
 21
50.2742559497
  0
LINE
  5
434
100
AcDbEntity
  8
DRAFT
100
AcDbLine
 62
7
  6
CONTINUOUS
 10
11.432159982
 20
49.3584397727
 11
10.4626183094
 21
49.3415163598
  0
LINE
  5
435
100
AcDbEntity
  8
RACCORDO
100
AcDbLine
 62
250
  6
CONTINUOUS
 10
15.330991826
 20
48.1202047433
 11
15.0310375174
 21
48.1202047433
  0
LINE
  5
436
100
AcDbEntity
  8
RACCORDO
100
AcDbLine
 62
250
  6
CONTINUOUS
 10
75.8942447928
 20
48.1202047433
 11
76.1941991014
 21
48.1202047433
  0
LINE
  5
437
100
AcDbEntity
  8
RACCORDO
100
AcDbLine
 62
250
  6
CONTINUOUS
 10
71.1437605018
 20
49.1852325395
 11
70.6513566253
 21
49.1852325395
  0
LINE
  5
438
100
AcDbEntity
  8
RACCORDO
100
AcDbLine
 62
250
  6
CONTINUOUS
 10
20.081476117
 20
49.1852325395
 11
20.5738799935
 21
49.1852325395
  0
LINE
  5
439
100
AcDbEntity
  8
DRAFT
100
AcDbLine
 62
7
  6
CONTINUOUS
 10
10.4626183094
 20
49.3388981001
 11
11.4126183094
 21
49.3388981001
  0
LINE
  5
43A
100
AcDbEntity
  8
DRAFT
100
AcDbLine
 62
7
  6
CONTINUOUS
 10
79.8126183094
 20
49.3388981001
 11
80.7626183094
 21
49.3388981001
  0
LINE
  5
43B
100
AcDbEntity
  8
RACCORDO
100
AcDbLine
 62
7
  6
CONTINUOUS
 10
70.0202144329
 20
49.5388981001
 11
68.5118796462
 21
49.5388981001
  0
LINE
  5
43C
100
AcDbEntity
  8
RACCORDO
100
AcDbLine
 62
7
  6
CONTINUOUS
 10
22.7133569726
 20
49.5388981001
 11
21.2050221859
 21
49.5388981001
  0
LINE
  5
43D
100
AcDbEntity
  8
RACCORDO
100
AcDbLine
 62
250
  6
CONTINUOUS
 10
21.06628387
 20
49.677636416
 11
22.7202234823
 21
49.677636416
  0
LINE
  5
43E
100
AcDbEntity
  8
RACCORDO
100
AcDbLine
 62
250
  6
CONTINUOUS
 10
21.06628387
 20
50.1700402925
 11
22.7202234823
 21
50.1700402925
  0
LINE
  5
43F
100
AcDbEntity
  8
RACCORDO
100
AcDbLine
 62
250
  6
CONTINUOUS
 10
68.5050131365
 20
50.1700402925
 11
70.1589527488
 21
50.1700402925
  0
LINE
  5
440
100
AcDbEntity
  8
RACCORDO
100
AcDbLine
 62
7
  6
CONTINUOUS
 10
12.3073360915
 20
50.3913912982
 11
12.3818851551
 21
50.3913912982
  0
LINE
  5
441
100
AcDbEntity
  8
RACCORDO
100
AcDbLine
 62
7
  6
CONTINUOUS
 10
78.8433514637
 20
50.3913912982
 11
78.9179005273
 21
50.3913912982
  0
LINE
  5
442
100
AcDbEntity
  8
RACCORDO
100
AcDbLine
 62
250
  6
CONTINUOUS
 10
23.2459277226
 20
49.1561602947
 11
23.2187651945
 21
49.15616474
  0
LINE
  5
443
100
AcDbEntity
  8
RACCORDO
100
AcDbLine
 62
250
  6
CONTINUOUS
 10
67.9793080484
 20
49.1561263684
 11
68.0064714243
 21
49.1561116848
  0
LWPOLYLINE
  5
444
100
AcDbEntity
  8
RACCORDO
100
AcDbPolyline
 62
250
  6
CONTINUOUS
 90
25
 70
0
 10
68.5050131365
 20
49.677636416
 10
70.1922573894
 20
49.6775244423
 10
70.2251387789
 20
49.6752845763
 10
70.2574728212
 20
49.6709599871
 10
70.2890975534
 20
49.6646164932
 10
70.3199436034
 20
49.6563025212
 10
70.3500263769
 20
49.6460210301
 10
70.3792695768
 20
49.6338013044
 10
70.4075241725
 20
49.6197086675
 10
70.434691813
 20
49.6037821599
 10
70.460673899
 20
49.586076593
 10
70.48536119
 20
49.5666685841
 10
70.5086445701
 20
49.5456376575
 10
70.5304120973
 20
49.5230866821
 10
70.5506008449
 20
49.4990865458
 10
70.5691738229
 20
49.473669627
 10
70.5859791115
 20
49.4470468685
 10
70.601016139
 20
49.4192022773
 10
70.6143950538
 20
49.3897844615
 10
70.6260281219
 20
49.3586816837
 10
70.6356746807
 20
49.3261573026
 10
70.6431571577
 20
49.2924082816
 10
70.6483401088
 20
49.2575908971
 10
70.6511114181
 20
49.2218142973
 10
70.651355816
 20
49.1852317301
  0
LINE
  5
445
100
AcDbEntity
  8
DRAFT
100
AcDbLine
 62
7
  6
CONTINUOUS
 10
80.7599535359
 20
49.3415628736
 11
79.7930766368
 21
49.3584397727
  0
LWPOLYLINE
  5
446
100
AcDbEntity
  8
RACCORDO
100
AcDbPolyline
 62
250
  6
CONTINUOUS
 90
25
 70
0
 10
22.7202234823
 20
49.677636416
 10
22.7529209923
 20
49.6765626267
 10
22.7853913276
 20
49.6732689413
 10
22.8174977146
 20
49.667784607
 10
22.8490673398
 20
49.6601559804
 10
22.8800112072
 20
49.6504253493
 10
22.9103170521
 20
49.6386058507
 10
22.9398902871
 20
49.6247189362
 10
22.9685654945
 20
49.608826881
 10
22.9962207005
 20
49.5909938846
 10
23.0227363221
 20
49.5712809573
 10
23.0479920836
 20
49.5497636677
 10
23.0718714537
 20
49.5265402923
 10
23.0942652253
 20
49.5017000585
 10
23.1150740977
 20
49.4753378114
 10
23.1342052721
 20
49.4475712846
 10
23.1515788016
 20
49.4184908003
 10
23.1671015332
 20
49.388227077
 10
23.1806800874
 20
49.3569717572
 10
23.1922493372
 20
49.3248771474
 10
23.2017722959
 20
49.2920518478
 10
23.2092154586
 20
49.258630268
 10
23.2145454701
 20
49.2247477973
 10
23.2177341944
 20
49.1905416953
 10
23.2187651241
 20
49.1561509814
  0
LWPOLYLINE
  5
447
100
AcDbEntity
  8
RACCORDO
100
AcDbPolyline
 62
250
  6
CONTINUOUS
 90
10
 70
0
 10
22.7202234823
 20
50.1700402925
 10
22.7836292946
 20
50.1679175904
 10
22.8461576074
 20
50.1619095545
 10
22.9078084206
 20
50.1520161849
 10
22.9687492644
 20
50.1381786227
 10
23.0288126086
 20
50.1204557269
 10
23.0874958628
 20
50.0990240738
 10
23.1446314968
 20
50.0739425224
 10
23.2003870407
 20
50.0451522138
 10
23.2547624946
 20
50.012653148
  0
LINE
  5
448
100
AcDbEntity
  8
RACCORDO
100
AcDbLine
 62
7
  6
CONTINUOUS
 10
38.6181856338
 20
50.2791382964
 11
38.737763786
 21
50.2742559497
  0
LWPOLYLINE
  5
449
100
AcDbEntity
  8
0
100
AcDbPolyline
 62
7
  6
CONTINUOUS
 90
3
 70
0
 43
0.3500000006
 10
87.7559499207
 20
35.0746138458
 10
87.9702344055
 20
35.003182663
 10
88.2559500732
 20
34.8603248291
  0
LINE
  5
44A
100
AcDbEntity
  8
DRAFT
100
AcDbLine
 62
7
  6
CONTINUOUS
 10
51.7159558983
 20
46.9770147156
 11
51.8648906099
 21
46.8910272197
  0
LINE
  5
44B
100
AcDbEntity
  8
RACCORDO
100
AcDbLine
 62
250
  6
CONTINUOUS
 10
77.9939249526
 20
21.7573173081
 11
78.0123441607
 21
21.7388981001
  0
LINE
  5
44C
100
AcDbEntity
  8
RACCORDO
100
AcDbLine
 62
7
  6
CONTINUOUS
 10
79.8126183094
 20
21.5888981001
 11
79.7941991014
 21
21.6073173081
  0
LWPOLYLINE
  5
44D
100
AcDbEntity
  8
RACCORDO
100
AcDbPolyline
 62
250
  6
CONTINUOUS
 90
10
 70
0
 10
67.9704741517
 20
24.0126505315
 10
68.0236528718
 20
24.044549684
 10
68.0783388882
 20
24.0729108907
 10
68.1345322007
 20
24.0977341515
 10
68.1921710374
 20
24.1191060056
 10
68.2513171703
 20
24.1369399139
 10
68.3121559151
 20
24.1509762584
 10
68.3747490437
 20
24.1611285001
 10
68.4390347841
 20
24.1674831782
 10
68.5050131365
 20
24.1700402925
  0
LWPOLYLINE
  5
44E
100
AcDbEntity
  8
0
100
AcDbPolyline
 62
7
  6
CONTINUOUS
 90
10
 70
0
 43
0.3500000006
 10
87.5416654358
 20
35.003182663
 10
87.6845187378
 20
35.0746138458
 10
87.7559499207
 20
35.0746138458
 10
87.8988122864
 20
34.931756012
 10
87.8988122864
 20
34.8603248291
 10
87.8273811035
 20
34.7888981781
 10
87.7559499207
 20
34.7888981781
 10
87.6130966187
 20
34.8603248291
 10
87.5416654358
 20
34.931756012
 10
87.5416654358
 20
35.003182663
  0
LINE
  5
44F
100
AcDbEntity
  8
DRAFT
100
AcDbLine
 62
7
  6
CONTINUOUS
 10
12.6195306747
 20
50.3042517893
 11
13.0126183094
 21
50.3241072761
  0
LINE
  5
450
100
AcDbEntity
  8
DRAFT
100
AcDbLine
 62
7
  6
CONTINUOUS
 10
78.2126183094
 20
54.3536889241
 11
78.6057059441
 21
54.3735444108
  0
LWPOLYLINE
  5
451
100
AcDbEntity
  8
RACCORDO
100
AcDbPolyline
 62
250
  6
CONTINUOUS
 90
25
 70
0
 10
70.1589527488
 20
50.1700402925
 10
70.2241170704
 20
50.1678046613
 10
70.288104228
 20
50.161660036
 10
70.3509142218
 20
50.1516064165
 10
70.4126873489
 20
50.1375708121
 10
70.4732833121
 20
50.1196262136
 10
70.5322812197
 20
50.0979915931
 10
70.5897470974
 20
50.0726335702
 10
70.6456149193
 20
50.0435855254
 10
70.6992657166
 20
50.0111665722
 10
70.7506926839
 20
49.9753276037
 10
70.7999026266
 20
49.9361177267
 10
70.8462969908
 20
49.8940033751
 10
70.8898158641
 20
49.8489988508
 10
70.9305191591
 20
49.8010898519
 10
70.9679880587
 20
49.7506999059
 10
71.0021628081
 20
49.6980811662
 10
71.0331031623
 20
49.6429814793
 10
71.0605695694
 20
49.5850679132
 10
71.0847849757
 20
49.5239552919
 10
71.1055264349
 20
49.4600287914
 10
71.1218855562
 20
49.3941110064
 10
71.1335595426
 20
49.3264761352
 10
71.1408511912
 20
49.2568499796
 10
71.1437605018
 20
49.1852325395
  0
LINE
  5
452
100
AcDbEntity
  8
DRAFT
100
AcDbLine
 62
7
  6
CONTINUOUS
 10
78.2126183094
 20
50.3241072761
 11
78.6057059441
 21
50.3042517893
  0
LINE
  5
453
100
AcDbEntity
  8
DRAFT
100
AcDbLine
 62
7
  6
CONTINUOUS
 10
12.6195306747
 20
54.3735444108
 11
13.0126183094
 21
54.3536889241
  0
LINE
  5
454
100
AcDbEntity
  8
RACCORDO
100
AcDbLine
 62
250
  6
CONTINUOUS
 10
68.5050131365
 20
23.677636416
 11
68.5118796462
 21
23.5388981001
  0
LINE
  5
455
100
AcDbEntity
  8
RACCORDO
100
AcDbLine
 62
250
  6
CONTINUOUS
 10
68.5050131365
 20
49.677636416
 11
68.5118796462
 21
49.5388981001
  0
LWPOLYLINE
  5
456
100
AcDbEntity
  8
0
100
AcDbPolyline
 62
250
  6
CONTINUOUS
 90
19
 70
0
 10
67.8758620345
 20
59.8523131627
 10
67.8739211678
 20
59.8959782543
 10
67.8681720992
 20
59.9393159513
 10
67.8586570926
 20
59.9819945507
 10
67.8454440606
 20
60.0236959065
 10
67.8286341554
 20
60.0640910237
 10
67.8083685733
 20
60.1028456454
 10
67.7848206223
 20
60.1396469463
 10
67.7581650261
 20
60.1742378424
 10
67.7285802924
 20
60.2063870092
 10
67.6962574782
 20
60.2358713549
 10
67.6614665837
 20
60.2624303963
 10
67.6245403744
 20
60.2858167073
 10
67.5857684101
 20
60.3058652976
 10
67.545454332
 20
60.3224366297
 10
67.5039910324
 20
60.3353978494
 10
67.4617300578
 20
60.34468187
 10
67.4189698374
 20
60.3502648178
 10
67.3760333719
 20
60.3521418251
  0
LINE
  5
457
100
AcDbEntity
  8
RACCORDO
100
AcDbLine
 62
7
  6
CONTINUOUS
 10
67.9731215637
 20
23.6167975384
 11
67.9785055949
 21
23.2668233651
  0
LINE
  5
458
100
AcDbEntity
  8
RACCORDO
100
AcDbLine
 62
7
  6
CONTINUOUS
 10
67.9731215637
 20
49.6167975384
 11
67.9785055949
 21
49.2668233651
  0
LINE
  5
459
100
AcDbEntity
  8
RACCORDO
100
AcDbLine
 62
7
  6
CONTINUOUS
 10
67.9785055949
 20
23.2668233651
 11
67.978998706
 21
23.2225043529
  0
LINE
  5
45A
100
AcDbEntity
  8
RACCORDO
100
AcDbLine
 62
7
  6
CONTINUOUS
 10
67.9785055949
 20
49.2668233651
 11
67.978998706
 21
49.2225043529
  0
LINE
  5
45B
100
AcDbEntity
  8
RACCORDO
100
AcDbLine
 62
7
  6
CONTINUOUS
 10
67.971489532
 20
23.7715091326
 11
67.9731215637
 21
23.6167975384
  0
LINE
  5
45C
100
AcDbEntity
  8
RACCORDO
100
AcDbLine
 62
7
  6
CONTINUOUS
 10
67.971489532
 20
49.7715091326
 11
67.9731215637
 21
49.6167975384
  0
LINE
  5
45D
100
AcDbEntity
  8
RACCORDO
100
AcDbLine
 62
7
  6
CONTINUOUS
 10
67.978998706
 20
23.2225043529
 11
67.9792598279
 21
23.1782011502
  0
LINE
  5
45E
100
AcDbEntity
  8
RACCORDO
100
AcDbLine
 62
7
  6
CONTINUOUS
 10
67.978998706
 20
49.2225043529
 11
67.9792598279
 21
49.1782011502
  0
LINE
  5
45F
100
AcDbEntity
  8
RACCORDO
100
AcDbLine
 62
7
  6
CONTINUOUS
 10
67.9706808906
 20
23.909799235
 11
67.971489532
 21
23.7715091326
  0
LINE
  5
460
100
AcDbEntity
  8
RACCORDO
100
AcDbLine
 62
7
  6
CONTINUOUS
 10
67.9706808906
 20
49.909799235
 11
67.971489532
 21
49.7715091326
  0
LINE
  5
461
100
AcDbEntity
  8
0
100
AcDbLine
 62
250
  6
CONTINUOUS
 10
67.376033372
 20
60.3521418252
 11
67.376033372
 21
7.725654375
  0
LINE
  5
462
100
AcDbEntity
  8
0
100
AcDbLine
 62
250
  6
CONTINUOUS
 10
67.8758620345
 20
59.8523131627
 11
67.8758620345
 21
8.2254830375
  0
LINE
  5
463
100
AcDbEntity
  8
RACCORDO
100
AcDbLine
 62
7
  6
CONTINUOUS
 10
67.9706808906
 20
23.909799235
 11
67.9704740859
 21
44.0651392499
  0
LINE
  5
464
100
AcDbEntity
  8
RACCORDO
100
AcDbLine
 62
7
  6
CONTINUOUS
 10
67.9706808906
 20
49.909799235
 11
67.9704740859
 21
59.9469252141
  0
LINE
  5
465
100
AcDbEntity
  8
RACCORDO
100
AcDbLine
 62
7
  6
CONTINUOUS
 10
67.9792598279
 20
49.1782011502
 11
67.9793088962
 21
44.9216359117
  0
LINE
  5
466
100
AcDbEntity
  8
RACCORDO
100
AcDbLine
 62
7
  6
CONTINUOUS
 10
67.9792598279
 20
23.1782011502
 11
67.9793088962
 21
18.9216359117
  0
LINE
  5
467
100
AcDbEntity
  8
RACCORDO
100
AcDbLine
 62
7
  6
CONTINUOUS
 10
68.0064714243
 20
18.9216437959
 11
68.0064714243
 21
23.1561524043
  0
LINE
  5
468
100
AcDbEntity
  8
RACCORDO
100
AcDbLine
 62
7
  6
CONTINUOUS
 10
68.0064714243
 20
44.9216437959
 11
68.0064714243
 21
49.1561524043
  0
LINE
  5
469
100
AcDbEntity
  8
RACCORDO
100
AcDbLine
 62
7
  6
CONTINUOUS
 10
68.0126183094
 20
49.031954156
 11
68.0126183094
 21
45.0458420442
  0
LINE
  5
46A
100
AcDbEntity
  8
RACCORDO
100
AcDbLine
 62
7
  6
CONTINUOUS
 10
68.0126183094
 20
23.031954156
 11
68.0126183094
 21
19.0458420442
  0
LINE
  5
46B
100
AcDbEntity
  8
RACCORDO
100
AcDbLine
 62
250
  6
CONTINUOUS
 10
68.5050131365
 20
50.1700402925
 11
68.5050131365
 21
49.677636416
  0
LINE
  5
46C
100
AcDbEntity
  8
RACCORDO
100
AcDbLine
 62
250
  6
CONTINUOUS
 10
68.5050131365
 20
24.1700402925
 11
68.5050131365
 21
23.677636416
  0
LINE
  5
46D
100
AcDbEntity
  8
RACCORDO
100
AcDbLine
 62
250
  6
CONTINUOUS
 10
68.5050131365
 20
17.9077559077
 11
68.5050131365
 21
18.4001597842
  0
LINE
  5
46E
100
AcDbEntity
  8
RACCORDO
100
AcDbLine
 62
250
  6
CONTINUOUS
 10
68.5050131365
 20
43.9077559077
 11
68.5050131365
 21
44.4001597842
  0
LINE
  5
46F
100
AcDbEntity
  8
RACCORDO
100
AcDbLine
 62
7
  6
CONTINUOUS
 10
67.9708827522
 20
44.2167917364
 11
67.9704740859
 21
44.0651392499
  0
LINE
  5
470
100
AcDbEntity
  8
RACCORDO
100
AcDbLine
 62
7
  6
CONTINUOUS
 10
67.9708827522
 20
18.2167917364
 11
67.9704740859
 21
8.1308709861
  0
LINE
  5
471
100
AcDbEntity
  8
RACCORDO
100
AcDbLine
 62
7
  6
CONTINUOUS
 10
67.9793088962
 20
44.9216359117
 11
67.9791574008
 21
44.8775923387
  0
LINE
  5
472
100
AcDbEntity
  8
RACCORDO
100
AcDbLine
 62
7
  6
CONTINUOUS
 10
67.9793088962
 20
18.9216359117
 11
67.9791574008
 21
18.8775923387
  0
LINE
  5
473
100
AcDbEntity
  8
RACCORDO
100
AcDbLine
 62
7
  6
CONTINUOUS
 10
67.9791574008
 20
44.8775923387
 11
67.9787822146
 21
44.8334224404
  0
LINE
  5
474
100
AcDbEntity
  8
RACCORDO
100
AcDbLine
 62
7
  6
CONTINUOUS
 10
67.9791574008
 20
18.8775923387
 11
67.9787822146
 21
18.8334224404
  0
LINE
  5
475
100
AcDbEntity
  8
RACCORDO
100
AcDbLine
 62
7
  6
CONTINUOUS
 10
67.9722632671
 20
44.3886002724
 11
67.9708827522
 21
44.2167917364
  0
LINE
  5
476
100
AcDbEntity
  8
RACCORDO
100
AcDbLine
 62
7
  6
CONTINUOUS
 10
67.9722632671
 20
18.3886002724
 11
67.9708827522
 21
18.2167917364
  0
LINE
  5
477
100
AcDbEntity
  8
RACCORDO
100
AcDbLine
 62
7
  6
CONTINUOUS
 10
67.9749503075
 20
44.5879794376
 11
67.9722632671
 21
44.3886002724
  0
LINE
  5
478
100
AcDbEntity
  8
RACCORDO
100
AcDbLine
 62
7
  6
CONTINUOUS
 10
67.9749503075
 20
18.5879794376
 11
67.9722632671
 21
18.3886002724
  0
LWPOLYLINE
  5
479
100
AcDbEntity
  8
RACCORDO
100
AcDbPolyline
 62
7
  6
CONTINUOUS
 90
3
 70
0
 10
67.9787822146
 20
18.8334224404
 10
67.9767086439
 20
18.6945909224
 10
67.9749503075
 20
18.5879794376
  0
LINE
  5
47A
100
AcDbEntity
  8
RACCORDO
100
AcDbLine
 62
7
  6
CONTINUOUS
 10
67.9787822146
 20
44.8334224404
 11
67.9749503075
 21
44.5879794376
  0
LWPOLYLINE
  5
47B
100
AcDbEntity
  8
RACCORDO
100
AcDbPolyline
 62
250
  6
CONTINUOUS
 90
25
 70
0
 10
68.0064711872
 20
49.156157194
 10
68.0074916527
 20
49.1903728407
 10
68.0106509499
 20
49.2244281207
 10
68.0159368443
 20
49.2581854477
 10
68.0233327636
 20
49.2915366131
 10
68.0328060191
 20
49.3243173629
 10
68.0442952834
 20
49.35631176
 10
68.0577311985
 20
49.3873710111
 10
68.0730543652
 20
49.4173986838
 10
68.0901969029
 20
49.4462668169
 10
68.1090793651
 20
49.4738637452
 10
68.1296145603
 20
49.500084462
 10
68.1517156026
 20
49.524817778
 10
68.1752835598
 20
49.5479679388
 10
68.2002153538
 20
49.5694499014
 10
68.2264119722
 20
49.5891760399
 10
68.2537494342
 20
49.6070637063
 10
68.2821216048
 20
49.6230555363
 10
68.311455761
 20
49.6371027134
 10
68.3414993807
 20
49.6490993161
 10
68.37225484
 20
49.6590548589
 10
68.4040574932
 20
49.667010691
 10
68.4369495057
 20
49.6728589416
 10
68.4706495411
 20
49.6764392645
 10
68.5050131365
 20
49.677636416
  0
LWPOLYLINE
  5
47C
100
AcDbEntity
  8
RACCORDO
100
AcDbPolyline
 62
250
  6
CONTINUOUS
 90
25
 70
0
 10
68.0064711872
 20
23.156157194
 10
68.0074916527
 20
23.1903728407
 10
68.0106509499
 20
23.2244281207
 10
68.0159368443
 20
23.2581854477
 10
68.0233327636
 20
23.2915366131
 10
68.0328060191
 20
23.3243173629
 10
68.0442952834
 20
23.35631176
 10
68.0577311985
 20
23.3873710111
 10
68.0730543652
 20
23.4173986838
 10
68.0901969029
 20
23.4462668169
 10
68.1090793651
 20
23.4738637452
 10
68.1296145603
 20
23.500084462
 10
68.1517156026
 20
23.524817778
 10
68.1752835598
 20
23.5479679388
 10
68.2002153538
 20
23.5694499014
 10
68.2264119722
 20
23.5891760399
 10
68.2537494342
 20
23.6070637063
 10
68.2821216048
 20
23.6230555363
 10
68.311455761
 20
23.6371027134
 10
68.3414993807
 20
23.6490993161
 10
68.37225484
 20
23.6590548589
 10
68.4040574932
 20
23.667010691
 10
68.4369495057
 20
23.6728589416
 10
68.4706495411
 20
23.6764392645
 10
68.5050131365
 20
23.677636416
  0
LWPOLYLINE
  5
47D
100
AcDbEntity
  8
0
100
AcDbPolyline
 62
250
  6
CONTINUOUS
 90
19
 70
0
 10
67.8758620345
 20
8.2254830375
 10
67.873925969
 20
8.1818723036
 10
67.868192237
 20
8.1385938103
 10
67.8587044688
 20
8.095977677
 10
67.8455348825
 20
8.0543488514
 10
67.8287838586
 20
8.014025043
 10
67.8085792922
 20
7.9753142517
 10
67.7850735805
 20
7.9385092944
 10
67.7584473294
 20
7.9038936769
 10
67.7289103725
 20
7.8717381559
 10
67.6966947219
 20
7.8422904038
 10
67.662043381
 20
7.8157680489
 10
67.6252132073
 20
7.7923661994
 10
67.586448594
 20
7.772246424
 10
67.5460779249
 20
7.7555851371
 10
67.5045149991
 20
7.7425377751
 10
67.4621198434
 20
7.7331825902
 10
67.4191840078
 20
7.7275500415
 10
67.376033372
 20
7.725654375
  0
LINE
  5
47E
100
AcDbEntity
  8
RACCORDO
100
AcDbLine
 62
250
  6
CONTINUOUS
 10
68.5050131365
 20
44.4001597842
 11
68.5118796462
 21
44.5388981001
  0
LINE
  5
47F
100
AcDbEntity
  8
RACCORDO
100
AcDbLine
 62
250
  6
CONTINUOUS
 10
68.5050131365
 20
18.4001597842
 11
68.5118796462
 21
18.5388981001
  0
LINE
  5
480
100
AcDbEntity
  8
DRAFT
100
AcDbLine
 62
7
  6
CONTINUOUS
 10
80.7599535359
 20
55.3362333266
 11
79.7930766368
 21
55.3193564275
  0
LINE
  5
481
100
AcDbEntity
  8
RACCORDO
100
AcDbLine
 62
7
  6
CONTINUOUS
 10
78.9179005273
 20
54.286404902
 11
78.8433514637
 21
54.286404902
  0
LINE
  5
482
100
AcDbEntity
  8
RACCORDO
100
AcDbLine
 62
7
  6
CONTINUOUS
 10
12.3818851551
 20
54.286404902
 11
12.3073360915
 21
54.286404902
  0
LINE
  5
483
100
AcDbEntity
  8
DRAFT
100
AcDbLine
 62
7
  6
CONTINUOUS
 10
10.4626183094
 20
55.3388981001
 11
11.4126183094
 21
55.3388981001
  0
LINE
  5
484
100
AcDbEntity
  8
DRAFT
100
AcDbLine
 62
7
  6
CONTINUOUS
 10
79.8126183094
 20
55.3388981001
 11
80.7626183094
 21
55.3388981001
  0
LINE
  5
485
100
AcDbEntity
  8
RACCORDO
100
AcDbLine
 62
250
  6
CONTINUOUS
 10
15.330991826
 20
56.5575914569
 11
15.0310375174
 21
56.5575914569
  0
LINE
  5
486
100
AcDbEntity
  8
RACCORDO
100
AcDbLine
 62
250
  6
CONTINUOUS
 10
75.8942447928
 20
56.5575914569
 11
76.1941991014
 21
56.5575914569
  0
LINE
  5
487
100
AcDbEntity
  8
DRAFT
100
AcDbLine
 62
7
  6
CONTINUOUS
 10
11.432159982
 20
55.3193564275
 11
10.4626183094
 21
55.3362798404
  0
LWPOLYLINE
  5
488
100
AcDbEntity
  8
RACCORDO
100
AcDbPolyline
 62
250
  6
CONTINUOUS
 90
28
 70
0
 10
13.2313116662
 20
58.3573173081
 10
13.3354018098
 20
58.354311116
 10
13.4388856583
 20
58.3453212657
 10
13.5414226711
 20
58.3304221299
 10
13.6424696206
 20
58.309756492
 10
13.7419180947
 20
58.2834105729
 10
13.8400638397
 20
58.2512940111
 10
13.9369466539
 20
58.213285469
 10
14.0318183036
 20
58.1695674039
 10
14.1238069451
 20
58.1205244696
 10
14.2123934445
 20
58.0665020281
 10
14.2975462986
 20
58.0075901214
 10
14.379168438
 20
57.9438782418
 10
14.4570140263
 20
57.8755547864
 10
14.530798764
 20
57.8028656352
 10
14.6003521142
 20
57.7259651223
 10
14.6653472282
 20
57.6452028879
 10
14.7256466818
 20
57.5607370826
 10
14.7812977129
 20
57.4723905636
 10
14.8321253947
 20
57.3801972205
 10
14.877730561
 20
57.2846101549
 10
14.9177946769
 20
57.1860738038
 10
14.9521469454
 20
57.0847559581
 10
14.9805271186
 20
56.981127421
 10
15.0026438539
 20
56.876154794
 10
15.0184234215
 20
56.7704252241
 10
15.0278891114
 20
56.6641120341
 10
15.0310375174
 20
56.5575914569
  0
LWPOLYLINE
  5
489
100
AcDbEntity
  8
RACCORDO
100
AcDbPolyline
 62
7
  6
CONTINUOUS
 90
25
 70
0
 10
13.2128924581
 20
58.3388981001
 10
13.3303729751
 20
58.3350609552
 10
13.4474432142
 20
58.3235529292
 10
13.5636016345
 20
58.3044049985
 10
13.6783932297
 20
58.2776692034
 10
13.7912760207
 20
58.2434482355
 10
13.9016319751
 20
58.2019241001
 10
14.0089357216
 20
58.1533102661
 10
14.1127894728
 20
58.0978032701
 10
14.2127907149
 20
58.0356228433
 10
14.308523766
 20
57.9670253659
 10
14.3995651718
 20
57.8923121922
 10
14.4855240594
 20
57.8118038501
 10
14.5660324015
 20
57.7258449625
 10
14.6407455752
 20
57.6348035567
 10
14.7093430526
 20
57.5390705056
 10
14.7715234794
 20
57.4390692635
 10
14.8270304754
 20
57.3352155123
 10
14.8756443095
 20
57.2279117658
 10
14.9171684448
 20
57.1175558114
 10
14.9513894127
 20
57.0046730204
 10
14.9781252078
 20
56.8898814252
 10
14.9972731386
 20
56.7737230049
 10
15.0087811645
 20
56.6566527658
 10
15.0126183094
 20
56.5391722488
  0
LWPOLYLINE
  5
48A
100
AcDbEntity
  8
RACCORDO
100
AcDbPolyline
 62
7
  6
CONTINUOUS
 90
5
 70
0
 10
49.0516991573
 20
55.9476427456
 10
49.0466240441
 20
55.9498846941
 10
49.0376571714
 20
55.9543603402
 10
49.0249340065
 20
55.9609914717
 10
49.0086547901
 20
55.9696891978
  0
LINE
  5
48B
100
AcDbEntity
  8
RACCORDO
100
AcDbLine
 62
7
  6
CONTINUOUS
 10
48.8527747887
 20
56.0537676968
 11
48.7877446768
 21
56.0881769934
  0
LINE
  5
48C
100
AcDbEntity
  8
RACCORDO
100
AcDbLine
 62
7
  6
CONTINUOUS
 10
48.9135009048
 20
56.0211974222
 11
48.8527747887
 21
56.0537676968
  0
LINE
  5
48D
100
AcDbEntity
  8
RACCORDO
100
AcDbLine
 62
7
  6
CONTINUOUS
 10
49.0086547901
 20
55.9696891978
 11
48.9135009048
 21
56.0211974222
  0
LWPOLYLINE
  5
48E
100
AcDbEntity
  8
0
100
AcDbPolyline
 62
7
  6
CONTINUOUS
 90
10
 70
0
 43
0.3500000006
 10
46.5769062653
 20
78.4679425964
 10
46.6483329163
 20
78.3250892944
 10
46.6483329163
 20
78.2536581116
 10
46.5054750824
 20
78.1108048096
 10
46.4340484314
 20
78.1108048096
 10
46.3626172485
 20
78.1822269287
 10
46.3626172485
 20
78.2536581116
 10
46.4340484314
 20
78.3965204773
 10
46.5054750824
 20
78.4679425964
 10
46.5769062653
 20
78.4679425964
  0
LINE
  5
48F
100
AcDbEntity
  8
RACCORDO
100
AcDbLine
 62
250
  6
CONTINUOUS
 10
70.1589527488
 20
50.1700402925
 11
70.1589527488
 21
49.677636416
  0
LINE
  5
490
100
AcDbEntity
  8
RACCORDO
100
AcDbLine
 62
250
  6
CONTINUOUS
 10
70.1589527488
 20
24.1700402925
 11
70.1589527488
 21
23.677636416
  0
LINE
  5
491
100
AcDbEntity
  8
RACCORDO
100
AcDbLine
 62
250
  6
CONTINUOUS
 10
70.1589527488
 20
17.9077559077
 11
70.1589527488
 21
18.4001597842
  0
LINE
  5
492
100
AcDbEntity
  8
RACCORDO
100
AcDbLine
 62
250
  6
CONTINUOUS
 10
70.1589527488
 20
43.9077559077
 11
70.1589527488
 21
44.4001597842
  0
LINE
  5
493
100
AcDbEntity
  8
RACCORDO
100
AcDbLine
 62
250
  6
CONTINUOUS
 10
70.2186366326
 20
-0.5665110501
 11
70.2186366326
 21
-1.0662064636
  0
LINE
  5
494
100
AcDbEntity
  8
RACCORDO
100
AcDbLine
 62
7
  6
CONTINUOUS
 10
70.5126183094
 20
19.0313019766
 11
70.5126183094
 21
23.0464942236
  0
LINE
  5
495
100
AcDbEntity
  8
RACCORDO
100
AcDbLine
 62
7
  6
CONTINUOUS
 10
70.5126183094
 20
45.0313019766
 11
70.5126183094
 21
49.0464942236
  0
LINE
  5
496
100
AcDbEntity
  8
RACCORDO
100
AcDbLine
 62
250
  6
CONTINUOUS
 10
71.1437605018
 20
49.1852325395
 11
71.1437605018
 21
44.8925636607
  0
LINE
  5
497
100
AcDbEntity
  8
RACCORDO
100
AcDbLine
 62
250
  6
CONTINUOUS
 10
71.1437605018
 20
23.1852325395
 11
71.1437605018
 21
18.8925636607
  0
LINE
  5
498
100
AcDbEntity
  8
RACCORDO
100
AcDbLine
 62
250
  6
CONTINUOUS
 10
71.2180274596
 20
0.4328797769
 11
71.2180274596
 21
2.2340981229
  0
LINE
  5
499
100
AcDbEntity
  8
RACCORDO
100
AcDbLine
 62
250
  6
CONTINUOUS
 10
71.7177228731
 20
0.4328797769
 11
71.7177228731
 21
2.2340981229
  0
LINE
  5
49A
100
AcDbEntity
  8
RACCORDO
100
AcDbLine
 62
7
  6
CONTINUOUS
 10
71.7916658477
 20
2.1601551483
 11
71.7916658477
 21
0.3589368023
  0
LINE
  5
49B
100
AcDbEntity
  8
RACCORDO
100
AcDbLine
 62
250
  6
CONTINUOUS
 10
72.2174182866
 20
3.2334889499
 11
72.2174182866
 21
2.7337935364
  0
LWPOLYLINE
  5
49C
100
AcDbEntity
  8
RACCORDO
100
AcDbPolyline
 62
250
  6
CONTINUOUS
 90
25
 70
0
 10
70.6513566253
 20
49.1852325395
 10
70.6512446516
 20
44.8592590201
 10
70.6490047856
 20
44.8263776306
 10
70.6446801964
 20
44.7940435883
 10
70.6383367025
 20
44.7624188561
 10
70.6300227305
 20
44.7315728061
 10
70.6197412394
 20
44.7014900326
 10
70.6075215137
 20
44.6722468327
 10
70.5934288768
 20
44.643992237
 10
70.5775023692
 20
44.6168245965
 10
70.5597968023
 20
44.5908425105
 10
70.5403887934
 20
44.5661552195
 10
70.5193578668
 20
44.5428718394
 10
70.4968068914
 20
44.5211043122
 10
70.4728067551
 20
44.5009155646
 10
70.4473898363
 20
44.4823425866
 10
70.4207670778
 20
44.465537298
 10
70.3929224866
 20
44.4505002705
 10
70.3635046708
 20
44.4371213557
 10
70.332401893
 20
44.4254882876
 10
70.2998775119
 20
44.4158417288
 10
70.2661284909
 20
44.4083592518
 10
70.2313111064
 20
44.4031763007
 10
70.1955345066
 20
44.4004049914
 10
70.1589519395
 20
44.4001605935
  0
LWPOLYLINE
  5
49D
100
AcDbEntity
  8
RACCORDO
100
AcDbPolyline
 62
250
  6
CONTINUOUS
 90
25
 70
0
 10
70.6513566253
 20
23.1852325395
 10
70.6512446516
 20
18.8592590201
 10
70.6490047856
 20
18.8263776306
 10
70.6446801964
 20
18.7940435883
 10
70.6383367025
 20
18.7624188561
 10
70.6300227305
 20
18.7315728061
 10
70.6197412394
 20
18.7014900326
 10
70.6075215137
 20
18.6722468327
 10
70.5934288768
 20
18.643992237
 10
70.5775023692
 20
18.6168245965
 10
70.5597968023
 20
18.5908425105
 10
70.5403887934
 20
18.5661552195
 10
70.5193578668
 20
18.5428718394
 10
70.4968068914
 20
18.5211043122
 10
70.4728067551
 20
18.5009155646
 10
70.4473898363
 20
18.4823425866
 10
70.4207670778
 20
18.465537298
 10
70.3929224866
 20
18.4505002705
 10
70.3635046708
 20
18.4371213557
 10
70.332401893
 20
18.4254882876
 10
70.2998775119
 20
18.4158417288
 10
70.2661284909
 20
18.4083592518
 10
70.2313111064
 20
18.4031763007
 10
70.1955345066
 20
18.4004049914
 10
70.1589519395
 20
18.4001605935
  0
LWPOLYLINE
  5
49E
100
AcDbEntity
  8
RACCORDO
100
AcDbPolyline
 62
250
  6
CONTINUOUS
 90
25
 70
0
 10
71.7177229017
 20
2.2340980943
 10
71.7187443858
 20
2.2666884301
 10
71.7218698203
 20
2.2990187108
 10
71.7270631158
 20
2.3309554122
 10
71.7342682392
 20
2.36232561
 10
71.7434391846
 20
2.3930494498
 10
71.7545680613
 20
2.4231323008
 10
71.7676328186
 20
2.4524920583
 10
71.7825675436
 20
2.4809614557
 10
71.7993103136
 20
2.5084154327
 10
71.8178035784
 20
2.5347523297
 10
71.8379643404
 20
2.5598478297
 10
71.8596721397
 20
2.5835568192
 10
71.8828071734
 20
2.6057653892
 10
71.9072893237
 20
2.6264127618
 10
71.9330464846
 20
2.6454441895
 10
71.9598323709
 20
2.6626979659
 10
71.9876665973
 20
2.6782055427
 10
72.0169235083
 20
2.692117372
 10
72.0477085768
 20
2.7043486889
 10
72.0797520227
 20
2.7146584928
 10
72.1128882966
 20
2.7228868781
 10
72.1469688207
 20
2.7288986839
 10
72.1818656694
 20
2.7325733333
 10
72.2174183226
 20
2.7337935004
  0
LWPOLYLINE
  5
49F
100
AcDbEntity
  8
RACCORDO
100
AcDbPolyline
 62
250
  6
CONTINUOUS
 90
25
 70
0
 10
71.1437605018
 20
44.8925636607
 10
71.1415248706
 20
44.8273993391
 10
71.1353802453
 20
44.7634121815
 10
71.1253266258
 20
44.7006021877
 10
71.1112910214
 20
44.6388290606
 10
71.0933464229
 20
44.5782330973
 10
71.0717118024
 20
44.5192351898
 10
71.0463537795
 20
44.4617693121
 10
71.0173057347
 20
44.4059014902
 10
70.9848867815
 20
44.3522506929
 10
70.949047813
 20
44.3008237256
 10
70.909837936
 20
44.2516137829
 10
70.8677235844
 20
44.2052194187
 10
70.8227190601
 20
44.1617005454
 10
70.7748100612
 20
44.1209972504
 10
70.7244201153
 20
44.0835283508
 10
70.6718013755
 20
44.0493536013
 10
70.6167016886
 20
44.0184132472
 10
70.5587881225
 20
43.9909468401
 10
70.4976755013
 20
43.9667314338
 10
70.4337490007
 20
43.9459899746
 10
70.3678312157
 20
43.9296308533
 10
70.3001963445
 20
43.9179568668
 10
70.2305701889
 20
43.9106652183
 10
70.1589527488
 20
43.9077559077
  0
LWPOLYLINE
  5
4A0
100
AcDbEntity
  8
RACCORDO
100
AcDbPolyline
 62
250
  6
CONTINUOUS
 90
25
 70
0
 10
71.1437605018
 20
18.8925636607
 10
71.1415248706
 20
18.8273993391
 10
71.1353802453
 20
18.7634121815
 10
71.1253266258
 20
18.7006021877
 10
71.1112910214
 20
18.6388290606
 10
71.0933464229
 20
18.5782330973
 10
71.0717118024
 20
18.5192351898
 10
71.0463537795
 20
18.4617693121
 10
71.0173057347
 20
18.4059014902
 10
70.9848867815
 20
18.3522506929
 10
70.949047813
 20
18.3008237256
 10
70.909837936
 20
18.2516137829
 10
70.8677235844
 20
18.2052194187
 10
70.8227190601
 20
18.1617005454
 10
70.7748100612
 20
18.1209972504
 10
70.7244201153
 20
18.0835283508
 10
70.6718013755
 20
18.0493536013
 10
70.6167016886
 20
18.0184132472
 10
70.5587881225
 20
17.9909468401
 10
70.4976755013
 20
17.9667314338
 10
70.4337490007
 20
17.9459899746
 10
70.3678312157
 20
17.9296308533
 10
70.3001963445
 20
17.9179568668
 10
70.2305701889
 20
17.9106652183
 10
70.1589527488
 20
17.9077559077
  0
LWPOLYLINE
  5
4A1
100
AcDbEntity
  8
RACCORDO
100
AcDbPolyline
 62
250
  6
CONTINUOUS
 90
25
 70
0
 10
71.2180274596
 20
2.2340981229
 10
71.2202947178
 20
2.2996327931
 10
71.2265923873
 20
2.3641335273
 10
71.2369204681
 20
2.4276003253
 10
71.2513477556
 20
2.4901970201
 10
71.2698054543
 20
2.5517597788
 10
71.2920871783
 20
2.6117971029
 10
71.3182441195
 20
2.670385606
 10
71.348225086
 20
2.7274486745
 10
71.3816701169
 20
2.7822649693
 10
71.418652384
 20
2.8348245378
 10
71.4590987154
 20
2.8851373327
 10
71.502429635
 20
2.9325118734
 10
71.5486378496
 20
2.9768629111
 10
71.5977306524
 20
3.0182756946
 10
71.6491504466
 20
3.0563144901
 10
71.7025941565
 20
3.0908849367
 10
71.7583648578
 20
3.1220813953
 10
71.8168141809
 20
3.149751215
 10
71.8783203047
 20
3.1741367145
 10
71.9425050502
 20
3.1949955751
 10
72.0085855118
 20
3.2114481897
 10
72.0763007208
 20
3.2232013558
 10
72.1459116457
 20
3.2305482759
 10
72.2174182866
 20
3.2334889499
  0
LINE
  5
4A2
100
AcDbEntity
  8
RACCORDO
100
AcDbLine
 62
250
  6
CONTINUOUS
 10
70.1589527488
 20
23.677636416
 11
70.0202144329
 21
23.5388981001
  0
LINE
  5
4A3
100
AcDbEntity
  8
RACCORDO
100
AcDbLine
 62
250
  6
CONTINUOUS
 10
70.6513566253
 20
23.1852325395
 11
70.5126183094
 21
23.0464942236
  0
LINE
  5
4A4
100
AcDbEntity
  8
RACCORDO
100
AcDbLine
 62
250
  6
CONTINUOUS
 10
80.7881737708
 20
22.0591998751
 11
80.7916658477
 21
22.0609453816
  0
LINE
  5
4A5
100
AcDbEntity
  8
RACCORDO
100
AcDbLine
 62
250
  6
CONTINUOUS
 10
80.7476492707
 20
21.8889437985
 11
80.7881737708
 21
21.9091998751
  0
LINE
  5
4A6
100
AcDbEntity
  8
RACCORDO
100
AcDbLine
 62
7
  6
CONTINUOUS
 10
80.581800028
 20
21.620517632
 11
80.6221222815
 21
21.6406726161
  0
LWPOLYLINE
  5
4A7
100
AcDbEntity
  8
RACCORDO
100
AcDbPolyline
 62
7
  6
CONTINUOUS
 90
6
 70
0
 10
80.5818000656
 20
21.6205176508
 10
80.5699669016
 20
21.614922407
 10
80.5405807902
 20
21.6036160174
 10
80.5101760635
 20
21.5954566962
 10
80.4790846205
 20
21.5905327029
 10
80.4476491871
 20
21.5888981001
  0
LINE
  5
4A8
100
AcDbEntity
  8
RACCORDO
100
AcDbLine
 62
7
  6
CONTINUOUS
 10
13.0126183094
 20
54.3274423251
 11
12.7623343654
 21
54.3017648048
  0
LINE
  5
4A9
100
AcDbEntity
  8
RACCORDO
100
AcDbLine
 62
250
  6
CONTINUOUS
 10
10.8354247161
 20
58.2056140641
 11
10.8547356381
 21
58.2060854866
  0
LINE
  5
4AA
100
AcDbEntity
  8
RACCORDO
100
AcDbLine
 62
250
  6
CONTINUOUS
 10
10.8547356381
 20
58.2060854866
 11
10.8782988495
 21
58.206495388
  0
LINE
  5
4AB
100
AcDbEntity
  8
RACCORDO
100
AcDbLine
 62
250
  6
CONTINUOUS
 10
10.5278676587
 20
58.5047741505
 11
10.5580186625
 21
58.5053144826
  0
LINE
  5
4AC
100
AcDbEntity
  8
RACCORDO
100
AcDbLine
 62
250
  6
CONTINUOUS
 10
10.8782988495
 20
58.206495388
 11
10.9210997282
 21
58.2069763335
  0
LINE
  5
4AD
100
AcDbEntity
  8
RACCORDO
100
AcDbLine
 62
250
  6
CONTINUOUS
 10
10.5580186625
 20
58.5053144826
 11
10.6259590999
 21
58.5060397143
  0
LINE
  5
4AE
100
AcDbEntity
  8
RACCORDO
100
AcDbLine
 62
250
  6
CONTINUOUS
 10
10.9210997282
 20
58.2069763335
 11
10.9711709531
 21
58.2072589572
  0
LINE
  5
4AF
100
AcDbEntity
  8
RACCORDO
100
AcDbLine
 62
250
  6
CONTINUOUS
 10
10.6259590999
 20
58.5060397143
 11
10.7919593352
 21
58.5069306627
  0
LINE
  5
4B0
100
AcDbEntity
  8
RACCORDO
100
AcDbLine
 62
250
  6
CONTINUOUS
 10
78.9179005273
 20
57.8573934606
 11
78.6179462187
 21
57.8573934606
  0
LINE
  5
4B1
100
AcDbEntity
  8
RACCORDO
100
AcDbLine
 62
250
  6
CONTINUOUS
 10
12.3073360915
 20
57.8573934606
 11
12.6072904001
 21
57.857393461
  0
LINE
  5
4B2
100
AcDbEntity
  8
RACCORDO
100
AcDbLine
 62
7
  6
CONTINUOUS
 10
80.4476491871
 20
58.1888981001
 11
79.8126183094
 21
58.1888981001
  0
LINE
  5
4B3
100
AcDbEntity
  8
RACCORDO
100
AcDbLine
 62
7
  6
CONTINUOUS
 10
11.4126183094
 20
58.1888981001
 11
10.7775874317
 21
58.1888981001
  0
LINE
  5
4B4
100
AcDbEntity
  8
RACCORDO
100
AcDbLine
 62
250
  6
CONTINUOUS
 10
10.9711709531
 20
58.2072589572
 11
11.4310375174
 21
58.2073173081
  0
LINE
  5
4B5
100
AcDbEntity
  8
RACCORDO
100
AcDbLine
 62
7
  6
CONTINUOUS
 10
78.1257855517
 20
58.3388978913
 11
78.0123441607
 21
58.3388981001
  0
LINE
  5
4B6
100
AcDbEntity
  8
RACCORDO
100
AcDbLine
 62
7
  6
CONTINUOUS
 10
13.2128924581
 20
58.3388981001
 11
13.0994510671
 21
58.3388978913
  0
LINE
  5
4B7
100
AcDbEntity
  8
RACCORDO
100
AcDbLine
 62
250
  6
CONTINUOUS
 10
13.1072142476
 20
58.3573173081
 11
13.2313116662
 21
58.3573173081
  0
LINE
  5
4B8
100
AcDbEntity
  8
RACCORDO
100
AcDbLine
 62
250
  6
CONTINUOUS
 10
77.9939249526
 20
58.3573173081
 11
78.1180223712
 21
58.3573173081
  0
LINE
  5
4B9
100
AcDbEntity
  8
RACCORDO
100
AcDbLine
 62
250
  6
CONTINUOUS
 10
10.7919593352
 20
58.5069306627
 11
11.6626183094
 21
58.5072716167
  0
LINE
  5
4BA
100
AcDbEntity
  8
RACCORDO
100
AcDbLine
 62
250
  6
CONTINUOUS
 10
80.2180274596
 20
58.6449164233
 11
80.7177228731
 21
58.6449164587
  0
LINE
  5
4BB
100
AcDbEntity
  8
RACCORDO
100
AcDbLine
 62
250
  6
CONTINUOUS
 10
13.1072142476
 20
58.6572716167
 11
13.2313116662
 21
58.6572716167
  0
LINE
  5
4BC
100
AcDbEntity
  8
RACCORDO
100
AcDbLine
 62
250
  6
CONTINUOUS
 10
77.9939249526
 20
58.6572716167
 11
78.1180223712
 21
58.6572716167
  0
LINE
  5
4BD
100
AcDbEntity
  8
RACCORDO
100
AcDbLine
 62
250
  6
CONTINUOUS
 10
79.2186366326
 20
59.6443072503
 11
77.4174182866
 21
59.6443072503
  0
LINE
  5
4BE
100
AcDbEntity
  8
0
100
AcDbLine
 62
250
  6
CONTINUOUS
 10
23.3493745843
 20
59.8523131627
 11
67.8758620345
 21
59.8523131627
  0
LINE
  5
4BF
100
AcDbEntity
  8
RACCORDO
100
AcDbLine
 62
250
  6
CONTINUOUS
 10
79.2186366326
 20
60.1440026638
 11
77.4174182866
 21
60.1440026638
  0
LINE
  5
4C0
100
AcDbEntity
  8
RACCORDO
100
AcDbLine
 62
7
  6
CONTINUOUS
 10
77.4913612612
 20
60.2179456384
 11
79.2925796072
 21
60.2179456384
  0
LINE
  5
4C1
100
AcDbEntity
  8
0
100
AcDbLine
 62
250
  6
CONTINUOUS
 10
67.376033372
 20
60.3521418252
 11
23.8492032468
 21
60.3521418252
  0
LINE
  5
4C2
100
AcDbEntity
  8
0
100
AcDbLine
 62
7
  6
CONTINUOUS
 10
67.4706454234
 20
60.4467538766
 11
23.7545911954
 21
60.4467538766
  0
LINE
  5
4C3
100
AcDbEntity
  8
RACCORDO
100
AcDbLine
 62
250
  6
CONTINUOUS
 10
76.4180274596
 20
60.6436980773
 11
76.9177228731
 21
60.6436980773
  0
LINE
  5
4C4
100
AcDbEntity
  8
RACCORDO
100
AcDbLine
 62
250
  6
CONTINUOUS
 10
79.7941991014
 20
58.2073173081
 11
80.2680349252
 21
58.2072064203
  0
LINE
  5
4C5
100
AcDbEntity
  8
RACCORDO
100
AcDbLine
 62
250
  6
CONTINUOUS
 10
79.5626183094
 20
58.5072716167
 11
80.4940961964
 21
58.5066916347
  0
LINE
  5
4C6
100
AcDbEntity
  8
RACCORDO
100
AcDbLine
 62
250
  6
CONTINUOUS
 10
80.4940961964
 20
58.5066916347
 11
80.6154962769
 21
58.5058979469
  0
LINE
  5
4C7
100
AcDbEntity
  8
RACCORDO
100
AcDbLine
 62
250
  6
CONTINUOUS
 10
80.2680349252
 20
58.2072064203
 11
80.3142597323
 21
58.206886629
  0
LINE
  5
4C8
100
AcDbEntity
  8
RACCORDO
100
AcDbLine
 62
250
  6
CONTINUOUS
 10
80.6154962769
 20
58.5058979469
 11
80.6614692111
 21
58.5053936139
  0
LINE
  5
4C9
100
AcDbEntity
  8
RACCORDO
100
AcDbLine
 62
250
  6
CONTINUOUS
 10
80.3142597323
 20
58.206886629
 11
80.3419248497
 21
58.2065668376
  0
LINE
  5
4CA
100
AcDbEntity
  8
RACCORDO
100
AcDbLine
 62
250
  6
CONTINUOUS
 10
80.3419248497
 20
58.2065668376
 11
80.3662451033
 21
58.2061701153
  0
LWPOLYLINE
  5
4CB
100
AcDbEntity
  8
RACCORDO
100
AcDbPolyline
 62
250
  6
CONTINUOUS
 90
5
 70
0
 10
80.6614692111
 20
58.5053936139
 10
80.6950604396
 20
58.504827006
 10
80.7064895391
 20
58.504529568
 10
80.7140977565
 20
58.5042213787
 10
80.7177228731
 20
58.5039024383
  0
LWPOLYLINE
  5
4CC
100
AcDbEntity
  8
RACCORDO
100
AcDbPolyline
 62
250
  6
CONTINUOUS
 90
8
 70
0
 10
80.3662451033
 20
58.2061701153
 10
80.3867554209
 20
58.2057006534
 10
80.395350348
 20
58.2054392525
 10
80.4028188472
 20
58.2051610327
 10
80.4088406512
 20
58.2048721909
 10
80.4133090043
 20
58.2045747926
 10
80.4163306623
 20
58.2042667722
 10
80.417905625
 20
58.2039481297
  0
LWPOLYLINE
  5
4CD
100
AcDbEntity
  8
RACCORDO
100
AcDbPolyline
 62
250
  6
CONTINUOUS
 90
28
 70
0
 10
13.2313116662
 20
58.6572716167
 10
13.3533912129
 20
58.6535773083
 10
13.473984348
 20
58.6431124827
 10
13.5930910716
 20
58.6258771398
 10
13.7108595107
 20
58.6018457141
 10
13.8271415382
 20
58.5710437712
 10
13.9414927729
 20
58.5335480074
 10
14.0543476935
 20
58.4891348775
 10
14.1652718213
 20
58.4380279266
 10
14.2725173397
 20
58.3809744864
 10
14.3757520938
 20
58.3180244761
 10
14.4753082385
 20
58.2491279764
 10
14.5704344216
 20
58.174882561
 10
14.6611420548
 20
58.0952452093
 10
14.7474197265
 20
58.010258942
 10
14.8284818503
 20
57.9206503946
 10
14.9042484987
 20
57.8265356364
 10
14.9747995991
 20
57.7277985983
 10
15.0395893476
 20
57.6248177086
 10
15.0987468884
 20
57.5173241786
 10
15.1521430773
 20
57.405586797
 10
15.1988446773
 20
57.2907903594
 10
15.2387483727
 20
57.1726834896
 10
15.2719574792
 20
57.0515175638
 10
15.2978487067
 20
56.9292315053
 10
15.316214292
 20
56.8064716218
 10
15.3272619985
 20
56.6825916057
 10
15.330991826
 20
56.5575914569
  0
LWPOLYLINE
  5
4CE
100
AcDbEntity
  8
RACCORDO
100
AcDbPolyline
 62
250
  6
CONTINUOUS
 90
25
 70
0
 10
77.4174182866
 20
59.6443072503
 10
77.3518836164
 20
59.6465745085
 10
77.2873828822
 20
59.652872178
 10
77.2239160841
 20
59.6632002588
 10
77.1613193894
 20
59.6776275462
 10
77.0997566307
 20
59.696085245
 10
77.0397193065
 20
59.718366969
 10
76.9811308035
 20
59.7445239102
 10
76.924067735
 20
59.7745048767
 10
76.8692514402
 20
59.8079499076
 10
76.8166918717
 20
59.8449321747
 10
76.7663790768
 20
59.8853785061
 10
76.7190045361
 20
59.9287094257
 10
76.6746534984
 20
59.9749176403
 10
76.6332407149
 20
60.0240104431
 10
76.5952019194
 20
60.0754302373
 10
76.5606314728
 20
60.1288739472
 10
76.5294350142
 20
60.1846446485
 10
76.5017651945
 20
60.2430939716
 10
76.477379695
 20
60.3046000954
 10
76.4565208344
 20
60.3687848409
 10
76.4400682198
 20
60.4348653025
 10
76.4283150537
 20
60.5025805115
 10
76.4209681336
 20
60.5721914364
 10
76.4180274596
 20
60.6436980773
  0
LWPOLYLINE
  5
4CF
100
AcDbEntity
  8
RACCORDO
100
AcDbPolyline
 62
250
  6
CONTINUOUS
 90
22
 70
0
 10
78.1180223673
 20
58.3573173042
 10
78.155411208
 20
58.3559247974
 10
78.1925083167
 20
58.3517532167
 10
78.229109143
 20
58.3448440789
 10
78.2649828537
 20
58.335263417
 10
78.2999688006
 20
58.3230767694
 10
78.3339695218
 20
58.3083256358
 10
78.3668377334
 20
58.2910642717
 10
78.398346674
 20
58.2714018225
 10
78.4282866212
 20
58.2494704178
 10
78.4564614737
 20
58.2254275541
 10
78.4827595059
 20
58.1993833186
 10
78.5071023791
 20
58.1714083246
 10
78.5293319866
 20
58.1416637736
 10
78.5493277486
 20
58.1102884993
 10
78.567037137
 20
58.077301559
 10
78.5823659414
 20
58.0427343023
 10
78.595107986
 20
58.0068824693
 10
78.6050823744
 20
57.9701823921
 10
78.6122228401
 20
57.9329308195
 10
78.6165176152
 20
57.8952622212
 10
78.6179462144
 20
57.8573934562
  0
LWPOLYLINE
  5
4D0
100
AcDbEntity
  8
RACCORDO
100
AcDbPolyline
 62
250
  6
CONTINUOUS
 90
22
 70
0
 10
78.1180223712
 20
58.6572716167
 10
78.1783649752
 20
58.6548833336
 10
78.237601648
 20
58.6482213331
 10
78.2957323896
 20
58.6372856152
 10
78.3530129874
 20
58.6219749133
 10
78.4091876538
 20
58.6023904941
 10
78.4634890268
 20
58.5788361574
 10
78.5159551101
 20
58.5512276738
 10
78.5665478999
 20
58.5196492727
 10
78.6143860226
 20
58.4846574433
 10
78.6593759601
 20
58.4462502895
 10
78.7016112304
 20
58.4044297073
 10
78.7404910141
 20
58.3597578736
 10
78.7759933226
 20
58.3122424915
 10
78.8081401444
 20
58.2618758578
 10
78.8363966253
 20
58.2091970404
 10
78.8607795961
 20
58.1539506526
 10
78.8812722259
 20
58.0963920811
 10
78.8972891686
 20
58.0378265534
 10
78.9086353087
 20
57.9786891453
 10
78.9155057616
 20
57.9185447811
 10
78.9179005273
 20
57.8573934606
  0
LINE
  5
4D1
100
AcDbEntity
  8
RACCORDO
100
AcDbLine
 62
7
  6
CONTINUOUS
 10
78.4629022534
 20
54.3017648048
 11
78.2126183094
 21
54.3274423251
  0
LWPOLYLINE
  5
4D2
100
AcDbEntity
  8
RACCORDO
100
AcDbPolyline
 62
7
  6
CONTINUOUS
 90
6
 70
0
 10
80.5817999635
 20
46.4572785468
 10
80.5699421499
 20
46.4628848179
 10
80.5405807902
 20
46.4741801828
 10
80.5102553983
 20
46.4823226089
 10
80.4792864901
 20
46.4872422689
 10
80.448014858
 20
46.4888981001
  0
LINE
  5
4D3
100
AcDbEntity
  8
RACCORDO
100
AcDbLine
 62
250
  6
CONTINUOUS
 10
80.7916658477
 20
46.0168508186
 11
80.7881737708
 21
46.0185963251
  0
LINE
  5
4D4
100
AcDbEntity
  8
RACCORDO
100
AcDbLine
 62
250
  6
CONTINUOUS
 10
80.7881737708
 20
46.1685963251
 11
80.7476492707
 21
46.1888524017
  0
LINE
  5
4D5
100
AcDbEntity
  8
RACCORDO
100
AcDbLine
 62
7
  6
CONTINUOUS
 10
80.6221222815
 20
46.4371235841
 11
80.581800028
 21
46.4572785682
  0
LINE
  5
4D6
100
AcDbEntity
  8
RACCORDO
100
AcDbLine
 62
250
  6
CONTINUOUS
 10
70.1589527488
 20
44.4001597842
 11
70.0202144329
 21
44.5388981001
  0
LINE
  5
4D7
100
AcDbEntity
  8
RACCORDO
100
AcDbLine
 62
250
  6
CONTINUOUS
 10
70.6513566253
 20
44.8925636607
 11
70.5126183094
 21
45.0313019766
  0
LINE
  5
4D8
100
AcDbEntity
  8
RACCORDO
100
AcDbLine
 62
250
  6
CONTINUOUS
 10
75.4186366326
 20
68.6443072503
 11
75.4186366326
 21
69.1440026638
  0
LINE
  5
4D9
100
AcDbEntity
  8
RACCORDO
100
AcDbLine
 62
250
  6
CONTINUOUS
 10
75.8942447928
 20
11.5202047433
 11
75.8942447928
 21
19.9575914569
  0
LINE
  5
4DA
100
AcDbEntity
  8
RACCORDO
100
AcDbLine
 62
250
  6
CONTINUOUS
 10
75.8942447928
 20
48.1202047433
 11
75.8942447928
 21
56.5575914569
  0
LWPOLYLINE
  5
4DB
100
AcDbEntity
  8
RACCORDO
100
AcDbPolyline
 62
250
  6
CONTINUOUS
 90
28
 70
0
 10
76.1941991014
 20
56.5575914569
 10
76.1972052935
 20
56.6616816005
 10
76.2061951438
 20
56.765165449
 10
76.2210942796
 20
56.8677024618
 10
76.2417599175
 20
56.9687494113
 10
76.2681058366
 20
57.0681978854
 10
76.3002223983
 20
57.1663436304
 10
76.3382309405
 20
57.2632264446
 10
76.3819490056
 20
57.3580980943
 10
76.4309919399
 20
57.4500867358
 10
76.4850143813
 20
57.5386732352
 10
76.5439262881
 20
57.6238260892
 10
76.6076381677
 20
57.7054482287
 10
76.6759616231
 20
57.783293817
 10
76.7486507743
 20
57.8570785547
 10
76.8255512872
 20
57.9266319049
 10
76.9063135216
 20
57.9916270189
 10
76.9907793269
 20
58.0519264725
 10
77.0791258459
 20
58.1075775036
 10
77.171319189
 20
58.1584051853
 10
77.2669062546
 20
58.2040103517
 10
77.3654426057
 20
58.2440744676
 10
77.4667604514
 20
58.2784267361
 10
77.5703889885
 20
58.3068069093
 10
77.6753616155
 20
58.3289236446
 10
77.7810911854
 20
58.3447032122
 10
77.8874043754
 20
58.3541689021
 10
77.9939249526
 20
58.3573173081
  0
LWPOLYLINE
  5
4DC
100
AcDbEntity
  8
RACCORDO
100
AcDbPolyline
 62
250
  6
CONTINUOUS
 90
28
 70
0
 10
75.8942447928
 20
56.5575914569
 10
75.8979391012
 20
56.6796710036
 10
75.9084039268
 20
56.8002641387
 10
75.9256392697
 20
56.9193708623
 10
75.9496706954
 20
57.0371393014
 10
75.9804726383
 20
57.1534213289
 10
76.0179684021
 20
57.2677725636
 10
76.062381532
 20
57.3806274842
 10
76.1134884829
 20
57.491551612
 10
76.1705419231
 20
57.5987971304
 10
76.2334919334
 20
57.7020318845
 10
76.3023884331
 20
57.8015880292
 10
76.3766338485
 20
57.8967142123
 10
76.4562712002
 20
57.9874218455
 10
76.5412574675
 20
58.0736995172
 10
76.6308660149
 20
58.154761641
 10
76.7249807731
 20
58.2305282894
 10
76.8237178112
 20
58.3010793898
 10
76.9266987009
 20
58.3658691383
 10
77.0341922309
 20
58.4250266791
 10
77.1459296125
 20
58.478422868
 10
77.2607260501
 20
58.525124468
 10
77.3788329199
 20
58.5650281634
 10
77.4999988457
 20
58.5982372698
 10
77.6222849042
 20
58.6241284974
 10
77.7450447877
 20
58.6424940827
 10
77.8689248038
 20
58.6535417892
 10
77.9939249526
 20
58.6572716167
  0
LWPOLYLINE
  5
4DD
100
AcDbEntity
  8
RACCORDO
100
AcDbPolyline
 62
7
  6
CONTINUOUS
 90
25
 70
0
 10
76.2126183094
 20
56.5391722488
 10
76.2164554543
 20
56.6566527658
 10
76.2279634802
 20
56.7737230049
 10
76.247111411
 20
56.8898814252
 10
76.2738472061
 20
57.0046730204
 10
76.308068174
 20
57.1175558114
 10
76.3495923093
 20
57.2279117658
 10
76.3982061434
 20
57.3352155123
 10
76.4537131394
 20
57.4390692635
 10
76.5158935662
 20
57.5390705056
 10
76.5844910436
 20
57.6348035567
 10
76.6592042173
 20
57.7258449625
 10
76.7397125594
 20
57.8118038501
 10
76.825671447
 20
57.8923121922
 10
76.9167128528
 20
57.9670253659
 10
77.0124459039
 20
58.0356228433
 10
77.112447146
 20
58.0978032701
 10
77.2163008972
 20
58.1533102661
 10
77.3236046437
 20
58.2019241001
 10
77.4339605981
 20
58.2434482355
 10
77.5468433891
 20
58.2776692034
 10
77.6616349843
 20
58.3044049985
 10
77.7777934046
 20
58.3235529292
 10
77.8948636437
 20
58.3350609552
 10
78.0123441607
 20
58.3388981001
  0
LINE
  5
4DE
100
AcDbEntity
  8
DRAFT
100
AcDbLine
 62
7
  6
CONTINUOUS
 10
78.5995270107
 20
50.2732816025
 11
78.6056711138
 21
50.304077212
  0
LINE
  5
4DF
100
AcDbEntity
  8
RACCORDO
100
AcDbLine
 62
7
  6
CONTINUOUS
 10
78.6056711138
 20
50.304077212
 11
78.6179462187
 21
50.3656027655
  0
LWPOLYLINE
  5
4E0
100
AcDbEntity
  8
RACCORDO
100
AcDbPolyline
 62
7
  6
CONTINUOUS
 90
19
 70
0
 10
13.0994691535
 20
58.338556106
 10
13.0572363351
 20
58.3343530955
 10
13.0160022588
 20
58.3268047677
 10
12.9757669244
 20
58.3159111226
 10
12.9362381024
 20
58.3015592276
 10
12.8977080224
 20
58.2838620152
 10
12.8610533733
 20
58.2631582831
 10
12.8263354059
 20
58.2393727187
 10
12.7934928694
 20
58.2125806346
 10
12.7632187
 20
58.1833467663
 10
12.7355672204
 20
58.1516191248
 10
12.7104841079
 20
58.1174496991
 10
12.6884993301
 20
58.0815591919
 10
12.6696786549
 20
58.0439115627
 10
12.6539563144
 20
58.0045428519
 10
12.641664973
 20
57.9642818832
 10
12.6329155189
 20
57.9234049309
 10
12.6275970639
 20
57.8816357207
 10
12.6257096081
 20
57.8389742525
  0
LWPOLYLINE
  5
4E1
100
AcDbEntity
  8
RACCORDO
100
AcDbPolyline
 62
250
  6
CONTINUOUS
 90
4
 70
0
 10
10.5075137457
 20
58.5039024383
 10
10.5107995211
 20
58.5042016386
 10
10.5176206296
 20
58.5044922093
 10
10.5278676587
 20
58.5047741505
  0
LINE
  5
4E2
100
AcDbEntity
  8
RACCORDO
100
AcDbLine
 62
250
  6
CONTINUOUS
 10
11.0072091592
 20
63.8449164233
 11
10.5075137457
 21
63.8449164233
  0
LWPOLYLINE
  5
4E3
100
AcDbEntity
  8
RACCORDO
100
AcDbPolyline
 62
250
  6
CONTINUOUS
 90
25
 70
0
 10
77.4174183152
 20
60.1440026924
 10
77.3848279794
 20
60.1450241765
 10
77.3524976987
 20
60.148149611
 10
77.3205609973
 20
60.1533429065
 10
77.2891907995
 20
60.1605480299
 10
77.2584669597
 20
60.1697189753
 10
77.2283841087
 20
60.180847852
 10
77.1990243512
 20
60.1939126093
 10
77.1705549538
 20
60.2088473343
 10
77.1431009768
 20
60.2255901043
 10
77.1167640798
 20
60.244083369
 10
77.0916685798
 20
60.2642441311
 10
77.0679595902
 20
60.2859519304
 10
77.0457510203
 20
60.3090869641
 10
77.0251036477
 20
60.3335691144
 10
77.00607222
 20
60.3593262753
 10
76.9888184436
 20
60.3861121616
 10
76.9733108668
 20
60.4139463879
 10
76.9593990375
 20
60.443203299
 10
76.9471677206
 20
60.4739883675
 10
76.9368579167
 20
60.5060318134
 10
76.9286295314
 20
60.5391680873
 10
76.9226177255
 20
60.5732486114
 10
76.9189430762
 20
60.6081454601
 10
76.9177229091
 20
60.6436981133
  0
LINE
  5
4E4
100
AcDbEntity
  8
RACCORDO
100
AcDbLine
 62
7
  6
CONTINUOUS
 10
78.6179462187
 20
17.7121934347
 11
78.6056711138
 21
17.7737189882
  0
LINE
  5
4E5
100
AcDbEntity
  8
DRAFT
100
AcDbLine
 62
7
  6
CONTINUOUS
 10
78.6056711138
 20
17.7737189882
 11
78.5995270107
 21
17.8045145977
  0
LWPOLYLINE
  5
4E6
100
AcDbEntity
  8
RACCORDO
100
AcDbPolyline
 62
250
  6
CONTINUOUS
 90
16
 70
0
 10
80.7177228731
 20
9.5738937619
 10
80.7160625753
 20
9.6052359833
 10
80.7111380335
 20
9.6362350018
 10
80.7030031823
 20
9.6665514413
 10
80.691747099
 20
9.6958534085
 10
80.6774930359
 20
9.7238201062
 10
80.6603970773
 20
9.7501453478
 10
80.6406464128
 20
9.7745409409
 10
80.6184572889
 20
9.7967398267
 10
80.5940726574
 20
9.8164989888
 10
80.5677594962
 20
9.8336021332
 10
80.5398058866
 20
9.8478620504
 10
80.5105178697
 20
9.8591226567
 10
80.4802160882
 20
9.8672607074
 10
80.4492322748
 20
9.8721871448
 10
80.4179056244
 20
9.8738480701
  0
LWPOLYLINE
  5
4E7
100
AcDbEntity
  8
RACCORDO
100
AcDbPolyline
 62
7
  6
CONTINUOUS
 90
19
 70
0
 10
78.5995270107
 20
21.2389742525
 10
78.5976395546
 20
21.281635711
 10
78.5923211026
 20
21.3234049097
 10
78.5835716547
 20
21.3642818485
 10
78.5712803239
 20
21.4045428
 10
78.5555579972
 20
21.4439114917
 10
78.5367373361
 20
21.4815591065
 10
78.5147525736
 20
21.517449606
 10
78.4896694767
 20
21.5516190287
 10
78.4620180081
 20
21.5833466724
 10
78.4317438434
 20
21.6125805498
 10
78.398901307
 20
21.6393726484
 10
78.3641833344
 20
21.6631582277
 10
78.3275286725
 20
21.6838619748
 10
78.2889985744
 20
21.7015592026
 10
78.2494697351
 20
21.7159111098
 10
78.2092343864
 20
21.7268047625
 10
78.1680002964
 20
21.7343530946
 10
78.1257674653
 20
21.738556106
  0
LWPOLYLINE
  5
4E8
100
AcDbEntity
  8
RACCORDO
100
AcDbPolyline
 62
250
  6
CONTINUOUS
 90
25
 70
0
 10
76.4180274596
 20
67.6449164233
 10
76.4157537197
 20
67.7109494042
 10
76.4093452339
 20
67.7760096638
 10
76.3988020021
 20
67.8400972023
 10
76.3840483312
 20
67.9034201086
 10
76.3651599144
 20
67.9657702936
 10
76.3423638311
 20
68.02652349
 10
76.3156041948
 20
68.0857213994
 10
76.2849368921
 20
68.1433223201
 10
76.2507566614
 20
68.1985768802
 10
76.2130230844
 20
68.2514452943
 10
76.1717765795
 20
68.3019673477
 10
76.1275331408
 20
68.3495130248
 10
76.0802993513
 20
68.3940280572
 10
76.030068628
 20
68.4355667133
 10
75.9773372167
 20
68.4736617824
 10
75.9220334155
 20
68.5083168984
 10
75.8642289263
 20
68.5395284275
 10
75.8046350999
 20
68.5668182575
 10
75.7432032063
 20
68.5901358356
 10
75.6799819755
 20
68.6095317146
 10
75.6158289486
 20
68.6246794409
 10
75.5510299726
 20
68.6354701967
 10
75.4852992007
 20
68.6420127998
 10
75.4186366326
 20
68.6443072503
  0
LWPOLYLINE
  5
4E9
100
AcDbEntity
  8
RACCORDO
100
AcDbPolyline
 62
250
  6
CONTINUOUS
 90
25
 70
0
 10
76.9177228731
 20
67.6449164233
 10
76.9144570229
 20
67.7432536269
 10
76.9047805627
 20
67.8409462849
 10
76.8887776749
 20
67.9375805729
 10
76.8665803208
 20
68.0326725949
 10
76.8383131211
 20
68.125910572
 10
76.8040413368
 20
68.2171409318
 10
76.7638626888
 20
68.3060619175
 10
76.717972757
 20
68.3922053938
 10
76.6665816564
 20
68.475172089
 10
76.6099185592
 20
68.5545985565
 10
76.548216537
 20
68.6301643985
 10
76.4817295186
 20
68.7015594493
 10
76.4107909472
 20
68.7684348461
 10
76.3356540352
 20
68.8305606523
 10
76.2564514761
 20
68.8877984296
 10
76.1734233248
 20
68.9399105222
 10
76.0869650679
 20
68.9865873038
 10
75.9974466812
 20
69.0275815205
 10
75.9052138191
 20
69.0626878672
 10
75.8106731822
 20
69.0917059691
 10
75.714317109
 20
69.114452959
 10
75.6165915856
 20
69.1308045998
 10
75.5178884056
 20
69.1406761338
 10
75.4186366326
 20
69.1440026638
  0
LWPOLYLINE
  5
4EA
100
AcDbEntity
  8
RACCORDO
100
AcDbPolyline
 62
7
  6
CONTINUOUS
 90
25
 70
0
 10
76.2126183094
 20
48.1386239514
 10
76.2164554543
 20
48.0211434344
 10
76.2279634802
 20
47.9040731953
 10
76.247111411
 20
47.787914775
 10
76.2738472061
 20
47.6731231798
 10
76.308068174
 20
47.5602403888
 10
76.3495923093
 20
47.4498844344
 10
76.3982061434
 20
47.3425806879
 10
76.4537131394
 20
47.2387269367
 10
76.5158935662
 20
47.1387256946
 10
76.5844910436
 20
47.0429926435
 10
76.6592042173
 20
46.9519512376
 10
76.7397125594
 20
46.8659923501
 10
76.825671447
 20
46.785484008
 10
76.9167128528
 20
46.7107708343
 10
77.0124459039
 20
46.6421733569
 10
77.112447146
 20
46.5799929301
 10
77.2163008972
 20
46.5244859341
 10
77.3236046437
 20
46.4758721
 10
77.4339605981
 20
46.4343479646
 10
77.5468433891
 20
46.4001269967
 10
77.6616349843
 20
46.3733912017
 10
77.7777934046
 20
46.3542432709
 10
77.8948636437
 20
46.342735245
 10
78.0123441607
 20
46.3388981001
  0
LINE
  5
4EB
100
AcDbEntity
  8
RACCORDO
100
AcDbLine
 62
250
  6
CONTINUOUS
 10
76.1941991014
 20
11.5202047433
 11
76.1941991014
 21
19.9575914569
  0
LINE
  5
4EC
100
AcDbEntity
  8
RACCORDO
100
AcDbLine
 62
250
  6
CONTINUOUS
 10
76.1941991014
 20
48.1202047433
 11
76.1941991014
 21
56.5575914569
  0
LINE
  5
4ED
100
AcDbEntity
  8
RACCORDO
100
AcDbLine
 62
7
  6
CONTINUOUS
 10
76.2126183094
 20
56.5391722488
 11
76.2126183094
 21
48.1386239514
  0
LINE
  5
4EE
100
AcDbEntity
  8
RACCORDO
100
AcDbLine
 62
7
  6
CONTINUOUS
 10
76.2126183094
 20
19.9391722488
 11
76.2126183094
 21
11.5386239514
  0
LINE
  5
4EF
100
AcDbEntity
  8
RACCORDO
100
AcDbLine
 62
250
  6
CONTINUOUS
 10
76.4180274596
 20
60.6436980773
 11
76.4180274596
 21
67.6449164233
  0
LINE
  5
4F0
100
AcDbEntity
  8
RACCORDO
100
AcDbLine
 62
250
  6
CONTINUOUS
 10
76.9177228731
 20
60.6436980773
 11
76.9177228731
 21
67.6449164233
  0
LINE
  5
4F1
100
AcDbEntity
  8
RACCORDO
100
AcDbLine
 62
7
  6
CONTINUOUS
 10
76.9916658477
 20
67.7188593979
 11
76.9916658477
 21
60.7176410519
  0
LINE
  5
4F2
100
AcDbEntity
  8
RACCORDO
100
AcDbLine
 62
250
  6
CONTINUOUS
 10
77.4174182866
 20
59.6443072503
 11
77.4174182866
 21
60.1440026638
  0
LINE
  5
4F3
100
AcDbEntity
  8
RACCORDO
100
AcDbLine
 62
250
  6
CONTINUOUS
 10
77.9939249526
 20
58.6572716167
 11
77.9939249526
 21
58.3573173081
  0
LINE
  5
4F4
100
AcDbEntity
  8
RACCORDO
100
AcDbLine
 62
250
  6
CONTINUOUS
 10
77.9939249526
 20
22.0572716167
 11
77.9939249526
 21
21.7573173081
  0
LINE
  5
4F5
100
AcDbEntity
  8
RACCORDO
100
AcDbLine
 62
250
  6
CONTINUOUS
 10
77.9939249526
 20
9.4205245835
 11
77.9939249526
 21
9.7204788921
  0
LINE
  5
4F6
100
AcDbEntity
  8
RACCORDO
100
AcDbLine
 62
250
  6
CONTINUOUS
 10
77.9939249526
 20
46.0205245835
 11
77.9939249526
 21
46.3204788921
  0
LINE
  5
4F7
100
AcDbEntity
  8
RACCORDO
100
AcDbLine
 62
250
  6
CONTINUOUS
 10
78.1180223712
 20
58.6572716167
 11
78.1180223712
 21
58.3573173081
  0
LINE
  5
4F8
100
AcDbEntity
  8
RACCORDO
100
AcDbLine
 62
250
  6
CONTINUOUS
 10
78.1180223712
 20
22.0572716167
 11
78.1180223712
 21
21.7573173081
  0
LINE
  5
4F9
100
AcDbEntity
  8
RACCORDO
100
AcDbLine
 62
250
  6
CONTINUOUS
 10
78.1180223712
 20
9.4205245835
 11
78.1180223712
 21
9.7204788921
  0
LINE
  5
4FA
100
AcDbEntity
  8
RACCORDO
100
AcDbLine
 62
250
  6
CONTINUOUS
 10
78.1180223712
 20
46.0205245835
 11
78.1180223712
 21
46.3204788921
  0
LINE
  5
4FB
100
AcDbEntity
  8
DRAFT
100
AcDbLine
 62
7
  6
CONTINUOUS
 10
78.2126183094
 20
13.7241072761
 11
78.2126183094
 21
17.7536889241
  0
LINE
  5
4FC
100
AcDbEntity
  8
DRAFT
100
AcDbLine
 62
7
  6
CONTINUOUS
 10
78.2126183094
 20
50.3241072761
 11
78.2126183094
 21
54.3536889241
  0
LINE
  5
4FD
100
AcDbEntity
  8
RACCORDO
100
AcDbLine
 62
250
  6
CONTINUOUS
 10
78.4629022534
 20
54.3017648048
 11
78.4629022534
 21
50.3760313954
  0
LINE
  5
4FE
100
AcDbEntity
  8
RACCORDO
100
AcDbLine
 62
250
  6
CONTINUOUS
 10
78.4629022534
 20
17.7017648048
 11
78.4629022534
 21
13.7760313954
  0
LINE
  5
4FF
100
AcDbEntity
  8
RACCORDO
100
AcDbLine
 62
7
  6
CONTINUOUS
 10
78.5995270107
 20
57.8389742525
 11
78.5995270107
 21
54.4045145977
  0
LINE
  5
500
100
AcDbEntity
  8
RACCORDO
100
AcDbLine
 62
7
  6
CONTINUOUS
 10
78.5995270107
 20
21.2389742525
 11
78.5995270107
 21
17.8045145977
  0
LINE
  5
501
100
AcDbEntity
  8
RACCORDO
100
AcDbLine
 62
7
  6
CONTINUOUS
 10
78.5995270107
 20
10.2388219477
 11
78.5995270107
 21
13.6732816025
  0
LINE
  5
502
100
AcDbEntity
  8
RACCORDO
100
AcDbLine
 62
7
  6
CONTINUOUS
 10
78.5995270107
 20
46.8388219477
 11
78.5995270107
 21
50.2732816025
  0
LINE
  5
503
100
AcDbEntity
  8
RACCORDO
100
AcDbLine
 62
250
  6
CONTINUOUS
 10
78.6179462187
 20
57.8573934606
 11
78.6179462187
 21
54.3121934347
  0
LINE
  5
504
100
AcDbEntity
  8
RACCORDO
100
AcDbLine
 62
250
  6
CONTINUOUS
 10
78.6179462187
 20
50.3656027655
 11
78.6179462187
 21
46.8204027396
  0
LINE
  5
505
100
AcDbEntity
  8
RACCORDO
100
AcDbLine
 62
250
  6
CONTINUOUS
 10
78.6179462187
 20
21.2573934606
 11
78.6179462187
 21
17.7121934347
  0
LINE
  5
506
100
AcDbEntity
  8
RACCORDO
100
AcDbLine
 62
250
  6
CONTINUOUS
 10
78.6179462187
 20
13.7656027655
 11
78.6179462187
 21
10.2204027396
  0
LINE
  5
507
100
AcDbEntity
  8
RACCORDO
100
AcDbLine
 62
250
  6
CONTINUOUS
 10
78.8433514637
 20
54.286404902
 11
78.8433514637
 21
50.3913912982
  0
LINE
  5
508
100
AcDbEntity
  8
RACCORDO
100
AcDbLine
 62
250
  6
CONTINUOUS
 10
78.8433514637
 20
17.686404902
 11
78.8433514637
 21
13.7913912982
  0
LINE
  5
509
100
AcDbEntity
  8
RACCORDO
100
AcDbLine
 62
250
  6
CONTINUOUS
 10
78.9179005273
 20
57.8573934606
 11
78.9179005273
 21
54.286404902
  0
LINE
  5
50A
100
AcDbEntity
  8
RACCORDO
100
AcDbLine
 62
250
  6
CONTINUOUS
 10
78.9179005273
 20
50.3913912982
 11
78.9179005273
 21
46.8204027396
  0
LINE
  5
50B
100
AcDbEntity
  8
RACCORDO
100
AcDbLine
 62
250
  6
CONTINUOUS
 10
78.9179005273
 20
21.2573934606
 11
78.9179005273
 21
17.686404902
  0
LINE
  5
50C
100
AcDbEntity
  8
RACCORDO
100
AcDbLine
 62
250
  6
CONTINUOUS
 10
78.9179005273
 20
13.7913912982
 11
78.9179005273
 21
10.2204027396
  0
LINE
  5
50D
100
AcDbEntity
  8
RACCORDO
100
AcDbLine
 62
250
  6
CONTINUOUS
 10
79.2186366326
 20
3.2334889499
 11
79.2186366326
 21
2.7337935364
  0
LINE
  5
50E
100
AcDbEntity
  8
RACCORDO
100
AcDbLine
 62
250
  6
CONTINUOUS
 10
79.2186366326
 20
59.6443072503
 11
79.2186366326
 21
60.1440026638
  0
LWPOLYLINE
  5
50F
100
AcDbEntity
  8
RACCORDO
100
AcDbPolyline
 62
250
  6
CONTINUOUS
 90
28
 70
0
 10
76.1941991014
 20
19.9575914569
 10
76.1972052935
 20
20.0616816005
 10
76.2061951438
 20
20.165165449
 10
76.2210942796
 20
20.2677024618
 10
76.2417599175
 20
20.3687494113
 10
76.2681058366
 20
20.4681978854
 10
76.3002223983
 20
20.5663436304
 10
76.3382309405
 20
20.6632264446
 10
76.3819490056
 20
20.7580980943
 10
76.4309919399
 20
20.8500867358
 10
76.4850143813
 20
20.9386732352
 10
76.5439262881
 20
21.0238260892
 10
76.6076381677
 20
21.1054482287
 10
76.6759616231
 20
21.183293817
 10
76.7486507743
 20
21.2570785547
 10
76.8255512872
 20
21.3266319049
 10
76.9063135216
 20
21.3916270189
 10
76.9907793269
 20
21.4519264725
 10
77.0791258459
 20
21.5075775036
 10
77.171319189
 20
21.5584051853
 10
77.2669062546
 20
21.6040103517
 10
77.3654426057
 20
21.6440744676
 10
77.4667604514
 20
21.6784267361
 10
77.5703889885
 20
21.7068069093
 10
77.6753616155
 20
21.7289236446
 10
77.7810911854
 20
21.7447032122
 10
77.8874043754
 20
21.7541689021
 10
77.9939249526
 20
21.7573173081
  0
LWPOLYLINE
  5
510
100
AcDbEntity
  8
RACCORDO
100
AcDbPolyline
 62
250
  6
CONTINUOUS
 90
28
 70
0
 10
75.8942447928
 20
19.9575914569
 10
75.8979391012
 20
20.0796710036
 10
75.9084039268
 20
20.2002641387
 10
75.9256392697
 20
20.3193708623
 10
75.9496706954
 20
20.4371393014
 10
75.9804726383
 20
20.5534213289
 10
76.0179684021
 20
20.6677725636
 10
76.062381532
 20
20.7806274842
 10
76.1134884829
 20
20.891551612
 10
76.1705419231
 20
20.9987971304
 10
76.2334919334
 20
21.1020318845
 10
76.3023884331
 20
21.2015880292
 10
76.3766338485
 20
21.2967142123
 10
76.4562712002
 20
21.3874218455
 10
76.5412574675
 20
21.4736995172
 10
76.6308660149
 20
21.554761641
 10
76.7249807731
 20
21.6305282894
 10
76.8237178112
 20
21.7010793898
 10
76.9266987009
 20
21.7658691383
 10
77.0341922309
 20
21.8250266791
 10
77.1459296125
 20
21.878422868
 10
77.2607260501
 20
21.925124468
 10
77.3788329199
 20
21.9650281634
 10
77.4999988457
 20
21.9982372698
 10
77.6222849042
 20
22.0241284974
 10
77.7450447877
 20
22.0424940827
 10
77.8689248038
 20
22.0535417892
 10
77.9939249526
 20
22.0572716167
  0
LWPOLYLINE
  5
511
100
AcDbEntity
  8
RACCORDO
100
AcDbPolyline
 62
250
  6
CONTINUOUS
 90
22
 70
0
 10
78.6179462148
 20
46.8204027435
 10
78.616553708
 20
46.7830139028
 10
78.6123821273
 20
46.7459167941
 10
78.6054729895
 20
46.7093159678
 10
78.5958923276
 20
46.6734422571
 10
78.58370568
 20
46.6384563102
 10
78.5689545464
 20
46.604455589
 10
78.5516931823
 20
46.5715873774
 10
78.5320307331
 20
46.5400784368
 10
78.5100993284
 20
46.5101384896
 10
78.4860564647
 20
46.4819636371
 10
78.4600122292
 20
46.4556656049
 10
78.4320372352
 20
46.4313227317
 10
78.4022926842
 20
46.4090931242
 10
78.3709174099
 20
46.3890973622
 10
78.3379304696
 20
46.3713879738
 10
78.3033632129
 20
46.3560591694
 10
78.2675113799
 20
46.3433171248
 10
78.2308113027
 20
46.3333427364
 10
78.1935597301
 20
46.3262022707
 10
78.1558911318
 20
46.3219074956
 10
78.1180223668
 20
46.3204788964
  0
LWPOLYLINE
  5
512
100
AcDbEntity
  8
RACCORDO
100
AcDbPolyline
 62
250
  6
CONTINUOUS
 90
22
 70
0
 10
78.9179005273
 20
46.8204027396
 10
78.9155122442
 20
46.7600601356
 10
78.9088502437
 20
46.7008234628
 10
78.8979145258
 20
46.6426927212
 10
78.8826038239
 20
46.5854121234
 10
78.8630194047
 20
46.529237457
 10
78.839465068
 20
46.474936084
 10
78.8118565844
 20
46.4224700007
 10
78.7802781833
 20
46.3718772109
 10
78.7452863539
 20
46.3240390882
 10
78.7068792001
 20
46.2790491507
 10
78.6650586179
 20
46.2368138804
 10
78.6203867843
 20
46.1979340967
 10
78.5728714021
 20
46.1624317882
 10
78.5225047684
 20
46.1302849664
 10
78.469825951
 20
46.1020284855
 10
78.4145795632
 20
46.0776455147
 10
78.3570209917
 20
46.0571528849
 10
78.298455464
 20
46.0411359422
 10
78.239318056
 20
46.0297898021
 10
78.1791736917
 20
46.0229193492
 10
78.1180223712
 20
46.0205245835
  0
LWPOLYLINE
  5
513
100
AcDbEntity
  8
RACCORDO
100
AcDbPolyline
 62
250
  6
CONTINUOUS
 90
16
 70
0
 10
80.7177228731
 20
58.5039024383
 10
80.716062635
 20
58.4725607822
 10
80.7111382566
 20
58.4415622459
 10
80.7030036486
 20
58.4112461928
 10
80.6917478665
 20
58.3819445148
 10
80.6774941354
 20
58.3539779982
 10
80.6603985015
 20
58.3276528128
 10
80.640648123
 20
58.3032571593
 10
80.6184592215
 20
58.2810581146
 10
80.5940747151
 20
58.2612987076
 10
80.5677615583
 20
58.2441952588
 10
80.5398078205
 20
58.229935012
 10
80.5105195314
 20
58.2186740845
 10
80.480217331
 20
58.2105357576
 10
80.4492329595
 20
58.2056091276
 10
80.417905625
 20
58.2039481297
  0
LINE
  5
514
100
AcDbEntity
  8
RACCORDO
100
AcDbLine
 62
250
  6
CONTINUOUS
 10
78.1180223712
 20
21.7573173081
 11
78.0996031631
 21
21.7388981001
  0
LINE
  5
515
100
AcDbEntity
  8
RACCORDO
100
AcDbLine
 62
250
  6
CONTINUOUS
 10
78.6179462187
 20
21.2573934606
 11
78.5995270107
 21
21.2389742525
  0
LWPOLYLINE
  5
516
100
AcDbEntity
  8
RACCORDO
100
AcDbPolyline
 62
250
  6
CONTINUOUS
 90
7
 70
0
 10
10.8073309938
 20
58.2039481297
 10
10.808732561
 20
58.2042470686
 10
10.8114464162
 20
58.2045374941
 10
10.8154725593
 20
58.2048194065
 10
10.820854579
 20
58.2050940429
 10
10.8275488867
 20
58.205360166
 10
10.8354247161
 20
58.2056140641
  0
LWPOLYLINE
  5
517
100
AcDbEntity
  8
RACCORDO
100
AcDbPolyline
 62
250
  6
CONTINUOUS
 90
25
 70
0
 10
12.0065999862
 20
64.8443072503
 10
11.9405670053
 20
64.8420335104
 10
11.8755067456
 20
64.8356250246
 10
11.8114192072
 20
64.8250817928
 10
11.7480963009
 20
64.8103281219
 10
11.6857461159
 20
64.7914397051
 10
11.6249929195
 20
64.7686436218
 10
11.5657950101
 20
64.7418839855
 10
11.5081940894
 20
64.7112166828
 10
11.4529395293
 20
64.6770364521
 10
11.4000711152
 20
64.6393028751
 10
11.3495490618
 20
64.5980563702
 10
11.3020033847
 20
64.5538129315
 10
11.2574883522
 20
64.506579142
 10
11.2159496962
 20
64.4563484187
 10
11.1778546271
 20
64.4036170073
 10
11.143199511
 20
64.3483132062
 10
11.111987982
 20
64.290508717
 10
11.084698152
 20
64.2309148906
 10
11.0613805739
 20
64.169482997
 10
11.0419846949
 20
64.1062617661
 10
11.0268369686
 20
64.0421087393
 10
11.0160462128
 20
63.9773097633
 10
11.0095036096
 20
63.9115789914
 10
11.0072091592
 20
63.8449164233
  0
LWPOLYLINE
  5
518
100
AcDbEntity
  8
RACCORDO
100
AcDbPolyline
 62
250
  6
CONTINUOUS
 90
25
 70
0
 10
12.0065999862
 20
65.3440026638
 10
11.9082627826
 20
65.3407368136
 10
11.8105701246
 20
65.3310603534
 10
11.7139358366
 20
65.3150574656
 10
11.6188438146
 20
65.2928601114
 10
11.5256058375
 20
65.2645929118
 10
11.4343754777
 20
65.2303211275
 10
11.345454492
 20
65.1901424795
 10
11.2593110157
 20
65.1442525477
 10
11.1763443205
 20
65.0928614471
 10
11.096917853
 20
65.0361983499
 10
11.021352011
 20
64.9744963277
 10
10.9499569602
 20
64.9080093093
 10
10.8830815634
 20
64.8370707379
 10
10.8209557572
 20
64.7619338258
 10
10.7637179799
 20
64.6827312668
 10
10.7116058873
 20
64.5997031155
 10
10.6649291056
 20
64.5132448586
 10
10.623934889
 20
64.4237264719
 10
10.5888285423
 20
64.3314936098
 10
10.5598104404
 20
64.2369529729
 10
10.5370634505
 20
64.1405968997
 10
10.5207118097
 20
64.0428713763
 10
10.5108402757
 20
63.9441681963
 10
10.5075137457
 20
63.8449164233
  0
LINE
  5
519
100
AcDbEntity
  8
RACCORDO
100
AcDbLine
 62
250
  6
CONTINUOUS
 10
19.0078183322
 20
64.8443072503
 11
12.0065999862
 21
64.8443072503
  0
LINE
  5
51A
100
AcDbEntity
  8
RACCORDO
100
AcDbLine
 62
250
  6
CONTINUOUS
 10
19.0078183322
 20
65.3440026638
 11
12.0065999862
 21
65.3440026638
  0
LINE
  5
51B
100
AcDbEntity
  8
RACCORDO
100
AcDbLine
 62
7
  6
CONTINUOUS
 10
11.9326570116
 20
65.4179456384
 11
18.9338753576
 21
65.4179456384
  0
LINE
  5
51C
100
AcDbEntity
  8
RACCORDO
100
AcDbLine
 62
250
  6
CONTINUOUS
 10
20.0072091592
 20
65.8436980773
 11
19.5075137457
 21
65.8436980773
  0
LINE
  5
51D
100
AcDbEntity
  8
RACCORDO
100
AcDbLine
 62
250
  6
CONTINUOUS
 10
78.1180223712
 20
46.3204788921
 11
78.0996031631
 21
46.3388981001
  0
LINE
  5
51E
100
AcDbEntity
  8
RACCORDO
100
AcDbLine
 62
250
  6
CONTINUOUS
 10
78.6179462187
 20
46.8204027396
 11
78.5995270107
 21
46.8388219477
  0
LWPOLYLINE
  5
51F
100
AcDbEntity
  8
RACCORDO
100
AcDbPolyline
 62
250
  6
CONTINUOUS
 90
16
 70
0
 10
80.7177228731
 20
46.1738937619
 10
80.7160625753
 20
46.2052359833
 10
80.7111380335
 20
46.2362350018
 10
80.7030031823
 20
46.2665514413
 10
80.691747099
 20
46.2958534085
 10
80.6774930359
 20
46.3238201062
 10
80.6603970773
 20
46.3501453478
 10
80.6406464128
 20
46.3745409409
 10
80.6184572889
 20
46.3967398267
 10
80.5940726574
 20
46.4164989888
 10
80.5677594962
 20
46.4336021332
 10
80.5398058866
 20
46.4478620504
 10
80.5105178697
 20
46.4591226567
 10
80.4802160882
 20
46.4672607074
 10
80.4492322748
 20
46.4721871448
 10
80.4179056244
 20
46.4738480701
  0
LWPOLYLINE
  5
520
100
AcDbEntity
  8
RACCORDO
100
AcDbPolyline
 62
7
  6
CONTINUOUS
 90
12
 70
0
 10
80.7476492707
 20
9.5888524017
 10
80.7460279591
 20
9.6200173509
 10
80.74117233
 20
9.6508836448
 10
80.7331231015
 20
9.6811147275
 10
80.7219558934
 20
9.7103798071
 10
80.7077811245
 20
9.7383545509
 10
80.6907439929
 20
9.7647251645
 10
80.6710162962
 20
9.7892025917
 10
80.6488099879
 20
9.811503914
 10
80.6243828095
 20
9.8313595143
 10
80.5979950169
 20
9.8485523276
 10
80.5817999635
 20
9.8572785468
  0
LWPOLYLINE
  5
521
100
AcDbEntity
  8
RACCORDO
100
AcDbPolyline
 62
7
  6
CONTINUOUS
 90
12
 70
0
 10
80.7476492707
 20
46.1888524017
 10
80.7460279591
 20
46.2200173509
 10
80.74117233
 20
46.2508836448
 10
80.7331231015
 20
46.2811147275
 10
80.7219558934
 20
46.3103798071
 10
80.7077811245
 20
46.3383545509
 10
80.6907439929
 20
46.3647251645
 10
80.6710162962
 20
46.3892025917
 10
80.6488099879
 20
46.411503914
 10
80.6243828095
 20
46.4313595143
 10
80.5979950169
 20
46.4485523276
 10
80.5817999635
 20
46.4572785468
  0
LWPOLYLINE
  5
522
100
AcDbEntity
  8
RACCORDO
100
AcDbPolyline
 62
7
  6
CONTINUOUS
 90
19
 70
0
 10
78.5995270107
 20
57.8389742525
 10
78.5976395546
 20
57.881635711
 10
78.5923211026
 20
57.9234049097
 10
78.5835716547
 20
57.9642818485
 10
78.5712803239
 20
58.0045428
 10
78.5555579972
 20
58.0439114917
 10
78.5367373361
 20
58.0815591065
 10
78.5147525736
 20
58.117449606
 10
78.4896694767
 20
58.1516190287
 10
78.4620180081
 20
58.1833466724
 10
78.4317438434
 20
58.2125805498
 10
78.398901307
 20
58.2393726484
 10
78.3641833344
 20
58.2631582277
 10
78.3275286725
 20
58.2838619748
 10
78.2889985744
 20
58.3015592026
 10
78.2494697351
 20
58.3159111098
 10
78.2092343864
 20
58.3268047625
 10
78.1680002964
 20
58.3343530946
 10
78.1257674653
 20
58.338556106
  0
LWPOLYLINE
  5
523
100
AcDbEntity
  8
RACCORDO
100
AcDbPolyline
 62
250
  6
CONTINUOUS
 90
25
 70
0
 10
80.2180274596
 20
58.6449164233
 10
80.2157459115
 20
58.7110115327
 10
80.2093274626
 20
58.7761218495
 10
80.1987721127
 20
58.8402473738
 10
80.1840027083
 20
58.9035947739
 10
80.165096403
 20
58.9659573814
 10
80.142284658
 20
59.0267151917
 10
80.115514773
 20
59.0859075776
 10
80.0848394482
 20
59.1434951662
 10
80.0506482454
 20
59.198739835
 10
80.0128954643
 20
59.2516091378
 10
79.9716268052
 20
59.3021355208
 10
79.9273689313
 20
59.3496781987
 10
79.8801303763
 20
59.3941778939
 10
79.8299026065
 20
59.435693884
 10
79.7771866838
 20
59.4737632167
 10
79.7219191747
 20
59.5083871732
 10
79.6641635126
 20
59.5395644723
 10
79.6046110599
 20
59.5668283169
 10
79.5432074497
 20
59.5901337747
 10
79.480007049
 20
59.6095257781
 10
79.4158643206
 20
59.6246723273
 10
79.3510640856
 20
59.6354627558
 10
79.2853215229
 20
59.6420077301
 10
79.2186366326
 20
59.6443072503
  0
LWPOLYLINE
  5
524
100
AcDbEntity
  8
RACCORDO
100
AcDbPolyline
 62
250
  6
CONTINUOUS
 90
25
 70
0
 10
80.7177228731
 20
58.6449164233
 10
80.7144508818
 20
58.7433464244
 10
80.7047583267
 20
58.8411143608
 10
80.6887327677
 20
58.9378057571
 10
80.6665100311
 20
59.0329347454
 10
80.6382178205
 20
59.1261915915
 10
80.6039225088
 20
59.2174284158
 10
80.5637259564
 20
59.3063399759
 10
80.5178243162
 20
59.3924633846
 10
80.4664189992
 20
59.475416488
 10
80.4097293668
 20
59.5548462304
 10
80.3479943911
 20
59.6304190089
 10
80.2814832037
 20
59.7018072094
 10
80.2105366059
 20
59.7686594092
 10
80.1354052862
 20
59.8307530161
 10
80.0562257067
 20
59.8879506108
 10
79.9732497456
 20
59.9400117071
 10
79.8868646246
 20
59.986637356
 10
79.7974106297
 20
60.0275966182
 10
79.7052211988
 20
60.0626853313
 10
79.6107109567
 20
60.0916957251
 10
79.5143701499
 20
60.1144422715
 10
79.4166435594
 20
60.1307976539
 10
79.3179227285
 20
60.1406738383
 10
79.2186366326
 20
60.1440026638
  0
LINE
  5
525
100
AcDbEntity
  8
RACCORDO
100
AcDbLine
 62
7
  6
CONTINUOUS
 10
79.5626183094
 20
9.5705245835
 11
79.5626183094
 21
21.9072716167
  0
LINE
  5
526
100
AcDbEntity
  8
RACCORDO
100
AcDbLine
 62
7
  6
CONTINUOUS
 10
79.5626183094
 20
46.1705245835
 11
79.5626183094
 21
58.5072716167
  0
LINE
  5
527
100
AcDbEntity
  8
RACCORDO
100
AcDbLine
 62
7
  6
CONTINUOUS
 10
79.7930766368
 20
58.2154429756
 11
79.7930766368
 21
55.3193564275
  0
LINE
  5
528
100
AcDbEntity
  8
RACCORDO
100
AcDbLine
 62
7
  6
CONTINUOUS
 10
79.7930766368
 20
49.3584397727
 11
79.7930766368
 21
46.4623532246
  0
LINE
  5
529
100
AcDbEntity
  8
RACCORDO
100
AcDbLine
 62
7
  6
CONTINUOUS
 10
79.7930766368
 20
21.6154429756
 11
79.7930766368
 21
18.7193564275
  0
LINE
  5
52A
100
AcDbEntity
  8
RACCORDO
100
AcDbLine
 62
7
  6
CONTINUOUS
 10
79.7930766368
 20
12.7584397727
 11
79.7930766368
 21
9.8623532246
  0
LINE
  5
52B
100
AcDbEntity
  8
DRAFT
100
AcDbLine
 62
7
  6
CONTINUOUS
 10
79.8126183094
 20
58.1888981001
 11
79.8126183094
 21
55.3388981001
  0
LINE
  5
52C
100
AcDbEntity
  8
DRAFT
100
AcDbLine
 62
7
  6
CONTINUOUS
 10
79.8126183094
 20
49.3388981001
 11
79.8126183094
 21
46.4888981001
  0
LINE
  5
52D
100
AcDbEntity
  8
DRAFT
100
AcDbLine
 62
7
  6
CONTINUOUS
 10
79.8126183094
 20
21.5888981001
 11
79.8126183094
 21
18.7388981001
  0
LINE
  5
52E
100
AcDbEntity
  8
DRAFT
100
AcDbLine
 62
7
  6
CONTINUOUS
 10
79.8126183094
 20
12.7388981001
 11
79.8126183094
 21
9.8888981001
  0
LINE
  5
52F
100
AcDbEntity
  8
RACCORDO
100
AcDbLine
 62
250
  6
CONTINUOUS
 10
80.2180274596
 20
4.2328797769
 11
80.2180274596
 21
9.8704788921
  0
LINE
  5
530
100
AcDbEntity
  8
RACCORDO
100
AcDbLine
 62
250
  6
CONTINUOUS
 10
80.2180274798
 20
21.6073173081
 11
80.2180274596
 21
46.4704788921
  0
LINE
  5
531
100
AcDbEntity
  8
RACCORDO
100
AcDbLine
 62
250
  6
CONTINUOUS
 10
80.2180274798
 20
58.2073173081
 11
80.2180274596
 21
58.6449164233
  0
LINE
  5
532
100
AcDbEntity
  8
RACCORDO
100
AcDbLine
 62
250
  6
CONTINUOUS
 10
80.7177228731
 20
4.2328797769
 11
80.7177228731
 21
9.5738937619
  0
LINE
  5
533
100
AcDbEntity
  8
RACCORDO
100
AcDbLine
 62
250
  6
CONTINUOUS
 10
80.7177228731
 20
21.9039024383
 11
80.7177228731
 21
46.1738937619
  0
LINE
  5
534
100
AcDbEntity
  8
RACCORDO
100
AcDbLine
 62
250
  6
CONTINUOUS
 10
80.7177228731
 20
58.5039024383
 11
80.7177228731
 21
58.6449164233
  0
LINE
  5
535
100
AcDbEntity
  8
DRAFT
100
AcDbLine
 62
7
  6
CONTINUOUS
 10
80.7599535359
 20
18.7362333266
 11
80.7599535359
 21
12.7415628736
  0
LINE
  5
536
100
AcDbEntity
  8
DRAFT
100
AcDbLine
 62
7
  6
CONTINUOUS
 10
80.7599535359
 20
49.3415628736
 11
80.7599535359
 21
55.3362333266
  0
LINE
  5
537
100
AcDbEntity
  8
RACCORDO
100
AcDbLine
 62
7
  6
CONTINUOUS
 10
80.7881737708
 20
21.9091998751
 11
80.7881737708
 21
22.0591998751
  0
LINE
  5
538
100
AcDbEntity
  8
RACCORDO
100
AcDbLine
 62
7
  6
CONTINUOUS
 10
80.7881737708
 20
46.0185963251
 11
80.7881737708
 21
46.1685963251
  0
LINE
  5
539
100
AcDbEntity
  8
RACCORDO
100
AcDbLine
 62
7
  6
CONTINUOUS
 10
80.7916658477
 20
4.1589368023
 11
80.7916658477
 21
9.5668508186
  0
LINE
  5
53A
100
AcDbEntity
  8
RACCORDO
100
AcDbLine
 62
7
  6
CONTINUOUS
 10
80.7916658477
 20
22.0609453816
 11
80.7916658477
 21
46.0168508186
  0
LINE
  5
53B
100
AcDbEntity
  8
RACCORDO
100
AcDbLine
 62
7
  6
CONTINUOUS
 10
80.7916658477
 20
58.5109453816
 11
80.7916658477
 21
58.7188593979
  0
LWPOLYLINE
  5
53C
100
AcDbEntity
  8
RACCORDO
100
AcDbPolyline
 62
250
  6
CONTINUOUS
 90
22
 70
0
 10
78.6179462148
 20
10.2204027435
 10
78.616553708
 20
10.1830139028
 10
78.6123821273
 20
10.1459167941
 10
78.6054729895
 20
10.1093159678
 10
78.5958923276
 20
10.0734422571
 10
78.58370568
 20
10.0384563102
 10
78.5689545464
 20
10.004455589
 10
78.5516931823
 20
9.9715873774
 10
78.5320307331
 20
9.9400784368
 10
78.5100993284
 20
9.9101384896
 10
78.4860564647
 20
9.8819636371
 10
78.4600122292
 20
9.8556656049
 10
78.4320372352
 20
9.8313227317
 10
78.4022926842
 20
9.8090931242
 10
78.3709174099
 20
9.7890973622
 10
78.3379304696
 20
9.7713879738
 10
78.3033632129
 20
9.7560591694
 10
78.2675113799
 20
9.7433171248
 10
78.2308113027
 20
9.7333427364
 10
78.1935597301
 20
9.7262022707
 10
78.1558911318
 20
9.7219074956
 10
78.1180223668
 20
9.7204788964
  0
LWPOLYLINE
  5
53D
100
AcDbEntity
  8
RACCORDO
100
AcDbPolyline
 62
250
  6
CONTINUOUS
 90
22
 70
0
 10
78.9179005273
 20
10.2204027396
 10
78.9155122442
 20
10.1600601356
 10
78.9088502437
 20
10.1008234628
 10
78.8979145258
 20
10.0426927212
 10
78.8826038239
 20
9.9854121234
 10
78.8630194047
 20
9.929237457
 10
78.839465068
 20
9.874936084
 10
78.8118565844
 20
9.8224700007
 10
78.7802781833
 20
9.7718772109
 10
78.7452863539
 20
9.7240390882
 10
78.7068792001
 20
9.6790491507
 10
78.6650586179
 20
9.6368138804
 10
78.6203867843
 20
9.5979340967
 10
78.5728714021
 20
9.5624317882
 10
78.5225047684
 20
9.5302849664
 10
78.469825951
 20
9.5020284855
 10
78.4145795632
 20
9.4776455147
 10
78.3570209917
 20
9.4571528849
 10
78.298455464
 20
9.4411359422
 10
78.239318056
 20
9.4297898021
 10
78.1791736917
 20
9.4229193492
 10
78.1180223712
 20
9.4205245835
  0
LWPOLYLINE
  5
53E
100
AcDbEntity
  8
RACCORDO
100
AcDbPolyline
 62
7
  6
CONTINUOUS
 90
12
 70
0
 10
80.7476492707
 20
58.4889437985
 10
80.7460272888
 20
58.4577788493
 10
80.7411717963
 20
58.4269125554
 10
80.7331231015
 20
58.3966814726
 10
80.7219560459
 20
58.3674163931
 10
80.7077810291
 20
58.3394416493
 10
80.6907439929
 20
58.3130710357
 10
80.6710164502
 20
58.2885936085
 10
80.648809943
 20
58.2662922862
 10
80.6243828095
 20
58.2464366859
 10
80.5980068764
 20
58.2292506509
 10
80.5818000656
 20
58.2205176508
  0
LWPOLYLINE
  5
53F
100
AcDbEntity
  8
RACCORDO
100
AcDbPolyline
 62
7
  6
CONTINUOUS
 90
12
 70
0
 10
80.7476492707
 20
21.8889437985
 10
80.7460272888
 20
21.8577788493
 10
80.7411717963
 20
21.8269125554
 10
80.7331231015
 20
21.7966814726
 10
80.7219560459
 20
21.7674163931
 10
80.7077810291
 20
21.7394416493
 10
80.6907439929
 20
21.7130710357
 10
80.6710164502
 20
21.6885936085
 10
80.648809943
 20
21.6662922862
 10
80.6243828095
 20
21.6464366859
 10
80.5980068764
 20
21.6292506509
 10
80.5818000656
 20
21.6205176508
  0
LWPOLYLINE
  5
540
100
AcDbEntity
  8
RACCORDO
100
AcDbPolyline
 62
250
  6
CONTINUOUS
 90
16
 70
0
 10
80.7177228731
 20
21.9039024383
 10
80.716062635
 20
21.8725607822
 10
80.7111382566
 20
21.8415622459
 10
80.7030036486
 20
21.8112461928
 10
80.6917478665
 20
21.7819445148
 10
80.6774941354
 20
21.7539779982
 10
80.6603985015
 20
21.7276528128
 10
80.640648123
 20
21.7032571593
 10
80.6184592215
 20
21.6810581146
 10
80.5940747151
 20
21.6612987076
 10
80.5677615583
 20
21.6441952588
 10
80.5398078205
 20
21.629935012
 10
80.5105195314
 20
21.6186740845
 10
80.480217331
 20
21.6105357576
 10
80.4492329595
 20
21.6056091276
 10
80.417905625
 20
21.6039481297
  0
LINE
  5
541
100
AcDbEntity
  8
DRAFT
100
AcDbLine
 62
7
  6
CONTINUOUS
 10
78.5995270107
 20
13.6732816025
 11
78.6056711138
 21
13.704077212
  0
LINE
  5
542
100
AcDbEntity
  8
RACCORDO
100
AcDbLine
 62
7
  6
CONTINUOUS
 10
78.6056711138
 20
13.704077212
 11
78.6179462187
 21
13.7656027655
  0
LINE
  5
543
100
AcDbEntity
  8
DRAFT
100
AcDbLine
 62
7
  6
CONTINUOUS
 10
79.8126183094
 20
18.7388981001
 11
79.7930766368
 21
18.7193564275
  0
LINE
  5
544
100
AcDbEntity
  8
RACCORDO
100
AcDbLine
 62
250
  6
CONTINUOUS
 10
80.448014858
 20
9.8888981001
 11
80.417905625
 21
9.8738480704
  0
LWPOLYLINE
  5
545
100
AcDbEntity
  8
RACCORDO
100
AcDbPolyline
 62
250
  6
CONTINUOUS
 90
25
 70
0
 10
21.0065999862
 20
68.6443072503
 10
20.9405048768
 20
68.6420257022
 10
20.87539456
 20
68.6356072532
 10
20.8112690357
 20
68.6250519034
 10
20.7479216356
 20
68.610282499
 10
20.6855590281
 20
68.5913761937
 10
20.6248012178
 20
68.5685644487
 10
20.5656088319
 20
68.5417945636
 10
20.5080212433
 20
68.5111192389
 10
20.4527765745
 20
68.4769280361
 10
20.3999072716
 20
68.439175255
 10
20.3493808887
 20
68.3979065959
 10
20.3018382108
 20
68.353648722
 10
20.2573385156
 20
68.306410167
 10
20.2158225255
 20
68.2561823972
 10
20.1777531928
 20
68.2034664745
 10
20.1431292363
 20
68.1481989654
 10
20.1119519372
 20
68.0904433033
 10
20.0846880926
 20
68.0308908506
 10
20.0613826348
 20
67.9694872404
 10
20.0419906314
 20
67.9062868397
 10
20.0268440822
 20
67.8421441113
 10
20.0160536537
 20
67.7773438763
 10
20.0095086794
 20
67.7116013136
 10
20.0072091592
 20
67.6449164233
  0
LWPOLYLINE
  5
546
100
AcDbEntity
  8
RACCORDO
100
AcDbPolyline
 62
250
  6
CONTINUOUS
 90
25
 70
0
 10
21.0065999862
 20
69.1440026638
 10
20.9081699851
 20
69.1407306725
 10
20.8104020487
 20
69.1310381174
 10
20.7137106524
 20
69.1150125584
 10
20.6185816641
 20
69.0927898218
 10
20.525324818
 20
69.0644976112
 10
20.4340879936
 20
69.0302022995
 10
20.3451764335
 20
68.9900057471
 10
20.2590530249
 20
68.9441041069
 10
20.1760999215
 20
68.8926987899
 10
20.0966701791
 20
68.8360091574
 10
20.0210974006
 20
68.7742741818
 10
19.9497092001
 20
68.7077629944
 10
19.8828570003
 20
68.6368163966
 10
19.8207633934
 20
68.5616850769
 10
19.7635657987
 20
68.4825054974
 10
19.7115047024
 20
68.3995295363
 10
19.6648790535
 20
68.3131444153
 10
19.6239197913
 20
68.2236904204
 10
19.5888310782
 20
68.1315009895
 10
19.5598206844
 20
68.0369907473
 10
19.537074138
 20
67.9406499406
 10
19.5207187555
 20
67.8429233501
 10
19.5108425712
 20
67.7442025192
 10
19.5075137457
 20
67.6449164233
  0
LINE
  5
547
100
AcDbEntity
  8
RACCORDO
100
AcDbLine
 62
250
  6
CONTINUOUS
 10
20.0072091592
 20
67.6449164233
 11
19.5075137457
 21
67.6449164233
  0
LINE
  5
548
100
AcDbEntity
  8
RACCORDO
100
AcDbLine
 62
250
  6
CONTINUOUS
 10
76.4180274596
 20
67.6449164233
 11
76.9177228731
 21
67.6449164233
  0
LINE
  5
549
100
AcDbEntity
  8
RACCORDO
100
AcDbLine
 62
250
  6
CONTINUOUS
 10
75.4186366326
 20
68.6443072503
 11
21.0065999862
 21
68.6443072503
  0
LINE
  5
54A
100
AcDbEntity
  8
RACCORDO
100
AcDbLine
 62
250
  6
CONTINUOUS
 10
75.4186366326
 20
69.1440026638
 11
21.0065999862
 21
69.1440026638
  0
LINE
  5
54B
100
AcDbEntity
  8
RACCORDO
100
AcDbLine
 62
7
  6
CONTINUOUS
 10
75.4925796072
 20
69.2179456384
 11
20.9326570116
 21
69.2179456384
  0
LINE
  5
54C
100
AcDbEntity
  8
DRAFT
100
AcDbLine
 62
7
  6
CONTINUOUS
 10
79.8126183094
 20
49.3388981001
 11
79.7930766368
 21
49.3584397727
  0
LINE
  5
54D
100
AcDbEntity
  8
DRAFT
100
AcDbLine
 62
7
  6
CONTINUOUS
 10
78.6056711138
 20
54.3737189882
 11
78.5995270107
 21
54.4045145977
  0
LINE
  5
54E
100
AcDbEntity
  8
RACCORDO
100
AcDbLine
 62
7
  6
CONTINUOUS
 10
78.6179462187
 20
54.3121934347
 11
78.6056711138
 21
54.3737189882
  0
LINE
  5
54F
100
AcDbEntity
  8
RACCORDO
100
AcDbLine
 62
250
  6
CONTINUOUS
 10
76.1941991014
 20
11.5202047433
 11
76.2126183094
 21
11.5386239514
  0
LINE
  5
550
100
AcDbEntity
  8
RACCORDO
100
AcDbLine
 62
250
  6
CONTINUOUS
 10
77.9939249526
 20
9.7204788921
 11
78.0123441607
 21
9.7388981001
  0
LINE
  5
551
100
AcDbEntity
  8
RACCORDO
100
AcDbLine
 62
250
  6
CONTINUOUS
 10
80.7476492707
 20
9.5888524017
 11
80.7177228731
 21
9.5738937619
  0
LINE
  5
552
100
AcDbEntity
  8
RACCORDO
100
AcDbLine
 62
250
  6
CONTINUOUS
 10
80.417905625
 20
58.2039481297
 11
80.448014858
 21
58.1888981001
  0
LINE
  5
553
100
AcDbEntity
  8
RACCORDO
100
AcDbLine
 62
250
  6
CONTINUOUS
 10
80.7177228731
 20
58.5039024383
 11
80.7476492707
 21
58.4889437985
  0
LINE
  5
554
100
AcDbEntity
  8
RACCORDO
100
AcDbLine
 62
250
  6
CONTINUOUS
 10
76.1941991014
 20
56.5575914569
 11
76.2126183094
 21
56.5391722488
  0
LINE
  5
555
100
AcDbEntity
  8
RACCORDO
100
AcDbLine
 62
250
  6
CONTINUOUS
 10
77.9939249526
 20
58.3573173081
 11
78.0123441607
 21
58.3388981001
  0
LWPOLYLINE
  5
556
100
AcDbEntity
  8
0
100
AcDbPolyline
 62
7
  6
CONTINUOUS
 90
3
 70
0
 43
0.3500000006
 10
87.3988121338
 20
37.5746146088
 10
87.3988121338
 20
36.074614151
 10
85.0416646729
 20
36.7174676056
  0
LINE
  5
557
100
AcDbEntity
  8
RACCORDO
100
AcDbLine
 62
7
  6
CONTINUOUS
 10
79.8126183094
 20
9.8888981001
 11
79.7941991014
 21
9.8704788921
  0
LINE
  5
558
100
AcDbEntity
  8
RACCORDO
100
AcDbLine
 62
7
  6
CONTINUOUS
 10
79.8126183094
 20
58.1888981001
 11
79.7941991014
 21
58.2073173081
  0
LWPOLYLINE
  5
559
100
AcDbEntity
  8
0
100
AcDbPolyline
 62
7
  6
CONTINUOUS
 90
3
 70
0
 43
0.3500000006
 10
49.1483336792
 20
78.6108049622
 10
47.6483332214
 20
78.6108049622
 10
48.2911912079
 20
80.9679433594
  0
LWPOLYLINE
  5
55A
100
AcDbEntity
  8
0
100
AcDbPolyline
 62
7
  6
CONTINUOUS
 90
10
 70
0
 43
0.3500000006
 10
-20.7607060547
 20
80.9679433594
 10
-21.4035617752
 20
80.3250899048
 10
-21.8321330109
 20
79.4679429016
 10
-21.8321330109
 20
78.3965204773
 10
-21.4035617752
 20
77.9679424438
 10
-20.7607060547
 20
77.9679424438
 10
-20.332134819
 20
78.3965204773
 10
-20.332134819
 20
79.2536584167
 10
-20.7607060547
 20
79.6822273865
 10
-21.6892774429
 20
79.6822273865
  0
LINE
  5
55B
100
AcDbEntity
  8
RACCORDO
100
AcDbLine
 62
250
  6
CONTINUOUS
 10
-17.8678484008
 20
0.4328797769
 11
-17.3852981491
 21
0.4328797769
  0
LINE
  5
55C
100
AcDbEntity
  8
RACCORDO
100
AcDbLine
 62
7
  6
CONTINUOUS
 10
-15.2678484008
 20
-1.1401494382
 11
-17.3852981491
 21
-1.0662064636
  0
LINE
  5
55D
100
AcDbEntity
  8
RACCORDO
100
AcDbLine
 62
250
  6
CONTINUOUS
 10
-15.2678484008
 20
0.3589368023
 11
-17.3852981491
 21
0.4328797769
  0
LINE
  5
55E
100
AcDbEntity
  8
RACCORDO
100
AcDbLine
 62
250
  6
CONTINUOUS
 10
-17.8678484008
 20
2.2340981229
 11
-17.3852981491
 21
2.2340981229
  0
LINE
  5
55F
100
AcDbEntity
  8
RACCORDO
100
AcDbLine
 62
250
  6
CONTINUOUS
 10
-17.3852981491
 20
2.2340981229
 11
-15.2678484008
 21
2.1601551483
  0
LINE
  5
560
100
AcDbEntity
  8
RACCORDO
100
AcDbLine
 62
7
  6
CONTINUOUS
 10
-17.3852981491
 20
2.7337935364
 11
-15.2678484008
 21
2.6598505618
  0
LWPOLYLINE
  5
561
100
AcDbEntity
  8
0
100
AcDbPolyline
 62
7
  6
CONTINUOUS
 90
3
 70
0
 43
0.3500000006
 10
-18.7607054443
 20
78.2536581116
 10
-18.8321343613
 20
78.0393736267
 10
-18.9749910622
 20
77.753657959
  0
LINE
  5
562
100
AcDbEntity
  8
RACCORDO
100
AcDbLine
 62
250
  6
CONTINUOUS
 10
-17.8678484008
 20
4.2328797769
 11
-17.3852981491
 21
4.2328797769
  0
LINE
  5
563
100
AcDbEntity
  8
RACCORDO
100
AcDbLine
 62
250
  6
CONTINUOUS
 10
-17.3852981491
 20
4.2328797769
 11
-15.2678484008
 21
4.1589368023
  0
LINE
  5
564
100
AcDbEntity
  8
0
100
AcDbLine
 62
250
  6
CONTINUOUS
 10
-21.4809368749
 20
8.2254830375
 11
-21.9678484008
 21
8.2254830375
  0
LINE
  5
565
100
AcDbEntity
  8
0
100
AcDbLine
 62
7
  6
CONTINUOUS
 10
-17.8678484008
 20
7.6310423236
 11
-21.4809368749
 21
7.725654375
  0
LINE
  5
566
100
AcDbEntity
  8
0
100
AcDbLine
 62
250
  6
CONTINUOUS
 10
-17.8678484008
 20
8.1308709861
 11
-21.4809368749
 21
8.2254830375
  0
LINE
  5
567
100
AcDbEntity
  8
RACCORDO
100
AcDbLine
 62
250
  6
CONTINUOUS
 10
-16.5283182498
 20
9.5888524017
 11
-17.3852981491
 21
9.5738937619
  0
LINE
  5
568
100
AcDbEntity
  8
RACCORDO
100
AcDbLine
 62
7
  6
CONTINUOUS
 10
-16.5178484008
 20
9.8888981001
 11
-17.5730841227
 21
9.8704788921
  0
LINE
  5
569
100
AcDbEntity
  8
RACCORDO
100
AcDbLine
 62
250
  6
CONTINUOUS
 10
-17.3852981491
 20
9.5738937619
 11
-17.8678484008
 21
9.5705245835
  0
LINE
  5
56A
100
AcDbEntity
  8
RACCORDO
100
AcDbLine
 62
250
  6
CONTINUOUS
 10
-15.2678484008
 20
9.5668508186
 11
-16.5283182498
 21
9.5888524017
  0
LINE
  5
56B
100
AcDbEntity
  8
RACCORDO
100
AcDbLine
 62
7
  6
CONTINUOUS
 10
-15.2678484008
 20
9.8670792689
 11
-16.5178484008
 21
9.8888981001
  0
LINE
  5
56C
100
AcDbEntity
  8
RACCORDO
100
AcDbLine
 62
250
  6
CONTINUOUS
 10
-15.3678484008
 20
11.5185506267
 11
-15.2678484008
 21
11.5168051202
  0
LWPOLYLINE
  5
56D
100
AcDbEntity
  8
RACCORDO
100
AcDbPolyline
 62
250
  6
CONTINUOUS
 90
7
 70
0
 10
-17.3852981491
 20
2.7337935364
 10
-17.3863914023
 20
2.7370593866
 10
-17.3874167241
 20
2.7467358468
 10
-17.3883626031
 20
2.7627387346
 10
-17.3892121746
 20
2.7849360887
 10
-17.3899634778
 20
2.8132032883
 10
-17.3906271533
 20
2.8474750726
  0
LWPOLYLINE
  5
56E
100
AcDbEntity
  8
RACCORDO
100
AcDbPolyline
 62
250
  6
CONTINUOUS
 90
7
 70
0
 10
-17.3852981491
 20
-1.0662064636
 10
-17.386392531
 20
-1.0629344724
 10
-17.387418519
 20
-1.0532419172
 10
-17.3883646971
 20
-1.0372163582
 10
-17.3892143674
 20
-1.0149936216
 10
-17.3899656474
 20
-0.986701411
 10
-17.3906291131
 20
-0.9524060993
  0
LINE
  5
56F
100
AcDbEntity
  8
DRAFT
100
AcDbLine
 62
7
  6
CONTINUOUS
 10
-15.3983067282
 20
12.7584397727
 11
-16.5178484008
 21
12.7388981001
  0
LINE
  5
570
100
AcDbEntity
  8
DRAFT
100
AcDbLine
 62
7
  6
CONTINUOUS
 10
-16.5178484008
 20
12.7388981001
 11
-17.6373900734
 21
12.7584397727
  0
LINE
  5
571
100
AcDbEntity
  8
0
100
AcDbLine
 62
250
  6
CONTINUOUS
 10
-21.4838821743
 20
59.9819945507
 11
-21.4852457679
 21
60.0640910237
  0
LINE
  5
572
100
AcDbEntity
  8
0
100
AcDbLine
 62
250
  6
CONTINUOUS
 10
-21.4852457679
 20
60.0640910237
 11
-21.4860769716
 21
60.1396469463
  0
LWPOLYLINE
  5
573
100
AcDbEntity
  8
0
100
AcDbPolyline
 62
250
  6
CONTINUOUS
 90
10
 70
0
 10
-21.486351946
 20
7.8717381559
 10
-21.486279466
 20
7.8422904038
 10
-21.486066601
 20
7.8157680489
 10
-21.485714968
 20
7.7923661994
 10
-21.4852267357
 20
7.772246424
 10
-21.4846058837
 20
7.7555851371
 10
-21.4838591774
 20
7.7425377751
 10
-21.4829939953
 20
7.7331825902
 10
-21.4820171743
 20
7.7275500415
 10
-21.4809368749
 20
7.725654375
  0
LWPOLYLINE
  5
574
100
AcDbEntity
  8
0
100
AcDbPolyline
 62
250
  6
CONTINUOUS
 90
11
 70
0
 10
-21.4860769716
 20
60.1396469463
 10
-21.4863519168
 20
60.2063870092
 10
-21.4862775889
 20
60.2358713549
 10
-21.4860620302
 20
60.2624303963
 10
-21.4857074755
 20
60.2858167073
 10
-21.4852171866
 20
60.3058652976
 10
-21.4845954608
 20
60.3224366297
 10
-21.4838491078
 20
60.3353978494
 10
-21.4829855763
 20
60.34468187
 10
-21.4820120558
 20
60.3502648178
 10
-21.480936877
 20
60.3521418251
  0
LINE
  5
575
100
AcDbEntity
  8
0
100
AcDbLine
 62
7
  6
CONTINUOUS
 10
-21.9678484008
 20
59.8523131627
 11
-21.9678484008
 21
8.2254830375
  0
LINE
  5
576
100
AcDbEntity
  8
0
100
AcDbLine
 62
250
  6
CONTINUOUS
 10
-21.4809368749
 20
59.8523131627
 11
-21.4809368749
 21
8.2254830375
  0
LINE
  5
577
100
AcDbEntity
  8
0
100
AcDbLine
 62
250
  6
CONTINUOUS
 10
-21.4860741675
 20
7.9385092944
 11
-21.486351946
 21
7.8717381559
  0
LINE
  5
578
100
AcDbEntity
  8
0
100
AcDbLine
 62
250
  6
CONTINUOUS
 10
-21.485241312
 20
8.014025043
 11
-21.4860741675
 21
7.9385092944
  0
LINE
  5
579
100
AcDbEntity
  8
0
100
AcDbLine
 62
250
  6
CONTINUOUS
 10
-21.4838788055
 20
8.095977677
 11
-21.485241312
 21
8.014025043
  0
LWPOLYLINE
  5
57A
100
AcDbEntity
  8
RACCORDO
100
AcDbPolyline
 62
250
  6
CONTINUOUS
 90
3
 70
0
 10
-17.3852973311
 20
2.2340980943
 10
-17.3874184925
 20
2.2990187108
 10
-17.3883404946
 20
2.3309554122
  0
LWPOLYLINE
  5
57B
100
AcDbEntity
  8
0
100
AcDbPolyline
 62
250
  6
CONTINUOUS
 90
3
 70
0
 10
-21.4809368749
 20
59.8523131627
 10
-21.4830137551
 20
59.9393159513
 10
-21.4838821743
 20
59.9819945507
  0
LWPOLYLINE
  5
57C
100
AcDbEntity
  8
0
100
AcDbPolyline
 62
250
  6
CONTINUOUS
 90
3
 70
0
 10
-21.4809368749
 20
8.2254830375
 10
-21.4820281645
 20
8.1818723036
 10
-21.4838788055
 20
8.095977677
  0
LINE
  5
57D
100
AcDbEntity
  8
0
100
AcDbLine
 62
7
  6
CONTINUOUS
 10
-15.19464332
 20
43.7049235039
 11
-15.2678484008
 21
43.5781285846
  0
LWPOLYLINE
  5
57E
100
AcDbEntity
  8
RACCORDO
100
AcDbPolyline
 62
250
  6
CONTINUOUS
 90
10
 70
0
 10
-15.1946433187
 20
44.2673758532
 10
-15.1891219168
 20
44.276706616
 10
-15.18420525
 20
44.2863141406
 10
-15.1799099578
 20
44.29616592
 10
-15.176250579
 20
44.3062286155
 10
-15.1732394968
 20
44.3164681843
 10
-15.1708869004
 20
44.3268499951
 10
-15.169200756
 20
44.3373389254
 10
-15.1681867769
 20
44.3478994795
 10
-15.1678484008
 20
44.3584959238
  0
LINE
  5
57F
100
AcDbEntity
  8
DRAFT
100
AcDbLine
 62
7
  6
CONTINUOUS
 10
-16.5178484008
 20
18.7388981001
 11
-17.6373900734
 21
18.7193564275
  0
LINE
  5
580
100
AcDbEntity
  8
RACCORDO
100
AcDbLine
 62
250
  6
CONTINUOUS
 10
-15.3678484008
 20
19.9592455735
 11
-15.2678484008
 21
19.96099108
  0
LINE
  5
581
100
AcDbEntity
  8
DRAFT
100
AcDbLine
 62
7
  6
CONTINUOUS
 10
-15.3983067282
 20
18.7193564275
 11
-16.5178484008
 21
18.7388981001
  0
LINE
  5
582
100
AcDbEntity
  8
RACCORDO
100
AcDbLine
 62
250
  6
CONTINUOUS
 10
-17.3883404946
 20
2.3309554122
 11
-17.3899304407
 21
2.3930494498
  0
LWPOLYLINE
  5
583
100
AcDbEntity
  8
RACCORDO
100
AcDbPolyline
 62
7
  6
CONTINUOUS
 90
11
 70
0
 10
-16.5269273885
 20
21.7394416493
 10
-16.5263310737
 20
21.7130710357
 10
-16.5256399647
 20
21.6885936085
 10
-16.524867348
 20
21.6662922862
 10
-16.5240136901
 20
21.6464366859
 10
-16.5230905066
 20
21.6292506509
 10
-16.5221129108
 20
21.614922407
 10
-16.5210872591
 20
21.6036160174
 10
-16.520024638
 20
21.5954566962
 10
-16.5189407146
 20
21.5905327029
 10
-16.5178484008
 20
21.5888981001
  0
LWPOLYLINE
  5
584
100
AcDbEntity
  8
RACCORDO
100
AcDbPolyline
 62
7
  6
CONTINUOUS
 90
11
 70
0
 10
-16.5269273885
 20
58.3394416493
 10
-16.5263310737
 20
58.3130710357
 10
-16.5256399647
 20
58.2885936085
 10
-16.524867348
 20
58.2662922862
 10
-16.5240136901
 20
58.2464366859
 10
-16.5230905066
 20
58.2292506509
 10
-16.5221129108
 20
58.214922407
 10
-16.5210872591
 20
58.2036160174
 10
-16.520024638
 20
58.1954566962
 10
-16.5189407146
 20
58.1905327029
 10
-16.5178484008
 20
58.1888981001
  0
LINE
  5
585
100
AcDbEntity
  8
RACCORDO
100
AcDbLine
 62
250
  6
CONTINUOUS
 10
-17.3899304407
 20
2.3930494498
 11
-17.391150087
 21
2.4524920583
  0
LINE
  5
586
100
AcDbEntity
  8
RACCORDO
100
AcDbLine
 62
250
  6
CONTINUOUS
 10
-17.391150087
 20
2.4524920583
 11
-17.3919958136
 21
2.5084154327
  0
LINE
  5
587
100
AcDbEntity
  8
RACCORDO
100
AcDbLine
 62
7
  6
CONTINUOUS
 10
-16.5278109848
 20
21.7966814726
 11
-16.5269273885
 21
21.7394416493
  0
LINE
  5
588
100
AcDbEntity
  8
RACCORDO
100
AcDbLine
 62
7
  6
CONTINUOUS
 10
-16.5278109848
 20
58.3966814726
 11
-16.5269273885
 21
58.3394416493
  0
LINE
  5
589
100
AcDbEntity
  8
RACCORDO
100
AcDbLine
 62
250
  6
CONTINUOUS
 10
-17.3852981491
 20
9.5738937619
 11
-17.3861563375
 21
9.6362350018
  0
LINE
  5
58A
100
AcDbEntity
  8
RACCORDO
100
AcDbLine
 62
250
  6
CONTINUOUS
 10
-17.3852981491
 20
46.1738937619
 11
-17.3861563375
 21
46.2362350018
  0
LINE
  5
58B
100
AcDbEntity
  8
RACCORDO
100
AcDbLine
 62
250
  6
CONTINUOUS
 10
-17.3906291131
 20
-0.9524060993
 11
-17.3916627615
 21
-0.8663079067
  0
LINE
  5
58C
100
AcDbEntity
  8
RACCORDO
100
AcDbLine
 62
250
  6
CONTINUOUS
 10
-17.3906271533
 20
2.8474750726
 11
-17.3916615689
 21
2.9335436525
  0
LINE
  5
58D
100
AcDbEntity
  8
RACCORDO
100
AcDbLine
 62
250
  6
CONTINUOUS
 10
-17.3852981491
 20
58.6449164233
 11
-17.3892143674
 21
59.0329347454
  0
LINE
  5
58E
100
AcDbEntity
  8
RACCORDO
100
AcDbLine
 62
250
  6
CONTINUOUS
 10
-17.3852981491
 20
67.6449164233
 11
-17.3892121746
 21
68.0326725949
  0
LWPOLYLINE
  5
58F
100
AcDbEntity
  8
RACCORDO
100
AcDbPolyline
 62
250
  6
CONTINUOUS
 90
15
 70
0
 10
-17.3919958136
 20
2.5084154327
 10
-17.3924380692
 20
2.5598478297
 10
-17.3925093629
 20
2.5835568192
 10
-17.3924768809
 20
2.6057653892
 10
-17.3923426323
 20
2.6264127618
 10
-17.3921102149
 20
2.6454441895
 10
-17.3917838617
 20
2.6626979659
 10
-17.3913559727
 20
2.6782055427
 10
-17.3908170103
 20
2.692117372
 10
-17.3901691744
 20
2.7043486889
 10
-17.3894159033
 20
2.7146584928
 10
-17.3885529739
 20
2.7228868781
 10
-17.3875785754
 20
2.7288986839
 10
-17.3864937934
 20
2.7325733333
 10
-17.3852971194
 20
2.7337935004
  0
LINE
  5
590
100
AcDbEntity
  8
RACCORDO
100
AcDbLine
 62
250
  6
CONTINUOUS
 10
-17.3892143674
 20
59.0329347454
 11
-17.3916627615
 21
59.3924633846
  0
LINE
  5
591
100
AcDbEntity
  8
RACCORDO
100
AcDbLine
 62
250
  6
CONTINUOUS
 10
-17.3892121746
 20
68.0326725949
 11
-17.3916615689
 21
68.3922053938
  0
LINE
  5
592
100
AcDbEntity
  8
RACCORDO
100
AcDbLine
 62
250
  6
CONTINUOUS
 10
-17.3916627615
 20
-0.8663079067
 11
-17.3922953966
 21
-0.7582129573
  0
LINE
  5
593
100
AcDbEntity
  8
RACCORDO
100
AcDbLine
 62
250
  6
CONTINUOUS
 10
-17.3916615689
 20
2.9335436525
 11
-17.3922946191
 21
3.0415978503
  0
LWPOLYLINE
  5
594
100
AcDbEntity
  8
RACCORDO
100
AcDbPolyline
 62
250
  6
CONTINUOUS
 90
13
 70
0
 10
-17.3861563375
 20
9.6362350018
 10
-17.3865198248
 20
9.6958534085
 10
-17.3865102273
 20
9.7238201062
 10
-17.3863727375
 20
9.7501453478
 10
-17.38610886
 20
9.7745409409
 10
-17.3857214865
 20
9.7967398267
 10
-17.3852148591
 20
9.8164989888
 10
-17.3845945254
 20
9.8336021332
 10
-17.3838672777
 20
9.8478620504
 10
-17.3830410785
 20
9.8591226567
 10
-17.3821249737
 20
9.8672607074
 10
-17.381128993
 20
9.8721871448
 10
-17.3800640407
 20
9.8738480701
  0
LWPOLYLINE
  5
595
100
AcDbEntity
  8
RACCORDO
100
AcDbPolyline
 62
250
  6
CONTINUOUS
 90
13
 70
0
 10
-17.3861563375
 20
46.2362350018
 10
-17.3865198248
 20
46.2958534085
 10
-17.3865102273
 20
46.3238201062
 10
-17.3863727375
 20
46.3501453478
 10
-17.38610886
 20
46.3745409409
 10
-17.3857214865
 20
46.3967398267
 10
-17.3852148591
 20
46.4164989888
 10
-17.3845945254
 20
46.4336021332
 10
-17.3838672777
 20
46.4478620504
 10
-17.3830410785
 20
46.4591226567
 10
-17.3821249737
 20
46.4672607074
 10
-17.381128993
 20
46.4721871448
 10
-17.3800640407
 20
46.4738480701
  0
LWPOLYLINE
  5
596
100
AcDbEntity
  8
RACCORDO
100
AcDbPolyline
 62
7
  6
CONTINUOUS
 90
3
 70
0
 10
-16.5283182498
 20
21.8889437985
 10
-16.5282712176
 20
21.8577788493
 10
-16.5278109848
 20
21.7966814726
  0
LWPOLYLINE
  5
597
100
AcDbEntity
  8
RACCORDO
100
AcDbPolyline
 62
7
  6
CONTINUOUS
 90
3
 70
0
 10
-16.5283182498
 20
58.4889437985
 10
-16.5282712176
 20
58.4577788493
 10
-16.5278109848
 20
58.3966814726
  0
LINE
  5
598
100
AcDbEntity
  8
RACCORDO
100
AcDbLine
 62
250
  6
CONTINUOUS
 10
-17.3916627615
 20
59.3924633846
 11
-17.3925109597
 21
59.7018072094
  0
LINE
  5
599
100
AcDbEntity
  8
RACCORDO
100
AcDbLine
 62
250
  6
CONTINUOUS
 10
-17.3916615689
 20
68.3922053938
 11
-17.3925109429
 21
68.7015594493
  0
LWPOLYLINE
  5
59A
100
AcDbEntity
  8
RACCORDO
100
AcDbPolyline
 62
250
  6
CONTINUOUS
 90
12
 70
0
 10
-17.3865198216
 20
21.7819445148
 10
-17.3865102325
 20
21.7539779982
 10
-17.386372753
 20
21.7276528128
 10
-17.3861088865
 20
21.7032571593
 10
-17.3857215236
 20
21.6810581146
 10
-17.3852149048
 20
21.6612987076
 10
-17.3845945773
 20
21.6441952588
 10
-17.3838673316
 20
21.629935012
 10
-17.3830411271
 20
21.6186740845
 10
-17.3821250083
 20
21.6105357576
 10
-17.3811290053
 20
21.6056091276
 10
-17.3800640221
 20
21.6039481297
  0
LWPOLYLINE
  5
59B
100
AcDbEntity
  8
RACCORDO
100
AcDbPolyline
 62
250
  6
CONTINUOUS
 90
12
 70
0
 10
-17.3865198216
 20
58.3819445148
 10
-17.3865102325
 20
58.3539779982
 10
-17.386372753
 20
58.3276528128
 10
-17.3861088865
 20
58.3032571593
 10
-17.3857215236
 20
58.2810581146
 10
-17.3852149048
 20
58.2612987076
 10
-17.3845945773
 20
58.2441952588
 10
-17.3838673316
 20
58.229935012
 10
-17.3830411271
 20
58.2186740845
 10
-17.3821250083
 20
58.2105357576
 10
-17.3811290053
 20
58.2056091276
 10
-17.3800640221
 20
58.2039481297
  0
LINE
  5
59C
100
AcDbEntity
  8
RACCORDO
100
AcDbLine
 62
7
  6
CONTINUOUS
 10
-17.8678484008
 20
-0.5665110501
 11
-17.8678484008
 21
68.6443072503
  0
LWPOLYLINE
  5
59D
100
AcDbEntity
  8
0
100
AcDbPolyline
 62
7
  6
CONTINUOUS
 90
4
 70
0
 43
0.3500000006
 10
-17.7607051392
 20
80.3250899048
 10
-17.7607051392
 20
80.9679433594
 10
-16.2607058144
 20
80.9679433594
 10
-17.1178482857
 20
77.9679424438
  0
LINE
  5
59E
100
AcDbEntity
  8
RACCORDO
100
AcDbLine
 62
7
  6
CONTINUOUS
 10
-17.6373900734
 20
58.2154429756
 11
-17.6373900734
 21
55.3193564275
  0
LINE
  5
59F
100
AcDbEntity
  8
RACCORDO
100
AcDbLine
 62
7
  6
CONTINUOUS
 10
-17.6373900734
 20
49.3584397727
 11
-17.6373900734
 21
46.4623532246
  0
LINE
  5
5A0
100
AcDbEntity
  8
RACCORDO
100
AcDbLine
 62
7
  6
CONTINUOUS
 10
-17.6373900734
 20
21.6154429756
 11
-17.6373900734
 21
18.7193564275
  0
LINE
  5
5A1
100
AcDbEntity
  8
RACCORDO
100
AcDbLine
 62
7
  6
CONTINUOUS
 10
-17.6373900734
 20
12.7584397727
 11
-17.6373900734
 21
9.8623532246
  0
LINE
  5
5A2
100
AcDbEntity
  8
RACCORDO
100
AcDbLine
 62
250
  6
CONTINUOUS
 10
-17.3852981491
 20
0.4328797769
 11
-17.3852981491
 21
2.2340981229
  0
LINE
  5
5A3
100
AcDbEntity
  8
RACCORDO
100
AcDbLine
 62
250
  6
CONTINUOUS
 10
-17.3852981491
 20
4.2328797769
 11
-17.3852981491
 21
9.5738937619
  0
LINE
  5
5A4
100
AcDbEntity
  8
RACCORDO
100
AcDbLine
 62
250
  6
CONTINUOUS
 10
-17.3852981491
 20
21.9039024383
 11
-17.3852981491
 21
46.1738937619
  0
LINE
  5
5A5
100
AcDbEntity
  8
RACCORDO
100
AcDbLine
 62
250
  6
CONTINUOUS
 10
-17.3852981491
 20
58.5039024383
 11
-17.3852981491
 21
58.6449164233
  0
LINE
  5
5A6
100
AcDbEntity
  8
RACCORDO
100
AcDbLine
 62
250
  6
CONTINUOUS
 10
-17.3852981491
 20
60.6436980773
 11
-17.3852981491
 21
67.6449164233
  0
LINE
  5
5A7
100
AcDbEntity
  8
DRAFT
100
AcDbLine
 62
7
  6
CONTINUOUS
 10
-16.6705131743
 20
18.7362333266
 11
-16.6705131743
 21
12.7415628736
  0
LINE
  5
5A8
100
AcDbEntity
  8
DRAFT
100
AcDbLine
 62
7
  6
CONTINUOUS
 10
-16.6705131743
 20
49.3415628736
 11
-16.6705131743
 21
55.3362333266
  0
LINE
  5
5A9
100
AcDbEntity
  8
DRAFT
100
AcDbLine
 62
7
  6
CONTINUOUS
 10
-16.5178484008
 20
21.5888981001
 11
-16.5178484008
 21
9.8888981001
  0
LINE
  5
5AA
100
AcDbEntity
  8
DRAFT
100
AcDbLine
 62
7
  6
CONTINUOUS
 10
-16.5178484008
 20
46.4888981001
 11
-16.5178484008
 21
58.1888981001
  0
LINE
  5
5AB
100
AcDbEntity
  8
DRAFT
100
AcDbLine
 62
7
  6
CONTINUOUS
 10
-16.3651836272
 20
18.7362333266
 11
-16.3651836272
 21
12.7415628736
  0
LINE
  5
5AC
100
AcDbEntity
  8
DRAFT
100
AcDbLine
 62
7
  6
CONTINUOUS
 10
-16.3651836272
 20
49.3415628736
 11
-16.3651836272
 21
55.3362333266
  0
LINE
  5
5AD
100
AcDbEntity
  8
RACCORDO
100
AcDbLine
 62
250
  6
CONTINUOUS
 10
-17.3922946191
 20
3.0415978503
 11
-17.3924639853
 21
3.2407254623
  0
LINE
  5
5AE
100
AcDbEntity
  8
RACCORDO
100
AcDbLine
 62
250
  6
CONTINUOUS
 10
-17.3922953966
 20
-0.7582129573
 11
-17.3924636138
 21
-0.5590201964
  0
LINE
  5
5AF
100
AcDbEntity
  8
RACCORDO
100
AcDbLine
 62
250
  6
CONTINUOUS
 10
-17.3925109429
 20
68.7015594493
 11
-17.3920572351
 21
68.8877984296
  0
LINE
  5
5B0
100
AcDbEntity
  8
RACCORDO
100
AcDbLine
 62
250
  6
CONTINUOUS
 10
-17.3925109597
 20
59.7018072094
 11
-17.3920563801
 21
59.8879506108
  0
LINE
  5
5B1
100
AcDbEntity
  8
RACCORDO
100
AcDbLine
 62
250
  6
CONTINUOUS
 10
-17.3924639853
 20
3.2407254623
 11
-17.3912382582
 21
3.5645513416
  0
LINE
  5
5B2
100
AcDbEntity
  8
RACCORDO
100
AcDbLine
 62
250
  6
CONTINUOUS
 10
-17.3924636138
 20
-0.5590201964
 11
-17.3912375239
 21
-0.2353482151
  0
LINE
  5
5B3
100
AcDbEntity
  8
RACCORDO
100
AcDbLine
 62
7
  6
CONTINUOUS
 10
-16.5283182498
 20
46.1888524017
 11
-16.5280844196
 21
46.2508836448
  0
LINE
  5
5B4
100
AcDbEntity
  8
RACCORDO
100
AcDbLine
 62
7
  6
CONTINUOUS
 10
-16.5283182498
 20
9.5888524017
 11
-16.5280844196
 21
9.6508836448
  0
LINE
  5
5B5
100
AcDbEntity
  8
RACCORDO
100
AcDbLine
 62
250
  6
CONTINUOUS
 10
-17.3925093629
 20
60.2859519304
 11
-17.3923426323
 21
60.3335691144
  0
LINE
  5
5B6
100
AcDbEntity
  8
RACCORDO
100
AcDbLine
 62
250
  6
CONTINUOUS
 10
-17.386156327
 20
58.4415622459
 11
-17.3865198216
 21
58.3819445148
  0
LINE
  5
5B7
100
AcDbEntity
  8
RACCORDO
100
AcDbLine
 62
250
  6
CONTINUOUS
 10
-17.386156327
 20
21.8415622459
 11
-17.3865198216
 21
21.7819445148
  0
LINE
  5
5B8
100
AcDbEntity
  8
RACCORDO
100
AcDbLine
 62
250
  6
CONTINUOUS
 10
-17.3912382582
 20
3.5645513416
 11
-17.3883906304
 21
3.9371993005
  0
LINE
  5
5B9
100
AcDbEntity
  8
RACCORDO
100
AcDbLine
 62
250
  6
CONTINUOUS
 10
-17.3912375239
 20
-0.2353482151
 11
-17.3883911222
 21
0.1371462596
  0
LWPOLYLINE
  5
5BA
100
AcDbEntity
  8
RACCORDO
100
AcDbPolyline
 62
250
  6
CONTINUOUS
 90
9
 70
0
 10
-17.3920572351
 20
68.8877984296
 10
-17.3912382582
 20
68.9865873038
 10
-17.3906718442
 20
69.0275815205
 10
-17.3900077944
 20
69.0626878672
 10
-17.3892499212
 20
69.0917059691
 10
-17.3883906304
 20
69.114452959
 10
-17.3874350242
 20
69.1308045998
 10
-17.3863999581
 20
69.1406761338
 10
-17.3852981491
 20
69.1440026638
  0
LWPOLYLINE
  5
5BB
100
AcDbEntity
  8
RACCORDO
100
AcDbPolyline
 62
250
  6
CONTINUOUS
 90
9
 70
0
 10
-17.3920563801
 20
59.8879506108
 10
-17.3912375239
 20
59.986637356
 10
-17.3906716003
 20
60.0275966182
 10
-17.3900078868
 20
60.0626853313
 10
-17.3892502138
 20
60.0916957251
 10
-17.3883911222
 20
60.1144422715
 10
-17.3874356649
 20
60.1307976539
 10
-17.3864004739
 20
60.1406738383
 10
-17.3852981491
 20
60.1440026638
  0
LINE
  5
5BC
100
AcDbEntity
  8
RACCORDO
100
AcDbLine
 62
250
  6
CONTINUOUS
 10
-17.3883906304
 20
3.9371993005
 11
-17.3852981491
 21
4.2328797769
  0
LINE
  5
5BD
100
AcDbEntity
  8
RACCORDO
100
AcDbLine
 62
250
  6
CONTINUOUS
 10
-17.3883911222
 20
0.1371462596
 11
-17.3852981491
 21
0.4328797769
  0
LINE
  5
5BE
100
AcDbEntity
  8
RACCORDO
100
AcDbLine
 62
250
  6
CONTINUOUS
 10
-17.3923426323
 20
60.3335691144
 11
-17.3917838617
 21
60.3861121616
  0
LWPOLYLINE
  5
5BF
100
AcDbEntity
  8
RACCORDO
100
AcDbPolyline
 62
7
  6
CONTINUOUS
 90
13
 70
0
 10
-16.5280844196
 20
46.2508836448
 10
-16.5274232046
 20
46.3103798071
 10
-16.526924655
 20
46.3383545509
 10
-16.5263310737
 20
46.3647251645
 10
-16.5256443754
 20
46.3892025917
 10
-16.5248660624
 20
46.411503914
 10
-16.5240136901
 20
46.4313595143
 10
-16.5230944421
 20
46.4485523276
 10
-16.5221133067
 20
46.4628848179
 10
-16.5210872591
 20
46.4741801828
 10
-16.5200288428
 20
46.4823226089
 10
-16.5189454954
 20
46.4872422689
 10
-16.5178484008
 20
46.4888981001
  0
LWPOLYLINE
  5
5C0
100
AcDbEntity
  8
RACCORDO
100
AcDbPolyline
 62
7
  6
CONTINUOUS
 90
13
 70
0
 10
-16.5280844196
 20
9.6508836448
 10
-16.5274232046
 20
9.7103798071
 10
-16.526924655
 20
9.7383545509
 10
-16.5263310737
 20
9.7647251645
 10
-16.5256443754
 20
9.7892025917
 10
-16.5248660624
 20
9.811503914
 10
-16.5240136901
 20
9.8313595143
 10
-16.5230944421
 20
9.8485523276
 10
-16.5221133067
 20
9.8628848179
 10
-16.5210872591
 20
9.8741801828
 10
-16.5200288428
 20
9.8823226089
 10
-16.5189454954
 20
9.8872422689
 10
-16.5178484008
 20
9.8888981001
  0
LINE
  5
5C1
100
AcDbEntity
  8
RACCORDO
100
AcDbLine
 62
250
  6
CONTINUOUS
 10
-17.3852981491
 20
58.5039024383
 11
-17.386156327
 21
58.4415622459
  0
LINE
  5
5C2
100
AcDbEntity
  8
RACCORDO
100
AcDbLine
 62
250
  6
CONTINUOUS
 10
-17.3852981491
 20
21.9039024383
 11
-17.386156327
 21
21.8415622459
  0
LINE
  5
5C3
100
AcDbEntity
  8
RACCORDO
100
AcDbLine
 62
250
  6
CONTINUOUS
 10
-17.3917838617
 20
60.3861121616
 11
-17.3908170103
 21
60.443203299
  0
LINE
  5
5C4
100
AcDbEntity
  8
RACCORDO
100
AcDbLine
 62
250
  6
CONTINUOUS
 10
-17.3908170103
 20
60.443203299
 11
-17.3894159033
 21
60.5060318134
  0
LWPOLYLINE
  5
5C5
100
AcDbEntity
  8
RACCORDO
100
AcDbPolyline
 62
250
  6
CONTINUOUS
 90
4
 70
0
 10
-17.3894159033
 20
60.5060318134
 10
-17.3875785754
 20
60.5732486114
 10
-17.3864937934
 20
60.6081454601
 10
-17.3852971194
 20
60.6436981133
  0
LINE
  5
5C6
100
AcDbEntity
  8
RACCORDO
100
AcDbLine
 62
250
  6
CONTINUOUS
 10
-15.1948520961
 20
50.6593174561
 11
-15.19464332
 21
50.664886263
  0
LINE
  5
5C7
100
AcDbEntity
  8
RACCORDO
100
AcDbLine
 62
7
  6
CONTINUOUS
 10
-16.5178484008
 20
21.5888981001
 11
-15.3678484008
 21
21.6089714248
  0
LINE
  5
5C8
100
AcDbEntity
  8
RACCORDO
100
AcDbLine
 62
7
  6
CONTINUOUS
 10
-15.3678484008
 20
21.7589714248
 11
-15.2678484008
 21
21.7607169313
  0
LINE
  5
5C9
100
AcDbEntity
  8
RACCORDO
100
AcDbLine
 62
250
  6
CONTINUOUS
 10
-16.5283182498
 20
21.8889437985
 11
-15.3678484008
 21
21.9091998751
  0
LINE
  5
5CA
100
AcDbEntity
  8
RACCORDO
100
AcDbLine
 62
250
  6
CONTINUOUS
 10
-15.3678484008
 20
22.0591998751
 11
-15.2678484008
 21
22.0609453816
  0
LINE
  5
5CB
100
AcDbEntity
  8
RACCORDO
100
AcDbLine
 62
250
  6
CONTINUOUS
 10
-17.8678484008
 20
21.9072716167
 11
-17.3852981491
 21
21.9039024383
  0
LINE
  5
5CC
100
AcDbEntity
  8
RACCORDO
100
AcDbLine
 62
7
  6
CONTINUOUS
 10
-17.5730841227
 20
21.6073173081
 11
-16.5178484008
 21
21.5888981001
  0
LINE
  5
5CD
100
AcDbEntity
  8
RACCORDO
100
AcDbLine
 62
250
  6
CONTINUOUS
 10
-17.3852981491
 20
21.9039024383
 11
-16.5283182498
 21
21.8889437985
  0
LWPOLYLINE
  5
5CE
100
AcDbEntity
  8
RACCORDO
100
AcDbPolyline
 62
250
  6
CONTINUOUS
 90
3
 70
0
 10
-15.1682670247
 20
55.1172335027
 10
-15.1681867746
 20
55.1126422409
 10
-15.167850605
 20
55.103957936
  0
LWPOLYLINE
  5
5CF
100
AcDbEntity
  8
RACCORDO
100
AcDbPolyline
 62
250
  6
CONTINUOUS
 90
28
 70
0
 10
-15.19464332
 20
44.2673758513
 10
-15.1947529624
 20
44.2691240169
 10
-15.1950572276
 20
44.2705601743
 10
-15.1955561158
 20
44.2716845867
 10
-15.1962503858
 20
44.2724959316
 10
-15.1971392787
 20
44.2729960534
 10
-15.1982205172
 20
44.2731899668
 10
-15.1994940472
 20
44.2730815237
 10
-15.2009599227
 20
44.2726674058
 10
-15.2026160288
 20
44.2719418152
 10
-15.2044562126
 20
44.2709111018
 10
-15.206486627
 20
44.2695692844
 10
-15.2087236158
 20
44.267892037
 10
-15.2111708553
 20
44.2658790353
 10
-15.2138246692
 20
44.2635310602
 10
-15.2166903719
 20
44.2608253819
 10
-15.2197687233
 20
44.257761473
 10
-15.2230589636
 20
44.2543400856
 10
-15.2265641269
 20
44.2505402024
 10
-15.2302833771
 20
44.2463633951
 10
-15.2342175505
 20
44.2418080436
 10
-15.2383721906
 20
44.236848106
 10
-15.2427467836
 20
44.2314855204
 10
-15.2473418433
 20
44.2257180047
 10
-15.2521644549
 20
44.2195129108
 10
-15.2572156889
 20
44.2128707137
 10
-15.2624944748
 20
44.2057902306
 10
-15.2678484008
 20
44.1984502239
  0
LWPOLYLINE
  5
5D0
100
AcDbEntity
  8
RACCORDO
100
AcDbPolyline
 62
250
  6
CONTINUOUS
 90
20
 70
0
 10
-15.1678484008
 20
44.3584949467
 10
-15.1681562823
 20
44.3647276384
 10
-15.1690728302
 20
44.3706269448
 10
-15.1705865403
 20
44.376179495
 10
-15.1726792112
 20
44.3813569039
 10
-15.1753401112
 20
44.3861625643
 10
-15.1785796592
 20
44.3906302695
 10
-15.1824017696
 20
44.3947568552
 10
-15.1867964417
 20
44.3985190963
 10
-15.1917664805
 20
44.401918993
 10
-15.1972945887
 20
44.4049394794
 10
-15.2033856379
 20
44.407571103
 10
-15.2100900097
 20
44.4098233579
 10
-15.2174294478
 20
44.4116851121
 10
-15.2253921477
 20
44.4131311254
 10
-15.2339909722
 20
44.4141446897
 10
-15.243224783
 20
44.4147035549
 10
-15.2530933889
 20
44.4147893892
 10
-15.2636125661
 20
44.4143884183
 10
-15.2678484008
 20
44.4140420695
  0
LWPOLYLINE
  5
5D1
100
AcDbEntity
  8
RACCORDO
100
AcDbPolyline
 62
250
  6
CONTINUOUS
 90
21
 70
0
 10
-15.19464332
 20
55.184432186
 10
-15.1947633132
 20
55.1874952769
 10
-15.195111132
 20
55.1908745023
 10
-15.1956867764
 20
55.1945704048
 10
-15.1964825764
 20
55.1985650309
 10
-15.1975062021
 20
55.2028774145
 10
-15.1987806637
 20
55.2075635754
 10
-15.2003111329
 20
55.2126511792
 10
-15.2020924381
 20
55.2181136304
 10
-15.2041320747
 20
55.2239256531
 10
-15.2064308369
 20
55.2300861477
 10
-15.2089879305
 20
55.2365974856
 10
-15.2118084677
 20
55.2434397216
 10
-15.2148943269
 20
55.2506170568
 10
-15.2182436297
 20
55.2581265658
 10
-15.221855853
 20
55.2659376431
 10
-15.2257301176
 20
55.2740494099
 10
-15.2298673028
 20
55.282463867
 10
-15.2342695225
 20
55.2911546778
 10
-15.2389360969
 20
55.3001231284
 10
-15.2438677058
 20
55.3093687603
  0
LWPOLYLINE
  5
5D2
100
AcDbEntity
  8
RACCORDO
100
AcDbPolyline
 62
7
  6
CONTINUOUS
 90
8
 70
0
 10
-15.1681809859
 20
55.1144743275
 10
-15.1682670247
 20
55.1172335027
 10
-15.1705950158
 20
55.1396866838
 10
-15.1747845913
 20
55.1620093997
 10
-15.1806642815
 20
55.1843637053
 10
-15.1880613895
 20
55.20696883
 10
-15.1969648182
 20
55.2302893298
 10
-15.2074161377
 20
55.2546870616
  0
LWPOLYLINE
  5
5D3
100
AcDbEntity
  8
RACCORDO
100
AcDbPolyline
 62
7
  6
CONTINUOUS
 90
9
 70
0
 10
-15.1678506142
 20
55.103957607
 10
-15.1680549628
 20
55.1130322079
 10
-15.1700335683
 20
55.1356739875
 10
-15.1739405866
 20
55.1581812993
 10
-15.1795931068
 20
55.1806885519
 10
-15.1868098481
 20
55.2034109053
 10
-15.1955729913
 20
55.2268346332
 10
-15.2059162922
 20
55.2513303962
 10
-15.2191829427
 20
55.2797846804
  0
LINE
  5
5D4
100
AcDbEntity
  8
DRAFT
100
AcDbLine
 62
7
  6
CONTINUOUS
 10
-15.3983067282
 20
18.7193564275
 11
-15.3983067282
 21
12.7584397727
  0
LINE
  5
5D5
100
AcDbEntity
  8
DRAFT
100
AcDbLine
 62
7
  6
CONTINUOUS
 10
-15.3983067282
 20
49.3584397727
 11
-15.3983067282
 21
55.3193564275
  0
LINE
  5
5D6
100
AcDbEntity
  8
DRAFT
100
AcDbLine
 62
7
  6
CONTINUOUS
 10
-15.3678484008
 20
58.2089714248
 11
-15.3678484008
 21
46.4688247754
  0
LINE
  5
5D7
100
AcDbEntity
  8
DRAFT
100
AcDbLine
 62
7
  6
CONTINUOUS
 10
-15.3678484008
 20
21.6089714248
 11
-15.3678484008
 21
9.8688247754
  0
LINE
  5
5D8
100
AcDbEntity
  8
RACCORDO
100
AcDbLine
 62
7
  6
CONTINUOUS
 10
-15.3678484008
 20
21.6089714248
 11
-15.3678484008
 21
22.0591998751
  0
LINE
  5
5D9
100
AcDbEntity
  8
RACCORDO
100
AcDbLine
 62
7
  6
CONTINUOUS
 10
-15.3678484008
 20
46.0185963251
 11
-15.3678484008
 21
46.4688247754
  0
LINE
  5
5DA
100
AcDbEntity
  8
RACCORDO
100
AcDbLine
 62
7
  6
CONTINUOUS
 10
-15.2678484008
 20
-1.1401494382
 11
-15.2678484008
 21
69.2179456384
  0
LINE
  5
5DB
100
AcDbEntity
  8
RACCORDO
100
AcDbLine
 62
250
  6
CONTINUOUS
 10
-15.19464332
 20
43.7049235039
 11
-15.19464332
 21
44.2673758513
  0
LINE
  5
5DC
100
AcDbEntity
  8
RACCORDO
100
AcDbLine
 62
250
  6
CONTINUOUS
 10
-15.19464332
 20
50.664886263
 11
-15.19464332
 21
55.184432186
  0
LINE
  5
5DD
100
AcDbEntity
  8
RACCORDO
100
AcDbLine
 62
7
  6
CONTINUOUS
 10
-15.1678484008
 20
43.8049235039
 11
-15.1678484008
 21
44.5666792217
  0
LINE
  5
5DE
100
AcDbEntity
  8
RACCORDO
100
AcDbLine
 62
7
  6
CONTINUOUS
 10
-15.1678484008
 20
50.6550032401
 11
-15.167850605
 21
55.103957936
  0
LWPOLYLINE
  5
5DF
100
AcDbEntity
  8
RACCORDO
100
AcDbPolyline
 62
250
  6
CONTINUOUS
 90
8
 70
0
 10
-15.1678484008
 20
44.5666792217
 10
-15.1701380458
 20
44.5851761439
 10
-15.1769720309
 20
44.6033907234
 10
-15.1882460401
 20
44.6210449275
 10
-15.2037879834
 20
44.6378692771
 10
-15.223360624
 20
44.6536069603
 10
-15.2466651992
 20
44.6680177525
 10
-15.2678484008
 20
44.6782310676
  0
LWPOLYLINE
  5
5E0
100
AcDbEntity
  8
RACCORDO
100
AcDbPolyline
 62
7
  6
CONTINUOUS
 90
3
 70
0
 10
-15.2176082288
 20
55.2765381921
 10
-15.2304728816
 20
55.3022488586
 10
-15.2462548343
 20
55.331713865
  0
LINE
  5
5E1
100
AcDbEntity
  8
RACCORDO
100
AcDbLine
 62
7
  6
CONTINUOUS
 10
-15.2600898044
 20
55.3560801796
 11
-15.2678484008
 21
55.3690433986
  0
LINE
  5
5E2
100
AcDbEntity
  8
RACCORDO
100
AcDbLine
 62
7
  6
CONTINUOUS
 10
-15.2446379195
 20
55.3287831938
 11
-15.2616833013
 21
55.3588099549
  0
LWPOLYLINE
  5
5E3
100
AcDbEntity
  8
RACCORDO
100
AcDbPolyline
 62
250
  6
CONTINUOUS
 90
6
 70
0
 10
-15.2438677058
 20
55.3093687603
 10
-15.2490685027
 20
55.3188624865
 10
-15.2545401235
 20
55.3286109151
 10
-15.2602809322
 20
55.338607779
 10
-15.2662901743
 20
55.348804396
 10
-15.2678484008
 20
55.3513809721
  0
LINE
  5
5E4
100
AcDbEntity
  8
RACCORDO
100
AcDbLine
 62
7
  6
CONTINUOUS
 10
-15.2191829427
 20
55.2797846804
 11
-15.2320876033
 21
55.3053583581
  0
LWPOLYLINE
  5
5E5
100
AcDbEntity
  8
RACCORDO
100
AcDbPolyline
 62
250
  6
CONTINUOUS
 90
8
 70
0
 10
-15.19464332
 20
55.184432186
 10
-15.1891219042
 20
55.1761134298
 10
-15.1842052291
 20
55.1675479333
 10
-15.1799099336
 20
55.1587646782
 10
-15.1762505547
 20
55.1497933863
 10
-15.1732394756
 20
55.14066441
 10
-15.1708868852
 20
55.1314086288
 10
-15.1692007479
 20
55.1220573576
  0
LWPOLYLINE
  5
5E6
100
AcDbEntity
  8
0
100
AcDbPolyline
 62
7
  6
CONTINUOUS
 90
10
 70
0
 43
0.3500000006
 10
-18.8321343613
 20
78.4679425964
 10
-18.7607054443
 20
78.3250892944
 10
-18.7607054443
 20
78.2536581116
 10
-18.9035621452
 20
78.1108048096
 10
-18.9749910622
 20
78.1108048096
 10
-19.0464188461
 20
78.1822269287
 10
-19.0464188461
 20
78.2536581116
 10
-18.9749910622
 20
78.3965204773
 10
-18.9035621452
 20
78.4679425964
 10
-18.8321343613
 20
78.4679425964
  0
LWPOLYLINE
  5
5E7
100
AcDbEntity
  8
RACCORDO
100
AcDbPolyline
 62
250
  6
CONTINUOUS
 90
13
 70
0
 10
-17.3852973311
 20
60.1440026924
 10
-17.3864052389
 20
60.1450241765
 10
-17.3874184925
 20
60.148149611
 10
-17.3883404946
 20
60.1533429065
 10
-17.3891784615
 20
60.1605480299
 10
-17.3899304407
 20
60.1697189753
 10
-17.3905865654
 20
60.180847852
 10
-17.391150087
 20
60.1939126093
 10
-17.3916233906
 20
60.2088473343
 10
-17.3919958136
 20
60.2255901043
 10
-17.3922658901
 20
60.244083369
 10
-17.3924380692
 20
60.2642441311
 10
-17.3925093629
 20
60.2859519304
  0
LINE
  5
5E8
100
AcDbEntity
  8
RACCORDO
100
AcDbLine
 62
250
  6
CONTINUOUS
 10
-16.5283182498
 20
46.1888524017
 11
-17.3852981491
 21
46.1738937619
  0
LINE
  5
5E9
100
AcDbEntity
  8
RACCORDO
100
AcDbLine
 62
7
  6
CONTINUOUS
 10
-16.5178484008
 20
46.4888981001
 11
-17.5730841227
 21
46.4704788921
  0
LINE
  5
5EA
100
AcDbEntity
  8
RACCORDO
100
AcDbLine
 62
250
  6
CONTINUOUS
 10
-17.3852981491
 20
46.1738937619
 11
-17.8678484008
 21
46.1705245835
  0
LINE
  5
5EB
100
AcDbEntity
  8
RACCORDO
100
AcDbLine
 62
250
  6
CONTINUOUS
 10
-15.2678484008
 20
46.0168508186
 11
-15.3678484008
 21
46.0185963251
  0
LINE
  5
5EC
100
AcDbEntity
  8
RACCORDO
100
AcDbLine
 62
250
  6
CONTINUOUS
 10
-15.3678484008
 20
46.1685963251
 11
-16.5283182498
 21
46.1888524017
  0
LINE
  5
5ED
100
AcDbEntity
  8
RACCORDO
100
AcDbLine
 62
7
  6
CONTINUOUS
 10
-15.2678484008
 20
46.3170792689
 11
-15.3678484008
 21
46.3188247754
  0
LINE
  5
5EE
100
AcDbEntity
  8
RACCORDO
100
AcDbLine
 62
7
  6
CONTINUOUS
 10
-15.3678484008
 20
46.4688247754
 11
-16.5178484008
 21
46.4888981001
  0
LINE
  5
5EF
100
AcDbEntity
  8
DRAFT
100
AcDbLine
 62
7
  6
CONTINUOUS
 10
-15.3983067282
 20
49.3584397727
 11
-16.5178484008
 21
49.3388981001
  0
LINE
  5
5F0
100
AcDbEntity
  8
RACCORDO
100
AcDbLine
 62
250
  6
CONTINUOUS
 10
-15.3678484008
 20
48.1185506267
 11
-15.2678484008
 21
48.1168051202
  0
LINE
  5
5F1
100
AcDbEntity
  8
DRAFT
100
AcDbLine
 62
7
  6
CONTINUOUS
 10
-16.5178484008
 20
49.3388981001
 11
-17.6373900734
 21
49.3584397727
  0
LWPOLYLINE
  5
5F2
100
AcDbEntity
  8
RACCORDO
100
AcDbPolyline
 62
250
  6
CONTINUOUS
 90
10
 70
0
 10
-15.19464332
 20
50.664886263
 10
-15.18912187
 20
50.6638742247
 10
-15.1842051752
 20
50.6628321699
 10
-15.1799098719
 20
50.6617636246
 10
-15.1762504939
 20
50.6606722045
 10
-15.1732394231
 20
50.6595616024
 10
-15.1708868477
 20
50.6584355765
 10
-15.169200728
 20
50.6572979368
 10
-15.1681867688
 20
50.6561525328
 10
-15.1678484008
 20
50.6550032401
  0
LWPOLYLINE
  5
5F3
100
AcDbEntity
  8
RACCORDO
100
AcDbPolyline
 62
250
  6
CONTINUOUS
 90
30
 70
0
 10
-15.2678484008
 20
50.5668605546
 10
-15.2654580048
 20
50.5675364748
 10
-15.2607902889
 20
50.5691331336
 10
-15.256295116
 20
50.5709084641
 10
-15.2519715658
 20
50.572859049
 10
-15.2478205586
 20
50.5749878387
 10
-15.2438381791
 20
50.5772572903
 10
-15.2400231862
 20
50.5796666792
 10
-15.236376821
 20
50.5822167217
 10
-15.2328988907
 20
50.5848723127
 10
-15.2295913096
 20
50.5876313702
 10
-15.2264521635
 20
50.5904963602
 10
-15.2234755168
 20
50.5934392002
 10
-15.2206664087
 20
50.596450808
 10
-15.2180198
 20
50.599540898
 10
-15.2155146375
 20
50.6027095967
 10
-15.2131487855
 20
50.6059507721
 10
-15.2109243796
 20
50.6092711193
 10
-15.2088267738
 20
50.6126898738
 10
-15.2068490559
 20
50.6162088721
 10
-15.204998138
 20
50.6198267388
 10
-15.2032801099
 20
50.6235578283
 10
-15.2016932413
 20
50.6273845359
 10
-15.2002392626
 20
50.6313250629
 10
-15.1989294554
 20
50.635447448
 10
-15.1977482266
 20
50.639747614
 10
-15.1967111693
 20
50.6442302465
 10
-15.1958763439
 20
50.648976678
 10
-15.195263104
 20
50.6540145113
 10
-15.1948520961
 20
50.6593174561
  0
LINE
  5
5F4
100
AcDbEntity
  8
DRAFT
100
AcDbLine
 62
7
  6
CONTINUOUS
 10
-16.5178484008
 20
55.3388981001
 11
-17.6373900734
 21
55.3193564275
  0
LINE
  5
5F5
100
AcDbEntity
  8
DRAFT
100
AcDbLine
 62
7
  6
CONTINUOUS
 10
-15.3983067282
 20
55.3193564275
 11
-16.5178484008
 21
55.3388981001
  0
LINE
  5
5F6
100
AcDbEntity
  8
RACCORDO
100
AcDbLine
 62
250
  6
CONTINUOUS
 10
-15.3678484008
 20
56.5592455735
 11
-15.2678484008
 21
56.56099108
  0
LINE
  5
5F7
100
AcDbEntity
  8
RACCORDO
100
AcDbLine
 62
7
  6
CONTINUOUS
 10
-16.5178484008
 20
58.1888981001
 11
-15.2678484008
 21
58.2107169313
  0
LINE
  5
5F8
100
AcDbEntity
  8
RACCORDO
100
AcDbLine
 62
250
  6
CONTINUOUS
 10
-16.5283182498
 20
58.4889437985
 11
-15.2678484008
 21
58.5109453816
  0
LINE
  5
5F9
100
AcDbEntity
  8
RACCORDO
100
AcDbLine
 62
250
  6
CONTINUOUS
 10
-17.8678484008
 20
58.6449164233
 11
-17.3852981491
 21
58.6449164587
  0
LINE
  5
5FA
100
AcDbEntity
  8
RACCORDO
100
AcDbLine
 62
250
  6
CONTINUOUS
 10
-17.8678484008
 20
58.5072716167
 11
-17.3852981491
 21
58.5039024383
  0
LINE
  5
5FB
100
AcDbEntity
  8
RACCORDO
100
AcDbLine
 62
7
  6
CONTINUOUS
 10
-17.5730841227
 20
58.2073173081
 11
-16.5178484008
 21
58.1888981001
  0
LINE
  5
5FC
100
AcDbEntity
  8
RACCORDO
100
AcDbLine
 62
250
  6
CONTINUOUS
 10
-17.3852981491
 20
58.5039024383
 11
-16.5283182498
 21
58.4889437985
  0
LINE
  5
5FD
100
AcDbEntity
  8
RACCORDO
100
AcDbLine
 62
250
  6
CONTINUOUS
 10
-15.2678484008
 20
58.7188593979
 11
-17.3852981491
 21
58.6449164233
  0
LINE
  5
5FE
100
AcDbEntity
  8
RACCORDO
100
AcDbLine
 62
7
  6
CONTINUOUS
 10
-15.2678484008
 20
60.2179456384
 11
-17.3852981491
 21
60.1440026638
  0
LINE
  5
5FF
100
AcDbEntity
  8
RACCORDO
100
AcDbLine
 62
250
  6
CONTINUOUS
 10
-17.3852981491
 20
60.6436980773
 11
-15.2678484008
 21
60.7176410519
  0
LINE
  5
600
100
AcDbEntity
  8
0
100
AcDbLine
 62
250
  6
CONTINUOUS
 10
-21.4809368749
 20
59.8523131627
 11
-17.8678484008
 21
59.9469252141
  0
LINE
  5
601
100
AcDbEntity
  8
0
100
AcDbLine
 62
7
  6
CONTINUOUS
 10
-21.4809368749
 20
60.3521418252
 11
-17.8678484008
 21
60.4467538766
  0
LINE
  5
602
100
AcDbEntity
  8
0
100
AcDbLine
 62
250
  6
CONTINUOUS
 10
-21.4809368749
 20
59.8523131627
 11
-21.9678484008
 21
59.8523131627
  0
LINE
  5
603
100
AcDbEntity
  8
RACCORDO
100
AcDbLine
 62
250
  6
CONTINUOUS
 10
-17.8678484008
 20
60.6436980773
 11
-17.3852981491
 21
60.6436980773
  0
LINE
  5
604
100
AcDbEntity
  8
RACCORDO
100
AcDbLine
 62
250
  6
CONTINUOUS
 10
-17.3852981491
 20
67.6449164233
 11
-15.2678484008
 21
67.7188593979
  0
LINE
  5
605
100
AcDbEntity
  8
RACCORDO
100
AcDbLine
 62
7
  6
CONTINUOUS
 10
-17.3852981491
 20
69.1440026638
 11
-15.2678484008
 21
69.2179456384
  0
LINE
  5
606
100
AcDbEntity
  8
RACCORDO
100
AcDbLine
 62
250
  6
CONTINUOUS
 10
-17.8678484008
 20
67.6449164233
 11
-17.3852981491
 21
67.6449164233
  0
CIRCLE
  5
607
100
AcDbEntity
  8
RACCORDO
100
AcDbCircle
 62
250
  6
CONTINUOUS
 10
30.6126183094
 20
34.0388981001
 40
6.6954288672
  0
CIRCLE
  5
608
100
AcDbEntity
  8
RACCORDO
100
AcDbCircle
 62
250
  6
CONTINUOUS
 10
30.6126183094
 20
34.0388981001
 40
6.3954745587
  0
CIRCLE
  5
609
100
AcDbEntity
  8
DRAFT
100
AcDbCircle
 62
7
  6
CONTINUOUS
 10
30.6126183094
 20
34.0388981001
 40
6.35
  0
CIRCLE
  5
60A
100
AcDbEntity
  8
RACCORDO
100
AcDbCircle
 62
250
  6
CONTINUOUS
 10
60.6126183094
 20
34.0388981001
 40
6.6954288672
  0
CIRCLE
  5
60B
100
AcDbEntity
  8
RACCORDO
100
AcDbCircle
 62
250
  6
CONTINUOUS
 10
60.6126183094
 20
34.0388981001
 40
6.3954745587
  0
CIRCLE
  5
60C
100
AcDbEntity
  8
DRAFT
100
AcDbCircle
 62
7
  6
CONTINUOUS
 10
60.6126183094
 20
34.0388981001
 40
6.35
  0
CIRCLE
  5
60D
100
AcDbEntity
  8
RACCORDO
100
AcDbCircle
 62
250
  6
CONTINUOUS
 10
45.6126183094
 20
34.0388981001
 40
3.3490719406
  0
CIRCLE
  5
60E
100
AcDbEntity
  8
RACCORDO
100
AcDbCircle
 62
250
  6
CONTINUOUS
 10
45.6126183094
 20
34.0388981001
 40
3.0492546925
  0
CIRCLE
  5
60F
100
AcDbEntity
  8
0
100
AcDbCircle
 62
7
  6
CONTINUOUS
 10
45.6126183094
 20
34.0388981001
 40
3.0
  0
CIRCLE
  5
610
100
AcDbEntity
  8
RACCORDO
100
AcDbCircle
 62
250
  6
CONTINUOUS
 10
45.6126183094
 20
34.0388981001
 40
1.7425554073
  0
CIRCLE
  5
611
100
AcDbEntity
  8
RACCORDO
100
AcDbCircle
 62
250
  6
CONTINUOUS
 10
45.6126183094
 20
34.0388981001
 40
1.6547331331
  0
CIRCLE
  5
612
100
AcDbEntity
  8
DRAFT
100
AcDbCircle
 62
7
  6
CONTINUOUS
 10
45.6126183094
 20
34.0388981001
 40
1.6
  0
CIRCLE
  5
613
100
AcDbEntity
  8
RACCORDO
100
AcDbCircle
 62
250
  6
CONTINUOUS
 10
45.6126183094
 20
50.0388981001
 40
7.3454288672
  0
CIRCLE
  5
614
100
AcDbEntity
  8
RACCORDO
100
AcDbCircle
 62
250
  6
CONTINUOUS
 10
45.6126183094
 20
50.0388981001
 40
7.0454745587
  0
CIRCLE
  5
615
100
AcDbEntity
  8
DRAFT
100
AcDbCircle
 62
7
  6
CONTINUOUS
 10
45.6126183094
 20
50.0388981001
 40
7.0
  0
ARC
  5
616
100
AcDbEntity
  8
DRAFT
100
AcDbCircle
 62
7
  6
CONTINUOUS
 10
45.6126183094
 20
50.0388981001
 40
6.8788820339
100
AcDbArc
 50
241.9607319594
 51
298.0392680406
  0
ARC
  5
617
100
AcDbEntity
  8
DRAFT
100
AcDbCircle
 62
7
  6
CONTINUOUS
 10
45.6126183094
 20
50.0388981001
 40
6.8788820339
100
AcDbArc
 50
1.9607319594
 51
58.0392680406
  0
ARC
  5
618
100
AcDbEntity
  8
DRAFT
100
AcDbCircle
 62
7
  6
CONTINUOUS
 10
45.6126183094
 20
50.0388981001
 40
6.8788820339
100
AcDbArc
 50
121.9607319594
 51
178.0392680406
  0
ARC
  5
619
100
AcDbEntity
  8
RACCORDO
100
AcDbCircle
 62
7
  6
CONTINUOUS
 10
45.6126183094
 20
50.0388981001
 40
6.8319252468
100
AcDbArc
 50
302.3060594741
 51
357.6939405259
  0
ARC
  5
61A
100
AcDbEntity
  8
RACCORDO
100
AcDbCircle
 62
7
  6
CONTINUOUS
 10
45.6126183094
 20
50.0388981001
 40
6.8319252468
100
AcDbArc
 50
182.3060594741
 51
237.6939405259
  0
ARC
  5
61B
100
AcDbEntity
  8
RACCORDO
100
AcDbCircle
 62
7
  6
CONTINUOUS
 10
45.6126183094
 20
50.0388981001
 40
6.8319252468
100
AcDbArc
 50
62.3060594741
 51
117.6939405259
  0
CIRCLE
  5
61C
100
AcDbEntity
  8
RACCORDO
100
AcDbCircle
 62
250
  6
CONTINUOUS
 10
45.6126183094
 20
50.0388981001
 40
6.7864506881
  0
CIRCLE
  5
61D
100
AcDbEntity
  8
RACCORDO
100
AcDbCircle
 62
250
  6
CONTINUOUS
 10
45.6126183094
 20
50.0388981001
 40
6.4864963796
  0
ARC
  5
61E
100
AcDbEntity
  8
0
100
AcDbCircle
 62
7
  6
CONTINUOUS
 10
-21.4678484008
 20
8.2254830375
 40
0.5
100
AcDbArc
 50
180.0
 51
268.5
  0
ARC
  5
61F
100
AcDbEntity
  8
0
100
AcDbCircle
 62
7
  6
CONTINUOUS
 10
-21.4678484008
 20
59.8523131627
 40
0.5
100
AcDbArc
 50
91.5
 51
180.0
  0
ARC
  5
620
100
AcDbEntity
  8
0
100
AcDbCircle
 62
7
  6
CONTINUOUS
 10
-16.2678484008
 20
20.0388981001
 40
2.75
100
AcDbArc
 50
291.3329533239
 51
68.6670466761
  0
ARC
  5
621
100
AcDbEntity
  8
0
100
AcDbCircle
 62
7
  6
CONTINUOUS
 10
-16.2678484008
 20
20.0388981001
 40
1.5
100
AcDbArc
 50
311.8248039796
 51
48.1751960204
  0
ARC
  5
622
100
AcDbEntity
  8
COSMETICHE
100
AcDbCircle
 62
7
  6
CONTINUOUS
 10
-16.2678484008
 20
20.0388981001
 40
1.1932825
100
AcDbArc
 50
326.9448179389
 51
33.0542676482
  0
ARC
  5
623
100
AcDbEntity
  8
0
100
AcDbCircle
 62
7
  6
CONTINUOUS
 10
-16.2678484008
 20
20.0388981001
 40
1.1932825
100
AcDbArc
 50
326.971398194
 51
33.028601806
  0
ARC
  5
624
100
AcDbEntity
  8
RACCORDO
100
AcDbCircle
 62
7
  6
CONTINUOUS
 10
-17.3678484008
 20
-0.5665110501
 40
0.5
100
AcDbArc
 50
180.0
 51
268.0
  0
ARC
  5
625
100
AcDbEntity
  8
RACCORDO
100
AcDbCircle
 62
7
  6
CONTINUOUS
 10
-17.3678484008
 20
3.2334889499
 40
0.5
100
AcDbArc
 50
180.0
 51
268.0
  0
ARC
  5
626
100
AcDbEntity
  8
RACCORDO
100
AcDbCircle
 62
7
  6
CONTINUOUS
 10
-17.5678484008
 20
9.5705245835
 40
0.3
100
AcDbArc
 50
91.0
 51
180.0
  0
ARC
  5
627
100
AcDbEntity
  8
RACCORDO
100
AcDbCircle
 62
7
  6
CONTINUOUS
 10
-17.5678484008
 20
21.9072716167
 40
0.3
100
AcDbArc
 50
180.0
 51
268.9999999997
  0
ARC
  5
628
100
AcDbEntity
  8
RACCORDO
100
AcDbCircle
 62
7
  6
CONTINUOUS
 10
-17.3678484008
 20
59.6443072503
 40
0.5
100
AcDbArc
 50
92.0
 51
180.0
  0
ARC
  5
629
100
AcDbEntity
  8
RACCORDO
100
AcDbCircle
 62
7
  6
CONTINUOUS
 10
-17.3678484008
 20
68.6443072503
 40
0.5
100
AcDbArc
 50
92.0
 51
180.0
  0
ARC
  5
62A
100
AcDbEntity
  8
RACCORDO
100
AcDbCircle
 62
7
  6
CONTINUOUS
 10
-15.4678484008
 20
44.5666792217
 40
0.3
100
AcDbArc
 50
0.0000061452
 51
48.1363990712
  0
ARC
  5
62B
100
AcDbEntity
  8
RACCORDO
100
AcDbCircle
 62
7
  6
CONTINUOUS
 10
-15.4678484008
 20
50.6550032401
 40
0.3
100
AcDbArc
 50
311.8262435582
 51
360.0
  0
ARC
  5
62C
100
AcDbEntity
  8
RACCORDO
100
AcDbCircle
 62
7
  6
CONTINUOUS
 10
-17.5678484008
 20
58.5072716167
 40
0.3
100
AcDbArc
 50
180.0
 51
268.9999999997
  0
ARC
  5
62D
100
AcDbEntity
  8
RACCORDO
100
AcDbCircle
 62
7
  6
CONTINUOUS
 10
-17.5678484008
 20
46.1705245835
 40
0.3
100
AcDbArc
 50
91.0
 51
180.0
  0
ARC
  5
62E
100
AcDbEntity
  8
RACCORDO
100
AcDbCircle
 62
7
  6
CONTINUOUS
 10
-15.3678484008
 20
43.8049235039
 40
0.2
100
AcDbArc
 50
330.0
 51
360.0
  0
ELLIPSE
  5
62F
100
AcDbEntity
  8
RACCORDO
100
AcDbEllipse
 62
7
  6
CONTINUOUS
 10
46.8419923998
 20
49.3291186381
 30
0.0
 11
6.161896079
 21
-3.55757236
 31
0.0
 40
0.979895321
 41
1.7380083123
 42
1.7682212954
  0
ELLIPSE
  5
630
100
AcDbEntity
  8
RACCORDO
100
AcDbEllipse
 62
7
  6
CONTINUOUS
 10
45.6126183094
 20
51.4584570241
 30
0.0
 11
0.0
 21
7.1151447199
 31
0.0
 40
0.979895321
 41
-1.7682212954
 42
-1.7380083123
  0
ELLIPSE
  5
631
100
AcDbEntity
  8
RACCORDO
100
AcDbEllipse
 62
7
  6
CONTINUOUS
 10
44.383244219
 20
49.3291186381
 30
0.0
 11
6.161896079
 21
3.55757236
 31
0.0
 40
0.979895321
 41
-1.4035843413
 42
-1.3733713582
  0
ELLIPSE
  5
632
100
AcDbEntity
  8
RACCORDO
100
AcDbEllipse
 62
7
  6
CONTINUOUS
 10
46.8419923998
 20
49.3291186381
 30
0.0
 11
6.161896079
 21
-3.55757236
 31
0.0
 40
0.979895321
 41
-1.7682212954
 42
-1.7380083123
  0
ELLIPSE
  5
633
100
AcDbEntity
  8
RACCORDO
100
AcDbEllipse
 62
7
  6
CONTINUOUS
 10
45.6126183094
 20
51.4584570241
 30
0.0
 11
0.0
 21
7.1151447199
 31
0.0
 40
0.979895321
 41
-4.5451769949
 42
-4.5149640118
  0
ELLIPSE
  5
634
100
AcDbEntity
  8
RACCORDO
100
AcDbEllipse
 62
7
  6
CONTINUOUS
 10
44.383244219
 20
49.3291186381
 30
0.0
 11
6.161896079
 21
3.55757236
 31
0.0
 40
0.979895321
 41
1.3733713582
 42
1.4035843413
  0
ELLIPSE
  5
635
100
AcDbEntity
  8
RACCORDO
100
AcDbEllipse
 62
7
  6
CONTINUOUS
 10
80.4914829844
 20
9.5670335705
 30
0.0
 11
0.2685489265
 21
-0.1342335526
 31
0.0
 40
0.9992388003
 41
0.4632212593
 42
1.5707963902
  0
ELLIPSE
  5
636
100
AcDbEntity
  8
RACCORDO
100
AcDbEllipse
 62
7
  6
CONTINUOUS
 10
80.4914829844
 20
46.0170335705
 30
0.0
 11
0.2685489265
 21
-0.1342335526
 31
0.0
 40
0.9992388003
 41
0.4632212593
 42
0.6060623833
  0
ELLIPSE
  5
637
100
AcDbEntity
  8
RACCORDO
100
AcDbEllipse
 62
7
  6
CONTINUOUS
 10
80.4879909075
 20
21.9090171232
 30
0.0
 11
0.2685489265
 21
0.1342335526
 31
0.0
 40
0.9992388003
 41
-1.5707963868
 42
-0.4632212593
  0
ELLIPSE
  5
638
100
AcDbEntity
  8
RACCORDO
100
AcDbEllipse
 62
7
  6
CONTINUOUS
 10
10.7372457113
 20
46.168779077
 30
0.0
 11
-0.2685489265
 21
-0.1342335526
 31
0.0
 40
0.9992388003
 41
-1.5707963868
 42
-0.4632212593
  0
ELLIPSE
  5
639
100
AcDbEntity
  8
RACCORDO
100
AcDbEllipse
 62
7
  6
CONTINUOUS
 10
10.7337536344
 20
58.5107626297
 30
0.0
 11
0.2685489265
 21
-0.1342335526
 31
0.0
 40
0.9992388003
 41
-2.6783713943
 42
-1.5707962634
  0
ELLIPSE
  5
63A
100
AcDbEntity
  8
RACCORDO
100
AcDbEllipse
 62
7
  6
CONTINUOUS
 10
10.7337536344
 20
22.0607626297
 30
0.0
 11
0.2685489265
 21
-0.1342335526
 31
0.0
 40
0.9992388003
 41
-2.6783713943
 42
-2.5355302703
  0
ELLIPSE
  5
63B
100
AcDbEntity
  8
RACCORDO
100
AcDbEllipse
 62
7
  6
CONTINUOUS
 10
10.7372457113
 20
21.9090171232
 30
0.0
 11
0.2685489265
 21
-0.1342335526
 31
0.0
 40
0.9992388003
 41
-2.6783713943
 42
-1.5707962668
  0
ELLIPSE
  5
63C
100
AcDbEntity
  8
RACCORDO
100
AcDbEllipse
 62
7
  6
CONTINUOUS
 10
80.4879909075
 20
46.168779077
 30
0.0
 11
-0.2685489265
 21
0.1342335526
 31
0.0
 40
0.9992388003
 41
-2.6783713943
 42
-1.5707962668
  0
ELLIPSE
  5
63D
100
AcDbEntity
  8
RACCORDO
100
AcDbEllipse
 62
7
  6
CONTINUOUS
 10
77.4919706199
 20
60.7182504105
 30
0.0
 11
0.3539842723
 21
0.3539842723
 31
0.0
 40
0.998782766
 41
2.3568034778
 42
3.9263818294
  0
ELLIPSE
  5
63E
100
AcDbEntity
  8
RACCORDO
100
AcDbEllipse
 62
7
  6
CONTINUOUS
 10
18.9332659989
 20
65.9182504105
 30
0.0
 11
-0.3539842723
 21
0.3539842723
 31
0.0
 40
0.998782766
 41
2.3568034778
 42
3.9263818294
  0
ELLIPSE
  5
63F
100
AcDbEntity
  8
RACCORDO
100
AcDbEllipse
 62
7
  6
CONTINUOUS
 10
13.7332659989
 20
7.3595457896
 30
0.0
 11
-0.3539842723
 21
-0.3539842723
 31
0.0
 40
0.998782766
 41
2.3568034778
 42
3.9263818294
  0
ELLIPSE
  5
640
100
AcDbEntity
  8
RACCORDO
100
AcDbEllipse
 62
7
  6
CONTINUOUS
 10
72.2919706199
 20
2.1595457896
 30
0.0
 11
0.3539842723
 21
-0.3539842723
 31
0.0
 40
0.998782766
 41
2.3568034778
 42
3.9263818294
  0
ELLIPSE
  5
641
100
AcDbEntity
  8
RACCORDO
100
AcDbEllipse
 62
7
  6
CONTINUOUS
 10
70.0049050035
 20
45.046611406
 30
0.0
 11
-0.3643800228
 21
0.3643800228
 31
0.0
 40
0.9702875252
 41
2.3712736207
 42
3.9119116865
  0
ELLIPSE
  5
642
100
AcDbEntity
  8
RACCORDO
100
AcDbEllipse
 62
7
  6
CONTINUOUS
 10
68.5126373486
 20
45.046611406
 30
0.0
 11
0.0250982219
 21
0.5071113486
 31
0.0
 40
0.9847713852
 41
7.9041972679
 42
9.4734782471
  0
ELLIPSE
  5
643
100
AcDbEntity
  8
RACCORDO
100
AcDbEllipse
 62
7
  6
CONTINUOUS
 10
68.5126373486
 20
49.0311847942
 30
0.0
 11
0.0250982219
 21
-0.5071113486
 31
0.0
 40
0.9847713852
 41
9.3760776744
 42
10.9453586537
  0
ELLIPSE
  5
644
100
AcDbEntity
  8
RACCORDO
100
AcDbEllipse
 62
7
  6
CONTINUOUS
 10
70.0049050035
 20
49.0311847942
 30
0.0
 11
-0.3643800228
 21
-0.3643800228
 31
0.0
 40
0.9702875252
 41
2.3712736207
 42
3.9119116865
  0
ELLIPSE
  5
645
100
AcDbEntity
  8
RACCORDO
100
AcDbEllipse
 62
7
  6
CONTINUOUS
 10
22.7125992702
 20
23.0311847942
 30
0.0
 11
-0.0250982219
 21
-0.5071113486
 31
0.0
 40
0.9847713852
 41
7.9041972679
 42
9.4734782471
  0
ELLIPSE
  5
646
100
AcDbEntity
  8
RACCORDO
100
AcDbEllipse
 62
7
  6
CONTINUOUS
 10
22.7125992702
 20
19.046611406
 30
0.0
 11
-0.0250982219
 21
0.5071113486
 31
0.0
 40
0.9847713852
 41
9.3760776744
 42
10.9453586537
  0
ELLIPSE
  5
647
100
AcDbEntity
  8
RACCORDO
100
AcDbEllipse
 62
7
  6
CONTINUOUS
 10
21.2203316153
 20
23.0311847942
 30
0.0
 11
0.3643800228
 21
-0.3643800228
 31
0.0
 40
0.9702875252
 41
2.3712736207
 42
3.9119116865
  0
ELLIPSE
  5
648
100
AcDbEntity
  8
RACCORDO
100
AcDbEllipse
 62
7
  6
CONTINUOUS
 10
21.2203316153
 20
19.046611406
 30
0.0
 11
0.3643800228
 21
0.3643800228
 31
0.0
 40
0.9702875252
 41
2.3712736207
 42
3.9119116865
  0
ELLIPSE
  5
649
100
AcDbEntity
  8
RACCORDO
100
AcDbEllipse
 62
7
  6
CONTINUOUS
 10
68.5126373486
 20
23.0311847942
 30
0.0
 11
0.0250982219
 21
-0.5071113486
 31
0.0
 40
0.9847713852
 41
9.3760776744
 42
10.9453586537
  0
ELLIPSE
  5
64A
100
AcDbEntity
  8
RACCORDO
100
AcDbEllipse
 62
7
  6
CONTINUOUS
 10
68.5126373486
 20
19.046611406
 30
0.0
 11
0.0250982219
 21
0.5071113486
 31
0.0
 40
0.9847713852
 41
7.9041972679
 42
9.4734782471
  0
ELLIPSE
  5
64B
100
AcDbEntity
  8
RACCORDO
100
AcDbEllipse
 62
7
  6
CONTINUOUS
 10
70.0049050035
 20
19.046611406
 30
0.0
 11
-0.3643800228
 21
0.3643800228
 31
0.0
 40
0.9702875252
 41
2.3712736207
 42
3.9119116865
  0
ELLIPSE
  5
64C
100
AcDbEntity
  8
RACCORDO
100
AcDbEllipse
 62
7
  6
CONTINUOUS
 10
70.0049050035
 20
23.0311847942
 30
0.0
 11
-0.3643800228
 21
-0.3643800228
 31
0.0
 40
0.9702875252
 41
2.3712736207
 42
3.9119116865
  0
ELLIPSE
  5
64D
100
AcDbEntity
  8
RACCORDO
100
AcDbEllipse
 62
7
  6
CONTINUOUS
 10
22.7125992702
 20
49.0311847942
 30
0.0
 11
-0.0250982219
 21
-0.5071113486
 31
0.0
 40
0.9847713852
 41
7.9041972679
 42
9.4734782471
  0
ELLIPSE
  5
64E
100
AcDbEntity
  8
RACCORDO
100
AcDbEllipse
 62
7
  6
CONTINUOUS
 10
22.7125992702
 20
45.046611406
 30
0.0
 11
-0.0250982219
 21
0.5071113486
 31
0.0
 40
0.9847713852
 41
9.3760776744
 42
10.9453586537
  0
ELLIPSE
  5
64F
100
AcDbEntity
  8
RACCORDO
100
AcDbEllipse
 62
7
  6
CONTINUOUS
 10
21.2203316153
 20
45.046611406
 30
0.0
 11
0.3643800228
 21
0.3643800228
 31
0.0
 40
0.9702875252
 41
2.3712736207
 42
3.9119116865
  0
ELLIPSE
  5
650
100
AcDbEntity
  8
RACCORDO
100
AcDbEllipse
 62
7
  6
CONTINUOUS
 10
21.2203316153
 20
49.0311847942
 30
0.0
 11
0.3643800228
 21
-0.3643800228
 31
0.0
 40
0.9702875252
 41
2.3712736207
 42
3.9119116865
  0
ELLIPSE
  5
651
100
AcDbEntity
  8
RACCORDO
100
AcDbEllipse
 62
7
  6
CONTINUOUS
 10
10.7337536344
 20
46.0170335705
 30
0.0
 11
0.2685489265
 21
0.1342335526
 31
0.0
 40
0.9992388003
 41
2.5355302703
 42
2.6783713943
  0
ELLIPSE
  5
652
100
AcDbEntity
  8
RACCORDO
100
AcDbEllipse
 62
7
  6
CONTINUOUS
 10
11.9344850875
 20
63.917031322
 30
0.0
 11
-1.0619528169
 21
1.0619528169
 31
0.0
 40
0.998782766
 41
-0.7847891758
 42
0.7847891758
  0
ELLIPSE
  5
653
100
AcDbEntity
  8
RACCORDO
100
AcDbEllipse
 62
7
  6
CONTINUOUS
 10
20.9344850875
 20
67.717031322
 30
0.0
 11
-1.0619528169
 21
1.0619528169
 31
0.0
 40
0.998782766
 41
-0.7847891758
 42
0.7847891758
  0
ELLIPSE
  5
654
100
AcDbEntity
  8
RACCORDO
100
AcDbEllipse
 62
7
  6
CONTINUOUS
 10
75.4907515313
 20
67.717031322
 30
0.0
 11
1.0619528169
 21
1.0619528169
 31
0.0
 40
0.998782766
 41
-0.7847891758
 42
0.7847891758
  0
ELLIPSE
  5
655
100
AcDbEntity
  8
RACCORDO
100
AcDbEllipse
 62
7
  6
CONTINUOUS
 10
79.2907515313
 20
58.717031322
 30
0.0
 11
1.0619528169
 21
1.0619528169
 31
0.0
 40
0.998782766
 41
-0.7847891758
 42
0.7847891758
  0
ELLIPSE
  5
656
100
AcDbEntity
  8
RACCORDO
100
AcDbEllipse
 62
7
  6
CONTINUOUS
 10
80.4914829844
 20
58.5107626297
 30
0.0
 11
0.2685489265
 21
0.1342335526
 31
0.0
 40
0.9992388003
 41
-1.5707963902
 42
-0.4632212593
  0
ELLIPSE
  5
657
100
AcDbEntity
  8
RACCORDO
100
AcDbEllipse
 62
7
  6
CONTINUOUS
 10
80.4914829844
 20
22.0607626297
 30
0.0
 11
0.2685489265
 21
0.1342335526
 31
0.0
 40
0.9992388003
 41
-0.6060623833
 42
-0.4632212593
  0
ELLIPSE
  5
658
100
AcDbEntity
  8
RACCORDO
100
AcDbEllipse
 62
7
  6
CONTINUOUS
 10
79.2907515313
 20
4.1607648782
 30
0.0
 11
1.0619528169
 21
-1.0619528169
 31
0.0
 40
0.998782766
 41
-0.7847891758
 42
0.7847891758
  0
ELLIPSE
  5
659
100
AcDbEntity
  8
RACCORDO
100
AcDbEllipse
 62
7
  6
CONTINUOUS
 10
70.2907515313
 20
0.3607648782
 30
0.0
 11
-1.0619528169
 21
1.0619528169
 31
0.0
 40
0.998782766
 41
-3.9263818294
 42
-2.3568034778
  0
ELLIPSE
  5
65A
100
AcDbEntity
  8
RACCORDO
100
AcDbEllipse
 62
7
  6
CONTINUOUS
 10
15.7344850875
 20
0.3607648782
 30
0.0
 11
1.0619528169
 21
1.0619528169
 31
0.0
 40
0.998782766
 41
-3.9263818294
 42
-2.3568034778
  0
ELLIPSE
  5
65B
100
AcDbEntity
  8
RACCORDO
100
AcDbEllipse
 62
7
  6
CONTINUOUS
 10
11.9344850875
 20
9.3607648782
 30
0.0
 11
1.0619528169
 21
1.0619528169
 31
0.0
 40
0.998782766
 41
-3.9263818294
 42
-2.3568034778
  0
ELLIPSE
  5
65C
100
AcDbEntity
  8
RACCORDO
100
AcDbEllipse
 62
7
  6
CONTINUOUS
 10
10.7337536344
 20
9.5670335705
 30
0.0
 11
0.2685489265
 21
0.1342335526
 31
0.0
 40
0.9992388003
 41
1.5707962634
 42
2.6783713943
  0
ELLIPSE
  5
65D
100
AcDbEntity
  8
RACCORDO
100
AcDbEllipse
 62
7
  6
CONTINUOUS
 10
11.3626183094
 20
21.9072716167
 30
0.0
 11
-0.0
 21
0.3
 31
0.0
 40
1.0
 41
-2.9076592476
 42
-1.5707963268
  0
ELLIPSE
  5
65E
100
AcDbEntity
  8
RACCORDO
100
AcDbEllipse
 62
7
  6
CONTINUOUS
 10
11.3626183094
 20
9.5705245835
 30
0.0
 11
0.0
 21
0.3
 31
0.0
 40
1.0
 41
-1.5707963268
 42
-0.233933406
  0
ELLIPSE
  5
65F
100
AcDbEntity
  8
RACCORDO
100
AcDbEllipse
 62
7
  6
CONTINUOUS
 10
78.9179005273
 20
13.7651446992
 30
0.0
 11
0.3
 21
-0.0
 31
0.0
 40
0.0874886635
 41
1.5707963268
 42
3.1241393611
  0
ELLIPSE
  5
660
100
AcDbEntity
  8
RACCORDO
100
AcDbEllipse
 62
7
  6
CONTINUOUS
 10
78.9179005273
 20
50.3651446992
 30
0.0
 11
0.3
 21
-0.0
 31
0.0
 40
0.0874886635
 41
1.5707963268
 42
3.1241393611
  0
ELLIPSE
  5
661
100
AcDbEntity
  8
RACCORDO
100
AcDbEllipse
 62
7
  6
CONTINUOUS
 10
12.3073360915
 20
54.312651501
 30
0.0
 11
0.3
 21
-0.0
 31
0.0
 40
0.0874886635
 41
-1.5707963268
 42
-0.0174532925
  0
ELLIPSE
  5
662
100
AcDbEntity
  8
RACCORDO
100
AcDbEllipse
 62
7
  6
CONTINUOUS
 10
12.3073360915
 20
17.712651501
 30
0.0
 11
0.3
 21
0.0
 31
0.0
 40
0.0874886635
 41
-1.5707963268
 42
-0.0174532925
  0
ELLIPSE
  5
663
100
AcDbEntity
  8
RACCORDO
100
AcDbEllipse
 62
7
  6
CONTINUOUS
 10
79.8626183094
 20
9.5705245835
 30
0.0
 11
0.3
 21
0.0
 31
0.0
 40
1.0
 41
1.8047297328
 42
3.1415926536
  0
ELLIPSE
  5
664
100
AcDbEntity
  8
RACCORDO
100
AcDbEllipse
 62
7
  6
CONTINUOUS
 10
79.8626183094
 20
58.5072716167
 30
0.0
 11
0.3
 21
0.0
 31
0.0
 40
1.0
 41
-3.1415926536
 42
-1.8047297328
  0
ELLIPSE
  5
665
100
AcDbEntity
  8
RACCORDO
100
AcDbEllipse
 62
7
  6
CONTINUOUS
 10
79.8626183094
 20
46.1705245835
 30
0.0
 11
0.0
 21
0.3
 31
0.0
 40
1.0
 41
0.233933406
 42
1.5707963268
  0
ELLIPSE
  5
666
100
AcDbEntity
  8
RACCORDO
100
AcDbEllipse
 62
7
  6
CONTINUOUS
 10
79.8626183094
 20
21.9072716167
 30
0.0
 11
0.0
 21
0.3
 31
0.0
 40
1.0
 41
-4.7123889804
 42
-3.3755260596
  0
ELLIPSE
  5
667
100
AcDbEntity
  8
RACCORDO
100
AcDbEllipse
 62
7
  6
CONTINUOUS
 10
11.3626183094
 20
46.1705245835
 30
0.0
 11
-0.0
 21
0.3
 31
0.0
 40
1.0
 41
-1.5707963268
 42
-0.233933406
  0
ELLIPSE
  5
668
100
AcDbEntity
  8
RACCORDO
100
AcDbEllipse
 62
7
  6
CONTINUOUS
 10
11.3626183094
 20
58.5072716167
 30
0.0
 11
0.0
 21
0.3
 31
0.0
 40
1.0
 41
-2.9076592476
 42
-1.5707963268
  0
ELLIPSE
  5
669
100
AcDbEntity
  8
RACCORDO
100
AcDbEllipse
 62
7
  6
CONTINUOUS
 10
78.8433514637
 20
54.3301492337
 30
0.0
 11
0.5
 21
-0.0
 31
0.0
 40
0.0874886635
 41
-2.4354929104
 42
-1.5707963268
  0
ELLIPSE
  5
66A
100
AcDbEntity
  8
RACCORDO
100
AcDbEllipse
 62
7
  6
CONTINUOUS
 10
12.3818851551
 20
54.3301492337
 30
0.0
 11
0.5
 21
-0.0
 31
0.0
 40
0.0874886635
 41
-1.5707963268
 42
-0.7060997432
  0
ELLIPSE
  5
66B
100
AcDbEntity
  8
RACCORDO
100
AcDbEllipse
 62
7
  6
CONTINUOUS
 10
78.8433514637
 20
50.3476469664
 30
0.0
 11
0.5
 21
-0.0
 31
0.0
 40
0.0874886635
 41
1.5707963268
 42
2.4354929104
  0
ELLIPSE
  5
66C
100
AcDbEntity
  8
RACCORDO
100
AcDbEllipse
 62
7
  6
CONTINUOUS
 10
12.3818851551
 20
50.3476469664
 30
0.0
 11
0.5
 21
0.0
 31
0.0
 40
0.0874886635
 41
0.7060997432
 42
1.5707963268
  0
ELLIPSE
  5
66D
100
AcDbEntity
  8
RACCORDO
100
AcDbEllipse
 62
7
  6
CONTINUOUS
 10
78.8433514637
 20
13.7476469664
 30
0.0
 11
0.5
 21
-0.0
 31
0.0
 40
0.0874886635
 41
1.5707963268
 42
2.4354929104
  0
ELLIPSE
  5
66E
100
AcDbEntity
  8
RACCORDO
100
AcDbEllipse
 62
7
  6
CONTINUOUS
 10
12.3818851551
 20
13.7476469664
 30
0.0
 11
0.5
 21
-0.0
 31
0.0
 40
0.0874886635
 41
0.7060997432
 42
1.5707963268
  0
ELLIPSE
  5
66F
100
AcDbEntity
  8
RACCORDO
100
AcDbEllipse
 62
7
  6
CONTINUOUS
 10
78.8433514637
 20
17.7301492337
 30
0.0
 11
0.5
 21
-0.0
 31
0.0
 40
0.0874886635
 41
-2.4354929104
 42
-1.5707963268
  0
ELLIPSE
  5
670
100
AcDbEntity
  8
RACCORDO
100
AcDbEllipse
 62
7
  6
CONTINUOUS
 10
12.3818851551
 20
17.7301492337
 30
0.0
 11
0.5
 21
-0.0
 31
0.0
 40
0.0874886635
 41
-1.5707963268
 42
-0.7060997432
  0
ELLIPSE
  5
671
100
AcDbEntity
  8
0
100
AcDbEllipse
 62
7
  6
CONTINUOUS
 10
23.7549339292
 20
59.9465824803
 30
0.0
 11
-0.35379574
 21
0.35379574
 31
0.0
 40
0.999315002
 41
-0.7850555471
 42
0.7850555471
  0
ELLIPSE
  5
672
100
AcDbEntity
  8
0
100
AcDbEllipse
 62
7
  6
CONTINUOUS
 10
23.7549339292
 20
8.1312137199
 30
0.0
 11
0.35379574
 21
0.35379574
 31
0.0
 40
0.999315002
 41
2.3565371065
 42
3.9266482006
  0
ELLIPSE
  5
673
100
AcDbEntity
  8
0
100
AcDbEllipse
 62
7
  6
CONTINUOUS
 10
67.4703026896
 20
8.1312137199
 30
0.0
 11
0.35379574
 21
-0.35379574
 31
0.0
 40
0.999315002
 41
-0.7850555471
 42
0.7850555471
  0
ELLIPSE
  5
674
100
AcDbEntity
  8
0
100
AcDbEllipse
 62
7
  6
CONTINUOUS
 10
67.4703026896
 20
59.9465824803
 30
0.0
 11
-0.35379574
 21
-0.35379574
 31
0.0
 40
0.999315002
 41
2.3565371065
 42
3.9266482006
  0
ENDSEC
  0
SECTION
  2
OBJECTS
  0
DICTIONARY
  5
C
100
AcDbDictionary
280
0
281
1
  3
ACAD_GROUP
350
D
  3
ACAD_MLINESTYLE
350
17
  3
ACAD_LAYOUT
350
1A
  3
ACAD_PLOTSETTINGS
350
19
  3
ACAD_PLOTSTYLENAME
350
E
  0
DICTIONARY
  5
D
102
{ACAD_REACTORS
330
C
102
}
100
AcDbDictionary
280
0
281
1
  0
ACDBDICTIONARYWDFLT
  5
E
102
{ACAD_REACTORS
330
C
102
}
100
AcDbDictionary
281
1
  3
Normal
350
F
100
AcDbDictionaryWithDefault
340
F
  0
DICTIONARY
  5
17
102
{ACAD_REACTORS
330
C
102
}
100
AcDbDictionary
280
0
281
1
  3
Standard
350
18
  0
DICTIONARY
  5
19
102
{ACAD_REACTORS
330
C
102
}
100
AcDbDictionary
281
1
  0
DICTIONARY
  5
1A
102
{ACAD_REACTORS
330
C
102
}
100
AcDbDictionary
281
1
  3
Model
350
675
  3
Layout1
350
676
  0
ACDBPLACEHOLDER
  5
F
102
{ACAD_REACTORS
330
E
102
}
  0
MLINESTYLE
  5
18
102
{ACAD_REACTORS
330
17
102
}
100
AcDbMlineStyle
  2
STANDARD
 70
0
  3

 62
256
 51
90.0
 52
90.0
 71
2
 49
0.5
 62
256
  6
BYLAYER
 49
-0.5
 62
256
  6
BYLAYER
  0
LAYOUT
  5
675
102
{ACAD_REACTORS
330
1A
102
}
100
AcDbPlotSettings
  1

  2
none_device
  4
ISO_A4_(297.00_x_210.00_MM)
  6

 40
0.0
 41
0.0
 42
0.0
 43
0.0
 44
297.0
 45
210.0
 46
0.0
 47
0.0
 48
0.0
 49
0.0
140
0.0
141
0.0
142
1.0
143
1.0
 70
1024
 72
1
 73
0
 74
0
  7

 75
0
147
1.0
148
0.0
149
0.0
100
AcDbLayout
  1
Model
 70
0
 71
0
 10
0.0
 20
0.0
 11
297.0
 21
210.0
 12
0.0
 22
0.0
 32
0.0
 14
0.0
 24
0.0
 34
0.0
 15
0.0
 25
0.0
 35
0.0
146
0.0
 13
0.0
 23
0.0
 33
0.0
 16
1.0
 26
0.0
 36
0.0
 17
0.0
 27
1.0
 37
0.0
 76
0
330
213
345
0
346
0
  0
LAYOUT
  5
676
102
{ACAD_REACTORS
330
1A
102
}
100
AcDbPlotSettings
  1

  2
none_device
  4
ISO_A4_(297.00_x_210.00_MM)
  6

 40
0.0
 41
0.0
 42
0.0
 43
0.0
 44
297.0
 45
210.0
 46
0.0
 47
0.0
 48
0.0
 49
0.0
140
0.0
141
0.0
142
1.0
143
1.0
 70
0
 72
1
 73
0
 74
0
  7

 75
0
147
1.0
148
0.0
149
0.0
100
AcDbLayout
  1
Layout1
 70
0
 71
1
 10
0.0
 20
0.0
 11
297.0
 21
210.0
 12
0.0
 22
0.0
 32
0.0
 14
0.0
 24
0.0
 34
0.0
 15
0.0
 25
0.0
 35
0.0
146
0.0
 13
0.0
 23
0.0
 33
0.0
 16
1.0
 26
0.0
 36
0.0
 17
0.0
 27
1.0
 37
0.0
 76
0
330
214
345
0
346
0
  0
ENDSEC
  0
EOF
