  0
SECTION
  2
HEADER
  9
$ACADVER
  1
AC1024
  9
$DWGCODEPAGE
  3
ANSI_1252
  9
$EXTMAX
 10
420.0
 20
297.0
 30
0.0
  9
$EXTMIN
 10
0.0
 20
-0.0
 30
0.0
  9
$LIMMIN
 10
0.0
 20
-0.0
  9
$LIMMAX
 10
420.0
 20
297.0
  9
$VIEWCTR
 10
210.0
 20
148.5
  9
$VIEWSIZE
 40
297.0
  9
$CLAYER
  8
0
  9
$LTSCALE
 40
23.1
  9
$CELTYPE
  6
BYLAYER
  9
$DIMSCALE
 40
1.0
  9
$DIMASZ
 40
3.0
  9
$DIMEXO
 40
0.5
  9
$DIMDLI
 40
15.96
  9
$DIMEXE
 40
1.5
  9
$DIMCEN
 40
3.78
  9
$DIMLFAC
 40
1.0
  9
$DIMBLK
  1
_FILLED
  9
$DIMALT
 70
0
  9
$DIMALTF
 40
0.0393700787
  9
$DIMTXT
 40
3.0
  9
$DIMTOL
 70
1
  9
$DIMLIM
 70
0
  9
$DIMTFAC
 40
1.0
  9
$DIMTP
 40
0.01
  9
$DIMTM
 40
0.01
  9
$DIMGAP
 40
0.625
  9
$DIMDSEP
 70
44
  9
$AUNITS
 70
0
  9
$PDMODE
 70
3
  9
$PDSIZE
 40
3.0
  9
$HANDSEED
  5
494
  9
$TILEMODE
 70
1
  9
$MEASUREMENT
 70
1
  9
$INSUNITS
 70
4
  0
ENDSEC
  0
SECTION
  2
CLASSES
  0
CLASS
  1
ACDBDICTIONARYWDFLT
  2
AcDbDictionaryWithDefault
  3
AutoCAD 2000
 90
0
 91
1
280
0
281
0
  0
CLASS
  1
ACDBPLACEHOLDER
  2
AcDbPlaceHolder
  3
AutoCAD 2000
 90
0
 91
1
280
0
281
0
  0
CLASS
  1
LAYOUT
  2
AcDbLayout
  3
AutoCAD 2000
 90
0
 91
0
280
0
281
0
  0
ENDSEC
  0
SECTION
  2
TABLES
  0
TABLE
  2
VPORT
  5
8
100
AcDbSymbolTable
 70
2
  0
VPORT
  5
1F4
100
AcDbSymbolTableRecord
100
AcDbViewportTableRecord
  2
*ACTIVE
 70
0
 10
0.0
 20
0.0
 11
1.0
 21
1.0
 12
210.0
 22
148.5
 13
0.0
 23
0.0
 14
1.0
 24
1.0
 15
0.0
 25
0.0
 16
0.0
 26
0.0
 36
1.0
 17
0.0
 27
0.0
 37
0.0
 40
297.0
 41
1.4141414141
 42
50.0
 43
0.0
 44
0.0
 50
0.0
 51
0.0
 71
0
 72
100
 73
1
 74
1
 75
0
 76
0
 77
0
 78
0
  0
ENDTAB
  0
TABLE
  2
LTYPE
  5
5
100
AcDbSymbolTable
 70
6
  0
LTYPE
  5
14
100
AcDbSymbolTableRecord
100
AcDbLinetypeTableRecord
  2
BYBLOCK
 70
0
  3

 72
65
 73
0
 40
0.0
  0
LTYPE
  5
15
100
AcDbSymbolTableRecord
100
AcDbLinetypeTableRecord
  2
BYLAYER
 70
0
  3

 72
65
 73
0
 40
0.0
  0
LTYPE
  5
16
100
AcDbSymbolTableRecord
100
AcDbLinetypeTableRecord
  2
CONTINUOUS
 70
64
  3
Solid line
 72
65
 73
0
 40
0.0
  0
LTYPE
  5
1F5
100
AcDbSymbolTableRecord
100
AcDbLinetypeTableRecord
  2
CENTER
 70
64
  3
____ _ ____ _ ____ _ ____ _ ____ _ ____ _ ____
 72
65
 73
4
 40
0.6
 49
0.375
 74
0
 49
-0.075
 74
0
 49
0.075
 74
0
 49
-0.075
 74
0
  0
LTYPE
  5
1F6
100
AcDbSymbolTableRecord
100
AcDbLinetypeTableRecord
  2
HIDDEN
 70
64
  3
- - - - - - - - - - - - - - - - - - - -
 72
65
 73
2
 40
0.2
 49
0.1
 74
0
 49
-0.1
 74
0
  0
LTYPE
  5
1F7
100
AcDbSymbolTableRecord
100
AcDbLinetypeTableRecord
  2
PHANTOM
 70
64
  3
_____ _ _ _____ _ _ _____ _ _ _____
 72
65
 73
6
 40
0.8
 49
0.45
 74
0
 49
-0.05
 74
0
 49
0.1
 74
0
 49
-0.05
 74
0
 49
0.1
 74
0
 49
-0.05
 74
0
  0
LTYPE
  5
1F8
100
AcDbSymbolTableRecord
100
AcDbLinetypeTableRecord
  2
DOT
 70
64
  3
. . . . . . . . . . . . . . . . . . . .
 72
65
 73
2
 40
0.2
 49
0.1
 74
0
 49
-0.1
 74
0
  0
LTYPE
  5
1F9
100
AcDbSymbolTableRecord
100
AcDbLinetypeTableRecord
  2
DASHED
 70
64
  3
- - - - - - - - - - - - - - - - - - - -
 72
65
 73
2
 40
0.2
 49
0.1
 74
0
 49
-0.1
 74
0
  0
ENDTAB
  0
TABLE
  2
LAYER
  5
2
100
AcDbSymbolTable
 70
36
  0
LAYER
  5
10
100
AcDbSymbolTableRecord
100
AcDbLayerTableRecord
  2
0
 70
0
 62
7
  6
CONTINUOUS
370
-3
390
F
  0
LAYER
  5
1FA
100
AcDbSymbolTableRecord
100
AcDbLayerTableRecord
  2
DEFAULT_1
 70
0
 62
7
  6
CENTER
370
-3
390
F
  0
LAYER
  5
1FB
100
AcDbSymbolTableRecord
100
AcDbLayerTableRecord
  2
DEFAULT_2
 70
0
 62
7
  6
HIDDEN
370
-3
390
F
  0
LAYER
  5
1FC
100
AcDbSymbolTableRecord
100
AcDbLayerTableRecord
  2
DEFAULT_3
 70
0
 62
7
  6
PHANTOM
370
-3
390
F
  0
LAYER
  5
1FD
100
AcDbSymbolTableRecord
100
AcDbLayerTableRecord
  2
ASSI
 70
0
 62
7
  6
CONTINUOUS
370
-3
390
F
  0
LAYER
  5
1FE
100
AcDbSymbolTableRecord
100
AcDbLayerTableRecord
  2
COORDINATE
 70
0
 62
7
  6
CONTINUOUS
370
-3
390
F
  0
LAYER
  5
1FF
100
AcDbSymbolTableRecord
100
AcDbLayerTableRecord
  2
COPY_PUBLISH
 70
0
 62
7
  6
CONTINUOUS
370
-3
390
F
  0
LAYER
  5
200
100
AcDbSymbolTableRecord
100
AcDbLayerTableRecord
  2
COSMETICI
 70
0
 62
7
  6
CONTINUOUS
370
-3
390
F
  0
LAYER
  5
201
100
AcDbSymbolTableRecord
100
AcDbLayerTableRecord
  2
CURVE
 70
0
 62
7
  6
CONTINUOUS
370
-3
390
F
  0
LAYER
  5
202
100
AcDbSymbolTableRecord
100
AcDbLayerTableRecord
  2
DRAFT
 70
0
 62
7
  6
CONTINUOUS
370
-3
390
F
  0
LAYER
  5
203
100
AcDbSymbolTableRecord
100
AcDbLayerTableRecord
  2
IMPORT_IGES
 70
0
 62
7
  6
CONTINUOUS
370
-3
390
F
  0
LAYER
  5
204
100
AcDbSymbolTableRecord
100
AcDbLayerTableRecord
  2
INTF_1
 70
0
 62
7
  6
CONTINUOUS
370
-3
390
F
  0
LAYER
  5
205
100
AcDbSymbolTableRecord
100
AcDbLayerTableRecord
  2
INTF_11
 70
0
 62
7
  6
CONTINUOUS
370
-3
390
F
  0
LAYER
  5
206
100
AcDbSymbolTableRecord
100
AcDbLayerTableRecord
  2
INTF_2
 70
0
 62
7
  6
CONTINUOUS
370
-3
390
F
  0
LAYER
  5
207
100
AcDbSymbolTableRecord
100
AcDbLayerTableRecord
  2
INTF_8
 70
0
 62
7
  6
CONTINUOUS
370
-3
390
F
  0
LAYER
  5
208
100
AcDbSymbolTableRecord
100
AcDbLayerTableRecord
  2
INTF_9
 70
0
 62
7
  6
CONTINUOUS
370
-3
390
F
  0
LAYER
  5
209
100
AcDbSymbolTableRecord
100
AcDbLayerTableRecord
  2
LAY0001
 70
0
 62
7
  6
CONTINUOUS
370
-3
390
F
  0
LAYER
  5
20A
100
AcDbSymbolTableRecord
100
AcDbLayerTableRecord
  2
NOTE
 70
0
 62
7
  6
CONTINUOUS
370
-3
390
F
  0
LAYER
  5
20B
100
AcDbSymbolTableRecord
100
AcDbLayerTableRecord
  2
PIANI
 70
0
 62
7
  6
CONTINUOUS
370
-3
390
F
  0
LAYER
  5
20C
100
AcDbSymbolTableRecord
100
AcDbLayerTableRecord
  2
PUNTI
 70
0
 62
7
  6
CONTINUOUS
370
-3
390
F
  0
LAYER
  5
20D
100
AcDbSymbolTableRecord
100
AcDbLayerTableRecord
  2
RACCORDO
 70
0
 62
7
  6
CONTINUOUS
370
-3
390
F
  0
LAYER
  5
20E
100
AcDbSymbolTableRecord
100
AcDbLayerTableRecord
  2
SIMBOLI
 70
0
 62
7
  6
CONTINUOUS
370
-3
390
F
  0
LAYER
  5
20F
100
AcDbSymbolTableRecord
100
AcDbLayerTableRecord
  2
SMUSSO
 70
0
 62
7
  6
CONTINUOUS
370
-3
390
F
  0
LAYER
  5
210
100
AcDbSymbolTableRecord
100
AcDbLayerTableRecord
  2
SUPERFICI
 70
0
 62
7
  6
CONTINUOUS
370
-3
390
F
  0
LAYER
  5
211
100
AcDbSymbolTableRecord
100
AcDbLayerTableRecord
  2
TRASH
 70
0
 62
7
  6
CONTINUOUS
370
-3
390
F
  0
ENDTAB
  0
TABLE
  2
STYLE
  5
3
100
AcDbSymbolTable
 70
1
  0
STYLE
  5
11
100
AcDbSymbolTableRecord
100
AcDbTextStyleTableRecord
  2
STANDARD
 70
0
 40
0.0
 41
0.8
 50
0.0
 71
0
 42
0.2
  3
txt
  4

  0
STYLE
  5
212
100
AcDbSymbolTableRecord
100
AcDbTextStyleTableRecord
  2
TEXTSTYLE_1
 70
0
 40
0.0
 41
0.8
 50
0.0
 71
0
 42
0.2
  3
gdt
  4

  0
ENDTAB
  0
TABLE
  2
VIEW
  5
6
100
AcDbSymbolTable
 70
0
  0
ENDTAB
  0
TABLE
  2
UCS
  5
7
100
AcDbSymbolTable
 70
0
  0
ENDTAB
  0
TABLE
  2
APPID
  5
9
100
AcDbSymbolTable
 70
1
  0
APPID
  5
213
100
AcDbSymbolTableRecord
100
AcDbRegAppTableRecord
  2
ACAD
 70
0
  0
ENDTAB
  0
TABLE
  2
BLOCK_RECORD
  5
1
100
AcDbSymbolTable
 70
0
  0
BLOCK_RECORD
  5
214
100
AcDbSymbolTableRecord
100
AcDbBlockTableRecord
  2
*Model_Space
  0
BLOCK_RECORD
  5
215
100
AcDbSymbolTableRecord
100
AcDbBlockTableRecord
  2
*Paper_Space
  0
BLOCK_RECORD
  5
216
100
AcDbSymbolTableRecord
100
AcDbBlockTableRecord
  2
_FILLED
  0
BLOCK_RECORD
  5
217
100
AcDbSymbolTableRecord
100
AcDbBlockTableRecord
  2
*D0
  0
BLOCK_RECORD
  5
218
100
AcDbSymbolTableRecord
100
AcDbBlockTableRecord
  2
*D1
  0
BLOCK_RECORD
  5
219
100
AcDbSymbolTableRecord
100
AcDbBlockTableRecord
  2
*D2
  0
BLOCK_RECORD
  5
21A
100
AcDbSymbolTableRecord
100
AcDbBlockTableRecord
  2
*D3
  0
ENDTAB
  0
TABLE
  2
DIMSTYLE
  5
A
100
AcDbSymbolTable
 70
1
100
AcDbDimStyleTable
 71
0
  0
DIMSTYLE
105
21B
100
AcDbSymbolTableRecord
100
AcDbDimStyleTableRecord
  2
STANDARD
 70
0
  3

  4

 40
1.0
 41
3.0
 42
0.5
 43
0.38
 44
1.5
 45
0.0
 46
0.0
 47
0.01
 48
0.01
140
3.0
141
0.0
142
0.0
143
25.4
144
1.0
145
0.0
146
1.0
147
0.625
 71
1
 72
0
 73
0
 74
0
 75
0
 76
0
 77
1
 78
8
 79
2
170
0
171
1
172
0
173
0
174
0
175
0
176
0
177
0
178
0
270
2
179
1
271
2
272
2
273
2
274
2
275
0
280
0
281
0
282
0
283
1
284
8
285
0
286
0
287
3
288
0
340
11
278
44
341
216
342
216
343
216
344
216
  0
DIMSTYLE
105
21C
100
AcDbSymbolTableRecord
100
AcDbDimStyleTableRecord
  2
DIMSTYLE_1
 70
0
  3

  4

 40
1.0
 41
3.0
 42
0.5
 43
0.38
 44
1.5
 45
0.0
 46
0.0
 47
0.0
 48
0.0
140
3.0
141
0.0
142
0.0
143
25.4
144
1.0
145
0.0
146
1.0
147
0.75
 71
0
 72
0
 73
0
 74
0
 75
0
 76
0
 77
1
 78
8
 79
2
170
0
171
1
172
0
173
0
174
0
175
0
176
0
177
0
178
0
270
2
179
2
271
2
272
2
273
2
274
2
275
0
280
0
281
0
282
0
283
1
284
8
285
0
286
0
287
3
288
0
340
11
278
44
341
216
342
216
343
216
344
216
  0
ENDTAB
  0
ENDSEC
  0
SECTION
  2
BLOCKS
  0
BLOCK
  5
20
100
AcDbEntity
  8
0
100
AcDbBlockBegin
  2
*Model_Space
 70
0
 10
0.0
 20
0.0
 30
0.0
  3
*Model_Space
  1

  0
ENDBLK
  5
21
100
AcDbEntity
  8
0
100
AcDbBlockEnd
  0
BLOCK
  5
1C
100
AcDbEntity
  8
0
100
AcDbBlockBegin
  2
*Paper_Space
 70
0
 10
0.0
 20
0.0
 30
0.0
  3
*Paper_Space
  1

  0
ENDBLK
  5
1D
100
AcDbEntity
  8
0
100
AcDbBlockEnd
  0
BLOCK
  5
21D
100
AcDbEntity
  8
0
100
AcDbBlockBegin
  2
_FILLED
 70
64
 10
0.0
 20
0.0
 30
0.0
  3
_FILLED
  1

  0
SOLID
  5
21E
100
AcDbEntity
  8
0
  6
BYBLOCK
 62
0
100
AcDbTrace
 10
0.0
 20
0.0
 30
0.0
 11
-1.0
 21
0.3166666667
 31
0.0
 12
-1.0
 22
-0.3166666667
 32
0.0
 13
-1.0
 23
-0.3166666667
 33
0.0
  0
ENDBLK
  5
21F
100
AcDbEntity
  8
0
  6
BYBLOCK
 62
0
100
AcDbBlockEnd
  0
BLOCK
  5
220
100
AcDbEntity
  8
0
100
AcDbBlockBegin
 62
7
  6
CONTINUOUS
  2
*D0
 70
65
 10
0.0
 20
0.0
 30
0.0
  3
*D0
  1

  0
MTEXT
  5
221
100
AcDbEntity
  8
0
100
AcDbMText
 62
7
  6
CONTINUOUS
  7
STANDARD
 71
2
 72
1
 10
0.0
 20
37.4817037768
 30
0.0
 11
1.0
 21
0.0
 31
0.0
 73
2
 44
0.9
  1
{\ftxt;\W0.0001;\H0.0001;\~}{\ftxt;\W2.9285714286;\H3.0; }{\ftxt;\W0.0001;\H0.0001;\~}
 40
3.0
 41
13.1785714286
  0
LINE
  5
222
100
AcDbEntity
  8
0
100
AcDbLine
 62
7
  6
CONTINUOUS
 10
-11.1
 20
26.4001713375
 30
0.0
 11
-11.1
 21
35.2317037768
 31
0.0
  0
LINE
  5
223
100
AcDbEntity
  8
0
100
AcDbLine
 62
7
  6
CONTINUOUS
 10
11.1
 20
26.4001713375
 30
0.0
 11
11.1
 21
35.2317037768
 31
0.0
  0
LINE
  5
224
100
AcDbEntity
  8
0
100
AcDbLine
 62
7
  6
CONTINUOUS
 10
-11.1
 20
33.7317037768
 30
0.0
 11
0.0
 21
33.7317037768
 31
0.0
  0
LINE
  5
225
100
AcDbEntity
  8
0
100
AcDbLine
 62
7
  6
CONTINUOUS
 10
11.1
 20
33.7317037768
 30
0.0
 11
0.0
 21
33.7317037768
 31
0.0
  0
INSERT
  5
226
100
AcDbEntity
  8
0
100
AcDbBlockReference
 62
7
  6
CONTINUOUS
  2
_FILLED
 10
-11.1
 20
33.7317037768
 30
0.0
 41
3.0
 42
3.0
 43
3.0
 50
180.0
  0
INSERT
  5
227
100
AcDbEntity
  8
0
100
AcDbBlockReference
 62
7
  6
CONTINUOUS
  2
_FILLED
 10
11.1
 20
33.7317037768
 30
0.0
 41
3.0
 42
3.0
 43
3.0
  0
ENDBLK
  5
228
100
AcDbEntity
  8
0
  6
BYBLOCK
 62
0
100
AcDbBlockEnd
  0
BLOCK
  5
229
100
AcDbEntity
  8
0
100
AcDbBlockBegin
 62
7
  6
CONTINUOUS
  2
*D1
 70
65
 10
0.0
 20
0.0
 30
0.0
  3
*D1
  1

  0
MTEXT
  5
22A
100
AcDbEntity
  8
0
100
AcDbMText
 62
7
  6
CONTINUOUS
  7
STANDARD
 71
2
 72
1
 10
16.1478770671
 20
0.0
 30
0.0
 11
0.0
 21
1.0
 31
0.0
 73
2
 44
0.9
  1
{\ftxt;\W0.0001;\H0.0001;\~}{\ftxt;\W2.8571428571;\H3.0; }{\ftxt;\W0.0001;\H0.0001;\~}
 40
3.0
 41
12.8571428571
  0
LINE
  5
22B
100
AcDbEntity
  8
0
100
AcDbLine
 62
7
  6
CONTINUOUS
 10
11.1001713375
 20
26.4
 30
0.0
 11
21.3978770671
 21
26.4
 31
0.0
  0
LINE
  5
22C
100
AcDbEntity
  8
0
100
AcDbLine
 62
7
  6
CONTINUOUS
 10
11.1001713375
 20
-26.4
 30
0.0
 11
21.3978770671
 21
-26.4
 31
0.0
  0
LINE
  5
22D
100
AcDbEntity
  8
0
100
AcDbLine
 62
7
  6
CONTINUOUS
 10
19.8978770671
 20
26.4
 30
0.0
 11
19.8978770671
 21
0.0
 31
0.0
  0
LINE
  5
22E
100
AcDbEntity
  8
0
100
AcDbLine
 62
7
  6
CONTINUOUS
 10
19.8978770671
 20
-26.4
 30
0.0
 11
19.8978770671
 21
0.0
 31
0.0
  0
INSERT
  5
22F
100
AcDbEntity
  8
0
100
AcDbBlockReference
 62
7
  6
CONTINUOUS
  2
_FILLED
 10
19.8978770671
 20
26.4
 30
0.0
 41
3.0
 42
3.0
 43
3.0
 50
90.0
  0
INSERT
  5
230
100
AcDbEntity
  8
0
100
AcDbBlockReference
 62
7
  6
CONTINUOUS
  2
_FILLED
 10
19.8978770671
 20
-26.4
 30
0.0
 41
3.0
 42
3.0
 43
3.0
 50
270.0
  0
ENDBLK
  5
231
100
AcDbEntity
  8
0
  6
BYBLOCK
 62
0
100
AcDbBlockEnd
  0
BLOCK
  5
232
100
AcDbEntity
  8
0
100
AcDbBlockBegin
 62
7
  6
CONTINUOUS
  2
*D2
 70
65
 10
0.0
 20
0.0
 30
0.0
  3
*D2
  1

  0
MTEXT
  5
233
100
AcDbEntity
  8
0
100
AcDbMText
 62
7
  6
CONTINUOUS
  7
STANDARD
 71
2
 72
1
 10
-43.7174281881
 20
37.690204005
 30
0.0
 11
1.0
 21
0.0
 31
0.0
 73
2
 44
0.9
  1
{\ftxt;\W0.0001;\H0.0001;\~}{\ftxt;\W2.5;\H3.0; }{\ftxt;\W0.0001;\H0.0001;\~}
 40
3.0
 41
11.25
  0
LINE
  5
234
100
AcDbEntity
  8
0
100
AcDbLine
 62
7
  6
CONTINUOUS
 10
-50.7674281881
 20
22.25
 30
0.0
 11
-50.7674281881
 21
35.440204005
 31
0.0
  0
LINE
  5
235
100
AcDbEntity
  8
0
100
AcDbLine
 62
7
  6
CONTINUOUS
 10
-36.6674281881
 20
22.5857539406
 30
0.0
 11
-36.6674281881
 21
35.440204005
 31
0.0
  0
LINE
  5
236
100
AcDbEntity
  8
0
100
AcDbLine
 62
7
  6
CONTINUOUS
 10
-50.7674281881
 20
33.940204005
 30
0.0
 11
-43.7174281881
 21
33.940204005
 31
0.0
  0
LINE
  5
237
100
AcDbEntity
  8
0
100
AcDbLine
 62
7
  6
CONTINUOUS
 10
-36.6674281881
 20
33.940204005
 30
0.0
 11
-43.7174281881
 21
33.940204005
 31
0.0
  0
INSERT
  5
238
100
AcDbEntity
  8
0
100
AcDbBlockReference
 62
7
  6
CONTINUOUS
  2
_FILLED
 10
-50.7674281881
 20
33.940204005
 30
0.0
 41
3.0
 42
3.0
 43
3.0
 50
180.0
  0
INSERT
  5
239
100
AcDbEntity
  8
0
100
AcDbBlockReference
 62
7
  6
CONTINUOUS
  2
_FILLED
 10
-36.6674281881
 20
33.940204005
 30
0.0
 41
3.0
 42
3.0
 43
3.0
  0
ENDBLK
  5
23A
100
AcDbEntity
  8
0
  6
BYBLOCK
 62
0
100
AcDbBlockEnd
  0
BLOCK
  5
23B
100
AcDbEntity
  8
0
100
AcDbBlockBegin
 62
7
  6
CONTINUOUS
  2
*D3
 70
65
 10
0.0
 20
0.0
 30
0.0
  3
*D3
  1

  0
MTEXT
  5
23C
100
AcDbEntity
  8
0
100
AcDbMText
 62
7
  6
CONTINUOUS
  7
STANDARD
 71
2
 72
1
 10
-46.5674281881
 20
45.4229790033
 30
0.0
 11
1.0
 21
0.0
 31
0.0
 73
2
 44
0.9
  1
{\ftxt;\W0.0001;\H0.0001;\~}{\ftxt;\W2.7142857143;\H3.0; }{\ftxt;\W0.0001;\H0.0001;\~}
 40
3.0
 41
12.2142857143
  0
LINE
  5
23D
100
AcDbEntity
  8
0
100
AcDbLine
 62
7
  6
CONTINUOUS
 10
-56.4674281881
 20
26.3134150626
 30
0.0
 11
-56.4674281881
 21
43.1729790033
 31
0.0
  0
LINE
  5
23E
100
AcDbEntity
  8
0
100
AcDbLine
 62
7
  6
CONTINUOUS
 10
-36.6674281881
 20
22.5909910443
 30
0.0
 11
-36.6674281881
 21
43.1729790033
 31
0.0
  0
LINE
  5
23F
100
AcDbEntity
  8
0
100
AcDbLine
 62
7
  6
CONTINUOUS
 10
-56.4674281881
 20
41.6729790033
 30
0.0
 11
-46.5674281881
 21
41.6729790033
 31
0.0
  0
LINE
  5
240
100
AcDbEntity
  8
0
100
AcDbLine
 62
7
  6
CONTINUOUS
 10
-36.6674281881
 20
41.6729790033
 30
0.0
 11
-46.5674281881
 21
41.6729790033
 31
0.0
  0
INSERT
  5
241
100
AcDbEntity
  8
0
100
AcDbBlockReference
 62
7
  6
CONTINUOUS
  2
_FILLED
 10
-56.4674281881
 20
41.6729790033
 30
0.0
 41
3.0
 42
3.0
 43
3.0
 50
180.0
  0
INSERT
  5
242
100
AcDbEntity
  8
0
100
AcDbBlockReference
 62
7
  6
CONTINUOUS
  2
_FILLED
 10
-36.6674281881
 20
41.6729790033
 30
0.0
 41
3.0
 42
3.0
 43
3.0
  0
ENDBLK
  5
243
100
AcDbEntity
  8
0
  6
BYBLOCK
 62
0
100
AcDbBlockEnd
  0
ENDSEC
  0
SECTION
  2
ENTITIES
  0
DIMENSION
  5
244
100
AcDbEntity
  8
0
100
AcDbDimension
 62
7
  6
CONTINUOUS
  2
*D0
 10
11.1
 20
33.7317037768
 30
0.0
 11
-0.4285714245
 21
33.7317037768
 31
0.0
 70
160
 71
2
 72
2
 41
0.9
 42
22.2
  1
{\ftxt;\W0.0001;\H0.0001;\~}{\ftxt;\W2.9285714286;\H3.0; }{\ftxt;\W0.0001;\H0.0001;\~}
  3
DIMSTYLE_1
100
AcDbAlignedDimension
 13
-11.1
 23
25.9001713375
 33
0.0
 14
11.1
 24
25.9001713375
 34
0.0
100
AcDbRotatedDimension
  0
DIMENSION
  5
245
100
AcDbEntity
  8
0
100
AcDbDimension
 62
7
  6
CONTINUOUS
  2
*D1
 10
19.8978770671
 20
-26.4
 30
0.0
 11
19.8978770671
 21
-0.4285713638
 31
0.0
 70
160
 71
2
 72
2
 41
0.9
 42
52.8
  1
{\ftxt;\W0.0001;\H0.0001;\~}{\ftxt;\W2.8571428571;\H3.0; }{\ftxt;\W0.0001;\H0.0001;\~}
  3
DIMSTYLE_1
100
AcDbAlignedDimension
 13
10.6001713375
 23
26.4
 33
0.0
 14
10.6001713375
 24
-26.4
 34
0.0
 50
270.0
100
AcDbRotatedDimension
  0
DIMENSION
  5
246
100
AcDbEntity
  8
0
100
AcDbDimension
 62
7
  6
CONTINUOUS
  2
*D2
 10
-36.6674281881
 20
33.940204005
 30
0.0
 11
-44.1459999847
 21
33.940204005
 31
0.0
 70
160
 71
2
 72
2
 41
0.9
 42
14.1
  1
{\ftxt;\W0.0001;\H0.0001;\~}{\ftxt;\W2.5;\H3.0; }{\ftxt;\W0.0001;\H0.0001;\~}
  3
DIMSTYLE_1
100
AcDbAlignedDimension
 13
-50.7674281881
 23
21.75
 33
0.0
 14
-36.6674281881
 24
22.0857539406
 34
0.0
100
AcDbRotatedDimension
  0
DIMENSION
  5
247
100
AcDbEntity
  8
0
100
AcDbDimension
 62
7
  6
CONTINUOUS
  2
*D3
 10
-36.6674281881
 20
41.6729790033
 30
0.0
 11
-46.9960011292
 21
41.6729790033
 31
0.0
 70
160
 71
2
 72
2
 41
0.9
 42
19.8
  1
{\ftxt;\W0.0001;\H0.0001;\~}{\ftxt;\W2.7142857143;\H3.0; }{\ftxt;\W0.0001;\H0.0001;\~}
  3
DIMSTYLE_1
100
AcDbAlignedDimension
 13
-56.4674281881
 23
25.8134150626
 33
0.0
 14
-36.6674281881
 24
22.0909910443
 34
0.0
100
AcDbRotatedDimension
  0
LINE
  5
248
100
AcDbEntity
  8
LAY0001
100
AcDbLine
 62
7
  6
CONTINUOUS
 10
-3.5098403126
 20
-26.4
 30
0.0
 11
-3.25
 21
-26.3746065365
 31
0.0
  0
LINE
  5
249
100
AcDbEntity
  8
LAY0001
100
AcDbLine
 62
7
  6
CONTINUOUS
 10
-10.6001713375
 20
-26.4
 30
0.0
 11
-3.5098403126
 21
-26.4
 31
0.0
  0
LINE
  5
24A
100
AcDbEntity
  8
LAY0001
100
AcDbLine
 62
7
  6
CONTINUOUS
 10
3.5098403126
 20
-26.4
 30
0.0
 11
10.6001713375
 21
-26.4
 31
0.0
  0
LINE
  5
24B
100
AcDbEntity
  8
LAY0001
100
AcDbLine
 62
7
  6
CONTINUOUS
 10
-3.25
 20
-26.3746065365
 30
0.0
 11
3.25
 21
-26.3746065365
 31
0.0
  0
LINE
  5
24C
100
AcDbEntity
  8
LAY0001
100
AcDbLine
 62
250
  6
CONTINUOUS
 10
-10.5134150626
 20
-26.3132437251
 30
0.0
 11
10.5134150626
 21
-26.3132437251
 31
0.0
  0
LINE
  5
24D
100
AcDbEntity
  8
LAY0001
100
AcDbLine
 62
250
  6
CONTINUOUS
 10
11.0132437251
 20
-25.8134150626
 30
0.0
 11
-11.0132437251
 21
-25.8134150626
 31
0.0
  0
LINE
  5
24E
100
AcDbEntity
  8
LAY0001
100
AcDbLine
 62
7
  6
CONTINUOUS
 10
3.5098403126
 20
-26.4
 30
0.0
 11
3.25
 21
-26.3746065365
 31
0.0
  0
LINE
  5
24F
100
AcDbEntity
  8
LAY0001
100
AcDbLine
 62
7
  6
CONTINUOUS
 10
-11.1
 20
25.9001713375
 30
0.0
 11
-11.1
 21
-25.9001713375
 31
0.0
  0
LINE
  5
250
100
AcDbEntity
  8
LAY0001
100
AcDbLine
 62
250
  6
CONTINUOUS
 10
-11.0132437251
 20
-25.8134150626
 30
0.0
 11
-11.0132437251
 21
25.8134150626
 31
0.0
  0
LINE
  5
251
100
AcDbEntity
  8
LAY0001
100
AcDbLine
 62
250
  6
CONTINUOUS
 10
-10.5134150626
 20
-26.3132437251
 30
0.0
 11
-10.5134150626
 21
26.3132437251
 31
0.0
  0
LWPOLYLINE
  5
252
100
AcDbEntity
  8
0
100
AcDbPolyline
 62
7
  6
CONTINUOUS
 90
3
 70
0
 43
0.3499999917
 10
1.0357143259
 20
34.7674209595
 10
0.9642857552
 20
34.5531335449
 10
0.8214285636
 20
34.2674212646
  0
LINE
  5
253
100
AcDbEntity
  8
LAY0001
100
AcDbLine
 62
250
  6
CONTINUOUS
 10
10.6001713375
 20
26.4
 30
0.0
 11
10.5134150626
 21
26.3132437251
 31
0.0
  0
LINE
  5
254
100
AcDbEntity
  8
LAY0001
100
AcDbLine
 62
250
  6
CONTINUOUS
 10
11.1
 20
25.9001713375
 30
0.0
 11
11.0132437251
 21
25.8134150626
 31
0.0
  0
LINE
  5
255
100
AcDbEntity
  8
LAY0001
100
AcDbLine
 62
250
  6
CONTINUOUS
 10
10.5134150626
 20
-26.3132437251
 30
0.0
 11
10.6001713375
 21
-26.4
 31
0.0
  0
LINE
  5
256
100
AcDbEntity
  8
LAY0001
100
AcDbLine
 62
250
  6
CONTINUOUS
 10
11.0132437251
 20
-25.8134150626
 30
0.0
 11
11.1
 21
-25.9001713375
 31
0.0
  0
LINE
  5
257
100
AcDbEntity
  8
RACCORDO
100
AcDbLine
 62
250
  6
CONTINUOUS
 10
-7.5122947095
 20
-7.4624001754
 30
0.0
 11
-7.5122947095
 21
7.4624004457
 31
0.0
  0
LINE
  5
258
100
AcDbEntity
  8
RACCORDO
100
AcDbLine
 62
250
  6
CONTINUOUS
 10
-7.0123708619
 20
-7.4624013229
 30
0.0
 11
-7.0123708619
 21
7.4624013229
 31
0.0
  0
LINE
  5
259
100
AcDbEntity
  8
RACCORDO
100
AcDbLine
 62
7
  6
CONTINUOUS
 10
-7.0
 20
7.450030461
 30
0.0
 11
-7.0
 21
-7.450030461
 31
0.0
  0
LINE
  5
25A
100
AcDbEntity
  8
RACCORDO
100
AcDbLine
 62
250
  6
CONTINUOUS
 10
-6.8124013229
 20
8.1622947095
 30
0.0
 11
-6.8124013229
 21
7.6623708619
 31
0.0
  0
LINE
  5
25B
100
AcDbEntity
  8
RACCORDO
100
AcDbLine
 62
250
  6
CONTINUOUS
 10
-6.8124013229
 20
-8.1622947095
 30
0.0
 11
-6.8124013229
 21
-7.6623708619
 31
0.0
  0
LINE
  5
25C
100
AcDbEntity
  8
RACCORDO
100
AcDbLine
 62
250
  6
CONTINUOUS
 10
6.8124001754
 20
-8.1622947095
 30
0.0
 11
-6.8124004457
 21
-8.1622947095
 31
0.0
  0
LINE
  5
25D
100
AcDbEntity
  8
RACCORDO
100
AcDbLine
 62
250
  6
CONTINUOUS
 10
6.8124013229
 20
-7.6623708619
 30
0.0
 11
-6.8124013229
 21
-7.6623708619
 31
0.0
  0
LINE
  5
25E
100
AcDbEntity
  8
RACCORDO
100
AcDbLine
 62
7
  6
CONTINUOUS
 10
-6.800030461
 20
-7.65
 30
0.0
 11
6.800030461
 21
-7.65
 31
0.0
  0
LINE
  5
25F
100
AcDbEntity
  8
RACCORDO
100
AcDbLine
 62
250
  6
CONTINUOUS
 10
-7.5122947095
 20
-7.4624013229
 30
0.0
 11
-7.0123708619
 21
-7.4624013229
 31
0.0
  0
LINE
  5
260
100
AcDbEntity
  8
RACCORDO
100
AcDbLine
 62
250
  6
CONTINUOUS
 10
7.5122947095
 20
-7.4624013229
 30
0.0
 11
7.0123708619
 21
-7.4624013229
 31
0.0
  0
LINE
  5
261
100
AcDbEntity
  8
RACCORDO
100
AcDbLine
 62
250
  6
CONTINUOUS
 10
6.8124013229
 20
7.6623708619
 30
0.0
 11
6.800030461
 21
7.65
 31
0.0
  0
LINE
  5
262
100
AcDbEntity
  8
RACCORDO
100
AcDbLine
 62
250
  6
CONTINUOUS
 10
7.0123708619
 20
7.4624013229
 30
0.0
 11
7.0
 21
7.450030461
 31
0.0
  0
LINE
  5
263
100
AcDbEntity
  8
RACCORDO
100
AcDbLine
 62
250
  6
CONTINUOUS
 10
-7.0123708619
 20
-7.4624013229
 30
0.0
 11
-7.0
 21
-7.450030461
 31
0.0
  0
LINE
  5
264
100
AcDbEntity
  8
RACCORDO
100
AcDbLine
 62
250
  6
CONTINUOUS
 10
6.8124013229
 20
-7.6623708619
 30
0.0
 11
6.800030461
 21
-7.65
 31
0.0
  0
LINE
  5
265
100
AcDbEntity
  8
RACCORDO
100
AcDbLine
 62
250
  6
CONTINUOUS
 10
7.0123708619
 20
-7.4624013229
 30
0.0
 11
7.0
 21
-7.450030461
 31
0.0
  0
LINE
  5
266
100
AcDbEntity
  8
RACCORDO
100
AcDbLine
 62
250
  6
CONTINUOUS
 10
-7.0123708619
 20
7.4624013229
 30
0.0
 11
-7.0
 21
7.450030461
 31
0.0
  0
LINE
  5
267
100
AcDbEntity
  8
RACCORDO
100
AcDbLine
 62
250
  6
CONTINUOUS
 10
-6.8124013229
 20
-7.6623708619
 30
0.0
 11
-6.800030461
 21
-7.65
 31
0.0
  0
LWPOLYLINE
  5
268
100
AcDbEntity
  8
0
100
AcDbPolyline
 62
7
  6
CONTINUOUS
 90
4
 70
0
 43
0.3499999917
 10
18.7193053436
 20
1.9285716248
 10
17.8621620941
 20
1.9285716248
 10
17.4335920715
 20
2.3571432495
 10
17.4335920715
 20
2.9999990845
  0
LINE
  5
269
100
AcDbEntity
  8
RACCORDO
100
AcDbLine
 62
250
  6
CONTINUOUS
 10
-6.8124013229
 20
7.6623708619
 30
0.0
 11
-6.800030461
 21
7.65
 31
0.0
  0
LINE
  5
26A
100
AcDbEntity
  8
RACCORDO
100
AcDbLine
 62
250
  6
CONTINUOUS
 10
6.8124013229
 20
8.1622947095
 30
0.0
 11
6.8124013229
 21
7.6623708619
 31
0.0
  0
LINE
  5
26B
100
AcDbEntity
  8
RACCORDO
100
AcDbLine
 62
250
  6
CONTINUOUS
 10
6.8124013229
 20
-8.1622947095
 30
0.0
 11
6.8124013229
 21
-7.6623708619
 31
0.0
  0
LINE
  5
26C
100
AcDbEntity
  8
RACCORDO
100
AcDbLine
 62
7
  6
CONTINUOUS
 10
7.0
 20
-7.450030461
 30
0.0
 11
7.0
 21
7.450030461
 31
0.0
  0
LINE
  5
26D
100
AcDbEntity
  8
RACCORDO
100
AcDbLine
 62
250
  6
CONTINUOUS
 10
7.0123708619
 20
7.4624013229
 30
0.0
 11
7.0123708619
 21
-7.4624013229
 31
0.0
  0
LINE
  5
26E
100
AcDbEntity
  8
RACCORDO
100
AcDbLine
 62
250
  6
CONTINUOUS
 10
7.5122947095
 20
7.4624001754
 30
0.0
 11
7.5122947095
 21
-7.4624004457
 31
0.0
  0
LWPOLYLINE
  5
26F
100
AcDbEntity
  8
0
100
AcDbPolyline
 62
7
  6
CONTINUOUS
 90
10
 70
0
 43
0.3499999917
 10
18.6478772736
 20
0.857144165
 10
18.7907334137
 20
0.9285722351
 10
18.8621630859
 20
0.9285722351
 10
19.0050192261
 20
0.7857128906
 10
19.0050192261
 20
0.7142848206
 10
18.933591156
 20
0.6428567505
 10
18.8621630859
 20
0.6428567505
 10
18.7193053436
 20
0.7142848206
 10
18.6478772736
 20
0.7857128906
 10
18.6478772736
 20
0.857144165
  0
LINE
  5
270
100
AcDbEntity
  8
RACCORDO
100
AcDbLine
 62
250
  6
CONTINUOUS
 10
-7.5122947095
 20
7.4624013229
 30
0.0
 11
-7.0123708619
 21
7.4624013229
 31
0.0
  0
LINE
  5
271
100
AcDbEntity
  8
RACCORDO
100
AcDbLine
 62
250
  6
CONTINUOUS
 10
7.5122947095
 20
7.4624013229
 30
0.0
 11
7.0123708619
 21
7.4624013229
 31
0.0
  0
LINE
  5
272
100
AcDbEntity
  8
RACCORDO
100
AcDbLine
 62
7
  6
CONTINUOUS
 10
6.800030461
 20
7.65
 30
0.0
 11
-6.800030461
 21
7.65
 31
0.0
  0
LINE
  5
273
100
AcDbEntity
  8
RACCORDO
100
AcDbLine
 62
250
  6
CONTINUOUS
 10
-6.8124013229
 20
7.6623708619
 30
0.0
 11
6.8124013229
 21
7.6623708619
 31
0.0
  0
LINE
  5
274
100
AcDbEntity
  8
RACCORDO
100
AcDbLine
 62
250
  6
CONTINUOUS
 10
-6.8124001754
 20
8.1622947095
 30
0.0
 11
6.8124004457
 21
8.1622947095
 31
0.0
  0
LWPOLYLINE
  5
275
100
AcDbEntity
  8
0
100
AcDbPolyline
 62
7
  6
CONTINUOUS
 90
3
 70
0
 43
0.3499999917
 10
18.8621630859
 20
0.9285722351
 10
19.0764488983
 20
0.857144165
 10
19.3621627808
 20
0.7142848206
  0
LINE
  5
276
100
AcDbEntity
  8
LAY0001
100
AcDbLine
 62
250
  6
CONTINUOUS
 10
10.5134150626
 20
26.3132437251
 30
0.0
 11
10.5134150626
 21
-26.3132437251
 31
0.0
  0
LINE
  5
277
100
AcDbEntity
  8
LAY0001
100
AcDbLine
 62
250
  6
CONTINUOUS
 10
11.0132437251
 20
25.8134150626
 30
0.0
 11
11.0132437251
 21
-25.8134150626
 31
0.0
  0
LINE
  5
278
100
AcDbEntity
  8
LAY0001
100
AcDbLine
 62
7
  6
CONTINUOUS
 10
11.1
 20
-25.9001713375
 30
0.0
 11
11.1
 21
25.9001713375
 31
0.0
  0
LINE
  5
279
100
AcDbEntity
  8
LAY0001
100
AcDbLine
 62
250
  6
CONTINUOUS
 10
-11.1
 20
-25.9001713375
 30
0.0
 11
-11.0132437251
 21
-25.8134150626
 31
0.0
  0
LINE
  5
27A
100
AcDbEntity
  8
LAY0001
100
AcDbLine
 62
250
  6
CONTINUOUS
 10
-10.6001713375
 20
-26.4
 30
0.0
 11
-10.5134150626
 21
-26.3132437251
 31
0.0
  0
LINE
  5
27B
100
AcDbEntity
  8
LAY0001
100
AcDbLine
 62
250
  6
CONTINUOUS
 10
-11.0132437251
 20
25.8134150626
 30
0.0
 11
-11.1
 21
25.9001713375
 31
0.0
  0
LINE
  5
27C
100
AcDbEntity
  8
LAY0001
100
AcDbLine
 62
250
  6
CONTINUOUS
 10
-10.5134150626
 20
26.3132437251
 30
0.0
 11
-10.6001713375
 21
26.4
 31
0.0
  0
LWPOLYLINE
  5
27D
100
AcDbEntity
  8
0
100
AcDbPolyline
 62
7
  6
CONTINUOUS
 90
13
 70
0
 43
0.3499999917
 10
17.4335920715
 20
2.3571432495
 10
17.2193062592
 20
2.0714277649
 10
16.576448822
 20
2.0714277649
 10
16.1478771973
 20
2.3571432495
 10
16.1478771973
 20
2.9999990845
 10
16.576448822
 20
3.2857145691
 10
17.2193062592
 20
3.2857145691
 10
17.4335920715
 20
2.9999990845
 10
17.8621620941
 20
3.4285707092
 10
18.7193053436
 20
3.4285707092
 10
19.1478769684
 20
2.9999990845
 10
19.1478769684
 20
2.3571432495
 10
18.7193053436
 20
1.9285716248
  0
LWPOLYLINE
  5
27E
100
AcDbEntity
  8
0
100
AcDbPolyline
 62
7
  6
CONTINUOUS
 90
10
 70
0
 43
0.3499999917
 10
0.9642857552
 20
34.9817019653
 10
1.0357143259
 20
34.8388458252
 10
1.0357143259
 20
34.7674209595
 10
0.8928571844
 20
34.6245584106
 10
0.8214285636
 20
34.6245584106
 10
0.7499999928
 20
34.6959896851
 10
0.7499999928
 20
34.7674209595
 10
0.8214285636
 20
34.9102770996
 10
0.8928571844
 20
34.9817019653
 10
0.9642857552
 20
34.9817019653
  0
LWPOLYLINE
  5
27F
100
AcDbEntity
  8
0
100
AcDbPolyline
 62
7
  6
CONTINUOUS
 90
7
 70
0
 43
0.3499999917
 10
19.1478769684
 20
-0.6428581238
 10
19.1478769684
 20
-2.1428572083
 10
17.0050204468
 20
-0.6428581238
 10
16.576448822
 20
-0.6428581238
 10
16.1478771973
 20
-1.0714297485
 10
16.1478771973
 20
-1.7142855835
 10
16.7907346344
 20
-2.1428572083
  0
LWPOLYLINE
  5
280
100
AcDbEntity
  8
0
100
AcDbPolyline
 62
7
  6
CONTINUOUS
 90
8
 70
0
 43
0.3499999917
 10
19.1478769684
 20
-4.2857137299
 10
19.1478769684
 20
-3.4285720825
 10
18.7193053436
 20
-3.0000004578
 10
17.8621620941
 20
-3.0000004578
 10
17.4335920715
 20
-3.4285720825
 10
17.4335920715
 20
-4.2857137299
 10
16.1478771973
 20
-4.2857137299
 10
16.1478771973
 20
-3.0000004578
  0
LINE
  5
281
100
AcDbEntity
  8
LAY0001
100
AcDbLine
 62
7
  6
CONTINUOUS
 10
3.5098403126
 20
26.4
 30
0.0
 11
3.25
 21
26.3746065365
 31
0.0
  0
LINE
  5
282
100
AcDbEntity
  8
LAY0001
100
AcDbLine
 62
250
  6
CONTINUOUS
 10
11.0132437251
 20
25.8134150626
 30
0.0
 11
-11.0132437251
 21
25.8134150626
 31
0.0
  0
LINE
  5
283
100
AcDbEntity
  8
LAY0001
100
AcDbLine
 62
250
  6
CONTINUOUS
 10
10.5134150626
 20
26.3132437251
 30
0.0
 11
-10.5134150626
 21
26.3132437251
 31
0.0
  0
LINE
  5
284
100
AcDbEntity
  8
LAY0001
100
AcDbLine
 62
7
  6
CONTINUOUS
 10
-3.25
 20
26.3746065365
 30
0.0
 11
3.25
 21
26.3746065365
 31
0.0
  0
LINE
  5
285
100
AcDbEntity
  8
LAY0001
100
AcDbLine
 62
7
  6
CONTINUOUS
 10
10.6001713375
 20
26.4
 30
0.0
 11
3.5098403126
 21
26.4
 31
0.0
  0
LINE
  5
286
100
AcDbEntity
  8
LAY0001
100
AcDbLine
 62
7
  6
CONTINUOUS
 10
-3.5098403126
 20
26.4
 30
0.0
 11
-10.6001713375
 21
26.4
 31
0.0
  0
LINE
  5
287
100
AcDbEntity
  8
LAY0001
100
AcDbLine
 62
7
  6
CONTINUOUS
 10
-3.5098403126
 20
26.4
 30
0.0
 11
-3.25
 21
26.3746065365
 31
0.0
  0
LWPOLYLINE
  5
288
100
AcDbEntity
  8
0
100
AcDbPolyline
 62
7
  6
CONTINUOUS
 90
7
 70
0
 43
0.3499999917
 10
3.5357143021
 20
34.4817022705
 10
2.0357142162
 20
34.4817022705
 10
3.5357143021
 20
36.6245635986
 10
3.5357143021
 20
37.053132019
 10
3.1071428776
 20
37.4817068481
 10
2.4642856407
 20
37.4817068481
 10
2.0357142162
 20
36.8388446045
  0
LWPOLYLINE
  5
289
100
AcDbEntity
  8
0
100
AcDbPolyline
 62
7
  6
CONTINUOUS
 90
7
 70
0
 43
0.3499999917
 10
-0.5357142806
 20
34.4817022705
 10
-2.0357142162
 20
34.4817022705
 10
-0.5357142806
 20
36.6245635986
 10
-0.5357142806
 20
37.053132019
 10
-0.9642857552
 20
37.4817068481
 10
-1.6071428919
 20
37.4817068481
 10
-2.0357142162
 20
36.8388446045
  0
LWPOLYLINE
  5
28A
100
AcDbEntity
  8
0
100
AcDbPolyline
 62
7
  6
CONTINUOUS
 90
7
 70
0
 43
0.3499999917
 10
-2.8928570652
 20
34.4817022705
 10
-4.392857151
 20
34.4817022705
 10
-2.8928570652
 20
36.6245635986
 10
-2.8928570652
 20
37.053132019
 10
-3.3214284897
 20
37.4817068481
 10
-3.9642855263
 20
37.4817068481
 10
-4.392857151
 20
36.8388446045
  0
LWPOLYLINE
  5
28B
100
AcDbEntity
  8
0
100
AcDbPolyline
 62
7
  6
CONTINUOUS
 90
3
 70
0
 43
0.3499999917
 10
-50.6388583374
 20
44.5658358765
 10
-49.7817150879
 20
45.422979126
 10
-49.7817150879
 20
42.422980957
  0
LWPOLYLINE
  5
28C
100
AcDbEntity
  8
0
100
AcDbPolyline
 62
7
  6
CONTINUOUS
 90
10
 70
0
 43
0.3499999917
 10
-48.4960002136
 20
42.422980957
 10
-47.6388569641
 20
43.2801242065
 10
-47.4245695496
 20
44.1372674561
 10
-47.4245695496
 20
44.9944107056
 10
-47.8531411743
 20
45.422979126
 10
-48.4960002136
 20
45.422979126
 10
-48.9245718384
 20
44.9944107056
 10
-48.9245718384
 20
44.1372674561
 10
-48.4960002136
 20
43.708692627
 10
-47.567428894
 20
43.708692627
  0
LWPOLYLINE
  5
28D
100
AcDbEntity
  8
0
100
AcDbPolyline
 62
7
  6
CONTINUOUS
 90
3
 70
0
 43
0.3499999917
 10
-47.4674276733
 20
36.8330639648
 10
-46.6102844238
 20
37.6902008057
 10
-46.6102844238
 20
34.6902026367
  0
LINE
  5
28E
100
AcDbEntity
  8
LAY0001
100
AcDbLine
 62
7
  6
CONTINUOUS
 10
-55.9805166622
 20
-26.3132437251
 30
0.0
 11
-52.6674281881
 21
-26.4
 31
0.0
  0
LINE
  5
28F
100
AcDbEntity
  8
LAY0001
100
AcDbLine
 62
250
  6
CONTINUOUS
 10
-55.9805166622
 20
-25.8134150626
 30
0.0
 11
-56.4674281881
 21
-25.8134150626
 31
0.0
  0
LINE
  5
290
100
AcDbEntity
  8
ASSI
100
AcDbLine
 62
7
  6
CONTINUOUS
 10
-48.374607865
 20
-24.75
 30
0.0
 11
-48.1782755194
 21
-24.75
 31
0.0
  0
LINE
  5
291
100
AcDbEntity
  8
ASSI
100
AcDbLine
 62
250
  6
CONTINUOUS
 10
-48.3711173837
 20
-24.5674284937
 30
0.0
 11
-48.1747850381
 21
-24.5674284937
 31
0.0
  0
LINE
  5
292
100
AcDbEntity
  8
ASSI
100
AcDbLine
 62
7
  6
CONTINUOUS
 10
-52.6674281881
 20
-24.55
 30
0.0
 11
-52.0208935856
 21
-24.55
 31
0.0
  0
LINE
  5
293
100
AcDbEntity
  8
ASSI
100
AcDbLine
 62
250
  6
CONTINUOUS
 10
-52.6674281881
 20
-24.3674284937
 30
0.0
 11
-52.0174031044
 21
-24.3674284937
 31
0.0
  0
LINE
  5
294
100
AcDbEntity
  8
LAY0001
100
AcDbLine
 62
250
  6
CONTINUOUS
 10
-55.9805166622
 20
-25.8134150626
 30
0.0
 11
-52.6674281881
 21
-25.9001713375
 31
0.0
  0
LWPOLYLINE
  5
295
100
AcDbEntity
  8
0
100
AcDbPolyline
 62
7
  6
CONTINUOUS
 90
3
 70
0
 43
0.3499999917
 10
-41.6817123413
 20
36.8330639648
 10
-40.8245722961
 20
37.6902008057
 10
-40.8245722961
 20
34.6902026367
  0
LINE
  5
296
100
AcDbEntity
  8
ASSI
100
AcDbLine
 62
250
  6
CONTINUOUS
 10
-49.8007455799
 20
23.1310564437
 30
0.0
 11
-49.3639377068
 21
23.2900415076
 31
0.0
  0
LINE
  5
297
100
AcDbEntity
  8
ASSI
100
AcDbLine
 62
7
  6
CONTINUOUS
 10
-49.7358322167
 20
22.9431178525
 30
0.0
 11
-49.2990241594
 21
23.1021029835
 31
0.0
  0
LINE
  5
298
100
AcDbEntity
  8
ASSI
100
AcDbLine
 62
7
  6
CONTINUOUS
 10
-40.3358957219
 20
-23.2329629131
 30
0.0
 11
-38.1073688789
 21
-22.6358309453
 31
0.0
  0
LINE
  5
299
100
AcDbEntity
  8
RACCORDO
100
AcDbLine
 62
7
  6
CONTINUOUS
 10
-36.7786053313
 20
-22.2797898257
 30
0.0
 11
-38.1841353609
 21
-22.6564004621
 31
0.0
  0
LINE
  5
29A
100
AcDbEntity
  8
RACCORDO
100
AcDbLine
 62
250
  6
CONTINUOUS
 10
-38.1044645519
 20
-22.4594131032
 30
0.0
 11
-36.7764270861
 21
-22.1035665367
 31
0.0
  0
LINE
  5
29B
100
AcDbEntity
  8
ASSI
100
AcDbLine
 62
250
  6
CONTINUOUS
 10
-40.3841690496
 20
-23.0572062416
 30
0.0
 11
-38.2324086886
 21
-22.4806437906
 31
0.0
  0
LINE
  5
29C
100
AcDbEntity
  8
0
100
AcDbLine
 62
7
  6
CONTINUOUS
 10
-52.6674281881
 20
-22.9786116689
 30
0.0
 11
-51.1674281881
 21
-22.9
 31
0.0
  0
LINE
  5
29D
100
AcDbEntity
  8
ASSI
100
AcDbLine
 62
7
  6
CONTINUOUS
 10
-49.3639377068
 20
-23.9423373592
 30
0.0
 11
-52.6674281881
 21
-24.0
 31
0.0
  0
LINE
  5
29E
100
AcDbEntity
  8
ASSI
100
AcDbLine
 62
250
  6
CONTINUOUS
 10
-49.3639377068
 20
-23.7423678201
 30
0.0
 11
-52.6674281881
 21
-23.800030461
 31
0.0
  0
LINE
  5
29F
100
AcDbEntity
  8
RACCORDO
100
AcDbLine
 62
7
  6
CONTINUOUS
 10
-51.1674281881
 20
-22.7
 30
0.0
 11
-52.5691734287
 21
-22.7244675542
 31
0.0
  0
LINE
  5
2A0
100
AcDbEntity
  8
ASSI
100
AcDbLine
 62
250
  6
CONTINUOUS
 10
-49.1674281881
 20
-23.7423678201
 30
0.0
 11
-49.3639377068
 21
-23.7423678201
 31
0.0
  0
LINE
  5
2A1
100
AcDbEntity
  8
ASSI
100
AcDbLine
 62
250
  6
CONTINUOUS
 10
-49.1674281881
 20
-23.2900415076
 30
0.0
 11
-49.3639377068
 21
-23.2900415076
 31
0.0
  0
LINE
  5
2A2
100
AcDbEntity
  8
ASSI
100
AcDbLine
 62
7
  6
CONTINUOUS
 10
-40.4653052444
 20
-23.25
 30
0.0
 11
-44.5181258133
 21
-23.25
 31
0.0
  0
LINE
  5
2A3
100
AcDbEntity
  8
ASSI
100
AcDbLine
 62
250
  6
CONTINUOUS
 10
-41.5280096233
 20
-23.0674284937
 30
0.0
 11
-40.4618147631
 21
-23.0674284937
 31
0.0
  0
LINE
  5
2A4
100
AcDbEntity
  8
ASSI
100
AcDbLine
 62
250
  6
CONTINUOUS
 10
-42.8037328531
 20
-23.0674284937
 30
0.0
 11
-44.514635332
 21
-23.0674284937
 31
0.0
  0
LINE
  5
2A5
100
AcDbEntity
  8
ASSI
100
AcDbLine
 62
250
  6
CONTINUOUS
 10
-46.0949378046
 20
-23.05
 30
0.0
 11
-45.2310970708
 21
-23.05
 31
0.0
  0
LINE
  5
2A6
100
AcDbEntity
  8
ASSI
100
AcDbLine
 62
250
  6
CONTINUOUS
 10
-41.7091590134
 20
-23.05
 30
0.0
 11
-42.6184104479
 21
-23.05
 31
0.0
  0
LINE
  5
2A7
100
AcDbEntity
  8
ASSI
100
AcDbLine
 62
250
  6
CONTINUOUS
 10
-49.8674281881
 20
-22.7551793284
 30
0.0
 11
-50.0639377067
 21
-22.7551793282
 31
0.0
  0
LINE
  5
2A8
100
AcDbEntity
  8
RACCORDO
100
AcDbLine
 62
250
  6
CONTINUOUS
 10
-52.6674281881
 20
-22.5244980152
 30
0.0
 11
-52.5691734287
 21
-22.5244980152
 31
0.0
  0
LINE
  5
2A9
100
AcDbEntity
  8
ASSI
100
AcDbLine
 62
250
  6
CONTINUOUS
 10
-49.8007457641
 20
-23.1310563767
 30
0.0
 11
-49.3639377068
 21
-23.2900415076
 31
0.0
  0
LINE
  5
2AA
100
AcDbEntity
  8
ASSI
100
AcDbLine
 62
7
  6
CONTINUOUS
 10
-49.7358322167
 20
-22.9431178525
 30
0.0
 11
-49.2990241594
 21
-23.1021029835
 31
0.0
  0
LINE
  5
2AB
100
AcDbEntity
  8
ASSI
100
AcDbLine
 62
7
  6
CONTINUOUS
 10
-49.867428188
 20
-21.9000000001
 30
0.0
 11
-44.4674281881
 21
-21.7114278447
 31
0.0
  0
LINE
  5
2AC
100
AcDbEntity
  8
RACCORDO
100
AcDbLine
 62
250
  6
CONTINUOUS
 10
-38.1942115265
 20
-21.45277448
 30
0.0
 11
-39.6551130965
 21
-21.4800211566
 31
0.0
  0
LINE
  5
2AD
100
AcDbEntity
  8
RACCORDO
100
AcDbLine
 62
250
  6
CONTINUOUS
 10
-44.4796439422
 20
-21.3655459497
 30
0.0
 11
-43.3148103271
 21
-21.3449527215
 31
0.0
  0
LINE
  5
2AE
100
AcDbEntity
  8
RACCORDO
100
AcDbLine
 62
250
  6
CONTINUOUS
 10
-52.5691734287
 20
-22.5244980152
 30
0.0
 11
-51.1674281881
 21
-22.500030461
 31
0.0
  0
LINE
  5
2AF
100
AcDbEntity
  8
RACCORDO
100
AcDbLine
 62
7
  6
CONTINUOUS
 10
-51.3639377068
 20
-21.9318643202
 30
0.0
 11
-52.6674281881
 21
-21.9546168312
 31
0.0
  0
LINE
  5
2B0
100
AcDbEntity
  8
RACCORDO
100
AcDbLine
 62
7
  6
CONTINUOUS
 10
-36.7764270861
 20
-21.5771809211
 30
0.0
 11
-38.0651966071
 21
-21.5996764768
 31
0.0
  0
LINE
  5
2B1
100
AcDbEntity
  8
RACCORDO
100
AcDbLine
 62
7
  6
CONTINUOUS
 10
-38.5527169559
 20
-21.6081861762
 30
0.0
 11
-44.4674281881
 21
-21.7114278447
 31
0.0
  0
LINE
  5
2B2
100
AcDbEntity
  8
RACCORDO
100
AcDbLine
 62
250
  6
CONTINUOUS
 10
-51.3639377068
 20
-21.7318947812
 30
0.0
 11
-52.6674281881
 21
-21.7546472922
 31
0.0
  0
LINE
  5
2B3
100
AcDbEntity
  8
RACCORDO
100
AcDbLine
 62
250
  6
CONTINUOUS
 10
-39.8048432727
 20
-21.3800801985
 30
0.0
 11
-43.020046049
 21
-21.4362017717
 31
0.0
  0
LINE
  5
2B4
100
AcDbEntity
  8
RACCORDO
100
AcDbLine
 62
250
  6
CONTINUOUS
 10
-43.020046049
 20
-21.0575843199
 30
0.0
 11
-39.8048432727
 21
-21.0104927285
 31
0.0
  0
LINE
  5
2B5
100
AcDbEntity
  8
RACCORDO
100
AcDbLine
 62
250
  6
CONTINUOUS
 10
-43.020046049
 20
-20.8114198794
 30
0.0
 11
-39.8048593389
 21
-20.7643285233
 31
0.0
  0
LINE
  5
2B6
100
AcDbEntity
  8
RACCORDO
100
AcDbLine
 62
250
  6
CONTINUOUS
 10
-39.8048593389
 20
-20.6784772056
 30
0.0
 11
-43.020046049
 21
-20.7255685616
 31
0.0
  0
LINE
  5
2B7
100
AcDbEntity
  8
0
100
AcDbLine
 62
7
  6
CONTINUOUS
 10
-50.0639377068
 20
-21.1892297568
 30
0.0
 11
-51.1674281881
 21
-21.197818284
 31
0.0
  0
LINE
  5
2B8
100
AcDbEntity
  8
RACCORDO
100
AcDbLine
 62
250
  6
CONTINUOUS
 10
-51.1674281881
 20
-21.7318947812
 30
0.0
 11
-51.3639377068
 21
-21.7318947812
 31
0.0
  0
LINE
  5
2B9
100
AcDbEntity
  8
RACCORDO
100
AcDbLine
 62
250
  6
CONTINUOUS
 10
-39.8048432727
 20
-21.3800801985
 30
0.0
 11
-39.6574621635
 21
-21.3800801985
 31
0.0
  0
LINE
  5
2BA
100
AcDbEntity
  8
RACCORDO
100
AcDbLine
 62
250
  6
CONTINUOUS
 10
-43.1674281881
 20
-21.0575843199
 30
0.0
 11
-43.020046049
 21
-21.0575843199
 31
0.0
  0
LINE
  5
2BB
100
AcDbEntity
  8
RACCORDO
100
AcDbLine
 62
250
  6
CONTINUOUS
 10
-39.8048432727
 20
-21.0104927285
 30
0.0
 11
-39.6574621635
 21
-21.0104927285
 31
0.0
  0
LINE
  5
2BC
100
AcDbEntity
  8
RACCORDO
100
AcDbLine
 62
250
  6
CONTINUOUS
 10
-36.7764860619
 20
-20.6108625115
 30
0.0
 11
-36.6674281881
 21
-20.6108625115
 31
0.0
  0
LINE
  5
2BD
100
AcDbEntity
  8
RACCORDO
100
AcDbLine
 62
250
  6
CONTINUOUS
 10
-39.8048593389
 20
-20.432312765
 30
0.0
 11
-43.020046049
 21
-20.4794041211
 31
0.0
  0
LINE
  5
2BE
100
AcDbEntity
  8
RACCORDO
100
AcDbLine
 62
250
  6
CONTINUOUS
 10
-43.1674281881
 20
-20.4794041211
 30
0.0
 11
-43.020046049
 21
-20.4794041211
 31
0.0
  0
LINE
  5
2BF
100
AcDbEntity
  8
RACCORDO
100
AcDbLine
 62
250
  6
CONTINUOUS
 10
-39.8048593389
 20
-20.432312765
 30
0.0
 11
-39.6574771999
 21
-20.432312765
 31
0.0
  0
LINE
  5
2C0
100
AcDbEntity
  8
RACCORDO
100
AcDbLine
 62
250
  6
CONTINUOUS
 10
-39.3898673583
 20
-20.2133949976
 30
0.0
 11
-39.4070214761
 21
-20.2133954657
 31
0.0
  0
LINE
  5
2C1
100
AcDbEntity
  8
RACCORDO
100
AcDbLine
 62
250
  6
CONTINUOUS
 10
-39.3898673606
 20
-20.1355199983
 30
0.0
 11
-39.4070214761
 21
-20.1355199983
 31
0.0
  0
LINE
  5
2C2
100
AcDbEntity
  8
RACCORDO
100
AcDbLine
 62
250
  6
CONTINUOUS
 10
-43.167428188
 20
-20.0152251762
 30
0.0
 11
-43.0200445769
 21
-20.0152250314
 31
0.0
  0
LINE
  5
2C3
100
AcDbEntity
  8
RACCORDO
100
AcDbLine
 62
250
  6
CONTINUOUS
 10
-39.8048593389
 20
-19.3083972004
 30
0.0
 11
-39.6574771999
 21
-19.3083972004
 31
0.0
  0
LINE
  5
2C4
100
AcDbEntity
  8
RACCORDO
100
AcDbLine
 62
7
  6
CONTINUOUS
 10
-39.3149803174
 20
-20.4172447277
 30
0.0
 11
-36.8148103271
 21
-20.4608853572
 31
0.0
  0
LINE
  5
2C5
100
AcDbEntity
  8
RACCORDO
100
AcDbLine
 62
250
  6
CONTINUOUS
 10
-46.6674281881
 20
-19.8696624492
 30
0.0
 11
-43.3148103271
 21
-19.9281826116
 31
0.0
  0
LINE
  5
2C6
100
AcDbEntity
  8
RACCORDO
100
AcDbLine
 62
7
  6
CONTINUOUS
 10
-46.6674281881
 20
-19.8110927272
 30
0.0
 11
-43.3148103271
 21
-19.8696128897
 31
0.0
  0
LINE
  5
2C7
100
AcDbEntity
  8
RACCORDO
100
AcDbLine
 62
7
  6
CONTINUOUS
 10
-39.6574771999
 20
-19.9334518769
 30
0.0
 11
-39.5624853796
 21
-19.9351099653
 31
0.0
  0
LINE
  5
2C8
100
AcDbEntity
  8
RACCORDO
100
AcDbLine
 62
250
  6
CONTINUOUS
 10
-43.3149681833
 20
-19.6696405953
 30
0.0
 11
-46.6674281881
 21
-19.6111231882
 31
0.0
  0
LINE
  5
2C9
100
AcDbEntity
  8
DRAFT
100
AcDbLine
 62
7
  6
CONTINUOUS
 10
-52.0845080325
 20
-19.1316838962
 30
0.0
 11
-52.6674281881
 21
-19.121508987
 31
0.0
  0
LINE
  5
2CA
100
AcDbEntity
  8
RACCORDO
100
AcDbLine
 62
250
  6
CONTINUOUS
 10
-39.199000022
 20
-20.567221882
 30
0.0
 11
-36.7764860619
 21
-20.6108625115
 31
0.0
  0
LINE
  5
2CB
100
AcDbEntity
  8
RACCORDO
100
AcDbLine
 62
250
  6
CONTINUOUS
 10
-39.6574771999
 20
-20.0808564664
 30
0.0
 11
-39.4306397074
 21
-20.0850871196
 31
0.0
  0
LWPOLYLINE
  5
2CC
100
AcDbEntity
  8
RACCORDO
100
AcDbPolyline
 62
7
  6
CONTINUOUS
 90
20
 70
0
 10
-39.3147031424
 20
-20.4172494606
 10
-39.3181236553
 20
-20.417092889
 10
-39.3228826007
 20
-20.4164144004
 10
-39.3260995093
 20
-20.4155303164
 10
-39.329225642
 20
-20.4141999559
 10
-39.3325874498
 20
-20.4121665517
 10
-39.3362712408
 20
-20.4092392035
 10
-39.3409219499
 20
-20.4045839958
 10
-39.3464710081
 20
-20.3976963987
 10
-39.3524734133
 20
-20.3885623363
 10
-39.3586726093
 20
-20.3770824076
 10
-39.3647932441
 20
-20.3633173019
 10
-39.3705813725
 20
-20.3474613645
 10
-39.3758506337
 20
-20.3296766111
 10
-39.3804141591
 20
-20.3102560083
 10
-39.38416102
 20
-20.2894785623
 10
-39.3870490584
 20
-20.2674088055
 10
-39.3889580399
 20
-20.2444017754
 10
-39.3898155019
 20
-20.2208666822
 10
-39.3898673827
 20
-20.2133949977
  0
LINE
  5
2CD
100
AcDbEntity
  8
RACCORDO
100
AcDbLine
 62
7
  6
CONTINUOUS
 10
-51.1674281881
 20
19.8976915844
 30
0.0
 11
-51.8825383309
 21
19.2146914084
 31
0.0
  0
LINE
  5
2CE
100
AcDbEntity
  8
ASSI
100
AcDbLine
 62
7
  6
CONTINUOUS
 10
-51.1674281881
 20
-18.1797752868
 30
0.0
 11
-52.6659804483
 21
-18.2216459366
 31
0.0
  0
LINE
  5
2CF
100
AcDbEntity
  8
RACCORDO
100
AcDbLine
 62
250
  6
CONTINUOUS
 10
-52.5304646059
 20
-17.8634645229
 30
0.0
 11
-51.1677171047
 21
-17.8552081401
 31
0.0
  0
LINE
  5
2D0
100
AcDbEntity
  8
RACCORDO
100
AcDbLine
 62
250
  6
CONTINUOUS
 10
-52.5656829474
 20
-17.5505958365
 30
0.0
 11
-52.6674281881
 21
-17.5505958365
 31
0.0
  0
LINE
  5
2D1
100
AcDbEntity
  8
RACCORDO
100
AcDbLine
 62
250
  6
CONTINUOUS
 10
-46.6674281881
 20
-17.5152351079
 30
0.0
 11
-46.8148103271
 21
-17.5152351079
 31
0.0
  0
LINE
  5
2D2
100
AcDbEntity
  8
RACCORDO
100
AcDbLine
 62
7
  6
CONTINUOUS
 10
-52.5703100967
 20
-17.937267749
 30
0.0
 11
-51.1674281881
 21
-17.9774493518
 31
0.0
  0
LINE
  5
2D3
100
AcDbEntity
  8
RACCORDO
100
AcDbLine
 62
250
  6
CONTINUOUS
 10
-39.8048593389
 20
-19.3083972004
 30
0.0
 11
-46.6674281881
 21
-17.8974249446
 31
0.0
  0
LINE
  5
2D4
100
AcDbEntity
  8
RACCORDO
100
AcDbLine
 62
7
  6
CONTINUOUS
 10
-39.7772684839
 20
-19.1106041012
 30
0.0
 11
-46.6674281881
 21
-17.6939590527
 31
0.0
  0
LINE
  5
2D5
100
AcDbEntity
  8
RACCORDO
100
AcDbLine
 62
7
  6
CONTINUOUS
 10
-51.1674281881
 20
-19.8976915844
 30
0.0
 11
-51.8825383309
 21
-19.2146914084
 31
0.0
  0
LINE
  5
2D6
100
AcDbEntity
  8
ASSI
100
AcDbLine
 62
7
  6
CONTINUOUS
 10
-48.5478129458
 20
24.65
 30
0.0
 11
-49.0096931611
 21
23.85
 31
0.0
  0
LINE
  5
2D7
100
AcDbEntity
  8
ASSI
100
AcDbLine
 62
250
  6
CONTINUOUS
 10
-48.3711173837
 20
24.5674284937
 30
0.0
 11
-48.8329975991
 21
23.7674284937
 31
0.0
  0
LINE
  5
2D8
100
AcDbEntity
  8
ASSI
100
AcDbLine
 62
7
  6
CONTINUOUS
 10
-49.0096931611
 20
-23.85
 30
0.0
 11
-48.5478129458
 21
-24.65
 31
0.0
  0
LINE
  5
2D9
100
AcDbEntity
  8
ASSI
100
AcDbLine
 62
250
  6
CONTINUOUS
 10
-48.8329972409
 20
-23.7674291142
 30
0.0
 11
-48.3711173837
 21
-24.5674284937
 31
0.0
  0
LWPOLYLINE
  5
2DA
100
AcDbEntity
  8
0
100
AcDbPolyline
 62
7
  6
CONTINUOUS
 90
3
 70
0
 43
0.3499999917
 10
-45.853142395
 20
42.7086932373
 10
-45.9245704651
 20
42.4944058228
 10
-46.0674266052
 20
42.2086935425
  0
LINE
  5
2DB
100
AcDbEntity
  8
LAY0001
100
AcDbLine
 62
7
  6
CONTINUOUS
 10
-56.4674281881
 20
25.8134150626
 30
0.0
 11
-56.4674281881
 21
-25.8134150626
 31
0.0
  0
LINE
  5
2DC
100
AcDbEntity
  8
LAY0001
100
AcDbLine
 62
250
  6
CONTINUOUS
 10
-55.9805166622
 20
25.8134150626
 30
0.0
 11
-55.9805166622
 21
-25.8134150626
 31
0.0
  0
LINE
  5
2DD
100
AcDbEntity
  8
RACCORDO
100
AcDbLine
 62
7
  6
CONTINUOUS
 10
-46.6674281881
 20
-11.0778145455
 30
0.0
 11
-45.2148103271
 21
-11.0524590064
 31
0.0
  0
LINE
  5
2DE
100
AcDbEntity
  8
RACCORDO
100
AcDbLine
 62
250
  6
CONTINUOUS
 10
-46.6674281881
 20
-10.8778450065
 30
0.0
 11
-45.2148103271
 21
-10.8524894674
 31
0.0
  0
LINE
  5
2DF
100
AcDbEntity
  8
RACCORDO
100
AcDbLine
 62
250
  6
CONTINUOUS
 10
-45.0674281881
 20
-10.8524894674
 30
0.0
 11
-45.2148103271
 21
-10.8524894674
 31
0.0
  0
LWPOLYLINE
  5
2E0
100
AcDbEntity
  8
0
100
AcDbPolyline
 62
7
  6
CONTINUOUS
 90
3
 70
0
 43
0.3499999917
 10
-42.6817149353
 20
34.9759213257
 10
-42.7531430054
 20
34.7616339111
 10
-42.8959991455
 20
34.4759152222
  0
LINE
  5
2E1
100
AcDbEntity
  8
LAY0001
100
AcDbLine
 62
7
  6
CONTINUOUS
 10
-52.6674281881
 20
-26.4
 30
0.0
 11
-52.6674281881
 21
26.4
 31
0.0
  0
LINE
  5
2E2
100
AcDbEntity
  8
RACCORDO
100
AcDbLine
 62
250
  6
CONTINUOUS
 10
-52.5691734287
 20
22.5244980152
 30
0.0
 11
-52.5691734287
 21
21.952901788
 31
0.0
  0
LINE
  5
2E3
100
AcDbEntity
  8
RACCORDO
100
AcDbLine
 62
250
  6
CONTINUOUS
 10
-52.5691734287
 20
-21.952901788
 30
0.0
 11
-52.5691734287
 21
-22.5244980152
 31
0.0
  0
LINE
  5
2E4
100
AcDbEntity
  8
RACCORDO
100
AcDbLine
 62
250
  6
CONTINUOUS
 10
-52.5656829474
 20
17.5505958365
 30
0.0
 11
-52.5656829474
 21
-17.5505958365
 31
0.0
  0
LINE
  5
2E5
100
AcDbEntity
  8
RACCORDO
100
AcDbLine
 62
250
  6
CONTINUOUS
 10
-51.3639377068
 20
-19.7100057612
 30
0.0
 11
-51.3639377068
 21
-21.7318947812
 31
0.0
  0
LINE
  5
2E6
100
AcDbEntity
  8
RACCORDO
100
AcDbLine
 62
250
  6
CONTINUOUS
 10
-51.3639377068
 20
19.7100057612
 30
0.0
 11
-51.3639377068
 21
21.7318947812
 31
0.0
  0
LINE
  5
2E7
100
AcDbEntity
  8
0
100
AcDbLine
 62
7
  6
CONTINUOUS
 10
-51.1674281881
 20
22.9
 30
0.0
 11
-51.1674281881
 21
21.7318947812
 31
0.0
  0
LINE
  5
2E8
100
AcDbEntity
  8
RACCORDO
100
AcDbLine
 62
7
  6
CONTINUOUS
 10
-51.1674281881
 20
19.1030756686
 30
0.0
 11
-51.1674281881
 21
17.9028829186
 31
0.0
  0
LINE
  5
2E9
100
AcDbEntity
  8
RACCORDO
100
AcDbLine
 62
7
  6
CONTINUOUS
 10
-51.1674281881
 20
-17.9028829186
 30
0.0
 11
-51.1674281881
 21
-19.1030756686
 31
0.0
  0
LINE
  5
2EA
100
AcDbEntity
  8
RACCORDO
100
AcDbLine
 62
7
  6
CONTINUOUS
 10
-51.1674281881
 20
-19.8976915844
 30
0.0
 11
-51.1674281881
 21
-21.7318947812
 31
0.0
  0
LINE
  5
2EB
100
AcDbEntity
  8
0
100
AcDbLine
 62
7
  6
CONTINUOUS
 10
-51.1674281881
 20
-21.7318947812
 30
0.0
 11
-51.1674281881
 21
-22.9
 31
0.0
  0
LINE
  5
2EC
100
AcDbEntity
  8
RACCORDO
100
AcDbLine
 62
7
  6
CONTINUOUS
 10
-51.1674281881
 20
19.8976915844
 30
0.0
 11
-51.1674281881
 21
21.7318947812
 31
0.0
  0
LINE
  5
2ED
100
AcDbEntity
  8
ASSI
100
AcDbLine
 62
250
  6
CONTINUOUS
 10
-50.0639377068
 20
-21.1892297568
 30
0.0
 11
-50.0639377068
 21
-22.7551793284
 31
0.0
  0
LINE
  5
2EE
100
AcDbEntity
  8
ASSI
100
AcDbLine
 62
250
  6
CONTINUOUS
 10
-50.0639377068
 20
21.1892297568
 30
0.0
 11
-50.0639377068
 21
22.7551790839
 31
0.0
  0
LINE
  5
2EF
100
AcDbEntity
  8
ASSI
100
AcDbLine
 62
7
  6
CONTINUOUS
 10
-49.8674281881
 20
-21.3625662049
 30
0.0
 11
-49.8674281881
 21
-22.7551793284
 31
0.0
  0
LINE
  5
2F0
100
AcDbEntity
  8
ASSI
100
AcDbLine
 62
7
  6
CONTINUOUS
 10
-49.8674281881
 20
21.3625662049
 30
0.0
 11
-49.8674281881
 21
22.7551793284
 31
0.0
  0
LINE
  5
2F1
100
AcDbEntity
  8
ASSI
100
AcDbLine
 62
250
  6
CONTINUOUS
 10
-49.3639377068
 20
-23.2900415076
 30
0.0
 11
-49.3639377068
 21
-23.7423678201
 31
0.0
  0
LINE
  5
2F2
100
AcDbEntity
  8
ASSI
100
AcDbLine
 62
250
  6
CONTINUOUS
 10
-49.3639377068
 20
23.2900415076
 30
0.0
 11
-49.3639377068
 21
23.7423678201
 31
0.0
  0
LINE
  5
2F3
100
AcDbEntity
  8
ASSI
100
AcDbLine
 62
7
  6
CONTINUOUS
 10
-49.1674281881
 20
-23.2900415076
 30
0.0
 11
-49.1674281881
 21
-23.7423678201
 31
0.0
  0
LINE
  5
2F4
100
AcDbEntity
  8
ASSI
100
AcDbLine
 62
7
  6
CONTINUOUS
 10
-49.1674281881
 20
23.2900415076
 30
0.0
 11
-49.1674281881
 21
23.7423678201
 31
0.0
  0
LINE
  5
2F5
100
AcDbEntity
  8
RACCORDO
100
AcDbLine
 62
250
  6
CONTINUOUS
 10
-46.8148103271
 20
21.2345215082
 30
0.0
 11
-46.8148103271
 21
17.828809527
 31
0.0
  0
LINE
  5
2F6
100
AcDbEntity
  8
RACCORDO
100
AcDbLine
 62
250
  6
CONTINUOUS
 10
-46.8148103271
 20
17.5152351079
 30
0.0
 11
-46.8148103271
 21
-17.5152351079
 31
0.0
  0
LINE
  5
2F7
100
AcDbEntity
  8
RACCORDO
100
AcDbLine
 62
250
  6
CONTINUOUS
 10
-46.8148103271
 20
-17.828809527
 30
0.0
 11
-46.8148103271
 21
-21.2345215082
 31
0.0
  0
LINE
  5
2F8
100
AcDbEntity
  8
RACCORDO
100
AcDbLine
 62
7
  6
CONTINUOUS
 10
-46.6674281881
 20
20.9954403681
 30
0.0
 11
-46.6674281881
 21
-20.9954403681
 31
0.0
  0
LINE
  5
2F9
100
AcDbEntity
  8
RACCORDO
100
AcDbLine
 62
250
  6
CONTINUOUS
 10
-45.2148103271
 20
13.1524894674
 30
0.0
 11
-45.2148103271
 21
11.9960662078
 31
0.0
  0
LINE
  5
2FA
100
AcDbEntity
  8
RACCORDO
100
AcDbLine
 62
250
  6
CONTINUOUS
 10
-45.2148103271
 20
11.5961271297
 30
0.0
 11
-45.2148103271
 21
-10.8524894674
 31
0.0
  0
LINE
  5
2FB
100
AcDbEntity
  8
RACCORDO
100
AcDbLine
 62
7
  6
CONTINUOUS
 10
-45.0674281881
 20
13.2024818521
 30
0.0
 11
-45.0674281881
 21
-10.9024818521
 31
0.0
  0
LWPOLYLINE
  5
2FC
100
AcDbEntity
  8
0
100
AcDbPolyline
 62
7
  6
CONTINUOUS
 90
4
 70
0
 43
0.3499999917
 10
-44.8531430054
 20
42.8515493774
 10
-44.8531430054
 20
43.708692627
 10
-44.4245713806
 20
44.1372674561
 10
-43.7817123413
 20
44.1372674561
  0
LWPOLYLINE
  5
2FD
100
AcDbEntity
  8
0
100
AcDbPolyline
 62
7
  6
CONTINUOUS
 90
2
 70
0
 43
0.3499999917
 10
-44.7531417847
 20
34.6902026367
 10
-44.7531417847
 20
36.1902017212
  0
LINE
  5
2FE
100
AcDbEntity
  8
ASSI
100
AcDbLine
 62
250
  6
CONTINUOUS
 10
-52.0174031044
 20
-24.3674284937
 30
0.0
 11
-51.9154338054
 21
-23.9868738892
 31
0.0
  0
LINE
  5
2FF
100
AcDbEntity
  8
ASSI
100
AcDbLine
 62
7
  6
CONTINUOUS
 10
-51.8277084204
 20
-24.401763809
 30
0.0
 11
-51.7156043851
 21
-23.9833858537
 31
0.0
  0
LINE
  5
300
100
AcDbEntity
  8
ASSI
100
AcDbLine
 62
250
  6
CONTINUOUS
 10
-51.9154338054
 20
23.9868738892
 30
0.0
 11
-52.0174031044
 21
24.3674284937
 31
0.0
  0
LINE
  5
301
100
AcDbEntity
  8
ASSI
100
AcDbLine
 62
7
  6
CONTINUOUS
 10
-51.7156043851
 20
23.9833858537
 30
0.0
 11
-51.8277084204
 21
24.401763809
 31
0.0
  0
LINE
  5
302
100
AcDbEntity
  8
RACCORDO
100
AcDbLine
 62
250
  6
CONTINUOUS
 10
-43.3147785112
 20
21.6896574486
 30
0.0
 11
-43.3148103271
 21
21.6913088251
 31
0.0
  0
LINE
  5
303
100
AcDbEntity
  8
RACCORDO
100
AcDbLine
 62
250
  6
CONTINUOUS
 10
-43.3146918659
 20
21.6752610466
 30
0.0
 11
-43.3147785112
 21
21.6896574486
 31
0.0
  0
LINE
  5
304
100
AcDbEntity
  8
RACCORDO
100
AcDbLine
 62
250
  6
CONTINUOUS
 10
-43.3148103206
 20
-21.691308825
 30
0.0
 11
-43.3148103271
 21
-21.2321822041
 31
0.0
  0
LINE
  5
305
100
AcDbEntity
  8
RACCORDO
100
AcDbLine
 62
250
  6
CONTINUOUS
 10
-43.3148103271
 20
-20.9410881091
 30
0.0
 11
-43.3148103271
 21
-19.9281826116
 31
0.0
  0
LINE
  5
306
100
AcDbEntity
  8
RACCORDO
100
AcDbLine
 62
250
  6
CONTINUOUS
 10
-43.3148103271
 20
19.9281826116
 30
0.0
 11
-43.3148103271
 21
20.9410873667
 31
0.0
  0
LINE
  5
307
100
AcDbEntity
  8
RACCORDO
100
AcDbLine
 62
250
  6
CONTINUOUS
 10
-43.3148103271
 20
21.2321822041
 30
0.0
 11
-43.3148103597
 21
21.691308826
 31
0.0
  0
LINE
  5
308
100
AcDbEntity
  8
RACCORDO
100
AcDbLine
 62
7
  6
CONTINUOUS
 10
-43.1674281881
 20
-21.5413316709
 30
0.0
 11
-43.1674281881
 21
-20.0152251964
 31
0.0
  0
LINE
  5
309
100
AcDbEntity
  8
RACCORDO
100
AcDbLine
 62
7
  6
CONTINUOUS
 10
-43.1674281881
 20
20.015223272
 30
0.0
 11
-43.1674281881
 21
21.5413316709
 31
0.0
  0
LINE
  5
30A
100
AcDbEntity
  8
RACCORDO
100
AcDbLine
 62
250
  6
CONTINUOUS
 10
-43.020046049
 20
-20.7255685616
 30
0.0
 11
-43.020046049
 21
-20.8114198794
 31
0.0
  0
LINE
  5
30B
100
AcDbEntity
  8
RACCORDO
100
AcDbLine
 62
250
  6
CONTINUOUS
 10
-43.020046049
 20
-21.0575843199
 30
0.0
 11
-43.020046049
 21
-21.4362017717
 31
0.0
  0
LINE
  5
30C
100
AcDbEntity
  8
RACCORDO
100
AcDbLine
 62
250
  6
CONTINUOUS
 10
-43.020046049
 20
20.7255685616
 30
0.0
 11
-43.020046049
 21
20.8114198794
 31
0.0
  0
LINE
  5
30D
100
AcDbEntity
  8
RACCORDO
100
AcDbLine
 62
250
  6
CONTINUOUS
 10
-43.020046049
 20
21.0575843199
 30
0.0
 11
-43.020046049
 21
21.4362017717
 31
0.0
  0
LINE
  5
30E
100
AcDbEntity
  8
RACCORDO
100
AcDbLine
 62
250
  6
CONTINUOUS
 10
-43.0200452029
 20
20.015223338
 30
0.0
 11
-43.020046049
 21
20.4794041211
 31
0.0
  0
LINE
  5
30F
100
AcDbEntity
  8
RACCORDO
100
AcDbLine
 62
250
  6
CONTINUOUS
 10
-43.0200445769
 20
-20.0152250314
 30
0.0
 11
-43.020046049
 21
-20.4794041211
 31
0.0
  0
LWPOLYLINE
  5
310
100
AcDbEntity
  8
RACCORDO
100
AcDbPolyline
 62
250
  6
CONTINUOUS
 90
3
 70
0
 10
-43.3148103206
 20
-21.691308825
 10
-43.3147303053
 20
-21.6876557583
 10
-43.3146845954
 20
-21.6771894476
  0
LWPOLYLINE
  5
311
100
AcDbEntity
  8
RACCORDO
100
AcDbPolyline
 62
7
  6
CONTINUOUS
 90
14
 70
0
 10
-39.3898673606
 20
-20.1355199983
 10
-39.3900210278
 20
-20.1268835869
 10
-39.3919352433
 20
-20.1037389035
 10
-39.3963573062
 20
-20.0796727409
 10
-39.40320386
 20
-20.0565240469
 10
-39.4125615353
 20
-20.0343341256
 10
-39.4248723462
 20
-20.0128313683
 10
-39.4398658184
 20
-19.993128469
 10
-39.4574776873
 20
-19.9756171884
 10
-39.4777481516
 20
-19.9605920828
 10
-39.4997561586
 20
-19.9488876672
 10
-39.5227872273
 20
-19.9407574279
 10
-39.5464282698
 20
-19.9361894148
 10
-39.5624691594
 20
-19.9351102835
  0
LINE
  5
312
100
AcDbEntity
  8
RACCORDO
100
AcDbLine
 62
7
  6
CONTINUOUS
 10
-39.3897446162
 20
-20.2228123119
 30
0.0
 11
-39.3898673722
 21
-20.2133954661
 31
0.0
  0
LINE
  5
313
100
AcDbEntity
  8
RACCORDO
100
AcDbLine
 62
250
  6
CONTINUOUS
 10
-39.8048593389
 20
-20.7643285233
 30
0.0
 11
-39.8048593389
 21
-20.6784772056
 31
0.0
  0
LINE
  5
314
100
AcDbEntity
  8
RACCORDO
100
AcDbLine
 62
250
  6
CONTINUOUS
 10
-39.8048593389
 20
-20.432312765
 30
0.0
 11
-39.8048593389
 21
-19.3083972004
 31
0.0
  0
LINE
  5
315
100
AcDbEntity
  8
RACCORDO
100
AcDbLine
 62
250
  6
CONTINUOUS
 10
-39.8048432727
 20
-21.3800801985
 30
0.0
 11
-39.8048432727
 21
-21.0104927285
 31
0.0
  0
LINE
  5
316
100
AcDbEntity
  8
RACCORDO
100
AcDbLine
 62
7
  6
CONTINUOUS
 10
-39.6574771999
 20
-20.9276577572
 30
0.0
 11
-39.6574771999
 21
-19.2575307274
 31
0.0
  0
LINE
  5
317
100
AcDbEntity
  8
RACCORDO
100
AcDbLine
 62
7
  6
CONTINUOUS
 10
-39.6574621635
 20
-21.3800801985
 30
0.0
 11
-39.6574621635
 21
-21.0104927285
 31
0.0
  0
LINE
  5
318
100
AcDbEntity
  8
RACCORDO
100
AcDbLine
 62
250
  6
CONTINUOUS
 10
-39.4070214761
 20
-20.1355199983
 30
0.0
 11
-39.4070214761
 21
-20.2133959955
 31
0.0
  0
LINE
  5
319
100
AcDbEntity
  8
RACCORDO
100
AcDbLine
 62
7
  6
CONTINUOUS
 10
-39.3898673583
 20
-20.1355199983
 30
0.0
 11
-39.3898673583
 21
-20.2133949976
 31
0.0
  0
LINE
  5
31A
100
AcDbEntity
  8
RACCORDO
100
AcDbLine
 62
250
  6
CONTINUOUS
 10
-38.2324086886
 20
-21.5220778944
 30
0.0
 11
-38.2324086886
 21
-22.4806437906
 31
0.0
  0
LINE
  5
31B
100
AcDbEntity
  8
ASSI
100
AcDbLine
 62
250
  6
CONTINUOUS
 10
-38.2324086886
 20
21.6025951746
 30
0.0
 11
-38.2324086886
 21
22.4806437906
 31
0.0
  0
LINE
  5
31C
100
AcDbEntity
  8
RACCORDO
100
AcDbLine
 62
250
  6
CONTINUOUS
 10
-38.1044645519
 20
-22.4594131032
 30
0.0
 11
-38.1044645519
 21
-21.5958744632
 31
0.0
  0
LINE
  5
31D
100
AcDbEntity
  8
ASSI
100
AcDbLine
 62
250
  6
CONTINUOUS
 10
-38.1044645519
 20
21.6003619013
 30
0.0
 11
-38.1044645519
 21
22.4594131032
 31
0.0
  0
LINE
  5
31E
100
AcDbEntity
  8
RACCORDO
100
AcDbLine
 62
250
  6
CONTINUOUS
 10
-38.0651966071
 20
-20.5883679853
 30
0.0
 11
-38.0651966071
 21
-21.5996764768
 31
0.0
  0
LINE
  5
31F
100
AcDbEntity
  8
RACCORDO
100
AcDbLine
 62
250
  6
CONTINUOUS
 10
-36.8148103271
 20
19.9231635206
 30
0.0
 11
-36.8148103271
 21
20.388518897
 31
0.0
  0
LINE
  5
320
100
AcDbEntity
  8
RACCORDO
100
AcDbLine
 62
250
  6
CONTINUOUS
 10
-36.8148103271
 20
20.6346833375
 30
0.0
 11
-36.8148103271
 21
20.7205346552
 31
0.0
  0
LINE
  5
321
100
AcDbEntity
  8
RACCORDO
100
AcDbLine
 62
250
  6
CONTINUOUS
 10
-36.8148103271
 20
20.9666990957
 30
0.0
 11
-36.8148103271
 21
21.3278889793
 31
0.0
  0
LINE
  5
322
100
AcDbEntity
  8
RACCORDO
100
AcDbLine
 62
250
  6
CONTINUOUS
 10
-36.7764270861
 20
22.1035665367
 30
0.0
 11
-36.7764270861
 21
21.5721613423
 31
0.0
  0
LINE
  5
323
100
AcDbEntity
  8
RACCORDO
100
AcDbLine
 62
250
  6
CONTINUOUS
 10
-36.7764270861
 20
-22.1035665367
 30
0.0
 11
-36.7764860619
 21
-20.6108625115
 31
0.0
  0
LINE
  5
324
100
AcDbEntity
  8
RACCORDO
100
AcDbLine
 62
7
  6
CONTINUOUS
 10
-36.6674281881
 20
-22.1349009518
 30
0.0
 11
-36.6674281881
 21
-20.6108625115
 31
0.0
  0
LINE
  5
325
100
AcDbEntity
  8
RACCORDO
100
AcDbLine
 62
7
  6
CONTINUOUS
 10
-36.6674281881
 20
19.8722970477
 30
0.0
 11
-36.6674281881
 21
22.1349009518
 31
0.0
  0
LINE
  5
326
100
AcDbEntity
  8
RACCORDO
100
AcDbLine
 62
250
  6
CONTINUOUS
 10
-45.0674281881
 20
11.5961271297
 30
0.0
 11
-45.2148103271
 21
11.5961271297
 31
0.0
  0
LINE
  5
327
100
AcDbEntity
  8
RACCORDO
100
AcDbLine
 62
250
  6
CONTINUOUS
 10
-45.0674281881
 20
11.9960662078
 30
0.0
 11
-45.2148103271
 21
11.9960662078
 31
0.0
  0
LINE
  5
328
100
AcDbEntity
  8
RACCORDO
100
AcDbLine
 62
250
  6
CONTINUOUS
 10
-45.0674281881
 20
13.1524894674
 30
0.0
 11
-45.2148103271
 21
13.1524894674
 31
0.0
  0
LINE
  5
329
100
AcDbEntity
  8
RACCORDO
100
AcDbLine
 62
250
  6
CONTINUOUS
 10
-45.2148103271
 20
11.5961271297
 30
0.0
 11
-46.6674281881
 21
11.6214826688
 31
0.0
  0
LINE
  5
32A
100
AcDbEntity
  8
RACCORDO
100
AcDbLine
 62
7
  6
CONTINUOUS
 10
-45.2148103271
 20
11.7960966687
 30
0.0
 11
-46.6674281881
 21
11.8214522078
 31
0.0
  0
LINE
  5
32B
100
AcDbEntity
  8
RACCORDO
100
AcDbLine
 62
250
  6
CONTINUOUS
 10
-45.2148103271
 20
11.9960662078
 30
0.0
 11
-46.6674281881
 21
12.0214217469
 31
0.0
  0
LINE
  5
32C
100
AcDbEntity
  8
RACCORDO
100
AcDbLine
 62
250
  6
CONTINUOUS
 10
-46.6674281881
 20
13.1778450065
 30
0.0
 11
-45.2148103271
 21
13.1524894674
 31
0.0
  0
LINE
  5
32D
100
AcDbEntity
  8
RACCORDO
100
AcDbLine
 62
7
  6
CONTINUOUS
 10
-46.6674281881
 20
13.3778145455
 30
0.0
 11
-45.2148103271
 21
13.3524590064
 31
0.0
  0
LINE
  5
32E
100
AcDbEntity
  8
RACCORDO
100
AcDbLine
 62
7
  6
CONTINUOUS
 10
-46.6674281881
 20
17.6939590527
 30
0.0
 11
-36.7872194721
 21
19.7253704215
 31
0.0
  0
LINE
  5
32F
100
AcDbEntity
  8
RACCORDO
100
AcDbLine
 62
250
  6
CONTINUOUS
 10
-46.6674281881
 20
17.8974249446
 30
0.0
 11
-36.8148103271
 21
19.9231635206
 31
0.0
  0
LINE
  5
330
100
AcDbEntity
  8
RACCORDO
100
AcDbLine
 62
7
  6
CONTINUOUS
 10
-51.1674281881
 20
17.9774493518
 30
0.0
 11
-52.5703100533
 21
17.9372677494
 31
0.0
  0
LINE
  5
331
100
AcDbEntity
  8
RACCORDO
100
AcDbLine
 62
250
  6
CONTINUOUS
 10
-46.6674281881
 20
17.5152351079
 30
0.0
 11
-46.8148103271
 21
17.5152351079
 31
0.0
  0
LINE
  5
332
100
AcDbEntity
  8
RACCORDO
100
AcDbLine
 62
250
  6
CONTINUOUS
 10
-52.5656829474
 20
17.5505958365
 30
0.0
 11
-52.6674281881
 21
17.5505958365
 31
0.0
  0
LINE
  5
333
100
AcDbEntity
  8
RACCORDO
100
AcDbLine
 62
250
  6
CONTINUOUS
 10
-51.1677170998
 20
17.8552081401
 30
0.0
 11
-52.5304646059
 21
17.8634645229
 31
0.0
  0
LINE
  5
334
100
AcDbEntity
  8
ASSI
100
AcDbLine
 62
7
  6
CONTINUOUS
 10
-52.665981591
 20
18.2216459565
 30
0.0
 11
-51.1674281881
 21
18.1797752704
 31
0.0
  0
LWPOLYLINE
  5
335
100
AcDbEntity
  8
0
100
AcDbPolyline
 62
7
  6
CONTINUOUS
 90
10
 70
0
 43
0.3499999917
 10
-42.7531430054
 20
35.1902023315
 10
-42.6817149353
 20
35.0473461914
 10
-42.6817149353
 20
34.9759213257
 10
-42.8245710754
 20
34.8330587769
 10
-42.8959991455
 20
34.8330587769
 10
-42.9674272156
 20
34.9044900513
 10
-42.9674272156
 20
34.9759213257
 10
-42.8959991455
 20
35.1187774658
 10
-42.8245710754
 20
35.1902023315
 10
-42.7531430054
 20
35.1902023315
  0
LINE
  5
336
100
AcDbEntity
  8
DRAFT
100
AcDbLine
 62
7
  6
CONTINUOUS
 10
-52.6674281881
 20
19.121508987
 30
0.0
 11
-52.0845080325
 21
19.1316838962
 31
0.0
  0
LINE
  5
337
100
AcDbEntity
  8
RACCORDO
100
AcDbLine
 62
250
  6
CONTINUOUS
 10
-46.6674281881
 20
19.6111231882
 30
0.0
 11
-43.3149520856
 21
19.6696408763
 31
0.0
  0
LINE
  5
338
100
AcDbEntity
  8
RACCORDO
100
AcDbLine
 62
7
  6
CONTINUOUS
 10
-46.6674281881
 20
19.8110927272
 30
0.0
 11
-43.3148103271
 21
19.8696128897
 31
0.0
  0
LINE
  5
339
100
AcDbEntity
  8
RACCORDO
100
AcDbLine
 62
250
  6
CONTINUOUS
 10
-46.6674281881
 20
19.8696637624
 30
0.0
 11
-43.3148103271
 21
19.9281826116
 31
0.0
  0
LINE
  5
33A
100
AcDbEntity
  8
RACCORDO
100
AcDbLine
 62
250
  6
CONTINUOUS
 10
-36.8148103271
 20
19.9231635206
 30
0.0
 11
-36.6674281881
 21
19.9231635206
 31
0.0
  0
LINE
  5
33B
100
AcDbEntity
  8
RACCORDO
100
AcDbLine
 62
250
  6
CONTINUOUS
 10
-43.0200452029
 20
20.015223338
 30
0.0
 11
-43.167428188
 21
20.0152232712
 31
0.0
  0
LINE
  5
33C
100
AcDbEntity
  8
RACCORDO
100
AcDbLine
 62
250
  6
CONTINUOUS
 10
-36.8148103271
 20
20.388518897
 30
0.0
 11
-36.6674281881
 21
20.388518897
 31
0.0
  0
LINE
  5
33D
100
AcDbEntity
  8
RACCORDO
100
AcDbLine
 62
250
  6
CONTINUOUS
 10
-43.020046049
 20
20.4794041211
 30
0.0
 11
-43.1674281881
 21
20.4794041211
 31
0.0
  0
LINE
  5
33E
100
AcDbEntity
  8
RACCORDO
100
AcDbLine
 62
250
  6
CONTINUOUS
 10
-36.8148103271
 20
20.9666990957
 30
0.0
 11
-36.6674281881
 21
20.9666990957
 31
0.0
  0
LINE
  5
33F
100
AcDbEntity
  8
RACCORDO
100
AcDbLine
 62
250
  6
CONTINUOUS
 10
-43.020046049
 20
21.0575843199
 30
0.0
 11
-43.1674281881
 21
21.0575843199
 31
0.0
  0
LINE
  5
340
100
AcDbEntity
  8
RACCORDO
100
AcDbLine
 62
250
  6
CONTINUOUS
 10
-36.8148103271
 20
20.388518897
 30
0.0
 11
-43.020046049
 21
20.4794041211
 31
0.0
  0
LINE
  5
341
100
AcDbEntity
  8
RACCORDO
100
AcDbLine
 62
250
  6
CONTINUOUS
 10
-36.8148103271
 20
20.6346833375
 30
0.0
 11
-43.020046049
 21
20.7255685616
 31
0.0
  0
LINE
  5
342
100
AcDbEntity
  8
RACCORDO
100
AcDbLine
 62
250
  6
CONTINUOUS
 10
-36.8148103271
 20
20.7205346552
 30
0.0
 11
-43.020046049
 21
20.8114198794
 31
0.0
  0
LWPOLYLINE
  5
343
100
AcDbEntity
  8
0
100
AcDbPolyline
 62
7
  6
CONTINUOUS
 90
10
 70
0
 43
0.3499999917
 10
-45.9245704651
 20
42.9229806519
 10
-45.853142395
 20
42.7801245117
 10
-45.853142395
 20
42.7086932373
 10
-45.9959985352
 20
42.5658370972
 10
-46.0674266052
 20
42.5658370972
 10
-46.1388578796
 20
42.6372619629
 10
-46.1388578796
 20
42.7086932373
 10
-46.0674266052
 20
42.8515493774
 10
-45.9959985352
 20
42.9229806519
 10
-45.9245704651
 20
42.9229806519
  0
LINE
  5
344
100
AcDbEntity
  8
ASSI
100
AcDbLine
 62
250
  6
CONTINUOUS
 10
-48.0479995596
 20
-24.5393208298
 30
0.0
 11
-45.673734312
 21
-23.4321827624
 31
0.0
  0
LINE
  5
345
100
AcDbEntity
  8
ASSI
100
AcDbLine
 62
7
  6
CONTINUOUS
 10
-47.9669663885
 20
-24.7031538935
 30
0.0
 11
-45.1520532059
 21
-23.3905383194
 31
0.0
  0
LINE
  5
346
100
AcDbEntity
  8
RACCORDO
100
AcDbLine
 62
250
  6
CONTINUOUS
 10
-36.8148103271
 20
21.3278889793
 30
0.0
 11
-36.6674281881
 21
21.3278889793
 31
0.0
  0
LINE
  5
347
100
AcDbEntity
  8
RACCORDO
100
AcDbLine
 62
250
  6
CONTINUOUS
 10
-51.3639377068
 20
21.7318947812
 30
0.0
 11
-51.1674281881
 21
21.7318947812
 31
0.0
  0
LINE
  5
348
100
AcDbEntity
  8
RACCORDO
100
AcDbLine
 62
250
  6
CONTINUOUS
 10
-52.6674281881
 20
22.5244980152
 30
0.0
 11
-52.5691734287
 21
22.5244980152
 31
0.0
  0
LINE
  5
349
100
AcDbEntity
  8
ASSI
100
AcDbLine
 62
250
  6
CONTINUOUS
 10
-50.0639377068
 20
22.7551793284
 30
0.0
 11
-49.8674281881
 21
22.7551793284
 31
0.0
  0
LINE
  5
34A
100
AcDbEntity
  8
0
100
AcDbLine
 62
7
  6
CONTINUOUS
 10
-50.0639377068
 20
21.1892297568
 30
0.0
 11
-51.1674281881
 21
21.197818284
 31
0.0
  0
LINE
  5
34B
100
AcDbEntity
  8
RACCORDO
100
AcDbLine
 62
250
  6
CONTINUOUS
 10
-36.8148103271
 20
20.9666990957
 30
0.0
 11
-43.020046049
 21
21.0575843199
 31
0.0
  0
LINE
  5
34C
100
AcDbEntity
  8
RACCORDO
100
AcDbLine
 62
250
  6
CONTINUOUS
 10
-43.020046049
 20
21.4362017717
 30
0.0
 11
-36.8148103271
 21
21.3278889793
 31
0.0
  0
LINE
  5
34D
100
AcDbEntity
  8
RACCORDO
100
AcDbLine
 62
250
  6
CONTINUOUS
 10
-51.3639377068
 20
21.7318947812
 30
0.0
 11
-52.6674281881
 21
21.7546472922
 31
0.0
  0
LINE
  5
34E
100
AcDbEntity
  8
RACCORDO
100
AcDbLine
 62
7
  6
CONTINUOUS
 10
-44.4674281881
 20
21.7114278447
 30
0.0
 11
-36.8148103271
 21
21.5778509031
 31
0.0
  0
LINE
  5
34F
100
AcDbEntity
  8
RACCORDO
100
AcDbLine
 62
7
  6
CONTINUOUS
 10
-51.3639377068
 20
21.9318643202
 30
0.0
 11
-52.6674281881
 21
21.9546168312
 31
0.0
  0
LINE
  5
350
100
AcDbEntity
  8
RACCORDO
100
AcDbLine
 62
250
  6
CONTINUOUS
 10
-52.5691734287
 20
22.5244980152
 30
0.0
 11
-51.1674281881
 21
22.500030461
 31
0.0
  0
LINE
  5
351
100
AcDbEntity
  8
RACCORDO
100
AcDbLine
 62
7
  6
CONTINUOUS
 10
-51.1674281881
 20
22.7
 30
0.0
 11
-52.5691734287
 21
22.7244675542
 31
0.0
  0
LINE
  5
352
100
AcDbEntity
  8
RACCORDO
100
AcDbLine
 62
250
  6
CONTINUOUS
 10
-44.4796439413
 20
21.3655459496
 30
0.0
 11
-43.3148103271
 21
21.3449527215
 31
0.0
  0
LINE
  5
353
100
AcDbEntity
  8
ASSI
100
AcDbLine
 62
7
  6
CONTINUOUS
 10
-49.8674281881
 20
21.9
 30
0.0
 11
-44.4674281881
 21
21.7114278447
 31
0.0
  0
LINE
  5
354
100
AcDbEntity
  8
0
100
AcDbLine
 62
7
  6
CONTINUOUS
 10
-52.6674281881
 20
22.9786116689
 30
0.0
 11
-51.1674281881
 21
22.9
 31
0.0
  0
LINE
  5
355
100
AcDbEntity
  8
ASSI
100
AcDbLine
 62
250
  6
CONTINUOUS
 10
-45.6737343121
 20
23.4321827624
 30
0.0
 11
-48.0479995596
 21
24.5393208298
 31
0.0
  0
LINE
  5
356
100
AcDbEntity
  8
ASSI
100
AcDbLine
 62
7
  6
CONTINUOUS
 10
-45.1520532059
 20
23.3905383194
 30
0.0
 11
-47.9669663885
 21
24.7031538935
 31
0.0
  0
LINE
  5
357
100
AcDbEntity
  8
ASSI
100
AcDbLine
 62
250
  6
CONTINUOUS
 10
-42.618410448
 20
23.05
 30
0.0
 11
-41.7091590133
 21
23.05
 31
0.0
  0
LINE
  5
358
100
AcDbEntity
  8
ASSI
100
AcDbLine
 62
250
  6
CONTINUOUS
 10
-45.2310970707
 20
23.05
 30
0.0
 11
-46.0949378048
 21
23.05
 31
0.0
  0
LINE
  5
359
100
AcDbEntity
  8
ASSI
100
AcDbLine
 62
250
  6
CONTINUOUS
 10
-41.5280096017
 20
23.0674284937
 30
0.0
 11
-40.4618147631
 21
23.0674284937
 31
0.0
  0
LINE
  5
35A
100
AcDbEntity
  8
ASSI
100
AcDbLine
 62
250
  6
CONTINUOUS
 10
-42.8037328525
 20
23.0674284937
 30
0.0
 11
-44.514635332
 21
23.0674284937
 31
0.0
  0
LINE
  5
35B
100
AcDbEntity
  8
ASSI
100
AcDbLine
 62
7
  6
CONTINUOUS
 10
-40.4653052444
 20
23.25
 30
0.0
 11
-44.5181258133
 21
23.25
 31
0.0
  0
LINE
  5
35C
100
AcDbEntity
  8
ASSI
100
AcDbLine
 62
250
  6
CONTINUOUS
 10
-49.3639377068
 20
23.2900415076
 30
0.0
 11
-49.1674281881
 21
23.2900415076
 31
0.0
  0
LINE
  5
35D
100
AcDbEntity
  8
ASSI
100
AcDbLine
 62
250
  6
CONTINUOUS
 10
-49.3639377068
 20
23.7423678201
 30
0.0
 11
-49.1674281881
 21
23.7423678201
 31
0.0
  0
LINE
  5
35E
100
AcDbEntity
  8
ASSI
100
AcDbLine
 62
250
  6
CONTINUOUS
 10
-52.0174031044
 20
24.3674284937
 30
0.0
 11
-52.6674281881
 21
24.3674284937
 31
0.0
  0
LINE
  5
35F
100
AcDbEntity
  8
ASSI
100
AcDbLine
 62
7
  6
CONTINUOUS
 10
-52.0208935856
 20
24.55
 30
0.0
 11
-52.6674281881
 21
24.55
 31
0.0
  0
LINE
  5
360
100
AcDbEntity
  8
ASSI
100
AcDbLine
 62
250
  6
CONTINUOUS
 10
-48.1747850381
 20
24.5674284937
 30
0.0
 11
-48.3711173837
 21
24.5674284937
 31
0.0
  0
LINE
  5
361
100
AcDbEntity
  8
ASSI
100
AcDbLine
 62
7
  6
CONTINUOUS
 10
-48.1782755194
 20
24.75
 30
0.0
 11
-48.374607865
 21
24.75
 31
0.0
  0
LINE
  5
362
100
AcDbEntity
  8
ASSI
100
AcDbLine
 62
250
  6
CONTINUOUS
 10
-49.3639377068
 20
23.7423678201
 30
0.0
 11
-52.6674281881
 21
23.800030461
 31
0.0
  0
LINE
  5
363
100
AcDbEntity
  8
ASSI
100
AcDbLine
 62
7
  6
CONTINUOUS
 10
-49.3639377068
 20
23.9423373592
 30
0.0
 11
-52.6674281881
 21
24.0
 31
0.0
  0
LINE
  5
364
100
AcDbEntity
  8
ASSI
100
AcDbLine
 62
250
  6
CONTINUOUS
 10
-40.3841690496
 20
23.0572062416
 30
0.0
 11
-38.2324086886
 21
22.4806437906
 31
0.0
  0
LINE
  5
365
100
AcDbEntity
  8
RACCORDO
100
AcDbLine
 62
250
  6
CONTINUOUS
 10
-38.1044645519
 20
22.4594131032
 30
0.0
 11
-36.7764270861
 21
22.1035665367
 31
0.0
  0
LINE
  5
366
100
AcDbEntity
  8
ASSI
100
AcDbLine
 62
7
  6
CONTINUOUS
 10
-40.3358957219
 20
23.2329629131
 30
0.0
 11
-38.1073688789
 21
22.6358309453
 31
0.0
  0
LINE
  5
367
100
AcDbEntity
  8
RACCORDO
100
AcDbLine
 62
7
  6
CONTINUOUS
 10
-38.1841353609
 20
22.6564004621
 30
0.0
 11
-36.7786053313
 21
22.2797898257
 31
0.0
  0
LINE
  5
368
100
AcDbEntity
  8
LAY0001
100
AcDbLine
 62
250
  6
CONTINUOUS
 10
-52.6674281881
 20
25.9001713375
 30
0.0
 11
-55.9805166622
 21
25.8134150626
 31
0.0
  0
LINE
  5
369
100
AcDbEntity
  8
LAY0001
100
AcDbLine
 62
7
  6
CONTINUOUS
 10
-52.6674281881
 20
26.4
 30
0.0
 11
-55.9805166622
 21
26.3132437251
 31
0.0
  0
LINE
  5
36A
100
AcDbEntity
  8
LAY0001
100
AcDbLine
 62
250
  6
CONTINUOUS
 10
-55.9805166622
 20
25.8134150626
 30
0.0
 11
-56.4674281881
 21
25.8134150626
 31
0.0
  0
LWPOLYLINE
  5
36B
100
AcDbEntity
  8
0
100
AcDbPolyline
 62
7
  6
CONTINUOUS
 90
3
 70
0
 43
0.3499999917
 10
-44.2531420898
 20
35.3330584717
 10
-45.7531411743
 20
35.3330584717
 10
-45.1102853394
 20
37.6902008057
  0
LWPOLYLINE
  5
36C
100
AcDbEntity
  8
0
100
AcDbPolyline
 62
7
  6
CONTINUOUS
 90
13
 70
0
 43
0.3499999917
 10
-44.4245713806
 20
44.1372674561
 10
-44.7102868652
 20
44.3515484619
 10
-44.7102868652
 20
44.9944107056
 10
-44.4245713806
 20
45.422979126
 10
-43.7817123413
 20
45.422979126
 10
-43.496000061
 20
44.9944107056
 10
-43.496000061
 20
44.3515484619
 10
-43.7817123413
 20
44.1372674561
 10
-43.3531439209
 20
43.708692627
 10
-43.3531439209
 20
42.8515493774
 10
-43.7817123413
 20
42.422980957
 10
-44.4245713806
 20
42.422980957
 10
-44.8531430054
 20
42.8515493774
  0
ARC
  5
36D
100
AcDbEntity
  8
RACCORDO
100
AcDbCircle
 62
250
  6
CONTINUOUS
 10
6.8124438674
 20
7.4624439451
 30
0.0
 40
0.6998496771
100
AcDbArc
 50
359.9964166366
 51
90.0035548684
  0
ARC
  5
36E
100
AcDbEntity
  8
RACCORDO
100
AcDbCircle
 62
250
  6
CONTINUOUS
 10
-6.8124439451
 20
7.4624438674
 30
0.0
 40
0.6998496771
100
AcDbArc
 50
89.9964166366
 51
180.0035548684
  0
ARC
  5
36F
100
AcDbEntity
  8
RACCORDO
100
AcDbCircle
 62
250
  6
CONTINUOUS
 10
-6.812443927
 20
-7.4624440047
 30
0.0
 40
0.6998496771
100
AcDbArc
 50
179.9964117583
 51
270.0035597467
  0
ARC
  5
370
100
AcDbEntity
  8
RACCORDO
100
AcDbCircle
 62
250
  6
CONTINUOUS
 10
6.8124440047
 20
-7.4624439269
 30
0.0
 40
0.6998496771
100
AcDbArc
 50
269.9964117595
 51
0.0035597455
  0
ARC
  5
371
100
AcDbEntity
  8
LAY0001
100
AcDbCircle
 62
250
  6
CONTINUOUS
 10
-10.512981323
 20
-25.8129809458
 30
0.0
 40
0.5002658726
100
AcDbArc
 50
180.0497200098
 51
269.9503232456
  0
ARC
  5
372
100
AcDbEntity
  8
LAY0001
100
AcDbCircle
 62
250
  6
CONTINUOUS
 10
10.5129813371
 20
-25.8129809608
 30
0.0
 40
0.5002658571
100
AcDbArc
 50
270.0496751637
 51
359.9502817071
  0
ARC
  5
373
100
AcDbEntity
  8
LAY0001
100
AcDbCircle
 62
250
  6
CONTINUOUS
 10
10.5129814926
 20
25.8129810153
 30
0.0
 40
0.5002657344
100
AcDbArc
 50
0.0497120654
 51
89.9503426675
  0
ARC
  5
374
100
AcDbEntity
  8
LAY0001
100
AcDbCircle
 62
250
  6
CONTINUOUS
 10
-10.5129815007
 20
25.8129810322
 30
0.0
 40
0.500265722
100
AcDbArc
 50
90.0496564248
 51
179.9502898649
  0
ARC
  5
375
100
AcDbEntity
  8
RACCORDO
100
AcDbCircle
 62
250
  6
CONTINUOUS
 10
6.8126206426
 20
7.462620874
 30
0.0
 40
0.1997494548
100
AcDbArc
 50
359.9370094365
 51
90.0629215934
  0
ARC
  5
376
100
AcDbEntity
  8
RACCORDO
100
AcDbCircle
 62
250
  6
CONTINUOUS
 10
-6.812620874
 20
7.4626206426
 30
0.0
 40
0.1997494548
100
AcDbArc
 50
89.9370094364
 51
180.0629215934
  0
ARC
  5
377
100
AcDbEntity
  8
RACCORDO
100
AcDbCircle
 62
250
  6
CONTINUOUS
 10
-6.8126267851
 20
-7.4626267943
 30
0.0
 40
0.199742038
100
AcDbArc
 50
179.9353092867
 51
270.0646854053
  0
ARC
  5
378
100
AcDbEntity
  8
RACCORDO
100
AcDbCircle
 62
250
  6
CONTINUOUS
 10
6.8126267943
 20
-7.4626267851
 30
0.0
 40
0.199742038
100
AcDbArc
 50
269.9353092867
 51
0.0646854053
  0
ARC
  5
379
100
AcDbEntity
  8
RACCORDO
100
AcDbCircle
 62
250
  6
CONTINUOUS
 10
-175.6620055711
 20
-17.7073809348
 30
0.0
 40
123.0964224705
100
AcDbArc
 50
359.9282033558
 51
0.0729763438
  0
ARC
  5
37A
100
AcDbEntity
  8
ASSI
100
AcDbCircle
 62
250
  6
CONTINUOUS
 10
-123.4913983693
 20
-25.2566364227
 30
0.0
 40
81.8120035103
100
AcDbArc
 50
1.5455713477
 51
2.5167589272
  0
ARC
  5
37B
100
AcDbEntity
  8
RACCORDO
100
AcDbCircle
 62
250
  6
CONTINUOUS
 10
-128.6209372787
 20
-17.6720223175
 30
0.0
 40
81.8062771983
100
AcDbArc
 50
359.8901887337
 51
0.1098112663
  0
ARC
  5
37C
100
AcDbEntity
  8
ASSI
100
AcDbCircle
 62
250
  6
CONTINUOUS
 10
-112.3923640557
 20
-25.3735494347
 30
0.0
 40
67.2014483846
100
AcDbArc
 50
1.9814471186
 51
3.0993593381
  0
ARC
  5
37D
100
AcDbEntity
  8
ASSI
100
AcDbCircle
 62
250
  6
CONTINUOUS
 10
-100.1627337747
 20
-25.248562563
 30
0.0
 40
58.6752523251
100
AcDbArc
 50
2.1644071723
 51
3.5050829121
  0
ARC
  5
37E
100
AcDbEntity
  8
ASSI
100
AcDbCircle
 62
250
  6
CONTINUOUS
 10
-93.2638146417
 20
-25.368877009
 30
0.0
 40
48.2603435195
100
AcDbArc
 50
2.7747996738
 51
4.3183904396
  0
ARC
  5
37F
100
AcDbEntity
  8
RACCORDO
100
AcDbCircle
 62
250
  6
CONTINUOUS
 10
-161.5986759778
 20
17.7072351752
 30
0.0
 40
109.0331055462
100
AcDbArc
 50
359.9176876046
 51
0.0811337253
  0
ARC
  5
380
100
AcDbEntity
  8
ASSI
100
AcDbCircle
 62
250
  6
CONTINUOUS
 10
-123.4882344706
 20
25.2565242189
 30
0.0
 40
81.8088377363
100
AcDbArc
 50
357.4832222773
 51
358.4544474403
  0
ARC
  5
381
100
AcDbEntity
  8
RACCORDO
100
AcDbCircle
 62
250
  6
CONTINUOUS
 10
-119.0892727277
 20
17.6720223175
 30
0.0
 40
72.2746324621
100
AcDbArc
 50
359.8757067019
 51
0.1242932981
  0
ARC
  5
382
100
AcDbEntity
  8
ASSI
100
AcDbCircle
 62
250
  6
CONTINUOUS
 10
-112.3954083902
 20
25.3736845111
 30
0.0
 40
67.2044955693
100
AcDbArc
 50
356.900666001
 51
358.0185275306
  0
ARC
  5
383
100
AcDbEntity
  8
ASSI
100
AcDbCircle
 62
250
  6
CONTINUOUS
 10
-100.1606387159
 20
25.2486808262
 30
0.0
 40
58.6731633683
100
AcDbArc
 50
356.4946765241
 51
357.8354001563
  0
ARC
  5
384
100
AcDbEntity
  8
ASSI
100
AcDbCircle
 62
250
  6
CONTINUOUS
 10
-93.2658986385
 20
25.368892556
 30
0.0
 40
48.2624258263
100
AcDbArc
 50
355.6817775963
 51
357.2253016614
  0
ARC
  5
385
100
AcDbEntity
  8
LAY0001
100
AcDbCircle
 62
7
  6
CONTINUOUS
 10
-55.9674281881
 20
-25.8134150626
 30
0.0
 40
0.5
100
AcDbArc
 50
180.0
 51
268.5
  0
ARC
  5
386
100
AcDbEntity
  8
ASSI
100
AcDbCircle
 62
7
  6
CONTINUOUS
 10
-52.0208935856
 20
-24.35
 30
0.0
 40
0.2
100
AcDbArc
 50
270.0
 51
345.0
  0
ARC
  5
387
100
AcDbEntity
  8
RACCORDO
100
AcDbCircle
 62
7
  6
CONTINUOUS
 10
-52.5674281881
 20
-22.8244523237
 30
0.0
 40
0.1
100
AcDbArc
 50
91.0
 51
180.0
  0
ARC
  5
388
100
AcDbEntity
  8
RACCORDO
100
AcDbCircle
 62
250
  6
CONTINUOUS
 10
-63.1879845981
 20
-20.8121610172
 30
0.0
 40
23.3839824177
100
AcDbArc
 50
359.5140388816
 51
359.6409087991
  0
ARC
  5
389
100
AcDbEntity
  8
DRAFT
100
AcDbCircle
 62
7
  6
CONTINUOUS
 10
-52.0897437545
 20
-19.4316382047
 30
0.0
 40
0.3
100
AcDbArc
 50
46.3156631378
 51
89.0
  0
ARC
  5
38A
100
AcDbEntity
  8
RACCORDO
100
AcDbCircle
 62
7
  6
CONTINUOUS
 10
-51.3674281881
 20
-21.7318947812
 30
0.0
 40
0.2
100
AcDbArc
 50
271.0
 51
360.0
  0
ARC
  5
38B
100
AcDbEntity
  8
RACCORDO
100
AcDbCircle
 62
250
  6
CONTINUOUS
 10
-52.5673279944
 20
-17.7040894752
 30
0.0
 40
0.1575506723
100
AcDbArc
 50
264.1982542555
 51
270.599426055
  0
ARC
  5
38C
100
AcDbEntity
  8
RACCORDO
100
AcDbCircle
 62
7
  6
CONTINUOUS
 10
-52.5674281881
 20
-17.837309113
 30
0.0
 40
0.1
100
AcDbArc
 50
205.4535835669
 51
268.3487959828
  0
ARC
  5
38D
100
AcDbEntity
  8
ASSI
100
AcDbCircle
 62
250
  6
CONTINUOUS
 10
-44.5144148131
 20
-24.7686577928
 30
0.0
 40
1.7012293134
100
AcDbArc
 50
90.0074268666
 51
109.3904826924
  0
ARC
  5
38E
100
AcDbEntity
  8
ASSI
100
AcDbCircle
 62
7
  6
CONTINUOUS
 10
-44.5181258133
 20
-24.75
 30
0.0
 40
1.5
100
AcDbArc
 50
90.0
 51
115.0
  0
ARC
  5
38F
100
AcDbEntity
  8
ASSI
100
AcDbCircle
 62
7
  6
CONTINUOUS
 10
-48.1782755194
 20
-24.25
 30
0.0
 40
0.5
100
AcDbArc
 50
270.0
 51
295.0
  0
ARC
  5
390
100
AcDbEntity
  8
ASSI
100
AcDbCircle
 62
250
  6
CONTINUOUS
 10
-49.1794033741
 20
-23.9674266032
 30
0.0
 40
0.3999952559
100
AcDbArc
 50
29.9999770149
 51
88.2826108208
  0
ARC
  5
391
100
AcDbEntity
  8
ASSI
100
AcDbCircle
 62
7
  6
CONTINUOUS
 10
-48.374607865
 20
-24.55
 30
0.0
 40
0.2
100
AcDbArc
 50
210.0
 51
270.0
  0
ARC
  5
392
100
AcDbEntity
  8
ASSI
100
AcDbCircle
 62
7
  6
CONTINUOUS
 10
-49.1828982419
 20
-23.95
 30
0.0
 40
0.2
100
AcDbArc
 50
30.0
 51
85.6838888483
  0
ARC
  5
393
100
AcDbEntity
  8
ASSI
100
AcDbCircle
 62
7
  6
CONTINUOUS
 10
-49.3674281881
 20
-23.7423678201
 30
0.0
 40
0.2
100
AcDbArc
 50
271.0
 51
360.0
  0
ARC
  5
394
100
AcDbEntity
  8
ASSI
100
AcDbCircle
 62
250
  6
CONTINUOUS
 10
-49.6639124448
 20
-22.7551616397
 30
0.0
 40
0.4000279166
100
AcDbArc
 50
180.0025335561
 51
249.9974664484
  0
ARC
  5
395
100
AcDbEntity
  8
ASSI
100
AcDbCircle
 62
7
  6
CONTINUOUS
 10
-49.6674281881
 20
-22.7551793284
 30
0.0
 40
0.2
100
AcDbArc
 50
180.0
 51
250.0
  0
ARC
  5
396
100
AcDbEntity
  8
ASSI
100
AcDbCircle
 62
7
  6
CONTINUOUS
 10
-49.3674281881
 20
-23.2900415076
 30
0.0
 40
0.2
100
AcDbArc
 50
0.0
 51
70.0
  0
ARC
  5
397
100
AcDbEntity
  8
ASSI
100
AcDbCircle
 62
7
  6
CONTINUOUS
 10
-40.4653052444
 20
-22.75
 30
0.0
 40
0.5
100
AcDbArc
 50
270.0
 51
285.0
  0
ARC
  5
398
100
AcDbEntity
  8
ASSI
100
AcDbCircle
 62
250
  6
CONTINUOUS
 10
-40.4619837153
 20
-22.7661451742
 30
0.0
 40
0.3012833668
100
AcDbArc
 50
270.0321300488
 51
284.9678699512
  0
ARC
  5
399
100
AcDbEntity
  8
RACCORDO
100
AcDbCircle
 62
7
  6
CONTINUOUS
 10
-36.8174281881
 20
-22.1349009518
 30
0.0
 40
0.15
100
AcDbArc
 50
285.0
 51
360.0
  0
ARC
  5
39A
100
AcDbEntity
  8
RACCORDO
100
AcDbCircle
 62
250
  6
CONTINUOUS
 10
-36.8111906706
 20
-20.6920812022
 30
0.0
 40
1.4119133671
100
AcDbArc
 50
271.4108570847
 51
272.2326049925
  0
ARC
  5
39B
100
AcDbEntity
  8
RACCORDO
100
AcDbCircle
 62
250
  6
CONTINUOUS
 10
-38.6900714585
 20
-20.213357426
 30
0.0
 40
0.7169500186
100
AcDbArc
 50
180.003082322
 51
182.5592344179
  0
ARC
  5
39C
100
AcDbEntity
  8
RACCORDO
100
AcDbCircle
 62
250
  6
CONTINUOUS
 10
-38.726504222
 20
-20.21559075
 30
0.0
 40
0.6804541389
100
AcDbArc
 50
182.508351587
 51
187.8800746261
  0
ARC
  5
39D
100
AcDbEntity
  8
RACCORDO
100
AcDbCircle
 62
250
  6
CONTINUOUS
 10
-38.8007968846
 20
-20.2255453905
 30
0.0
 40
0.6054983121
100
AcDbArc
 50
187.9108174901
 51
191.0157402097
  0
ARC
  5
39E
100
AcDbEntity
  8
RACCORDO
100
AcDbCircle
 62
7
  6
CONTINUOUS
 10
-36.8174281881
 20
-20.6108625115
 30
0.0
 40
0.15
100
AcDbArc
 50
0.0
 51
89.0
  0
ARC
  5
39F
100
AcDbEntity
  8
RACCORDO
100
AcDbCircle
 62
7
  6
CONTINUOUS
 10
-39.8074771999
 20
-19.2575307274
 30
0.0
 40
0.15
100
AcDbArc
 50
0.0
 51
78.3816615569
  0
ARC
  5
3A0
100
AcDbEntity
  8
RACCORDO
100
AcDbCircle
 62
7
  6
CONTINUOUS
 10
-43.3174281881
 20
-21.5413316709
 30
0.0
 40
0.15
100
AcDbArc
 50
271.0
 51
360.0
  0
ARC
  5
3A1
100
AcDbEntity
  8
RACCORDO
100
AcDbCircle
 62
7
  6
CONTINUOUS
 10
-43.3174281881
 20
-20.019590044
 30
0.0
 40
0.15
100
AcDbArc
 50
0.0
 51
89.0
  0
ARC
  5
3A2
100
AcDbEntity
  8
RACCORDO
100
AcDbCircle
 62
250
  6
CONTINUOUS
 10
-39.8050341679
 20
-21.4801124317
 30
0.0
 40
0.1499156554
100
AcDbArc
 50
271.0323238725
 51
0.0348828789
  0
ARC
  5
3A3
100
AcDbEntity
  8
ASSI
100
AcDbCircle
 62
250
  6
CONTINUOUS
 10
-40.5454585804
 20
-8.1451968003
 30
0.0
 40
14.520855354
100
AcDbArc
 50
279.1657789931
 51
279.677520457
  0
ARC
  5
3A4
100
AcDbEntity
  8
RACCORDO
100
AcDbCircle
 62
7
  6
CONTINUOUS
 10
-45.2174281881
 20
-10.9024818521
 30
0.0
 40
0.15
100
AcDbArc
 50
271.0
 51
360.0
  0
ARC
  5
3A5
100
AcDbEntity
  8
ASSI
100
AcDbCircle
 62
250
  6
CONTINUOUS
 10
39.3507220214
 20
-25.4421853091
 30
0.0
 40
82.0040317809
100
AcDbArc
 50
177.3692367931
 51
178.3283557404
  0
ARC
  5
3A6
100
AcDbEntity
  8
ASSI
100
AcDbCircle
 62
250
  6
CONTINUOUS
 10
21.434144377
 20
-25.5365912557
 30
0.0
 40
67.5748479567
100
AcDbArc
 50
176.8014625909
 51
177.8911775502
  0
ARC
  5
3A7
100
AcDbEntity
  8
ASSI
100
AcDbCircle
 62
250
  6
CONTINUOUS
 10
16.0244384109
 20
-25.4375456652
 30
0.0
 40
58.8758720569
100
AcDbArc
 50
176.3419099376
 51
177.6589184493
  0
ARC
  5
3A8
100
AcDbEntity
  8
ASSI
100
AcDbCircle
 62
250
  6
CONTINUOUS
 10
2.3042055738
 20
-25.5391527295
 30
0.0
 40
48.6382691821
100
AcDbArc
 50
175.5572725522
 51
177.0459433439
  0
ARC
  5
3A9
100
AcDbEntity
  8
ASSI
100
AcDbCircle
 62
250
  6
CONTINUOUS
 10
-40.5454644094
 20
8.1451616725
 30
0.0
 40
14.5208909618
100
AcDbArc
 50
80.3224801705
 51
80.8342203795
  0
ARC
  5
3AA
100
AcDbEntity
  8
RACCORDO
100
AcDbCircle
 62
7
  6
CONTINUOUS
 10
-45.2674281881
 20
11.8828427125
 30
0.0
 40
0.2
100
AcDbArc
 50
355.0
 51
358.2623749427
  0
ARC
  5
3AB
100
AcDbEntity
  8
RACCORDO
100
AcDbCircle
 62
7
  6
CONTINUOUS
 10
-45.2174281881
 20
11.6461195145
 30
0.0
 40
0.15
100
AcDbArc
 50
0.0
 51
89.0
  0
ARC
  5
3AC
100
AcDbEntity
  8
RACCORDO
100
AcDbCircle
 62
7
  6
CONTINUOUS
 10
-45.2174281881
 20
13.2024818521
 30
0.0
 40
0.15
100
AcDbArc
 50
0.0
 51
89.0
  0
ARC
  5
3AD
100
AcDbEntity
  8
RACCORDO
100
AcDbCircle
 62
250
  6
CONTINUOUS
 10
-55.4415494052
 20
17.771402024
 30
0.0
 40
2.8772847766
100
AcDbArc
 50
1.7970474663
 51
2.4863388045
  0
ARC
  5
3AE
100
AcDbEntity
  8
DRAFT
100
AcDbCircle
 62
7
  6
CONTINUOUS
 10
-52.0897437545
 20
19.4316382047
 30
0.0
 40
0.3
100
AcDbArc
 50
271.0
 51
313.6843368622
  0
ARC
  5
3AF
100
AcDbEntity
  8
RACCORDO
100
AcDbCircle
 62
7
  6
CONTINUOUS
 10
-51.3674281881
 20
21.7318947812
 30
0.0
 40
0.2
100
AcDbArc
 50
0.0
 51
89.0
  0
ARC
  5
3B0
100
AcDbEntity
  8
RACCORDO
100
AcDbCircle
 62
250
  6
CONTINUOUS
 10
-52.5673280224
 20
17.704089735
 30
0.0
 40
0.15755041
100
AcDbArc
 50
89.4005672083
 51
95.8020006844
  0
ARC
  5
3B1
100
AcDbEntity
  8
RACCORDO
100
AcDbCircle
 62
7
  6
CONTINUOUS
 10
-52.5674281881
 20
17.8373091201
 30
0.0
 40
0.1
100
AcDbArc
 50
91.6512342226
 51
180.0000000229
  0
ARC
  5
3B2
100
AcDbEntity
  8
RACCORDO
100
AcDbCircle
 62
7
  6
CONTINUOUS
 10
-52.5674281881
 20
22.8244523237
 30
0.0
 40
0.1
100
AcDbArc
 50
180.0
 51
269.0
  0
ARC
  5
3B3
100
AcDbEntity
  8
LAY0001
100
AcDbCircle
 62
7
  6
CONTINUOUS
 10
-55.9674281881
 20
25.8134150626
 30
0.0
 40
0.5
100
AcDbArc
 50
91.5
 51
180.0
  0
ARC
  5
3B4
100
AcDbEntity
  8
ASSI
100
AcDbCircle
 62
250
  6
CONTINUOUS
 10
-49.6639375034
 20
22.755179186
 30
0.0
 40
0.4000002034
100
AcDbArc
 50
109.9999923272
 51
180.0000146213
  0
ARC
  5
3B5
100
AcDbEntity
  8
ASSI
100
AcDbCircle
 62
7
  6
CONTINUOUS
 10
-49.6674281881
 20
22.7551793284
 30
0.0
 40
0.2
100
AcDbArc
 50
110.0
 51
180.0
  0
ARC
  5
3B6
100
AcDbEntity
  8
ASSI
100
AcDbCircle
 62
7
  6
CONTINUOUS
 10
-49.3674281881
 20
23.2900415076
 30
0.0
 40
0.2
100
AcDbArc
 50
290.0
 51
360.0
  0
ARC
  5
3B7
100
AcDbEntity
  8
ASSI
100
AcDbCircle
 62
250
  6
CONTINUOUS
 10
-49.1794151678
 20
23.967444235
 30
0.0
 40
0.4000142856
100
AcDbArc
 50
271.7192269585
 51
329.998577857
  0
ARC
  5
3B8
100
AcDbEntity
  8
ASSI
100
AcDbCircle
 62
7
  6
CONTINUOUS
 10
-49.1828982419
 20
23.95
 30
0.0
 40
0.2
100
AcDbArc
 50
274.3466611405
 51
330.0
  0
ARC
  5
3B9
100
AcDbEntity
  8
ASSI
100
AcDbCircle
 62
7
  6
CONTINUOUS
 10
-49.3674281881
 20
23.7423678201
 30
0.0
 40
0.2
100
AcDbArc
 50
0.0
 51
89.0
  0
ARC
  5
3BA
100
AcDbEntity
  8
ASSI
100
AcDbCircle
 62
7
  6
CONTINUOUS
 10
-48.1782755194
 20
24.25
 30
0.0
 40
0.5
100
AcDbArc
 50
65.0
 51
90.0
  0
ARC
  5
3BB
100
AcDbEntity
  8
ASSI
100
AcDbCircle
 62
7
  6
CONTINUOUS
 10
-48.374607865
 20
24.55
 30
0.0
 40
0.2
100
AcDbArc
 50
90.0
 51
150.0
  0
ARC
  5
3BC
100
AcDbEntity
  8
ASSI
100
AcDbCircle
 62
7
  6
CONTINUOUS
 10
-52.0208935856
 20
24.35
 30
0.0
 40
0.2
100
AcDbArc
 50
15.0
 51
90.0
  0
ARC
  5
3BD
100
AcDbEntity
  8
RACCORDO
100
AcDbCircle
 62
250
  6
CONTINUOUS
 10
-36.8111906615
 20
20.6920812906
 30
0.0
 40
1.4119132786
100
AcDbArc
 50
87.7673952331
 51
88.5891431962
  0
ARC
  5
3BE
100
AcDbEntity
  8
RACCORDO
100
AcDbCircle
 62
7
  6
CONTINUOUS
 10
-36.8174281881
 20
21.4278737488
 30
0.0
 40
0.15
100
AcDbArc
 50
0.0
 51
89.0
  0
ARC
  5
3BF
100
AcDbEntity
  8
RACCORDO
100
AcDbCircle
 62
7
  6
CONTINUOUS
 10
-36.8174281881
 20
19.8722970477
 30
0.0
 40
0.15
100
AcDbArc
 50
281.618338443
 51
360.0
  0
ARC
  5
3C0
100
AcDbEntity
  8
RACCORDO
100
AcDbCircle
 62
7
  6
CONTINUOUS
 10
-43.3174281881
 20
20.019590044
 30
0.0
 40
0.15
100
AcDbArc
 50
271.0
 51
360.0
  0
ARC
  5
3C1
100
AcDbEntity
  8
RACCORDO
100
AcDbCircle
 62
7
  6
CONTINUOUS
 10
-43.3174281881
 20
21.5413316709
 30
0.0
 40
0.15
100
AcDbArc
 50
0.0
 51
89.0000000001
  0
ARC
  5
3C2
100
AcDbEntity
  8
ASSI
100
AcDbCircle
 62
250
  6
CONTINUOUS
 10
-44.5143519966
 20
24.7690700354
 30
0.0
 40
1.7016415653
100
AcDbArc
 50
250.6121889172
 51
269.9904598447
  0
ARC
  5
3C3
100
AcDbEntity
  8
ASSI
100
AcDbCircle
 62
7
  6
CONTINUOUS
 10
-44.5181258133
 20
24.75
 30
0.0
 40
1.5
100
AcDbArc
 50
245.0
 51
270.0
  0
ARC
  5
3C4
100
AcDbEntity
  8
ASSI
100
AcDbCircle
 62
7
  6
CONTINUOUS
 10
-40.4653052444
 20
22.75
 30
0.0
 40
0.5
100
AcDbArc
 50
75.0
 51
90.0
  0
ARC
  5
3C5
100
AcDbEntity
  8
ASSI
100
AcDbCircle
 62
250
  6
CONTINUOUS
 10
-40.461983714
 20
22.7661451846
 30
0.0
 40
0.3012833565
100
AcDbArc
 50
75.03212979
 51
89.96787021
  0
ARC
  5
3C6
100
AcDbEntity
  8
RACCORDO
100
AcDbCircle
 62
7
  6
CONTINUOUS
 10
-36.8174281881
 20
22.1349009518
 30
0.0
 40
0.15
100
AcDbArc
 50
0.0
 51
75.0
  0
ARC
  5
3C7
100
AcDbEntity
  8
ASSI
100
AcDbCircle
 62
250
  6
CONTINUOUS
 10
39.3505762494
 20
25.442179839
 30
0.0
 40
82.0038859115
100
AcDbArc
 50
181.6716434104
 51
182.6307640642
  0
ARC
  5
3C8
100
AcDbEntity
  8
ASSI
100
AcDbCircle
 62
250
  6
CONTINUOUS
 10
21.4338626125
 20
25.5365782039
 30
0.0
 40
67.5745659029
100
AcDbArc
 50
182.1088201819
 51
183.1985396894
  0
ARC
  5
3C9
100
AcDbEntity
  8
ASSI
100
AcDbCircle
 62
250
  6
CONTINUOUS
 10
16.0225643322
 20
25.4375433993
 30
0.0
 40
58.8739993341
100
AcDbArc
 50
182.3411538478
 51
183.6582044124
  0
ARC
  5
3CA
100
AcDbEntity
  8
ASSI
100
AcDbCircle
 62
250
  6
CONTINUOUS
 10
2.3072648059
 20
25.5390313116
 30
0.0
 40
48.6413180953
100
AcDbArc
 50
182.9537274904
 51
184.4423046151
  0
SPLINE
  5
3CB
100
AcDbEntity
  8
RACCORDO
100
AcDbSpline
 62
250
  6
CONTINUOUS
 70
0
 71
3
 72
18
 73
14
 74
0
 42
0.0000001
 43
0.0000001
 44
0.0000000001
 40
0.0
 40
0.0
 40
0.0
 40
0.0
 40
0.1945924306
 40
0.3824999547
 40
0.5553727597
 40
0.7067678817
 40
0.83099408
 40
0.8814686418
 40
0.9234701271
 40
0.9565155264
 40
0.9803660552
 40
0.9948690457
 40
1.0
 40
1.0
 40
1.0
 40
1.0
 10
-51.3639377068
 20
21.7318947812
 30
0.0
 10
-51.3637113037
 20
21.7448693578
 30
0.0
 10
-51.363310022
 20
21.7703737443
 30
0.0
 10
-51.3628548674
 20
21.8074057809
 30
0.0
 10
-51.3625692349
 20
21.8415618446
 30
0.0
 10
-51.3624660558
 20
21.8714629567
 30
0.0
 10
-51.3625198429
 20
21.8932262565
 30
0.0
 10
-51.3626919654
 20
21.9076491618
 30
0.0
 10
-51.3628209117
 20
21.9160774836
 30
0.0
 10
-51.3630832411
 20
21.9225145809
 30
0.0
 10
-51.3631553636
 20
21.9276273214
 30
0.0
 10
-51.3636711609
 20
21.9298805101
 30
0.0
 10
-51.3635955971
 20
21.9318583487
 30
0.0
 10
-51.3639377068
 20
21.9318643202
 30
0.0
  0
SPLINE
  5
3CC
100
AcDbEntity
  8
RACCORDO
100
AcDbSpline
 62
250
  6
CONTINUOUS
 70
0
 71
3
 72
18
 73
14
 74
0
 42
0.0000001
 43
0.0000001
 44
0.0000000001
 40
0.0
 40
0.0
 40
0.0
 40
0.0
 40
0.0051309543
 40
0.0196339448
 40
0.0434844736
 40
0.0765298729
 40
0.1185313582
 40
0.16900592
 40
0.2932321183
 40
0.4446272403
 40
0.6175000453
 40
0.8054075694
 40
1.0
 40
1.0
 40
1.0
 40
1.0
 10
-51.3639377068
 20
-21.9318643202
 30
0.0
 10
-51.3635955971
 20
-21.9318583487
 30
0.0
 10
-51.3636711609
 20
-21.9298805101
 30
0.0
 10
-51.3631553636
 20
-21.9276273214
 30
0.0
 10
-51.3630832411
 20
-21.9225145809
 30
0.0
 10
-51.3628209117
 20
-21.9160774836
 30
0.0
 10
-51.3626919654
 20
-21.9076491618
 30
0.0
 10
-51.3625198429
 20
-21.8932262565
 30
0.0
 10
-51.3624660558
 20
-21.8714629567
 30
0.0
 10
-51.3625692349
 20
-21.8415618446
 30
0.0
 10
-51.3628548674
 20
-21.8074057809
 30
0.0
 10
-51.363310022
 20
-21.7703737443
 30
0.0
 10
-51.3637113037
 20
-21.7448693578
 30
0.0
 10
-51.3639377068
 20
-21.7318947812
 30
0.0
  0
SPLINE
  5
3CD
100
AcDbEntity
  8
LAY0001
100
AcDbSpline
 62
250
  6
CONTINUOUS
 70
0
 71
3
 72
19
 73
15
 74
0
 42
0.0000001
 43
0.0000001
 44
0.0000000001
 40
0.0
 40
0.0
 40
0.0
 40
0.0
 40
0.1947098081
 40
0.3822933775
 40
0.5549417853
 40
0.7062594576
 40
0.7721177268
 40
0.8305383545
 40
0.8809474475
 40
0.92291425
 40
0.9560223895
 40
0.9799382187
 40
0.9945392401
 40
1.0
 40
1.0
 40
1.0
 40
1.0
 10
-55.9805166622
 20
-25.8134150626
 30
0.0
 10
-55.9813660969
 20
-25.8458759099
 30
0.0
 10
-55.9828714587
 20
-25.9096138329
 30
0.0
 10
-55.9845754889
 20
-26.0021472382
 30
0.0
 10
-55.9856415425
 20
-26.0874514749
 30
0.0
 10
-55.9859908231
 20
-26.1524662623
 30
0.0
 10
-55.9858809537
 20
-26.1984220313
 30
0.0
 10
-55.985632524
 20
-26.2275684003
 30
0.0
 10
-55.9852037042
 20
-26.2526706769
 30
0.0
 10
-55.984646487
 20
-26.2737123282
 30
0.0
 10
-55.9838589583
 20
-26.2898870982
 30
0.0
 10
-55.9831491794
 20
-26.3025381131
 30
0.0
 10
-55.9819924997
 20
-26.3084960366
 30
0.0
 10
-55.9814270468
 20
-26.3132198858
 30
0.0
 10
-55.9805166622
 20
-26.3132437251
 30
0.0
  0
SPLINE
  5
3CE
100
AcDbEntity
  8
LAY0001
100
AcDbSpline
 62
250
  6
CONTINUOUS
 70
0
 71
3
 72
19
 73
15
 74
0
 42
0.0000001
 43
0.0000001
 44
0.0000000001
 40
0.0
 40
0.0
 40
0.0
 40
0.0
 40
0.1947098624
 40
0.3822935603
 40
0.5549420284
 40
0.7062597307
 40
0.7721180094
 40
0.8305386582
 40
0.8809477038
 40
0.922914426
 40
0.9560225195
 40
0.9799383019
 40
0.9945392662
 40
1.0
 40
1.0
 40
1.0
 40
1.0
 10
-55.9805166622
 20
25.8134150626
 30
0.0
 10
-55.9813660972
 20
25.845875919
 30
0.0
 10
-55.9828714591
 20
25.9096138725
 30
0.0
 10
-55.9845754905
 20
26.0021473184
 30
0.0
 10
-55.9856415435
 20
26.0874515915
 30
0.0
 10
-55.9859908238
 20
26.1524663957
 30
0.0
 10
-55.9858809522
 20
26.1984221748
 30
0.0
 10
-55.9856325223
 20
26.227568541
 30
0.0
 10
-55.985203701
 20
26.2526707999
 30
0.0
 10
-55.984646481
 20
26.2737124217
 30
0.0
 10
-55.9838589563
 20
26.2898871641
 30
0.0
 10
-55.9831491785
 20
26.3025381511
 30
0.0
 10
-55.9819925094
 20
26.3084960613
 30
0.0
 10
-55.9814270491
 20
26.3132198857
 30
0.0
 10
-55.9805166688
 20
26.3132437249
 30
0.0
  0
LINE
  5
3CF
100
AcDbEntity
  8
RACCORDO
100
AcDbLine
 62
7
  6
CONTINUOUS
 10
-39.6574714017
 20
-20.9593344163
 30
0.0
 11
-39.6574771999
 21
-20.9276576237
 31
0.0
  0
SPLINE
  5
3D0
100
AcDbEntity
  8
RACCORDO
100
AcDbSpline
 62
250
  6
CONTINUOUS
 70
0
 71
3
 72
11
 73
7
 74
0
 42
0.0000001
 43
0.0000001
 44
0.0000000001
 40
0.0
 40
0.0
 40
0.0
 40
0.0
 40
0.250693564
 40
0.5008112687
 40
0.7505350256
 40
1.0
 40
1.0
 40
1.0
 40
1.0
 10
-43.3149520856
 20
19.6696408763
 30
0.0
 10
-43.2775121087
 20
19.6850001602
 30
0.0
 10
-43.2026989288
 20
19.7163519202
 30
0.0
 10
-43.1042080485
 20
19.7902101458
 30
0.0
 10
-43.0363082936
 20
19.8935353148
 30
0.0
 10
-43.0200454096
 20
19.9749536565
 30
0.0
 10
-43.0200452029
 20
20.015223338
 30
0.0
  0
SPLINE
  5
3D1
100
AcDbEntity
  8
RACCORDO
100
AcDbSpline
 62
250
  6
CONTINUOUS
 70
0
 71
3
 72
11
 73
7
 74
0
 42
0.0000001
 43
0.0000001
 44
0.0000000001
 40
0.0
 40
0.0
 40
0.0
 40
0.0
 40
0.250623771
 40
0.5007769636
 40
0.750525742
 40
1.0
 40
1.0
 40
1.0
 40
1.0
 10
-43.3149681833
 20
-19.6696405953
 30
0.0
 10
-43.2775290682
 20
-19.6849761492
 30
0.0
 10
-43.2027172995
 20
-19.7163291173
 30
0.0
 10
-43.1042285013
 20
-19.7901928328
 30
0.0
 10
-43.036311137
 20
-19.8935248848
 30
0.0
 10
-43.0200450573
 20
-19.9749523898
 30
0.0
 10
-43.0200445769
 20
-20.0152250314
 30
0.0
  0
SPLINE
  5
3D2
100
AcDbEntity
  8
RACCORDO
100
AcDbSpline
 62
250
  6
CONTINUOUS
 70
0
 71
3
 72
14
 73
10
 74
0
 42
0.0000001
 43
0.0000001
 44
0.0000000001
 40
0.0
 40
0.0
 40
0.0
 40
0.0
 40
0.4243608768
 40
0.5965649243
 40
0.7397994131
 40
0.85270931
 40
0.9341893255
 40
0.9834113976
 40
1.0
 40
1.0
 40
1.0
 40
1.0
 10
-43.3148103271
 20
-19.9281826116
 30
0.0
 10
-43.3147466514
 20
-19.9198970894
 30
0.0
 10
-43.3146557622
 20
-19.908234947
 30
0.0
 10
-43.3146211211
 20
-19.8938223804
 30
0.0
 10
-43.3145492221
 20
-19.8853904475
 30
0.0
 10
-43.3147058535
 20
-19.8789776245
 30
0.0
 10
-43.3144026787
 20
-19.8738096993
 30
0.0
 10
-43.3150502969
 20
-19.8716625783
 30
0.0
 10
-43.3144864778
 20
-19.8696184614
 30
0.0
 10
-43.3148103271
 20
-19.8696128897
 30
0.0
  0
SPLINE
  5
3D3
100
AcDbEntity
  8
RACCORDO
100
AcDbSpline
 62
250
  6
CONTINUOUS
 70
0
 71
3
 72
10
 73
6
 74
0
 42
0.0000001
 43
0.0000001
 44
0.0000000001
 40
0.0
 40
0.0
 40
0.0
 40
0.0
 40
0.1206547303
 40
0.3473201208
 40
1.0
 40
1.0
 40
1.0
 40
1.0
 10
-43.020046049
 20
-20.8114198794
 30
0.0
 10
-43.0205467223
 20
-20.8213078466
 30
0.0
 10
-43.0206790154
 20
-20.8498208071
 30
0.0
 10
-43.0210728683
 20
-20.9318651743
 30
0.0
 10
-43.0205179036
 20
-21.004029069
 30
0.0
 10
-43.020046049
 20
-21.0575843199
 30
0.0
  0
SPLINE
  5
3D4
100
AcDbEntity
  8
RACCORDO
100
AcDbSpline
 62
250
  6
CONTINUOUS
 70
0
 71
3
 72
10
 73
6
 74
0
 42
0.0000001
 43
0.0000001
 44
0.0000000001
 40
0.0
 40
0.0
 40
0.0
 40
0.0
 40
0.6581710886
 40
0.8791992817
 40
1.0
 40
1.0
 40
1.0
 40
1.0
 10
-39.8044614327
 20
-20.9587150466
 30
0.0
 10
-39.80418321
 20
-20.9160678323
 30
0.0
 10
-39.8038594135
 20
-20.8590925191
 30
0.0
 10
-39.8042628881
 20
-20.7943034622
 30
0.0
 10
-39.8044675023
 20
-20.7721463356
 30
0.0
 10
-39.8048596298
 20
-20.7643285276
 30
0.0
  0
SPLINE
  5
3D5
100
AcDbEntity
  8
RACCORDO
100
AcDbSpline
 62
250
  6
CONTINUOUS
 70
0
 71
3
 72
10
 73
6
 74
0
 42
0.0000001
 43
0.0000001
 44
0.0000000001
 40
0.0
 40
0.0
 40
0.0
 40
0.0
 40
0.1205967609
 40
0.3471006822
 40
1.0
 40
1.0
 40
1.0
 40
1.0
 10
-43.0200461717
 20
20.8114198812
 30
0.0
 10
-43.0205501797
 20
20.8213029157
 30
0.0
 10
-43.0206752317
 20
20.8497982111
 30
0.0
 10
-43.0210762999
 20
20.931842228
 30
0.0
 10
-43.020522648
 20
21.004011106
 30
0.0
 10
-43.020046169
 20
21.0575843216
 30
0.0
  0
SPLINE
  5
3D6
100
AcDbEntity
  8
RACCORDO
100
AcDbSpline
 62
250
  6
CONTINUOUS
 70
0
 71
3
 72
10
 73
6
 74
0
 42
0.0000001
 43
0.0000001
 44
0.0000000001
 40
0.0
 40
0.0
 40
0.0
 40
0.0
 40
0.1206249376
 40
0.347255936
 40
1.0
 40
1.0
 40
1.0
 40
1.0
 10
-36.8148105002
 20
20.7205346577
 30
0.0
 10
-36.8143138242
 20
20.7304203792
 30
0.0
 10
-36.8141726497
 20
20.7589276728
 30
0.0
 10
-36.8137884452
 20
20.8409724446
 30
0.0
 10
-36.8143438783
 20
20.9131385317
 30
0.0
 10
-36.8148104827
 20
20.966699098
 30
0.0
  0
SPLINE
  5
3D7
100
AcDbEntity
  8
RACCORDO
100
AcDbSpline
 62
250
  6
CONTINUOUS
 70
0
 71
3
 72
18
 73
14
 74
0
 42
0.0000001
 43
0.0000001
 44
0.0000000001
 40
0.0
 40
0.0
 40
0.0
 40
0.0
 40
0.1949247764
 40
0.3823535533
 40
0.5551487549
 40
0.706643271
 40
0.8310173095
 40
0.8814994885
 40
0.9234930171
 40
0.95660997
 40
0.9805142602
 40
0.994992242
 40
1.0
 40
1.0
 40
1.0
 40
1.0
 10
-45.2148103271
 20
-10.8524894674
 30
0.0
 10
-45.2146397478
 20
-10.8654846166
 30
0.0
 10
-45.2143392331
 20
-10.8909758152
 30
0.0
 10
-45.2139985818
 20
-10.9279870963
 30
0.0
 10
-45.2137836043
 20
-10.9621068865
 30
0.0
 10
-45.2137082084
 20
-10.9920132355
 30
0.0
 10
-45.2137432789
 20
-11.0137905312
 30
0.0
 10
-45.2138796184
 20
-11.0282190231
 30
0.0
 10
-45.2139608015
 20
-11.0366551611
 30
0.0
 10
-45.2141994395
 20
-11.0430889939
 30
0.0
 10
-45.2141549796
 20
-11.0482350538
 30
0.0
 10
-45.2147127199
 20
-11.0504438699
 30
0.0
 10
-45.2144764924
 20
-11.0524532991
 30
0.0
 10
-45.2148103271
 20
-11.0524590064
 30
0.0
  0
SPLINE
  5
3D8
100
AcDbEntity
  8
RACCORDO
100
AcDbSpline
 62
250
  6
CONTINUOUS
 70
0
 71
3
 72
10
 73
6
 74
0
 42
0.0000001
 43
0.0000001
 44
0.0000000001
 40
0.0
 40
0.0
 40
0.0
 40
0.0
 40
0.6526525538
 40
0.8793550116
 40
1.0
 40
1.0
 40
1.0
 40
1.0
 10
-43.0200458904
 20
-20.4794041188
 30
0.0
 10
-43.0205131921
 20
-20.5329571696
 30
0.0
 10
-43.0210678733
 20
-20.6051216204
 30
0.0
 10
-43.0206836997
 20
-20.6871663843
 30
0.0
 10
-43.0205426553
 20
-20.7156811962
 30
0.0
 10
-43.0200458528
 20
-20.7255685588
 30
0.0
  0
SPLINE
  5
3D9
100
AcDbEntity
  8
RACCORDO
100
AcDbSpline
 62
250
  6
CONTINUOUS
 70
0
 71
3
 72
10
 73
6
 74
0
 42
0.0000001
 43
0.0000001
 44
0.0000000001
 40
0.0
 40
0.0
 40
0.0
 40
0.0
 40
0.1205920572
 40
0.3470926341
 40
1.0
 40
1.0
 40
1.0
 40
1.0
 10
-39.8048592176
 20
-20.6784772038
 30
0.0
 10
-39.8043552614
 20
-20.6685945531
 30
0.0
 10
-39.8042301309
 20
-20.640099922
 30
0.0
 10
-39.8038291119
 20
-20.5580559017
 30
0.0
 10
-39.804382761
 20
-20.4858866395
 30
0.0
 10
-39.8048592156
 20
-20.4323127632
 30
0.0
  0
SPLINE
  5
3DA
100
AcDbEntity
  8
RACCORDO
100
AcDbSpline
 62
250
  6
CONTINUOUS
 70
0
 71
3
 72
10
 73
6
 74
0
 42
0.0000001
 43
0.0000001
 44
0.0000000001
 40
0.0
 40
0.0
 40
0.0
 40
0.0
 40
0.6526489187
 40
0.8793310808
 40
1.0
 40
1.0
 40
1.0
 40
1.0
 10
-43.0200458905
 20
20.4794041188
 30
0.0
 10
-43.0205129918
 20
20.5329568732
 30
0.0
 10
-43.0210673756
 20
20.6051193382
 30
0.0
 10
-43.0206841528
 20
20.6871641417
 30
0.0
 10
-43.0205423542
 20
20.7156792145
 30
0.0
 10
-43.0200458654
 20
20.7255685589
 30
0.0
  0
SPLINE
  5
3DB
100
AcDbEntity
  8
RACCORDO
100
AcDbSpline
 62
250
  6
CONTINUOUS
 70
0
 71
3
 72
10
 73
6
 74
0
 42
0.0000001
 43
0.0000001
 44
0.0000000001
 40
0.0
 40
0.0
 40
0.0
 40
0.0
 40
0.6523930359
 40
0.8792003611
 40
1.0
 40
1.0
 40
1.0
 40
1.0
 10
-36.8148102058
 20
20.3885188952
 30
0.0
 10
-36.8143356425
 20
20.4420505818
 30
0.0
 10
-36.8137788918
 20
20.5142028668
 30
0.0
 10
-36.8141822765
 20
20.5962467282
 30
0.0
 10
-36.8143037755
 20
20.6247837554
 30
0.0
 10
-36.8148102038
 20
20.6346833356
 30
0.0
  0
SPLINE
  5
3DC
100
AcDbEntity
  8
RACCORDO
100
AcDbSpline
 62
250
  6
CONTINUOUS
 70
0
 71
3
 72
18
 73
14
 74
0
 42
0.0000001
 43
0.0000001
 44
0.0000000001
 40
0.0
 40
0.0
 40
0.0
 40
0.0
 40
0.0050283648
 40
0.0195075769
 40
0.0433951142
 40
0.0764663101
 40
0.1184217648
 40
0.1688444203
 40
0.2931173393
 40
0.4445307399
 40
0.6172331551
 40
0.8049090499
 40
1.0
 40
1.0
 40
1.0
 40
1.0
 10
-36.7872194721
 20
19.7253704215
 30
0.0
 10
-36.7868915206
 20
19.7254378671
 30
0.0
 10
-36.7874134165
 20
19.7273603496
 30
0.0
 10
-36.7871649083
 20
19.7296553465
 30
0.0
 10
-36.7879250186
 20
19.7347156078
 30
0.0
 10
-36.7885779447
 20
19.7411136493
 30
0.0
 10
-36.7896632129
 20
19.7494561045
 30
0.0
 10
-36.7915193783
 20
19.7637342522
 30
0.0
 10
-36.7944908876
 20
19.7852617186
 30
0.0
 10
-36.7986779225
 20
19.8148156295
 30
0.0
 10
-36.8036099412
 20
19.8485370796
 30
0.0
 10
-36.8090375438
 20
19.885121992
 30
0.0
 10
-36.8128354558
 20
19.9103243324
 30
0.0
 10
-36.8148103271
 20
19.9231635206
 30
0.0
  0
SPLINE
  5
3DD
100
AcDbEntity
  8
RACCORDO
100
AcDbSpline
 62
250
  6
CONTINUOUS
 70
0
 71
3
 72
18
 73
14
 74
0
 42
0.0000001
 43
0.0000001
 44
0.0000000001
 40
0.0
 40
0.0
 40
0.0
 40
0.0
 40
0.1948269848
 40
0.382527406
 40
0.5552873241
 40
0.7067003844
 40
0.831041494
 40
0.88146558
 40
0.9234326675
 40
0.9565191898
 40
0.9803843765
 40
0.9948774967
 40
1.0
 40
1.0
 40
1.0
 40
1.0
 10
-43.0200460437
 20
-21.4362017717
 30
0.0
 10
-43.0197632104
 20
-21.4524395476
 30
0.0
 10
-43.0192618116
 20
-21.4843223184
 30
0.0
 10
-43.0186950857
 20
-21.5306052613
 30
0.0
 10
-43.0183381272
 20
-21.5732751534
 30
0.0
 10
-43.0182106894
 20
-21.610653206
 30
0.0
 10
-43.0182764884
 20
-21.6378642018
 30
0.0
 10
-43.018491682
 20
-21.6558953621
 30
0.0
 10
-43.018653038
 20
-21.666427043
 30
0.0
 10
-43.0189789655
 20
-21.6744750798
 30
0.0
 10
-43.0190686267
 20
-21.680870178
 30
0.0
 10
-43.0197118423
 20
-21.6836869143
 30
0.0
 10
-43.0196191197
 20
-21.6861562435
 30
0.0
 10
-43.0200460524
 20
-21.6861636956
 30
0.0
  0
SPLINE
  5
3DE
100
AcDbEntity
  8
RACCORDO
100
AcDbSpline
 62
250
  6
CONTINUOUS
 70
0
 71
3
 72
18
 73
14
 74
0
 42
0.0000001
 43
0.0000001
 44
0.0000000001
 40
0.0
 40
0.0
 40
0.0
 40
0.0
 40
0.0048565042
 40
0.0192426553
 40
0.0430579902
 40
0.076081242
 40
0.1179990444
 40
0.1684116421
 40
0.2927172493
 40
0.4442318798
 40
0.6171328178
 40
0.8047774614
 40
1.0
 40
1.0
 40
1.0
 40
1.0
 10
-39.8023333142
 20
-21.6299983108
 30
0.0
 10
-39.8027378784
 20
-21.6300053435
 30
0.0
 10
-39.80220457
 20
-21.6274436031
 30
0.0
 10
-39.8029843837
 20
-21.6247807565
 30
0.0
 10
-39.8027686649
 20
-21.6183274585
 30
0.0
 10
-39.8030589804
 20
-21.6103277258
 30
0.0
 10
-39.8031223875
 20
-21.5997979644
 30
0.0
 10
-39.8033144717
 20
-21.5817893286
 30
0.0
 10
-39.8034799958
 20
-21.5545843671
 30
0.0
 10
-39.803716773
 20
-21.5172096102
 30
0.0
 10
-39.8039989675
 20
-21.4745442931
 30
0.0
 10
-39.804367946
 20
-21.4282423251
 30
0.0
 10
-39.8046724263
 20
-21.3963444923
 30
0.0
 10
-39.8048432727
 20
-21.3800801985
 30
0.0
  0
SPLINE
  5
3DF
100
AcDbEntity
  8
RACCORDO
100
AcDbSpline
 62
250
  6
CONTINUOUS
 70
0
 71
3
 72
18
 73
14
 74
0
 42
0.0000001
 43
0.0000001
 44
0.0000000001
 40
0.0
 40
0.0
 40
0.0
 40
0.0
 40
0.194838868
 40
0.3821611309
 40
0.5548685126
 40
0.706333017
 40
0.8307300091
 40
0.8812407615
 40
0.9232760383
 40
0.9564464486
 40
0.9803974249
 40
0.9949362479
 40
1.0
 40
1.0
 40
1.0
 40
1.0
 10
-39.8048593389
 20
-19.3083972004
 30
0.0
 10
-39.8028963512
 20
-19.2955731613
 30
0.0
 10
-39.7991026922
 20
-19.2704110005
 30
0.0
 10
-39.7936603431
 20
-19.2338686531
 30
0.0
 10
-39.7887517647
 20
-19.2001637973
 30
0.0
 10
-39.7845503824
 20
-19.1705997961
 30
0.0
 10
-39.7815806243
 20
-19.1490543606
 30
0.0
 10
-39.7797220452
 20
-19.1347569441
 30
0.0
 10
-39.7786329689
 20
-19.1263969318
 30
0.0
 10
-39.7779765526
 20
-19.1199834626
 30
0.0
 10
-39.7772135123
 20
-19.1149075388
 30
0.0
 10
-39.7774632983
 20
-19.1126045577
 30
0.0
 10
-39.7769381665
 20
-19.1106717402
 30
0.0
 10
-39.7772684839
 20
-19.1106041012
 30
0.0
  0
SPLINE
  5
3E0
100
AcDbEntity
  8
RACCORDO
100
AcDbSpline
 62
250
  6
CONTINUOUS
 70
0
 71
3
 72
18
 73
14
 74
0
 42
0.0000001
 43
0.0000001
 44
0.0000000001
 40
0.0
 40
0.0
 40
0.0
 40
0.0
 40
0.1948270516
 40
0.38252751
 40
0.5552874752
 40
0.7067005935
 40
0.8310417371
 40
0.8814658293
 40
0.9234329157
 40
0.9565194189
 40
0.9803845734
 40
0.9948776409
 40
1.0
 40
1.0
 40
1.0
 40
1.0
 10
-43.0200460215
 20
21.4362017713
 30
0.0
 10
-43.0197636375
 20
21.4524395541
 30
0.0
 10
-43.0192629732
 20
21.484322332
 30
0.0
 10
-43.0186968403
 20
21.5306052757
 30
0.0
 10
-43.0183399762
 20
21.5732751631
 30
0.0
 10
-43.0182123224
 20
21.6106532104
 30
0.0
 10
-43.0182777536
 20
21.6378642056
 30
0.0
 10
-43.0184925932
 20
21.655895363
 30
0.0
 10
-43.0186536911
 20
21.6664270491
 30
0.0
 10
-43.0189794307
 20
21.6744750688
 30
0.0
 10
-43.0190688485
 20
21.6808701995
 30
0.0
 10
-43.0197120612
 20
21.6836868657
 30
0.0
 10
-43.0196191184
 20
21.6861562434
 30
0.0
 10
-43.0200460389
 20
21.6861636954
 30
0.0
  0
SPLINE
  5
3E1
100
AcDbEntity
  8
RACCORDO
100
AcDbSpline
 62
250
  6
CONTINUOUS
 70
0
 71
3
 72
18
 73
14
 74
0
 42
0.0000001
 43
0.0000001
 44
0.0000000001
 40
0.0
 40
0.0
 40
0.0
 40
0.0
 40
0.1949735319
 40
0.382457374
 40
0.5552754716
 40
0.7067913214
 40
0.8311759933
 40
0.8816491028
 40
0.9236337834
 40
0.9567251929
 40
0.9806119411
 40
0.9950609632
 40
1.0
 40
1.0
 40
1.0
 40
1.0
 10
-36.8148103271
 20
21.3278889793
 30
0.0
 10
-36.8146400431
 20
21.3441360273
 30
0.0
 10
-36.8143387634
 20
21.3760065979
 30
0.0
 10
-36.813998824
 20
21.422277767
 30
0.0
 10
-36.8137829805
 20
21.4649323211
 30
0.0
 10
-36.8137096657
 20
21.5023161846
 30
0.0
 10
-36.8137399118
 20
21.529537971
 30
0.0
 10
-36.8138843673
 20
21.5475703589
 30
0.0
 10
-36.8139480976
 20
21.5581138819
 30
0.0
 10
-36.8142314339
 20
21.5661451247
 30
0.0
 10
-36.8140846121
 20
21.572587483
 30
0.0
 10
-36.8148237201
 20
21.5753159209
 30
0.0
 10
-36.8143988009
 20
21.5778436497
 30
0.0
 10
-36.8148103271
 20
21.5778509031
 30
0.0
  0
SPLINE
  5
3E2
100
AcDbEntity
  8
RACCORDO
100
AcDbSpline
 62
250
  6
CONTINUOUS
 70
0
 71
3
 72
18
 73
14
 74
0
 42
0.0000001
 43
0.0000001
 44
0.0000000001
 40
0.0
 40
0.0
 40
0.0
 40
0.0
 40
0.0049826707
 40
0.0194184343
 40
0.043262454
 40
0.0763019596
 40
0.1182225066
 40
0.1686325789
 40
0.2928909692
 40
0.4443357362
 40
0.6171361803
 40
0.8048275549
 40
1.0
 40
1.0
 40
1.0
 40
1.0
 10
-45.2148103271
 20
13.3524590064
 30
0.0
 10
-45.2144781663
 20
13.3524532376
 30
0.0
 10
-45.2147124396
 20
13.3504514509
 30
0.0
 10
-45.2141562061
 20
13.348249022
 30
0.0
 10
-45.2141994948
 20
13.3431159549
 30
0.0
 10
-45.2139613878
 20
13.3366958071
 30
0.0
 10
-45.2138803733
 20
13.3282745994
 30
0.0
 10
-45.2137436387
 20
13.3138634712
 30
0.0
 10
-45.2137082073
 20
13.292102013
 30
0.0
 10
-45.2137828951
 20
13.2622063407
 30
0.0
 10
-45.2139983841
 20
13.2280720062
 30
0.0
 10
-45.2143384881
 20
13.191026349
 30
0.0
 10
-45.214638702
 20
13.1655011182
 30
0.0
 10
-45.2148103271
 20
13.1524894674
 30
0.0
  0
SPLINE
  5
3E3
100
AcDbEntity
  8
RACCORDO
100
AcDbSpline
 62
250
  6
CONTINUOUS
 70
0
 71
3
 72
18
 73
14
 74
0
 42
0.0000001
 43
0.0000001
 44
0.0000000001
 40
0.0
 40
0.0
 40
0.0
 40
0.0
 40
0.0049855281
 40
0.0194195938
 40
0.0432674923
 40
0.0763022262
 40
0.1182299711
 40
0.1686334339
 40
0.2928954981
 40
0.4443413092
 40
0.6171162204
 40
0.8048541843
 40
1.0
 40
1.0
 40
1.0
 40
1.0
 10
-45.2148103271
 20
11.7960966687
 30
0.0
 10
-45.2144779751
 20
11.7960909387
 30
0.0
 10
-45.2147123544
 20
11.794088848
 30
0.0
 10
-45.2141561856
 20
11.7918861317
 30
0.0
 10
-45.214199684
 20
11.7867531906
 30
0.0
 10
-45.213961264
 20
11.7803326302
 30
0.0
 10
-45.2138803432
 20
11.7719116911
 30
0.0
 10
-45.2137436035
 20
11.7575002788
 30
0.0
 10
-45.2137082756
 20
11.7357389456
 30
0.0
 10
-45.2137826961
 20
11.7058446599
 30
0.0
 10
-45.2139988018
 20
11.6717088556
 30
0.0
 10
-45.2143381401
 20
11.6346635636
 30
0.0
 10
-45.2146384601
 20
11.6091370019
 30
0.0
 10
-45.2148103271
 20
11.5961271297
 30
0.0
  0
SPLINE
  5
3E4
100
AcDbEntity
  8
RACCORDO
100
AcDbSpline
 62
250
  6
CONTINUOUS
 70
0
 71
3
 72
12
 73
8
 74
0
 42
0.0000001
 43
0.0000001
 44
0.0000000001
 40
0.0
 40
0.0
 40
0.0
 40
0.0
 40
0.4025276227
 40
0.7166285211
 40
0.9183175022
 40
0.973139772
 40
1.0
 40
1.0
 40
1.0
 40
1.0
 10
-36.7561875411
 20
-22.1029227993
 30
0.0
 10
-36.7440539946
 20
-22.1024480906
 30
0.0
 10
-36.7223874345
 20
-22.1012945538
 30
0.0
 10
-36.6950305965
 20
-22.0988628351
 30
0.0
 10
-36.6775741979
 20
-22.0959629793
 30
0.0
 10
-36.6698260818
 20
-22.0935854969
 30
0.0
 10
-36.6674281881
 20
-22.091801322
 30
0.0
 10
-36.6674281881
 20
-22.0909910443
 30
0.0
  0
SPLINE
  5
3E5
100
AcDbEntity
  8
RACCORDO
100
AcDbSpline
 62
250
  6
CONTINUOUS
 70
0
 71
3
 72
9
 73
5
 74
0
 42
0.0000001
 43
0.0000001
 44
0.0000000001
 40
0.0
 40
0.0
 40
0.0
 40
0.0
 40
0.5063293058
 40
1.0
 40
1.0
 40
1.0
 40
1.0
 10
-43.3148103271
 20
20.9410873667
 30
0.0
 10
-43.3138414154
 20
20.9902094337
 30
0.0
 10
-43.3133992887
 20
21.087248375
 30
0.0
 10
-43.3137982851
 20
21.1842896013
 30
0.0
 10
-43.3148103271
 20
21.2321822041
 30
0.0
  0
LINE
  5
3E6
100
AcDbEntity
  8
RACCORDO
100
AcDbLine
 62
250
  6
CONTINUOUS
 10
-46.8148103271
 20
21.2345215082
 30
0.0
 11
-43.3148103271
 21
21.2321822041
 31
0.0
  0
LINE
  5
3E7
100
AcDbEntity
  8
RACCORDO
100
AcDbLine
 62
250
  6
CONTINUOUS
 10
-43.3148103271
 20
-21.2321822041
 30
0.0
 11
-46.8148103271
 21
-21.2345215082
 31
0.0
  0
SPLINE
  5
3E8
100
AcDbEntity
  8
RACCORDO
100
AcDbSpline
 62
250
  6
CONTINUOUS
 70
0
 71
3
 72
9
 73
5
 74
0
 42
0.0000001
 43
0.0000001
 44
0.0000000001
 40
0.0
 40
0.0
 40
0.0
 40
0.0
 40
0.4932470968
 40
1.0
 40
1.0
 40
1.0
 40
1.0
 10
-43.3148103271
 20
-21.2321822041
 30
0.0
 10
-43.3138039881
 20
-21.1843307161
 30
0.0
 10
-43.3133990183
 20
-21.087289953
 30
0.0
 10
-43.3138360132
 20
-20.990251056
 30
0.0
 10
-43.3148103119
 20
-20.9410881091
 30
0.0
  0
SPLINE
  5
3E9
100
AcDbEntity
  8
RACCORDO
100
AcDbSpline
 62
250
  6
CONTINUOUS
 70
0
 71
3
 72
18
 73
14
 74
0
 42
0.0000001
 43
0.0000001
 44
0.0000000001
 40
0.0
 40
0.0
 40
0.0
 40
0.0
 40
0.1949207202
 40
0.3824197514
 40
0.5552995524
 40
0.706872651
 40
0.831272659
 40
0.8817458597
 40
0.9237043197
 40
0.9567757169
 40
0.9806261603
 40
0.9950451435
 40
1.0
 40
1.0
 40
1.0
 40
1.0
 10
-43.3148103688
 20
19.6696433499
 30
0.0
 10
-43.3146371406
 20
19.6826381994
 30
0.0
 10
-43.3143411094
 20
19.708133889
 30
0.0
 10
-43.3139985369
 20
19.7451551845
 30
0.0
 10
-43.313783459
 20
19.7792906597
 30
0.0
 10
-43.3137084384
 20
19.8092093206
 30
0.0
 10
-43.3137435648
 20
19.8309937584
 30
0.0
 10
-43.3138798029
 20
19.8454198557
 30
0.0
 10
-43.3139609232
 20
19.8538525567
 30
0.0
 10
-43.314199057
 20
19.8602709179
 30
0.0
 10
-43.3141562178
 20
19.8654208449
 30
0.0
 10
-43.3147119195
 20
19.8675945443
 30
0.0
 10
-43.3144800247
 20
19.8696188714
 30
0.0
 10
-43.3148103271
 20
19.8696128897
 30
0.0
  0
SPLINE
  5
3EA
100
AcDbEntity
  8
RACCORDO
100
AcDbSpline
 62
250
  6
CONTINUOUS
 70
0
 71
3
 72
18
 73
14
 74
0
 42
0.0000001
 43
0.0000001
 44
0.0000000001
 40
0.0
 40
0.0
 40
0.0
 40
0.0
 40
0.0049518849
 40
0.0193755118
 40
0.0432334005
 40
0.0763179008
 40
0.1182872938
 40
0.1687717739
 40
0.2931948471
 40
0.4447732466
 40
0.6176369625
 40
0.8051055261
 40
1.0
 40
1.0
 40
1.0
 40
1.0
 10
-43.3148103271
 20
-19.8696128897
 30
0.0
 10
-43.3144802708
 20
-19.8696211019
 30
0.0
 10
-43.3147120319
 20
-19.8675913519
 30
0.0
 10
-43.3141561627
 20
-19.8654224179
 30
0.0
 10
-43.3141988978
 20
-19.8602677408
 30
0.0
 10
-43.3139608489
 20
-19.8538486235
 30
0.0
 10
-43.3138797734
 20
-19.8454130631
 30
0.0
 10
-43.3137435015
 20
-19.8309841781
 30
0.0
 10
-43.3137083356
 20
-19.8091969543
 30
0.0
 10
-43.3137837078
 20
-19.7792775342
 30
0.0
 10
-43.31399832
 20
-19.7451447904
 30
0.0
 10
-43.3143409373
 20
-19.7081283545
 30
0.0
 10
-43.3146377657
 20
-19.6826364574
 30
0.0
 10
-43.3148103581
 20
-19.6696433501
 30
0.0
  0
SPLINE
  5
3EB
100
AcDbEntity
  8
RACCORDO
100
AcDbSpline
 62
250
  6
CONTINUOUS
 70
0
 71
3
 72
18
 73
14
 74
0
 42
0.0000001
 43
0.0000001
 44
0.0000000001
 40
0.0
 40
0.0
 40
0.0
 40
0.0
 40
0.1949021929
 40
0.3826591938
 40
0.5554569987
 40
0.7069211868
 40
0.8312940094
 40
0.8817365415
 40
0.923714101
 40
0.9567796019
 40
0.9806016382
 40
0.9950294009
 40
1.0
 40
1.0
 40
1.0
 40
1.0
 10
-45.2148106633
 20
11.9960662136
 30
0.0
 10
-45.2146423817
 20
11.9830725553
 30
0.0
 10
-45.2143401154
 20
11.9575610275
 30
0.0
 10
-45.2139972043
 20
11.9205292787
 30
0.0
 10
-45.2137833984
 20
11.8863894033
 30
0.0
 10
-45.2137090879
 20
11.8564852554
 30
0.0
 10
-45.2137432256
 20
11.83471215
 30
0.0
 10
-45.2138793364
 20
11.8202883735
 30
0.0
 10
-45.2139596498
 20
11.8118574154
 30
0.0
 10
-45.2141991835
 20
11.8054384945
 30
0.0
 10
-45.2141561521
 20
11.800294246
 30
0.0
 10
-45.2147166486
 20
11.7981148499
 30
0.0
 10
-45.2144793764
 20
11.7960937135
 30
0.0
 10
-45.2148107688
 20
11.7960966765
 30
0.0
  0
SPLINE
  5
3EC
100
AcDbEntity
  8
RACCORDO
100
AcDbSpline
 62
250
  6
CONTINUOUS
 70
0
 71
3
 72
12
 73
8
 74
0
 42
0.0000001
 43
0.0000001
 44
0.0000000001
 40
0.0
 40
0.0
 40
0.0
 40
0.0
 40
0.1200398098
 40
0.2163829424
 40
0.3378961573
 40
0.6439535909
 40
1.0
 40
1.0
 40
1.0
 40
1.0
 10
-38.1035208723
 20
-20.438390831
 30
0.0
 10
-38.0970856554
 20
-20.4385031581
 30
0.0
 10
-38.0876202784
 20
-20.4489235527
 30
0.0
 10
-38.080536922
 20
-20.4649257887
 30
0.0
 10
-38.072180371
 20
-20.492099161
 30
0.0
 10
-38.0661798326
 20
-20.5337008999
 30
0.0
 10
-38.0648882512
 20
-20.5692802683
 30
0.0
 10
-38.0651966071
 20
-20.5883679853
 30
0.0
  0
SPLINE
  5
3ED
100
AcDbEntity
  8
RACCORDO
100
AcDbSpline
 62
250
  6
CONTINUOUS
 70
0
 71
3
 72
11
 73
7
 74
0
 42
0.0000001
 43
0.0000001
 44
0.0000000001
 40
0.0
 40
0.0
 40
0.0
 40
0.0
 40
0.2373725228
 40
0.4822734289
 40
0.7375205733
 40
1.0
 40
1.0
 40
1.0
 40
1.0
 10
-39.5624853796
 20
-19.9351099653
 30
0.0
 10
-39.5450933503
 20
-19.9354135443
 30
0.0
 10
-39.5094672673
 20
-19.9440061844
 30
0.0
 10
-39.4656917106
 20
-19.9781065259
 30
0.0
 10
-39.4370607157
 20
-20.0275436501
 30
0.0
 10
-39.43057376
 20
-20.0658527179
 30
0.0
 10
-39.4306397074
 20
-20.0850871196
 30
0.0
  0
SPLINE
  5
3EE
100
AcDbEntity
  8
ASSI
100
AcDbSpline
 62
250
  6
CONTINUOUS
 70
0
 71
3
 72
14
 73
10
 74
0
 42
0.0000001
 43
0.0000001
 44
0.0000000001
 40
0.0
 40
0.0
 40
0.0
 40
0.0
 40
0.2513459907
 40
0.3752833335
 40
0.498887234
 40
0.6233229342
 40
0.7488779545
 40
0.8747680219
 40
1.0
 40
1.0
 40
1.0
 40
1.0
 10
-45.6701656867
 20
23.2498056281
 30
0.0
 10
-45.7146092172
 20
23.2497789209
 30
0.0
 10
-45.7809873234
 20
23.2498413849
 30
0.0
 10
-45.8691233763
 20
23.2451994381
 30
0.0
 10
-45.9343713233
 20
23.2355974296
 30
0.0
 10
-45.997493605
 20
23.2142322822
 30
0.0
 10
-46.0528475066
 20
23.1751538287
 30
0.0
 10
-46.0901046315
 20
23.1177076696
 30
0.0
 10
-46.0965900454
 20
23.0720820359
 30
0.0
 10
-46.0949374655
 20
23.05
 30
0.0
  0
SPLINE
  5
3EF
100
AcDbEntity
  8
ASSI
100
AcDbSpline
 62
250
  6
CONTINUOUS
 70
0
 71
3
 72
10
 73
6
 74
0
 42
0.0000001
 43
0.0000001
 44
0.0000000001
 40
0.0
 40
0.0
 40
0.0
 40
0.0
 40
0.492435781
 40
0.74296764
 40
1.0
 40
1.0
 40
1.0
 40
1.0
 10
-45.2976892333
 20
23.1969345393
 30
0.0
 10
-45.3467490733
 20
23.2352732927
 30
0.0
 10
-45.448592492
 20
23.2476087474
 30
0.0
 10
-45.5731708311
 20
23.2497341177
 30
0.0
 10
-45.6376666279
 20
23.2498250897
 30
0.0
 10
-45.6701656867
 20
23.2498056281
 30
0.0
  0
SPLINE
  5
3F0
100
AcDbEntity
  8
ASSI
100
AcDbSpline
 62
250
  6
CONTINUOUS
 70
0
 71
3
 72
9
 73
5
 74
0
 42
0.0000001
 43
0.0000001
 44
0.0000000001
 40
0.0
 40
0.0
 40
0.0
 40
0.0
 40
0.5000493525
 40
1.0
 40
1.0
 40
1.0
 40
1.0
 10
-45.2406449272
 20
23.115675964
 30
0.0
 10
-45.2465066684
 20
23.1313249901
 30
0.0
 10
-45.261418147
 20
23.1616319434
 30
0.0
 10
-45.2845250358
 20
23.1866464055
 30
0.0
 10
-45.2976892333
 20
23.1969345393
 30
0.0
  0
SPLINE
  5
3F1
100
AcDbEntity
  8
ASSI
100
AcDbSpline
 62
250
  6
CONTINUOUS
 70
0
 71
3
 72
8
 73
4
 74
0
 42
0.0000001
 43
0.0000001
 44
0.0000000001
 40
0.0
 40
0.0
 40
0.0
 40
0.0
 40
1.0
 40
1.0
 40
1.0
 40
1.0
 10
-45.2310970744
 20
23.05
 30
0.0
 10
-45.2295395297
 20
23.0720672211
 30
0.0
 10
-45.2328842768
 20
23.0949597747
 30
0.0
 10
-45.2406449272
 20
23.115675964
 30
0.0
  0
SPLINE
  5
3F2
100
AcDbEntity
  8
ASSI
100
AcDbSpline
 62
250
  6
CONTINUOUS
 70
0
 71
3
 72
18
 73
14
 74
0
 42
0.0000001
 43
0.0000001
 44
0.0000000001
 40
0.0
 40
0.0
 40
0.0
 40
0.0
 40
0.1990753746
 40
0.3887993622
 40
0.5616112145
 40
0.7117750947
 40
0.8342620072
 40
0.8838504151
 40
0.9250405958
 40
0.9574115499
 40
0.9807583997
 40
0.9949510276
 40
1.0
 40
1.0
 40
1.0
 40
1.0
 10
-52.0174031044
 20
24.3674284937
 30
0.0
 10
-52.0174216829
 20
24.3795516621
 30
0.0
 10
-52.0174964483
 20
24.4032286419
 30
0.0
 10
-52.0177205082
 20
24.4374280103
 30
0.0
 10
-52.0180482867
 20
24.4686505903
 30
0.0
 10
-52.0184690834
 20
24.4957687182
 30
0.0
 10
-52.0188953109
 20
24.515403071
 30
0.0
 10
-52.0193033022
 20
24.5283601681
 30
0.0
 10
-52.01957194
 20
24.5359065195
 30
0.0
 10
-52.0199202361
 20
24.5416636409
 30
0.0
 10
-52.0200952731
 20
24.5462256042
 30
0.0
 10
-52.0205848991
 20
24.5482428587
 30
0.0
 10
-52.0205861161
 20
24.55
 30
0.0
 10
-52.0208935856
 20
24.55
 30
0.0
  0
SPLINE
  5
3F3
100
AcDbEntity
  8
ASSI
100
AcDbSpline
 62
250
  6
CONTINUOUS
 70
0
 71
3
 72
14
 73
10
 74
0
 42
0.0000001
 43
0.0000001
 44
0.0000000001
 40
0.0
 40
0.0
 40
0.0
 40
0.0
 40
0.3819116699
 40
0.5532173911
 40
0.7029999382
 40
0.8259782702
 40
0.917747886
 40
0.9755243438
 40
1.0
 40
1.0
 40
1.0
 40
1.0
 10
-52.0174031044
 20
24.3674284937
 30
0.0
 10
-51.9935227319
 20
24.3737468104
 30
0.0
 10
-51.9587793921
 20
24.382414621
 30
0.0
 10
-51.9144222814
 20
24.3922289737
 30
0.0
 10
-51.8861405207
 20
24.3978057077
 30
0.0
 10
-51.8631678839
 20
24.4017004843
 30
0.0
 10
-51.8449689263
 20
24.4038100538
 30
0.0
 10
-51.8350066329
 20
24.4042189851
 30
0.0
 10
-51.8281181538
 20
24.4032929549
 30
0.0
 10
-51.8277084204
 20
24.401763809
 30
0.0
  0
SPLINE
  5
3F4
100
AcDbEntity
  8
ASSI
100
AcDbSpline
 62
250
  6
CONTINUOUS
 70
0
 71
3
 72
14
 73
10
 74
0
 42
0.0000001
 43
0.0000001
 44
0.0000000001
 40
0.0
 40
0.0
 40
0.0
 40
0.0
 40
0.3807172468
 40
0.5519805184
 40
0.7017870487
 40
0.82482462
 40
0.9169200119
 40
0.9749642262
 40
1.0
 40
1.0
 40
1.0
 40
1.0
 10
-48.8329975991
 20
23.7674284937
 30
0.0
 10
-48.8546160306
 20
23.7798408796
 30
0.0
 10
-48.8862498917
 20
23.7973753309
 30
0.0
 10
-48.9270208956
 20
23.8184889158
 30
0.0
 10
-48.9532473987
 20
23.8312767465
 30
0.0
 10
-48.9747733486
 20
23.841031229
 30
0.0
 10
-48.9920706974
 20
23.8477327286
 30
0.0
 10
-49.0018654338
 20
23.8507173013
 30
0.0
 10
-49.0088735224
 20
23.8514196559
 30
0.0
 10
-49.0096931611
 20
23.85
 30
0.0
  0
SPLINE
  5
3F5
100
AcDbEntity
  8
ASSI
100
AcDbSpline
 62
250
  6
CONTINUOUS
 70
0
 71
3
 72
14
 73
10
 74
0
 42
0.0000001
 43
0.0000001
 44
0.0000000001
 40
0.0
 40
0.0
 40
0.0
 40
0.0
 40
0.3807566227
 40
0.551920908
 40
0.7017487282
 40
0.8248906431
 40
0.9168987134
 40
0.9749773681
 40
1.0
 40
1.0
 40
1.0
 40
1.0
 10
-48.3711173837
 20
24.5674284937
 30
0.0
 10
-48.392738367
 20
24.5798423447
 30
0.0
 10
-48.4243697673
 20
24.5973738486
 30
0.0
 10
-48.4651378771
 20
24.6184899206
 30
0.0
 10
-48.4913681866
 20
24.631273129
 30
0.0
 10
-48.5128947182
 20
24.6410376386
 30
0.0
 10
-48.5301961895
 20
24.6477267138
 30
0.0
 10
-48.5399866655
 20
24.6507318426
 30
0.0
 10
-48.5469937254
 20
24.6514189314
 30
0.0
 10
-48.5478129458
 20
24.65
 30
0.0
  0
SPLINE
  5
3F6
100
AcDbEntity
  8
ASSI
100
AcDbSpline
 62
250
  6
CONTINUOUS
 70
0
 71
3
 72
18
 73
14
 74
0
 42
0.0000001
 43
0.0000001
 44
0.0000000001
 40
0.0
 40
0.0
 40
0.0
 40
0.0
 40
0.1990735995
 40
0.3887925914
 40
0.5616011416
 40
0.7117647614
 40
0.8342537291
 40
0.8838435536
 40
0.9250341131
 40
0.9574057624
 40
0.9807549013
 40
0.9949499558
 40
1.0
 40
1.0
 40
1.0
 40
1.0
 10
-48.3711173837
 20
24.5674284937
 30
0.0
 10
-48.3711359621
 20
24.5795515531
 30
0.0
 10
-48.3712107202
 20
24.6032281188
 30
0.0
 10
-48.3714347771
 20
24.6374268713
 30
0.0
 10
-48.3717625497
 20
24.6686489278
 30
0.0
 10
-48.372183334
 20
24.695766962
 30
0.0
 10
-48.3726095414
 20
24.7154015097
 30
0.0
 10
-48.3730175212
 20
24.72835884
 30
0.0
 10
-48.3732861616
 20
24.7359053437
 30
0.0
 10
-48.373634509
 20
24.7416626614
 30
0.0
 10
-48.3738095005
 20
24.7462249955
 30
0.0
 10
-48.374299259
 20
24.7482424799
 30
0.0
 10
-48.3743003302
 20
24.75
 30
0.0
 10
-48.374607865
 20
24.75
 30
0.0
  0
SPLINE
  5
3F7
100
AcDbEntity
  8
ASSI
100
AcDbSpline
 62
250
  6
CONTINUOUS
 70
0
 71
3
 72
18
 73
14
 74
0
 42
0.0000001
 43
0.0000001
 44
0.0000000001
 40
0.0
 40
0.0
 40
0.0
 40
0.0
 40
0.1990721614
 40
0.3887870714
 40
0.5615927834
 40
0.7117558049
 40
0.8342459892
 40
0.8838366715
 40
0.9250271309
 40
0.9573993765
 40
0.9807509995
 40
0.9949487531
 40
1.0
 40
1.0
 40
1.0
 40
1.0
 10
-48.1747850381
 20
24.5674284937
 30
0.0
 10
-48.1748036163
 20
24.5795514645
 30
0.0
 10
-48.1748783682
 20
24.6032276921
 30
0.0
 10
-48.1751024227
 20
24.6374259327
 30
0.0
 10
-48.1754301913
 20
24.6686475287
 30
0.0
 10
-48.1758509649
 20
24.6957654256
 30
0.0
 10
-48.1762771467
 20
24.7154000623
 30
0.0
 10
-48.1766851127
 20
24.7283575118
 30
0.0
 10
-48.1769537557
 20
24.7359040978
 30
0.0
 10
-48.1773021577
 20
24.7416615886
 30
0.0
 10
-48.1774770975
 20
24.7462243196
 30
0.0
 10
-48.177967004
 20
24.7482420568
 30
0.0
 10
-48.1779679114
 20
24.75
 30
0.0
 10
-48.1782755194
 20
24.75
 30
0.0
  0
SPLINE
  5
3F8
100
AcDbEntity
  8
ASSI
100
AcDbSpline
 62
250
  6
CONTINUOUS
 70
0
 71
3
 72
18
 73
14
 74
0
 42
0.0000001
 43
0.0000001
 44
0.0000000001
 40
0.0
 40
0.0
 40
0.0
 40
0.0
 40
0.1989754808
 40
0.3886213796
 40
0.5613820341
 40
0.711520808
 40
0.8340053915
 40
0.883600359
 40
0.9248003772
 40
0.9571888869
 40
0.9805670245
 40
0.9948122929
 40
1.0
 40
1.0
 40
1.0
 40
1.0
 10
-48.0479995596
 20
24.5393208298
 30
0.0
 10
-48.04285266
 20
24.5503059318
 30
0.0
 10
-48.0327581008
 20
24.5717415374
 30
0.0
 10
-48.0180501305
 20
24.6026457719
 30
0.0
 10
-48.0044861716
 20
24.6307994797
 30
0.0
 10
-47.9925568309
 20
24.6551865096
 30
0.0
 10
-47.9837833615
 20
24.6727795567
 30
0.0
 10
-47.9778603763
 20
24.6843307468
 30
0.0
 10
-47.9743663459
 20
24.6910326287
 30
0.0
 10
-47.9715710795
 20
24.6961008838
 30
0.0
 10
-47.9694005537
 20
24.7001036045
 30
0.0
 10
-47.9680953601
 20
24.7017762029
 30
0.0
 10
-47.9672530404
 20
24.7032875615
 30
0.0
 10
-47.966966391
 20
24.7031538947
 30
0.0
  0
SPLINE
  5
3F9
100
AcDbEntity
  8
ASSI
100
AcDbSpline
 62
250
  6
CONTINUOUS
 70
0
 71
3
 72
10
 73
6
 74
0
 42
0.0000001
 43
0.0000001
 44
0.0000000001
 40
0.0
 40
0.0
 40
0.0
 40
0.0
 40
0.2497446802
 40
0.624683127
 40
1.0
 40
1.0
 40
1.0
 40
1.0
 10
-45.209580454
 20
23.276583268
 30
0.0
 10
-45.2439189913
 20
23.2989368674
 30
0.0
 10
-45.3353586855
 20
23.3465831854
 30
0.0
 10
-45.4929817655
 20
23.3945603885
 30
0.0
 10
-45.6134638482
 20
23.4195756366
 30
0.0
 10
-45.6737343121
 20
23.4321827624
 30
0.0
  0
SPLINE
  5
3FA
100
AcDbEntity
  8
ASSI
100
AcDbSpline
 62
250
  6
CONTINUOUS
 70
0
 71
3
 72
16
 73
12
 74
0
 42
0.0000001
 43
0.0000001
 44
0.0000000001
 40
0.0
 40
0.0
 40
0.0
 40
0.0
 40
0.4060214482
 40
0.5784143386
 40
0.7250903547
 40
0.8428182192
 40
0.9289016541
 40
0.9594759712
 40
0.9814941118
 40
0.994916607
 40
1.0
 40
1.0
 40
1.0
 40
1.0
 10
-45.209580454
 20
23.276583268
 30
0.0
 10
-45.2021348402
 20
23.2921921095
 30
0.0
 10
-45.1914572413
 20
23.314397626
 30
0.0
 10
-45.1778574104
 20
23.3421198613
 30
0.0
 10
-45.1695496292
 20
23.3587806057
 30
0.0
 10
-45.1627688117
 20
23.3720428908
 30
0.0
 10
-45.158077001
 20
23.3809361706
 30
0.0
 10
-45.1552092097
 20
23.3859900685
 30
0.0
 10
-45.1537049797
 20
23.3885541167
 30
0.0
 10
-45.1528296756
 20
23.3897006637
 30
0.0
 10
-45.15218791
 20
23.390601133
 30
0.0
 10
-45.1519916783
 20
23.3905096286
 30
0.0
  0
SPLINE
  5
3FB
100
AcDbEntity
  8
ASSI
100
AcDbSpline
 62
250
  6
CONTINUOUS
 70
0
 71
3
 72
8
 73
4
 74
0
 42
0.0000001
 43
0.0000001
 44
0.0000000001
 40
0.0
 40
0.0
 40
0.0
 40
0.0
 40
1.0
 40
1.0
 40
1.0
 40
1.0
 10
-45.0792284465
 20
23.1639225071
 30
0.0
 10
-45.1151178613
 20
23.2087580035
 30
0.0
 10
-45.1612778578
 20
23.2455176299
 30
0.0
 10
-45.2095788217
 20
23.2765867259
 30
0.0
  0
SPLINE
  5
3FC
100
AcDbEntity
  8
ASSI
100
AcDbSpline
 62
250
  6
CONTINUOUS
 70
0
 71
3
 72
18
 73
14
 74
0
 42
0.0000001
 43
0.0000001
 44
0.0000000001
 40
0.0
 40
0.0
 40
0.0
 40
0.0
 40
0.1990721808
 40
0.3887871378
 40
0.5615928708
 40
0.7117558795
 40
0.8342460377
 40
0.8838367048
 40
0.9250271556
 40
0.9573993955
 40
0.9807510103
 40
0.9949487564
 40
1.0
 40
1.0
 40
1.0
 40
1.0
 10
-44.514635332
 20
23.0674284937
 30
0.0
 10
-44.5146539103
 20
23.0795514657
 30
0.0
 10
-44.5147286623
 20
23.1032276973
 30
0.0
 10
-44.5149527169
 20
23.1374259432
 30
0.0
 10
-44.5152804855
 20
23.1686475426
 30
0.0
 10
-44.5157012592
 20
23.1957654384
 30
0.0
 10
-44.5161274409
 20
23.2154000718
 30
0.0
 10
-44.5165354067
 20
23.2283575182
 30
0.0
 10
-44.5168040496
 20
23.2359041024
 30
0.0
 10
-44.5171524514
 20
23.2416615919
 30
0.0
 10
-44.5173273911
 20
23.2462243215
 30
0.0
 10
-44.5178172973
 20
23.2482420578
 30
0.0
 10
-44.5178182048
 20
23.25
 30
0.0
 10
-44.5181258126
 20
23.25
 30
0.0
  0
SPLINE
  5
3FD
100
AcDbEntity
  8
ASSI
100
AcDbSpline
 62
250
  6
CONTINUOUS
 70
0
 71
3
 72
18
 73
14
 74
0
 42
0.0000001
 43
0.0000001
 44
0.0000000001
 40
0.0
 40
0.0
 40
0.0
 40
0.0
 40
0.1990721614
 40
0.3887870713
 40
0.5615927834
 40
0.7117558048
 40
0.8342459892
 40
0.8838366715
 40
0.9250271309
 40
0.9573993765
 40
0.9807509995
 40
0.9949487531
 40
1.0
 40
1.0
 40
1.0
 40
1.0
 10
-42.8037328527
 20
23.0674284937
 30
0.0
 10
-42.8037514309
 20
23.0795514645
 30
0.0
 10
-42.8038261828
 20
23.1032276921
 30
0.0
 10
-42.8040502373
 20
23.1374259327
 30
0.0
 10
-42.8043780059
 20
23.1686475287
 30
0.0
 10
-42.8047987795
 20
23.1957654256
 30
0.0
 10
-42.8052249613
 20
23.2154000623
 30
0.0
 10
-42.8056329273
 20
23.2283575118
 30
0.0
 10
-42.8059015704
 20
23.2359040978
 30
0.0
 10
-42.8062499723
 20
23.2416615886
 30
0.0
 10
-42.8064249122
 20
23.2462243196
 30
0.0
 10
-42.8069148186
 20
23.2482420568
 30
0.0
 10
-42.806915726
 20
23.25
 30
0.0
 10
-42.807223334
 20
23.25
 30
0.0
  0
SPLINE
  5
3FE
100
AcDbEntity
  8
ASSI
100
AcDbSpline
 62
250
  6
CONTINUOUS
 70
0
 71
3
 72
11
 73
7
 74
0
 42
0.0000001
 43
0.0000001
 44
0.0000000001
 40
0.0
 40
0.0
 40
0.0
 40
0.0
 40
0.2600007728
 40
0.5142106116
 40
0.7601059335
 40
1.0
 40
1.0
 40
1.0
 40
1.0
 10
-41.7091590017
 20
23.05
 30
0.0
 10
-41.7091590026
 20
23.0759357648
 30
0.0
 10
-41.718429034
 20
23.1277268495
 30
0.0
 10
-41.7586183956
 20
23.1940820414
 30
0.0
 10
-41.8194867439
 20
23.2392506093
 30
0.0
 10
-41.8685366127
 20
23.25
 30
0.0
 10
-41.8924666804
 20
23.25
 30
0.0
  0
SPLINE
  5
3FF
100
AcDbEntity
  8
ASSI
100
AcDbSpline
 62
250
  6
CONTINUOUS
 70
0
 71
3
 72
11
 73
7
 74
0
 42
0.0000001
 43
0.0000001
 44
0.0000000001
 40
0.0
 40
0.0
 40
0.0
 40
0.0
 40
0.2618102817
 40
0.5168144784
 40
0.7619825236
 40
1.0
 40
1.0
 40
1.0
 40
1.0
 10
-42.618410448
 20
23.05
 30
0.0
 10
-42.6184104481
 20
23.0759225998
 30
0.0
 10
-42.6093305057
 20
23.1275774268
 30
0.0
 10
-42.5698945533
 20
23.1938998727
 30
0.0
 10
-42.5100181676
 20
23.2391800773
 30
0.0
 10
-42.4615843462
 20
23.25
 30
0.0
 10
-42.4380175414
 20
23.25
 30
0.0
  0
SPLINE
  5
400
100
AcDbEntity
  8
RACCORDO
100
AcDbSpline
 62
250
  6
CONTINUOUS
 70
0
 71
3
 72
12
 73
8
 74
0
 42
0.0000001
 43
0.0000001
 44
0.0000000001
 40
0.0
 40
0.0
 40
0.0
 40
0.0
 40
0.3725981997
 40
0.6826612555
 40
0.8948216911
 40
0.9590250782
 40
1.0
 40
1.0
 40
1.0
 40
1.0
 10
-36.7764270861
 20
22.1035665367
 30
0.0
 10
-36.7726892172
 20
22.1256729331
 30
0.0
 10
-36.7671055919
 20
22.166453807
 30
0.0
 10
-36.7639024811
 20
22.2201130323
 30
0.0
 10
-36.7658847271
 20
22.2557852068
 30
0.0
 10
-36.7714462768
 20
22.2740397832
 30
0.0
 10
-36.7762237845
 20
22.2791516676
 30
0.0
 10
-36.7786053313
 20
22.2797898257
 30
0.0
  0
SPLINE
  5
401
100
AcDbEntity
  8
ASSI
100
AcDbSpline
 62
250
  6
CONTINUOUS
 70
0
 71
3
 72
12
 73
8
 74
0
 42
0.0000001
 43
0.0000001
 44
0.0000000001
 40
0.0
 40
0.0
 40
0.0
 40
0.0
 40
0.1154303279
 40
0.2090636553
 40
0.328169921
 40
0.6333369422
 40
1.0
 40
1.0
 40
1.0
 40
1.0
 10
-38.1073688789
 20
22.6358309453
 30
0.0
 10
-38.1005787212
 20
22.634011528
 30
0.0
 10
-38.0933507285
 20
22.6203499296
 30
0.0
 10
-38.0899688337
 20
22.6013684803
 30
0.0
 10
-38.0879959972
 20
22.5695041244
 30
0.0
 10
-38.0921124091
 20
22.5215281957
 30
0.0
 10
-38.0995004266
 20
22.4811840454
 30
0.0
 10
-38.1044645519
 20
22.4594131032
 30
0.0
  0
SPLINE
  5
402
100
AcDbEntity
  8
ASSI
100
AcDbSpline
 62
250
  6
CONTINUOUS
 70
0
 71
3
 72
18
 73
14
 74
0
 42
0.0000001
 43
0.0000001
 44
0.0000000001
 40
0.0
 40
0.0
 40
0.0
 40
0.0
 40
0.004767247
 40
0.0188699486
 40
0.0421690029
 40
0.0745093631
 40
0.1156814946
 40
0.1652645214
 40
0.2877679565
 40
0.4379816125
 40
0.6108793702
 40
0.8007337499
 40
1.0
 40
1.0
 40
1.0
 40
1.0
 10
-38.1841353609
 20
22.6564004621
 30
0.0
 10
-38.1844151414
 20
22.6564754291
 30
0.0
 10
-38.1844485679
 20
22.6545891674
 30
0.0
 10
-38.1855174699
 20
22.6529037365
 30
0.0
 10
-38.1865261949
 20
22.6484051152
 30
0.0
 10
-38.1882205266
 20
22.6429376793
 30
0.0
 10
-38.1902168998
 20
22.6356663849
 30
0.0
 10
-38.1937098933
 20
22.6232182505
 30
0.0
 10
-38.1989054273
 20
22.6043190054
 30
0.0
 10
-38.2060483535
 20
22.5782110569
 30
0.0
 10
-38.214217381
 20
22.5481311595
 30
0.0
 10
-38.2231264481
 20
22.5151673211
 30
0.0
 10
-38.229269189
 20
22.4923367422
 30
0.0
 10
-38.2324086886
 20
22.4806437906
 30
0.0
  0
SPLINE
  5
403
100
AcDbEntity
  8
ASSI
100
AcDbSpline
 62
250
  6
CONTINUOUS
 70
0
 71
3
 72
18
 73
14
 74
0
 42
0.0000001
 43
0.0000001
 44
0.0000000001
 40
0.0
 40
0.0
 40
0.0
 40
0.0
 40
0.004767247
 40
0.0188699486
 40
0.0421690029
 40
0.0745093631
 40
0.1156814946
 40
0.1652645214
 40
0.2877679564
 40
0.4379816125
 40
0.6108793702
 40
0.8007337499
 40
1.0
 40
1.0
 40
1.0
 40
1.0
 10
-40.3358957219
 20
23.2329629131
 30
0.0
 10
-40.3361755023
 20
23.2330378801
 30
0.0
 10
-40.3362089289
 20
23.2311516184
 30
0.0
 10
-40.3372778309
 20
23.2294661875
 30
0.0
 10
-40.3382865558
 20
23.2249675663
 30
0.0
 10
-40.3399808875
 20
23.2195001303
 30
0.0
 10
-40.3419772608
 20
23.2122288359
 30
0.0
 10
-40.3454702543
 20
23.1997807016
 30
0.0
 10
-40.3506657883
 20
23.1808814565
 30
0.0
 10
-40.3578087144
 20
23.154773508
 30
0.0
 10
-40.3659777419
 20
23.1246936105
 30
0.0
 10
-40.374886809
 20
23.0917297721
 30
0.0
 10
-40.38102955
 20
23.0688991933
 30
0.0
 10
-40.3841690496
 20
23.0572062416
 30
0.0
  0
SPLINE
  5
404
100
AcDbEntity
  8
ASSI
100
AcDbSpline
 62
250
  6
CONTINUOUS
 70
0
 71
3
 72
18
 73
14
 74
0
 42
0.0000001
 43
0.0000001
 44
0.0000000001
 40
0.0
 40
0.0
 40
0.0
 40
0.0
 40
0.0050512469
 40
0.0192490005
 40
0.0426006235
 40
0.0749728691
 40
0.1161633285
 40
0.1657540108
 40
0.2882441951
 40
0.4384072166
 40
0.6112129286
 40
0.8009278386
 40
1.0
 40
1.0
 40
1.0
 40
1.0
 10
-40.4653052444
 20
23.25
 30
0.0
 10
-40.4649976364
 20
23.25
 30
0.0
 10
-40.4649967291
 20
23.2482420568
 30
0.0
 10
-40.4645068226
 20
23.2462243196
 30
0.0
 10
-40.4643318827
 20
23.2416615886
 30
0.0
 10
-40.4639834808
 20
23.2359040978
 30
0.0
 10
-40.4637148377
 20
23.2283575118
 30
0.0
 10
-40.4633068718
 20
23.2154000623
 30
0.0
 10
-40.46288069
 20
23.1957654256
 30
0.0
 10
-40.4624599164
 20
23.1686475287
 30
0.0
 10
-40.4621321478
 20
23.1374259327
 30
0.0
 10
-40.4619080933
 20
23.1032276921
 30
0.0
 10
-40.4618333414
 20
23.0795514645
 30
0.0
 10
-40.4618147631
 20
23.0674284937
 30
0.0
  0
SPLINE
  5
405
100
AcDbEntity
  8
ASSI
100
AcDbSpline
 62
250
  6
CONTINUOUS
 70
0
 71
3
 72
18
 73
14
 74
0
 42
0.0000001
 43
0.0000001
 44
0.0000000001
 40
0.0
 40
0.0
 40
0.0
 40
0.0
 40
0.199072161
 40
0.3887870701
 40
0.5615927822
 40
0.7117558044
 40
0.8342459893
 40
0.8838366717
 40
0.9250271312
 40
0.9573993768
 40
0.9807509998
 40
0.9949487533
 40
1.0
 40
1.0
 40
1.0
 40
1.0
 10
-41.5280096032
 20
23.0674284937
 30
0.0
 10
-41.5280281815
 20
23.0795514645
 30
0.0
 10
-41.5281029334
 20
23.103227692
 30
0.0
 10
-41.5283269878
 20
23.1374259325
 30
0.0
 10
-41.5286547562
 20
23.1686475285
 30
0.0
 10
-41.5290755296
 20
23.1957654255
 30
0.0
 10
-41.5295017111
 20
23.2154000622
 30
0.0
 10
-41.5299096769
 20
23.2283575117
 30
0.0
 10
-41.5301783198
 20
23.2359040977
 30
0.0
 10
-41.5305267216
 20
23.2416615885
 30
0.0
 10
-41.5307016612
 20
23.2462243196
 30
0.0
 10
-41.5311915678
 20
23.2482420567
 30
0.0
 10
-41.5311924748
 20
23.25
 30
0.0
 10
-41.5315000828
 20
23.25
 30
0.0
  0
SPLINE
  5
406
100
AcDbEntity
  8
RACCORDO
100
AcDbSpline
 62
250
  6
CONTINUOUS
 70
0
 71
3
 72
9
 73
5
 74
0
 42
0.0000001
 43
0.0000001
 44
0.0000000001
 40
0.0
 40
0.0
 40
0.0
 40
0.0
 40
0.5676136205
 40
1.0
 40
1.0
 40
1.0
 40
1.0
 10
-52.5832549567
 20
17.8608330425
 30
0.0
 10
-52.6026548211
 20
17.8588682652
 30
0.0
 10
-52.6368373018
 20
17.850339178
 30
0.0
 10
-52.6632094203
 20
17.8223739484
 30
0.0
 10
-52.6664720354
 20
17.8078830218
 30
0.0
  0
SPLINE
  5
407
100
AcDbEntity
  8
RACCORDO
100
AcDbSpline
 62
250
  6
CONTINUOUS
 70
0
 71
3
 72
11
 73
7
 74
0
 42
0.0000001
 43
0.0000001
 44
0.0000000001
 40
0.0
 40
0.0
 40
0.0
 40
0.0
 40
0.3018435328
 40
0.5720562666
 40
0.8018264641
 40
1.0
 40
1.0
 40
1.0
 40
1.0
 10
-52.5832542578
 20
-17.8608331146
 30
0.0
 10
-52.594528656
 20
-17.8596913176
 30
0.0
 10
-52.6157778316
 20
-17.8553168119
 30
0.0
 10
-52.6431873808
 20
-17.8419693092
 30
0.0
 10
-52.662271322
 20
-17.8230520982
 30
0.0
 10
-52.6674281881
 20
-17.8068644029
 30
0.0
 10
-52.6674281881
 20
-17.7994244028
 30
0.0
  0
SPLINE
  5
408
100
AcDbEntity
  8
RACCORDO
100
AcDbSpline
 62
250
  6
CONTINUOUS
 70
0
 71
3
 72
11
 73
7
 74
0
 42
0.0000001
 43
0.0000001
 44
0.0000000001
 40
0.0
 40
0.0
 40
0.0
 40
0.0
 40
0.222695614
 40
0.4621674503
 40
0.7236767714
 40
1.0
 40
1.0
 40
1.0
 40
1.0
 10
-39.3149803174
 20
-20.4172447277
 30
0.0
 10
-39.2995218492
 20
-20.4175145563
 30
0.0
 10
-39.2671747174
 20
-20.4265309667
 30
0.0
 10
-39.2288620291
 20
-20.4611891959
 30
0.0
 10
-39.2042932244
 20
-20.5103837468
 30
0.0
 10
-39.1988744984
 20
-20.5480383293
 30
0.0
 10
-39.1990000223
 20
-20.567221882
 30
0.0
  0
SPLINE
  5
409
100
AcDbEntity
  8
ASSI
100
AcDbSpline
 62
250
  6
CONTINUOUS
 70
0
 71
3
 72
8
 73
4
 74
0
 42
0.0000001
 43
0.0000001
 44
0.0000000001
 40
0.0
 40
0.0
 40
0.0
 40
0.0
 40
1.0
 40
1.0
 40
1.0
 40
1.0
 10
-45.2406453706
 20
-23.1156774572
 30
0.0
 10
-45.2328841287
 20
-23.0949609408
 30
0.0
 10
-45.2295387814
 20
-23.0720676832
 30
0.0
 10
-45.2310970756
 20
-23.05
 30
0.0
  0
SPLINE
  5
40A
100
AcDbEntity
  8
ASSI
100
AcDbSpline
 62
250
  6
CONTINUOUS
 70
0
 71
3
 72
9
 73
5
 74
0
 42
0.0000001
 43
0.0000001
 44
0.0000000001
 40
0.0
 40
0.0
 40
0.0
 40
0.0
 40
0.4999416975
 40
1.0
 40
1.0
 40
1.0
 40
1.0
 10
-45.2976696038
 20
-23.1969192383
 30
0.0
 10
-45.2845100975
 20
-23.18663264
 30
0.0
 10
-45.2614124067
 20
-23.1616217742
 30
0.0
 10
-45.2465064308
 20
-23.1313224193
 30
0.0
 10
-45.2406453706
 20
-23.1156774572
 30
0.0
  0
SPLINE
  5
40B
100
AcDbEntity
  8
ASSI
100
AcDbSpline
 62
250
  6
CONTINUOUS
 70
0
 71
3
 72
10
 73
6
 74
0
 42
0.0000001
 43
0.0000001
 44
0.0000000001
 40
0.0
 40
0.0
 40
0.0
 40
0.0
 40
0.2569797436
 40
0.5073620077
 40
1.0
 40
1.0
 40
1.0
 40
1.0
 10
-45.6701656866
 20
-23.249805628
 30
0.0
 10
-45.6376713522
 20
-23.2498248656
 30
0.0
 10
-45.573197068
 20
-23.2497308344
 30
0.0
 10
-45.4486129549
 20
-23.2476167623
 30
0.0
 10
-45.3467407619
 20
-23.2352910293
 30
0.0
 10
-45.2976696038
 20
-23.1969192383
 30
0.0
  0
SPLINE
  5
40C
100
AcDbEntity
  8
ASSI
100
AcDbSpline
 62
250
  6
CONTINUOUS
 70
0
 71
3
 72
14
 73
10
 74
0
 42
0.0000001
 43
0.0000001
 44
0.0000000001
 40
0.0
 40
0.0
 40
0.0
 40
0.0
 40
0.1253947777
 40
0.2512505541
 40
0.376736153
 40
0.5011380136
 40
0.6247294136
 40
0.7486590692
 40
1.0
 40
1.0
 40
1.0
 40
1.0
 10
-46.0949373675
 20
-23.05
 30
0.0
 10
-46.0965885729
 20
-23.0721109422
 30
0.0
 10
-46.0900920905
 20
-23.1177630833
 30
0.0
 10
-46.0527952634
 20
-23.1751943596
 30
0.0
 10
-45.997458455
 20
-23.2142484302
 30
0.0
 10
-45.9343534033
 20
-23.2356005647
 30
0.0
 10
-45.8691152808
 20
-23.2451999566
 30
0.0
 10
-45.7809838024
 20
-23.2498406693
 30
0.0
 10
-45.7146081957
 20
-23.2497788892
 30
0.0
 10
-45.6701656866
 20
-23.249805628
 30
0.0
  0
SPLINE
  5
40D
100
AcDbEntity
  8
ASSI
100
AcDbSpline
 62
250
  6
CONTINUOUS
 70
0
 71
3
 72
12
 73
8
 74
0
 42
0.0000001
 43
0.0000001
 44
0.0000000001
 40
0.0
 40
0.0
 40
0.0
 40
0.0
 40
0.3666630578
 40
0.671830079
 40
0.7909363447
 40
0.8845696721
 40
1.0
 40
1.0
 40
1.0
 40
1.0
 10
-38.1044645519
 20
-22.4594131032
 30
0.0
 10
-38.0995004266
 20
-22.4811840454
 30
0.0
 10
-38.0921124091
 20
-22.5215281957
 30
0.0
 10
-38.0879959972
 20
-22.5695041244
 30
0.0
 10
-38.0899688337
 20
-22.6013684803
 30
0.0
 10
-38.0933507285
 20
-22.6203499296
 30
0.0
 10
-38.1005787212
 20
-22.634011528
 30
0.0
 10
-38.1073688789
 20
-22.6358309453
 30
0.0
  0
SPLINE
  5
40E
100
AcDbEntity
  8
RACCORDO
100
AcDbSpline
 62
250
  6
CONTINUOUS
 70
0
 71
3
 72
12
 73
8
 74
0
 42
0.0000001
 43
0.0000001
 44
0.0000000001
 40
0.0
 40
0.0
 40
0.0
 40
0.0
 40
0.0408865632
 40
0.1050029963
 40
0.3169569919
 40
0.6269689847
 40
1.0
 40
1.0
 40
1.0
 40
1.0
 10
-36.7786053313
 20
-22.2797898257
 30
0.0
 10
-36.7762289067
 20
-22.2791530654
 30
0.0
 10
-36.7714577261
 20
-22.274053559
 30
0.0
 10
-36.765879818
 20
-22.2558274253
 30
0.0
 10
-36.7639055209
 20
-22.2201716161
 30
0.0
 10
-36.7671114897
 20
-22.1665054899
 30
0.0
 10
-36.7726669287
 20
-22.1256956384
 30
0.0
 10
-36.7764270861
 20
-22.1035665367
 30
0.0
  0
SPLINE
  5
40F
100
AcDbEntity
  8
ASSI
100
AcDbSpline
 62
250
  6
CONTINUOUS
 70
0
 71
3
 72
18
 73
14
 74
0
 42
0.0000001
 43
0.0000001
 44
0.0000000001
 40
0.0
 40
0.0
 40
0.0
 40
0.0
 40
0.1992662501
 40
0.3891206298
 40
0.5620183875
 40
0.7122320435
 40
0.8347354786
 40
0.8843185054
 40
0.9254906369
 40
0.9578309971
 40
0.9811300514
 40
0.995232753
 40
1.0
 40
1.0
 40
1.0
 40
1.0
 10
-38.2324086886
 20
-22.4806437906
 30
0.0
 10
-38.229269189
 20
-22.4923367422
 30
0.0
 10
-38.2231264481
 20
-22.5151673211
 30
0.0
 10
-38.214217381
 20
-22.5481311595
 30
0.0
 10
-38.2060483535
 20
-22.5782110569
 30
0.0
 10
-38.1989054273
 20
-22.6043190054
 30
0.0
 10
-38.1937098933
 20
-22.6232182505
 30
0.0
 10
-38.1902168998
 20
-22.6356663849
 30
0.0
 10
-38.1882205266
 20
-22.6429376793
 30
0.0
 10
-38.1865261949
 20
-22.6484051153
 30
0.0
 10
-38.1855174699
 20
-22.6529037365
 30
0.0
 10
-38.1844485679
 20
-22.6545891674
 30
0.0
 10
-38.1844151414
 20
-22.6564754291
 30
0.0
 10
-38.1841353609
 20
-22.6564004621
 30
0.0
  0
SPLINE
  5
410
100
AcDbEntity
  8
ASSI
100
AcDbSpline
 62
250
  6
CONTINUOUS
 70
0
 71
3
 72
18
 73
14
 74
0
 42
0.0000001
 43
0.0000001
 44
0.0000000001
 40
0.0
 40
0.0
 40
0.0
 40
0.0
 40
0.1992662501
 40
0.3891206298
 40
0.5620183875
 40
0.7122320436
 40
0.8347354786
 40
0.8843185054
 40
0.9254906369
 40
0.9578309971
 40
0.9811300514
 40
0.995232753
 40
1.0
 40
1.0
 40
1.0
 40
1.0
 10
-40.3841690496
 20
-23.0572062416
 30
0.0
 10
-40.38102955
 20
-23.0688991933
 30
0.0
 10
-40.374886809
 20
-23.0917297721
 30
0.0
 10
-40.3659777419
 20
-23.1246936105
 30
0.0
 10
-40.3578087144
 20
-23.154773508
 30
0.0
 10
-40.3506657883
 20
-23.1808814565
 30
0.0
 10
-40.3454702543
 20
-23.1997807016
 30
0.0
 10
-40.3419772608
 20
-23.2122288359
 30
0.0
 10
-40.3399808875
 20
-23.2195001303
 30
0.0
 10
-40.3382865558
 20
-23.2249675663
 30
0.0
 10
-40.3372778309
 20
-23.2294661875
 30
0.0
 10
-40.3362089289
 20
-23.2311516184
 30
0.0
 10
-40.3361755023
 20
-23.2330378801
 30
0.0
 10
-40.3358957219
 20
-23.2329629131
 30
0.0
  0
SPLINE
  5
411
100
AcDbEntity
  8
ASSI
100
AcDbSpline
 62
250
  6
CONTINUOUS
 70
0
 71
3
 72
18
 73
14
 74
0
 42
0.0000001
 43
0.0000001
 44
0.0000000001
 40
0.0
 40
0.0
 40
0.0
 40
0.0
 40
0.1990721614
 40
0.3887870714
 40
0.5615927834
 40
0.7117558049
 40
0.8342459892
 40
0.8838366715
 40
0.9250271309
 40
0.9573993765
 40
0.9807509995
 40
0.9949487531
 40
1.0
 40
1.0
 40
1.0
 40
1.0
 10
-40.4618147631
 20
-23.0674284937
 30
0.0
 10
-40.4618333414
 20
-23.0795514645
 30
0.0
 10
-40.4619080933
 20
-23.1032276921
 30
0.0
 10
-40.4621321477
 20
-23.1374259327
 30
0.0
 10
-40.4624599164
 20
-23.1686475287
 30
0.0
 10
-40.4628806899
 20
-23.1957654256
 30
0.0
 10
-40.4633068717
 20
-23.2154000623
 30
0.0
 10
-40.4637148377
 20
-23.2283575118
 30
0.0
 10
-40.4639834808
 20
-23.2359040978
 30
0.0
 10
-40.4643318827
 20
-23.2416615886
 30
0.0
 10
-40.4645068226
 20
-23.2462243196
 30
0.0
 10
-40.464996729
 20
-23.2482420568
 30
0.0
 10
-40.4649976364
 20
-23.25
 30
0.0
 10
-40.4653052444
 20
-23.25
 30
0.0
  0
SPLINE
  5
412
100
AcDbEntity
  8
ASSI
100
AcDbSpline
 62
250
  6
CONTINUOUS
 70
0
 71
3
 72
18
 73
14
 74
0
 42
0.0000001
 43
0.0000001
 44
0.0000000001
 40
0.0
 40
0.0
 40
0.0
 40
0.0
 40
0.1990721616
 40
0.388787072
 40
0.561592784
 40
0.7117558049
 40
0.8342459888
 40
0.883836671
 40
0.9250271303
 40
0.9573993759
 40
0.9807509989
 40
0.9949487525
 40
1.0
 40
1.0
 40
1.0
 40
1.0
 10
-41.5280096222
 20
-23.0674284937
 30
0.0
 10
-41.5280282007
 20
-23.0795514646
 30
0.0
 10
-41.5281029529
 20
-23.1032276922
 30
0.0
 10
-41.5283270077
 20
-23.1374259328
 30
0.0
 10
-41.5286547762
 20
-23.1686475289
 30
0.0
 10
-41.5290755495
 20
-23.1957654257
 30
0.0
 10
-41.5295017311
 20
-23.2154000624
 30
0.0
 10
-41.5299096969
 20
-23.2283575118
 30
0.0
 10
-41.53017834
 20
-23.2359040978
 30
0.0
 10
-41.5305267419
 20
-23.2416615886
 30
0.0
 10
-41.5307016821
 20
-23.2462243195
 30
0.0
 10
-41.5311915884
 20
-23.2482420569
 30
0.0
 10
-41.5311924963
 20
-23.25
 30
0.0
 10
-41.5315001044
 20
-23.25
 30
0.0
  0
SPLINE
  5
413
100
AcDbEntity
  8
ASSI
100
AcDbSpline
 62
250
  6
CONTINUOUS
 70
0
 71
3
 72
11
 73
7
 74
0
 42
0.0000001
 43
0.0000001
 44
0.0000000001
 40
0.0
 40
0.0
 40
0.0
 40
0.0
 40
0.2600007742
 40
0.5142106175
 40
0.7601059403
 40
1.0
 40
1.0
 40
1.0
 40
1.0
 10
-41.7091590187
 20
-23.05
 30
0.0
 10
-41.7091590188
 20
-23.0759357644
 30
0.0
 10
-41.7184290487
 20
-23.1277268488
 30
0.0
 10
-41.7586184086
 20
-23.1940820407
 30
0.0
 10
-41.8194867545
 20
-23.2392506088
 30
0.0
 10
-41.8685366216
 20
-23.25
 30
0.0
 10
-41.8924666881
 20
-23.25
 30
0.0
  0
SPLINE
  5
414
100
AcDbEntity
  8
ASSI
100
AcDbSpline
 62
250
  6
CONTINUOUS
 70
0
 71
3
 72
11
 73
7
 74
0
 42
0.0000001
 43
0.0000001
 44
0.0000000001
 40
0.0
 40
0.0
 40
0.0
 40
0.0
 40
0.2618102829
 40
0.5168144777
 40
0.7619825217
 40
1.0
 40
1.0
 40
1.0
 40
1.0
 10
-42.6184104505
 20
-23.05
 30
0.0
 10
-42.61841045
 20
-23.0759226001
 30
0.0
 10
-42.609330507
 20
-23.127577427
 30
0.0
 10
-42.5698945543
 20
-23.1938998729
 30
0.0
 10
-42.5100181683
 20
-23.2391800776
 30
0.0
 10
-42.4615843465
 20
-23.25
 30
0.0
 10
-42.4380175414
 20
-23.25
 30
0.0
  0
SPLINE
  5
415
100
AcDbEntity
  8
ASSI
100
AcDbSpline
 62
250
  6
CONTINUOUS
 70
0
 71
3
 72
8
 73
4
 74
0
 42
0.0000001
 43
0.0000001
 44
0.0000000001
 40
0.0
 40
0.0
 40
0.0
 40
0.0
 40
1.0
 40
1.0
 40
1.0
 40
1.0
 10
-45.209540702
 20
-23.2765594426
 30
0.0
 10
-45.1612752161
 20
-23.2454654824
 30
0.0
 10
-45.1151558247
 20
-23.2087100737
 30
0.0
 10
-45.0792291632
 20
-23.1639254059
 30
0.0
  0
SPLINE
  5
416
100
AcDbEntity
  8
ASSI
100
AcDbSpline
 62
250
  6
CONTINUOUS
 70
0
 71
3
 72
18
 73
14
 74
0
 42
0.0000001
 43
0.0000001
 44
0.0000000001
 40
0.0
 40
0.0
 40
0.0
 40
0.0
 40
0.0050512442
 40
0.0192489908
 40
0.042600606
 40
0.0749728461
 40
0.1161632973
 40
0.1657539652
 40
0.2882441245
 40
0.4384071338
 40
0.6112128656
 40
0.8009278203
 40
1.0
 40
1.0
 40
1.0
 40
1.0
 10
-44.5181258133
 20
-23.25
 30
0.0
 10
-44.5178182055
 20
-23.25
 30
0.0
 10
-44.5178172975
 20
-23.2482420579
 30
0.0
 10
-44.5173273915
 20
-23.2462243214
 30
0.0
 10
-44.5171524515
 20
-23.2416615917
 30
0.0
 10
-44.5168040497
 20
-23.2359041022
 30
0.0
 10
-44.5165354067
 20
-23.2283575179
 30
0.0
 10
-44.5161274408
 20
-23.2154000714
 30
0.0
 10
-44.5157012592
 20
-23.1957654378
 30
0.0
 10
-44.5152804856
 20
-23.168647542
 30
0.0
 10
-44.5149527169
 20
-23.1374259428
 30
0.0
 10
-44.5147286623
 20
-23.1032276971
 30
0.0
 10
-44.5146539103
 20
-23.0795514657
 30
0.0
 10
-44.514635332
 20
-23.0674284938
 30
0.0
  0
SPLINE
  5
417
100
AcDbEntity
  8
ASSI
100
AcDbSpline
 62
250
  6
CONTINUOUS
 70
0
 71
3
 72
16
 73
12
 74
0
 42
0.0000001
 43
0.0000001
 44
0.0000000001
 40
0.0
 40
0.0
 40
0.0
 40
0.0
 40
0.4060154587
 40
0.5784827853
 40
0.7251498709
 40
0.8428135933
 40
0.9289504581
 40
0.9595030982
 40
0.9815138551
 40
0.9949373031
 40
1.0
 40
1.0
 40
1.0
 40
1.0
 10
-45.2095403557
 20
-23.2765601439
 30
0.0
 10
-45.2021039514
 20
-23.2921724298
 30
0.0
 10
-45.1914384415
 20
-23.3143860882
 30
0.0
 10
-45.1778557114
 20
-23.3421182174
 30
0.0
 10
-45.1695612405
 20
-23.3587851833
 30
0.0
 10
-45.1627918351
 20
-23.3720511128
 30
0.0
 10
-45.158112627
 20
-23.3809504848
 30
0.0
 10
-45.1552511021
 20
-23.3860069817
 30
0.0
 10
-45.1537546552
 20
-23.3885771628
 30
0.0
 10
-45.1528816141
 20
-23.3897185166
 30
0.0
 10
-45.1522486319
 20
-23.3906294481
 30
0.0
 10
-45.1520532059
 20
-23.3905383194
 30
0.0
  0
SPLINE
  5
418
100
AcDbEntity
  8
ASSI
100
AcDbSpline
 62
250
  6
CONTINUOUS
 70
0
 71
3
 72
18
 73
14
 74
0
 42
0.0000001
 43
0.0000001
 44
0.0000000001
 40
0.0
 40
0.0
 40
0.0
 40
0.0
 40
0.1990721613
 40
0.388787071
 40
0.5615927831
 40
0.7117558046
 40
0.834245989
 40
0.8838366714
 40
0.9250271308
 40
0.9573993764
 40
0.9807509994
 40
0.994948753
 40
1.0
 40
1.0
 40
1.0
 40
1.0
 10
-42.803732853
 20
-23.0674284937
 30
0.0
 10
-42.8037514312
 20
-23.0795514645
 30
0.0
 10
-42.8038261831
 20
-23.1032276921
 30
0.0
 10
-42.8040502376
 20
-23.1374259327
 30
0.0
 10
-42.8043780063
 20
-23.1686475287
 30
0.0
 10
-42.8047987799
 20
-23.1957654256
 30
0.0
 10
-42.8052249618
 20
-23.2154000623
 30
0.0
 10
-42.8056329278
 20
-23.2283575118
 30
0.0
 10
-42.8059015708
 20
-23.2359040978
 30
0.0
 10
-42.8062499728
 20
-23.2416615885
 30
0.0
 10
-42.8064249127
 20
-23.2462243196
 30
0.0
 10
-42.8069148192
 20
-23.2482420568
 30
0.0
 10
-42.8069157266
 20
-23.25
 30
0.0
 10
-42.8072233346
 20
-23.25
 30
0.0
  0
SPLINE
  5
419
100
AcDbEntity
  8
ASSI
100
AcDbSpline
 62
250
  6
CONTINUOUS
 70
0
 71
3
 72
18
 73
14
 74
0
 42
0.0000001
 43
0.0000001
 44
0.0000000001
 40
0.0
 40
0.0
 40
0.0
 40
0.0
 40
0.1990754209
 40
0.3887995774
 40
0.5616116006
 40
0.7117755497
 40
0.8342623524
 40
0.8838506649
 40
0.9250407905
 40
0.9574117064
 40
0.9807584895
 40
0.9949510543
 40
1.0
 40
1.0
 40
1.0
 40
1.0
 10
-52.0174031044
 20
-24.3674284937
 30
0.0
 10
-52.0174216829
 20
-24.379551665
 30
0.0
 10
-52.0174964485
 20
-24.4032286579
 30
0.0
 10
-52.0177205085
 20
-24.4374280498
 30
0.0
 10
-52.0180482876
 20
-24.4686506548
 30
0.0
 10
-52.0184690847
 20
-24.4957687907
 30
0.0
 10
-52.0188953125
 20
-24.5154031352
 30
0.0
 10
-52.0193033041
 20
-24.5283602165
 30
0.0
 10
-52.0195719418
 20
-24.5359065563
 30
0.0
 10
-52.0199202364
 20
-24.5416636684
 30
0.0
 10
-52.0200952745
 20
-24.5462256202
 30
0.0
 10
-52.0205848972
 20
-24.5482428683
 30
0.0
 10
-52.0205861177
 20
-24.55
 30
0.0
 10
-52.0208935857
 20
-24.55
 30
0.0
  0
SPLINE
  5
41A
100
AcDbEntity
  8
ASSI
100
AcDbSpline
 62
250
  6
CONTINUOUS
 70
0
 71
3
 72
14
 73
10
 74
0
 42
0.0000001
 43
0.0000001
 44
0.0000000001
 40
0.0
 40
0.0
 40
0.0
 40
0.0
 40
0.3819067009
 40
0.5532122804
 40
0.7029937784
 40
0.8259702774
 40
0.9177436731
 40
0.9755229377
 40
1.0
 40
1.0
 40
1.0
 40
1.0
 10
-52.0174031044
 20
-24.3674284937
 30
0.0
 10
-51.9935230477
 20
-24.3737467268
 30
0.0
 10
-51.9587800365
 20
-24.3824144662
 30
0.0
 10
-51.9144233288
 20
-24.3922287243
 30
0.0
 10
-51.886141778
 20
-24.3978055344
 30
0.0
 10
-51.8631691034
 20
-24.4017002384
 30
0.0
 10
-51.8449697847
 20
-24.4038100948
 30
0.0
 10
-51.8350071485
 20
-24.4042188214
 30
0.0
 10
-51.8281181772
 20
-24.4032930424
 30
0.0
 10
-51.8277084204
 20
-24.401763809
 30
0.0
  0
SPLINE
  5
41B
100
AcDbEntity
  8
ASSI
100
AcDbSpline
 62
250
  6
CONTINUOUS
 70
0
 71
3
 72
14
 73
10
 74
0
 42
0.0000001
 43
0.0000001
 44
0.0000000001
 40
0.0
 40
0.0
 40
0.0
 40
0.0
 40
0.380717251
 40
0.5519805239
 40
0.7017870534
 40
0.8248246229
 40
0.9169200132
 40
0.9749642266
 40
1.0
 40
1.0
 40
1.0
 40
1.0
 10
-48.8329975991
 20
-23.7674284937
 30
0.0
 10
-48.8546160309
 20
-23.7798408798
 30
0.0
 10
-48.8862498922
 20
-23.7973753313
 30
0.0
 10
-48.9270208964
 20
-23.8184889163
 30
0.0
 10
-48.9532473995
 20
-23.831276747
 30
0.0
 10
-48.9747733492
 20
-23.8410312293
 30
0.0
 10
-48.9920706977
 20
-23.8477327287
 30
0.0
 10
-49.001865434
 20
-23.8507173015
 30
0.0
 10
-49.0088735225
 20
-23.8514196558
 30
0.0
 10
-49.0096931611
 20
-23.85
 30
0.0
  0
SPLINE
  5
41C
100
AcDbEntity
  8
ASSI
100
AcDbSpline
 62
250
  6
CONTINUOUS
 70
0
 71
3
 72
14
 73
10
 74
0
 42
0.0000001
 43
0.0000001
 44
0.0000000001
 40
0.0
 40
0.0
 40
0.0
 40
0.0
 40
0.3807599092
 40
0.5519244442
 40
0.7017527503
 40
0.8248955303
 40
0.916901319
 40
0.9749782963
 40
1.0
 40
1.0
 40
1.0
 40
1.0
 10
-48.3711173837
 20
-24.5674284937
 30
0.0
 10
-48.3927385569
 20
-24.5798424538
 30
0.0
 10
-48.4243701665
 20
-24.597374066
 30
0.0
 10
-48.4651385202
 20
-24.6184902636
 30
0.0
 10
-48.4913689523
 20
-24.6312734519
 30
0.0
 10
-48.5128954314
 20
-24.6410379899
 30
0.0
 10
-48.5301967208
 20
-24.6477268143
 30
0.0
 10
-48.5399869607
 20
-24.6507320361
 30
0.0
 10
-48.5469937556
 20
-24.651418879
 30
0.0
 10
-48.5478129458
 20
-24.65
 30
0.0
  0
SPLINE
  5
41D
100
AcDbEntity
  8
ASSI
100
AcDbSpline
 62
250
  6
CONTINUOUS
 70
0
 71
3
 72
18
 73
14
 74
0
 42
0.0000001
 43
0.0000001
 44
0.0000000001
 40
0.0
 40
0.0
 40
0.0
 40
0.0
 40
0.1990735805
 40
0.3887925096
 40
0.5616010026
 40
0.7117646043
 40
0.8342536119
 40
0.883843469
 40
0.925034047
 40
0.9574057096
 40
0.9807548711
 40
0.9949499468
 40
1.0
 40
1.0
 40
1.0
 40
1.0
 10
-48.3711173837
 20
-24.5674284937
 30
0.0
 10
-48.3711359621
 20
-24.579551552
 30
0.0
 10
-48.3712107202
 20
-24.6032281127
 30
0.0
 10
-48.371434777
 20
-24.6374268566
 30
0.0
 10
-48.3717625494
 20
-24.6686489047
 30
0.0
 10
-48.3721833335
 20
-24.6957669368
 30
0.0
 10
-48.3726095409
 20
-24.7154014877
 30
0.0
 10
-48.3730175206
 20
-24.7283588236
 30
0.0
 10
-48.373286161
 20
-24.7359053312
 30
0.0
 10
-48.3736345089
 20
-24.7416626521
 30
0.0
 10
-48.3738095
 20
-24.7462249901
 30
0.0
 10
-48.3742992597
 20
-24.7482424766
 30
0.0
 10
-48.3743003297
 20
-24.75
 30
0.0
 10
-48.374607865
 20
-24.75
 30
0.0
  0
SPLINE
  5
41E
100
AcDbEntity
  8
ASSI
100
AcDbSpline
 62
250
  6
CONTINUOUS
 70
0
 71
3
 72
18
 73
14
 74
0
 42
0.0000001
 43
0.0000001
 44
0.0000000001
 40
0.0
 40
0.0
 40
0.0
 40
0.0
 40
0.199072139
 40
0.3887870004
 40
0.5615926876
 40
0.7117557158
 40
0.8342459221
 40
0.8838366183
 40
0.9250270856
 40
0.9573993373
 40
0.9807509705
 40
0.9949487357
 40
1.0
 40
1.0
 40
1.0
 40
1.0
 10
-48.1747850381
 20
-24.5674284937
 30
0.0
 10
-48.1748036116
 20
-24.5795514635
 30
0.0
 10
-48.1748783551
 20
-24.6032276873
 30
0.0
 10
-48.1751024003
 20
-24.6374259228
 30
0.0
 10
-48.175430163
 20
-24.6686475155
 30
0.0
 10
-48.1758509338
 20
-24.6957654134
 30
0.0
 10
-48.1762771165
 20
-24.7154000529
 30
0.0
 10
-48.176685085
 20
-24.7283575055
 30
0.0
 10
-48.176953732
 20
-24.7359040928
 30
0.0
 10
-48.1773021359
 20
-24.7416615861
 30
0.0
 10
-48.1774770856
 20
-24.7462243161
 30
0.0
 10
-48.1779669888
 20
-24.7482420593
 30
0.0
 10
-48.1779679103
 20
-24.75
 30
0.0
 10
-48.1782755194
 20
-24.75
 30
0.0
  0
SPLINE
  5
41F
100
AcDbEntity
  8
ASSI
100
AcDbSpline
 62
250
  6
CONTINUOUS
 70
0
 71
3
 72
10
 73
6
 74
0
 42
0.0000001
 43
0.0000001
 44
0.0000000001
 40
0.0
 40
0.0
 40
0.0
 40
0.0
 40
0.2503062043
 40
0.6254554239
 40
1.0
 40
1.0
 40
1.0
 40
1.0
 10
-45.673734312
 20
-23.4321827624
 30
0.0
 10
-45.6335470256
 20
-23.4237915267
 30
0.0
 10
-45.533200478
 20
-23.4025545523
 30
0.0
 10
-45.3740219261
 20
-23.3621260483
 30
0.0
 10
-45.2610978274
 20
-23.3099606086
 30
0.0
 10
-45.2095403557
 20
-23.2765601439
 30
0.0
  0
SPLINE
  5
420
100
AcDbEntity
  8
ASSI
100
AcDbSpline
 62
250
  6
CONTINUOUS
 70
0
 71
3
 72
18
 73
14
 74
0
 42
0.0000001
 43
0.0000001
 44
0.0000000001
 40
0.0
 40
0.0
 40
0.0
 40
0.0
 40
0.1989755034
 40
0.388621451
 40
0.5613821307
 40
0.7115208981
 40
0.8340054596
 40
0.8836004132
 40
0.9248004233
 40
0.9571889268
 40
0.9805670541
 40
0.9948123105
 40
1.0
 40
1.0
 40
1.0
 40
1.0
 10
-48.0479995596
 20
-24.5393208298
 30
0.0
 10
-48.042852655
 20
-24.5503059307
 30
0.0
 10
-48.0327580864
 20
-24.571741536
 30
0.0
 10
-48.0180501053
 20
-24.6026457711
 30
0.0
 10
-48.0044861393
 20
-24.6307994793
 30
0.0
 10
-47.9925567966
 20
-24.6551865071
 30
0.0
 10
-47.9837833296
 20
-24.6727795522
 30
0.0
 10
-47.9778603482
 20
-24.6843307407
 30
0.0
 10
-47.9743663219
 20
-24.691032623
 30
0.0
 10
-47.9715710586
 20
-24.6961008768
 30
0.0
 10
-47.9694005397
 20
-24.7001036018
 30
0.0
 10
-47.9680953471
 20
-24.7017761941
 30
0.0
 10
-47.9672530369
 20
-24.7032875599
 30
0.0
 10
-47.9669663885
 20
-24.7031538935
 30
0.0
  0
SPLINE
  5
421
100
AcDbEntity
  8
RACCORDO
100
AcDbSpline
 62
250
  6
CONTINUOUS
 70
0
 71
3
 72
11
 73
7
 74
0
 42
0.0000001
 43
0.0000001
 44
0.0000000001
 40
0.0
 40
0.0
 40
0.0
 40
0.0
 40
0.2517644185
 40
0.5024827066
 40
0.7517518199
 40
1.0
 40
1.0
 40
1.0
 40
1.0
 10
-39.8048593389
 20
-20.6784772056
 30
0.0
 10
-39.7855800137
 20
-20.6781457968
 30
0.0
 10
-39.7468261103
 20
-20.6700036893
 30
0.0
 10
-39.6979068873
 20
-20.6370639574
 30
0.0
 10
-39.6651488789
 20
-20.5883117349
 30
0.0
 10
-39.6574771999
 20
-20.5497914125
 30
0.0
 10
-39.6574771999
 20
-20.5307785413
 30
0.0
  0
SPLINE
  5
422
100
AcDbEntity
  8
RACCORDO
100
AcDbSpline
 62
250
  6
CONTINUOUS
 70
0
 71
3
 72
11
 73
7
 74
0
 42
0.0000001
 43
0.0000001
 44
0.0000000001
 40
0.0
 40
0.0
 40
0.0
 40
0.0
 40
0.2517644127
 40
0.5024826975
 40
0.7517518153
 40
1.0
 40
1.0
 40
1.0
 40
1.0
 10
-39.8048593389
 20
-20.7643285233
 30
0.0
 10
-39.7855800142
 20
-20.763997114
 30
0.0
 10
-39.746826112
 20
-20.7558550061
 30
0.0
 10
-39.6979068895
 20
-20.7229152751
 30
0.0
 10
-39.6651488798
 20
-20.6741630533
 30
0.0
 10
-39.6574771999
 20
-20.6356427305
 30
0.0
 10
-39.6574771999
 20
-20.616629859
 30
0.0
  0
SPLINE
  5
423
100
AcDbEntity
  8
RACCORDO
100
AcDbSpline
 62
250
  6
CONTINUOUS
 70
0
 71
3
 72
12
 73
8
 74
0
 42
0.0000001
 43
0.0000001
 44
0.0000000001
 40
0.0
 40
0.0
 40
0.0
 40
0.0
 40
0.3666546942
 40
0.678780182
 40
0.8007117807
 40
0.8950477429
 40
1.0
 40
1.0
 40
1.0
 40
1.0
 10
-39.8044615315
 20
-20.9587150477
 30
0.0
 10
-39.7856193314
 20
-20.958636583
 30
0.0
 10
-39.7506491635
 20
-20.9571044539
 30
0.0
 10
-39.7100105185
 20
-20.9520339271
 30
0.0
 10
-39.6831757782
 20
-20.9453249677
 30
0.0
 10
-39.6685880919
 20
-20.9400688843
 30
0.0
 10
-39.657477208
 20
-20.9330511237
 30
0.0
 10
-39.6574771999
 20
-20.9276576333
 30
0.0
  0
SPLINE
  5
424
100
AcDbEntity
  8
ASSI
100
AcDbSpline
 62
250
  6
CONTINUOUS
 70
0
 71
3
 72
9
 73
5
 74
0
 42
0.0000001
 43
0.0000001
 44
0.0000000001
 40
0.0
 40
0.0
 40
0.0
 40
0.0
 40
0.572416459
 40
1.0
 40
1.0
 40
1.0
 40
1.0
 10
-46.2694321308
 20
23.032571505
 30
0.0
 10
-46.235999533
 20
23.0342634134
 30
0.0
 10
-46.1776888579
 20
23.038539226
 30
0.0
 10
-46.1194798864
 20
23.0452085523
 30
0.0
 10
-46.0949378048
 20
23.0499999996
 30
0.0
  0
SPLINE
  5
425
100
AcDbEntity
  8
ASSI
100
AcDbSpline
 62
250
  6
CONTINUOUS
 70
0
 71
3
 72
14
 73
10
 74
0
 42
0.0000001
 43
0.0000001
 44
0.0000000001
 40
0.0
 40
0.0
 40
0.0
 40
0.0
 40
0.3784246076
 40
0.5477301621
 40
0.6961567862
 40
0.8190271213
 40
0.9125251348
 40
0.9734214346
 40
1.0
 40
1.0
 40
1.0
 40
1.0
 10
-45.6737343121
 20
23.4321827624
 30
0.0
 10
-45.67367195
 20
23.4091672524
 30
0.0
 10
-45.6734895147
 20
23.3758529289
 30
0.0
 10
-45.6729933784
 20
23.3335200718
 30
0.0
 10
-45.672590466
 20
23.3067158135
 30
0.0
 10
-45.6720126836
 20
23.2845637673
 30
0.0
 10
-45.6716757971
 20
23.2676365874
 30
0.0
 10
-45.6707463348
 20
23.2567844707
 30
0.0
 10
-45.6707669528
 20
23.2513061397
 30
0.0
 10
-45.6701656867
 20
23.2498056281
 30
0.0
  0
SPLINE
  5
426
100
AcDbEntity
  8
ASSI
100
AcDbSpline
 62
250
  6
CONTINUOUS
 70
0
 71
3
 72
9
 73
5
 74
0
 42
0.0000001
 43
0.0000001
 44
0.0000000001
 40
0.0
 40
0.0
 40
0.0
 40
0.0
 40
0.602321014
 40
1.0
 40
1.0
 40
1.0
 40
1.0
 10
-45.2095801516
 20
23.2765832241
 30
0.0
 10
-45.2260174334
 20
23.2592597562
 30
0.0
 10
-45.2541227294
 20
23.2314285474
 30
0.0
 10
-45.2842022934
 20
23.2051017462
 30
0.0
 10
-45.2976892333
 20
23.1969345393
 30
0.0
  0
SPLINE
  5
427
100
AcDbEntity
  8
ASSI
100
AcDbSpline
 62
250
  6
CONTINUOUS
 70
0
 71
3
 72
9
 73
5
 74
0
 42
0.0000001
 43
0.0000001
 44
0.0000000001
 40
0.0
 40
0.0
 40
0.0
 40
0.0
 40
0.5845356411
 40
1.0
 40
1.0
 40
1.0
 40
1.0
 10
-45.0792284557
 20
23.1639225278
 30
0.0
 10
-45.1102352008
 20
23.1531037155
 30
0.0
 10
-45.1636293984
 20
23.1357101557
 30
0.0
 10
-45.2177392447
 20
23.1201646036
 30
0.0
 10
-45.2406449272
 20
23.115675964
 30
0.0
  0
SPLINE
  5
428
100
AcDbEntity
  8
ASSI
100
AcDbSpline
 62
250
  6
CONTINUOUS
 70
0
 71
3
 72
9
 73
5
 74
0
 42
0.0000001
 43
0.0000001
 44
0.0000000001
 40
0.0
 40
0.0
 40
0.0
 40
0.0
 40
0.5785051503
 40
1.0
 40
1.0
 40
1.0
 40
1.0
 10
-45.060055107
 20
23.0325715044
 30
0.0
 10
-45.0931834943
 20
23.0342477351
 30
0.0
 10
-45.1503427138
 20
23.0384827254
 30
0.0
 10
-45.2074323911
 20
23.0450934145
 30
0.0
 10
-45.2310970744
 20
23.0499999995
 30
0.0
  0
SPLINE
  5
429
100
AcDbEntity
  8
ASSI
100
AcDbSpline
 62
250
  6
CONTINUOUS
 70
0
 71
3
 72
9
 73
5
 74
0
 42
0.0000001
 43
0.0000001
 44
0.0000000001
 40
0.0
 40
0.0
 40
0.0
 40
0.0
 40
0.5785051214
 40
1.0
 40
1.0
 40
1.0
 40
1.0
 10
-45.0600551076
 20
-23.0325715064
 30
0.0
 10
-45.0931834909
 20
-23.034247759
 30
0.0
 10
-45.1503427072
 20
-23.0384827653
 30
0.0
 10
-45.2074323818
 20
-23.045093439
 30
0.0
 10
-45.2310970709
 20
-23.05
 30
0.0
  0
SPLINE
  5
42A
100
AcDbEntity
  8
ASSI
100
AcDbSpline
 62
250
  6
CONTINUOUS
 70
0
 71
3
 72
9
 73
5
 74
0
 42
0.0000001
 43
0.0000001
 44
0.0000000001
 40
0.0
 40
0.0
 40
0.0
 40
0.0
 40
0.5845362049
 40
1.0
 40
1.0
 40
1.0
 40
1.0
 10
-45.0792305382
 20
-23.1639259343
 30
0.0
 10
-45.1102370589
 20
-23.1531070008
 30
0.0
 10
-45.163630754
 20
-23.1357130065
 30
0.0
 10
-45.2177399859
 20
-23.1201666987
 30
0.0
 10
-45.2406453705
 20
-23.1156774571
 30
0.0
  0
SPLINE
  5
42B
100
AcDbEntity
  8
ASSI
100
AcDbSpline
 62
250
  6
CONTINUOUS
 70
0
 71
3
 72
9
 73
5
 74
0
 42
0.0000001
 43
0.0000001
 44
0.0000000001
 40
0.0
 40
0.0
 40
0.0
 40
0.0
 40
0.6023129514
 40
1.0
 40
1.0
 40
1.0
 40
1.0
 10
-45.2095407349
 20
-23.2765593607
 30
0.0
 10
-45.2259816639
 20
-23.2592373019
 30
0.0
 10
-45.2540934186
 20
-23.2314083728
 30
0.0
 10
-45.2841798324
 20
-23.2050846909
 30
0.0
 10
-45.2976696038
 20
-23.1969192383
 30
0.0
  0
SPLINE
  5
42C
100
AcDbEntity
  8
ASSI
100
AcDbSpline
 62
250
  6
CONTINUOUS
 70
0
 71
3
 72
14
 73
10
 74
0
 42
0.0000001
 43
0.0000001
 44
0.0000000001
 40
0.0
 40
0.0
 40
0.0
 40
0.0
 40
0.3784253105
 40
0.547731195
 40
0.6961581015
 40
0.8190286186
 40
0.9125266524
 40
0.9734226721
 40
1.0
 40
1.0
 40
1.0
 40
1.0
 10
-45.6737343119
 20
-23.4321827624
 30
0.0
 10
-45.6736706174
 20
-23.4091672522
 30
0.0
 10
-45.6734866772
 20
-23.375852944
 30
0.0
 10
-45.6729894301
 20
-23.3335200664
 30
0.0
 10
-45.6725861295
 20
-23.3067158724
 30
0.0
 10
-45.6720087671
 20
-23.2845636586
 30
0.0
 10
-45.6716720739
 20
-23.2676369181
 30
0.0
 10
-45.6707446316
 20
-23.2567840258
 30
0.0
 10
-45.6707652087
 20
-23.2513067531
 30
0.0
 10
-45.670165686
 20
-23.249805628
 30
0.0
  0
SPLINE
  5
42D
100
AcDbEntity
  8
ASSI
100
AcDbSpline
 62
250
  6
CONTINUOUS
 70
0
 71
3
 72
9
 73
5
 74
0
 42
0.0000001
 43
0.0000001
 44
0.0000000001
 40
0.0
 40
0.0
 40
0.0
 40
0.0
 40
0.5724171302
 40
1.0
 40
1.0
 40
1.0
 40
1.0
 10
-46.2694320518
 20
-23.0325715084
 30
0.0
 10
-46.2359993436
 20
-23.0342634
 30
0.0
 10
-46.1776885466
 20
-23.038539214
 30
0.0
 10
-46.1194794509
 20
-23.0452085779
 30
0.0
 10
-46.0949373674
 20
-23.0500000844
 30
0.0
  0
SPLINE
  5
42E
100
AcDbEntity
  8
ASSI
100
AcDbSpline
 62
250
  6
CONTINUOUS
 70
0
 71
3
 72
9
 73
5
 74
0
 42
0.0000001
 43
0.0000001
 44
0.0000000001
 40
0.0
 40
0.0
 40
0.0
 40
0.0
 40
0.5970730668
 40
1.0
 40
1.0
 40
1.0
 40
1.0
 10
-41.5280096223
 20
-23.0674285168
 30
0.0
 10
-41.5642345303
 20
-23.0660238438
 30
0.0
 10
-41.6247726392
 20
-23.0621550054
 30
0.0
 10
-41.6853366739
 20
-23.0553172104
 30
0.0
 10
-41.7091591557
 20
-23.0497503294
 30
0.0
  0
SPLINE
  5
42F
100
AcDbEntity
  8
ASSI
100
AcDbSpline
 62
250
  6
CONTINUOUS
 70
0
 71
3
 72
10
 73
6
 74
0
 42
0.0000001
 43
0.0000001
 44
0.0000000001
 40
0.0
 40
0.0
 40
0.0
 40
0.0
 40
0.5950091045
 40
0.8310143294
 40
1.0
 40
1.0
 40
1.0
 40
1.0
 10
-41.5293423757
 20
-23.0325715281
 30
0.0
 10
-41.5650736017
 20
-23.0339904154
 30
0.0
 10
-41.6149755104
 20
-23.0369657155
 30
0.0
 10
-41.67469044
 20
-23.0436788743
 30
0.0
 10
-41.6987652938
 20
-23.0475355114
 30
0.0
 10
-41.7086473399
 20
-23.049877835
 30
0.0
  0
SPLINE
  5
430
100
AcDbEntity
  8
ASSI
100
AcDbSpline
 62
250
  6
CONTINUOUS
 70
0
 71
3
 72
10
 73
6
 74
0
 42
0.0000001
 43
0.0000001
 44
0.0000000001
 40
0.0
 40
0.0
 40
0.0
 40
0.0
 40
0.1732322786
 40
0.4108913921
 40
1.0
 40
1.0
 40
1.0
 40
1.0
 10
-42.6184104479
 20
-23.0499999999
 30
0.0
 10
-42.6288292139
 20
-23.047679085
 30
0.0
 10
-42.6538835851
 20
-23.0437947729
 30
0.0
 10
-42.715127646
 20
-23.0370620417
 30
0.0
 10
-42.7660230124
 20
-23.0340119765
 30
0.0
 10
-42.8022938306
 20
-23.0325715061
 30
0.0
  0
SPLINE
  5
431
100
AcDbEntity
  8
ASSI
100
AcDbSpline
 62
250
  6
CONTINUOUS
 70
0
 71
3
 72
9
 73
5
 74
0
 42
0.0000001
 43
0.0000001
 44
0.0000000001
 40
0.0
 40
0.0
 40
0.0
 40
0.0
 40
0.4100185003
 40
1.0
 40
1.0
 40
1.0
 40
1.0
 10
-42.6184103278
 20
-23.0497493833
 30
0.0
 10
-42.6432942432
 20
-23.0551386588
 30
0.0
 10
-42.7051802459
 20
-23.0621445478
 30
0.0
 10
-42.7671244088
 20
-23.066009255
 30
0.0
 10
-42.803732853
 20
-23.0674284861
 30
0.0
  0
SPLINE
  5
432
100
AcDbEntity
  8
RACCORDO
100
AcDbSpline
 62
7
  6
CONTINUOUS
 70
0
 71
3
 72
10
 73
6
 74
0
 42
0.0000001
 43
0.0000001
 44
0.0000000001
 40
0.0
 40
0.0
 40
0.0
 40
0.0
 40
0.2496953127
 40
0.4999879043
 40
1.0
 40
1.0
 40
1.0
 40
1.0
 10
-38.2324086886
 20
-21.5220778944
 30
0.0
 10
-38.2544137769
 20
-21.5392794173
 30
0.0
 10
-38.3055743718
 20
-21.5641598022
 30
0.0
 10
-38.4125285983
 20
-21.5966627432
 30
0.0
 10
-38.4967948257
 20
-21.6072101785
 30
0.0
 10
-38.5527169504
 20
-21.6081861759
 30
0.0
  0
SPLINE
  5
433
100
AcDbEntity
  8
RACCORDO
100
AcDbSpline
 62
7
  6
CONTINUOUS
 70
0
 71
3
 72
11
 73
7
 74
0
 42
0.0000001
 43
0.0000001
 44
0.0000000001
 40
0.0
 40
0.0
 40
0.0
 40
0.0
 40
0.2487467267
 40
0.4991923466
 40
0.7495619439
 40
1.0
 40
1.0
 40
1.0
 40
1.0
 10
-38.1942115121
 20
-21.45277448
 30
0.0
 10
-38.1919639236
 20
-21.459381041
 30
0.0
 10
-38.1911762864
 20
-21.4743264983
 30
0.0
 10
-38.2017889085
 20
-21.4931764455
 30
0.0
 10
-38.2161154898
 20
-21.5086557533
 30
0.0
 10
-38.2268733614
 20
-21.5177508926
 30
0.0
 10
-38.2324086886
 20
-21.5220778944
 30
0.0
  0
SPLINE
  5
434
100
AcDbEntity
  8
ASSI
100
AcDbSpline
 62
250
  6
CONTINUOUS
 70
0
 71
3
 72
10
 73
6
 74
0
 42
0.0000001
 43
0.0000001
 44
0.0000000001
 40
0.0
 40
0.0
 40
0.0
 40
0.0
 40
0.1680002223
 40
0.4038140914
 40
1.0
 40
1.0
 40
1.0
 40
1.0
 10
-41.7091590133
 20
23.0499999999
 30
0.0
 10
-41.69931369
 20
23.0476321036
 30
0.0
 10
-41.675240179
 20
23.0437525397
 30
0.0
 10
-41.6153563053
 20
23.0369850996
 30
0.0
 10
-41.5652481305
 20
23.0339973334
 30
0.0
 10
-41.5293418266
 20
23.0325715065
 30
0.0
  0
SPLINE
  5
435
100
AcDbEntity
  8
RACCORDO
100
AcDbSpline
 62
250
  6
CONTINUOUS
 70
0
 71
3
 72
11
 73
7
 74
0
 42
0.0000001
 43
0.0000001
 44
0.0000000001
 40
0.0
 40
0.0
 40
0.0
 40
0.0
 40
0.2815895763
 40
0.5455294209
 40
0.7830004708
 40
1.0
 40
1.0
 40
1.0
 40
1.0
 10
-43.3148103271
 20
-21.3449527215
 30
0.0
 10
-43.2957024314
 20
-21.3447017187
 30
0.0
 10
-43.2584993304
 20
-21.3389059021
 30
0.0
 10
-43.2100626062
 20
-21.3148802199
 30
0.0
 10
-43.1760425695
 20
-21.2780432188
 30
0.0
 10
-43.1674281881
 20
-21.2468114125
 30
0.0
 10
-43.1674281881
 20
-21.2320851497
 30
0.0
  0
SPLINE
  5
436
100
AcDbEntity
  8
ASSI
100
AcDbSpline
 62
250
  6
CONTINUOUS
 70
0
 71
3
 72
9
 73
5
 74
0
 42
0.0000001
 43
0.0000001
 44
0.0000000001
 40
0.0
 40
0.0
 40
0.0
 40
0.0
 40
0.4029093979
 40
1.0
 40
1.0
 40
1.0
 40
1.0
 10
-41.7091590913
 20
23.0497494378
 30
0.0
 10
-41.6853374921
 20
23.0553159655
 30
0.0
 10
-41.6247763671
 20
23.0621775964
 30
0.0
 10
-41.5642357669
 20
23.0660239083
 30
0.0
 10
-41.5280096033
 20
23.0674284507
 30
0.0
  0
SPLINE
  5
437
100
AcDbEntity
  8
RACCORDO
100
AcDbSpline
 62
250
  6
CONTINUOUS
 70
0
 71
3
 72
11
 73
7
 74
0
 42
0.0000001
 43
0.0000001
 44
0.0000000001
 40
0.0
 40
0.0
 40
0.0
 40
0.0
 40
0.2821476337
 40
0.5463539118
 40
0.783616505
 40
1.0
 40
1.0
 40
1.0
 40
1.0
 10
-43.3148103271
 20
-21.2321822041
 30
0.0
 10
-43.2957049789
 20
-21.2319325607
 30
0.0
 10
-43.2585256726
 20
-21.2261735361
 30
0.0
 10
-43.2101046195
 20
-21.2022961626
 30
0.0
 10
-43.1760657827
 20
-21.1656723862
 30
0.0
 10
-43.1674281881
 20
-21.1345643841
 30
0.0
 10
-43.1674281881
 20
-21.1199109388
 30
0.0
  0
SPLINE
  5
438
100
AcDbEntity
  8
ASSI
100
AcDbSpline
 62
250
  6
CONTINUOUS
 70
0
 71
3
 72
9
 73
5
 74
0
 42
0.0000001
 43
0.0000001
 44
0.0000000001
 40
0.0
 40
0.0
 40
0.0
 40
0.0
 40
0.5899823687
 40
1.0
 40
1.0
 40
1.0
 40
1.0
 10
-42.8037328527
 20
23.0674284927
 30
0.0
 10
-42.7671244277
 20
23.0660091408
 30
0.0
 10
-42.7051806558
 20
23.0621426078
 30
0.0
 10
-42.6432941068
 20
23.0551413089
 30
0.0
 10
-42.6184103194
 20
23.0497519221
 30
0.0
  0
SPLINE
  5
439
100
AcDbEntity
  8
ASSI
100
AcDbSpline
 62
250
  6
CONTINUOUS
 70
0
 71
3
 72
10
 73
6
 74
0
 42
0.0000001
 43
0.0000001
 44
0.0000000001
 40
0.0
 40
0.0
 40
0.0
 40
0.0
 40
0.5880003636
 40
0.8258316646
 40
1.0
 40
1.0
 40
1.0
 40
1.0
 10
-42.8022933192
 20
23.0325715266
 30
0.0
 10
-42.7662013981
 20
23.0340049109
 30
0.0
 10
-42.7155200685
 20
23.0370410452
 30
0.0
 10
-42.6544588083
 20
23.043720723
 30
0.0
 10
-42.6294118437
 20
23.0475808611
 30
0.0
 10
-42.6189623159
 20
23.0498778832
 30
0.0
  0
SPLINE
  5
43A
100
AcDbEntity
  8
RACCORDO
100
AcDbSpline
 62
250
  6
CONTINUOUS
 70
0
 71
3
 72
11
 73
7
 74
0
 42
0.0000001
 43
0.0000001
 44
0.0000000001
 40
0.0
 40
0.0
 40
0.0
 40
0.0
 40
0.2880641858
 40
0.5551373168
 40
0.7902241292
 40
1.0
 40
1.0
 40
1.0
 40
1.0
 10
-43.3148103271
 20
-20.9410873667
 30
0.0
 10
-43.2957307744
 20
-20.9413228579
 30
0.0
 10
-43.2587930223
 20
-20.9467035001
 30
0.0
 10
-43.2105495612
 20
-20.9690474203
 30
0.0
 10
-43.1763271764
 20
-21.0034258362
 30
0.0
 10
-43.1674281881
 20
-21.0332419421
 30
0.0
 10
-43.1674281881
 20
-21.0471372295
 30
0.0
  0
SPLINE
  5
43B
100
AcDbEntity
  8
RACCORDO
100
AcDbSpline
 62
250
  6
CONTINUOUS
 70
0
 71
3
 72
8
 73
4
 74
0
 42
0.0000001
 43
0.0000001
 44
0.0000000001
 40
0.0
 40
0.0
 40
0.0
 40
0.0
 40
1.0
 40
1.0
 40
1.0
 40
1.0
 10
-43.3148103271
 20
-19.9281826116
 30
0.0
 10
-43.2957307744
 20
-19.9284181028
 30
0.0
 10
-43.2764759248
 20
-19.9312407986
 30
0.0
 10
-43.2582166097
 20
-19.9367799502
 30
0.0
  0
SPLINE
  5
43C
100
AcDbEntity
  8
RACCORDO
100
AcDbSpline
 62
250
  6
CONTINUOUS
 70
0
 71
3
 72
11
 73
7
 74
0
 42
0.0000001
 43
0.0000001
 44
0.0000000001
 40
0.0
 40
0.0
 40
0.0
 40
0.0
 40
0.2849442633
 40
0.5453023822
 40
0.7809935482
 40
1.0
 40
1.0
 40
1.0
 40
1.0
 10
-43.2582166097
 20
-19.9367799502
 30
0.0
 10
-43.2453158761
 20
-19.9406935207
 30
0.0
 10
-43.2213119731
 20
-19.9508832695
 30
0.0
 10
-43.1916544946
 20
-19.9737139861
 30
0.0
 10
-43.1721348456
 20
-20.0021602957
 30
0.0
 10
-43.1674281881
 20
-20.023870842
 30
0.0
 10
-43.1674281881
 20
-20.0342324745
 30
0.0
  0
SPLINE
  5
43D
100
AcDbEntity
  8
RACCORDO
100
AcDbSpline
 62
250
  6
CONTINUOUS
 70
0
 71
3
 72
15
 73
11
 74
0
 42
0.0000001
 43
0.0000001
 44
0.0000000001
 40
0.0
 40
0.0
 40
0.0
 40
0.0
 40
0.0083950952
 40
0.0312650972
 40
0.0657208839
 40
0.1096000265
 40
0.2195572243
 40
0.3519680769
 40
0.6608325276
 40
1.0
 40
1.0
 40
1.0
 40
1.0
 10
-43.167428188
 20
21.541331669
 30
0.0
 10
-43.1672898739
 20
21.5408357832
 30
0.0
 10
-43.165880893
 20
21.5393999611
 30
0.0
 10
-43.1637292509
 20
21.5360599
 30
0.0
 10
-43.159630244
 20
21.5313399452
 30
0.0
 10
-43.1520083932
 20
21.5226940226
 30
0.0
 10
-43.1396246412
 20
21.510226635
 30
0.0
 10
-43.1146745534
 20
21.4873115433
 30
0.0
 10
-43.0778204674
 20
21.4577874285
 30
0.0
 10
-43.0408212562
 20
21.437192868
 30
0.0
 10
-43.020046049
 20
21.4362017717
 30
0.0
  0
SPLINE
  5
43E
100
AcDbEntity
  8
RACCORDO
100
AcDbSpline
 62
250
  6
CONTINUOUS
 70
0
 71
3
 72
9
 73
5
 74
0
 42
0.0000001
 43
0.0000001
 44
0.0000000001
 40
0.0
 40
0.0
 40
0.0
 40
0.0
 40
0.2570812934
 40
1.0
 40
1.0
 40
1.0
 40
1.0
 10
-43.3148434324
 20
-19.6671281938
 30
0.0
 10
-43.3125106287
 20
-19.6769844741
 30
0.0
 10
-43.3022104574
 20
-19.7150308431
 30
0.0
 10
-43.2886478709
 20
-19.7521307199
 30
0.0
 10
-43.2774209517
 20
-19.779161755
 30
0.0
  0
SPLINE
  5
43F
100
AcDbEntity
  8
RACCORDO
100
AcDbSpline
 62
250
  6
CONTINUOUS
 70
0
 71
3
 72
9
 73
5
 74
0
 42
0.0000001
 43
0.0000001
 44
0.0000000001
 40
0.0
 40
0.0
 40
0.0
 40
0.0
 40
0.5078257639
 40
1.0
 40
1.0
 40
1.0
 40
1.0
 10
-43.2774209517
 20
-19.779161755
 30
0.0
 10
-43.2696498088
 20
-19.7978723229
 30
0.0
 10
-43.2526779798
 20
-19.8341567447
 30
0.0
 10
-43.230171771
 20
-19.8672134897
 30
0.0
 10
-43.2189632695
 20
-19.8833359317
 30
0.0
  0
SPLINE
  5
440
100
AcDbEntity
  8
RACCORDO
100
AcDbSpline
 62
250
  6
CONTINUOUS
 70
0
 71
3
 72
9
 73
5
 74
0
 42
0.0000001
 43
0.0000001
 44
0.0000000001
 40
0.0
 40
0.0
 40
0.0
 40
0.0
 40
0.4852763423
 40
1.0
 40
1.0
 40
1.0
 40
1.0
 10
-43.2189632695
 20
-19.8833359317
 30
0.0
 10
-43.2057195833
 20
-19.9023858077
 30
0.0
 10
-43.1789816495
 20
-19.9423634001
 30
0.0
 10
-43.1674256077
 20
-19.9906162925
 30
0.0
 10
-43.1674252437
 20
-20.0152253157
 30
0.0
  0
SPLINE
  5
441
100
AcDbEntity
  8
RACCORDO
100
AcDbSpline
 62
250
  6
CONTINUOUS
 70
0
 71
3
 72
13
 73
9
 74
0
 42
0.0000001
 43
0.0000001
 44
0.0000000001
 40
0.0
 40
0.0
 40
0.0
 40
0.0
 40
0.0183113087
 40
0.0672426038
 40
0.1476409558
 40
0.2592172238
 40
0.5727283195
 40
1.0
 40
1.0
 40
1.0
 40
1.0
 10
-52.5703097367
 20
17.9372674229
 30
0.0
 10
-52.5700578765
 20
17.9372746887
 30
0.0
 10
-52.5698176849
 20
17.9359853635
 30
0.0
 10
-52.5694364403
 20
17.9343447583
 30
0.0
 10
-52.5690728931
 20
17.9308511753
 30
0.0
 10
-52.5684491062
 20
17.9240418458
 30
0.0
 10
-52.5677276246
 20
17.9122455012
 30
0.0
 10
-52.5672312534
 20
17.9020956628
 30
0.0
 10
-52.5669733233
 20
17.8962220334
 30
0.0
  0
SPLINE
  5
442
100
AcDbEntity
  8
RACCORDO
100
AcDbSpline
 62
250
  6
CONTINUOUS
 70
0
 71
3
 72
13
 73
9
 74
0
 42
0.0000001
 43
0.0000001
 44
0.0000000001
 40
0.0
 40
0.0
 40
0.0
 40
0.0
 40
0.4160442399
 40
0.7314738792
 40
0.8450236028
 40
0.927584821
 40
0.9787435024
 40
1.0
 40
1.0
 40
1.0
 40
1.0
 10
-52.5304646059
 20
-17.8634645229
 30
0.0
 10
-52.5311460888
 20
-17.8739306108
 30
0.0
 10
-52.5324765442
 20
-17.892285844
 30
0.0
 10
-52.5345115573
 20
-17.913604513
 30
0.0
 10
-52.5361903351
 20
-17.9262434553
 30
0.0
 10
-52.5373454775
 20
-17.9326290232
 30
0.0
 10
-52.5382001679
 20
-17.9359604402
 30
0.0
 10
-52.5391539776
 20
-17.9381653545
 30
0.0
 10
-52.539689495
 20
-17.9381460615
 30
0.0
  0
SPLINE
  5
443
100
AcDbEntity
  8
RACCORDO
100
AcDbSpline
 62
250
  6
CONTINUOUS
 70
0
 71
3
 72
11
 73
7
 74
0
 42
0.0000001
 43
0.0000001
 44
0.0000000001
 40
0.0
 40
0.0
 40
0.0
 40
0.0
 40
0.4014979997
 40
0.7104154242
 40
0.9128599418
 40
1.0
 40
1.0
 40
1.0
 40
1.0
 10
-52.5656797359
 20
-17.8616315275
 30
0.0
 10
-52.5660069473
 20
-17.8717428341
 30
0.0
 10
-52.5667488247
 20
-17.8895865181
 30
0.0
 10
-52.5674820486
 20
-17.9127125595
 30
0.0
 10
-52.5691277962
 20
-17.9274730515
 30
0.0
 10
-52.5691130522
 20
-17.9350857269
 30
0.0
 10
-52.5700931786
 20
-17.9370505074
 30
0.0
  0
SPLINE
  5
444
100
AcDbEntity
  8
RACCORDO
100
AcDbSpline
 62
250
  6
CONTINUOUS
 70
0
 71
3
 72
13
 73
9
 74
0
 42
0.0000001
 43
0.0000001
 44
0.0000000001
 40
0.0
 40
0.0
 40
0.0
 40
0.0
 40
0.4160442401
 40
0.7314738793
 40
0.8450236027
 40
0.927584821
 40
0.9787435024
 40
1.0
 40
1.0
 40
1.0
 40
1.0
 10
-52.5304646059
 20
17.8634645229
 30
0.0
 10
-52.5311460887
 20
17.8739306108
 30
0.0
 10
-52.532476544
 20
17.892285844
 30
0.0
 10
-52.534511557
 20
17.913604513
 30
0.0
 10
-52.5361903348
 20
17.9262434553
 30
0.0
 10
-52.5373454771
 20
17.9326290232
 30
0.0
 10
-52.5382001675
 20
17.9359604402
 30
0.0
 10
-52.5391539772
 20
17.9381653545
 30
0.0
 10
-52.5396894946
 20
17.9381460615
 30
0.0
  0
SPLINE
  5
445
100
AcDbEntity
  8
RACCORDO
100
AcDbSpline
 62
250
  6
CONTINUOUS
 70
0
 71
3
 72
18
 73
14
 74
0
 42
0.0000001
 43
0.0000001
 44
0.0000000001
 40
0.0
 40
0.0
 40
0.0
 40
0.0
 40
0.0048934549
 40
0.0193012077
 40
0.0431103757
 40
0.0761545353
 40
0.1180941087
 40
0.1685037711
 40
0.2928412422
 40
0.4443297603
 40
0.6172498987
 40
0.8050839463
 40
1.0
 40
1.0
 40
1.0
 40
1.0
 10
-52.5691732704
 20
-22.7244675514
 30
0.0
 10
-52.5694994794
 20
-22.7244698581
 30
0.0
 10
-52.5690875371
 20
-22.7224240965
 30
0.0
 10
-52.5697043449
 20
-22.7202801182
 30
0.0
 10
-52.5695376294
 20
-22.715120494
 30
0.0
 10
-52.5697571415
 20
-22.7087143447
 30
0.0
 10
-52.5697878337
 20
-22.7002872878
 30
0.0
 10
-52.5698892397
 20
-22.6858737308
 30
0.0
 10
-52.5699057403
 20
-22.664105746
 30
0.0
 10
-52.56985894
 20
-22.6341986462
 30
0.0
 10
-52.5697149966
 20
-22.6000481264
 30
0.0
 10
-52.5694872154
 20
-22.5630064534
 30
0.0
 10
-52.5692858507
 20
-22.5374914003
 30
0.0
 10
-52.569173222
 20
-22.5244980115
 30
0.0
  0
SPLINE
  5
446
100
AcDbEntity
  8
RACCORDO
100
AcDbSpline
 62
250
  6
CONTINUOUS
 70
0
 71
3
 72
18
 73
14
 74
0
 42
0.0000001
 43
0.0000001
 44
0.0000000001
 40
0.0
 40
0.0
 40
0.0
 40
0.0
 40
0.1949402993
 40
0.3827469256
 40
0.5555546823
 40
0.7070238295
 40
0.8314130794
 40
0.8818563507
 40
0.9238326177
 40
0.9569021606
 40
0.9807137115
 40
0.9951118044
 40
1.0
 40
1.0
 40
1.0
 40
1.0
 10
-52.5691732704
 20
22.5244980124
 30
0.0
 10
-52.5692857801
 20
22.5374930203
 30
0.0
 10
-52.5694871514
 20
22.5630078642
 30
0.0
 10
-52.569715125
 20
22.6000418397
 30
0.0
 10
-52.5698587939
 20
22.6341817458
 30
0.0
 10
-52.5699057051
 20
22.6640835382
 30
0.0
 10
-52.5698894079
 20
22.6858558891
 30
0.0
 10
-52.5697878371
 20
22.7002776351
 30
0.0
 10
-52.5697570684
 20
22.7087109838
 30
0.0
 10
-52.5695375395
 20
22.715121697
 30
0.0
 10
-52.5697042281
 20
22.7202816146
 30
0.0
 10
-52.5690881189
 20
22.7224269979
 30
0.0
 10
-52.5694990852
 20
22.7244690262
 30
0.0
 10
-52.569173222
 20
22.7244675506
 30
0.0
  0
LINE
  5
447
100
AcDbEntity
  8
RACCORDO
100
AcDbLine
 62
250
  6
CONTINUOUS
 10
-52.5304646059
 20
17.8634645229
 30
0.0
 11
-52.5656797481
 21
17.8616315226
 31
0.0
  0
LINE
  5
448
100
AcDbEntity
  8
RACCORDO
100
AcDbLine
 62
250
  6
CONTINUOUS
 10
-52.5656797453
 20
-17.8616315237
 30
0.0
 11
-52.5304646059
 21
-17.8634645229
 31
0.0
  0
SPLINE
  5
449
100
AcDbEntity
  8
RACCORDO
100
AcDbSpline
 62
7
  6
CONTINUOUS
 70
0
 71
3
 72
11
 73
7
 74
0
 42
0.0000001
 43
0.0000001
 44
0.0000000001
 40
0.0
 40
0.0
 40
0.0
 40
0.0
 40
0.2515324809
 40
0.5036625957
 40
0.7531115613
 40
1.0
 40
1.0
 40
1.0
 40
1.0
 10
-38.1942115265
 20
-21.45277448
 30
0.0
 10
-38.1894881799
 20
-21.4666586271
 30
0.0
 10
-38.1791101468
 20
-21.4941475747
 30
0.0
 10
-38.1622890811
 20
-21.5346988641
 30
0.0
 10
-38.139641036
 20
-21.572530539
 30
0.0
 10
-38.116560352
 20
-21.5912881699
 30
0.0
 10
-38.1039284482
 20
-21.5981907667
 30
0.0
  0
SPLINE
  5
44A
100
AcDbEntity
  8
RACCORDO
100
AcDbSpline
 62
250
  6
CONTINUOUS
 70
0
 71
3
 72
9
 73
5
 74
0
 42
0.0000001
 43
0.0000001
 44
0.0000000001
 40
0.0
 40
0.0
 40
0.0
 40
0.0
 40
0.2711661197
 40
1.0
 40
1.0
 40
1.0
 40
1.0
 10
-39.3951387254
 20
-20.3412431962
 30
0.0
 10
-39.3926670131
 20
-20.353911274
 30
0.0
 10
-39.3819972442
 20
-20.4002494692
 30
0.0
 10
-39.3646298006
 20
-20.445504059
 30
0.0
 10
-39.3465369866
 20
-20.4751033265
 30
0.0
  0
SPLINE
  5
44B
100
AcDbEntity
  8
RACCORDO
100
AcDbSpline
 62
250
  6
CONTINUOUS
 70
0
 71
3
 72
9
 73
5
 74
0
 42
0.0000001
 43
0.0000001
 44
0.0000000001
 40
0.0
 40
0.0
 40
0.0
 40
0.0
 40
0.5292715331
 40
1.0
 40
1.0
 40
1.0
 40
1.0
 10
-39.3465369866
 20
-20.4751033265
 30
0.0
 10
-39.3299634519
 20
-20.5022171014
 30
0.0
 10
-39.2884560432
 20
-20.549563613
 30
0.0
 10
-39.2272580797
 20
-20.5666943805
 30
0.0
 10
-39.199000022
 20
-20.567221882
 30
0.0
  0
SPLINE
  5
44C
100
AcDbEntity
  8
RACCORDO
100
AcDbSpline
 62
250
  6
CONTINUOUS
 70
0
 71
3
 72
10
 73
6
 74
0
 42
0.0000001
 43
0.0000001
 44
0.0000000001
 40
0.0
 40
0.0
 40
0.0
 40
0.0
 40
0.3740236457
 40
0.6657939918
 40
1.0
 40
1.0
 40
1.0
 40
1.0
 10
-39.4306397074
 20
-20.0850871196
 30
0.0
 10
-39.423320258
 20
-20.085224247
 30
0.0
 10
-39.4134128565
 20
-20.0984430133
 30
0.0
 10
-39.4083104388
 20
-20.1165013944
 30
0.0
 10
-39.407021833
 20
-20.1289786118
 30
0.0
 10
-39.4070214761
 20
-20.1355199983
 30
0.0
  0
LINE
  5
44D
100
AcDbEntity
  8
RACCORDO
100
AcDbLine
 62
250
  6
CONTINUOUS
 10
-39.6574621635
 20
-21.0104927285
 30
0.0
 11
-39.6574714017
 21
-20.9593344163
 31
0.0
  0
SPLINE
  5
44E
100
AcDbEntity
  8
RACCORDO
100
AcDbSpline
 62
250
  6
CONTINUOUS
 70
0
 71
3
 72
14
 73
10
 74
0
 42
0.0000001
 43
0.0000001
 44
0.0000000001
 40
0.0
 40
0.0
 40
0.0
 40
0.0
 40
0.0217753529
 40
0.0820279356
 40
0.1782474188
 40
0.3054211662
 40
0.4575123253
 40
0.6281528684
 40
1.0
 40
1.0
 40
1.0
 40
1.0
 10
-39.6551130965
 20
-21.4800211566
 30
0.0
 10
-39.6558397958
 20
-21.480034562
 30
0.0
 10
-39.6559276158
 20
-21.4759233232
 30
0.0
 10
-39.656788574
 20
-21.4712758363
 30
0.0
 10
-39.6569431472
 20
-21.4611229448
 30
0.0
 10
-39.6572634244
 20
-21.4488745693
 30
0.0
 10
-39.657365504
 20
-21.4337587192
 30
0.0
 10
-39.6574625171
 20
-21.4106156746
 30
0.0
 10
-39.6574621591
 20
-21.3924918021
 30
0.0
 10
-39.6574621635
 20
-21.3800801985
 30
0.0
  0
LINE
  5
44F
100
AcDbEntity
  8
ASSI
100
AcDbLine
 62
250
  6
CONTINUOUS
 10
-42.8022936909
 20
-23.0325715116
 30
0.0
 11
-42.8037328531
 21
-23.0674284937
 31
0.0
  0
SPLINE
  5
450
100
AcDbEntity
  8
RACCORDO
100
AcDbSpline
 62
250
  6
CONTINUOUS
 70
0
 71
3
 72
16
 73
12
 74
0
 42
0.0000001
 43
0.0000001
 44
0.0000000001
 40
0.0
 40
0.0
 40
0.0
 40
0.0
 40
0.3391396246
 40
0.4994917271
 40
0.6481238558
 40
0.7805177113
 40
0.8904570808
 40
0.934326347
 40
0.9687705945
 40
0.9916291296
 40
1.0
 40
1.0
 40
1.0
 40
1.0
 10
-43.020046049
 20
-21.4362017717
 30
0.0
 10
-43.0408255467
 20
-21.4371319882
 30
0.0
 10
-43.0695183816
 20
-21.4531627144
 30
0.0
 10
-43.1011577255
 20
-21.4765685186
 30
0.0
 10
-43.1219909642
 20
-21.4939999929
 30
0.0
 10
-43.1396066369
 20
-21.5102281135
 30
0.0
 10
-43.1520406489
 20
-21.5226954418
 30
0.0
 10
-43.1596010425
 20
-21.5313507901
 30
0.0
 10
-43.1638150307
 20
-21.5360507257
 30
0.0
 10
-43.1657355514
 20
-21.5394276152
 30
0.0
 10
-43.1674017928
 20
-21.5408189428
 30
0.0
 10
-43.1674281881
 20
-21.5413316709
 30
0.0
  0
SPLINE
  5
451
100
AcDbEntity
  8
RACCORDO
100
AcDbSpline
 62
250
  6
CONTINUOUS
 70
0
 71
3
 72
9
 73
5
 74
0
 42
0.0000001
 43
0.0000001
 44
0.0000000001
 40
0.0
 40
0.0
 40
0.0
 40
0.0
 40
0.4989739715
 40
1.0
 40
1.0
 40
1.0
 40
1.0
 10
-43.1674281881
 20
-20.9591185437
 30
0.0
 10
-43.1674281881
 20
-20.9401056814
 30
0.0
 10
-43.1597935352
 20
-20.901623065
 30
0.0
 10
-43.1379007153
 20
-20.8690933432
 30
0.0
 10
-43.1244157951
 20
-20.8555794519
 30
0.0
  0
SPLINE
  5
452
100
AcDbEntity
  8
RACCORDO
100
AcDbSpline
 62
250
  6
CONTINUOUS
 70
0
 71
3
 72
9
 73
5
 74
0
 42
0.0000001
 43
0.0000001
 44
0.0000000001
 40
0.0
 40
0.0
 40
0.0
 40
0.0
 40
0.498959039
 40
1.0
 40
1.0
 40
1.0
 40
1.0
 10
-43.1244157951
 20
-20.8555794519
 30
0.0
 10
-43.1108524651
 20
-20.8419869823
 30
0.0
 10
-43.0780417602
 20
-20.8198551831
 30
0.0
 10
-43.039325383
 20
-20.8117512889
 30
0.0
 10
-43.020046049
 20
-20.8114198794
 30
0.0
  0
SPLINE
  5
453
100
AcDbEntity
  8
RACCORDO
100
AcDbSpline
 62
250
  6
CONTINUOUS
 70
0
 71
3
 72
11
 73
7
 74
0
 42
0.0000001
 43
0.0000001
 44
0.0000000001
 40
0.0
 40
0.0
 40
0.0
 40
0.0
 40
0.2482481847
 40
0.4975173025
 40
0.7482355873
 40
1.0
 40
1.0
 40
1.0
 40
1.0
 10
-43.1674281881
 20
-20.8732672259
 30
0.0
 10
-43.1674281881
 20
-20.8542543544
 30
0.0
 10
-43.1597565082
 20
-20.8157340316
 30
0.0
 10
-43.1269984985
 20
-20.7669818098
 30
0.0
 10
-43.0780792759
 20
-20.7340420788
 30
0.0
 10
-43.0393253737
 20
-20.725899971
 30
0.0
 10
-43.020046049
 20
-20.7255685616
 30
0.0
  0
LINE
  5
454
100
AcDbEntity
  8
RACCORDO
100
AcDbLine
 62
250
  6
CONTINUOUS
 10
-52.5656829474
 20
-17.5505958365
 30
0.0
 11
-46.8148103271
 21
-17.5152351079
 31
0.0
  0
LINE
  5
455
100
AcDbEntity
  8
RACCORDO
100
AcDbLine
 62
250
  6
CONTINUOUS
 10
-46.8148103271
 20
17.5152351079
 30
0.0
 11
-52.5656829474
 21
17.5505958365
 31
0.0
  0
SPLINE
  5
456
100
AcDbEntity
  8
ASSI
100
AcDbSpline
 62
250
  6
CONTINUOUS
 70
0
 71
3
 72
8
 73
4
 74
0
 42
0.0000001
 43
0.0000001
 44
0.0000000001
 40
0.0
 40
0.0
 40
0.0
 40
0.0
 40
1.0
 40
1.0
 40
1.0
 40
1.0
 10
-45.0792305159
 20
-23.1639259153
 30
0.0
 10
-45.0645078366
 20
-23.1221981448
 30
0.0
 10
-45.0578703553
 20
-23.0767664265
 30
0.0
 10
-45.0600551077
 20
-23.0325715063
 30
0.0
  0
SPLINE
  5
457
100
AcDbEntity
  8
ASSI
100
AcDbSpline
 62
250
  6
CONTINUOUS
 70
0
 71
3
 72
15
 73
11
 74
0
 42
0.0000001
 43
0.0000001
 44
0.0000000001
 40
0.0
 40
0.0
 40
0.0
 40
0.0
 40
0.1248068423
 40
0.2495878514
 40
0.3743879399
 40
0.4992750827
 40
0.6242905384
 40
0.7494414453
 40
0.8746993906
 40
1.0
 40
1.0
 40
1.0
 40
1.0
 10
-46.2694321007
 20
-23.0325709762
 30
0.0
 10
-46.2712088834
 20
-23.0664963487
 30
0.0
 10
-46.2646066431
 20
-23.1353161317
 30
0.0
 10
-46.2247931904
 20
-23.2306883503
 30
0.0
 10
-46.1593550736
 20
-23.3106355713
 30
0.0
 10
-46.0749993508
 20
-23.3699561256
 30
0.0
 10
-45.9791912508
 20
-23.4074865993
 30
0.0
 10
-45.8782621597
 20
-23.4260452311
 30
0.0
 10
-45.7760411359
 20
-23.4317803978
 30
0.0
 10
-45.7078405584
 20
-23.432142767
 30
0.0
 10
-45.673734312
 20
-23.4321827624
 30
0.0
  0
SPLINE
  5
458
100
AcDbEntity
  8
ASSI
100
AcDbSpline
 62
250
  6
CONTINUOUS
 70
0
 71
3
 72
8
 73
4
 74
0
 42
0.0000001
 43
0.0000001
 44
0.0000000001
 40
0.0
 40
0.0
 40
0.0
 40
0.0
 40
1.0
 40
1.0
 40
1.0
 40
1.0
 10
-48.1747850381
 20
-24.5674284937
 30
0.0
 10
-48.1314971153
 20
-24.5674281955
 30
0.0
 10
-48.0872317606
 20
-24.5576150546
 30
0.0
 10
-48.0479995596
 20
-24.5393208298
 30
0.0
  0
SPLINE
  5
459
100
AcDbEntity
  8
RACCORDO
100
AcDbSpline
 62
250
  6
CONTINUOUS
 70
0
 71
3
 72
9
 73
5
 74
0
 42
0.0000001
 43
0.0000001
 44
0.0000000001
 40
0.0
 40
0.0
 40
0.0
 40
0.0
 40
0.5022133999
 40
1.0
 40
1.0
 40
1.0
 40
1.0
 10
-43.020046049
 20
20.8114198794
 30
0.0
 10
-43.0517845218
 20
20.8119654574
 30
0.0
 10
-43.1164060045
 20
20.8338975215
 30
0.0
 10
-43.1542622564
 20
20.8909162669
 30
0.0
 10
-43.162413322
 20
20.9213054605
 30
0.0
  0
SPLINE
  5
45A
100
AcDbEntity
  8
RACCORDO
100
AcDbSpline
 62
250
  6
CONTINUOUS
 70
0
 71
3
 72
11
 73
7
 74
0
 42
0.0000001
 43
0.0000001
 44
0.0000000001
 40
0.0
 40
0.0
 40
0.0
 40
0.0
 40
0.2517644127
 40
0.5024826975
 40
0.7517518153
 40
1.0
 40
1.0
 40
1.0
 40
1.0
 10
-43.020046049
 20
20.7255685616
 30
0.0
 10
-43.0393253737
 20
20.725899971
 30
0.0
 10
-43.0780792759
 20
20.7340420788
 30
0.0
 10
-43.1269984985
 20
20.7669818098
 30
0.0
 10
-43.1597565082
 20
20.8157340316
 30
0.0
 10
-43.1674281881
 20
20.8542543544
 30
0.0
 10
-43.1674281881
 20
20.8732672259
 30
0.0
  0
LINE
  5
45B
100
AcDbEntity
  8
ASSI
100
AcDbLine
 62
250
  6
CONTINUOUS
 10
-52.6674281881
 20
18.6360642889
 30
0.0
 11
-51.1674281881
 21
18.6286602576
 31
0.0
  0
LINE
  5
45C
100
AcDbEntity
  8
ASSI
100
AcDbLine
 62
250
  6
CONTINUOUS
 10
-52.6674280155
 20
-18.636064288
 30
0.0
 11
-51.1674281883
 21
-18.6286602576
 31
0.0
  0
SPLINE
  5
45D
100
AcDbEntity
  8
ASSI
100
AcDbSpline
 62
250
  6
CONTINUOUS
 70
0
 71
3
 72
8
 73
4
 74
0
 42
0.0000001
 43
0.0000001
 44
0.0000000001
 40
0.0
 40
0.0
 40
0.0
 40
0.0
 40
1.0
 40
1.0
 40
1.0
 40
1.0
 10
-48.0479995596
 20
24.5393208298
 30
0.0
 10
-48.0872318671
 20
24.5576148262
 30
0.0
 10
-48.1314971153
 20
24.5674284474
 30
0.0
 10
-48.1747850381
 20
24.5674284937
 30
0.0
  0
SPLINE
  5
45E
100
AcDbEntity
  8
ASSI
100
AcDbSpline
 62
250
  6
CONTINUOUS
 70
0
 71
3
 72
15
 73
11
 74
0
 42
0.0000001
 43
0.0000001
 44
0.0000000001
 40
0.0
 40
0.0
 40
0.0
 40
0.0
 40
0.1253077805
 40
0.2505726408
 40
0.3757374365
 40
0.5007803589
 40
0.6257214121
 40
0.7505841641
 40
0.8753317715
 40
1.0
 40
1.0
 40
1.0
 40
1.0
 10
-45.6737343121
 20
23.4321827624
 30
0.0
 10
-45.7078423448
 20
23.4321428892
 30
0.0
 10
-45.7760464286
 20
23.4317806927
 30
0.0
 10
-45.87827456
 20
23.4260443276
 30
0.0
 10
-45.9792157718
 20
23.4074808039
 30
0.0
 10
-46.0750457846
 20
23.369934796
 30
0.0
 10
-46.1594238499
 20
23.3105748442
 30
0.0
 10
-46.2248460939
 20
23.2305841294
 30
0.0
 10
-46.264618538
 20
23.1352298938
 30
0.0
 10
-46.2712085098
 20
23.066458953
 30
0.0
 10
-46.269432131
 20
23.0325715063
 30
0.0
  0
SPLINE
  5
45F
100
AcDbEntity
  8
ASSI
100
AcDbSpline
 62
250
  6
CONTINUOUS
 70
0
 71
3
 72
8
 73
4
 74
0
 42
0.0000001
 43
0.0000001
 44
0.0000000001
 40
0.0
 40
0.0
 40
0.0
 40
0.0
 40
1.0
 40
1.0
 40
1.0
 40
1.0
 10
-45.0600551069
 20
23.0325715063
 30
0.0
 10
-45.0578701339
 20
23.0767653978
 30
0.0
 10
-45.0645074519
 20
23.1221961126
 30
0.0
 10
-45.079229724
 20
23.1639229488
 30
0.0
  0
LINE
  5
460
100
AcDbEntity
  8
ASSI
100
AcDbLine
 62
250
  6
CONTINUOUS
 10
-42.8037328525
 20
23.0674284937
 30
0.0
 11
-42.8022935753
 21
23.0325715166
 31
0.0
  0
LINE
  5
461
100
AcDbEntity
  8
ASSI
100
AcDbLine
 62
250
  6
CONTINUOUS
 10
-41.5293419611
 20
23.0325715116
 30
0.0
 11
-41.5280096017
 21
23.0674284937
 31
0.0
  0
LINE
  5
462
100
AcDbEntity
  8
RACCORDO
100
AcDbLine
 62
250
  6
CONTINUOUS
 10
-43.3148103271
 20
-20.9410881091
 30
0.0
 11
-46.6674281881
 21
-20.943622724
 31
0.0
  0
LINE
  5
463
100
AcDbEntity
  8
RACCORDO
100
AcDbLine
 62
250
  6
CONTINUOUS
 10
-46.8148103271
 20
17.828809527
 30
0.0
 11
-51.1677170998
 21
17.8552081401
 31
0.0
  0
LINE
  5
464
100
AcDbEntity
  8
RACCORDO
100
AcDbLine
 62
250
  6
CONTINUOUS
 10
-51.1674281881
 20
17.9028829186
 30
0.0
 11
-52.5304646059
 21
17.8634645229
 31
0.0
  0
LINE
  5
465
100
AcDbEntity
  8
ASSI
100
AcDbLine
 62
250
  6
CONTINUOUS
 10
-49.8674281881
 20
21.5597581835
 30
0.0
 11
-44.4796439413
 21
21.3655459496
 31
0.0
  0
LINE
  5
466
100
AcDbEntity
  8
ASSI
100
AcDbLine
 62
250
  6
CONTINUOUS
 10
-49.8674281881
 20
-21.5597581835
 30
0.0
 11
-44.4796439422
 21
-21.3655459497
 31
0.0
  0
SPLINE
  5
467
100
AcDbEntity
  8
RACCORDO
100
AcDbSpline
 62
7
  6
CONTINUOUS
 70
0
 71
3
 72
8
 73
4
 74
0
 42
0.0000001
 43
0.0000001
 44
0.0000000001
 40
0.0
 40
0.0
 40
0.0
 40
0.0
 40
1.0
 40
1.0
 40
1.0
 40
1.0
 10
-38.1044645519
 20
-21.5958744632
 30
0.0
 10
-38.0915984146
 20
-21.5985945408
 30
0.0
 10
-38.0783451293
 20
-21.5999059851
 30
0.0
 10
-38.0651966071
 20
-21.5996764768
 30
0.0
  0
LINE
  5
468
100
AcDbEntity
  8
RACCORDO
100
AcDbLine
 62
250
  6
CONTINUOUS
 10
-52.5304646059
 20
-17.8634645229
 30
0.0
 11
-51.1674281881
 21
-17.9028829186
 31
0.0
  0
LINE
  5
469
100
AcDbEntity
  8
RACCORDO
100
AcDbLine
 62
250
  6
CONTINUOUS
 10
-51.1677171047
 20
-17.8552081401
 30
0.0
 11
-46.8148103271
 21
-17.828809527
 31
0.0
  0
SPLINE
  5
46A
100
AcDbEntity
  8
RACCORDO
100
AcDbSpline
 62
250
  6
CONTINUOUS
 70
0
 71
3
 72
12
 73
8
 74
0
 42
0.0000001
 43
0.0000001
 44
0.0000000001
 40
0.0
 40
0.0
 40
0.0
 40
0.0
 40
0.4025276223
 40
0.7166285203
 40
0.9183175012
 40
0.9731397712
 40
1.0
 40
1.0
 40
1.0
 40
1.0
 10
-36.756187541
 20
22.1029227994
 30
0.0
 10
-36.7440539945
 20
22.1024480907
 30
0.0
 10
-36.7223874344
 20
22.101294554
 30
0.0
 10
-36.6950305964
 20
22.0988628354
 30
0.0
 10
-36.6775741979
 20
22.0959629795
 30
0.0
 10
-36.6698260818
 20
22.093585497
 30
0.0
 10
-36.6674281881
 20
22.091801322
 30
0.0
 10
-36.6674281881
 20
22.0909910443
 30
0.0
  0
SPLINE
  5
46B
100
AcDbEntity
  8
RACCORDO
100
AcDbSpline
 62
250
  6
CONTINUOUS
 70
0
 71
3
 72
11
 73
7
 74
0
 42
0.0000001
 43
0.0000001
 44
0.0000000001
 40
0.0
 40
0.0
 40
0.0
 40
0.0
 40
0.2517644186
 40
0.5024827081
 40
0.7517518226
 40
1.0
 40
1.0
 40
1.0
 40
1.0
 10
-36.8148103271
 20
20.7205346552
 30
0.0
 10
-36.7955310019
 20
20.7202032459
 30
0.0
 10
-36.7567770989
 20
20.7120611376
 30
0.0
 10
-36.7078578762
 20
20.6791214057
 30
0.0
 10
-36.6750998674
 20
20.6303691839
 30
0.0
 10
-36.6674281881
 20
20.5918488619
 30
0.0
 10
-36.6674281881
 20
20.5728359909
 30
0.0
  0
SPLINE
  5
46C
100
AcDbEntity
  8
RACCORDO
100
AcDbSpline
 62
250
  6
CONTINUOUS
 70
0
 71
3
 72
11
 73
7
 74
0
 42
0.0000001
 43
0.0000001
 44
0.0000000001
 40
0.0
 40
0.0
 40
0.0
 40
0.0
 40
0.2517644127
 40
0.5024826975
 40
0.7517518153
 40
1.0
 40
1.0
 40
1.0
 40
1.0
 10
-36.8148103271
 20
20.6346833375
 30
0.0
 10
-36.7955310024
 20
20.6343519281
 30
0.0
 10
-36.7567771002
 20
20.6262098203
 30
0.0
 10
-36.7078578776
 20
20.5932700893
 30
0.0
 10
-36.675099868
 20
20.5445178675
 30
0.0
 10
-36.6674281881
 20
20.5059975447
 30
0.0
 10
-36.6674281881
 20
20.4869846732
 30
0.0
  0
LINE
  5
46D
100
AcDbEntity
  8
RACCORDO
100
AcDbLine
 62
250
  6
CONTINUOUS
 10
-46.6674281881
 20
20.943622724
 30
0.0
 11
-43.3148103271
 21
20.9410873667
 31
0.0
  0
SPLINE
  5
46E
100
AcDbEntity
  8
RACCORDO
100
AcDbSpline
 62
250
  6
CONTINUOUS
 70
0
 71
3
 72
9
 73
5
 74
0
 42
0.0000001
 43
0.0000001
 44
0.0000000001
 40
0.0
 40
0.0
 40
0.0
 40
0.0
 40
0.5144317383
 40
1.0
 40
1.0
 40
1.0
 40
1.0
 10
-43.3148499275
 20
19.6666386864
 30
0.0
 10
-43.3100564678
 20
19.6880017063
 30
0.0
 10
-43.2970023023
 20
19.728626078
 30
0.0
 10
-43.2821092533
 20
19.7684990175
 30
0.0
 10
-43.2740514991
 20
19.787529167
 30
0.0
  0
SPLINE
  5
46F
100
AcDbEntity
  8
RACCORDO
100
AcDbSpline
 62
250
  6
CONTINUOUS
 70
0
 71
3
 72
9
 73
5
 74
0
 42
0.0000001
 43
0.0000001
 44
0.0000000001
 40
0.0
 40
0.0
 40
0.0
 40
0.0
 40
0.5031972651
 40
1.0
 40
1.0
 40
1.0
 40
1.0
 10
-43.2740514991
 20
19.787529167
 30
0.0
 10
-43.2663882162
 20
19.8056276861
 30
0.0
 10
-43.2489716486
 20
19.8407985375
 30
0.0
 10
-43.2262616671
 20
19.8726573914
 30
0.0
 10
-43.2152570052
 20
19.8886393968
 30
0.0
  0
SPLINE
  5
470
100
AcDbEntity
  8
RACCORDO
100
AcDbSpline
 62
250
  6
CONTINUOUS
 70
0
 71
3
 72
9
 73
5
 74
0
 42
0.0000001
 43
0.0000001
 44
0.0000000001
 40
0.0
 40
0.0
 40
0.0
 40
0.0
 40
0.486504786
 40
1.0
 40
1.0
 40
1.0
 40
1.0
 10
-43.2152570052
 20
19.8886393968
 30
0.0
 10
-43.2026554296
 20
19.9069405907
 30
0.0
 10
-43.1778901549
 20
19.945688685
 30
0.0
 10
-43.1674265743
 20
19.9917703619
 30
0.0
 10
-43.1674264959
 20
20.0152232071
 30
0.0
  0
SPLINE
  5
471
100
AcDbEntity
  8
RACCORDO
100
AcDbSpline
 62
250
  6
CONTINUOUS
 70
0
 71
3
 72
8
 73
4
 74
0
 42
0.0000001
 43
0.0000001
 44
0.0000000001
 40
0.0
 40
0.0
 40
0.0
 40
0.0
 40
1.0
 40
1.0
 40
1.0
 40
1.0
 10
-43.3148103271
 20
19.9281826116
 30
0.0
 10
-43.2957307744
 20
19.9284181028
 30
0.0
 10
-43.2764759247
 20
19.9312407986
 30
0.0
 10
-43.2582166096
 20
19.9367799502
 30
0.0
  0
SPLINE
  5
472
100
AcDbEntity
  8
RACCORDO
100
AcDbSpline
 62
250
  6
CONTINUOUS
 70
0
 71
3
 72
11
 73
7
 74
0
 42
0.0000001
 43
0.0000001
 44
0.0000000001
 40
0.0
 40
0.0
 40
0.0
 40
0.0
 40
0.2849442633
 40
0.5453023822
 40
0.7809935482
 40
1.0
 40
1.0
 40
1.0
 40
1.0
 10
-43.2582166096
 20
19.9367799502
 30
0.0
 10
-43.245315876
 20
19.9406935207
 30
0.0
 10
-43.221311973
 20
19.9508832695
 30
0.0
 10
-43.1916544946
 20
19.9737139861
 30
0.0
 10
-43.1721348456
 20
20.0021602957
 30
0.0
 10
-43.1674281881
 20
20.023870842
 30
0.0
 10
-43.1674281881
 20
20.0342324745
 30
0.0
  0
SPLINE
  5
473
100
AcDbEntity
  8
RACCORDO
100
AcDbSpline
 62
250
  6
CONTINUOUS
 70
0
 71
3
 72
11
 73
7
 74
0
 42
0.0000001
 43
0.0000001
 44
0.0000000001
 40
0.0
 40
0.0
 40
0.0
 40
0.0
 40
0.2880641859
 40
0.555137317
 40
0.7902241293
 40
1.0
 40
1.0
 40
1.0
 40
1.0
 10
-43.3148103271
 20
20.9410873667
 30
0.0
 10
-43.2957307744
 20
20.9413228579
 30
0.0
 10
-43.2587930223
 20
20.9467035001
 30
0.0
 10
-43.2105495612
 20
20.9690474204
 30
0.0
 10
-43.1763271764
 20
21.0034258362
 30
0.0
 10
-43.1674281881
 20
21.0332419422
 30
0.0
 10
-43.1674281881
 20
21.0471372295
 30
0.0
  0
SPLINE
  5
474
100
AcDbEntity
  8
RACCORDO
100
AcDbSpline
 62
250
  6
CONTINUOUS
 70
0
 71
3
 72
11
 73
7
 74
0
 42
0.0000001
 43
0.0000001
 44
0.0000000001
 40
0.0
 40
0.0
 40
0.0
 40
0.0
 40
0.2821476319
 40
0.5463539089
 40
0.783616503
 40
1.0
 40
1.0
 40
1.0
 40
1.0
 10
-43.3148103271
 20
21.2321822041
 30
0.0
 10
-43.295704979
 20
21.2319325607
 30
0.0
 10
-43.2585256729
 20
21.2261735364
 30
0.0
 10
-43.2101046198
 20
21.2022961631
 30
0.0
 10
-43.1760657828
 20
21.1656723866
 30
0.0
 10
-43.1674281881
 20
21.1345643843
 30
0.0
 10
-43.1674281881
 20
21.1199109388
 30
0.0
  0
SPLINE
  5
475
100
AcDbEntity
  8
RACCORDO
100
AcDbSpline
 62
250
  6
CONTINUOUS
 70
0
 71
3
 72
11
 73
7
 74
0
 42
0.0000001
 43
0.0000001
 44
0.0000000001
 40
0.0
 40
0.0
 40
0.0
 40
0.0
 40
0.2815896295
 40
0.5455295102
 40
0.7830005278
 40
1.0
 40
1.0
 40
1.0
 40
1.0
 10
-43.3148103271
 20
21.3449527215
 30
0.0
 10
-43.2957024278
 20
21.3447017182
 30
0.0
 10
-43.2584993211
 20
21.3389058982
 30
0.0
 10
-43.2100625951
 20
21.3148802107
 30
0.0
 10
-43.1760425646
 20
21.2780432089
 30
0.0
 10
-43.1674281881
 20
21.2468114086
 30
0.0
 10
-43.1674281881
 20
21.2320851497
 30
0.0
  0
LINE
  5
476
100
AcDbEntity
  8
ASSI
100
AcDbLine
 62
250
  6
CONTINUOUS
 10
-41.5280096233
 20
-23.0674284937
 30
0.0
 11
-41.5293421015
 21
-23.0325715172
 31
0.0
  0
SPLINE
  5
477
100
AcDbEntity
  8
ASSI
100
AcDbSpline
 62
250
  6
CONTINUOUS
 70
0
 71
3
 72
18
 73
14
 74
0
 42
0.0000001
 43
0.0000001
 44
0.0000000001
 40
0.0
 40
0.0
 40
0.0
 40
0.0
 40
0.0051217091
 40
0.0196114309
 40
0.0434744819
 40
0.0765604525
 40
0.1185254538
 40
0.1689480801
 40
0.2932884783
 40
0.4447009595
 40
0.6174641903
 40
0.8051709204
 40
1.0
 40
1.0
 40
1.0
 40
1.0
 10
-49.3639377068
 20
-23.9423373592
 30
0.0
 10
-49.363596213
 20
-23.9423313984
 30
0.0
 10
-49.3636688234
 20
-23.9403568808
 30
0.0
 10
-49.3631548286
 20
-23.9381033913
 30
0.0
 10
-49.3630821531
 20
-23.9329879914
 30
0.0
 10
-49.362821321
 20
-23.9265497752
 30
0.0
 10
-49.3626918363
 20
-23.9181247336
 30
0.0
 10
-49.3625194168
 20
-23.9037000489
 30
0.0
 10
-49.3624666576
 20
-23.8819314065
 30
0.0
 10
-49.3625688537
 20
-23.8520287724
 30
0.0
 10
-49.3628549752
 20
-23.8178922003
 30
0.0
 10
-49.3633091934
 20
-23.7808650081
 30
0.0
 10
-49.363711028
 20
-23.7553581966
 30
0.0
 10
-49.3639377068
 20
-23.7423678201
 30
0.0
  0
SPLINE
  5
478
100
AcDbEntity
  8
ASSI
100
AcDbSpline
 62
250
  6
CONTINUOUS
 70
0
 71
3
 72
18
 73
14
 74
0
 42
0.0000001
 43
0.0000001
 44
0.0000000001
 40
0.0
 40
0.0
 40
0.0
 40
0.0
 40
0.0050831383
 40
0.0195416792
 40
0.0433650103
 40
0.0764012371
 40
0.1183096747
 40
0.168673014
 40
0.2929025363
 40
0.4442422404
 40
0.6170123657
 40
0.8048559747
 40
1.0
 40
1.0
 40
1.0
 40
1.0
 10
-49.2990241594
 20
-23.1021029835
 30
0.0
 10
-49.2987074537
 20
-23.1022182549
 30
0.0
 10
-49.2994527799
 20
-23.1040437219
 30
0.0
 10
-49.2996880207
 20
-23.1063159402
 30
0.0
 10
-49.3013042076
 20
-23.1111369578
 30
0.0
 10
-49.303150431
 20
-23.1172590023
 30
0.0
 10
-49.3057708831
 20
-23.1252058621
 30
0.0
 10
-49.3102940313
 20
-23.1388006923
 30
0.0
 10
-49.3173093531
 20
-23.1592594467
 30
0.0
 10
-49.3271019381
 20
-23.1873193664
 30
0.0
 10
-49.3384376007
 20
-23.2193176952
 30
0.0
 10
-49.3508686084
 20
-23.2540056918
 30
0.0
 10
-49.3595135734
 20
-23.2778825976
 30
0.0
 10
-49.3639377068
 20
-23.2900415076
 30
0.0
  0
SPLINE
  5
479
100
AcDbEntity
  8
ASSI
100
AcDbSpline
 62
250
  6
CONTINUOUS
 70
0
 71
3
 72
18
 73
14
 74
0
 42
0.0000001
 43
0.0000001
 44
0.0000000001
 40
0.0
 40
0.0
 40
0.0
 40
0.0
 40
0.005096624
 40
0.0195778442
 40
0.0433982156
 40
0.0763978045
 40
0.1183440913
 40
0.1687633623
 40
0.2928812778
 40
0.4441967728
 40
0.6170655372
 40
0.805096271
 40
1.0
 40
1.0
 40
1.0
 40
1.0
 10
-49.7358322167
 20
-22.9431178525
 30
0.0
 10
-49.7355146713
 20
-22.9432334296
 30
0.0
 10
-49.7362648546
 20
-22.9450622903
 30
0.0
 10
-49.7364982223
 20
-22.9473360308
 30
0.0
 10
-49.7381147742
 20
-22.9521558556
 30
0.0
 10
-49.7399594716
 20
-22.9582782939
 30
0.0
 10
-49.7425816617
 20
-22.9662286475
 30
0.0
 10
-49.7471047186
 20
-22.9798221987
 30
0.0
 10
-49.7541174818
 20
-23.0002761947
 30
0.0
 10
-49.7639101396
 20
-23.0283334226
 30
0.0
 10
-49.7752510049
 20
-23.0603482486
 30
0.0
 10
-49.7876837678
 20
-23.0950387527
 30
0.0
 10
-49.7963270859
 20
-23.1189124592
 30
0.0
 10
-49.8007457641
 20
-23.1310563767
 30
0.0
  0
SPLINE
  5
47A
100
AcDbEntity
  8
ASSI
100
AcDbSpline
 62
7
  6
CONTINUOUS
 70
0
 71
3
 72
11
 73
7
 74
0
 42
0.0000001
 43
0.0000001
 44
0.0000000001
 40
0.0
 40
0.0
 40
0.0
 40
0.0
 40
0.3021206297
 40
0.5642145761
 40
0.7908653544
 40
1.0
 40
1.0
 40
1.0
 40
1.0
 10
-50.0639377068
 20
-21.1892297568
 30
0.0
 10
-50.0348008939
 20
-21.1890029375
 30
0.0
 10
-49.9795630394
 20
-21.1994594384
 30
0.0
 10
-49.9144312297
 20
-21.2427416182
 30
0.0
 10
-49.875886118
 20
-21.2999448518
 30
0.0
 10
-49.8674281881
 20
-21.3423964414
 30
0.0
 10
-49.8674281881
 20
-21.3625662049
 30
0.0
  0
SPLINE
  5
47B
100
AcDbEntity
  8
ASSI
100
AcDbSpline
 62
250
  6
CONTINUOUS
 70
0
 71
3
 72
18
 73
14
 74
0
 42
0.0000001
 43
0.0000001
 44
0.0000000001
 40
0.0
 40
0.0
 40
0.0
 40
0.0
 40
0.1948290796
 40
0.3825358097
 40
0.5552990405
 40
0.7067115217
 40
0.8310519199
 40
0.8814745462
 40
0.9234395475
 40
0.9565255181
 40
0.9803885691
 40
0.9948782909
 40
1.0
 40
1.0
 40
1.0
 40
1.0
 10
-49.3639377068
 20
23.7423678201
 30
0.0
 10
-49.363711028
 20
23.7553581966
 30
0.0
 10
-49.3633091934
 20
23.7808650081
 30
0.0
 10
-49.3628549752
 20
23.8178922003
 30
0.0
 10
-49.3625688537
 20
23.8520287724
 30
0.0
 10
-49.3624666576
 20
23.8819314065
 30
0.0
 10
-49.3625194168
 20
23.9037000489
 30
0.0
 10
-49.3626918363
 20
23.9181247336
 30
0.0
 10
-49.362821321
 20
23.9265497752
 30
0.0
 10
-49.3630821531
 20
23.9329879914
 30
0.0
 10
-49.3631548286
 20
23.9381033913
 30
0.0
 10
-49.3636688234
 20
23.9403568808
 30
0.0
 10
-49.363596213
 20
23.9423313984
 30
0.0
 10
-49.3639377068
 20
23.9423373592
 30
0.0
  0
SPLINE
  5
47C
100
AcDbEntity
  8
ASSI
100
AcDbSpline
 62
250
  6
CONTINUOUS
 70
0
 71
3
 72
18
 73
14
 74
0
 42
0.0000001
 43
0.0000001
 44
0.0000000001
 40
0.0
 40
0.0
 40
0.0
 40
0.0
 40
0.1951440253
 40
0.3829876343
 40
0.5557577597
 40
0.7070974637
 40
0.831326986
 40
0.8816903253
 40
0.9235987629
 40
0.9566349897
 40
0.9804583208
 40
0.9949168617
 40
1.0
 40
1.0
 40
1.0
 40
1.0
 10
-49.3639377068
 20
23.2900415076
 30
0.0
 10
-49.3595135734
 20
23.2778825976
 30
0.0
 10
-49.3508686084
 20
23.2540056918
 30
0.0
 10
-49.3384376007
 20
23.2193176952
 30
0.0
 10
-49.3271019381
 20
23.1873193664
 30
0.0
 10
-49.3173093531
 20
23.1592594467
 30
0.0
 10
-49.3102940313
 20
23.1388006923
 30
0.0
 10
-49.3057708831
 20
23.1252058621
 30
0.0
 10
-49.303150431
 20
23.1172590023
 30
0.0
 10
-49.3013042076
 20
23.1111369578
 30
0.0
 10
-49.2996880207
 20
23.1063159402
 30
0.0
 10
-49.2994527799
 20
23.1040437219
 30
0.0
 10
-49.2987074537
 20
23.1022182549
 30
0.0
 10
-49.2990241594
 20
23.1021029835
 30
0.0
  0
SPLINE
  5
47D
100
AcDbEntity
  8
ASSI
100
AcDbSpline
 62
250
  6
CONTINUOUS
 70
0
 71
3
 72
18
 73
14
 74
0
 42
0.0000001
 43
0.0000001
 44
0.0000000001
 40
0.0
 40
0.0
 40
0.0
 40
0.0
 40
0.194903729
 40
0.3829344628
 40
0.5558032272
 40
0.7071187222
 40
0.8312366377
 40
0.8816559087
 40
0.9236021955
 40
0.9566017844
 40
0.9804221558
 40
0.994903376
 40
1.0
 40
1.0
 40
1.0
 40
1.0
 10
-49.8007457641
 20
23.1310563767
 30
0.0
 10
-49.7963270859
 20
23.1189124592
 30
0.0
 10
-49.7876837678
 20
23.0950387527
 30
0.0
 10
-49.7752510049
 20
23.0603482486
 30
0.0
 10
-49.7639101396
 20
23.0283334226
 30
0.0
 10
-49.7541174818
 20
23.0002761947
 30
0.0
 10
-49.7471047186
 20
22.9798221987
 30
0.0
 10
-49.7425816617
 20
22.9662286475
 30
0.0
 10
-49.7399594716
 20
22.9582782939
 30
0.0
 10
-49.7381147742
 20
22.9521558556
 30
0.0
 10
-49.7364982223
 20
22.9473360308
 30
0.0
 10
-49.7362648546
 20
22.9450622903
 30
0.0
 10
-49.7355146713
 20
22.9432334296
 30
0.0
 10
-49.7358322167
 20
22.9431178525
 30
0.0
  0
SPLINE
  5
47E
100
AcDbEntity
  8
ASSI
100
AcDbSpline
 62
7
  6
CONTINUOUS
 70
0
 71
3
 72
11
 73
7
 74
0
 42
0.0000001
 43
0.0000001
 44
0.0000000001
 40
0.0
 40
0.0
 40
0.0
 40
0.0
 40
0.2091395168
 40
0.4357921102
 40
0.6978753083
 40
1.0
 40
1.0
 40
1.0
 40
1.0
 10
-49.8674281881
 20
21.3625662049
 30
0.0
 10
-49.8674281881
 20
21.3423959653
 30
0.0
 10
-49.8758865127
 20
21.2999436358
 30
0.0
 10
-49.9144323378
 20
21.242741499
 30
0.0
 10
-49.9795629095
 20
21.1994585406
 30
0.0
 10
-50.0348004931
 20
21.1890029343
 30
0.0
 10
-50.0639377068
 20
21.1892297568
 30
0.0
  0
SPLINE
  5
47F
100
AcDbEntity
  8
RACCORDO
100
AcDbSpline
 62
250
  6
CONTINUOUS
 70
0
 71
3
 72
12
 73
8
 74
0
 42
0.0000001
 43
0.0000001
 44
0.0000000001
 40
0.0
 40
0.0
 40
0.0
 40
0.0
 40
0.1200470899
 40
0.2163960036
 40
0.3379194732
 40
0.6439884718
 40
1.0
 40
1.0
 40
1.0
 40
1.0
 10
-36.8148103271
 20
-20.4608853572
 30
0.0
 10
-36.808374723
 20
-20.4609976911
 30
0.0
 10
-36.7989091879
 20
-20.4714192591
 30
0.0
 10
-36.7918252581
 20
-20.4874224498
 30
0.0
 10
-36.7834692162
 20
-20.5145976024
 30
0.0
 10
-36.7774688801
 20
-20.5561985372
 30
0.0
 10
-36.7761777368
 20
-20.5917766736
 30
0.0
 10
-36.7764860619
 20
-20.6108625115
 30
0.0
  0
SPLINE
  5
480
100
AcDbEntity
  8
RACCORDO
100
AcDbSpline
 62
7
  6
CONTINUOUS
 70
0
 71
3
 72
14
 73
10
 74
0
 42
0.0000001
 43
0.0000001
 44
0.0000000001
 40
0.0
 40
0.0
 40
0.0
 40
0.0
 40
0.3997360503
 40
0.5718704554
 40
0.7192552601
 40
0.8381760676
 40
0.9257339926
 40
0.9796729048
 40
1.0
 40
1.0
 40
1.0
 40
1.0
 10
-36.7764860619
 20
-21.5771819506
 30
0.0
 10
-36.761893442
 20
-21.5769272354
 30
0.0
 10
-36.7409981101
 20
-21.5766076611
 30
0.0
 10
-36.7147917636
 20
-21.5757051021
 30
0.0
 10
-36.6987113519
 20
-21.5749419891
 30
0.0
 10
-36.6860647602
 20
-21.574051388
 30
0.0
 10
-36.6760163411
 20
-21.57324831
 30
0.0
 10
-36.6712311522
 20
-21.5722069443
 30
0.0
 10
-36.6674281881
 20
-21.5716235043
 30
0.0
 10
-36.6674281881
 20
-21.5708813376
 30
0.0
  0
SPLINE
  5
481
100
AcDbEntity
  8
RACCORDO
100
AcDbSpline
 62
7
  6
CONTINUOUS
 70
0
 71
3
 72
10
 73
6
 74
0
 42
0.0000001
 43
0.0000001
 44
0.0000000001
 40
0.0
 40
0.0
 40
0.0
 40
0.0
 40
0.4836563175
 40
0.7472229353
 40
1.0
 40
1.0
 40
1.0
 40
1.0
 10
-46.8148103271
 20
21.2345215081
 30
0.0
 10
-46.7780573549
 20
21.2061772651
 30
0.0
 10
-46.7279430739
 20
21.1526692816
 30
0.0
 10
-46.6806427406
 20
21.0690116381
 30
0.0
 10
-46.6674281881
 20
21.0196976146
 30
0.0
 10
-46.6674281881
 20
20.9954403681
 30
0.0
  0
SPLINE
  5
482
100
AcDbEntity
  8
RACCORDO
100
AcDbSpline
 62
250
  6
CONTINUOUS
 70
0
 71
3
 72
11
 73
7
 74
0
 42
0.0000001
 43
0.0000001
 44
0.0000000001
 40
0.0
 40
0.0
 40
0.0
 40
0.0
 40
0.1960911376
 40
0.4270260021
 40
0.7000756135
 40
1.0
 40
1.0
 40
1.0
 40
1.0
 10
-46.6674281881
 20
17.7347372013
 30
0.0
 10
-46.6674281881
 20
17.7471823763
 30
0.0
 10
-46.6769444769
 20
17.7745007246
 30
0.0
 10
-46.7114314059
 20
17.8044477456
 30
0.0
 10
-46.7592674336
 20
17.8239249773
 30
0.0
 10
-46.7957763827
 20
17.8286011346
 30
0.0
 10
-46.8148103271
 20
17.8288095265
 30
0.0
  0
SPLINE
  5
483
100
AcDbEntity
  8
ASSI
100
AcDbSpline
 62
250
  6
CONTINUOUS
 70
0
 71
3
 72
20
 73
16
 74
0
 42
0.0000001
 43
0.0000001
 44
0.0000000001
 40
0.0
 40
0.0
 40
0.0
 40
0.0
 40
0.2264304911
 40
0.426710417
 40
0.5989124958
 40
0.741707793
 40
0.8017171937
 40
0.8539793312
 40
0.8983934749
 40
0.9348590269
 40
0.9632871679
 40
0.9836356692
 40
0.9907710411
 40
0.9958764338
 40
1.0
 40
1.0
 40
1.0
 40
1.0
 10
-44.4796439422
 20
21.3655459497
 30
0.0
 10
-44.4788633704
 20
21.3916583137
 30
0.0
 10
-44.4773678348
 20
21.4408666166
 30
0.0
 10
-44.4751968327
 20
21.5099308842
 30
0.0
 10
-44.4732672716
 20
21.5693491805
 30
0.0
 10
-44.4717987806
 20
21.612589116
 30
0.0
 10
-44.4707460582
 20
21.6419997196
 30
0.0
 10
-44.4700674013
 20
21.6600607238
 30
0.0
 10
-44.4694673958
 20
21.6754206178
 30
0.0
 10
-44.4689097722
 20
21.6879901672
 30
0.0
 10
-44.4684979458
 20
21.6978917166
 30
0.0
 10
-44.468033859
 20
21.7041711584
 30
0.0
 10
-44.4679293707
 20
21.7081405106
 30
0.0
 10
-44.4675063979
 20
21.709637982
 30
0.0
 10
-44.4679036476
 20
21.7114444482
 30
0.0
 10
-44.4674281881
 20
21.7114278447
 30
0.0
  0
SPLINE
  5
484
100
AcDbEntity
  8
RACCORDO
100
AcDbSpline
 62
7
  6
CONTINUOUS
 70
0
 71
3
 72
10
 73
6
 74
0
 42
0.0000001
 43
0.0000001
 44
0.0000000001
 40
0.0
 40
0.0
 40
0.0
 40
0.0
 40
0.2527770647
 40
0.5163436825
 40
1.0
 40
1.0
 40
1.0
 40
1.0
 10
-46.6674281881
 20
-20.9954403681
 30
0.0
 10
-46.6674281881
 20
-21.0196976146
 30
0.0
 10
-46.6806427406
 20
-21.0690116381
 30
0.0
 10
-46.7279430739
 20
-21.1526692816
 30
0.0
 10
-46.7780573549
 20
-21.2061772651
 30
0.0
 10
-46.8148103271
 20
-21.2345215081
 30
0.0
  0
SPLINE
  5
485
100
AcDbEntity
  8
RACCORDO
100
AcDbSpline
 62
250
  6
CONTINUOUS
 70
0
 71
3
 72
11
 73
7
 74
0
 42
0.0000001
 43
0.0000001
 44
0.0000000001
 40
0.0
 40
0.0
 40
0.0
 40
0.0
 40
0.196091127
 40
0.4270260034
 40
0.7000756179
 40
1.0
 40
1.0
 40
1.0
 40
1.0
 10
-46.6674281881
 20
-17.7347372013
 30
0.0
 10
-46.6674281881
 20
-17.7471823752
 30
0.0
 10
-46.6769444807
 20
-17.7745007219
 30
0.0
 10
-46.711431411
 20
-17.8044477382
 30
0.0
 10
-46.7592674368
 20
-17.8239249705
 30
0.0
 10
-46.7957763837
 20
-17.8286011318
 30
0.0
 10
-46.8148103271
 20
-17.8288095269
 30
0.0
  0
SPLINE
  5
486
100
AcDbEntity
  8
ASSI
100
AcDbSpline
 62
250
  6
CONTINUOUS
 70
0
 71
3
 72
20
 73
16
 74
0
 42
0.0000001
 43
0.0000001
 44
0.0000000001
 40
0.0
 40
0.0
 40
0.0
 40
0.0
 40
0.2264121615
 40
0.4266780452
 40
0.5988711945
 40
0.7416629833
 40
0.801672698
 40
0.8539365157
 40
0.8983536953
 40
0.934823603
 40
0.9632573404
 40
0.9836127808
 40
0.990752261
 40
0.9958623779
 40
1.0
 40
1.0
 40
1.0
 40
1.0
 10
-44.4796439422
 20
-21.3655459497
 30
0.0
 10
-44.478852249
 20
-21.3916559477
 30
0.0
 10
-44.4773521163
 20
-21.4408605233
 30
0.0
 10
-44.4751987347
 20
-21.5099208012
 30
0.0
 10
-44.4732728211
 20
-21.5693363493
 30
0.0
 10
-44.4718003506
 20
-21.6125749123
 30
0.0
 10
-44.4707444433
 20
-21.6419852886
 30
0.0
 10
-44.4700644512
 20
-21.6600469592
 30
0.0
 10
-44.469464454
 20
-21.6754077212
 30
0.0
 10
-44.4689095765
 20
-21.6879795547
 30
0.0
 10
-44.4685018802
 20
-21.6978816647
 30
0.0
 10
-44.4680448398
 20
-21.7041667355
 30
0.0
 10
-44.4679385204
 20
-21.708133459
 30
0.0
 10
-44.467519932
 20
-21.7096411548
 30
0.0
 10
-44.4679054879
 20
-21.711436176
 30
0.0
 10
-44.4674281881
 20
-21.7114278447
 30
0.0
  0
SPLINE
  5
487
100
AcDbEntity
  8
RACCORDO
100
AcDbSpline
 62
250
  6
CONTINUOUS
 70
0
 71
3
 72
14
 73
10
 74
0
 42
0.0000001
 43
0.0000001
 44
0.0000000001
 40
0.0
 40
0.0
 40
0.0
 40
0.0
 40
0.0165309884
 40
0.0656793665
 40
0.1470536667
 40
0.2598366331
 40
0.403009725
 40
0.5753406017
 40
1.0
 40
1.0
 40
1.0
 40
1.0
 10
-43.3148103271
 20
19.8696128897
 30
0.0
 10
-43.3144876131
 20
19.8696190213
 30
0.0
 10
-43.3150498074
 20
19.8716574133
 30
0.0
 10
-43.3144030536
 20
19.8738021562
 30
0.0
 10
-43.3147056963
 20
19.8789630007
 30
0.0
 10
-43.3145492422
 20
19.8853704941
 30
0.0
 10
-43.3146211889
 20
19.8938011361
 30
0.0
 10
-43.3146555357
 20
19.9082208106
 30
0.0
 10
-43.3147463596
 20
19.9198912626
 30
0.0
 10
-43.3148103271
 20
19.9281826116
 30
0.0
  0
ELLIPSE
  5
488
100
AcDbEntity
  8
LAY0001
100
AcDbEllipse
 62
7
  6
CONTINUOUS
 10
-10.5998286038
 20
-25.8998286038
 30
0.0
 11
0.35379574
 21
0.35379574
 31
0.0
 40
0.999315002
 41
2.3565371065
 42
3.9266482006
  0
ELLIPSE
  5
489
100
AcDbEntity
  8
LAY0001
100
AcDbEllipse
 62
7
  6
CONTINUOUS
 10
10.5998286038
 20
-25.8998286038
 30
0.0
 11
0.35379574
 21
-0.35379574
 31
0.0
 40
0.999315002
 41
-0.7850555471
 42
0.7850555471
  0
ELLIPSE
  5
48A
100
AcDbEntity
  8
LAY0001
100
AcDbEllipse
 62
7
  6
CONTINUOUS
 10
10.5998286038
 20
25.8998286038
 30
0.0
 11
-0.35379574
 21
-0.35379574
 31
0.0
 40
0.999315002
 41
2.3565371065
 42
3.9266482006
  0
ELLIPSE
  5
48B
100
AcDbEntity
  8
LAY0001
100
AcDbEllipse
 62
7
  6
CONTINUOUS
 10
-10.5998286038
 20
25.8998286038
 30
0.0
 11
0.35379574
 21
-0.35379574
 31
0.0
 40
0.999315002
 41
2.3565371065
 42
3.9266482006
  0
ELLIPSE
  5
48C
100
AcDbEntity
  8
RACCORDO
100
AcDbEllipse
 62
7
  6
CONTINUOUS
 10
-6.7999695344
 20
-7.4499695344
 30
0.0
 11
-0.1414644378
 21
-0.1414644378
 31
0.0
 40
0.9996954599
 41
-0.7852458701
 42
0.7852458701
  0
ELLIPSE
  5
48D
100
AcDbEntity
  8
RACCORDO
100
AcDbEllipse
 62
7
  6
CONTINUOUS
 10
6.7999695344
 20
-7.4499695344
 30
0.0
 11
0.1414644378
 21
-0.1414644378
 31
0.0
 40
0.9996954599
 41
-0.7852458701
 42
0.7852458701
  0
ELLIPSE
  5
48E
100
AcDbEntity
  8
RACCORDO
100
AcDbEllipse
 62
7
  6
CONTINUOUS
 10
6.7999695344
 20
7.4499695344
 30
0.0
 11
0.1414644378
 21
0.1414644378
 31
0.0
 40
0.9996954599
 41
-0.7852458701
 42
0.7852458701
  0
ELLIPSE
  5
48F
100
AcDbEntity
  8
RACCORDO
100
AcDbEllipse
 62
7
  6
CONTINUOUS
 10
-6.7999695344
 20
7.4499695344
 30
0.0
 11
-0.1414644378
 21
0.1414644378
 31
0.0
 40
0.9996954599
 41
-0.7852458701
 42
0.7852458701
  0
ELLIPSE
  5
490
100
AcDbEntity
  8
0
100
AcDbEllipse
 62
7
  6
CONTINUOUS
 10
-1402.3583990859
 20
0.0
 30
0.0
 11
1491.5228640581
 21
-0.0
 31
0.0
 40
0.0302453443
 41
6.7204492196
 42
6.7217244524
  0
ELLIPSE
  5
491
100
AcDbEntity
  8
0
100
AcDbEllipse
 62
7
  6
CONTINUOUS
 10
-1402.3583990859
 20
0.0
 30
0.0
 11
1491.5228640581
 21
-0.0
 31
0.0
 40
0.0302453443
 41
5.844646162
 42
5.8459213948
  0
ENDSEC
  0
SECTION
  2
OBJECTS
  0
DICTIONARY
  5
C
100
AcDbDictionary
280
0
281
1
  3
ACAD_GROUP
350
D
  3
ACAD_MLINESTYLE
350
17
  3
ACAD_LAYOUT
350
1A
  3
ACAD_PLOTSETTINGS
350
19
  3
ACAD_PLOTSTYLENAME
350
E
  0
DICTIONARY
  5
D
102
{ACAD_REACTORS
330
C
102
}
100
AcDbDictionary
280
0
281
1
  0
ACDBDICTIONARYWDFLT
  5
E
102
{ACAD_REACTORS
330
C
102
}
100
AcDbDictionary
281
1
  3
Normal
350
F
100
AcDbDictionaryWithDefault
340
F
  0
DICTIONARY
  5
17
102
{ACAD_REACTORS
330
C
102
}
100
AcDbDictionary
280
0
281
1
  3
Standard
350
18
  0
DICTIONARY
  5
19
102
{ACAD_REACTORS
330
C
102
}
100
AcDbDictionary
281
1
  0
DICTIONARY
  5
1A
102
{ACAD_REACTORS
330
C
102
}
100
AcDbDictionary
281
1
  3
Model
350
492
  3
Layout1
350
493
  0
ACDBPLACEHOLDER
  5
F
102
{ACAD_REACTORS
330
E
102
}
  0
MLINESTYLE
  5
18
102
{ACAD_REACTORS
330
17
102
}
100
AcDbMlineStyle
  2
STANDARD
 70
0
  3

 62
256
 51
90.0
 52
90.0
 71
2
 49
0.5
 62
256
  6
BYLAYER
 49
-0.5
 62
256
  6
BYLAYER
  0
LAYOUT
  5
492
102
{ACAD_REACTORS
330
1A
102
}
100
AcDbPlotSettings
  1

  2
none_device
  4
ISO_A3_(420.00_x_297.00_MM)
  6

 40
0.0
 41
0.0
 42
0.0
 43
0.0
 44
420.0
 45
297.0
 46
0.0
 47
0.0
 48
0.0
 49
0.0
140
0.0
141
0.0
142
1.0
143
1.0
 70
1024
 72
1
 73
0
 74
0
  7

 75
0
147
1.0
148
0.0
149
0.0
100
AcDbLayout
  1
Model
 70
0
 71
0
 10
0.0
 20
0.0
 11
420.0
 21
297.0
 12
0.0
 22
0.0
 32
0.0
 14
0.0
 24
0.0
 34
0.0
 15
0.0
 25
0.0
 35
0.0
146
0.0
 13
0.0
 23
0.0
 33
0.0
 16
1.0
 26
0.0
 36
0.0
 17
0.0
 27
1.0
 37
0.0
 76
0
330
214
345
0
346
0
  0
LAYOUT
  5
493
102
{ACAD_REACTORS
330
1A
102
}
100
AcDbPlotSettings
  1

  2
none_device
  4
ISO_A3_(420.00_x_297.00_MM)
  6

 40
0.0
 41
0.0
 42
0.0
 43
0.0
 44
420.0
 45
297.0
 46
0.0
 47
0.0
 48
0.0
 49
0.0
140
0.0
141
0.0
142
1.0
143
1.0
 70
0
 72
1
 73
0
 74
0
  7

 75
0
147
1.0
148
0.0
149
0.0
100
AcDbLayout
  1
Layout1
 70
0
 71
1
 10
0.0
 20
0.0
 11
420.0
 21
297.0
 12
0.0
 22
0.0
 32
0.0
 14
0.0
 24
0.0
 34
0.0
 15
0.0
 25
0.0
 35
0.0
146
0.0
 13
0.0
 23
0.0
 33
0.0
 16
1.0
 26
0.0
 36
0.0
 17
0.0
 27
1.0
 37
0.0
 76
0
330
215
345
0
346
0
  0
ENDSEC
  0
EOF
