  0
SECTION
  2
HEADER
  9
$ACADVER
  1
AC1024
  9
$DWGCODEPAGE
  3
ANSI_1252
  9
$EXTMAX
 10
297.0
 20
210.0
 30
0.0
  9
$EXTMIN
 10
0.0
 20
0.0
 30
0.0
  9
$LIMMIN
 10
0.0
 20
0.0
  9
$LIMMAX
 10
297.0
 20
210.0
  9
$VIEWCTR
 10
148.5
 20
105.0
  9
$VIEWSIZE
 40
210.0
  9
$CLAYER
  8
0
  9
$LTSCALE
 40
16.335
  9
$CELTYPE
  6
BYLAYER
  9
$DIMSCALE
 40
1.0
  9
$DIMASZ
 40
3.0
  9
$DIMEXO
 40
0.5
  9
$DIMDLI
 40
11.286
  9
$DIMEXE
 40
1.5
  9
$DIMCEN
 40
2.673
  9
$DIMLFAC
 40
1.0
  9
$DIMBLK
  1
_FILLED
  9
$DIMALT
 70
0
  9
$DIMALTF
 40
0.0393700787
  9
$DIMTXT
 40
3.0
  9
$DIMTOL
 70
1
  9
$DIMLIM
 70
0
  9
$DIMTFAC
 40
1.0
  9
$DIMTP
 40
0.01
  9
$DIMTM
 40
0.01
  9
$DIMGAP
 40
0.625
  9
$DIMDSEP
 70
44
  9
$AUNITS
 70
0
  9
$PDMODE
 70
3
  9
$PDSIZE
 40
3.0
  9
$HANDSEED
  5
656
  9
$TILEMODE
 70
1
  9
$MEASUREMENT
 70
1
  9
$INSUNITS
 70
4
  0
ENDSEC
  0
SECTION
  2
CLASSES
  0
CLASS
  1
ACDBDICTIONARYWDFLT
  2
AcDbDictionaryWithDefault
  3
AutoCAD 2000
 90
0
 91
1
280
0
281
0
  0
CLASS
  1
ACDBPLACEHOLDER
  2
AcDbPlaceHolder
  3
AutoCAD 2000
 90
0
 91
1
280
0
281
0
  0
CLASS
  1
LAYOUT
  2
AcDbLayout
  3
AutoCAD 2000
 90
0
 91
0
280
0
281
0
  0
ENDSEC
  0
SECTION
  2
TABLES
  0
TABLE
  2
VPORT
  5
8
100
AcDbSymbolTable
 70
2
  0
VPORT
  5
1F4
100
AcDbSymbolTableRecord
100
AcDbViewportTableRecord
  2
*ACTIVE
 70
0
 10
0.0
 20
0.0
 11
1.0
 21
1.0
 12
148.5
 22
105.0
 13
0.0
 23
0.0
 14
1.0
 24
1.0
 15
0.0
 25
0.0
 16
0.0
 26
0.0
 36
1.0
 17
0.0
 27
0.0
 37
0.0
 40
210.0
 41
1.4142857143
 42
50.0
 43
0.0
 44
0.0
 50
0.0
 51
0.0
 71
0
 72
100
 73
1
 74
1
 75
0
 76
0
 77
0
 78
0
  0
ENDTAB
  0
TABLE
  2
LTYPE
  5
5
100
AcDbSymbolTable
 70
6
  0
LTYPE
  5
14
100
AcDbSymbolTableRecord
100
AcDbLinetypeTableRecord
  2
BYBLOCK
 70
0
  3

 72
65
 73
0
 40
0.0
  0
LTYPE
  5
15
100
AcDbSymbolTableRecord
100
AcDbLinetypeTableRecord
  2
BYLAYER
 70
0
  3

 72
65
 73
0
 40
0.0
  0
LTYPE
  5
16
100
AcDbSymbolTableRecord
100
AcDbLinetypeTableRecord
  2
CONTINUOUS
 70
64
  3
Solid line
 72
65
 73
0
 40
0.0
  0
LTYPE
  5
1F5
100
AcDbSymbolTableRecord
100
AcDbLinetypeTableRecord
  2
CENTER
 70
64
  3
____ _ ____ _ ____ _ ____ _ ____ _ ____ _ ____
 72
65
 73
4
 40
0.6
 49
0.375
 74
0
 49
-0.075
 74
0
 49
0.075
 74
0
 49
-0.075
 74
0
  0
LTYPE
  5
1F6
100
AcDbSymbolTableRecord
100
AcDbLinetypeTableRecord
  2
HIDDEN
 70
64
  3
- - - - - - - - - - - - - - - - - - - -
 72
65
 73
2
 40
0.2
 49
0.1
 74
0
 49
-0.1
 74
0
  0
LTYPE
  5
1F7
100
AcDbSymbolTableRecord
100
AcDbLinetypeTableRecord
  2
PHANTOM
 70
64
  3
_____ _ _ _____ _ _ _____ _ _ _____
 72
65
 73
6
 40
0.8
 49
0.45
 74
0
 49
-0.05
 74
0
 49
0.1
 74
0
 49
-0.05
 74
0
 49
0.1
 74
0
 49
-0.05
 74
0
  0
LTYPE
  5
1F8
100
AcDbSymbolTableRecord
100
AcDbLinetypeTableRecord
  2
DOT
 70
64
  3
. . . . . . . . . . . . . . . . . . . .
 72
65
 73
2
 40
0.2
 49
0.1
 74
0
 49
-0.1
 74
0
  0
LTYPE
  5
1F9
100
AcDbSymbolTableRecord
100
AcDbLinetypeTableRecord
  2
DASHED
 70
64
  3
- - - - - - - - - - - - - - - - - - - -
 72
65
 73
2
 40
0.2
 49
0.1
 74
0
 49
-0.1
 74
0
  0
ENDTAB
  0
TABLE
  2
LAYER
  5
2
100
AcDbSymbolTable
 70
36
  0
LAYER
  5
10
100
AcDbSymbolTableRecord
100
AcDbLayerTableRecord
  2
0
 70
0
 62
7
  6
CONTINUOUS
370
-3
390
F
  0
LAYER
  5
1FA
100
AcDbSymbolTableRecord
100
AcDbLayerTableRecord
  2
DEFAULT_1
 70
0
 62
7
  6
CENTER
370
-3
390
F
  0
LAYER
  5
1FB
100
AcDbSymbolTableRecord
100
AcDbLayerTableRecord
  2
DEFAULT_2
 70
0
 62
7
  6
HIDDEN
370
-3
390
F
  0
LAYER
  5
1FC
100
AcDbSymbolTableRecord
100
AcDbLayerTableRecord
  2
DEFAULT_3
 70
0
 62
7
  6
PHANTOM
370
-3
390
F
  0
LAYER
  5
1FD
100
AcDbSymbolTableRecord
100
AcDbLayerTableRecord
  2
ASSI
 70
0
 62
7
  6
CONTINUOUS
370
-3
390
F
  0
LAYER
  5
1FE
100
AcDbSymbolTableRecord
100
AcDbLayerTableRecord
  2
COORDINATE
 70
0
 62
7
  6
CONTINUOUS
370
-3
390
F
  0
LAYER
  5
1FF
100
AcDbSymbolTableRecord
100
AcDbLayerTableRecord
  2
COORD_ORIGINE
 70
0
 62
7
  6
CONTINUOUS
370
-3
390
F
  0
LAYER
  5
200
100
AcDbSymbolTableRecord
100
AcDbLayerTableRecord
  2
COPY_PUBLISH
 70
0
 62
7
  6
CONTINUOUS
370
-3
390
F
  0
LAYER
  5
201
100
AcDbSymbolTableRecord
100
AcDbLayerTableRecord
  2
COSMETICHE
 70
0
 62
7
  6
CONTINUOUS
370
-3
390
F
  0
LAYER
  5
202
100
AcDbSymbolTableRecord
100
AcDbLayerTableRecord
  2
COSMETICI
 70
0
 62
7
  6
CONTINUOUS
370
-3
390
F
  0
LAYER
  5
203
100
AcDbSymbolTableRecord
100
AcDbLayerTableRecord
  2
CURVE
 70
0
 62
7
  6
CONTINUOUS
370
-3
390
F
  0
LAYER
  5
204
100
AcDbSymbolTableRecord
100
AcDbLayerTableRecord
  2
DRAFT
 70
0
 62
7
  6
CONTINUOUS
370
-3
390
F
  0
LAYER
  5
205
100
AcDbSymbolTableRecord
100
AcDbLayerTableRecord
  2
IMPORT_IGES
 70
0
 62
7
  6
CONTINUOUS
370
-3
390
F
  0
LAYER
  5
206
100
AcDbSymbolTableRecord
100
AcDbLayerTableRecord
  2
INTF_1
 70
0
 62
7
  6
CONTINUOUS
370
-3
390
F
  0
LAYER
  5
207
100
AcDbSymbolTableRecord
100
AcDbLayerTableRecord
  2
INTF_10
 70
0
 62
7
  6
CONTINUOUS
370
-3
390
F
  0
LAYER
  5
208
100
AcDbSymbolTableRecord
100
AcDbLayerTableRecord
  2
INTF_11
 70
0
 62
7
  6
CONTINUOUS
370
-3
390
F
  0
LAYER
  5
209
100
AcDbSymbolTableRecord
100
AcDbLayerTableRecord
  2
INTF_13
 70
0
 62
7
  6
CONTINUOUS
370
-3
390
F
  0
LAYER
  5
20A
100
AcDbSymbolTableRecord
100
AcDbLayerTableRecord
  2
INTF_14
 70
0
 62
7
  6
CONTINUOUS
370
-3
390
F
  0
LAYER
  5
20B
100
AcDbSymbolTableRecord
100
AcDbLayerTableRecord
  2
INTF_2
 70
0
 62
7
  6
CONTINUOUS
370
-3
390
F
  0
LAYER
  5
20C
100
AcDbSymbolTableRecord
100
AcDbLayerTableRecord
  2
INTF_8
 70
0
 62
7
  6
CONTINUOUS
370
-3
390
F
  0
LAYER
  5
20D
100
AcDbSymbolTableRecord
100
AcDbLayerTableRecord
  2
INTF_9
 70
0
 62
7
  6
CONTINUOUS
370
-3
390
F
  0
LAYER
  5
20E
100
AcDbSymbolTableRecord
100
AcDbLayerTableRecord
  2
NOTE
 70
0
 62
7
  6
CONTINUOUS
370
-3
390
F
  0
LAYER
  5
20F
100
AcDbSymbolTableRecord
100
AcDbLayerTableRecord
  2
PIANI
 70
0
 62
7
  6
CONTINUOUS
370
-3
390
F
  0
LAYER
  5
210
100
AcDbSymbolTableRecord
100
AcDbLayerTableRecord
  2
PIANI_ORIGINE
 70
0
 62
7
  6
CONTINUOUS
370
-3
390
F
  0
LAYER
  5
211
100
AcDbSymbolTableRecord
100
AcDbLayerTableRecord
  2
PUNTI
 70
0
 62
7
  6
CONTINUOUS
370
-3
390
F
  0
LAYER
  5
212
100
AcDbSymbolTableRecord
100
AcDbLayerTableRecord
  2
RACCORDO
 70
0
 62
7
  6
CONTINUOUS
370
-3
390
F
  0
LAYER
  5
213
100
AcDbSymbolTableRecord
100
AcDbLayerTableRecord
  2
RGB__255__255__255__
 70
0
 62
7
  6
CONTINUOUS
370
-3
390
F
  0
LAYER
  5
214
100
AcDbSymbolTableRecord
100
AcDbLayerTableRecord
  2
RGB____0____0____0__
 70
0
 62
7
  6
CONTINUOUS
370
-3
390
F
  0
LAYER
  5
215
100
AcDbSymbolTableRecord
100
AcDbLayerTableRecord
  2
SIMBOLI
 70
0
 62
7
  6
CONTINUOUS
370
-3
390
F
  0
LAYER
  5
216
100
AcDbSymbolTableRecord
100
AcDbLayerTableRecord
  2
SMUSSO
 70
0
 62
7
  6
CONTINUOUS
370
-3
390
F
  0
LAYER
  5
217
100
AcDbSymbolTableRecord
100
AcDbLayerTableRecord
  2
SNAPLINE
 70
0
 62
7
  6
CONTINUOUS
370
-3
390
F
  0
LAYER
  5
218
100
AcDbSymbolTableRecord
100
AcDbLayerTableRecord
  2
SUPERFICI
 70
0
 62
7
  6
CONTINUOUS
370
-3
390
F
  0
LAYER
  5
219
100
AcDbSymbolTableRecord
100
AcDbLayerTableRecord
  2
TRASH
 70
0
 62
7
  6
CONTINUOUS
370
-3
390
F
  0
LAYER
  5
21A
100
AcDbSymbolTableRecord
100
AcDbLayerTableRecord
  2
XSEC_DATUMS
 70
0
 62
7
  6
CONTINUOUS
370
-3
390
F
  0
ENDTAB
  0
TABLE
  2
STYLE
  5
3
100
AcDbSymbolTable
 70
1
  0
STYLE
  5
11
100
AcDbSymbolTableRecord
100
AcDbTextStyleTableRecord
  2
STANDARD
 70
0
 40
0.0
 41
0.8
 50
0.0
 71
0
 42
0.2
  3
txt
  4

  0
STYLE
  5
21B
100
AcDbSymbolTableRecord
100
AcDbTextStyleTableRecord
  2
TEXTSTYLE_1
 70
0
 40
0.0
 41
0.8
 50
0.0
 71
0
 42
0.2
  3
gdt
  4

  0
ENDTAB
  0
TABLE
  2
VIEW
  5
6
100
AcDbSymbolTable
 70
0
  0
ENDTAB
  0
TABLE
  2
UCS
  5
7
100
AcDbSymbolTable
 70
0
  0
ENDTAB
  0
TABLE
  2
APPID
  5
9
100
AcDbSymbolTable
 70
1
  0
APPID
  5
21C
100
AcDbSymbolTableRecord
100
AcDbRegAppTableRecord
  2
ACAD
 70
0
  0
ENDTAB
  0
TABLE
  2
BLOCK_RECORD
  5
1
100
AcDbSymbolTable
 70
0
  0
BLOCK_RECORD
  5
21D
100
AcDbSymbolTableRecord
100
AcDbBlockTableRecord
  2
*Model_Space
  0
BLOCK_RECORD
  5
21E
100
AcDbSymbolTableRecord
100
AcDbBlockTableRecord
  2
*Paper_Space
  0
BLOCK_RECORD
  5
21F
100
AcDbSymbolTableRecord
100
AcDbBlockTableRecord
  2
_FILLED
  0
BLOCK_RECORD
  5
220
100
AcDbSymbolTableRecord
100
AcDbBlockTableRecord
  2
*D0
  0
BLOCK_RECORD
  5
221
100
AcDbSymbolTableRecord
100
AcDbBlockTableRecord
  2
*D1
  0
BLOCK_RECORD
  5
222
100
AcDbSymbolTableRecord
100
AcDbBlockTableRecord
  2
*D2
  0
BLOCK_RECORD
  5
223
100
AcDbSymbolTableRecord
100
AcDbBlockTableRecord
  2
*D3
  0
ENDTAB
  0
TABLE
  2
DIMSTYLE
  5
A
100
AcDbSymbolTable
 70
1
100
AcDbDimStyleTable
 71
0
  0
DIMSTYLE
105
224
100
AcDbSymbolTableRecord
100
AcDbDimStyleTableRecord
  2
STANDARD
 70
0
  3

  4

 40
1.0
 41
3.0
 42
0.5
 43
0.38
 44
1.5
 45
0.0
 46
0.0
 47
0.01
 48
0.01
140
3.0
141
0.09
142
0.0
143
25.4
144
1.0
145
0.0
146
1.0
147
0.625
 71
1
 72
0
 73
0
 74
0
 75
0
 76
0
 77
1
 78
8
 79
2
170
0
171
1
172
0
173
0
174
0
175
0
176
0
177
0
178
0
270
2
179
2
271
2
272
2
273
2
274
2
275
0
280
0
281
0
282
0
283
1
284
8
285
0
286
0
287
3
288
0
340
11
278
44
341
21F
342
21F
343
21F
344
21F
  0
DIMSTYLE
105
225
100
AcDbSymbolTableRecord
100
AcDbDimStyleTableRecord
  2
DIMSTYLE_1
 70
0
  3

  4

 40
1.0
 41
3.0
 42
0.5
 43
0.38
 44
1.5
 45
0.0
 46
0.0
 47
0.0
 48
0.0
140
3.0
141
0.09
142
0.0
143
25.4
144
1.0
145
0.0
146
1.0
147
0.75
 71
0
 72
0
 73
0
 74
0
 75
0
 76
0
 77
1
 78
8
 79
2
170
0
171
1
172
0
173
0
174
0
175
0
176
0
177
0
178
0
270
2
179
2
271
2
272
2
273
2
274
2
275
0
280
0
281
0
282
0
283
1
284
8
285
0
286
0
287
3
288
0
340
11
278
44
341
21F
342
21F
343
21F
344
21F
  0
ENDTAB
  0
ENDSEC
  0
SECTION
  2
BLOCKS
  0
BLOCK
  5
20
100
AcDbEntity
  8
0
100
AcDbBlockBegin
  2
*Model_Space
 70
0
 10
0.0
 20
0.0
 30
0.0
  3
*Model_Space
  1

  0
ENDBLK
  5
21
100
AcDbEntity
  8
0
100
AcDbBlockEnd
  0
BLOCK
  5
1C
100
AcDbEntity
  8
0
100
AcDbBlockBegin
  2
*Paper_Space
 70
0
 10
0.0
 20
0.0
 30
0.0
  3
*Paper_Space
  1

  0
ENDBLK
  5
1D
100
AcDbEntity
  8
0
100
AcDbBlockEnd
  0
BLOCK
  5
226
100
AcDbEntity
  8
0
100
AcDbBlockBegin
  2
_FILLED
 70
64
 10
0.0
 20
0.0
  3
_FILLED
  1

  0
SOLID
  5
227
100
AcDbEntity
  8
0
  6
BYBLOCK
 62
0
100
AcDbTrace
 10
0.0
 20
0.0
 11
-1.0
 21
0.3166666667
 12
-1.0
 22
-0.3166666667
 13
-1.0
 23
-0.3166666667
  0
ENDBLK
  5
228
100
AcDbEntity
  8
0
  6
BYBLOCK
 62
0
100
AcDbBlockEnd
  0
BLOCK
  5
229
100
AcDbEntity
  8
0
100
AcDbBlockBegin
 62
7
  6
CONTINUOUS
  2
*D0
 70
65
 10
0.0
 20
0.0
  3
*D0
  1

  0
LINE
  5
22A
100
AcDbEntity
  8
0
100
AcDbLine
 62
7
  6
CONTINUOUS
 10
-10.6262086503
 20
26.4308808829
 11
-10.6262086503
 21
46.230492839
  0
LINE
  5
22B
100
AcDbEntity
  8
0
100
AcDbLine
 62
7
  6
CONTINUOUS
 10
16.1737913497
 20
-1.8420823511
 11
16.1737913497
 21
46.230492839
  0
LINE
  5
22C
100
AcDbEntity
  8
0
100
AcDbLine
 62
7
  6
CONTINUOUS
 10
-10.6262086503
 20
44.730492839
 11
2.7737913497
 21
44.730492839
  0
LINE
  5
22D
100
AcDbEntity
  8
0
100
AcDbLine
 62
7
  6
CONTINUOUS
 10
16.1737913497
 20
44.730492839
 11
2.7737913497
 21
44.730492839
  0
INSERT
  5
22E
100
AcDbEntity
  8
0
100
AcDbBlockReference
 62
7
  6
CONTINUOUS
  2
_FILLED
 10
-10.6262086503
 20
44.730492839
 41
3.0
 42
3.0
 43
3.0
 50
180.0
  0
INSERT
  5
22F
100
AcDbEntity
  8
0
100
AcDbBlockReference
 62
7
  6
CONTINUOUS
  2
_FILLED
 10
16.1737913497
 20
44.730492839
 41
3.0
 42
3.0
 43
3.0
  0
ENDBLK
  5
230
100
AcDbEntity
  8
0
  6
BYBLOCK
 62
0
100
AcDbBlockEnd
  0
BLOCK
  5
231
100
AcDbEntity
  8
0
100
AcDbBlockBegin
 62
7
  6
CONTINUOUS
  2
*D1
 70
65
 10
0.0
 20
0.0
  3
*D1
  1

  0
LINE
  5
232
100
AcDbEntity
  8
0
100
AcDbLine
 62
7
  6
CONTINUOUS
 10
16.1737913497
 20
-6.3575341797
 11
16.1737913497
 21
36.230492839
  0
LINE
  5
233
100
AcDbEntity
  8
0
100
AcDbLine
 62
7
  6
CONTINUOUS
 10
-4.9262086503
 20
23.8890646203
 11
-4.9262086503
 21
36.230492839
  0
LINE
  5
234
100
AcDbEntity
  8
0
100
AcDbLine
 62
7
  6
CONTINUOUS
 10
16.1737913497
 20
34.730492839
 11
5.6237913497
 21
34.730492839
  0
LINE
  5
235
100
AcDbEntity
  8
0
100
AcDbLine
 62
7
  6
CONTINUOUS
 10
-4.9262086503
 20
34.730492839
 11
5.6237913497
 21
34.730492839
  0
INSERT
  5
236
100
AcDbEntity
  8
0
100
AcDbBlockReference
 62
7
  6
CONTINUOUS
  2
_FILLED
 10
16.1737913497
 20
34.730492839
 41
3.0
 42
3.0
 43
3.0
  0
INSERT
  5
237
100
AcDbEntity
  8
0
100
AcDbBlockReference
 62
7
  6
CONTINUOUS
  2
_FILLED
 10
-4.9262086503
 20
34.730492839
 41
3.0
 42
3.0
 43
3.0
 50
180.0
  0
ENDBLK
  5
238
100
AcDbEntity
  8
0
  6
BYBLOCK
 62
0
100
AcDbBlockEnd
  0
BLOCK
  5
239
100
AcDbEntity
  8
0
100
AcDbBlockBegin
 62
7
  6
CONTINUOUS
  2
*D2
 70
65
 10
0.0
 20
0.0
  3
*D2
  1

  0
LINE
  5
23A
100
AcDbEntity
  8
0
100
AcDbLine
 62
7
  6
CONTINUOUS
 10
46.5272851563
 20
26.5176371578
 11
46.5272851563
 21
36.230492839
  0
LINE
  5
23B
100
AcDbEntity
  8
0
100
AcDbLine
 62
7
  6
CONTINUOUS
 10
68.7272851563
 20
26.5176371578
 11
68.7272851563
 21
36.230492839
  0
LINE
  5
23C
100
AcDbEntity
  8
0
100
AcDbLine
 62
7
  6
CONTINUOUS
 10
46.5272851563
 20
34.730492839
 11
57.6272851563
 21
34.730492839
  0
LINE
  5
23D
100
AcDbEntity
  8
0
100
AcDbLine
 62
7
  6
CONTINUOUS
 10
68.7272851563
 20
34.730492839
 11
57.6272851563
 21
34.730492839
  0
INSERT
  5
23E
100
AcDbEntity
  8
0
100
AcDbBlockReference
 62
7
  6
CONTINUOUS
  2
_FILLED
 10
46.5272851563
 20
34.730492839
 41
3.0
 42
3.0
 43
3.0
 50
180.0
  0
INSERT
  5
23F
100
AcDbEntity
  8
0
100
AcDbBlockReference
 62
7
  6
CONTINUOUS
  2
_FILLED
 10
68.7272851563
 20
34.730492839
 41
3.0
 42
3.0
 43
3.0
  0
ENDBLK
  5
240
100
AcDbEntity
  8
0
  6
BYBLOCK
 62
0
100
AcDbBlockEnd
  0
BLOCK
  5
241
100
AcDbEntity
  8
0
100
AcDbBlockBegin
 62
7
  6
CONTINUOUS
  2
*D3
 70
65
 10
0.0
 20
0.0
  3
*D3
  1

  0
LINE
  5
242
100
AcDbEntity
  8
0
100
AcDbLine
 62
7
  6
CONTINUOUS
 10
68.7274564938
 20
26.5174658203
 11
103.0883981707
 21
26.5174658203
  0
LINE
  5
243
100
AcDbEntity
  8
0
100
AcDbLine
 62
7
  6
CONTINUOUS
 10
68.7274564938
 20
-26.2825341797
 11
103.0883981707
 21
-26.2825341797
  0
LINE
  5
244
100
AcDbEntity
  8
0
100
AcDbLine
 62
7
  6
CONTINUOUS
 10
101.5883981707
 20
26.5174658203
 11
101.5883981707
 21
0.1174658203
  0
LINE
  5
245
100
AcDbEntity
  8
0
100
AcDbLine
 62
7
  6
CONTINUOUS
 10
101.5883981707
 20
-26.2825341797
 11
101.5883981707
 21
0.1174658203
  0
INSERT
  5
246
100
AcDbEntity
  8
0
100
AcDbBlockReference
 62
7
  6
CONTINUOUS
  2
_FILLED
 10
101.5883981707
 20
26.5174658203
 41
3.0
 42
3.0
 43
3.0
 50
90.0
  0
INSERT
  5
247
100
AcDbEntity
  8
0
100
AcDbBlockReference
 62
7
  6
CONTINUOUS
  2
_FILLED
 10
101.5883981707
 20
-26.2825341797
 41
3.0
 42
3.0
 43
3.0
 50
270.0
  0
ENDBLK
  5
248
100
AcDbEntity
  8
0
  6
BYBLOCK
 62
0
100
AcDbBlockEnd
  0
ENDSEC
  0
SECTION
  2
ENTITIES
  0
DIMENSION
  5
249
100
AcDbEntity
  8
0
100
AcDbDimension
 62
7
  6
CONTINUOUS
  2
*D0
 10
16.1737913497
 20
44.730492839
 11
-1.6190657932
 21
44.730492839
 70
160
 71
2
 72
2
 41
0.9
 42
26.8
  3
DIMSTYLE_1
100
AcDbAlignedDimension
 13
-10.6262086503
 23
25.9308808829
 14
16.1737913497
 24
-2.3420823511
100
AcDbRotatedDimension
  0
DIMENSION
  5
24A
100
AcDbEntity
  8
0
100
AcDbDimension
 62
7
  6
CONTINUOUS
  2
*D1
 10
-4.9262086503
 20
34.730492839
 11
1.8737913497
 21
34.730492839
 70
160
 71
2
 72
2
 41
0.9
 42
21.1
  3
DIMSTYLE_1
100
AcDbAlignedDimension
 13
16.1737913497
 23
-6.8575341797
 14
-4.9262086503
 24
23.3890646203
 50
180.0
100
AcDbRotatedDimension
  0
DIMENSION
  5
24B
100
AcDbEntity
  8
0
100
AcDbDimension
 62
7
  6
CONTINUOUS
  2
*D2
 10
68.7272851563
 20
34.730492839
 11
53.2344280134
 21
34.730492839
 70
160
 71
2
 72
2
 41
0.9
 42
22.2
  3
DIMSTYLE_1
100
AcDbAlignedDimension
 13
46.5272851563
 23
26.0176371578
 14
68.7272851563
 24
26.0176371578
100
AcDbRotatedDimension
  0
DIMENSION
  5
24C
100
AcDbEntity
  8
0
100
AcDbDimension
 62
7
  6
CONTINUOUS
  2
*D3
 10
101.5883981707
 20
-26.2825341797
 11
101.5883981707
 21
-4.1682484654
 70
160
 71
2
 72
2
 41
0.9
 42
52.8
  3
DIMSTYLE_1
100
AcDbAlignedDimension
 13
68.2274564938
 23
26.5174658203
 14
68.2274564938
 24
-26.2825341797
 50
270.0
100
AcDbRotatedDimension
  0
LINE
  5
24D
100
AcDbEntity
  8
DRAFT
100
AcDbLine
 62
7
  6
CONTINUOUS
 10
54.1094277833
 20
-26.2825341797
 11
54.3772851563
 21
-26.2563572314
  0
LINE
  5
24E
100
AcDbEntity
  8
DRAFT
100
AcDbLine
 62
7
  6
CONTINUOUS
 10
47.0271138187
 20
-26.2825341797
 11
54.1094277833
 21
-26.2825341797
  0
LINE
  5
24F
100
AcDbEntity
  8
DRAFT
100
AcDbLine
 62
7
  6
CONTINUOUS
 10
61.1451425292
 20
-26.2825341797
 11
68.2274564938
 21
-26.2825341797
  0
LINE
  5
250
100
AcDbEntity
  8
DRAFT
100
AcDbLine
 62
7
  6
CONTINUOUS
 10
54.3772851563
 20
-26.2563572314
 11
60.8772851563
 21
-26.2563572314
  0
LINE
  5
251
100
AcDbEntity
  8
0
100
AcDbLine
 62
250
  6
CONTINUOUS
 10
47.1138700937
 20
-26.1957779048
 11
68.1407002188
 21
-26.1957779048
  0
LINE
  5
252
100
AcDbEntity
  8
0
100
AcDbLine
 62
250
  6
CONTINUOUS
 10
46.6140414312
 20
-25.6959492423
 11
68.6405288813
 21
-25.6959492423
  0
LINE
  5
253
100
AcDbEntity
  8
DRAFT
100
AcDbLine
 62
7
  6
CONTINUOUS
 10
61.1451425292
 20
-26.2825341797
 11
60.8772851563
 21
-26.2563572314
  0
LWPOLYLINE
  5
254
100
AcDbEntity
  8
0
100
AcDbPolyline
 62
250
  6
CONTINUOUS
 90
16
 70
0
 10
46.6140414312
 20
-25.6959492423
 10
46.6168297662
 20
-25.7483317112
 10
46.625092238
 20
-25.8001370969
 10
46.638737795
 20
-25.8507948509
 10
46.6576185906
 20
-25.8997526383
 10
46.6815253117
 20
-25.9464652044
 10
46.7101837777
 20
-25.9904032233
 10
46.7432658351
 20
-26.0310775216
 10
46.7804091031
 20
-26.0680546154
 10
46.8212149494
 20
-26.1009421142
 10
46.8652987382
 20
-26.1294158604
 10
46.9121195149
 20
-26.1531133195
 10
46.9609663283
 20
-26.1717111941
 10
47.0112155669
 20
-26.1850524325
 10
47.0623697449
 20
-26.1930823416
 10
47.1138700938
 20
-26.1957779046
  0
LWPOLYLINE
  5
255
100
AcDbEntity
  8
0
100
AcDbPolyline
 62
250
  6
CONTINUOUS
 90
16
 70
0
 10
46.6140414312
 20
25.9308808829
 10
46.6168293957
 20
25.9832598579
 10
46.625090805
 20
26.0350620356
 10
46.6387346851
 20
26.0857169668
 10
46.6576133747
 20
26.1346726162
 10
46.6815176076
 20
26.181383559
 10
46.7101728874
 20
26.2253199397
 10
46.7432502666
 20
26.2659919473
 10
46.7803878951
 20
26.3029672465
 10
46.8211892271
 20
26.3358551578
 10
46.8652707303
 20
26.3643314258
 10
46.9120913096
 20
26.3880324963
 10
46.9609407015
 20
26.4066345821
 10
47.0111956008
 20
26.4199798691
 10
47.0623583771
 20
26.4280127968
 10
47.1138700937
 20
26.4307095454
  0
LINE
  5
256
100
AcDbEntity
  8
0
100
AcDbLine
 62
7
  6
CONTINUOUS
 10
46.5272851563
 20
26.0176371578
 11
46.5272851563
 21
-25.7827055172
  0
LINE
  5
257
100
AcDbEntity
  8
RACCORDO
100
AcDbLine
 62
7
  6
CONTINUOUS
 10
46.5272851563
 20
-17.4337549818
 11
46.5272851563
 21
17.6686866224
  0
LINE
  5
258
100
AcDbEntity
  8
0
100
AcDbLine
 62
250
  6
CONTINUOUS
 10
46.6140414312
 20
-25.6959492423
 11
46.6140414312
 21
25.9308808829
  0
LINE
  5
259
100
AcDbEntity
  8
0
100
AcDbLine
 62
250
  6
CONTINUOUS
 10
47.1138700937
 20
-26.1957779048
 11
47.1138700937
 21
26.4307095454
  0
LWPOLYLINE
  5
25A
100
AcDbEntity
  8
0
100
AcDbPolyline
 62
7
  6
CONTINUOUS
 90
3
 70
0
 43
0.3500000006
 10
58.6630016785
 20
35.7662074585
 10
58.5915704956
 20
35.5519229736
 10
58.4487126617
 20
35.2662073059
  0
LINE
  5
25B
100
AcDbEntity
  8
0
100
AcDbLine
 62
250
  6
CONTINUOUS
 10
68.2274564938
 20
26.5174658203
 11
68.1407002188
 21
26.4307095454
  0
LINE
  5
25C
100
AcDbEntity
  8
0
100
AcDbLine
 62
250
  6
CONTINUOUS
 10
68.7272851563
 20
26.0176371578
 11
68.6405288813
 21
25.9308808829
  0
LINE
  5
25D
100
AcDbEntity
  8
0
100
AcDbLine
 62
250
  6
CONTINUOUS
 10
68.1407002188
 20
-26.1957779048
 11
68.2274564938
 21
-26.2825341797
  0
LINE
  5
25E
100
AcDbEntity
  8
0
100
AcDbLine
 62
250
  6
CONTINUOUS
 10
68.6405288813
 20
-25.6959492423
 11
68.7272851563
 21
-25.7827055172
  0
LINE
  5
25F
100
AcDbEntity
  8
0
100
AcDbLine
 62
7
  6
CONTINUOUS
 10
52.6552217718
 20
-4.7546584814
 11
52.6552217718
 21
4.989590122
  0
LINE
  5
260
100
AcDbEntity
  8
RACCORDO
100
AcDbLine
 62
7
  6
CONTINUOUS
 10
52.6552217718
 20
-4.7546584814
 11
52.6552217718
 21
4.989590122
  0
LINE
  5
261
100
AcDbEntity
  8
0
100
AcDbLine
 62
7
  6
CONTINUOUS
 10
62.499409458
 20
-4.8545975641
 11
52.7551608545
 21
-4.8545975641
  0
LINE
  5
262
100
AcDbEntity
  8
RACCORDO
100
AcDbLine
 62
7
  6
CONTINUOUS
 10
62.499409458
 20
-4.8545975641
 11
52.7551608545
 21
-4.8545975641
  0
LWPOLYLINE
  5
263
100
AcDbEntity
  8
0
100
AcDbPolyline
 62
7
  6
CONTINUOUS
 90
4
 70
0
 43
0.3500000006
 10
100.4098285217
 20
2.0460371933
 10
99.5526815186
 20
2.0460371933
 10
99.1241125488
 20
2.474608429
 10
99.1241125488
 20
3.1174664154
  0
LINE
  5
264
100
AcDbEntity
  8
0
100
AcDbLine
 62
7
  6
CONTINUOUS
 10
62.5993485407
 20
4.989590122
 11
62.5993485407
 21
-4.7546584814
  0
LINE
  5
265
100
AcDbEntity
  8
RACCORDO
100
AcDbLine
 62
7
  6
CONTINUOUS
 10
62.5993485407
 20
4.989590122
 11
62.5993485407
 21
-4.7546584814
  0
LINE
  5
266
100
AcDbEntity
  8
0
100
AcDbLine
 62
7
  6
CONTINUOUS
 10
52.7551608545
 20
5.0895292047
 11
62.499409458
 21
5.0895292047
  0
LINE
  5
267
100
AcDbEntity
  8
RACCORDO
100
AcDbLine
 62
7
  6
CONTINUOUS
 10
52.7551608545
 20
5.0895292047
 11
62.499409458
 21
5.0895292047
  0
LINE
  5
268
100
AcDbEntity
  8
0
100
AcDbLine
 62
250
  6
CONTINUOUS
 10
68.1407002188
 20
26.4307095454
 11
68.1407002188
 21
-26.1957779048
  0
LINE
  5
269
100
AcDbEntity
  8
0
100
AcDbLine
 62
250
  6
CONTINUOUS
 10
68.6405288813
 20
25.9308808829
 11
68.6405288813
 21
-25.6959492423
  0
LINE
  5
26A
100
AcDbEntity
  8
RACCORDO
100
AcDbLine
 62
7
  6
CONTINUOUS
 10
68.7272851563
 20
17.6686866224
 11
68.7272851563
 21
-17.4337549818
  0
LINE
  5
26B
100
AcDbEntity
  8
0
100
AcDbLine
 62
7
  6
CONTINUOUS
 10
68.7272851563
 20
-25.7827055172
 11
68.7272851563
 21
26.0176371578
  0
LINE
  5
26C
100
AcDbEntity
  8
CURVE
100
AcDbLine
 62
250
  6
CONTINUOUS
 10
68.8272851563
 20
-10.8812251797
 11
68.8272851563
 21
-11.9922691797
  0
LINE
  5
26D
100
AcDbEntity
  8
CURVE
100
AcDbLine
 62
250
  6
CONTINUOUS
 10
68.8272851563
 20
-12.5479631797
 11
68.8272851563
 21
-14.2147001797
  0
LINE
  5
26E
100
AcDbEntity
  8
CURVE
100
AcDbLine
 62
250
  6
CONTINUOUS
 10
68.8272851563
 20
-14.7700491797
 11
68.8272851563
 21
-15.8810921797
  0
LINE
  5
26F
100
AcDbEntity
  8
0
100
AcDbLine
 62
250
  6
CONTINUOUS
 10
46.5272851563
 20
-25.7827055172
 11
46.6140414312
 21
-25.6959492423
  0
LINE
  5
270
100
AcDbEntity
  8
0
100
AcDbLine
 62
250
  6
CONTINUOUS
 10
47.0271138187
 20
-26.2825341797
 11
47.1138700937
 21
-26.1957779048
  0
LINE
  5
271
100
AcDbEntity
  8
0
100
AcDbLine
 62
250
  6
CONTINUOUS
 10
46.6140414312
 20
25.9308808829
 11
46.5272851563
 21
26.0176371578
  0
LINE
  5
272
100
AcDbEntity
  8
0
100
AcDbLine
 62
250
  6
CONTINUOUS
 10
47.1138700937
 20
26.4307095454
 11
47.0271138187
 21
26.5174658203
  0
LWPOLYLINE
  5
273
100
AcDbEntity
  8
0
100
AcDbPolyline
 62
250
  6
CONTINUOUS
 90
16
 70
0
 10
68.6405288813
 20
25.9308808829
 10
68.6377405463
 20
25.9832633518
 10
68.6294780745
 20
26.0350687375
 10
68.6158325175
 20
26.0857264916
 10
68.5969517219
 20
26.1346842789
 10
68.5730450008
 20
26.181396845
 10
68.5443865348
 20
26.2253348639
 10
68.5113044774
 20
26.2660091622
 10
68.4741612094
 20
26.302986256
 10
68.4333553631
 20
26.3358737549
 10
68.3892715743
 20
26.364347501
 10
68.3424507976
 20
26.3880449601
 10
68.2936039842
 20
26.4066428347
 10
68.2433547456
 20
26.4199840731
 10
68.1922005676
 20
26.4280139822
 10
68.1407002187
 20
26.4307095452
  0
LWPOLYLINE
  5
274
100
AcDbEntity
  8
0
100
AcDbPolyline
 62
250
  6
CONTINUOUS
 90
16
 70
0
 10
68.6405288813
 20
-25.6959492423
 10
68.6377409168
 20
-25.7483282173
 10
68.6294795075
 20
-25.800130395
 10
68.6158356274
 20
-25.8507853261
 10
68.5969569378
 20
-25.8997409756
 10
68.5730527049
 20
-25.9464519183
 10
68.5443974251
 20
-25.9903882991
 10
68.5113200459
 20
-26.0310603066
 10
68.4741824174
 20
-26.0680356059
 10
68.4333810854
 20
-26.1009235172
 10
68.3892995822
 20
-26.1293997852
 10
68.3424790029
 20
-26.1531008556
 10
68.293629611
 20
-26.1717029414
 10
68.2433747117
 20
-26.1850482285
 10
68.1922119354
 20
-26.1930811562
 10
68.1407002188
 20
-26.1957779048
  0
LWPOLYLINE
  5
275
100
AcDbEntity
  8
0
100
AcDbPolyline
 62
7
  6
CONTINUOUS
 90
3
 70
0
 43
0.3500000006
 10
100.5526818237
 20
1.0460368881
 10
100.7669663086
 20
0.9746079712
 10
101.0526819763
 20
0.8317524033
  0
LWPOLYLINE
  5
276
100
AcDbEntity
  8
0
100
AcDbPolyline
 62
7
  6
CONTINUOUS
 90
10
 70
0
 43
0.3500000006
 10
58.5915704956
 20
35.9804919434
 10
58.6630016785
 20
35.8376341095
 10
58.6630016785
 20
35.7662074585
 10
58.5201438446
 20
35.6233496246
 10
58.4487126617
 20
35.6233496246
 10
58.3772860107
 20
35.6947808075
 10
58.3772860107
 20
35.7662074585
 10
58.4487126617
 20
35.9090652924
 10
58.5201438446
 20
35.9804919434
 10
58.5915704956
 20
35.9804919434
  0
LWPOLYLINE
  5
277
100
AcDbEntity
  8
0
100
AcDbPolyline
 62
7
  6
CONTINUOUS
 90
10
 70
0
 43
0.3500000006
 10
100.3383973389
 20
0.9746079712
 10
100.4812597046
 20
1.0460368881
 10
100.5526818237
 20
1.0460368881
 10
100.6955441895
 20
0.9031790543
 10
100.6955441895
 20
0.8317524033
 10
100.6241130066
 20
0.7603234863
 10
100.5526818237
 20
0.7603234863
 10
100.4098285217
 20
0.8317524033
 10
100.3383973389
 20
0.9031790543
 10
100.3383973389
 20
0.9746079712
  0
LINE
  5
278
100
AcDbEntity
  8
DRAFT
100
AcDbLine
 62
7
  6
CONTINUOUS
 10
61.1451425292
 20
26.5174658203
 11
60.8772851563
 21
26.491288872
  0
LINE
  5
279
100
AcDbEntity
  8
0
100
AcDbLine
 62
250
  6
CONTINUOUS
 10
46.6140414312
 20
25.9308808829
 11
68.6405288813
 21
25.9308808829
  0
LINE
  5
27A
100
AcDbEntity
  8
0
100
AcDbLine
 62
250
  6
CONTINUOUS
 10
68.1407002188
 20
26.4307095454
 11
47.1138700937
 21
26.4307095454
  0
LINE
  5
27B
100
AcDbEntity
  8
DRAFT
100
AcDbLine
 62
7
  6
CONTINUOUS
 10
54.3772851563
 20
26.491288872
 11
60.8772851563
 21
26.491288872
  0
LINE
  5
27C
100
AcDbEntity
  8
DRAFT
100
AcDbLine
 62
7
  6
CONTINUOUS
 10
68.2274564938
 20
26.5174658203
 11
61.1451425292
 21
26.5174658203
  0
LINE
  5
27D
100
AcDbEntity
  8
DRAFT
100
AcDbLine
 62
7
  6
CONTINUOUS
 10
54.1094277833
 20
26.5174658203
 11
47.0271138187
 21
26.5174658203
  0
LINE
  5
27E
100
AcDbEntity
  8
DRAFT
100
AcDbLine
 62
7
  6
CONTINUOUS
 10
54.1094277833
 20
26.5174658203
 11
54.3772851563
 21
26.491288872
  0
LWPOLYLINE
  5
27F
100
AcDbEntity
  8
0
100
AcDbPolyline
 62
7
  6
CONTINUOUS
 90
13
 70
0
 43
0.3500000006
 10
99.1241125488
 20
2.474608429
 10
98.909828064
 20
2.1888950272
 10
98.2669655457
 20
2.1888950272
 10
97.8383965759
 20
2.474608429
 10
97.8383965759
 20
3.1174664154
 10
98.2669655457
 20
3.4031798172
 10
98.909828064
 20
3.4031798172
 10
99.1241125488
 20
3.1174664154
 10
99.5526815186
 20
3.5460376511
 10
100.4098285217
 20
3.5460376511
 10
100.8383974915
 20
3.1174664154
 10
100.8383974915
 20
2.474608429
 10
100.4098285217
 20
2.0460371933
  0
LWPOLYLINE
  5
280
100
AcDbEntity
  8
0
100
AcDbPolyline
 62
7
  6
CONTINUOUS
 90
7
 70
0
 43
0.3500000006
 10
61.1629979095
 20
35.4804917908
 10
59.6629974518
 20
35.4804917908
 10
61.1629979095
 20
37.623350235
 10
61.1629979095
 20
38.0519192047
 10
60.7344289398
 20
38.4804927063
 10
60.0915709534
 20
38.4804927063
 10
59.6629974518
 20
37.8376347198
  0
LWPOLYLINE
  5
281
100
AcDbEntity
  8
0
100
AcDbPolyline
 62
7
  6
CONTINUOUS
 90
7
 70
0
 43
0.3500000006
 10
57.0915700378
 20
35.4804917908
 10
55.5915695801
 20
35.4804917908
 10
57.0915700378
 20
37.623350235
 10
57.0915700378
 20
38.0519192047
 10
56.6630010681
 20
38.4804927063
 10
56.0201430817
 20
38.4804927063
 10
55.5915695801
 20
37.8376347198
  0
LWPOLYLINE
  5
282
100
AcDbEntity
  8
0
100
AcDbPolyline
 62
7
  6
CONTINUOUS
 90
7
 70
0
 43
0.3500000006
 10
54.7344271088
 20
35.4804917908
 10
53.234426651
 20
35.4804917908
 10
54.7344271088
 20
37.623350235
 10
54.7344271088
 20
38.0519192047
 10
54.305858139
 20
38.4804927063
 10
53.6630001526
 20
38.4804927063
 10
53.234426651
 20
37.8376347198
  0
LWPOLYLINE
  5
283
100
AcDbEntity
  8
0
100
AcDbPolyline
 62
7
  6
CONTINUOUS
 90
7
 70
0
 43
0.3500000006
 10
100.8383974915
 20
-0.5253902206
 10
100.8383974915
 20
-2.0253918114
 10
98.6955435791
 20
-0.5253902206
 10
98.2669655457
 20
-0.5253902206
 10
97.8383965759
 20
-0.9539637222
 10
97.8383965759
 20
-1.5968194427
 10
98.4812590942
 20
-2.0253918114
  0
LWPOLYLINE
  5
284
100
AcDbEntity
  8
0
100
AcDbPolyline
 62
7
  6
CONTINUOUS
 90
8
 70
0
 43
0.3500000006
 10
100.8383974915
 20
-4.1682479897
 10
100.8383974915
 20
-3.3111055183
 10
100.4098285217
 20
-2.8825342827
 10
99.5526815186
 20
-2.8825342827
 10
99.1241125488
 20
-3.3111055183
 10
99.1241125488
 20
-4.1682479897
 10
97.8383965759
 20
-4.1682479897
 10
97.8383965759
 20
-2.8825342827
  0
LWPOLYLINE
  5
285
100
AcDbEntity
  8
0
100
AcDbPolyline
 62
7
  6
CONTINUOUS
 90
10
 70
0
 43
0.3500000006
 10
1.8095057015
 20
48.4804912262
 10
1.166648494
 20
47.8376377716
 10
0.7380770459
 20
46.9804907684
 10
0.7380770459
 20
45.9090638123
 10
1.166648494
 20
45.4804948425
 10
1.8095057015
 20
45.4804948425
 10
2.2380770788
 20
45.9090638123
 10
2.2380770788
 20
46.7662062836
 10
1.8095057015
 20
47.1947797852
 10
0.8809341717
 20
47.1947797852
  0
LWPOLYLINE
  5
286
100
AcDbEntity
  8
0
100
AcDbPolyline
 62
7
  6
CONTINUOUS
 90
3
 70
0
 43
0.3500000006
 10
4.2309343443
 20
37.623350235
 10
5.0880770988
 20
38.4804927063
 10
5.0880770988
 20
35.4804917908
  0
LWPOLYLINE
  5
287
100
AcDbEntity
  8
0
100
AcDbPolyline
 62
7
  6
CONTINUOUS
 90
3
 70
0
 43
0.3500000006
 10
7.6595056458
 20
37.623350235
 10
8.5166486835
 20
38.4804927063
 10
8.5166486835
 20
35.4804917908
  0
LINE
  5
288
100
AcDbEntity
  8
0
100
AcDbLine
 62
7
  6
CONTINUOUS
 10
-10.6262086503
 20
25.9308808829
 11
-10.6262086503
 21
-25.6959492423
  0
LINE
  5
289
100
AcDbEntity
  8
ASSI
100
AcDbLine
 62
7
  6
CONTINUOUS
 10
-2.7065934081
 20
24.7674658203
 11
-3.1684736234
 21
23.9674658203
  0
LINE
  5
28A
100
AcDbEntity
  8
ASSI
100
AcDbLine
 62
250
  6
CONTINUOUS
 10
-2.529897846
 20
24.684894314
 11
-2.9917780614
 21
23.884894314
  0
LWPOLYLINE
  5
28B
100
AcDbEntity
  8
ASSI
100
AcDbPolyline
 62
250
  6
CONTINUOUS
 90
16
 70
0
 10
-2.9917780614
 20
23.884894314
 10
-3.0084735997
 20
23.8589358752
 10
-3.0262093792
 20
23.8349064518
 10
-3.0449853999
 20
23.8128060437
 10
-3.0649641763
 20
23.7926739376
 10
-3.0859831938
 20
23.7744708468
 10
-3.1075549091
 20
23.7580789119
 10
-3.12942852
 20
23.7435621406
 10
-3.1518548287
 20
23.7308565252
 10
-3.1750986983
 20
23.7196521832
 10
-3.1990288683
 20
23.7097879983
 10
-3.2237765991
 20
23.7014250868
 10
-3.2500005355
 20
23.694736916
 10
-3.2779202258
 20
23.6897813081
 10
-3.3073161215
 20
23.6865004408
 10
-3.3262086503
 20
23.6855175535
  0
LINE
  5
28C
100
AcDbEntity
  8
DRAFT
100
AcDbLine
 62
7
  6
CONTINUOUS
 10
-6.0413187932
 20
19.3321572287
 11
-5.3262086503
 21
20.0151574047
  0
LINE
  5
28D
100
AcDbEntity
  8
DRAFT
100
AcDbLine
 62
7
  6
CONTINUOUS
 10
-5.3262086503
 20
-19.7802257641
 11
-6.0413187932
 21
-19.0972255881
  0
LINE
  5
28E
100
AcDbEntity
  8
ASSI
100
AcDbLine
 62
7
  6
CONTINUOUS
 10
-3.1684736234
 20
-23.7325341797
 11
-2.7065934081
 21
-24.5325341797
  0
LINE
  5
28F
100
AcDbEntity
  8
ASSI
100
AcDbLine
 62
250
  6
CONTINUOUS
 10
-2.9917777032
 20
-23.6499632939
 11
-2.529897846
 21
-24.4499626734
  0
LINE
  5
290
100
AcDbEntity
  8
0
100
AcDbLine
 62
250
  6
CONTINUOUS
 10
-10.1392971245
 20
25.9308808829
 11
-10.1417360039
 21
26.0350687375
  0
LINE
  5
291
100
AcDbEntity
  8
0
100
AcDbLine
 62
250
  6
CONTINUOUS
 10
-10.1417360039
 20
26.0350687375
 11
-10.1434927962
 21
26.1346842789
  0
LWPOLYLINE
  5
292
100
AcDbEntity
  8
0
100
AcDbPolyline
 62
250
  6
CONTINUOUS
 90
11
 70
0
 10
-10.1434927962
 20
26.1346842789
 10
-10.1444900974
 20
26.2253348639
 10
-10.1446889072
 20
26.2660091622
 10
-10.1446845558
 20
26.302986256
 10
-10.1444772066
 20
26.3358737549
 10
-10.144068443
 20
26.364347501
 10
-10.1434629374
 20
26.3880449601
 10
-10.1426708415
 20
26.4066428347
 10
-10.141704373
 20
26.4199840731
 10
-10.1405751265
 20
26.4280139822
 10
-10.1392971311
 20
26.4307095452
  0
LWPOLYLINE
  5
293
100
AcDbEntity
  8
0
100
AcDbPolyline
 62
250
  6
CONTINUOUS
 90
9
 70
0
 10
-10.1446888641
 20
-26.0310603066
 10
-10.1446846134
 20
-26.0680356059
 10
-10.1444773932
 20
-26.1009235172
 10
-10.1440687557
 20
-26.1293997852
 10
-10.1434633501
 20
-26.1531008556
 10
-10.1426712965
 20
-26.1717029414
 10
-10.1417047843
 20
-26.1850482285
 10
-10.1405753894
 20
-26.1930811562
 10
-10.1392971245
 20
-26.1957779048
  0
LINE
  5
294
100
AcDbEntity
  8
0
100
AcDbLine
 62
250
  6
CONTINUOUS
 10
-10.1392971245
 20
25.9308808829
 11
-10.1392971245
 21
-25.6959492423
  0
LINE
  5
295
100
AcDbEntity
  8
0
100
AcDbLine
 62
250
  6
CONTINUOUS
 10
-10.1440898421
 20
-25.9464519183
 11
-10.1446888641
 21
-26.0310603066
  0
LINE
  5
296
100
AcDbEntity
  8
0
100
AcDbLine
 62
250
  6
CONTINUOUS
 10
-10.1427050344
 20
-25.8507853261
 11
-10.1440898421
 21
-25.9464519183
  0
LWPOLYLINE
  5
297
100
AcDbEntity
  8
0
100
AcDbPolyline
 62
250
  6
CONTINUOUS
 90
3
 70
0
 10
-10.1392971245
 20
-25.6959492423
 10
-10.1405957108
 20
-25.7483282173
 10
-10.1427050344
 20
-25.8507853261
  0
LWPOLYLINE
  5
298
100
AcDbEntity
  8
0
100
AcDbPolyline
 62
7
  6
CONTINUOUS
 90
3
 70
0
 43
0.3500000006
 10
3.8095056038
 20
45.7662059784
 10
3.7380769701
 20
45.5519214935
 10
3.595219986
 20
45.2662058258
  0
LINE
  5
299
100
AcDbEntity
  8
ASSI
100
AcDbLine
 62
250
  6
CONTINUOUS
 10
-2.2067800219
 20
24.6567866501
 11
-2.1861855703
 21
24.7004378885
  0
LWPOLYLINE
  5
29A
100
AcDbEntity
  8
ASSI
100
AcDbPolyline
 62
250
  6
CONTINUOUS
 90
10
 70
0
 10
-2.1861855703
 20
24.7004378885
 10
-2.1670574365
 20
24.7403704393
 10
-2.1584127007
 20
24.7581693199
 10
-2.1505603604
 20
24.7741527361
 10
-2.1436204144
 20
24.7880764287
 10
-2.1376989239
 20
24.7997276032
 10
-2.1328863914
 20
24.8089281836
 10
-2.1292563683
 20
24.8155375518
 10
-2.1268643344
 20
24.8194546895
 10
-2.1257468533
 20
24.820619715
  0
LWPOLYLINE
  5
29B
100
AcDbEntity
  8
ASSI
100
AcDbPolyline
 62
250
  6
CONTINUOUS
 90
10
 70
0
 10
0.6316393861
 20
23.3940490444
 10
0.6195418783
 20
23.3814724916
 10
0.6077937666
 20
23.3696089646
 10
0.5964999408
 20
23.3585643813
 10
0.5857612365
 20
23.3484373472
 10
0.5756735297
 20
23.3393182785
 10
0.5663268821
 20
23.3312885936
 10
0.5578047425
 20
23.3244199826
 10
0.5501832007
 20
23.318773768
 10
0.5435303044
 20
23.3144003597
  0
LWPOLYLINE
  5
29C
100
AcDbEntity
  8
ASSI
100
AcDbPolyline
 62
250
  6
CONTINUOUS
 90
10
 70
0
 10
0.6316788028
 20
-23.1590935404
 10
0.6195787072
 20
-23.1465181367
 10
0.6078280501
 20
-23.134655717
 10
0.5965317454
 20
-23.1236121978
 10
0.5857906478
 20
-23.1134861865
 10
0.5757006604
 20
-23.1043680918
 10
0.5663518769
 20
-23.096339319
 10
0.5578277668
 20
-23.0894715531
 10
0.5502044318
 20
-23.0838261174
 10
0.5435499339
 20
-23.079453418
  0
LWPOLYLINE
  5
29D
100
AcDbEntity
  8
ASSI
100
AcDbPolyline
 62
250
  6
CONTINUOUS
 90
8
 70
0
 10
-2.1584121429
 20
-24.5232387527
 10
-2.1505598513
 20
-24.5392220544
 10
-2.1436199894
 20
-24.5531455654
 10
-2.1376986041
 20
-24.5647965227
 10
-2.1328861792
 20
-24.5739968895
 10
-2.1292562527
 20
-24.5806060764
 10
-2.1268642928
 20
-24.5845230894
 10
-2.1257468508
 20
-24.5856880732
  0
LINE
  5
29E
100
AcDbEntity
  8
ASSI
100
AcDbLine
 62
250
  6
CONTINUOUS
 10
-2.176361947
 20
-24.4860974743
 11
-2.1584121429
 21
-24.5232387527
  0
LWPOLYLINE
  5
29F
100
AcDbEntity
  8
ASSI
100
AcDbPolyline
 62
250
  6
CONTINUOUS
 90
3
 70
0
 10
-2.2067800219
 20
-24.4218550095
 10
-2.19637644
 20
-24.4439832591
 10
-2.176361947
 20
-24.4860974743
  0
LWPOLYLINE
  5
2A0
100
AcDbEntity
  8
RACCORDO
100
AcDbPolyline
 62
7
  6
CONTINUOUS
 90
12
 70
0
 10
-6.824611127
 20
-17.7872126651
 10
-6.8198434956
 20
-17.806575124
 10
-6.8119810725
 20
-17.825236514
 10
-6.801149235
 20
-17.8429439204
 10
-6.7875200211
 20
-17.8594201315
 10
-6.7713081718
 20
-17.8743672227
 10
-6.7527673478
 20
-17.8875576463
 10
-6.7321958369
 20
-17.8988017655
 10
-6.7099324776
 20
-17.9078971382
 10
-6.6863384353
 20
-17.9146979813
 10
-6.6617885558
 20
-17.91911442
 10
-6.6366758416
 20
-17.9210794658
  0
LWPOLYLINE
  5
2A1
100
AcDbEntity
  8
ASSI
100
AcDbPolyline
 62
250
  6
CONTINUOUS
 90
16
 70
0
 10
-4.2227181691
 20
-22.6377135081
 10
-4.220800206
 20
-22.6734310822
 10
-4.2162889879
 20
-22.707820453
 10
-4.2091845147
 20
-22.7408816203
 10
-4.1992363674
 20
-22.7727907669
 10
-4.186694965
 20
-22.8033717102
 10
-4.1723115646
 20
-22.8320959017
 10
-4.1562778217
 20
-22.8587061723
 10
-4.1384020807
 20
-22.8834596912
 10
-4.1188606319
 20
-22.9065994181
 10
-4.0979884766
 20
-22.9281486917
 10
-4.0754506134
 20
-22.9480841733
 10
-4.0504183281
 20
-22.9665788062
 10
-4.0226153829
 20
-22.9836902382
 10
-3.9923180156
 20
-22.9993608216
 10
-3.9595262264
 20
-23.0135905564
  0
LWPOLYLINE
  5
2A2
100
AcDbEntity
  8
ASSI
100
AcDbPolyline
 62
250
  6
CONTINUOUS
 90
7
 70
0
 10
-6.1773125109
 20
24.6152137062
 10
-6.1776509997
 20
24.6307601952
 10
-6.1780205956
 20
24.6437961058
 10
-6.1784141693
 20
24.6540891441
 10
-6.178824973
 20
24.661504646
 10
-6.1792470794
 20
24.6659753206
 10
-6.1796740479
 20
24.6674658203
  0
LINE
  5
2A3
100
AcDbEntity
  8
ASSI
100
AcDbLine
 62
250
  6
CONTINUOUS
 10
-6.1767497358
 20
24.5776343366
 11
-6.1773125109
 21
24.6152137062
  0
LINE
  5
2A4
100
AcDbEntity
  8
RACCORDO
100
AcDbLine
 62
250
  6
CONTINUOUS
 10
-5.5218108493
 20
-22.4477773863
 11
-5.5227181691
 21
-22.3859947271
  0
LWPOLYLINE
  5
2A5
100
AcDbEntity
  8
RACCORDO
100
AcDbPolyline
 62
250
  6
CONTINUOUS
 90
7
 70
0
 10
-5.5213338548
 20
22.7826833093
 10
-5.5214412222
 20
22.7940845181
 10
-5.521600803
 20
22.8035893119
 10
-5.5218108493
 20
22.8110935635
 10
-5.5220690604
 20
22.8165150833
 10
-5.5223726085
 20
22.8197945027
 10
-5.5227181691
 20
22.8208959067
  0
LINE
  5
2A6
100
AcDbEntity
  8
RACCORDO
100
AcDbLine
 62
250
  6
CONTINUOUS
 10
-5.5214412222
 20
-22.4859623548
 11
-5.5218108493
 21
-22.4477773863
  0
LINE
  5
2A7
100
AcDbEntity
  8
ASSI
100
AcDbLine
 62
250
  6
CONTINUOUS
 10
-6.1763654818
 20
24.5332964041
 11
-6.1767497358
 21
24.5776343366
  0
LINE
  5
2A8
100
AcDbEntity
  8
RACCORDO
100
AcDbLine
 62
250
  6
CONTINUOUS
 10
-5.5212798766
 20
-22.519779769
 11
-5.5214412222
 21
-22.4859623548
  0
LINE
  5
2A9
100
AcDbEntity
  8
ASSI
100
AcDbLine
 62
250
  6
CONTINUOUS
 10
-6.1761835667
 20
24.484894314
 11
-6.1763654818
 21
24.5332964041
  0
LINE
  5
2AA
100
AcDbEntity
  8
RACCORDO
100
AcDbLine
 62
7
  6
CONTINUOUS
 10
-6.8262086503
 20
17.6686866224
 11
-6.8262086503
 21
-17.4337549818
  0
LINE
  5
2AB
100
AcDbEntity
  8
0
100
AcDbLine
 62
7
  6
CONTINUOUS
 10
-6.8262086503
 20
-26.2825341797
 11
-6.8262086503
 21
26.5174658203
  0
LINE
  5
2AC
100
AcDbEntity
  8
RACCORDO
100
AcDbLine
 62
250
  6
CONTINUOUS
 10
-6.6296991316
 20
-18.098729947
 11
-6.6296991316
 21
-17.9210794658
  0
LINE
  5
2AD
100
AcDbEntity
  8
RACCORDO
100
AcDbLine
 62
250
  6
CONTINUOUS
 10
-6.6296991316
 20
18.1560111065
 11
-6.6296991316
 21
18.3336615751
  0
LINE
  5
2AE
100
AcDbEntity
  8
RACCORDO
100
AcDbLine
 62
250
  6
CONTINUOUS
 10
-5.5227181691
 20
-22.3859947271
 11
-5.5227181691
 21
-22.05097091
  0
LINE
  5
2AF
100
AcDbEntity
  8
RACCORDO
100
AcDbLine
 62
250
  6
CONTINUOUS
 10
-5.5227181691
 20
-18.0678000866
 11
-5.5227181691
 21
-17.952870686
  0
LINE
  5
2B0
100
AcDbEntity
  8
RACCORDO
100
AcDbLine
 62
250
  6
CONTINUOUS
 10
-5.5227181691
 20
18.1878023266
 11
-5.5227181691
 21
18.3027317115
  0
LINE
  5
2B1
100
AcDbEntity
  8
RACCORDO
100
AcDbLine
 62
250
  6
CONTINUOUS
 10
-5.5227181691
 20
22.2859025506
 11
-5.5227181691
 21
22.6209263677
  0
LINE
  5
2B2
100
AcDbEntity
  8
RACCORDO
100
AcDbLine
 62
250
  6
CONTINUOUS
 10
-5.521279878
 20
22.75471061
 11
-5.5213338548
 21
22.7826833093
  0
LINE
  5
2B3
100
AcDbEntity
  8
RACCORDO
100
AcDbLine
 62
7
  6
CONTINUOUS
 10
-5.3262086503
 20
23.0174658203
 11
-5.3262086503
 21
22.1174658203
  0
LINE
  5
2B4
100
AcDbEntity
  8
DRAFT
100
AcDbLine
 62
7
  6
CONTINUOUS
 10
-5.3262086503
 20
22.1174658203
 11
-5.3262086503
 21
20.0151574047
  0
LINE
  5
2B5
100
AcDbEntity
  8
DRAFT
100
AcDbLine
 62
7
  6
CONTINUOUS
 10
-5.3262086503
 20
-19.7802257641
 11
-5.3262086503
 21
-21.8825341797
  0
LINE
  5
2B6
100
AcDbEntity
  8
RACCORDO
100
AcDbLine
 62
7
  6
CONTINUOUS
 10
-5.3262086503
 20
-18.9856098483
 11
-5.3262086503
 21
-18.1052344427
  0
LINE
  5
2B7
100
AcDbEntity
  8
RACCORDO
100
AcDbLine
 62
7
  6
CONTINUOUS
 10
-5.3262086503
 20
-21.8825341797
 11
-5.3262086503
 21
-22.7825341797
  0
LINE
  5
2B8
100
AcDbEntity
  8
RACCORDO
100
AcDbLine
 62
7
  6
CONTINUOUS
 10
-5.3262086503
 20
18.3401660833
 11
-5.3262086503
 21
19.2205414889
  0
LINE
  5
2B9
100
AcDbEntity
  8
ASSI
100
AcDbLine
 62
250
  6
CONTINUOUS
 10
-6.1761835667
 20
-24.2499626734
 11
-6.1763654984
 21
-24.2983674786
  0
LINE
  5
2BA
100
AcDbEntity
  8
RACCORDO
100
AcDbLine
 62
250
  6
CONTINUOUS
 10
-5.5214412278
 20
22.7208932333
 11
-5.521279878
 21
22.75471061
  0
LINE
  5
2BB
100
AcDbEntity
  8
ASSI
100
AcDbLine
 62
250
  6
CONTINUOUS
 10
-6.1763654984
 20
-24.2983674786
 11
-6.1767497994
 21
-24.3427081981
  0
LINE
  5
2BC
100
AcDbEntity
  8
RACCORDO
100
AcDbLine
 62
250
  6
CONTINUOUS
 10
-5.5220690647
 20
22.6624942854
 11
-5.5214412278
 21
22.7208932333
  0
LINE
  5
2BD
100
AcDbEntity
  8
RACCORDO
100
AcDbLine
 62
250
  6
CONTINUOUS
 10
-5.5227181691
 20
22.6209263677
 11
-5.5220690647
 21
22.6624942854
  0
LWPOLYLINE
  5
2BE
100
AcDbEntity
  8
ASSI
100
AcDbPolyline
 62
250
  6
CONTINUOUS
 90
8
 70
0
 10
-6.1767497994
 20
-24.3427081981
 10
-6.1773126434
 20
-24.3802889663
 10
-6.1776511516
 20
-24.3958346836
 10
-6.1780207534
 20
-24.4088692849
 10
-6.1784143157
 20
-24.4191607248
 10
-6.1788250891
 20
-24.4265746594
 10
-6.1792471462
 20
-24.4310441478
 10
-6.179674048
 20
-24.4325341797
  0
LWPOLYLINE
  5
2BF
100
AcDbEntity
  8
ASSI
100
AcDbPolyline
 62
250
  6
CONTINUOUS
 90
13
 70
0
 10
-4.2227181691
 20
22.8726449042
 10
-4.2205919137
 20
22.9134381823
 10
-4.2145453821
 20
22.953135242
 10
-4.2045785743
 20
22.9917360832
 10
-4.1905601217
 20
23.0296170896
 10
-4.1726213928
 20
23.0664018775
 10
-4.1511564932
 20
23.100961296
 10
-4.1259108535
 20
23.1333191277
 10
-4.0971390431
 20
23.1634515899
 10
-4.0659988753
 20
23.1901581845
 10
-4.0328762882
 20
23.2130387453
 10
-3.9973853438
 20
23.2324934385
 10
-3.9595260422
 20
23.248522264
  0
LWPOLYLINE
  5
2C0
100
AcDbEntity
  8
RACCORDO
100
AcDbPolyline
 62
7
  6
CONTINUOUS
 90
13
 70
0
 10
-5.3262086503
 20
18.3401660833
 10
-5.3278047914
 20
18.3206643562
 10
-5.3325689642
 20
18.3015450363
 10
-5.3404269121
 20
18.2830886016
 10
-5.351254589
 20
18.265544547
 10
-5.3648807939
 20
18.2491938078
 10
-5.3810904669
 20
18.2343448849
 10
-5.3996295361
 20
18.2212244636
 10
-5.4202004604
 20
18.2100233383
 10
-5.4424653706
 20
18.2009575655
 10
-5.46606358
 20
18.194177903
 10
-5.4906199997
 20
18.189770318
 10
-5.5157414591
 20
18.1878023266
  0
LINE
  5
2C1
100
AcDbEntity
  8
ASSI
100
AcDbLine
 62
250
  6
CONTINUOUS
 10
0.6316390837
 20
23.3940490883
 11
0.6440860132
 21
23.4200075351
  0
LINE
  5
2C2
100
AcDbEntity
  8
ASSI
100
AcDbLine
 62
250
  6
CONTINUOUS
 10
0.6440860132
 20
23.4200075351
 11
0.6555231491
 21
23.4435817974
  0
LWPOLYLINE
  5
2C3
100
AcDbEntity
  8
ASSI
100
AcDbPolyline
 62
250
  6
CONTINUOUS
 90
11
 70
0
 10
0.6555231491
 20
23.4435817974
 10
0.6656586771
 20
23.4641693989
 10
0.6701561309
 20
23.4731755187
 10
0.6742342185
 20
23.4812444106
 10
0.6778669183
 20
23.488324391
 10
0.6810310474
 20
23.4943701746
 10
0.6837063864
 20
23.4993430285
 10
0.6858758687
 20
23.5032110507
 10
0.6875256937
 20
23.5059495295
 10
0.6886453855
 20
23.5075410356
 10
0.6892278594
 20
23.5079754489
  0
LINE
  5
2C4
100
AcDbEntity
  8
ASSI
100
AcDbLine
 62
250
  6
CONTINUOUS
 10
-3.9595260422
 20
23.248522264
 11
-3.5227181691
 21
23.407507328
  0
LINE
  5
2C5
100
AcDbEntity
  8
ASSI
100
AcDbLine
 62
7
  6
CONTINUOUS
 10
-3.894612679
 20
23.0605836728
 11
-3.4578046217
 21
23.2195688038
  0
LWPOLYLINE
  5
2C6
100
AcDbEntity
  8
ASSI
100
AcDbPolyline
 62
250
  6
CONTINUOUS
 90
10
 70
0
 10
0.761991082
 20
23.2813883482
 10
0.74016213
 20
23.273880984
 10
0.7186740033
 20
23.2667093713
 10
0.6978160342
 20
23.2599700741
 10
0.6778690695
 20
23.2537538345
 10
0.659101701
 20
23.2481443576
 10
0.6417666466
 20
23.2432171824
 10
0.6260973305
 20
23.2390386573
 10
0.6123047432
 20
23.2356650478
 10
0.6005746105
 20
23.2331417844
  0
LWPOLYLINE
  5
2C7
100
AcDbEntity
  8
ASSI
100
AcDbPolyline
 62
250
  6
CONTINUOUS
 90
16
 70
0
 10
-6.1761835667
 20
-24.2499626734
 10
-6.1564826192
 20
-24.2550889921
 10
-6.13702389
 20
-24.2599797295
 10
-6.1180106271
 20
-24.2645838009
 10
-6.0996405209
 20
-24.2688533217
 10
-6.0821064401
 20
-24.2727434514
 10
-6.0655939593
 20
-24.2762130617
 10
-6.0502765256
 20
-24.2792258319
 10
-6.0363116982
 20
-24.2817509057
 10
-6.0238427258
 20
-24.2837624338
 10
-6.0129922974
 20
-24.2852403143
 10
-6.0038837113
 20
-24.2861673978
 10
-5.9966253487
 20
-24.2865338082
 10
-5.9912841794
 20
-24.2863395465
 10
-5.9878978058
 20
-24.2855905525
 10
-5.9864888827
 20
-24.2842979887
  0
LWPOLYLINE
  5
2C8
100
AcDbEntity
  8
ASSI
100
AcDbPolyline
 62
250
  6
CONTINUOUS
 90
10
 70
0
 10
0.7619889995
 20
-23.046460114
 10
0.7401598401
 20
-23.0389525147
 10
0.7186716369
 20
-23.031780673
 10
0.6978137194
 20
-23.0250411579
 10
0.6778669291
 20
-23.0188247215
 10
0.6590998341
 20
-23.01321506
 10
0.6417651139
 20
-23.0082876918
 10
0.6260961634
 20
-23.0041089596
 10
0.6123039494
 20
-23.0007351328
 10
0.6005741672
 20
-22.9982116368
  0
LINE
  5
2C9
100
AcDbEntity
  8
ASSI
100
AcDbLine
 62
250
  6
CONTINUOUS
 10
-3.9595262264
 20
-23.0135905564
 11
-3.5227181691
 21
-23.1725756873
  0
LINE
  5
2CA
100
AcDbEntity
  8
ASSI
100
AcDbLine
 62
7
  6
CONTINUOUS
 10
-3.894612679
 20
-22.8256520322
 11
-3.4578046217
 21
-22.9846371632
  0
LWPOLYLINE
  5
2CB
100
AcDbEntity
  8
ASSI
100
AcDbPolyline
 62
250
  6
CONTINUOUS
 90
8
 70
0
 10
0.6668158061
 20
-23.2315727263
 10
0.6722358581
 20
-23.24240176
 10
0.6769801781
 20
-23.2517253259
 10
0.6810013127
 20
-23.2594501669
 10
0.6842590609
 20
-23.2654990548
 10
0.6867208539
 20
-23.2698115166
 10
0.6883620802
 20
-23.2723444389
 10
0.6891663318
 20
-23.2730724991
  0
LINE
  5
2CC
100
AcDbEntity
  8
ASSI
100
AcDbLine
 62
250
  6
CONTINUOUS
 10
0.6541713299
 20
-23.2058449986
 11
0.6668158061
 21
-23.2315727263
  0
LWPOLYLINE
  5
2CD
100
AcDbEntity
  8
ASSI
100
AcDbPolyline
 62
250
  6
CONTINUOUS
 90
3
 70
0
 10
0.631679182
 20
-23.1590943236
 10
0.6395507398
 20
-23.1755675878
 10
0.6541713299
 20
-23.2058449986
  0
LWPOLYLINE
  5
2CE
100
AcDbEntity
  8
RACCORDO
100
AcDbPolyline
 62
250
  6
CONTINUOUS
 90
4
 70
0
 10
-3.8326809226
 20
21.993896929
 10
-3.8328956809
 20
22.0035652221
 10
-3.8330694721
 20
22.0090133187
 10
-3.8331885644
 20
22.0107254104
  0
LWPOLYLINE
  5
2CF
100
AcDbEntity
  8
ASSI
100
AcDbPolyline
 62
250
  6
CONTINUOUS
 90
7
 70
0
 10
-2.5310237711
 20
24.8150562924
 10
-2.5313614122
 20
24.8306038822
 10
-2.5317301735
 20
24.8436522029
 10
-2.532123575
 20
24.853981706
 10
-2.5325351883
 20
24.8614465551
 10
-2.532958929
 20
24.8659582434
 10
-2.5333883273
 20
24.8674658203
  0
LWPOLYLINE
  5
2D0
100
AcDbEntity
  8
ASSI
100
AcDbPolyline
 62
250
  6
CONTINUOUS
 90
7
 70
0
 10
-2.3346888245
 20
24.8149203875
 10
-2.3350254438
 20
24.8304570278
 10
-2.3353930583
 20
24.8435056769
 10
-2.3357860567
 20
24.8538671527
 10
-2.3361984399
 20
24.8613832916
 10
-2.3366239131
 20
24.8659393629
 10
-2.3370559817
 20
24.8674658203
  0
LINE
  5
2D1
100
AcDbEntity
  8
ASSI
100
AcDbLine
 62
250
  6
CONTINUOUS
 10
-2.5304623106
 20
24.7774867747
 11
-2.5310237711
 21
24.8150562924
  0
LINE
  5
2D2
100
AcDbEntity
  8
ASSI
100
AcDbLine
 62
250
  6
CONTINUOUS
 10
-2.3341285738
 20
24.7773661315
 11
-2.3346888245
 21
24.8149203875
  0
LINE
  5
2D3
100
AcDbEntity
  8
ASSI
100
AcDbLine
 62
250
  6
CONTINUOUS
 10
-3.5218087318
 20
-23.6868645596
 11
-3.5227181691
 21
-23.6249019998
  0
LINE
  5
2D4
100
AcDbEntity
  8
RACCORDO
100
AcDbLine
 62
250
  6
CONTINUOUS
 10
-3.8321960915
 20
21.9597140084
 11
-3.8326809226
 21
21.993896929
  0
LWPOLYLINE
  5
2D5
100
AcDbEntity
  8
ASSI
100
AcDbPolyline
 62
250
  6
CONTINUOUS
 90
7
 70
0
 10
-3.5213357995
 20
24.0218839352
 10
-3.5214448721
 20
24.0332754262
 10
-3.5216064641
 20
24.0427550885
 10
-3.5218178562
 20
24.05019274
 10
-3.5220757761
 20
24.0555255664
 10
-3.5223771298
 20
24.058732052
 10
-3.5227181691
 20
24.0598031795
  0
LINE
  5
2D6
100
AcDbEntity
  8
ASSI
100
AcDbLine
 62
250
  6
CONTINUOUS
 10
-3.5214391807
 20
-23.7251471612
 11
-3.5218087318
 21
-23.6868645596
  0
LINE
  5
2D7
100
AcDbEntity
  8
RACCORDO
100
AcDbLine
 62
250
  6
CONTINUOUS
 10
-3.82969908
 20
21.6701412086
 11
-3.8321960915
 21
21.9597140084
  0
LINE
  5
2D8
100
AcDbEntity
  8
ASSI
100
AcDbLine
 62
250
  6
CONTINUOUS
 10
-2.5300791862
 20
24.7332021808
 11
-2.5304623106
 21
24.7774867747
  0
LINE
  5
2D9
100
AcDbEntity
  8
ASSI
100
AcDbLine
 62
250
  6
CONTINUOUS
 10
-2.3337463835
 20
24.7331271576
 11
-2.3341285738
 21
24.7773661315
  0
LINE
  5
2DA
100
AcDbEntity
  8
RACCORDO
100
AcDbLine
 62
250
  6
CONTINUOUS
 10
-4.2227181442
 20
21.2473338973
 11
-4.2229433513
 21
21.2746537039
  0
LINE
  5
2DB
100
AcDbEntity
  8
RACCORDO
100
AcDbLine
 62
250
  6
CONTINUOUS
 10
-4.2227181645
 20
-21.160759985
 11
-4.2230088282
 21
-21.1057645234
  0
LINE
  5
2DC
100
AcDbEntity
  8
ASSI
100
AcDbLine
 62
250
  6
CONTINUOUS
 10
-3.5212793405
 20
-23.7590016225
 11
-3.5214391807
 21
-23.7251471612
  0
LINE
  5
2DD
100
AcDbEntity
  8
ASSI
100
AcDbLine
 62
250
  6
CONTINUOUS
 10
-2.529897846
 20
24.684894314
 11
-2.5300791862
 21
24.7332021808
  0
LINE
  5
2DE
100
AcDbEntity
  8
ASSI
100
AcDbLine
 62
250
  6
CONTINUOUS
 10
-2.3335655004
 20
24.684894314
 11
-2.3337463835
 21
24.7331271576
  0
LINE
  5
2DF
100
AcDbEntity
  8
RACCORDO
100
AcDbLine
 62
250
  6
CONTINUOUS
 10
-4.2229433513
 20
21.2746537039
 11
-4.2230412862
 21
21.323103336
  0
LINE
  5
2E0
100
AcDbEntity
  8
RACCORDO
100
AcDbLine
 62
250
  6
CONTINUOUS
 10
-4.2227181691
 20
-21.160759716
 11
-4.2227181691
 21
-22.6377135081
  0
LINE
  5
2E1
100
AcDbEntity
  8
RACCORDO
100
AcDbLine
 62
250
  6
CONTINUOUS
 10
-4.2227181691
 20
21.3956913567
 11
-4.2227181691
 21
22.8726449042
  0
LINE
  5
2E2
100
AcDbEntity
  8
RACCORDO
100
AcDbLine
 62
7
  6
CONTINUOUS
 10
-4.0262086503
 20
-21.5064027474
 11
-4.0262086503
 21
-22.6377135081
  0
LINE
  5
2E3
100
AcDbEntity
  8
RACCORDO
100
AcDbLine
 62
7
  6
CONTINUOUS
 10
-4.0262086503
 20
21.741334388
 11
-4.0262086503
 21
22.8726451487
  0
LINE
  5
2E4
100
AcDbEntity
  8
RACCORDO
100
AcDbLine
 62
250
  6
CONTINUOUS
 10
-3.8296991316
 20
-21.3555993027
 11
-3.8296991316
 21
-21.4352095698
  0
LINE
  5
2E5
100
AcDbEntity
  8
RACCORDO
100
AcDbLine
 62
250
  6
CONTINUOUS
 10
-3.8296991316
 20
21.5905309434
 11
-3.8296991316
 21
21.6701412104
  0
LINE
  5
2E6
100
AcDbEntity
  8
ASSI
100
AcDbLine
 62
250
  6
CONTINUOUS
 10
-3.5227181691
 20
-23.1725756873
 11
-3.5227181691
 21
-23.6249019998
  0
LINE
  5
2E7
100
AcDbEntity
  8
ASSI
100
AcDbLine
 62
250
  6
CONTINUOUS
 10
-3.5227181691
 20
23.407507328
 11
-3.5227181691
 21
23.8598336404
  0
LINE
  5
2E8
100
AcDbEntity
  8
ASSI
100
AcDbLine
 62
250
  6
CONTINUOUS
 10
-3.5212793405
 20
23.9939332631
 11
-3.5213357995
 21
24.0218839352
  0
LINE
  5
2E9
100
AcDbEntity
  8
ASSI
100
AcDbLine
 62
7
  6
CONTINUOUS
 10
-3.3262086503
 20
-23.1725756873
 11
-3.3262086503
 21
-23.6249019998
  0
LINE
  5
2EA
100
AcDbEntity
  8
ASSI
100
AcDbLine
 62
7
  6
CONTINUOUS
 10
-3.3262086503
 20
23.407507328
 11
-3.3262086503
 21
23.8598336404
  0
LINE
  5
2EB
100
AcDbEntity
  8
RACCORDO
100
AcDbLine
 62
250
  6
CONTINUOUS
 10
-4.2230088282
 20
-21.1057645234
 11
-4.2230088398
 21
-21.0550073982
  0
LINE
  5
2EC
100
AcDbEntity
  8
ASSI
100
AcDbLine
 62
250
  6
CONTINUOUS
 10
-2.529897846
 20
-24.4499626734
 11
-2.5300791798
 21
-24.4982694852
  0
LINE
  5
2ED
100
AcDbEntity
  8
ASSI
100
AcDbLine
 62
250
  6
CONTINUOUS
 10
-2.3335655004
 20
-24.4499626734
 11
-2.3337463617
 21
-24.4981946227
  0
LWPOLYLINE
  5
2EE
100
AcDbEntity
  8
RACCORDO
100
AcDbPolyline
 62
250
  6
CONTINUOUS
 90
3
 70
0
 10
-4.2230412862
 20
21.323103336
 10
-4.222846351
 20
21.3771475405
 10
-4.2227181634
 20
21.3956916217
  0
LINE
  5
2EF
100
AcDbEntity
  8
ASSI
100
AcDbLine
 62
250
  6
CONTINUOUS
 10
-3.5214391807
 20
23.9600788018
 11
-3.5212793405
 21
23.9939332631
  0
LWPOLYLINE
  5
2F0
100
AcDbEntity
  8
RACCORDO
100
AcDbPolyline
 62
250
  6
CONTINUOUS
 90
3
 70
0
 10
-4.2230088398
 20
-21.0550073982
 10
-4.222846382
 20
-21.0254793004
 10
-4.2227181517
 20
-21.0124022569
  0
LWPOLYLINE
  5
2F1
100
AcDbEntity
  8
RACCORDO
100
AcDbPolyline
 62
250
  6
CONTINUOUS
 90
3
 70
0
 10
-3.8296991316
 20
-21.4352095698
 10
-3.830074996
 20
-21.4840531026
 10
-3.830421629
 20
-21.5296529593
  0
LINE
  5
2F2
100
AcDbEntity
  8
ASSI
100
AcDbLine
 62
250
  6
CONTINUOUS
 10
-2.5300791798
 20
-24.4982694852
 11
-2.5304622877
 21
-24.5425531465
  0
LINE
  5
2F3
100
AcDbEntity
  8
ASSI
100
AcDbLine
 62
250
  6
CONTINUOUS
 10
-2.3337463617
 20
-24.4981946227
 11
-2.3341285331
 21
-24.5424332555
  0
LINE
  5
2F4
100
AcDbEntity
  8
ASSI
100
AcDbLine
 62
250
  6
CONTINUOUS
 10
-3.5220673665
 20
23.9015252068
 11
-3.5214391807
 21
23.9600788018
  0
LWPOLYLINE
  5
2F5
100
AcDbEntity
  8
RACCORDO
100
AcDbPolyline
 62
250
  6
CONTINUOUS
 90
5
 70
0
 10
-3.830421629
 20
-21.5296529593
 10
-3.8325180127
 20
-21.7487848801
 10
-3.8327329838
 20
-21.7634710432
 10
-3.8329494125
 20
-21.7726313464
 10
-3.8331885752
 20
-21.7757937701
  0
LINE
  5
2F6
100
AcDbEntity
  8
ASSI
100
AcDbLine
 62
250
  6
CONTINUOUS
 10
-3.5227181691
 20
23.8598336404
 11
-3.5220673665
 21
23.9015252068
  0
LWPOLYLINE
  5
2F7
100
AcDbEntity
  8
ASSI
100
AcDbPolyline
 62
250
  6
CONTINUOUS
 90
8
 70
0
 10
-2.5304622877
 20
-24.5425531465
 10
-2.5310237257
 20
-24.5801222787
 10
-2.5313613606
 20
-24.5956701527
 10
-2.5317301203
 20
-24.6087189313
 10
-2.5321235259
 20
-24.6190489808
 10
-2.5325351495
 20
-24.6265143593
 10
-2.5329589068
 20
-24.6310264461
 10
-2.5333883273
 20
-24.6325341797
  0
LWPOLYLINE
  5
2F8
100
AcDbEntity
  8
ASSI
100
AcDbPolyline
 62
250
  6
CONTINUOUS
 90
8
 70
0
 10
-2.3341285331
 20
-24.5424332555
 10
-2.3346887735
 20
-24.5799876617
 10
-2.3350253922
 20
-24.5955245022
 10
-2.3353930098
 20
-24.6085733928
 10
-2.3357860149
 20
-24.6189351079
 10
-2.3361984085
 20
-24.626451452
 10
-2.3366238957
 20
-24.6310076679
 10
-2.3370559817
 20
-24.6325341797
  0
LWPOLYLINE
  5
2F9
100
AcDbEntity
  8
ASSI
100
AcDbPolyline
 62
250
  6
CONTINUOUS
 90
7
 70
0
 10
-3.4578046217
 20
-22.9846371632
 10
-3.4578508059
 20
-22.9857514519
 10
-3.4586266128
 20
-22.9888624756
 10
-3.460129596
 20
-22.993952919
 10
-3.4623503993
 20
-23.000986906
 10
-3.4652701754
 20
-23.0099018898
 10
-3.4688579252
 20
-23.0206016501
  0
LWPOLYLINE
  5
2FA
100
AcDbEntity
  8
RACCORDO
100
AcDbPolyline
 62
250
  6
CONTINUOUS
 90
6
 70
0
 10
-4.0262086503
 20
-21.5865721104
 10
-4.024535331
 20
-21.5670303502
 10
-4.0195433939
 20
-21.5478156459
 10
-4.0113164004
 20
-21.5292495143
 10
-3.9999920455
 20
-21.5116426181
 10
-3.9857598451
 20
-21.4952895568
  0
LWPOLYLINE
  5
2FB
100
AcDbEntity
  8
RACCORDO
100
AcDbPolyline
 62
250
  6
CONTINUOUS
 90
13
 70
0
 10
-4.0262086503
 20
-21.5064027474
 10
-4.0245353814
 20
-21.4869334617
 10
-4.0195435729
 20
-21.4677899496
 10
-4.0113167511
 20
-21.4492925334
 10
-3.9999925731
 20
-21.4317507247
 10
-3.9857605226
 20
-21.4154580451
 10
-3.9688587402
 20
-21.4006871149
 10
-3.9495700381
 20
-21.3876850916
 10
-3.9282171683
 20
-21.376669534
 10
-3.9051574216
 20
-21.3678247619
 10
-3.8807766497
 20
-21.3612987722
 10
-3.8554828084
 20
-21.3572007622
 10
-3.8296991316
 20
-21.3555993027
  0
LWPOLYLINE
  5
2FC
100
AcDbEntity
  8
0
100
AcDbPolyline
 62
7
  6
CONTINUOUS
 90
3
 70
0
 43
0.3500000006
 10
6.6595059071
 20
35.7662074585
 10
6.5880769901
 20
35.5519229736
 10
6.4452197227
 20
35.2662073059
  0
LINE
  5
2FD
100
AcDbEntity
  8
CURVE
100
AcDbLine
 62
7
  6
CONTINUOUS
 10
0.6682725025
 20
15.2148866919
 11
0.7175224072
 21
15.2641365966
  0
LINE
  5
2FE
100
AcDbEntity
  8
CURVE
100
AcDbLine
 62
7
  6
CONTINUOUS
 10
0.6828324608
 20
14.8094252222
 11
1.30834668
 21
15.4349394414
  0
LINE
  5
2FF
100
AcDbEntity
  8
CURVE
100
AcDbLine
 62
7
  6
CONTINUOUS
 10
1.0076141153
 20
14.7141854486
 11
1.2477077269
 21
14.9542790603
  0
LINE
  5
300
100
AcDbEntity
  8
CURVE
100
AcDbLine
 62
7
  6
CONTINUOUS
 10
1.430928065
 20
15.1374993984
 11
1.8991709528
 21
15.6057422861
  0
LINE
  5
301
100
AcDbEntity
  8
CURVE
100
AcDbLine
 62
7
  6
CONTINUOUS
 10
1.3323957697
 20
14.6189456751
 11
1.5791639199
 21
14.8657138252
  0
LINE
  5
302
100
AcDbEntity
  8
CURVE
100
AcDbLine
 62
7
  6
CONTINUOUS
 10
2.0041022213
 20
15.2906521266
 11
2.4899952255
 21
15.7765451308
  0
LINE
  5
303
100
AcDbEntity
  8
CURVE
100
AcDbLine
 62
7
  6
CONTINUOUS
 10
0.6682925009
 20
13.5348209782
 11
0.842128343
 21
13.7086568203
  0
LINE
  5
304
100
AcDbEntity
  8
CURVE
100
AcDbLine
 62
7
  6
CONTINUOUS
 10
1.6571774242
 20
14.5237059015
 11
1.9106201129
 21
14.7771485902
  0
LINE
  5
305
100
AcDbEntity
  8
CURVE
100
AcDbLine
 62
7
  6
CONTINUOUS
 10
2.5772763775
 20
15.4438048548
 11
3.0808194983
 21
15.9473479756
  0
LINE
  5
306
100
AcDbEntity
  8
0
100
AcDbLine
 62
7
  6
CONTINUOUS
 10
-10.1392971245
 20
-26.1957779048
 11
-6.8262086503
 21
-26.2825341797
  0
LINE
  5
307
100
AcDbEntity
  8
0
100
AcDbLine
 62
250
  6
CONTINUOUS
 10
-10.1392971245
 20
-25.6959492423
 11
-6.8262086503
 21
-25.7827055172
  0
LWPOLYLINE
  5
308
100
AcDbEntity
  8
ASSI
100
AcDbPolyline
 62
250
  6
CONTINUOUS
 90
10
 70
0
 10
3.2228090898
 20
-22.9325341796
 10
3.2102288321
 20
-22.9300667375
 10
3.1949432939
 20
-22.9276536824
 10
3.1772485083
 20
-22.9253337924
 10
3.1575112316
 20
-22.923147227
 10
3.1360515843
 20
-22.9211224423
 10
3.1131047655
 20
-22.9192788964
 10
3.0889888419
 20
-22.9176429965
 10
3.06413039
 20
-22.9162444939
 10
3.0389257071
 20
-22.9151056858
  0
LINE
  5
309
100
AcDbEntity
  8
ASSI
100
AcDbLine
 62
250
  6
CONTINUOUS
 10
0.7164474822
 20
-21.8303718977
 11
0.7007380703
 21
-21.6174655631
  0
LINE
  5
30A
100
AcDbEntity
  8
ASSI
100
AcDbLine
 62
250
  6
CONTINUOUS
 10
-0.3842090064
 20
22.4073964905
 11
-0.3679570705
 21
22.1720689246
  0
LINE
  5
30B
100
AcDbEntity
  8
ASSI
100
AcDbLine
 62
250
  6
CONTINUOUS
 10
0.7323519055
 20
-22.0627780287
 11
0.7164474822
 21
-21.8303718977
  0
LINE
  5
30C
100
AcDbEntity
  8
ASSI
100
AcDbLine
 62
250
  6
CONTINUOUS
 10
-0.4007153703
 20
22.6659184237
 11
-0.3842090064
 21
22.4073964905
  0
LINE
  5
30D
100
AcDbEntity
  8
ASSI
100
AcDbLine
 62
250
  6
CONTINUOUS
 10
0.7485350012
 20
-22.3193675357
 11
0.7323519055
 21
-22.0627780287
  0
LINE
  5
30E
100
AcDbEntity
  8
ASSI
100
AcDbLine
 62
250
  6
CONTINUOUS
 10
-0.4117784359
 20
22.8517810681
 11
-0.4007153703
 21
22.6659184237
  0
LINE
  5
30F
100
AcDbEntity
  8
ASSI
100
AcDbLine
 62
250
  6
CONTINUOUS
 10
0.7594556115
 20
-22.5057366089
 11
0.7485350012
 21
-22.3193675357
  0
LINE
  5
310
100
AcDbEntity
  8
ASSI
100
AcDbLine
 62
250
  6
CONTINUOUS
 10
0.7703439638
 20
-22.7043189456
 11
0.7594556115
 21
-22.5057366089
  0
LINE
  5
311
100
AcDbEntity
  8
ASSI
100
AcDbLine
 62
250
  6
CONTINUOUS
 10
-0.4282125933
 20
23.1500373266
 11
-0.4117784359
 21
22.8517810681
  0
LINE
  5
312
100
AcDbEntity
  8
ASSI
100
AcDbLine
 62
250
  6
CONTINUOUS
 10
-0.209721638
 20
22.170850043
 11
-0.1942151879
 21
21.8836496603
  0
LINE
  5
313
100
AcDbEntity
  8
ASSI
100
AcDbLine
 62
250
  6
CONTINUOUS
 10
0.7811644301
 20
-22.915105686
 11
0.7703439638
 21
-22.7043189456
  0
LINE
  5
314
100
AcDbEntity
  8
ASSI
100
AcDbLine
 62
250
  6
CONTINUOUS
 10
0.5671670116
 20
-21.9128827378
 11
0.552006625
 21
-21.6226593793
  0
LWPOLYLINE
  5
315
100
AcDbEntity
  8
ASSI
100
AcDbPolyline
 62
250
  6
CONTINUOUS
 90
4
 70
0
 10
1.3723450873
 20
-21.5714692767
 10
1.372951563
 20
-21.5839543538
 10
1.3734331483
 20
-21.5914606058
 10
1.3737913497
 20
-21.5939620244
  0
LINE
  5
316
100
AcDbEntity
  8
ASSI
100
AcDbLine
 62
250
  6
CONTINUOUS
 10
-0.2255757816
 20
22.4947731179
 11
-0.209721638
 21
22.170850043
  0
LINE
  5
317
100
AcDbEntity
  8
ASSI
100
AcDbLine
 62
250
  6
CONTINUOUS
 10
0.5826171906
 20
-22.2410248539
 11
0.5671670116
 21
-21.9128827378
  0
LINE
  5
318
100
AcDbEntity
  8
ASSI
100
AcDbLine
 62
250
  6
CONTINUOUS
 10
-0.2376730647
 20
22.7665245958
 11
-0.2255757816
 21
22.4947731179
  0
LINE
  5
319
100
AcDbEntity
  8
ASSI
100
AcDbLine
 62
250
  6
CONTINUOUS
 10
0.5944267049
 20
-22.518553111
 11
0.5826171906
 21
-22.2410248539
  0
LINE
  5
31A
100
AcDbEntity
  8
ASSI
100
AcDbLine
 62
250
  6
CONTINUOUS
 10
1.3707459051
 20
-21.5317550133
 11
1.3723450873
 21
-21.5714692767
  0
LWPOLYLINE
  5
31B
100
AcDbEntity
  8
ASSI
100
AcDbPolyline
 62
250
  6
CONTINUOUS
 90
3
 70
0
 10
-0.2537182671
 20
23.1674658203
 10
-0.2497374543
 20
23.0631472336
 10
-0.2376730647
 20
22.7665245958
  0
LWPOLYLINE
  5
31C
100
AcDbEntity
  8
ASSI
100
AcDbPolyline
 62
250
  6
CONTINUOUS
 90
3
 70
0
 10
0.6101224669
 20
-22.9325341797
 10
0.6062280475
 20
-22.8243512013
 10
0.5944267049
 20
-22.518553111
  0
LINE
  5
31D
100
AcDbEntity
  8
ASSI
100
AcDbLine
 62
250
  6
CONTINUOUS
 10
1.3661374372
 20
-21.3957041974
 11
1.3707459051
 21
-21.5317550133
  0
LINE
  5
31E
100
AcDbEntity
  8
ASSI
100
AcDbLine
 62
250
  6
CONTINUOUS
 10
1.3615755956
 20
-21.2480801294
 11
1.3661374372
 21
-21.3957041974
  0
LWPOLYLINE
  5
31F
100
AcDbEntity
  8
ASSI
100
AcDbPolyline
 62
250
  6
CONTINUOUS
 90
7
 70
0
 10
0.1687067982
 20
23.4226359823
 10
0.1690470265
 20
23.4071195846
 10
0.1694149744
 20
23.3939021107
 10
0.1698053539
 20
23.3831735265
 10
0.1702125543
 20
23.3750880262
 10
0.1706307233
 20
23.3697618167
 10
0.171053851
 20
23.3672714484
  0
LINE
  5
320
100
AcDbEntity
  8
ASSI
100
AcDbLine
 62
250
  6
CONTINUOUS
 10
0.1681285914
 20
23.4596436926
 11
0.1687067982
 21
23.4226359823
  0
LINE
  5
321
100
AcDbEntity
  8
ASSI
100
AcDbLine
 62
250
  6
CONTINUOUS
 10
0.1677134743
 20
23.5028053553
 11
0.1681285914
 21
23.4596436926
  0
LWPOLYLINE
  5
322
100
AcDbEntity
  8
ASSI
100
AcDbPolyline
 62
250
  6
CONTINUOUS
 90
37
 70
0
 10
-0.428212563
 20
-22.9151051559
 10
-0.4280873382
 20
-22.9488434958
 10
-0.4250907534
 20
-22.9815391473
 10
-0.4192228086
 20
-23.0131921104
 10
-0.4101049527
 20
-23.0441877244
 10
-0.3981157369
 20
-23.07414065
 10
-0.3843908148
 20
-23.1018948692
 10
-0.3689707034
 20
-23.1270341109
 10
-0.3518148858
 20
-23.1499746462
 10
-0.3339374641
 20
-23.1708092712
 10
-0.3154721332
 20
-23.18943216
 10
-0.2962851982
 20
-23.2059491384
 10
-0.2769896776
 20
-23.2207704797
 10
-0.2576654392
 20
-23.2338972465
 10
-0.2382326151
 20
-23.2453283762
 10
-0.2190646199
 20
-23.2554709539
 10
-0.2002137665
 20
-23.2643410625
 10
-0.1816277421
 20
-23.2719226191
 10
-0.1635230232
 20
-23.2785744599
 10
-0.1459780118
 20
-23.2843113245
 10
-0.1289143058
 20
-23.2891184733
 10
-0.1123131755
 20
-23.2933105248
 10
-0.0962519394
 20
-23.2969147957
 10
-0.0806532789
 20
-23.2999039693
 10
-0.065266509
 20
-23.3025107131
 10
-0.0500700272
 20
-23.3047703102
 10
-0.0350854361
 20
-23.3066474777
 10
-0.0201268576
 20
-23.3082690345
 10
-0.0051443082
 20
-23.3096513911
 10
0.0098122284
 20
-23.3107781371
 10
0.0247786795
 20
-23.3117268605
 10
0.0397035966
 20
-23.3125009795
 10
0.0546384281
 20
-23.3130970759
 10
0.0697734463
 20
-23.3135824833
 10
0.0850862529
 20
-23.3139643942
 10
0.1005992463
 20
-23.3142356162
 10
0.1330840171
 20
-23.3145985167
  0
LINE
  5
323
100
AcDbEntity
  8
ASSI
100
AcDbLine
 62
250
  6
CONTINUOUS
 10
0.1674852256
 20
23.5496485827
 11
0.1677134743
 21
23.5028053553
  0
LINE
  5
324
100
AcDbEntity
  8
ASSI
100
AcDbLine
 62
7
  6
CONTINUOUS
 10
-0.8262086503
 20
-17.6063455234
 11
-0.8262086503
 21
17.841277164
  0
LINE
  5
325
100
AcDbEntity
  8
RACCORDO
100
AcDbLine
 62
7
  6
CONTINUOUS
 10
-0.8262086503
 20
-21.0759473556
 11
-0.8262086503
 21
21.3108789962
  0
LINE
  5
326
100
AcDbEntity
  8
CURVE
100
AcDbLine
 62
250
  6
CONTINUOUS
 10
0.6666016297
 20
-12.5517061797
 11
0.6666016297
 21
-13.1778481797
  0
LINE
  5
327
100
AcDbEntity
  8
CURVE
100
AcDbLine
 62
250
  6
CONTINUOUS
 10
0.666781616
 20
-15.8771481797
 11
0.666781616
 21
-15.1969641797
  0
LINE
  5
328
100
AcDbEntity
  8
CURVE
100
AcDbLine
 62
250
  6
CONTINUOUS
 10
0.666781616
 20
-14.0359261797
 11
0.666781616
 21
-13.4102111797
  0
LINE
  5
329
100
AcDbEntity
  8
CURVE
100
AcDbLine
 62
250
  6
CONTINUOUS
 10
0.666781616
 20
-11.9437841797
 11
0.666781616
 21
-11.3181591797
  0
LINE
  5
32A
100
AcDbEntity
  8
CURVE
100
AcDbLine
 62
250
  6
CONTINUOUS
 10
0.666781616
 20
-10.0724881797
 11
0.666781616
 21
-9.4529811797
  0
LINE
  5
32B
100
AcDbEntity
  8
CURVE
100
AcDbLine
 62
250
  6
CONTINUOUS
 10
0.666781616
 20
-8.1332821797
 11
0.666781616
 21
-7.5275641797
  0
LINE
  5
32C
100
AcDbEntity
  8
CURVE
100
AcDbLine
 62
250
  6
CONTINUOUS
 10
0.6682725025
 20
14.8136948203
 11
0.6682725025
 21
15.2498988203
  0
LINE
  5
32D
100
AcDbEntity
  8
CURVE
100
AcDbLine
 62
250
  6
CONTINUOUS
 10
0.6682865014
 20
8.9824638203
 11
0.6682865014
 21
9.3355808203
  0
LINE
  5
32E
100
AcDbEntity
  8
CURVE
100
AcDbLine
 62
250
  6
CONTINUOUS
 10
0.6682925009
 20
7.2718338203
 11
0.6682925009
 21
7.6249508203
  0
LINE
  5
32F
100
AcDbEntity
  8
CURVE
100
AcDbLine
 62
250
  6
CONTINUOUS
 10
0.6682925009
 20
9.8894698203
 11
0.6682925009
 21
10.4378398203
  0
LINE
  5
330
100
AcDbEntity
  8
CURVE
100
AcDbLine
 62
250
  6
CONTINUOUS
 10
0.6682925009
 20
11.4473388203
 11
0.6682925009
 21
11.7755578203
  0
LINE
  5
331
100
AcDbEntity
  8
CURVE
100
AcDbLine
 62
250
  6
CONTINUOUS
 10
0.6682925009
 20
12.3252698203
 11
0.6682925009
 21
13.7086568203
  0
LINE
  5
332
100
AcDbEntity
  8
CURVE
100
AcDbLine
 62
250
  6
CONTINUOUS
 10
0.9507639884
 20
13.7086568203
 11
0.9507639884
 21
12.6783858203
  0
LINE
  5
333
100
AcDbEntity
  8
ASSI
100
AcDbLine
 62
250
  6
CONTINUOUS
 10
0.1674852258
 20
-23.314716942
 11
0.1677157738
 21
-23.2678740476
  0
LINE
  5
334
100
AcDbEntity
  8
ASSI
100
AcDbLine
 62
250
  6
CONTINUOUS
 10
0.1677157738
 20
-23.2678740476
 11
0.1681322861
 21
-23.2247124425
  0
LWPOLYLINE
  5
335
100
AcDbEntity
  8
ASSI
100
AcDbPolyline
 62
250
  6
CONTINUOUS
 90
8
 70
0
 10
0.1681322861
 20
-23.2247124425
 10
0.1687109875
 20
-23.1877045979
 10
0.1690510915
 20
-23.1721881192
 10
0.1694186704
 20
-23.1589705663
 10
0.1698084635
 20
-23.1482419293
 10
0.170214864
 20
-23.1401564022
 10
0.1706319997
 20
-23.1348301802
 10
0.1710538517
 20
-23.1323398077
  0
LWPOLYLINE
  5
336
100
AcDbEntity
  8
ASSI
100
AcDbPolyline
 62
250
  6
CONTINUOUS
 90
35
 70
0
 10
-0.2537178298
 20
-22.9325341797
 10
-0.2540611585
 20
-22.9492446224
 10
-0.2526467248
 20
-22.965627387
 10
-0.2495398772
 20
-22.9815773683
 10
-0.2447460615
 20
-22.9971454162
 10
-0.2383948106
 20
-23.0120914374
 10
-0.2308340892
 20
-23.0259287865
 10
-0.2222909015
 20
-23.0385184738
 10
-0.2128704595
 20
-23.0500020478
 10
-0.202811032
 20
-23.0603855542
 10
-0.1922668575
 20
-23.0696855789
 10
-0.1813233591
 20
-23.0779776904
 10
-0.1700911683
 20
-23.0853663533
 10
-0.1586438825
 20
-23.0919092504
 10
-0.1470490484
 20
-23.0976621055
 10
-0.135383172
 20
-23.1027165993
 10
-0.1236794667
 20
-23.1071292678
 10
-0.1119761325
 20
-23.1109544426
 10
-0.1003435932
 20
-23.1142684698
 10
-0.088823007
 20
-23.1171142579
 10
-0.0773981093
 20
-23.1195451129
 10
-0.0660481988
 20
-23.1216365586
 10
-0.0548226151
 20
-23.1234205756
 10
-0.0436704939
 20
-23.1249334341
 10
-0.0324216775
 20
-23.1262366755
 10
-0.0210600324
 20
-23.1273567999
 10
-0.0095894487
 20
-23.1283072009
 10
0.0021287562
 20
-23.1291158408
 10
0.0141473967
 20
-23.1298016537
 10
0.0264329316
 20
-23.1303743279
 10
0.0389969873
 20
-23.1308447588
 10
0.051819145
 20
-23.1312265191
 10
0.0649465088
 20
-23.1315324302
 10
0.0784985068
 20
-23.1317725729
 10
0.1069319001
 20
-23.1321009761
  0
LWPOLYLINE
  5
337
100
AcDbEntity
  8
ASSI
100
AcDbPolyline
 62
250
  6
CONTINUOUS
 90
10
 70
0
 10
0.7811644308
 20
23.1500373266
 10
0.7815625342
 20
23.1651202234
 10
0.781325086
 20
23.1800823483
 10
0.7804520862
 20
23.1949237012
 10
0.7789390049
 20
23.2096460168
 10
0.776790372
 20
23.2242475605
 10
0.7740197774
 20
23.238723128
 10
0.7706317512
 20
23.2530709845
 10
0.7666217633
 20
23.2672928649
 10
0.7619898137
 20
23.2813887691
  0
LINE
  5
338
100
AcDbEntity
  8
ASSI
100
AcDbLine
 62
250
  6
CONTINUOUS
 10
1.3615755956
 20
21.48301177
 11
1.3686669583
 21
21.7078171628
  0
LINE
  5
339
100
AcDbEntity
  8
ASSI
100
AcDbLine
 62
250
  6
CONTINUOUS
 10
0.5990807765
 20
22.8703368865
 11
0.610122467
 21
23.1674658203
  0
LWPOLYLINE
  5
33A
100
AcDbEntity
  8
ASSI
100
AcDbPolyline
 62
250
  6
CONTINUOUS
 90
6
 70
0
 10
1.3686669583
 20
21.7078171628
 10
1.3716068889
 20
21.7889791604
 10
1.3723450873
 20
21.8064009178
 10
1.3729606354
 20
21.8188879803
 10
1.3734443813
 20
21.8263947363
 10
1.3737913497
 20
21.8288936651
  0
LINE
  5
33B
100
AcDbEntity
  8
ASSI
100
AcDbLine
 62
250
  6
CONTINUOUS
 10
-0.244212901
 20
-22.6888983818
 11
-0.2537182669
 21
-22.9325341797
  0
LINE
  5
33C
100
AcDbEntity
  8
ASSI
100
AcDbLine
 62
250
  6
CONTINUOUS
 10
-0.2344378379
 20
-22.4566052442
 11
-0.244212901
 21
-22.6888983818
  0
LINE
  5
33D
100
AcDbEntity
  8
ASSI
100
AcDbLine
 62
250
  6
CONTINUOUS
 10
0.583696936
 20
22.5003090816
 11
0.5990807765
 21
22.8703368865
  0
LWPOLYLINE
  5
33E
100
AcDbEntity
  8
ASSI
100
AcDbPolyline
 62
250
  6
CONTINUOUS
 90
10
 70
0
 10
0.6101224634
 20
23.1674658203
 10
0.6104699334
 20
23.1749905216
 10
0.6104568688
 20
23.1824750256
 10
0.6100872817
 20
23.1899090047
 10
0.6093672235
 20
23.1972734061
 10
0.6083004647
 20
23.2045675795
 10
0.6068855752
 20
23.211808723
 10
0.6051230346
 20
23.2189957818
 10
0.6030181254
 20
23.2261100256
 10
0.6005746105
 20
23.2331417843
  0
LINE
  5
33F
100
AcDbEntity
  8
ASSI
100
AcDbLine
 62
250
  6
CONTINUOUS
 10
-0.2194154936
 20
-22.1299810057
 11
-0.2344378379
 21
-22.4566052442
  0
LINE
  5
340
100
AcDbEntity
  8
ASSI
100
AcDbLine
 62
250
  6
CONTINUOUS
 10
0.5678676081
 20
22.1619492691
 11
0.583696936
 21
22.5003090816
  0
LINE
  5
341
100
AcDbEntity
  8
ASSI
100
AcDbLine
 62
250
  6
CONTINUOUS
 10
-0.2042479457
 20
-21.8313752434
 11
-0.2194154936
 21
-22.1299810057
  0
LINE
  5
342
100
AcDbEntity
  8
ASSI
100
AcDbLine
 62
250
  6
CONTINUOUS
 10
0.7658851225
 20
22.856184087
 11
0.7811644308
 21
23.1500373266
  0
LINE
  5
343
100
AcDbEntity
  8
ASSI
100
AcDbLine
 62
250
  6
CONTINUOUS
 10
0.552006625
 20
21.85759102
 11
0.5678676081
 21
22.1619492691
  0
LINE
  5
344
100
AcDbEntity
  8
ASSI
100
AcDbLine
 62
250
  6
CONTINUOUS
 10
-0.4151834531
 20
-22.676573498
 11
-0.428212563
 21
-22.9151051559
  0
LINE
  5
345
100
AcDbEntity
  8
ASSI
100
AcDbLine
 62
250
  6
CONTINUOUS
 10
-0.1942151879
 20
-21.6487180193
 11
-0.2042479457
 21
-21.8313752434
  0
LINE
  5
346
100
AcDbEntity
  8
ASSI
100
AcDbLine
 62
250
  6
CONTINUOUS
 10
0.7500017942
 20
22.5786745248
 11
0.7658851225
 21
22.856184087
  0
LINE
  5
347
100
AcDbEntity
  8
ASSI
100
AcDbLine
 62
250
  6
CONTINUOUS
 10
-0.4018152588
 20
-22.448891099
 11
-0.4151834531
 21
-22.676573498
  0
LINE
  5
348
100
AcDbEntity
  8
ASSI
100
AcDbLine
 62
250
  6
CONTINUOUS
 10
-0.3881484607
 20
-22.2322258381
 11
-0.4018152588
 21
-22.448891099
  0
LINE
  5
349
100
AcDbEntity
  8
ASSI
100
AcDbLine
 62
250
  6
CONTINUOUS
 10
0.7336983041
 20
22.3182381077
 11
0.7500017942
 21
22.5786745248
  0
LINE
  5
34A
100
AcDbEntity
  8
ASSI
100
AcDbLine
 62
250
  6
CONTINUOUS
 10
0.7171959677
 20
22.0758425148
 11
0.7336983041
 21
22.3182381077
  0
LWPOLYLINE
  5
34B
100
AcDbEntity
  8
ASSI
100
AcDbPolyline
 62
250
  6
CONTINUOUS
 90
3
 70
0
 10
-0.3673818679
 20
-21.9291022056
 10
-0.3743115129
 20
-22.0270998519
 10
-0.3881484607
 20
-22.2322258381
  0
LINE
  5
34C
100
AcDbEntity
  8
ASSI
100
AcDbLine
 62
250
  6
CONTINUOUS
 10
0.7007411266
 20
21.8523970968
 11
0.7171959677
 21
22.0758425148
  0
LWPOLYLINE
  5
34D
100
AcDbEntity
  8
ASSI
100
AcDbPolyline
 62
250
  6
CONTINUOUS
 90
6
 70
0
 10
-3.894612679
 20
-22.8256520322
 10
-3.8947926608
 20
-22.8273935692
 10
-3.8961311325
 20
-22.8322968555
 10
-3.8986053659
 20
-22.84027863
 10
-3.902173347
 20
-22.8512033568
 10
-3.906774489
 20
-22.8648855268
  0
LINE
  5
34E
100
AcDbEntity
  8
ASSI
100
AcDbLine
 62
250
  6
CONTINUOUS
 10
-6.1761835667
 20
-24.2499626734
 11
-6.0742142677
 21
-23.8694080689
  0
LINE
  5
34F
100
AcDbEntity
  8
ASSI
100
AcDbLine
 62
250
  6
CONTINUOUS
 10
5.4863155205
 20
23.2828508326
 11
5.4570504881
 21
23.1746720619
  0
LWPOLYLINE
  5
350
100
AcDbEntity
  8
ASSI
100
AcDbPolyline
 62
250
  6
CONTINUOUS
 90
6
 70
0
 10
5.5053238158
 20
23.3504287335
 10
5.5047934687
 20
23.3489938388
 10
5.5034826998
 20
23.3446380779
 10
5.5014114755
 20
23.3374278006
 10
5.4986113463
 20
23.3274728386
 10
5.4863155205
 20
23.2828508326
  0
LWPOLYLINE
  5
351
100
AcDbEntity
  8
ASSI
100
AcDbPolyline
 62
250
  6
CONTINUOUS
 90
6
 70
0
 10
7.6570841768
 20
22.7738662824
 10
7.6565538296
 20
22.7724313877
 10
7.6552430607
 20
22.7680756268
 10
7.6531718364
 20
22.7608653494
 10
7.6503717071
 20
22.7509103872
 10
7.6380758814
 20
22.7062883811
  0
LINE
  5
352
100
AcDbEntity
  8
CURVE
100
AcDbLine
 62
250
  6
CONTINUOUS
 10
5.5309341557
 20
13.8317516708
 11
5.388077081
 21
13.6412752533
  0
LINE
  5
353
100
AcDbEntity
  8
CURVE
100
AcDbLine
 62
7
  6
CONTINUOUS
 10
0.6682925009
 20
13.1147995502
 11
0.9507639884
 21
13.3972710377
  0
LINE
  5
354
100
AcDbEntity
  8
CURVE
100
AcDbLine
 62
7
  6
CONTINUOUS
 10
1.9819590786
 20
14.4284661279
 11
2.2420763059
 21
14.6885833552
  0
LINE
  5
355
100
AcDbEntity
  8
CURVE
100
AcDbLine
 62
7
  6
CONTINUOUS
 10
2.62896018
 20
15.0754672292
 11
2.9114346672
 21
15.3579417165
  0
LINE
  5
356
100
AcDbEntity
  8
CURVE
100
AcDbLine
 62
7
  6
CONTINUOUS
 10
3.1647962084
 20
15.6113032576
 11
3.671643771
 21
16.1181508203
  0
LINE
  5
357
100
AcDbEntity
  8
CURVE
100
AcDbLine
 62
7
  6
CONTINUOUS
 10
0.6682925009
 20
12.6947781222
 11
0.9507639884
 21
12.9772496097
  0
LINE
  5
358
100
AcDbEntity
  8
CURVE
100
AcDbLine
 62
7
  6
CONTINUOUS
 10
2.3067407331
 20
14.3332263543
 11
2.5735324989
 21
14.6000181201
  0
LINE
  5
359
100
AcDbEntity
  8
CURVE
100
AcDbLine
 62
7
  6
CONTINUOUS
 10
2.62896018
 20
14.6554458012
 11
2.9114346672
 21
14.9379202885
  0
LINE
  5
35A
100
AcDbEntity
  8
CURVE
100
AcDbLine
 62
7
  6
CONTINUOUS
 10
0.7188056271
 20
12.3252698203
 11
1.0719216271
 21
12.6783858203
  0
LINE
  5
35B
100
AcDbEntity
  8
CURVE
100
AcDbLine
 62
7
  6
CONTINUOUS
 10
1.9809565308
 20
13.587420724
 11
2.0481876271
 21
13.6546518203
  0
LINE
  5
35C
100
AcDbEntity
  8
CURVE
100
AcDbLine
 62
7
  6
CONTINUOUS
 10
2.6315223875
 20
14.2379865808
 11
2.9114346672
 21
14.5178988604
  0
LINE
  5
35D
100
AcDbEntity
  8
CURVE
100
AcDbLine
 62
7
  6
CONTINUOUS
 10
1.1388270551
 20
12.3252698203
 11
1.4919430551
 21
12.6783858203
  0
LINE
  5
35E
100
AcDbEntity
  8
CURVE
100
AcDbLine
 62
7
  6
CONTINUOUS
 10
1.9809565308
 20
13.167399296
 11
2.2634290182
 21
13.4498717834
  0
LINE
  5
35F
100
AcDbEntity
  8
CURVE
100
AcDbLine
 62
7
  6
CONTINUOUS
 10
2.956304042
 20
14.1427468072
 11
3.2243209414
 21
14.4107637066
  0
LINE
  5
360
100
AcDbEntity
  8
CURVE
100
AcDbLine
 62
7
  6
CONTINUOUS
 10
0.6809174831
 20
11.4473388203
 11
1.0091364831
 21
11.7755578203
  0
LINE
  5
361
100
AcDbEntity
  8
CURVE
100
AcDbLine
 62
7
  6
CONTINUOUS
 10
1.5588484831
 20
12.3252698203
 11
1.9119644831
 21
12.6783858203
  0
LINE
  5
362
100
AcDbEntity
  8
CURVE
100
AcDbLine
 62
7
  6
CONTINUOUS
 10
1.9809565308
 20
12.7473778679
 11
2.2634290182
 21
13.0298503553
  0
LINE
  5
363
100
AcDbEntity
  8
CURVE
100
AcDbLine
 62
7
  6
CONTINUOUS
 10
3.2810856964
 20
14.0475070336
 11
3.5527957077
 21
14.3192170449
  0
LINE
  5
364
100
AcDbEntity
  8
CURVE
100
AcDbLine
 62
7
  6
CONTINUOUS
 10
1.1009389112
 20
11.4473388203
 11
1.4291579112
 21
11.7755578203
  0
LINE
  5
365
100
AcDbEntity
  8
CURVE
100
AcDbLine
 62
7
  6
CONTINUOUS
 10
1.9788699112
 20
12.3252698203
 11
2.3319859112
 21
12.6783858203
  0
LINE
  5
366
100
AcDbEntity
  8
CURVE
100
AcDbLine
 62
7
  6
CONTINUOUS
 10
3.3891632843
 20
13.7355631934
 11
3.3913379112
 21
13.7377378203
  0
LINE
  5
367
100
AcDbEntity
  8
CURVE
100
AcDbLine
 62
7
  6
CONTINUOUS
 10
3.6058673509
 20
13.95226726
 11
3.671643771
 21
14.0180436802
  0
LINE
  5
368
100
AcDbEntity
  8
CURVE
100
AcDbLine
 62
250
  6
CONTINUOUS
 10
5.5309341557
 20
15.8317516708
 11
5.816648484
 21
16.1174658203
  0
LINE
  5
369
100
AcDbEntity
  8
CURVE
100
AcDbLine
 62
7
  6
CONTINUOUS
 10
1.5209603392
 20
11.4473388203
 11
1.8491793392
 21
11.7755578203
  0
LINE
  5
36A
100
AcDbEntity
  8
CURVE
100
AcDbLine
 62
7
  6
CONTINUOUS
 10
2.3988913392
 20
12.3252698203
 11
2.7520073392
 21
12.6783858203
  0
LINE
  5
36B
100
AcDbEntity
  8
CURVE
100
AcDbLine
 62
7
  6
CONTINUOUS
 10
3.3891632843
 20
13.3155417654
 11
3.6716347717
 21
13.5980132528
  0
LINE
  5
36C
100
AcDbEntity
  8
CURVE
100
AcDbLine
 62
7
  6
CONTINUOUS
 10
0.6682925009
 20
10.174649554
 11
1.0886399534
 21
10.5949970065
  0
LINE
  5
36D
100
AcDbEntity
  8
CURVE
100
AcDbLine
 62
7
  6
CONTINUOUS
 10
1.9409817672
 20
11.4473388203
 11
2.2692007672
 21
11.7755578203
  0
LINE
  5
36E
100
AcDbEntity
  8
CURVE
100
AcDbLine
 62
7
  6
CONTINUOUS
 10
2.8189127672
 20
12.3252698203
 11
3.1720287672
 21
12.6783858203
  0
LINE
  5
36F
100
AcDbEntity
  8
CURVE
100
AcDbLine
 62
7
  6
CONTINUOUS
 10
3.3891632843
 20
12.8955203374
 11
3.6716347717
 21
13.1779918248
  0
LINE
  5
370
100
AcDbEntity
  8
CURVE
100
AcDbLine
 62
7
  6
CONTINUOUS
 10
0.8031341952
 20
9.8894698203
 11
1.1313261952
 21
10.2176618203
  0
LINE
  5
371
100
AcDbEntity
  8
CURVE
100
AcDbLine
 62
7
  6
CONTINUOUS
 10
1.2267421301
 20
10.3130777551
 11
1.7594661953
 21
10.8458018204
  0
LINE
  5
372
100
AcDbEntity
  8
CURVE
100
AcDbLine
 62
7
  6
CONTINUOUS
 10
2.3610031952
 20
11.4473388203
 11
2.6892221952
 21
11.7755578203
  0
LINE
  5
373
100
AcDbEntity
  8
CURVE
100
AcDbLine
 62
7
  6
CONTINUOUS
 10
3.2389341952
 20
12.3252698203
 11
3.6716347717
 21
12.7579703968
  0
LINE
  5
374
100
AcDbEntity
  8
CURVE
100
AcDbLine
 62
250
  6
CONTINUOUS
 10
6.6737913497
 20
15.4031799698
 11
6.3880770512
 21
15.1174658203
  0
LINE
  5
375
100
AcDbEntity
  8
CURVE
100
AcDbLine
 62
250
  6
CONTINUOUS
 10
5.816648484
 20
14.5460370445
 11
5.5309341557
 21
14.2603228951
  0
LINE
  5
376
100
AcDbEntity
  8
CURVE
100
AcDbLine
 62
7
  6
CONTINUOUS
 10
0.6682865014
 20
9.3346006984
 11
0.6692666233
 21
9.3355808203
  0
LINE
  5
377
100
AcDbEntity
  8
CURVE
100
AcDbLine
 62
7
  6
CONTINUOUS
 10
1.2231556233
 20
9.8894698203
 11
1.5513476233
 21
10.2176618203
  0
LINE
  5
378
100
AcDbEntity
  8
CURVE
100
AcDbLine
 62
7
  6
CONTINUOUS
 10
1.8975679752
 20
10.5638821723
 11
2.4302924373
 21
11.0966066343
  0
LINE
  5
379
100
AcDbEntity
  8
CURVE
100
AcDbLine
 62
7
  6
CONTINUOUS
 10
2.7810246233
 20
11.4473388203
 11
3.1092436233
 21
11.7755578203
  0
LINE
  5
37A
100
AcDbEntity
  8
CURVE
100
AcDbLine
 62
7
  6
CONTINUOUS
 10
3.6589556233
 20
12.3252698203
 11
3.6716347717
 21
12.3379489688
  0
LWPOLYLINE
  5
37B
100
AcDbEntity
  8
ASSI
100
AcDbPolyline
 62
250
  6
CONTINUOUS
 90
16
 70
0
 10
-2.3335655004
 20
-24.4499626734
 10
-2.322750425
 20
-24.4497152964
 10
-2.3122703831
 20
-24.4491646238
 10
-2.3021253745
 20
-24.4483106556
 10
-2.2923133713
 20
-24.4471242629
 10
-2.2828364015
 20
-24.4456345745
 10
-2.2737005488
 20
-24.4439289769
 10
-2.2649080403
 20
-24.4420106376
 10
-2.2564566489
 20
-24.4398763891
 10
-2.2483457776
 20
-24.4376041149
 10
-2.2405770889
 20
-24.4351965421
 10
-2.2331489203
 20
-24.4326509437
 10
-2.2260556877
 20
-24.430037021
 10
-2.2192955298
 20
-24.427378008
 10
-2.2128703078
 20
-24.4246506708
 10
-2.2067800219
 20
-24.4218550095
  0
LINE
  5
37C
100
AcDbEntity
  8
ASSI
100
AcDbLine
 62
7
  6
CONTINUOUS
 10
-3.5227181691
 20
-23.8248715388
 11
-6.8262086503
 21
-23.8825341797
  0
LINE
  5
37D
100
AcDbEntity
  8
ASSI
100
AcDbLine
 62
250
  6
CONTINUOUS
 10
-3.5227181691
 20
-23.6249019998
 11
-6.8262086503
 21
-23.6825646407
  0
LINE
  5
37E
100
AcDbEntity
  8
ASSI
100
AcDbLine
 62
250
  6
CONTINUOUS
 10
0.2053501085
 20
-23.1323088596
 11
0.2675540211
 21
-23.1320219836
  0
LINE
  5
37F
100
AcDbEntity
  8
0
100
AcDbLine
 62
250
  6
CONTINUOUS
 10
-10.1392971245
 20
-25.6959492423
 11
-10.6262086503
 21
-25.6959492423
  0
LINE
  5
380
100
AcDbEntity
  8
ASSI
100
AcDbLine
 62
7
  6
CONTINUOUS
 10
-2.5333883273
 20
-24.6325341797
 11
-2.3370559817
 21
-24.6325341797
  0
LINE
  5
381
100
AcDbEntity
  8
ASSI
100
AcDbLine
 62
250
  6
CONTINUOUS
 10
-2.529897846
 20
-24.4499626734
 11
-2.3335655004
 21
-24.4499626734
  0
LINE
  5
382
100
AcDbEntity
  8
ASSI
100
AcDbLine
 62
7
  6
CONTINUOUS
 10
-6.8262086503
 20
-24.4325341797
 11
-6.1796740479
 21
-24.4325341797
  0
LINE
  5
383
100
AcDbEntity
  8
ASSI
100
AcDbLine
 62
250
  6
CONTINUOUS
 10
-6.8262086503
 20
-24.2499626734
 11
-6.1761835667
 21
-24.2499626734
  0
LINE
  5
384
100
AcDbEntity
  8
ASSI
100
AcDbLine
 62
250
  6
CONTINUOUS
 10
-3.3262086503
 20
-23.6249019998
 11
-3.5227181691
 21
-23.6249019998
  0
LINE
  5
385
100
AcDbEntity
  8
ASSI
100
AcDbLine
 62
250
  6
CONTINUOUS
 10
-3.3262086503
 20
-23.1725756873
 11
-3.5227181691
 21
-23.1725756873
  0
LINE
  5
386
100
AcDbEntity
  8
ASSI
100
AcDbLine
 62
7
  6
CONTINUOUS
 10
1.3230937244
 20
-23.1325341797
 11
5.3759142933
 21
-23.1325341797
  0
LINE
  5
387
100
AcDbEntity
  8
ASSI
100
AcDbLine
 62
250
  6
CONTINUOUS
 10
3.0374866846
 20
-22.9499626734
 11
1.3265842057
 21
-22.9499626734
  0
LINE
  5
388
100
AcDbEntity
  8
ASSI
100
AcDbLine
 62
250
  6
CONTINUOUS
 10
4.3132099144
 20
-22.9499626734
 11
5.3794047746
 21
-22.9499626734
  0
LINE
  5
389
100
AcDbEntity
  8
ASSI
100
AcDbLine
 62
250
  6
CONTINUOUS
 10
4.1320605243
 20
-22.9325341797
 11
3.2228090898
 21
-22.9325341797
  0
LINE
  5
38A
100
AcDbEntity
  8
ASSI
100
AcDbLine
 62
250
  6
CONTINUOUS
 10
-0.2537182669
 20
-22.9325341797
 11
0.6101224669
 21
-22.9325341797
  0
LINE
  5
38B
100
AcDbEntity
  8
ASSI
100
AcDbLine
 62
250
  6
CONTINUOUS
 10
0.1376867726
 20
-23.1322709192
 11
0.2053501085
 21
-23.1323088596
  0
LINE
  5
38C
100
AcDbEntity
  8
ASSI
100
AcDbLine
 62
250
  6
CONTINUOUS
 10
0.1330840171
 20
-23.3145985167
 11
0.1674852257
 21
-23.3147169421
  0
LINE
  5
38D
100
AcDbEntity
  8
ASSI
100
AcDbLine
 62
250
  6
CONTINUOUS
 10
0.1069319001
 20
-23.1321009761
 11
0.1376867726
 21
-23.1322709192
  0
LWPOLYLINE
  5
38E
100
AcDbEntity
  8
ASSI
100
AcDbPolyline
 62
250
  6
CONTINUOUS
 90
16
 70
0
 10
4.3132099154
 20
-22.9499626965
 10
4.2982842552
 20
-22.9493273624
 10
4.283363705
 20
-22.9485945399
 10
4.2685450843
 20
-22.9477675181
 10
4.2539155507
 20
-22.9468493389
 10
4.2395839504
 20
-22.9458442625
 10
4.2256698461
 20
-22.9447589541
 10
4.2122518534
 20
-22.9435983865
 10
4.1994137768
 20
-22.9423695394
 10
4.1872681779
 20
-22.9410839925
 10
4.1759134645
 20
-22.939763945
 10
4.1653740493
 20
-22.938402818
 10
4.1556538724
 20
-22.9369694036
 10
4.1468060786
 20
-22.9354590622
 10
4.1389187612
 20
-22.9338941584
 10
4.132060382
 20
-22.9322845091
  0
LWPOLYLINE
  5
38F
100
AcDbEntity
  8
ASSI
100
AcDbPolyline
 62
250
  6
CONTINUOUS
 90
13
 70
0
 10
-3.3262086503
 20
-23.4505357624
 10
-3.3034879549
 20
-23.451622665
 10
-3.2697313113
 20
-23.4559665784
 10
-3.2369186159
 20
-23.4629944133
 10
-3.2050829503
 20
-23.4726315196
 10
-3.1741912328
 20
-23.4849525475
 10
-3.144144218
 20
-23.5001814481
 10
-3.1145245536
 20
-23.5185078638
 10
-3.0857495919
 20
-23.5397421521
 10
-3.0589721449
 20
-23.5635393369
 10
-3.034576483
 20
-23.5897844261
 10
-3.0121783358
 20
-23.6185924117
 10
-2.9917777032
 20
-23.6499632939
  0
LWPOLYLINE
  5
390
100
AcDbEntity
  8
ASSI
100
AcDbPolyline
 62
250
  6
CONTINUOUS
 90
10
 70
0
 10
-0.4282125141
 20
-22.915105688
 10
-0.4050466757
 20
-22.9163942551
 10
-0.382146046
 20
-22.9179003114
 10
-0.3598192117
 20
-22.9196035597
 10
-0.338367056
 20
-22.921481042
 10
-0.3180786002
 20
-22.9235074605
 10
-0.2992271301
 20
-22.92565552
 10
-0.2820666491
 20
-22.9278962792
 10
-0.2668284341
 20
-22.9301995395
 10
-0.2537178297
 20
-22.9325342641
  0
LWPOLYLINE
  5
391
100
AcDbEntity
  8
RACCORDO
100
AcDbPolyline
 62
7
  6
CONTINUOUS
 90
3
 70
0
 10
7.7979633363
 20
-20.5220122316
 10
7.8117661979
 20
-20.5291543959
 10
7.8276203715
 20
-20.5347756241
  0
LWPOLYLINE
  5
392
100
AcDbEntity
  8
ASSI
100
AcDbPolyline
 62
250
  6
CONTINUOUS
 90
4
 70
0
 10
5.5014114755
 20
-23.10249616
 10
5.5034826998
 20
-23.1097064373
 10
5.5047934687
 20
-23.1140621982
 10
5.5053238158
 20
-23.1154970928
  0
LINE
  5
393
100
AcDbEntity
  8
ASSI
100
AcDbLine
 62
250
  6
CONTINUOUS
 10
5.4951249654
 20
-23.0799931917
 11
5.5014114755
 21
-23.10249616
  0
LINE
  5
394
100
AcDbEntity
  8
ASSI
100
AcDbLine
 62
250
  6
CONTINUOUS
 10
5.475517862
 20
-23.0082210076
 11
5.4951249654
 21
-23.0799931917
  0
LINE
  5
395
100
AcDbEntity
  8
ASSI
100
AcDbLine
 62
250
  6
CONTINUOUS
 10
5.4570504881
 20
-22.9397404213
 11
5.475517862
 21
-23.0082210076
  0
LINE
  5
396
100
AcDbEntity
  8
ASSI
100
AcDbLine
 62
250
  6
CONTINUOUS
 10
-6.0742142677
 20
24.1043397095
 11
-6.1761835667
 21
24.484894314
  0
LWPOLYLINE
  5
397
100
AcDbEntity
  8
CURVE
100
AcDbPolyline
 62
250
  6
CONTINUOUS
 90
23
 70
0
 10
1.1777604932
 20
-5.8204744764
 10
1.1740949112
 20
-5.7984102329
 10
1.1706293424
 20
-5.7763071644
 10
1.1673769568
 20
-5.7541674226
 10
1.1643509245
 20
-5.7319931589
 10
1.1615644156
 20
-5.7097865248
 10
1.1590306
 20
-5.6875496716
 10
1.1567626477
 20
-5.6652847509
 10
1.1547737289
 20
-5.6429939141
 10
1.1530770134
 20
-5.6206793126
 10
1.1516856714
 20
-5.598343098
 10
1.1506128729
 20
-5.5759874216
 10
1.149868593
 20
-5.5535938836
 10
1.149453924
 20
-5.5311886559
 10
1.1493661367
 20
-5.5087773918
 10
1.1496025019
 20
-5.4863657448
 10
1.1501602903
 20
-5.4639593682
 10
1.1510367725
 20
-5.4415639153
 10
1.1522292194
 20
-5.4191850394
 10
1.1537349017
 20
-5.396828394
 10
1.15555109
 20
-5.3744996322
 10
1.1576750552
 20
-5.3522044075
 10
1.1601040678
 20
-5.3299483732
  0
LWPOLYLINE
  5
398
100
AcDbEntity
  8
ASSI
100
AcDbPolyline
 62
250
  6
CONTINUOUS
 90
3
 70
0
 10
-0.3679570705
 20
22.1720689246
 10
-0.3626016719
 20
22.0982332201
 10
-0.3467071863
 20
21.8889747985
  0
LINE
  5
399
100
AcDbEntity
  8
ASSI
100
AcDbLine
 62
250
  6
CONTINUOUS
 10
4.2576397155
 20
-21.7730256498
 11
4.2467012011
 21
-21.5882635661
  0
LINE
  5
39A
100
AcDbEntity
  8
ASSI
100
AcDbLine
 62
250
  6
CONTINUOUS
 10
4.2713461613
 20
-22.0219944657
 11
4.2576397155
 21
-21.7730256498
  0
LINE
  5
39B
100
AcDbEntity
  8
ASSI
100
AcDbLine
 62
250
  6
CONTINUOUS
 10
4.285075699
 20
-22.2943472851
 11
4.2713461613
 21
-22.0219944657
  0
LWPOLYLINE
  5
39C
100
AcDbEntity
  8
ASSI
100
AcDbPolyline
 62
250
  6
CONTINUOUS
 90
16
 70
0
 10
3.2228090872
 20
-22.9325341797
 10
3.2237973019
 20
-22.9534399056
 10
3.2267511163
 20
-22.9741165734
 10
3.2316381648
 20
-22.9943376452
 10
3.2384049
 20
-23.0138815721
 10
3.2469771819
 20
-23.0325342313
 10
3.2572610939
 20
-23.05009127
 10
3.2691439654
 20
-23.0663603324
 10
3.2824956037
 20
-23.0811631684
 10
3.2971697256
 20
-23.0943375953
 10
3.3130055582
 20
-23.1057392709
 10
3.3298296011
 20
-23.1152432767
 10
3.3474575281
 20
-23.1227454853
 10
3.3656962046
 20
-23.1281637006
 10
3.3843458036
 20
-23.1314385589
 10
3.4032019963
 20
-23.1325341797
  0
LINE
  5
39D
100
AcDbEntity
  8
ASSI
100
AcDbLine
 62
250
  6
CONTINUOUS
 10
3.0481652316
 20
22.9360014689
 11
3.0623471667
 21
22.6343898747
  0
LINE
  5
39E
100
AcDbEntity
  8
ASSI
100
AcDbLine
 62
250
  6
CONTINUOUS
 10
4.2986793547
 20
-22.5921547418
 11
4.285075699
 21
-22.2943472851
  0
LINE
  5
39F
100
AcDbEntity
  8
ASSI
100
AcDbLine
 62
250
  6
CONTINUOUS
 10
3.0374866852
 20
23.184894314
 11
3.0481652316
 21
22.9360014689
  0
LINE
  5
3A0
100
AcDbEntity
  8
ASSI
100
AcDbLine
 62
250
  6
CONTINUOUS
 10
4.0961051127
 20
-21.8592196015
 11
4.0847995839
 21
-21.5896764601
  0
LINE
  5
3A1
100
AcDbEntity
  8
ASSI
100
AcDbLine
 62
250
  6
CONTINUOUS
 10
4.3132099144
 20
-22.9499626734
 11
4.2986793547
 21
-22.5921547418
  0
LINE
  5
3A2
100
AcDbEntity
  8
ASSI
100
AcDbLine
 62
250
  6
CONTINUOUS
 10
3.2433380607
 20
22.546006311
 11
3.2572364296
 21
22.1872938934
  0
LINE
  5
3A3
100
AcDbEntity
  8
ASSI
100
AcDbLine
 62
250
  6
CONTINUOUS
 10
4.1093472585
 20
-22.209693015
 11
4.0961051127
 21
-21.8592196015
  0
LINE
  5
3A4
100
AcDbEntity
  8
ASSI
100
AcDbLine
 62
250
  6
CONTINUOUS
 10
3.232941407
 20
22.8445790983
 11
3.2433380607
 21
22.546006311
  0
LINE
  5
3A5
100
AcDbEntity
  8
ASSI
100
AcDbLine
 62
250
  6
CONTINUOUS
 10
4.1192452796
 20
-22.5021681922
 11
4.1093472585
 21
-22.209693015
  0
LINE
  5
3A6
100
AcDbEntity
  8
ASSI
100
AcDbLine
 62
250
  6
CONTINUOUS
 10
3.2228090897
 20
23.1674658203
 11
3.232941407
 21
22.8445790983
  0
LWPOLYLINE
  5
3A7
100
AcDbEntity
  8
ASSI
100
AcDbPolyline
 62
250
  6
CONTINUOUS
 90
3
 70
0
 10
4.1320605243
 20
-22.9325341797
 10
4.1289192607
 20
-22.8206433975
 10
4.1192452796
 20
-22.5021681922
  0
LWPOLYLINE
  5
3A8
100
AcDbEntity
  8
ASSI
100
AcDbPolyline
 62
250
  6
CONTINUOUS
 90
7
 70
0
 10
1.3254608601
 20
23.3149215052
 10
1.3251242402
 20
23.3304579264
 10
1.3247566271
 20
23.3435063183
 10
1.3243636318
 20
23.3538675489
 10
1.3239512532
 20
23.3613834844
 10
1.3235257862
 20
23.3659394152
 10
1.3230937251
 20
23.3674658203
  0
LWPOLYLINE
  5
3A9
100
AcDbEntity
  8
ASSI
100
AcDbPolyline
 62
250
  6
CONTINUOUS
 90
7
 70
0
 10
3.0363633609
 20
23.3149203871
 10
3.0360267416
 20
23.3304570276
 10
3.0356591271
 20
23.3435056768
 10
3.0352661287
 20
23.3538671526
 10
3.0348537455
 20
23.3613832915
 10
3.0344282723
 20
23.3659393629
 10
3.0339962037
 20
23.3674658203
  0
LINE
  5
3AA
100
AcDbEntity
  8
ASSI
100
AcDbLine
 62
250
  6
CONTINUOUS
 10
1.3260211171
 20
23.2773674419
 11
1.3254608601
 21
23.3149215052
  0
LINE
  5
3AB
100
AcDbEntity
  8
ASSI
100
AcDbLine
 62
250
  6
CONTINUOUS
 10
3.0369236116
 20
23.2773661309
 11
3.0363633609
 21
23.3149203871
  0
LINE
  5
3AC
100
AcDbEntity
  8
ASSI
100
AcDbLine
 62
250
  6
CONTINUOUS
 10
1.3264033166
 20
23.2331281254
 11
1.3260211171
 21
23.2773674419
  0
LINE
  5
3AD
100
AcDbEntity
  8
ASSI
100
AcDbLine
 62
250
  6
CONTINUOUS
 10
3.037305802
 20
23.233127157
 11
3.0369236116
 21
23.2773661309
  0
LINE
  5
3AE
100
AcDbEntity
  8
ASSI
100
AcDbLine
 62
250
  6
CONTINUOUS
 10
1.3265842057
 20
23.184894314
 11
1.3264033166
 21
23.2331281254
  0
LINE
  5
3AF
100
AcDbEntity
  8
ASSI
100
AcDbLine
 62
250
  6
CONTINUOUS
 10
3.037486685
 20
23.184894314
 11
3.037305802
 21
23.233127157
  0
LINE
  5
3B0
100
AcDbEntity
  8
CURVE
100
AcDbLine
 62
250
  6
CONTINUOUS
 10
1.9809565308
 20
12.6783858203
 11
1.9809565308
 21
13.6546518203
  0
LINE
  5
3B1
100
AcDbEntity
  8
CURVE
100
AcDbLine
 62
250
  6
CONTINUOUS
 10
2.0011572055
 20
-5.4626403291
 11
2.0011572055
 21
-5.8204744764
  0
LINE
  5
3B2
100
AcDbEntity
  8
CURVE
100
AcDbLine
 62
250
  6
CONTINUOUS
 10
2.2634290182
 20
13.6546518203
 11
2.2634290182
 21
12.6783858203
  0
LINE
  5
3B3
100
AcDbEntity
  8
CURVE
100
AcDbLine
 62
250
  6
CONTINUOUS
 10
2.4923881986
 20
-5.7997125379
 11
2.4923881986
 21
-5.4639899676
  0
LINE
  5
3B4
100
AcDbEntity
  8
CURVE
100
AcDbLine
 62
250
  6
CONTINUOUS
 10
2.6040620762
 20
-8.1539541797
 11
2.6040620762
 21
-7.5544671797
  0
LINE
  5
3B5
100
AcDbEntity
  8
CURVE
100
AcDbLine
 62
250
  6
CONTINUOUS
 10
2.62896018
 20
14.5852078203
 11
2.62896018
 21
15.4576148203
  0
LINE
  5
3B6
100
AcDbEntity
  8
ASSI
100
AcDbLine
 62
7
  6
CONTINUOUS
 10
2.6737913497
 20
21.8062020807
 11
2.6737913497
 21
21.4598129278
  0
LINE
  5
3B7
100
AcDbEntity
  8
RACCORDO
100
AcDbLine
 62
7
  6
CONTINUOUS
 10
2.6737913497
 20
-20.8690843149
 11
2.6737913497
 21
-21.2248812872
  0
LINE
  5
3B8
100
AcDbEntity
  8
ASSI
100
AcDbLine
 62
7
  6
CONTINUOUS
 10
2.6737913497
 20
-21.2248812872
 11
2.6737913497
 21
-21.57127044
  0
LINE
  5
3B9
100
AcDbEntity
  8
RACCORDO
100
AcDbLine
 62
7
  6
CONTINUOUS
 10
2.6737913497
 20
21.1040159555
 11
2.6737913497
 21
21.4598129278
  0
LINE
  5
3BA
100
AcDbEntity
  8
DRAFT
100
AcDbLine
 62
7
  6
CONTINUOUS
 10
2.7737913497
 20
-21.6011174556
 11
2.7737913497
 21
-20.8696437153
  0
LINE
  5
3BB
100
AcDbEntity
  8
ASSI
100
AcDbLine
 62
7
  6
CONTINUOUS
 10
2.7737913497
 20
-21.6011174556
 11
2.7737913497
 21
-20.8696437153
  0
LINE
  5
3BC
100
AcDbEntity
  8
DRAFT
100
AcDbLine
 62
7
  6
CONTINUOUS
 10
2.7737913497
 20
21.1045753559
 11
2.7737913497
 21
21.8360490963
  0
LINE
  5
3BD
100
AcDbEntity
  8
ASSI
100
AcDbLine
 62
7
  6
CONTINUOUS
 10
2.7737913497
 20
21.1045753559
 11
2.7737913497
 21
21.8360490963
  0
LINE
  5
3BE
100
AcDbEntity
  8
CURVE
100
AcDbLine
 62
250
  6
CONTINUOUS
 10
2.9114346672
 20
15.5407008203
 11
2.9114346672
 21
14.4979658203
  0
LINE
  5
3BF
100
AcDbEntity
  8
CURVE
100
AcDbLine
 62
250
  6
CONTINUOUS
 10
3.067402789
 20
-7.4293331797
 11
3.067402789
 21
-8.2820351797
  0
LINE
  5
3C0
100
AcDbEntity
  8
CURVE
100
AcDbLine
 62
250
  6
CONTINUOUS
 10
3.3891632843
 20
7.6249508203
 11
3.3891632843
 21
8.5679808203
  0
LINE
  5
3C1
100
AcDbEntity
  8
CURVE
100
AcDbLine
 62
250
  6
CONTINUOUS
 10
3.3891632843
 20
12.6783858203
 11
3.3891632843
 21
13.7377378203
  0
LINE
  5
3C2
100
AcDbEntity
  8
CURVE
100
AcDbLine
 62
250
  6
CONTINUOUS
 10
3.6661921862
 20
-6.6072011797
 11
3.6661921862
 21
-7.2671291797
  0
LINE
  5
3C3
100
AcDbEntity
  8
CURVE
100
AcDbLine
 62
250
  6
CONTINUOUS
 10
3.6661921862
 20
-8.4548111797
 11
3.6661921862
 21
-9.0741601797
  0
LINE
  5
3C4
100
AcDbEntity
  8
CURVE
100
AcDbLine
 62
250
  6
CONTINUOUS
 10
3.6661921862
 20
-9.1724811797
 11
3.6661921862
 21
-9.7850151797
  0
LINE
  5
3C5
100
AcDbEntity
  8
CURVE
100
AcDbLine
 62
250
  6
CONTINUOUS
 10
3.6661921862
 20
-10.6581411797
 11
3.6661921862
 21
-10.7459571797
  0
LINE
  5
3C6
100
AcDbEntity
  8
CURVE
100
AcDbLine
 62
250
  6
CONTINUOUS
 10
3.6661921862
 20
-11.6156191797
 11
3.6661921862
 21
-12.2146341797
  0
LINE
  5
3C7
100
AcDbEntity
  8
CURVE
100
AcDbLine
 62
250
  6
CONTINUOUS
 10
3.6661921862
 20
-14.3744151797
 11
3.6661921862
 21
-14.9262041797
  0
LINE
  5
3C8
100
AcDbEntity
  8
CURVE
100
AcDbLine
 62
250
  6
CONTINUOUS
 10
3.6661921862
 20
-13.1778481797
 11
3.6661921862
 21
-12.5517061797
  0
LINE
  5
3C9
100
AcDbEntity
  8
CURVE
100
AcDbLine
 62
250
  6
CONTINUOUS
 10
3.6661918543
 20
-6.4233354887
 11
3.6661918543
 21
-5.7997125379
  0
LINE
  5
3CA
100
AcDbEntity
  8
CURVE
100
AcDbLine
 62
250
  6
CONTINUOUS
 10
3.6661918543
 20
-4.8408618843
 11
3.6661918543
 21
-4.2385857154
  0
LINE
  5
3CB
100
AcDbEntity
  8
CURVE
100
AcDbLine
 62
250
  6
CONTINUOUS
 10
3.6716287722
 20
9.3355808203
 11
3.6716287722
 21
8.9824638203
  0
LINE
  5
3CC
100
AcDbEntity
  8
CURVE
100
AcDbLine
 62
250
  6
CONTINUOUS
 10
3.6716347717
 20
13.7377378203
 11
3.6716347717
 21
12.3252698203
  0
LINE
  5
3CD
100
AcDbEntity
  8
CURVE
100
AcDbLine
 62
250
  6
CONTINUOUS
 10
3.6716347717
 20
11.7755578203
 11
3.6716347717
 21
11.2271598203
  0
LINE
  5
3CE
100
AcDbEntity
  8
CURVE
100
AcDbLine
 62
250
  6
CONTINUOUS
 10
3.6716347717
 20
10.2176618203
 11
3.6716347717
 21
9.8894698203
  0
LINE
  5
3CF
100
AcDbEntity
  8
CURVE
100
AcDbLine
 62
250
  6
CONTINUOUS
 10
3.6716347717
 20
8.5679808203
 11
3.6716347717
 21
7.2718338203
  0
LINE
  5
3D0
100
AcDbEntity
  8
CURVE
100
AcDbLine
 62
250
  6
CONTINUOUS
 10
3.671643771
 20
16.1181508203
 11
3.671643771
 21
15.7525428203
  0
LINE
  5
3D1
100
AcDbEntity
  8
CURVE
100
AcDbLine
 62
250
  6
CONTINUOUS
 10
3.671643771
 20
14.2860938203
 11
3.671643771
 21
13.9329788203
  0
LINE
  5
3D2
100
AcDbEntity
  8
ASSI
100
AcDbLine
 62
250
  6
CONTINUOUS
 10
1.3264033169
 20
-22.9981964382
 11
1.3265842057
 21
-22.9499626734
  0
LINE
  5
3D3
100
AcDbEntity
  8
ASSI
100
AcDbLine
 62
250
  6
CONTINUOUS
 10
3.0374866847
 20
-22.9499626734
 11
3.0373058017
 21
-22.9981955126
  0
LINE
  5
3D4
100
AcDbEntity
  8
ASSI
100
AcDbLine
 62
250
  6
CONTINUOUS
 10
1.3260211178
 20
-23.0424357383
 11
1.3264033169
 21
-22.9981964382
  0
LINE
  5
3D5
100
AcDbEntity
  8
ASSI
100
AcDbLine
 62
250
  6
CONTINUOUS
 10
3.0373058017
 20
-22.9981955126
 11
3.0369236113
 21
-23.0424344862
  0
LWPOLYLINE
  5
3D6
100
AcDbEntity
  8
CURVE
100
AcDbPolyline
 62
250
  6
CONTINUOUS
 90
46
 70
0
 10
2.4923881986
 20
-5.4639899676
 10
2.4925060712
 20
-5.4543578193
 10
2.4928622124
 20
-5.4447173403
 10
2.4934604072
 20
-5.4350778219
 10
2.4943044406
 20
-5.4254485551
 10
2.4953980976
 20
-5.415838831
 10
2.4967451634
 20
-5.4062579406
 10
2.4983494229
 20
-5.396715175
 10
2.5002146612
 20
-5.3872198253
 10
2.5023446633
 20
-5.3777811825
 10
2.5047432142
 20
-5.3684085378
 10
2.507414099
 20
-5.3591111823
 10
2.5103611028
 20
-5.3498984069
 10
2.5135932027
 20
-5.3407607109
 10
2.5171003698
 20
-5.3317240675
 10
2.5208766323
 20
-5.3227952775
 10
2.5249160184
 20
-5.3139811415
 10
2.5292125565
 20
-5.3052884603
 10
2.5337602747
 20
-5.2967240346
 10
2.5385532012
 20
-5.2882946651
 10
2.5435853645
 20
-5.2800071526
 10
2.5488507926
 20
-5.2718682977
 10
2.5543435138
 20
-5.2638849012
 10
2.5600575565
 20
-5.2560637638
 10
2.5659869487
 20
-5.2484116862
 10
2.5728129436
 20
-5.2401224015
 10
2.5798856869
 20
-5.2320484181
 10
2.5871939567
 20
-5.2241883629
 10
2.594726531
 20
-5.2165408631
 10
2.602472188
 20
-5.2091045456
 10
2.6104197058
 20
-5.2018780376
 10
2.6185578624
 20
-5.1948599659
 10
2.626875436
 20
-5.1880489577
 10
2.6353612046
 20
-5.18144364
 10
2.6440039464
 20
-5.1750426398
 10
2.6527924395
 20
-5.1688445841
 10
2.6625664245
 20
-5.1622926733
 10
2.672494823
 20
-5.1559850561
 10
2.6825708964
 20
-5.1499245648
 10
2.6927879063
 20
-5.1441140313
 10
2.7031391141
 20
-5.1385562878
 10
2.7136177813
 20
-5.1332541663
 10
2.7242171692
 20
-5.128210499
 10
2.7349305394
 20
-5.1234281179
 10
2.7457511533
 20
-5.1189098551
 10
2.7566722723
 20
-5.1146585427
  0
LWPOLYLINE
  5
3D7
100
AcDbEntity
  8
ASSI
100
AcDbPolyline
 62
250
  6
CONTINUOUS
 90
8
 70
0
 10
3.0369236113
 20
-23.0424344862
 10
3.0363633605
 20
-23.0799887443
 10
3.0360267412
 20
-23.0955253854
 10
3.0356591267
 20
-23.1085740351
 10
3.0352661283
 20
-23.1189355114
 10
3.034853745
 20
-23.1264516507
 10
3.0344282717
 20
-23.1310077222
 10
3.0339962031
 20
-23.1325341797
  0
LINE
  5
3D8
100
AcDbEntity
  8
ASSI
100
AcDbLine
 62
250
  6
CONTINUOUS
 10
4.1207449783
 20
22.7841472383
 11
4.1320605244
 21
23.1674658203
  0
LINE
  5
3D9
100
AcDbEntity
  8
ASSI
100
AcDbLine
 62
250
  6
CONTINUOUS
 10
3.2347799152
 20
-22.554660803
 11
3.2228090898
 21
-22.9325341797
  0
LINE
  5
3DA
100
AcDbEntity
  8
ASSI
100
AcDbLine
 62
250
  6
CONTINUOUS
 10
4.1086134964
 20
22.4240862055
 11
4.1207449783
 21
22.7841472383
  0
LINE
  5
3DB
100
AcDbEntity
  8
ASSI
100
AcDbLine
 62
250
  6
CONTINUOUS
 10
3.2475136555
 20
-22.1988987157
 11
3.2347799152
 21
-22.554660803
  0
LINE
  5
3DC
100
AcDbEntity
  8
ASSI
100
AcDbLine
 62
250
  6
CONTINUOUS
 10
4.0959026103
 20
22.0890939181
 11
4.1086134964
 21
22.4240862055
  0
LINE
  5
3DD
100
AcDbEntity
  8
ASSI
100
AcDbLine
 62
250
  6
CONTINUOUS
 10
3.2563252595
 20
-21.9746891374
 11
3.2475136555
 21
-22.1988987157
  0
LINE
  5
3DE
100
AcDbEntity
  8
ASSI
100
AcDbLine
 62
250
  6
CONTINUOUS
 10
4.3015769069
 20
22.8950529581
 11
4.313209936
 21
23.184894314
  0
LINE
  5
3DF
100
AcDbEntity
  8
ASSI
100
AcDbLine
 62
250
  6
CONTINUOUS
 10
4.0847918441
 20
21.8246081683
 11
4.0959026103
 21
22.0890939181
  0
LINE
  5
3E0
100
AcDbEntity
  8
ASSI
100
AcDbLine
 62
250
  6
CONTINUOUS
 10
3.0497836002
 20
-22.6650532849
 11
3.0374866846
 21
-22.9499626734
  0
LINE
  5
3E1
100
AcDbEntity
  8
ASSI
100
AcDbLine
 62
250
  6
CONTINUOUS
 10
4.2907677953
 20
22.6500809946
 11
4.3015769069
 21
22.8950529581
  0
LWPOLYLINE
  5
3E2
100
AcDbEntity
  8
ASSI
100
AcDbPolyline
 62
250
  6
CONTINUOUS
 90
16
 70
0
 10
3.2228090897
 20
23.1674658203
 10
3.2237973009
 20
23.1883715134
 10
3.2267511075
 20
23.209048159
 10
3.231638147
 20
23.2292692194
 10
3.2384048756
 20
23.2488131485
 10
3.2469771557
 20
23.267465819
 10
3.2572610677
 20
23.2850228686
 10
3.2691439388
 20
23.3012919387
 10
3.2824955778
 20
23.316094782
 10
3.2971697017
 20
23.3292692156
 10
3.3130055375
 20
23.3406708976
 10
3.3298295848
 20
23.3501749088
 10
3.3474575163
 20
23.3576771214
 10
3.365696197
 20
23.3630953393
 10
3.3843458
 20
23.366370199
 10
3.4032019963
 20
23.3674658203
  0
LINE
  5
3E3
100
AcDbEntity
  8
ASSI
100
AcDbLine
 62
250
  6
CONTINUOUS
 10
3.0611121126
 20
-22.4244339359
 11
3.0497836002
 21
-22.6650532849
  0
LINE
  5
3E4
100
AcDbEntity
  8
ASSI
100
AcDbLine
 62
250
  6
CONTINUOUS
 10
4.2794855281
 20
22.415313609
 11
4.2907677953
 21
22.6500809946
  0
LINE
  5
3E5
100
AcDbEntity
  8
ASSI
100
AcDbLine
 62
250
  6
CONTINUOUS
 10
4.2678417874
 20
22.1913470393
 11
4.2794855281
 21
22.415313609
  0
LINE
  5
3E6
100
AcDbEntity
  8
ASSI
100
AcDbLine
 62
250
  6
CONTINUOUS
 10
4.2559898318
 20
21.9790877684
 11
4.2678417874
 21
22.1913470393
  0
LINE
  5
3E7
100
AcDbEntity
  8
ASSI
100
AcDbLine
 62
250
  6
CONTINUOUS
 10
4.2466876968
 20
21.8231953246
 11
4.2559898318
 21
21.9790877684
  0
LWPOLYLINE
  5
3E8
100
AcDbEntity
  8
ASSI
100
AcDbPolyline
 62
250
  6
CONTINUOUS
 90
3
 70
0
 10
-0.3466988613
 20
-21.6540428666
 10
-0.3535839094
 20
-21.7426110581
 10
-0.3673818679
 20
-21.9291022056
  0
LWPOLYLINE
  5
3E9
100
AcDbEntity
  8
CURVE
100
AcDbPolyline
 62
250
  6
CONTINUOUS
 90
49
 70
0
 10
1.1601040678
 20
-5.3299483732
 10
1.1615866622
 20
-5.3185024323
 10
1.163377414
 20
-5.3070557777
 10
1.1654755064
 20
-5.2956209482
 10
1.1678801223
 20
-5.284210483
 10
1.1705904449
 20
-5.2728369207
 10
1.1736056572
 20
-5.2615128006
 10
1.1769249422
 20
-5.2502506614
 10
1.180547483
 20
-5.2390630422
 10
1.1844724627
 20
-5.2279624818
 10
1.1886990643
 20
-5.2169615192
 10
1.1932264708
 20
-5.2060726935
 10
1.1980538654
 20
-5.1953085434
 10
1.2031804311
 20
-5.184681608
 10
1.2086053509
 20
-5.1742044263
 10
1.2143278078
 20
-5.1638895371
 10
1.220346985
 20
-5.1537494794
 10
1.2266620655
 20
-5.1437967921
 10
1.2332722324
 20
-5.1340440143
 10
1.2401766686
 20
-5.1245036848
 10
1.2473745573
 20
-5.1151883426
 10
1.2548650815
 20
-5.1061105267
 10
1.2626474243
 20
-5.0972827759
 10
1.2707207687
 20
-5.0887176293
 10
1.2790842977
 20
-5.0804276258
 10
1.2877326257
 20
-5.0724260009
 10
1.2966565028
 20
-5.0647155983
 10
1.30584227
 20
-5.0573001173
 10
1.3152762684
 20
-5.050183257
 10
1.3249448392
 20
-5.0433687166
 10
1.3348343234
 20
-5.0368601953
 10
1.3449310621
 20
-5.0306613922
 10
1.3552213964
 20
-5.0247760065
 10
1.3656916674
 20
-5.0192077373
 10
1.3763282161
 20
-5.0139602839
 10
1.3871173836
 20
-5.0090373453
 10
1.398045511
 20
-5.0044426207
 10
1.4090989395
 20
-5.0001798094
 10
1.42026401
 20
-4.9962526104
 10
1.4315270637
 20
-4.992664723
 10
1.4428744417
 20
-4.9894198462
 10
1.454292485
 20
-4.9865216794
 10
1.4657675347
 20
-4.9839739215
 10
1.4772859319
 20
-4.9817802719
 10
1.4888340178
 20
-4.9799444296
 10
1.5003981332
 20
-4.9784700938
 10
1.5119646195
 20
-4.9773609637
 10
1.5235198176
 20
-4.9766207384
 10
1.5350500686
 20
-4.9762531172
  0
LINE
  5
3EA
100
AcDbEntity
  8
ASSI
100
AcDbLine
 62
7
  6
CONTINUOUS
 10
-5.9864888827
 20
-24.2842979887
 11
-5.8743848474
 21
-23.8659200334
  0
LINE
  5
3EB
100
AcDbEntity
  8
ASSI
100
AcDbLine
 62
250
  6
CONTINUOUS
 10
7.6380758814
 20
22.7062883811
 11
7.6088108491
 21
22.5981096109
  0
LWPOLYLINE
  5
3EC
100
AcDbEntity
  8
RACCORDO
100
AcDbPolyline
 62
250
  6
CONTINUOUS
 90
8
 70
0
 10
-5.5227181691
 20
-22.5859642661
 10
-5.522372611
 20
-22.5848628789
 10
-5.5220690647
 20
-22.5815835101
 10
-5.5218108548
 20
-22.576162075
 10
-5.521600809
 20
-22.5686579496
 10
-5.5214412278
 20
-22.5591533175
 10
-5.5213338588
 20
-22.5477522669
 10
-5.5212798766
 20
-22.519779769
  0
LWPOLYLINE
  5
3ED
100
AcDbEntity
  8
CURVE
100
AcDbPolyline
 62
250
  6
CONTINUOUS
 90
30
 70
0
 10
0.7334033732
 20
-4.8781119062
 10
0.7218658698
 20
-4.9115337129
 10
0.7112524569
 20
-4.9452653029
 10
0.7015191776
 20
-4.9792779465
 10
0.6926220753
 20
-5.0135429142
 10
0.6845171932
 20
-5.0480314763
 10
0.6771605746
 20
-5.0827149034
 10
0.6705082626
 20
-5.1175644657
 10
0.6645163005
 20
-5.1525514337
 10
0.6591407315
 20
-5.1876470779
 10
0.654337599
 20
-5.2228226686
 10
0.650062946
 20
-5.2580494762
 10
0.6443128114
 20
-5.3136038086
 10
0.6397070997
 20
-5.3692053594
 10
0.6361874311
 20
-5.4248455234
 10
0.633695426
 20
-5.4805156954
 10
0.6321727049
 20
-5.53620727
 10
0.6315608882
 20
-5.5919116421
 10
0.6318015963
 20
-5.6476202064
 10
0.633086501
 20
-5.7125555945
 10
0.6353934901
 20
-5.7774720988
 10
0.6386654534
 20
-5.8423568324
 10
0.6428452807
 20
-5.9071969085
 10
0.6478758618
 20
-5.9719794402
 10
0.6537000868
 20
-6.0366915408
 10
0.6616528168
 20
-6.1142281482
 10
0.670553714
 20
-6.1916528306
 10
0.6802906613
 20
-6.2689736041
 10
0.6907515416
 20
-6.3461984847
 10
0.7018242379
 20
-6.4233354887
  0
LINE
  5
3EE
100
AcDbEntity
  8
CURVE
100
AcDbLine
 62
7
  6
CONTINUOUS
 10
0.7361710513
 20
8.9824638203
 11
1.0892880513
 21
9.3355808203
  0
LINE
  5
3EF
100
AcDbEntity
  8
CURVE
100
AcDbLine
 62
7
  6
CONTINUOUS
 10
1.6431770513
 20
9.8894698203
 11
1.9713690513
 21
10.2176618203
  0
LINE
  5
3F0
100
AcDbEntity
  8
CURVE
100
AcDbLine
 62
7
  6
CONTINUOUS
 10
2.5683938203
 20
10.8146865894
 11
3.1011186792
 21
11.3474114482
  0
LINE
  5
3F1
100
AcDbEntity
  8
CURVE
100
AcDbLine
 62
7
  6
CONTINUOUS
 10
3.2010460513
 20
11.4473388203
 11
3.5292650513
 21
11.7755578203
  0
LINE
  5
3F2
100
AcDbEntity
  8
CURVE
100
AcDbLine
 62
7
  6
CONTINUOUS
 10
1.1561924793
 20
8.9824638203
 11
1.5093094793
 21
9.3355808203
  0
LINE
  5
3F3
100
AcDbEntity
  8
CURVE
100
AcDbLine
 62
7
  6
CONTINUOUS
 10
2.0631984793
 20
9.8894698203
 11
2.3913904793
 21
10.2176618203
  0
LINE
  5
3F4
100
AcDbEntity
  8
CURVE
100
AcDbLine
 62
7
  6
CONTINUOUS
 10
3.2392196655
 20
11.0654910065
 11
3.6716347717
 21
11.4979061127
  0
LINE
  5
3F5
100
AcDbEntity
  8
CURVE
100
AcDbLine
 62
7
  6
CONTINUOUS
 10
1.5762139073
 20
8.9824638203
 11
1.9293309073
 21
9.3355808203
  0
LINE
  5
3F6
100
AcDbEntity
  8
CURVE
100
AcDbLine
 62
7
  6
CONTINUOUS
 10
2.4832199073
 20
9.8894698203
 11
2.8114119073
 21
10.2176618203
  0
LINE
  5
3F7
100
AcDbEntity
  8
CURVE
100
AcDbLine
 62
250
  6
CONTINUOUS
 10
6.3880770512
 20
13.5460370445
 11
6.6737913497
 21
13.8317516708
  0
LINE
  5
3F8
100
AcDbEntity
  8
CURVE
100
AcDbLine
 62
250
  6
CONTINUOUS
 10
5.5309341557
 20
12.6888943577
 11
5.816648484
 21
12.9746087456
  0
LINE
  5
3F9
100
AcDbEntity
  8
CURVE
100
AcDbLine
 62
7
  6
CONTINUOUS
 10
1.9962353354
 20
8.9824638203
 11
2.3493523354
 21
9.3355808203
  0
LINE
  5
3FA
100
AcDbEntity
  8
CURVE
100
AcDbLine
 62
7
  6
CONTINUOUS
 10
2.9032413354
 20
9.8894698203
 11
3.2314333354
 21
10.2176618203
  0
LINE
  5
3FB
100
AcDbEntity
  8
CURVE
100
AcDbLine
 62
7
  6
CONTINUOUS
 10
0.7056267634
 20
7.2718338203
 11
1.0587437634
 21
7.6249508203
  0
LINE
  5
3FC
100
AcDbEntity
  8
CURVE
100
AcDbLine
 62
7
  6
CONTINUOUS
 10
2.4162567634
 20
8.9824638203
 11
2.7693737634
 21
9.3355808203
  0
LINE
  5
3FD
100
AcDbEntity
  8
CURVE
100
AcDbLine
 62
7
  6
CONTINUOUS
 10
3.3232627634
 20
9.8894698203
 11
3.6514547634
 21
10.2176618203
  0
LINE
  5
3FE
100
AcDbEntity
  8
CURVE
100
AcDbLine
 62
250
  6
CONTINUOUS
 10
4.9595056183
 20
11.4031802082
 11
4.6737913497
 21
11.1174658203
  0
LINE
  5
3FF
100
AcDbEntity
  8
CURVE
100
AcDbLine
 62
7
  6
CONTINUOUS
 10
1.1256481914
 20
7.2718338203
 11
1.4787651914
 21
7.6249508203
  0
LINE
  5
400
100
AcDbEntity
  8
CURVE
100
AcDbLine
 62
7
  6
CONTINUOUS
 10
2.8362781914
 20
8.9824638203
 11
3.1893951914
 21
9.3355808203
  0
LINE
  5
401
100
AcDbEntity
  8
CURVE
100
AcDbLine
 62
7
  6
CONTINUOUS
 10
1.5456696194
 20
7.2718338203
 11
1.8987866194
 21
7.6249508203
  0
LINE
  5
402
100
AcDbEntity
  8
CURVE
100
AcDbLine
 62
7
  6
CONTINUOUS
 10
3.2562996194
 20
8.9824638203
 11
3.6094166194
 21
9.3355808203
  0
LINE
  5
403
100
AcDbEntity
  8
CURVE
100
AcDbLine
 62
7
  6
CONTINUOUS
 10
1.9656910475
 20
7.2718338203
 11
2.3188080475
 21
7.6249508203
  0
LINE
  5
404
100
AcDbEntity
  8
CURVE
100
AcDbLine
 62
7
  6
CONTINUOUS
 10
2.3857124755
 20
7.2718338203
 11
2.7388294755
 21
7.6249508203
  0
LINE
  5
405
100
AcDbEntity
  8
CURVE
100
AcDbLine
 62
7
  6
CONTINUOUS
 10
3.3891632843
 20
8.2752846291
 11
3.6716347717
 21
8.5577561166
  0
LINE
  5
406
100
AcDbEntity
  8
CURVE
100
AcDbLine
 62
7
  6
CONTINUOUS
 10
2.8057339035
 20
7.2718338203
 11
3.1588509035
 21
7.6249508203
  0
LINE
  5
407
100
AcDbEntity
  8
CURVE
100
AcDbLine
 62
7
  6
CONTINUOUS
 10
3.3891632843
 20
7.8552632011
 11
3.6716347717
 21
8.1377346885
  0
LINE
  5
408
100
AcDbEntity
  8
CURVE
100
AcDbLine
 62
250
  6
CONTINUOUS
 10
6.3880770512
 20
10.6888943577
 11
6.6737913497
 21
10.9746086264
  0
LINE
  5
409
100
AcDbEntity
  8
CURVE
100
AcDbLine
 62
250
  6
CONTINUOUS
 10
4.6737913497
 20
12.6888943577
 11
4.9595056183
 21
12.9269896412
  0
LINE
  5
40A
100
AcDbEntity
  8
CURVE
100
AcDbLine
 62
250
  6
CONTINUOUS
 10
4.6737913497
 20
14.2603228951
 11
4.9595056183
 21
14.4507993126
  0
LINE
  5
40B
100
AcDbEntity
  8
CURVE
100
AcDbLine
 62
250
  6
CONTINUOUS
 10
0.6682725025
 20
15.2498988203
 11
3.671643771
 21
16.1181508203
  0
LWPOLYLINE
  5
40C
100
AcDbEntity
  8
ASSI
100
AcDbPolyline
 62
250
  6
CONTINUOUS
 90
10
 70
0
 10
0.7811644301
 20
-22.9151056861
 10
0.7580423278
 20
-22.9163942482
 10
0.7352788273
 20
-22.9179002955
 10
0.7131806663
 20
-22.9196035341
 10
0.6920456171
 20
-22.921481013
 10
0.6721584745
 20
-22.9235074333
 10
0.6537872181
 20
-22.9256554889
 10
0.6371794007
 20
-22.9278962348
 10
0.6225588127
 20
-22.9301994771
 10
0.6101224669
 20
-22.9325341797
  0
LINE
  5
40D
100
AcDbEntity
  8
0
100
AcDbLine
 62
7
  6
CONTINUOUS
 10
-6.4445891271
 20
-22.8411460169
 11
-5.3262086503
 21
-22.7825341797
  0
LWPOLYLINE
  5
40E
100
AcDbEntity
  8
ASSI
100
AcDbPolyline
 62
250
  6
CONTINUOUS
 90
10
 70
0
 10
4.311877162
 20
-22.9151057077
 10
4.2867239692
 20
-22.9162445842
 10
4.2620274716
 20
-22.9176431785
 10
4.238181425
 20
-22.9192791916
 10
4.2155660255
 20
-22.9211265395
 10
4.1945418486
 20
-22.9231557684
 10
4.1754440999
 20
-22.9253345248
 10
4.1585772704
 20
-22.927628071
 10
4.1442102814
 20
-22.9299998393
 10
4.1325721978
 20
-22.9324120147
  0
LINE
  5
40F
100
AcDbEntity
  8
RACCORDO
100
AcDbLine
 62
250
  6
CONTINUOUS
 10
-3.8296991316
 20
-21.4352095698
 11
1.3615755955
 21
-21.2480801294
  0
LINE
  5
410
100
AcDbEntity
  8
RACCORDO
100
AcDbLine
 62
7
  6
CONTINUOUS
 10
-3.8331885497
 20
-21.7757937692
 11
1.3737913497
 21
-21.5939620244
  0
LINE
  5
411
100
AcDbEntity
  8
ASSI
100
AcDbLine
 62
7
  6
CONTINUOUS
 10
0.5520066051
 20
-21.6226593801
 11
-3.8331885497
 21
-21.7757937693
  0
LINE
  5
412
100
AcDbEntity
  8
ASSI
100
AcDbLine
 62
250
  6
CONTINUOUS
 10
1.3615755955
 20
-21.2480801294
 11
2.6737913497
 21
-21.2248812872
  0
LINE
  5
413
100
AcDbEntity
  8
RACCORDO
100
AcDbLine
 62
7
  6
CONTINUOUS
 10
-5.5227181691
 20
-22.5859642661
 11
-6.1598518288
 21
-22.5970854755
  0
LINE
  5
414
100
AcDbEntity
  8
RACCORDO
100
AcDbLine
 62
250
  6
CONTINUOUS
 10
-5.9217043401
 20
-22.3929590566
 11
-5.5227181691
 21
-22.3859947271
  0
LINE
  5
415
100
AcDbEntity
  8
DRAFT
100
AcDbLine
 62
7
  6
CONTINUOUS
 10
-6.8262086503
 20
-21.9087167771
 11
-5.3262086503
 21
-21.8825341797
  0
LINE
  5
416
100
AcDbEntity
  8
ASSI
100
AcDbLine
 62
7
  6
CONTINUOUS
 10
9.1737913497
 20
-21.457812518
 11
7.4725242353
 21
-21.4875082459
  0
LINE
  5
417
100
AcDbEntity
  8
ASSI
100
AcDbLine
 62
7
  6
CONTINUOUS
 10
1.3737913497
 20
-21.5939620244
 11
2.7732400681
 21
-21.5695345562
  0
LINE
  5
418
100
AcDbEntity
  8
ASSI
100
AcDbLine
 62
250
  6
CONTINUOUS
 10
8.5697454667
 20
-21.2183942543
 11
7.5042882952
 21
-21.2369918784
  0
LINE
  5
419
100
AcDbEntity
  8
ASSI
100
AcDbLine
 62
250
  6
CONTINUOUS
 10
2.7737913497
 20
-21.3195630097
 11
2.6737913497
 21
-21.3213085162
  0
LWPOLYLINE
  5
41A
100
AcDbEntity
  8
ASSI
100
AcDbPolyline
 62
250
  6
CONTINUOUS
 90
13
 70
0
 10
1.3265842057
 20
-22.9499626734
 10
1.2768628678
 20
-22.9507678823
 10
1.2277241817
 20
-22.9529071504
 10
1.1791681477
 20
-22.9563804777
 10
1.131251299
 20
-22.9612066083
 10
1.0839171022
 20
-22.9673667981
 10
1.0369959568
 20
-22.9748048152
 10
0.9904985492
 20
-22.9834906094
 10
0.944414193
 20
-22.9934542309
 10
0.8985412281
 20
-23.0047295984
 10
0.8528124347
 20
-23.017328018
 10
0.8072950326
 20
-23.0312381835
 10
0.7619890218
 20
-23.046460095
  0
LINE
  5
41B
100
AcDbEntity
  8
RACCORDO
100
AcDbLine
 62
250
  6
CONTINUOUS
 10
2.6737913497
 20
-20.9422771377
 11
2.7748335022
 21
-20.94079722
  0
LINE
  5
41C
100
AcDbEntity
  8
RACCORDO
100
AcDbLine
 62
250
  6
CONTINUOUS
 10
7.6146395713
 20
-20.8699108138
 11
8.5697454667
 21
-20.8559218185
  0
LINE
  5
41D
100
AcDbEntity
  8
RACCORDO
100
AcDbLine
 62
250
  6
CONTINUOUS
 10
7.7365900994
 20
-20.6219602202
 11
8.2665611249
 21
-20.6141979792
  0
LINE
  5
41E
100
AcDbEntity
  8
RACCORDO
100
AcDbLine
 62
250
  6
CONTINUOUS
 10
7.7891800096
 20
-20.5353386423
 11
7.8276203715
 21
-20.5347756241
  0
LWPOLYLINE
  5
41F
100
AcDbEntity
  8
ASSI
100
AcDbPolyline
 62
250
  6
CONTINUOUS
 90
16
 70
0
 10
0.2675540211
 20
-23.1320219836
 10
0.2957418041
 20
-23.1316681735
 10
0.3221494572
 20
-23.1310866547
 10
0.3466164468
 20
-23.1302547761
 10
0.3690553638
 20
-23.1291224109
 10
0.3897643709
 20
-23.1276141745
 10
0.4090226571
 20
-23.1257277269
 10
0.4267334349
 20
-23.1234590649
 10
0.4430998023
 20
-23.1207331959
 10
0.4587627483
 20
-23.1174531902
 10
0.4737312598
 20
-23.1136067236
 10
0.4880032157
 20
-23.1090899523
 10
0.5021450108
 20
-23.1035840666
 10
0.5162864843
 20
-23.0968607502
 10
0.5301332275
 20
-23.0888611787
 10
0.5435499339
 20
-23.079453418
  0
LWPOLYLINE
  5
420
100
AcDbEntity
  8
ASSI
100
AcDbPolyline
 62
250
  6
CONTINUOUS
 90
13
 70
0
 10
5.3794047746
 20
-22.9499626734
 10
5.3855300607
 20
-22.9499032114
 10
5.3916785445
 20
-22.9497140131
 10
5.397850226
 20
-22.9493950787
 10
5.404019078
 20
-22.9489536138
 10
5.4102111278
 20
-22.9483824127
 10
5.4165044566
 20
-22.9476598578
 10
5.4229064606
 20
-22.9467921668
 10
5.4294097438
 20
-22.9457731221
 10
5.4360701988
 20
-22.9445624522
 10
5.4429064567
 20
-22.9431467336
 10
5.4498998865
 20
-22.94153939
 10
5.4570504881
 20
-22.9397404213
  0
LINE
  5
421
100
AcDbEntity
  8
DRAFT
100
AcDbLine
 62
7
  6
CONTINUOUS
 10
7.4737913497
 20
-21.560101177
 11
2.7737913497
 21
-21.6011174556
  0
LINE
  5
422
100
AcDbEntity
  8
ASSI
100
AcDbLine
 62
7
  6
CONTINUOUS
 10
7.4737913497
 20
-21.560101177
 11
2.7737913497
 21
-21.6011174556
  0
LINE
  5
423
100
AcDbEntity
  8
RACCORDO
100
AcDbLine
 62
250
  6
CONTINUOUS
 10
-5.3262086503
 20
-21.1693123202
 11
-4.2227181691
 21
-21.160759716
  0
LINE
  5
424
100
AcDbEntity
  8
RACCORDO
100
AcDbLine
 62
250
  6
CONTINUOUS
 10
-5.3262086503
 20
-21.020994827
 11
-4.2227181691
 21
-21.0124022576
  0
LINE
  5
425
100
AcDbEntity
  8
RACCORDO
100
AcDbLine
 62
250
  6
CONTINUOUS
 10
2.6737913497
 20
-21.0737032983
 11
-0.8262086503
 21
-21.0759473556
  0
LINE
  5
426
100
AcDbEntity
  8
ASSI
100
AcDbLine
 62
250
  6
CONTINUOUS
 10
-4.0262086503
 20
-22.6377135081
 11
-4.222718169
 21
-22.6377135079
  0
LINE
  5
427
100
AcDbEntity
  8
RACCORDO
100
AcDbLine
 62
250
  6
CONTINUOUS
 10
-5.3262086503
 20
-22.3859947271
 11
-5.5227181691
 21
-22.3859947271
  0
LINE
  5
428
100
AcDbEntity
  8
DRAFT
100
AcDbLine
 62
7
  6
CONTINUOUS
 10
2.7737913497
 20
-20.8696437153
 11
-0.8262086503
 21
-20.8495053015
  0
LINE
  5
429
100
AcDbEntity
  8
ASSI
100
AcDbLine
 62
7
  6
CONTINUOUS
 10
2.7737913497
 20
-20.8696437153
 11
-0.8262086503
 21
-20.8495053015
  0
LWPOLYLINE
  5
42A
100
AcDbEntity
  8
ASSI
100
AcDbPolyline
 62
7
  6
CONTINUOUS
 90
28
 70
0
 10
9.1737913497
 20
-21.4569298006
 10
9.1349255301
 20
-21.4567061752
 10
9.0973376235
 20
-21.4560865607
 10
9.0610265819
 20
-21.4550295697
 10
9.0260146429
 20
-21.4534876603
 10
8.9922772094
 20
-21.4514218166
 10
8.9597430406
 20
-21.4488104755
 10
8.9283927863
 20
-21.445622636
 10
8.8982434486
 20
-21.441821649
 10
8.8692785239
 20
-21.4373910647
 10
8.8415184314
 20
-21.4323184154
 10
8.8149404518
 20
-21.4265678427
 10
8.7894632625
 20
-21.4200886351
 10
8.7650948371
 20
-21.4128876131
 10
8.7418244773
 20
-21.4049137624
 10
8.719541802
 20
-21.3960014183
 10
8.6980546204
 20
-21.3860545173
 10
8.677550178
 20
-21.3750891212
 10
8.658486485
 20
-21.363094578
 10
8.6408354739
 20
-21.3500053297
 10
8.62462061
 20
-21.3358681657
 10
8.6103784628
 20
-21.3208821628
 10
8.5982013708
 20
-21.3050925292
 10
8.5879954332
 20
-21.2885482145
 10
8.5800200965
 20
-21.27150372
 10
8.5743627174
 20
-21.254104512
 10
8.5709375238
 20
-21.2363718494
 10
8.5697454667
 20
-21.2183942543
  0
LWPOLYLINE
  5
42B
100
AcDbEntity
  8
RACCORDO
100
AcDbPolyline
 62
250
  6
CONTINUOUS
 90
22
 70
0
 10
-4.2227181691
 20
-21.0124022576
 10
-4.1978119373
 20
-21.0127310264
 10
-4.1726276747
 20
-21.0146964706
 10
-4.1471653813
 20
-21.0182978593
 10
-4.1211962095
 20
-21.0234940318
 10
-4.0949490068
 20
-21.0303233075
 10
-4.0691103161
 20
-21.0389033352
 10
-4.0437119632
 20
-21.049292405
 10
-4.0187221222
 20
-21.0614260045
 10
-3.9947318582
 20
-21.0752368136
 10
-3.9717685834
 20
-21.0907637857
 10
-3.9498048855
 20
-21.1079589757
 10
-3.9293495922
 20
-21.1266247883
 10
-3.9104413353
 20
-21.1467405376
 10
-3.893041483
 20
-21.1683166749
 10
-3.8775429686
 20
-21.1912029747
 10
-3.8639125739
 20
-21.2153393568
 10
-3.8521835171
 20
-21.2407749152
 10
-3.8428483857
 20
-21.2675232811
 10
-3.8360713755
 20
-21.295584612
 10
-3.8316882909
 20
-21.3249456326
 10
-3.8296991316
 20
-21.3555993027
  0
LWPOLYLINE
  5
42C
100
AcDbEntity
  8
RACCORDO
100
AcDbPolyline
 62
250
  6
CONTINUOUS
 90
22
 70
0
 10
-4.2227181691
 20
-21.1607599838
 10
-4.2103753313
 20
-21.1610981441
 10
-4.197764623
 20
-21.1630814764
 10
-4.1849438371
 20
-21.1667099806
 10
-4.1719396405
 20
-21.1719454939
 10
-4.1588663999
 20
-21.1788261791
 10
-4.1459177784
 20
-21.1874665246
 10
-4.1331912756
 20
-21.1979298506
 10
-4.1207500195
 20
-21.2101528369
 10
-4.1087281089
 20
-21.2240600108
 10
-4.0972160493
 20
-21.2396955497
 10
-4.0862855688
 20
-21.2570152762
 10
-4.0760339973
 20
-21.2758111857
 10
-4.0665612146
 20
-21.296068184
 10
-4.0579163453
 20
-21.3178013653
 10
-4.0501309452
 20
-21.3408480071
 10
-4.0433127942
 20
-21.3651532144
 10
-4.0375220536
 20
-21.3907718821
 10
-4.0327828359
 20
-21.417705973
 10
-4.0292161643
 20
-21.4459561413
 10
-4.0269814402
 20
-21.4755217328
 10
-4.0262086503
 20
-21.5064027474
  0
LINE
  5
42D
100
AcDbEntity
  8
DRAFT
100
AcDbLine
 62
7
  6
CONTINUOUS
 10
8.2657835814
 20
-19.9937281874
 11
9.1737913497
 21
-20.0413148581
  0
LWPOLYLINE
  5
42E
100
AcDbEntity
  8
RACCORDO
100
AcDbPolyline
 62
7
  6
CONTINUOUS
 90
13
 70
0
 10
-5.5157414591
 20
-17.952870686
 10
-5.4906199997
 20
-17.9548386774
 10
-5.46606358
 20
-17.9592462624
 10
-5.4424653706
 20
-17.9660259249
 10
-5.4202004604
 20
-17.9750916976
 10
-5.3996295361
 20
-17.986292823
 10
-5.3810904669
 20
-17.9994132443
 10
-5.3648807939
 20
-18.0142621672
 10
-5.351254589
 20
-18.0306129064
 10
-5.3404269121
 20
-18.0481569609
 10
-5.3325689642
 20
-18.0666133957
 10
-5.3278047914
 20
-18.0857327156
 10
-5.3262086503
 20
-18.1052344427
  0
LWPOLYLINE
  5
42F
100
AcDbEntity
  8
RACCORDO
100
AcDbPolyline
 62
7
  6
CONTINUOUS
 90
22
 70
0
 10
8.2665611249
 20
-20.6141979792
 10
8.2901442772
 20
-20.6179092476
 10
8.3129959424
 20
-20.6228837565
 10
8.3351151127
 20
-20.6289752707
 10
8.3565263469
 20
-20.6360074748
 10
8.3772020701
 20
-20.6438636898
 10
8.3970636356
 20
-20.652530107
 10
8.4160841905
 20
-20.661897514
 10
8.434288506
 20
-20.6718840048
 10
8.4516772925
 20
-20.6825983979
 10
8.4683390285
 20
-20.6940312441
 10
8.4841851562
 20
-20.7060913235
 10
8.4989523512
 20
-20.7188155997
 10
8.5126716456
 20
-20.7321717363
 10
8.5253121742
 20
-20.7460969624
 10
8.5365183249
 20
-20.7605954648
 10
8.5462890037
 20
-20.7756563765
 10
8.5546254126
 20
-20.7911837697
 10
8.5611751528
 20
-20.8070488968
 10
8.5658201969
 20
-20.8231617513
 10
8.5686772306
 20
-20.8394760641
 10
8.5697454667
 20
-20.8559218185
  0
LINE
  5
430
100
AcDbEntity
  8
CURVE
100
AcDbLine
 62
250
  6
CONTINUOUS
 10
0.666781616
 20
-13.4102111797
 11
3.6661921862
 21
-14.3744151797
  0
LWPOLYLINE
  5
431
100
AcDbEntity
  8
ASSI
100
AcDbPolyline
 62
250
  6
CONTINUOUS
 90
4
 70
0
 10
7.6531718364
 20
-22.5259337089
 10
7.6552430607
 20
-22.5331439862
 10
7.6565538296
 20
-22.5374997471
 10
7.6570841768
 20
-22.5389346418
  0
LINE
  5
432
100
AcDbEntity
  8
ASSI
100
AcDbLine
 62
250
  6
CONTINUOUS
 10
7.6468853263
 20
-22.5034307405
 11
7.6531718364
 21
-22.5259337089
  0
LINE
  5
433
100
AcDbEntity
  8
ASSI
100
AcDbLine
 62
250
  6
CONTINUOUS
 10
7.6272782229
 20
-22.4316585564
 11
7.6468853263
 21
-22.5034307405
  0
LINE
  5
434
100
AcDbEntity
  8
ASSI
100
AcDbLine
 62
250
  6
CONTINUOUS
 10
7.6088108491
 20
-22.3631779703
 11
7.6272782229
 21
-22.4316585564
  0
LINE
  5
435
100
AcDbEntity
  8
ASSI
100
AcDbLine
 62
7
  6
CONTINUOUS
 10
-5.8743848474
 20
24.100851674
 11
-5.9864888827
 21
24.5192296293
  0
LWPOLYLINE
  5
436
100
AcDbEntity
  8
ASSI
100
AcDbPolyline
 62
250
  6
CONTINUOUS
 90
13
 70
0
 10
7.7367549858
 20
-22.3419472829
 10
7.7415599459
 20
-22.3645762606
 10
7.7455348638
 20
-22.3866554
 10
7.7486242632
 20
-22.4078765513
 10
7.7507850265
 20
-22.4279435393
 10
7.7519869968
 20
-22.4465762972
 10
7.7522133988
 20
-22.463514775
 10
7.7514610726
 20
-22.4785225691
 10
7.7497405181
 20
-22.4913902218
 10
7.7470757485
 20
-22.5019381444
 10
7.7435039548
 20
-22.5100191238
 10
7.7390749871
 20
-22.5155203769
 10
7.7338506588
 20
-22.5183651249
  0
LWPOLYLINE
  5
437
100
AcDbEntity
  8
CURVE
100
AcDbPolyline
 62
250
  6
CONTINUOUS
 90
12
 70
0
 10
2.2483696526
 20
-4.8135541992
 10
2.2464722634
 20
-4.8031625843
 10
2.2435732822
 20
-4.7930731394
 10
2.2397788736
 20
-4.7832635335
 10
2.2351952018
 20
-4.7737114357
 10
2.2299284312
 20
-4.7643945149
 10
2.2240847262
 20
-4.7552904401
 10
2.2177702512
 20
-4.7463768805
 10
2.2110911705
 20
-4.7376315049
 10
2.2041536486
 20
-4.7290319825
 10
2.1970638497
 20
-4.7205559822
 10
2.1704023942
 20
-4.689443321
  0
LINE
  5
438
100
AcDbEntity
  8
ASSI
100
AcDbLine
 62
250
  6
CONTINUOUS
 10
3.0956976103
 20
22.0239883149
 11
3.1075338385
 21
21.8331365697
  0
LINE
  5
439
100
AcDbEntity
  8
ASSI
100
AcDbLine
 62
250
  6
CONTINUOUS
 10
3.0814724217
 20
22.269884818
 11
3.0956976103
 21
22.0239883149
  0
LWPOLYLINE
  5
43A
100
AcDbEntity
  8
ASSI
100
AcDbPolyline
 62
250
  6
CONTINUOUS
 90
3
 70
0
 10
3.0623471667
 20
22.6343898747
 10
3.0671256385
 20
22.5391594452
 10
3.0814724217
 20
22.269884818
  0
LWPOLYLINE
  5
43B
100
AcDbEntity
  8
ASSI
100
AcDbPolyline
 62
250
  6
CONTINUOUS
 90
16
 70
0
 10
4.132060536
 20
23.1674658203
 10
4.1310563526
 20
23.1883715562
 10
4.1280548083
 20
23.2090482304
 10
4.1230887927
 20
23.229269305
 10
4.1162127199
 20
23.2488132302
 10
4.1075019284
 20
23.2674658847
 10
4.0970518512
 20
23.2850229191
 10
4.0849769789
 20
23.3012919784
 10
4.0714096081
 20
23.3160948118
 10
4.0564983855
 20
23.3292692364
 10
4.0404066824
 20
23.34067091
 10
4.0233108019
 20
23.3501749145
 10
4.0053980466
 20
23.3576771232
 10
3.9868646709
 20
23.3630953396
 10
3.967913731
 20
23.366370199
 10
3.9487528573
 20
23.3674658203
  0
LWPOLYLINE
  5
43C
100
AcDbEntity
  8
ASSI
100
AcDbPolyline
 62
250
  6
CONTINUOUS
 90
3
 70
0
 10
3.2572364296
 20
22.1872938934
 10
3.2606824152
 20
22.1043927972
 10
3.2726840978
 20
21.8316953252
  0
LWPOLYLINE
  5
43D
100
AcDbEntity
  8
CURVE
100
AcDbPolyline
 62
250
  6
CONTINUOUS
 90
63
 70
0
 10
4.2720940433
 20
1.1174658196
 10
4.273998783
 20
1.0315255667
 10
4.279617847
 20
0.9456451364
 10
4.2888085033
 20
0.8599498177
 10
4.3014280195
 20
0.7745648996
 10
4.3173336635
 20
0.6896156712
 10
4.336382703
 20
0.6052274216
 10
4.3584324057
 20
0.5215254397
 10
4.3833400395
 20
0.4386350147
 10
4.4109628721
 20
0.3566814356
 10
4.4472633424
 20
0.2603307783
 10
4.4870621562
 20
0.1655139259
 10
4.5302003392
 20
0.0722546286
 10
4.5765189167
 20
-0.0194233635
 10
4.6258589142
 20
-0.1094963003
 10
4.6780613573
 20
-0.1979404316
 10
4.7329672715
 20
-0.2847320073
 10
4.7904176821
 20
-0.3698472772
 10
4.861843623
 20
-0.4688334576
 10
4.936526179
 20
-0.5653606231
 10
5.0143494294
 20
-0.6593732156
 10
5.0951974533
 20
-0.7508156774
 10
5.1789543301
 20
-0.8396324504
 10
5.2655041389
 20
-0.9257679767
 10
5.3547309589
 20
-1.0091666985
 10
5.4467077337
 20
-1.0899162164
 10
5.5411773116
 20
-1.1677334736
 10
5.6380613481
 20
-1.2424895375
 10
5.7372814986
 20
-1.3140554756
 10
5.8387594185
 20
-1.3823023551
 10
5.9424167632
 20
-1.4471012434
 10
6.0481751881
 20
-1.5083232079
 10
6.1404719083
 20
-1.5578621939
 10
6.2342179211
 20
-1.6045426879
 10
6.3293754108
 20
-1.6482307309
 10
6.4259065615
 20
-1.6887923642
 10
6.5214716467
 20
-1.7252565578
 10
6.6182320616
 20
-1.7584480583
 10
6.7161087998
 20
-1.7882044169
 10
6.815022855
 20
-1.8143631849
 10
6.9123911151
 20
-1.8362436526
 10
7.0105301078
 20
-1.854347069
 10
7.1092992926
 20
-1.868471864
 10
7.2085581294
 20
-1.8784164675
 10
7.3062607451
 20
-1.8839554481
 10
7.4041280143
 20
-1.8853270052
 10
7.5019886464
 20
-1.8825802107
 10
7.5996713506
 20
-1.8757641368
 10
7.6959454331
 20
-1.8650817376
 10
7.7917655351
 20
-1.8505924174
 10
7.8870192534
 20
-1.8324214932
 10
7.9815941847
 20
-1.8106942825
 10
8.0753779254
 20
-1.7855361023
 10
8.1682580723
 20
-1.7570722699
 10
8.2601222221
 20
-1.7254281025
 10
8.3508579712
 20
-1.6907289174
 10
8.4522892094
 20
-1.6478204201
 10
8.5520404228
 20
-1.6012783274
 10
8.6500281863
 20
-1.5512388245
 10
8.7461690748
 20
-1.4978380965
 10
8.840379663
 20
-1.4412123288
 10
8.9325765259
 20
-1.3814977066
 10
9.0226762383
 20
-1.318830415
  0
LWPOLYLINE
  5
43E
100
AcDbEntity
  8
ASSI
100
AcDbPolyline
 62
250
  6
CONTINUOUS
 90
7
 70
0
 10
4.3120866111
 20
23.314920375
 10
4.311749992
 20
23.3304570196
 10
4.3113823776
 20
23.3435056721
 10
4.3109893794
 20
23.3538671503
 10
4.3105769964
 20
23.3613832907
 10
4.3101515233
 20
23.3659393628
 10
4.3097194549
 20
23.3674658203
  0
LWPOLYLINE
  5
43F
100
AcDbEntity
  8
CURVE
100
AcDbPolyline
 62
250
  6
CONTINUOUS
 90
44
 70
0
 10
5.7719798143
 20
1.1174658196
 10
5.7726075477
 20
1.0794932721
 10
5.7744765001
 20
1.0413622878
 10
5.7775652996
 20
1.0031059067
 10
5.7818525744
 20
0.9647571685
 10
5.7873169527
 20
0.9263491131
 10
5.7939370627
 20
0.8879147803
 10
5.8016915326
 20
0.8494872099
 10
5.8105589905
 20
0.8110994419
 10
5.8205180647
 20
0.772784516
 10
5.8315473834
 20
0.7345754721
 10
5.8436255746
 20
0.6965053499
 10
5.8567312667
 20
0.6586071894
 10
5.8708430878
 20
0.6209140304
 10
5.8859396661
 20
0.5834589128
 10
5.9019996297
 20
0.5462748762
 10
5.9190016069
 20
0.5093949607
 10
5.9369242259
 20
0.472852206
 10
5.9557461148
 20
0.436679652
 10
5.9754459018
 20
0.4009103385
 10
5.9960022152
 20
0.3655773054
 10
6.017393683
 20
0.3307135924
 10
6.0395989335
 20
0.2963522395
 10
6.0625965949
 20
0.2625262864
 10
6.0863652954
 20
0.2292687731
 10
6.1108836631
 20
0.1966127393
 10
6.1361303262
 20
0.1645912248
 10
6.1620839129
 20
0.1332372696
 10
6.1887230515
 20
0.1025839134
 10
6.21602637
 20
0.0726641961
 10
6.2439724968
 20
0.0435111576
 10
6.2725400599
 20
0.0151578376
 10
6.3017076875
 20
-0.012362724
 10
6.3314540079
 20
-0.0390174874
 10
6.3617576492
 20
-0.0647734126
 10
6.3925972397
 20
-0.08959746
 10
6.4239514074
 20
-0.1134565895
 10
6.4557987807
 20
-0.1363177615
 10
6.4881179876
 20
-0.1581479361
 10
6.5208876564
 20
-0.1789140734
 10
6.5540864152
 20
-0.1985831335
 10
6.5876928922
 20
-0.2171220768
 10
6.6216857157
 20
-0.2344978632
 10
6.6560435138
 20
-0.250677453
  0
LINE
  5
440
100
AcDbEntity
  8
ASSI
100
AcDbLine
 62
250
  6
CONTINUOUS
 10
4.3126468616
 20
23.2773661069
 11
4.3120866111
 21
23.314920375
  0
LINE
  5
441
100
AcDbEntity
  8
ASSI
100
AcDbLine
 62
250
  6
CONTINUOUS
 10
5.3782814504
 20
23.3149203878
 11
5.3788417012
 21
23.2773661319
  0
LINE
  5
442
100
AcDbEntity
  8
ASSI
100
AcDbLine
 62
250
  6
CONTINUOUS
 10
4.3130290516
 20
23.2331271341
 11
4.3126468616
 21
23.2773661069
  0
LINE
  5
443
100
AcDbEntity
  8
ASSI
100
AcDbLine
 62
250
  6
CONTINUOUS
 10
5.3788417012
 20
23.2773661319
 11
5.3792238915
 21
23.2331271579
  0
LINE
  5
444
100
AcDbEntity
  8
ASSI
100
AcDbLine
 62
250
  6
CONTINUOUS
 10
4.3132099345
 20
23.184894314
 11
4.3130290516
 21
23.2331271341
  0
LINE
  5
445
100
AcDbEntity
  8
ASSI
100
AcDbLine
 62
250
  6
CONTINUOUS
 10
5.3792238915
 20
23.2331271579
 11
5.3794047746
 21
23.184894314
  0
LINE
  5
446
100
AcDbEntity
  8
CURVE
100
AcDbLine
 62
250
  6
CONTINUOUS
 10
4.6737913497
 20
11.1174658203
 11
4.6737913497
 21
10.9746086264
  0
LINE
  5
447
100
AcDbEntity
  8
CURVE
100
AcDbLine
 62
250
  6
CONTINUOUS
 10
4.6737913497
 20
9.1174658203
 11
4.6737913497
 21
9.6888944173
  0
LINE
  5
448
100
AcDbEntity
  8
CURVE
100
AcDbLine
 62
250
  6
CONTINUOUS
 10
4.6737913497
 20
12.1174658203
 11
4.6737913497
 21
12.6888943577
  0
LINE
  5
449
100
AcDbEntity
  8
CURVE
100
AcDbLine
 62
250
  6
CONTINUOUS
 10
4.6737913497
 20
13.8317516708
 11
4.6737913497
 21
14.2603228951
  0
LWPOLYLINE
  5
44A
100
AcDbEntity
  8
0
100
AcDbPolyline
 62
7
  6
CONTINUOUS
 90
4
 70
0
 43
0.3500000006
 10
4.809505909
 20
45.9090638123
 10
4.809505909
 20
46.7662062836
 10
5.2380771446
 20
47.1947797852
 10
5.8809339981
 20
47.1947797852
  0
LINE
  5
44B
100
AcDbEntity
  8
CURVE
100
AcDbLine
 62
250
  6
CONTINUOUS
 10
5.222021697
 20
-5.6387871797
 11
5.222021697
 21
-6.1700361797
  0
LINE
  5
44C
100
AcDbEntity
  8
CURVE
100
AcDbLine
 62
250
  6
CONTINUOUS
 10
5.2220336961
 20
-3.8276911797
 11
5.2220336961
 21
-4.5146751797
  0
LINE
  5
44D
100
AcDbEntity
  8
CURVE
100
AcDbLine
 62
250
  6
CONTINUOUS
 10
5.2220336596
 20
-8.9325341797
 11
5.2220336596
 21
-8.4012782955
  0
LINE
  5
44E
100
AcDbEntity
  8
CURVE
100
AcDbLine
 62
250
  6
CONTINUOUS
 10
5.2220336596
 20
-7.126282587
 11
5.2220336596
 21
-6.5950267028
  0
LINE
  5
44F
100
AcDbEntity
  8
CURVE
100
AcDbLine
 62
250
  6
CONTINUOUS
 10
5.2703283497
 20
-10.8812251797
 11
5.2703283497
 21
-11.9922691797
  0
LINE
  5
450
100
AcDbEntity
  8
CURVE
100
AcDbLine
 62
250
  6
CONTINUOUS
 10
5.2703283497
 20
-14.7700491797
 11
5.2703283497
 21
-15.8810921797
  0
LINE
  5
451
100
AcDbEntity
  8
CURVE
100
AcDbLine
 62
250
  6
CONTINUOUS
 10
5.2703283497
 20
-14.2147001797
 11
5.2703283497
 21
-12.5479631797
  0
LINE
  5
452
100
AcDbEntity
  8
CURVE
100
AcDbLine
 62
250
  6
CONTINUOUS
 10
5.5309341557
 20
14.2603228951
 11
5.5309341557
 21
13.8317516708
  0
LINE
  5
453
100
AcDbEntity
  8
CURVE
100
AcDbLine
 62
250
  6
CONTINUOUS
 10
5.5309341557
 20
9.4031801188
 11
5.5309341557
 21
9.6888944173
  0
LINE
  5
454
100
AcDbEntity
  8
CURVE
100
AcDbLine
 62
250
  6
CONTINUOUS
 10
5.5309341557
 20
12.4031802082
 11
5.5309341557
 21
12.6888943577
  0
LINE
  5
455
100
AcDbEntity
  8
CURVE
100
AcDbLine
 62
250
  6
CONTINUOUS
 10
5.5309341557
 20
15.2127040291
 11
5.5309341557
 21
15.8317516708
  0
LINE
  5
456
100
AcDbEntity
  8
CURVE
100
AcDbLine
 62
250
  6
CONTINUOUS
 10
5.8258503497
 20
-15.3257431797
 11
5.8258503497
 21
-14.7700491797
  0
LINE
  5
457
100
AcDbEntity
  8
CURVE
100
AcDbLine
 62
250
  6
CONTINUOUS
 10
5.8258503497
 20
-13.6590061797
 11
5.8258503497
 21
-13.1033121797
  0
LINE
  5
458
100
AcDbEntity
  8
CURVE
100
AcDbLine
 62
250
  6
CONTINUOUS
 10
5.8258503497
 20
-11.4369191797
 11
5.8258503497
 21
-10.8812251797
  0
LINE
  5
459
100
AcDbEntity
  8
CURVE
100
AcDbLine
 62
250
  6
CONTINUOUS
 10
6.6737913497
 20
15.8317516708
 11
6.6737913497
 21
15.4031799698
  0
LINE
  5
45A
100
AcDbEntity
  8
CURVE
100
AcDbLine
 62
250
  6
CONTINUOUS
 10
6.6737913497
 20
12.8317514324
 11
6.6737913497
 21
12.1174658203
  0
LINE
  5
45B
100
AcDbEntity
  8
CURVE
100
AcDbLine
 62
250
  6
CONTINUOUS
 10
6.6737913497
 20
9.8317515516
 11
6.6737913497
 21
9.1174658203
  0
LINE
  5
45C
100
AcDbEntity
  8
CURVE
100
AcDbLine
 62
250
  6
CONTINUOUS
 10
6.6737913497
 20
10.9746086264
 11
6.6737913497
 21
11.1174658203
  0
LINE
  5
45D
100
AcDbEntity
  8
CURVE
100
AcDbLine
 62
250
  6
CONTINUOUS
 10
6.6737913497
 20
13.8317516708
 11
6.6737913497
 21
14.2603228951
  0
LINE
  5
45E
100
AcDbEntity
  8
CURVE
100
AcDbLine
 62
250
  6
CONTINUOUS
 10
7.0281434717
 20
-8.106100546
 11
7.0281434717
 21
-7.4214625171
  0
LINE
  5
45F
100
AcDbEntity
  8
ASSI
100
AcDbLine
 62
250
  6
CONTINUOUS
 10
4.3132099155
 20
-22.9499626734
 11
4.3130290317
 21
-22.998195531
  0
LINE
  5
460
100
AcDbEntity
  8
ASSI
100
AcDbLine
 62
250
  6
CONTINUOUS
 10
5.3794047746
 20
-22.9499626734
 11
5.3792238915
 21
-22.9981955174
  0
LINE
  5
461
100
AcDbEntity
  8
ASSI
100
AcDbLine
 62
250
  6
CONTINUOUS
 10
4.3130290317
 20
-22.998195531
 11
4.3126468412
 21
-23.0424345062
  0
LINE
  5
462
100
AcDbEntity
  8
ASSI
100
AcDbLine
 62
250
  6
CONTINUOUS
 10
5.3792238915
 20
-22.9981955174
 11
5.3788417012
 21
-23.0424344914
  0
LWPOLYLINE
  5
463
100
AcDbEntity
  8
ASSI
100
AcDbPolyline
 62
250
  6
CONTINUOUS
 90
8
 70
0
 10
4.3126468412
 20
-23.0424345062
 10
4.3120865907
 20
-23.0799887556
 10
4.3117499716
 20
-23.0955253938
 10
4.3113823573
 20
-23.1085740409
 10
4.310989359
 20
-23.1189355149
 10
4.3105769757
 20
-23.1264516523
 10
4.3101515022
 20
-23.1310077227
 10
4.3097194333
 20
-23.1325341797
  0
LWPOLYLINE
  5
464
100
AcDbEntity
  8
ASSI
100
AcDbPolyline
 62
250
  6
CONTINUOUS
 90
8
 70
0
 10
5.3788417012
 20
-23.0424344914
 10
5.3782814504
 20
-23.0799887472
 10
5.3779448312
 20
-23.0955253876
 10
5.3775772167
 20
-23.1085740366
 10
5.3771842183
 20
-23.1189355122
 10
5.3767718351
 20
-23.126451651
 10
5.3763463619
 20
-23.1310077223
 10
5.3759142933
 20
-23.1325341797
  0
LINE
  5
465
100
AcDbEntity
  8
ASSI
100
AcDbLine
 62
250
  6
CONTINUOUS
 10
3.2726909724
 20
-21.5967636246
 11
3.2563252595
 21
-21.9746891374
  0
LWPOLYLINE
  5
466
100
AcDbEntity
  8
ASSI
100
AcDbPolyline
 62
250
  6
CONTINUOUS
 90
16
 70
0
 10
4.132060519
 20
-22.9325341797
 10
4.1310563412
 20
-22.953439864
 10
4.1280548093
 20
-22.9741165036
 10
4.1230888083
 20
-22.9943375609
 10
4.1162127457
 20
-23.0138814902
 10
4.1075019566
 20
-23.0325341633
 10
4.0970518788
 20
-23.0500912159
 10
4.0849770057
 20
-23.0663602886
 10
4.0714096319
 20
-23.0811631346
 10
4.0564984046
 20
-23.0943375704
 10
4.0404066945
 20
-23.105739254
 10
4.0233108057
 20
-23.1152432664
 10
4.0053980436
 20
-23.1227454798
 10
3.9868646639
 20
-23.1281636983
 10
3.9679137224
 20
-23.1314385583
 10
3.9487528497
 20
-23.1325341797
  0
LINE
  5
467
100
AcDbEntity
  8
ASSI
100
AcDbLine
 62
250
  6
CONTINUOUS
 10
3.0728797272
 20
-22.1934081605
 11
3.0611121126
 21
-22.4244339359
  0
LINE
  5
468
100
AcDbEntity
  8
ASSI
100
AcDbLine
 62
250
  6
CONTINUOUS
 10
3.0849878503
 20
-21.9724523007
 11
3.0728797272
 21
-22.1934081605
  0
LINE
  5
469
100
AcDbEntity
  8
ASSI
100
AcDbLine
 62
250
  6
CONTINUOUS
 10
3.097289382
 20
-21.7624536824
 11
3.0849878503
 21
-21.9724523007
  0
LINE
  5
46A
100
AcDbEntity
  8
ASSI
100
AcDbLine
 62
250
  6
CONTINUOUS
 10
3.1075403629
 20
-21.5982048721
 11
3.097289382
 21
-21.7624536824
  0
LWPOLYLINE
  5
46B
100
AcDbEntity
  8
ASSI
100
AcDbPolyline
 62
250
  6
CONTINUOUS
 90
8
 70
0
 10
-3.5227181691
 20
-23.8248715388
 10
-3.5223771298
 20
-23.8238004114
 10
-3.5220757761
 20
-23.8205939258
 10
-3.5218178562
 20
-23.8152610994
 10
-3.5216064641
 20
-23.8078234478
 10
-3.5214448721
 20
-23.7983437856
 10
-3.5213357995
 20
-23.7869522945
 10
-3.5212793405
 20
-23.7590016225
  0
LINE
  5
46C
100
AcDbEntity
  8
ASSI
100
AcDbLine
 62
250
  6
CONTINUOUS
 10
-3.4688579252
 20
-23.0206016501
 11
-3.4778878127
 21
-23.0469078992
  0
LINE
  5
46D
100
AcDbEntity
  8
ASSI
100
AcDbLine
 62
250
  6
CONTINUOUS
 10
-3.906774489
 20
-22.8648855268
 11
-3.9187475169
 21
-22.8995499888
  0
LINE
  5
46E
100
AcDbEntity
  8
ASSI
100
AcDbLine
 62
250
  6
CONTINUOUS
 10
-3.4778878127
 20
-23.0469078992
 11
-3.4890215915
 21
-23.0786840182
  0
LINE
  5
46F
100
AcDbEntity
  8
ASSI
100
AcDbLine
 62
250
  6
CONTINUOUS
 10
-3.9187475169
 20
-22.8995499888
 11
-3.9337146619
 21
-22.9419275081
  0
LINE
  5
470
100
AcDbEntity
  8
ASSI
100
AcDbLine
 62
250
  6
CONTINUOUS
 10
-3.4890215915
 20
-23.0786840182
 11
-3.5085775808
 21
-23.1335033063
  0
LWPOLYLINE
  5
471
100
AcDbEntity
  8
ASSI
100
AcDbPolyline
 62
250
  6
CONTINUOUS
 90
3
 70
0
 10
-3.9337146619
 20
-22.9419275081
 10
-3.9506636311
 20
-22.9891519098
 10
-3.9595262264
 20
-23.0135905564
  0
LINE
  5
472
100
AcDbEntity
  8
ASSI
100
AcDbLine
 62
250
  6
CONTINUOUS
 10
-3.5085775808
 20
-23.1335033063
 11
-3.5227181691
 21
-23.1725756873
  0
LINE
  5
473
100
AcDbEntity
  8
CURVE
100
AcDbLine
 62
250
  6
CONTINUOUS
 10
5.5309341557
 20
9.6888944173
 11
5.816648484
 21
9.974608686
  0
LINE
  5
474
100
AcDbEntity
  8
CURVE
100
AcDbLine
 62
7
  6
CONTINUOUS
 10
3.2257553315
 20
7.2718338203
 11
3.6716347717
 21
7.7177132605
  0
LINE
  5
475
100
AcDbEntity
  8
CURVE
100
AcDbLine
 62
7
  6
CONTINUOUS
 10
3.6457767596
 20
7.2718338203
 11
3.6716347717
 21
7.2976918325
  0
LINE
  5
476
100
AcDbEntity
  8
CURVE
100
AcDbLine
 62
250
  6
CONTINUOUS
 10
4.6737913497
 20
9.6888944173
 11
4.9595056183
 21
9.9269896412
  0
LINE
  5
477
100
AcDbEntity
  8
CURVE
100
AcDbLine
 62
250
  6
CONTINUOUS
 10
5.245219887
 20
11.5460372829
 11
4.9595056183
 21
11.4031802082
  0
LINE
  5
478
100
AcDbEntity
  8
CURVE
100
AcDbLine
 62
250
  6
CONTINUOUS
 10
6.1023627527
 20
10.5460372829
 11
6.3880770512
 21
10.6888943577
  0
LINE
  5
479
100
AcDbEntity
  8
CURVE
100
AcDbLine
 62
250
  6
CONTINUOUS
 10
0.6682925009
 20
10.4378398203
 11
3.368393866
 21
11.4473388203
  0
LINE
  5
47A
100
AcDbEntity
  8
CURVE
100
AcDbLine
 62
250
  6
CONTINUOUS
 10
3.6716347717
 20
11.2271598203
 11
0.9715334066
 21
10.2176618203
  0
LINE
  5
47B
100
AcDbEntity
  8
ASSI
100
AcDbLine
 62
7
  6
CONTINUOUS
 10
5.5053238158
 20
-23.1154970928
 11
9.1737913497
 21
-22.1325341797
  0
LINE
  5
47C
100
AcDbEntity
  8
ASSI
100
AcDbLine
 62
250
  6
CONTINUOUS
 10
7.7367549858
 20
-22.3419472829
 11
9.1737913497
 21
-21.9568945497
  0
LINE
  5
47D
100
AcDbEntity
  8
ASSI
100
AcDbLine
 62
250
  6
CONTINUOUS
 10
5.4570504881
 20
-22.9397404213
 11
7.6088108491
 21
-22.3631779703
  0
LWPOLYLINE
  5
47E
100
AcDbEntity
  8
ASSI
100
AcDbPolyline
 62
250
  6
CONTINUOUS
 90
15
 70
0
 10
0.2880110472
 20
-23.2886326323
 10
0.3156483166
 20
-23.2822356455
 10
0.3424574638
 20
-23.2756683796
 10
0.3684485534
 20
-23.2689284564
 10
0.3936159313
 20
-23.2620314927
 10
0.4180936297
 20
-23.254811251
 10
0.4417200946
 20
-23.247347302
 10
0.4646641436
 20
-23.2395787899
 10
0.4875565335
 20
-23.2311314777
 10
0.5103686349
 20
-23.2221287883
 10
0.5331341511
 20
-23.2124598668
 10
0.5565773826
 20
-23.2013990768
 10
0.5809388609
 20
-23.1887023254
 10
0.6059745572
 20
-23.1746051061
 10
0.631679182
 20
-23.1590943236
  0
LWPOLYLINE
  5
47F
100
AcDbEntity
  8
ASSI
100
AcDbPolyline
 62
250
  6
CONTINUOUS
 90
13
 70
0
 10
3.2228092099
 20
-22.9322835629
 10
3.2135129492
 20
-22.9342532273
 10
3.2026488454
 20
-22.9361727644
 10
3.1903388474
 20
-22.9380230791
 10
3.1767204236
 20
-22.939775292
 10
3.1619259619
 20
-22.9414256273
 10
3.1460575216
 20
-22.9429926067
 10
3.1292124196
 20
-22.9444749261
 10
3.1115814126
 20
-22.9458466346
 10
3.0934066691
 20
-22.9470903928
 10
3.0748861545
 20
-22.9481949212
 10
3.0561826254
 20
-22.9491545903
 10
3.0374866847
 20
-22.9499626658
  0
LWPOLYLINE
  5
480
100
AcDbEntity
  8
ASSI
100
AcDbPolyline
 62
250
  6
CONTINUOUS
 90
4
 70
0
 10
0.1674852257
 20
-23.3147169421
 10
0.1991002558
 20
-23.3081328319
 10
0.2297361134
 20
-23.3015810027
 10
0.2880110472
 20
-23.2886326323
  0
LINE
  5
481
100
AcDbEntity
  8
ASSI
100
AcDbLine
 62
250
  6
CONTINUOUS
 10
7.6804452149
 20
-22.3514375058
 11
7.7367549858
 21
-22.3419472829
  0
LINE
  5
482
100
AcDbEntity
  8
ASSI
100
AcDbLine
 62
250
  6
CONTINUOUS
 10
7.6088108491
 20
-22.3631779703
 11
7.6804452149
 21
-22.3514375058
  0
LWPOLYLINE
  5
483
100
AcDbEntity
  8
RACCORDO
100
AcDbPolyline
 62
250
  6
CONTINUOUS
 90
19
 70
0
 10
13.6781546174
 20
-17.5625667591
 10
13.721538338
 20
-17.5611103541
 10
13.764436152
 20
-17.5573650915
 10
13.8066004515
 20
-17.5513473253
 10
13.8478381224
 20
-17.5430221423
 10
13.8878450206
 20
-17.5324506911
 10
13.9262088741
 20
-17.5198114945
 10
13.9626547505
 20
-17.5051291102
 10
13.9969676565
 20
-17.4884593909
 10
14.0288364426
 20
-17.4700654244
 10
14.0580093047
 20
-17.4500154146
 10
14.0842992136
 20
-17.4283860657
 10
14.1075064528
 20
-17.4054845696
 10
14.127439235
 20
-17.3814132535
 10
14.1439539345
 20
-17.3562774954
 10
14.1569374371
 20
-17.3304110699
 10
14.1662835323
 20
-17.3040116037
 10
14.1719132775
 20
-17.2771358856
 10
14.1737913497
 20
-17.2499169649
  0
LWPOLYLINE
  5
484
100
AcDbEntity
  8
ASSI
100
AcDbPolyline
 62
250
  6
CONTINUOUS
 90
19
 70
0
 10
13.6781546174
 20
-17.5625667591
 10
13.721538338
 20
-17.5611103541
 10
13.764436152
 20
-17.5573650915
 10
13.8066004515
 20
-17.5513473253
 10
13.8478381224
 20
-17.5430221423
 10
13.8878450206
 20
-17.5324506911
 10
13.9262088741
 20
-17.5198114945
 10
13.9626547505
 20
-17.5051291102
 10
13.9969676565
 20
-17.4884593909
 10
14.0288364426
 20
-17.4700654244
 10
14.0580093047
 20
-17.4500154146
 10
14.0842992136
 20
-17.4283860657
 10
14.1075064528
 20
-17.4054845696
 10
14.127439235
 20
-17.3814132535
 10
14.1439539345
 20
-17.3562774954
 10
14.1569374371
 20
-17.3304110699
 10
14.1662835323
 20
-17.3040116037
 10
14.1719132775
 20
-17.2771358856
 10
14.1737913497
 20
-17.2499169649
  0
LINE
  5
485
100
AcDbEntity
  8
SUPERFICI
100
AcDbLine
 62
7
  6
CONTINUOUS
 10
-5.3343050756
 20
-18.0625356865
 11
-6.8247609106
 21
-18.1041801163
  0
LINE
  5
486
100
AcDbEntity
  8
RACCORDO
100
AcDbLine
 62
7
  6
CONTINUOUS
 10
13.6825175529
 20
-19.2911093957
 11
9.1737913497
 21
-19.3698095043
  0
LINE
  5
487
100
AcDbEntity
  8
DRAFT
100
AcDbLine
 62
7
  6
CONTINUOUS
 10
13.6825175529
 20
-19.2911093957
 11
14.1737913497
 21
-19.2825341797
  0
LINE
  5
488
100
AcDbEntity
  8
ASSI
100
AcDbLine
 62
7
  6
CONTINUOUS
 10
9.1737913497
 20
-19.3698095043
 11
14.1737913497
 21
-19.2825341797
  0
LINE
  5
489
100
AcDbEntity
  8
RACCORDO
100
AcDbLine
 62
250
  6
CONTINUOUS
 10
-6.8262086503
 20
-17.7468283004
 11
-0.8262086503
 21
-17.7104492003
  0
LINE
  5
48A
100
AcDbEntity
  8
RACCORDO
100
AcDbLine
 62
250
  6
CONTINUOUS
 10
-6.8262086503
 20
-17.4337549818
 11
-0.8262086503
 21
-17.3968621321
  0
LINE
  5
48B
100
AcDbEntity
  8
SUPERFICI
100
AcDbLine
 62
250
  6
CONTINUOUS
 10
-6.8262084778
 20
-18.5185984677
 11
-5.3262086506
 21
-18.5111944372
  0
LINE
  5
48C
100
AcDbEntity
  8
RACCORDO
100
AcDbLine
 62
250
  6
CONTINUOUS
 10
-0.8262086503
 20
-17.6063455234
 11
13.6781546174
 21
-17.5625667596
  0
LINE
  5
48D
100
AcDbEntity
  8
ASSI
100
AcDbLine
 62
250
  6
CONTINUOUS
 10
-0.8262086503
 20
-17.6063455234
 11
13.6781546174
 21
-17.5625667596
  0
LINE
  5
48E
100
AcDbEntity
  8
RACCORDO
100
AcDbLine
 62
250
  6
CONTINUOUS
 10
-0.8262086503
 20
-17.2943184728
 11
13.6781546174
 21
-17.2499169649
  0
LINE
  5
48F
100
AcDbEntity
  8
ASSI
100
AcDbLine
 62
250
  6
CONTINUOUS
 10
-0.8262086503
 20
-17.2943184728
 11
13.6781546174
 21
-17.2499169649
  0
LINE
  5
490
100
AcDbEntity
  8
RACCORDO
100
AcDbLine
 62
250
  6
CONTINUOUS
 10
13.6781546174
 20
-17.2499169649
 11
14.1737913497
 21
-17.2499169649
  0
LINE
  5
491
100
AcDbEntity
  8
ASSI
100
AcDbLine
 62
250
  6
CONTINUOUS
 10
13.6781546174
 20
-17.2499169649
 11
14.1737913497
 21
-17.2499169649
  0
LINE
  5
492
100
AcDbEntity
  8
0
100
AcDbLine
 62
7
  6
CONTINUOUS
 10
8.8676486266
 20
-19.6271904386
 11
9.1737913497
 21
-19.6325341797
  0
LINE
  5
493
100
AcDbEntity
  8
ASSI
100
AcDbLine
 62
7
  6
CONTINUOUS
 10
8.8676486266
 20
-19.6271904386
 11
9.1737913497
 21
-19.6325341797
  0
LINE
  5
494
100
AcDbEntity
  8
DRAFT
100
AcDbLine
 62
7
  6
CONTINUOUS
 10
-6.2432884948
 20
-19.0142180759
 11
-6.8262086503
 21
-19.0040431667
  0
LINE
  5
495
100
AcDbEntity
  8
CURVE
100
AcDbLine
 62
250
  6
CONTINUOUS
 10
2.7313683807
 20
-14.6251781797
 11
0.666781616
 21
-14.0359261797
  0
LINE
  5
496
100
AcDbEntity
  8
CURVE
100
AcDbLine
 62
250
  6
CONTINUOUS
 10
11.8737913497
 20
-14.3968198276
 11
13.1737913497
 21
-14.7682484543
  0
LINE
  5
497
100
AcDbEntity
  8
CURVE
100
AcDbLine
 62
250
  6
CONTINUOUS
 10
2.3320637911
 20
-10.6986301797
 11
0.666781616
 21
-10.0724881797
  0
LINE
  5
498
100
AcDbEntity
  8
CURVE
100
AcDbLine
 62
250
  6
CONTINUOUS
 10
1.7157977248
 20
-9.9136581797
 11
3.6661921862
 21
-10.6581411797
  0
LINE
  5
499
100
AcDbEntity
  8
CURVE
100
AcDbLine
 62
250
  6
CONTINUOUS
 10
11.8737913497
 20
-15.1396770036
 11
12.616648487
 21
-15.5111055917
  0
LINE
  5
49A
100
AcDbEntity
  8
CURVE
100
AcDbLine
 62
250
  6
CONTINUOUS
 10
13.1737913497
 20
-13.1896770811
 11
12.9880770556
 21
-13.0039628839
  0
LWPOLYLINE
  5
49B
100
AcDbEntity
  8
CURVE
100
AcDbPolyline
 62
250
  6
CONTINUOUS
 90
61
 70
0
 10
2.1704023942
 20
-4.689443321
 10
2.150992611
 20
-4.6673029865
 10
2.1313551844
 20
-4.6457547102
 10
2.1111467097
 20
-4.6247930327
 10
2.0904851417
 20
-4.6048004224
 10
2.0689974121
 20
-4.5854766106
 10
2.0467385456
 20
-4.5669303973
 10
2.023763567
 20
-4.5492705825
 10
1.9997869314
 20
-4.5323540199
 10
1.9751793662
 20
-4.5164326715
 10
1.9499898837
 20
-4.5014781692
 10
1.9242674962
 20
-4.487462145
 10
1.8978908582
 20
-4.4742820521
 10
1.871062582
 20
-4.4620336569
 10
1.8438211085
 20
-4.4507269112
 10
1.8162048789
 20
-4.4403717668
 10
1.7884385609
 20
-4.4310360934
 10
1.7603723887
 20
-4.422650352
 10
1.732038359
 20
-4.4152156856
 10
1.7034684684
 20
-4.4087332371
 10
1.6707015732
 20
-4.4025103821
 10
1.6377142725
 20
-4.3974980978
 10
1.6045502956
 20
-4.3936717423
 10
1.5712533718
 20
-4.3910066736
 10
1.5378672304
 20
-4.3894782495
 10
1.5044356005
 20
-4.3890618281
 10
1.4710022115
 20
-4.3897327674
 10
1.4417780803
 20
-4.3911992133
 10
1.412615775
 20
-4.3935024601
 10
1.3835449818
 20
-4.3966655023
 10
1.3545953866
 20
-4.4007113345
 10
1.3257966756
 20
-4.4056629512
 10
1.297178535
 20
-4.4115433469
 10
1.2687706508
 20
-4.4183755162
 10
1.2406027091
 20
-4.4261824536
 10
1.2126849144
 20
-4.4349888817
 10
1.1850810766
 20
-4.4447840963
 10
1.1578350991
 20
-4.4555575499
 10
1.1309908858
 20
-4.4672986955
 10
1.1045923401
 20
-4.4799969858
 10
1.0786833658
 20
-4.4936418736
 10
1.0533078664
 20
-4.5082228117
 10
1.0285097456
 20
-4.5237292528
 10
1.0043251662
 20
-4.540149707
 10
0.9807758613
 20
-4.5574575314
 10
0.957875681
 20
-4.5756249308
 10
0.9356384755
 20
-4.5946241102
 10
0.9140780948
 20
-4.6144272745
 10
0.8932083891
 20
-4.6350066284
 10
0.8730432085
 20
-4.656334377
 10
0.8535964031
 20
-4.6783827251
 10
0.8385970219
 20
-4.696493073
 10
0.8241179719
 20
-4.7150377348
 10
0.8102124687
 20
-4.734009057
 10
0.7969337281
 20
-4.753399386
 10
0.7843349657
 20
-4.7732010683
 10
0.772469397
 20
-4.7934064505
 10
0.7613902378
 20
-4.8140078788
 10
0.7511507037
 20
-4.8349976999
 10
0.7418040103
 20
-4.8563682602
 10
0.7334033732
 20
-4.8781119062
  0
LINE
  5
49C
100
AcDbEntity
  8
CURVE
100
AcDbLine
 62
250
  6
CONTINUOUS
 10
5.2220336961
 20
-4.5146751797
 11
6.1066123282
 21
-5.6387871797
  0
LINE
  5
49D
100
AcDbEntity
  8
CURVE
100
AcDbLine
 62
250
  6
CONTINUOUS
 10
6.3879739002
 20
-5.3093401797
 11
5.2220336961
 21
-3.8276911797
  0
LINE
  5
49E
100
AcDbEntity
  8
ASSI
100
AcDbLine
 62
250
  6
CONTINUOUS
 10
-3.9595262264
 20
23.248522197
 11
-3.9420107993
 21
23.2000598884
  0
LINE
  5
49F
100
AcDbEntity
  8
ASSI
100
AcDbLine
 62
250
  6
CONTINUOUS
 10
-3.5227181691
 20
23.407507328
 11
-3.5017633846
 21
23.3494477708
  0
LINE
  5
4A0
100
AcDbEntity
  8
ASSI
100
AcDbLine
 62
250
  6
CONTINUOUS
 10
-3.9420107993
 20
23.2000598884
 11
-3.9259160928
 21
23.1548752956
  0
LINE
  5
4A1
100
AcDbEntity
  8
ASSI
100
AcDbLine
 62
250
  6
CONTINUOUS
 10
-3.5017633846
 20
23.3494477708
 11
-3.4890215914
 21
23.3136156587
  0
LINE
  5
4A2
100
AcDbEntity
  8
ASSI
100
AcDbLine
 62
250
  6
CONTINUOUS
 10
-3.4890215914
 20
23.3136156587
 11
-3.4778878126
 21
23.2818395398
  0
LWPOLYLINE
  5
4A3
100
AcDbEntity
  8
ASSI
100
AcDbPolyline
 62
250
  6
CONTINUOUS
 90
8
 70
0
 10
-3.9259160928
 20
23.1548752956
 10
-3.9123306615
 20
23.1160244482
 10
-3.906774489
 20
23.0998171674
 10
-3.902173347
 20
23.0861349974
 10
-3.8986053659
 20
23.0752102706
 10
-3.8961311325
 20
23.0672284961
 10
-3.8947926608
 20
23.0623252098
 10
-3.894612679
 20
23.0605836728
  0
LWPOLYLINE
  5
4A4
100
AcDbEntity
  8
ASSI
100
AcDbPolyline
 62
250
  6
CONTINUOUS
 90
8
 70
0
 10
-3.4778878126
 20
23.2818395398
 10
-3.4688579252
 20
23.2555332906
 10
-3.4652701753
 20
23.2448335303
 10
-3.4623503993
 20
23.2359185466
 10
-3.4601295959
 20
23.2288845596
 10
-3.4586266128
 20
23.2237941163
 10
-3.4578508059
 20
23.2206830925
 10
-3.4578046217
 20
23.2195688038
  0
LWPOLYLINE
  5
4A5
100
AcDbEntity
  8
CURVE
100
AcDbPolyline
 62
250
  6
CONTINUOUS
 90
51
 70
0
 10
7.9843156719
 20
-8.1241957788
 10
7.9847565472
 20
-8.1492230982
 10
7.986071476
 20
-8.1742947483
 10
7.9882489133
 20
-8.1993825362
 10
7.9912773136
 20
-8.2244582688
 10
7.9951451316
 20
-8.2494937532
 10
7.9998408222
 20
-8.2744607964
 10
8.0053528399
 20
-8.2993312054
 10
8.0116696395
 20
-8.3240767874
 10
8.0187796757
 20
-8.3486693493
 10
8.0266714032
 20
-8.3730806981
 10
8.0353332767
 20
-8.3972826409
 10
8.044753751
 20
-8.4212469847
 10
8.0549212807
 20
-8.4449455366
 10
8.0658243206
 20
-8.4683501036
 10
8.0774513253
 20
-8.4914324927
 10
8.0897907495
 20
-8.514164511
 10
8.1028310481
 20
-8.5365179654
 10
8.1165606756
 20
-8.5584646631
 10
8.1309680868
 20
-8.579976411
 10
8.1460417365
 20
-8.6010250162
 10
8.1617700792
 20
-8.6215822857
 10
8.1781415697
 20
-8.6416200266
 10
8.1951446628
 20
-8.6611100459
 10
8.2127678131
 20
-8.6800241506
 10
8.2309994754
 20
-8.6983341477
 10
8.2498356197
 20
-8.7160245571
 10
8.2692422457
 20
-8.7330750092
 10
8.2891922372
 20
-8.7494785157
 10
8.3096584782
 20
-8.7652280883
 10
8.3306138525
 20
-8.7803167387
 10
8.3520312439
 20
-8.7947374788
 10
8.3738835363
 20
-8.8084833203
 10
8.3961436135
 20
-8.8215472748
 10
8.4187843594
 20
-8.8339223542
 10
8.4417786578
 20
-8.8456015701
 10
8.4650993926
 20
-8.8565779344
 10
8.4887194477
 20
-8.8668444587
 10
8.5126117069
 20
-8.8763941547
 10
8.536749054
 20
-8.8852200343
 10
8.561104373
 20
-8.8933151092
 10
8.5856505476
 20
-8.9006723911
 10
8.6103604617
 20
-8.9072848917
 10
8.6352069992
 20
-8.9131456227
 10
8.6601630439
 20
-8.918247596
 10
8.6852014796
 20
-8.9225838233
 10
8.7102951903
 20
-8.9261473162
 10
8.7354170598
 20
-8.9289310866
 10
8.760539972
 20
-8.9309281461
 10
8.7856368106
 20
-8.9321315066
 10
8.8106804595
 20
-8.9325341797
  0
LWPOLYLINE
  5
4A6
100
AcDbEntity
  8
CURVE
100
AcDbPolyline
 62
250
  6
CONTINUOUS
 90
51
 70
0
 10
7.5593501383
 20
-7.4143184817
 10
7.558945178
 20
-7.3893670652
 10
7.5577351615
 20
-7.3643598021
 10
7.5557273851
 20
-7.3393243715
 10
7.5529291453
 20
-7.3142884527
 10
7.5493477385
 20
-7.2892797248
 10
7.544990461
 20
-7.264325867
 10
7.5398646093
 20
-7.2394545585
 10
7.5339774798
 20
-7.2146934784
 10
7.5273363689
 20
-7.1900703059
 10
7.519948573
 20
-7.1656127202
 10
7.5118213885
 20
-7.1413484005
 10
7.5029621118
 20
-7.1173050259
 10
7.4933780394
 20
-7.0935102756
 10
7.4830764676
 20
-7.0699918288
 10
7.4720646928
 20
-7.0467773646
 10
7.4603500115
 20
-7.0238945623
 10
7.4479397201
 20
-7.001371101
 10
7.4348411149
 20
-6.9792346599
 10
7.4210614924
 20
-6.9575129181
 10
7.406608149
 20
-6.9362335548
 10
7.3914883811
 20
-6.9154242493
 10
7.3757094851
 20
-6.8951126806
 10
7.3592787574
 20
-6.875326528
 10
7.3422034944
 20
-6.8560934706
 10
7.3244909926
 20
-6.8374411876
 10
7.306160673
 20
-6.8194026205
 10
7.287229321
 20
-6.801982015
 10
7.2677252649
 20
-6.7851894412
 10
7.2476768328
 20
-6.7690349693
 10
7.227112353
 20
-6.7535286692
 10
7.2060601537
 20
-6.7386806111
 10
7.184548563
 20
-6.7245008651
 10
7.1626059092
 20
-6.7109995013
 10
7.1402605205
 20
-6.6981865897
 10
7.1175407252
 20
-6.6860722005
 10
7.0944748514
 20
-6.6746664037
 10
7.0710912273
 20
-6.6639792694
 10
7.0474181811
 20
-6.6540208677
 10
7.0234840412
 20
-6.6448012687
 10
6.9993171356
 20
-6.6363305425
 10
6.9749457925
 20
-6.6286187591
 10
6.9503983403
 20
-6.6216759887
 10
6.9257031071
 20
-6.6155123014
 10
6.9008884211
 20
-6.6101377672
 10
6.8759826106
 20
-6.6055624562
 10
6.8510140037
 20
-6.6017964385
 10
6.8260109286
 20
-6.5988497843
 10
6.8010017136
 20
-6.5967325635
 10
6.7760146869
 20
-6.5954548463
 10
6.7510781766
 20
-6.5950267028
  0
LWPOLYLINE
  5
4A7
100
AcDbEntity
  8
CURVE
100
AcDbPolyline
 62
250
  6
CONTINUOUS
 90
51
 70
0
 10
7.9842889287
 20
-5.3507523194
 10
7.9846938917
 20
-5.375703627
 10
7.9859039163
 20
-5.4007107842
 10
7.9879117056
 20
-5.4257461113
 10
7.990709963
 20
-5.4507819283
 10
7.9942913915
 20
-5.4757905555
 10
7.9986486944
 20
-5.500744313
 10
8.003774575
 20
-5.525615521
 10
8.0096617365
 20
-5.5503764998
 10
8.016302882
 20
-5.5749995693
 10
8.0236907148
 20
-5.59945705
 10
8.0318179382
 20
-5.6237212618
 10
8.0406772552
 20
-5.647764525
 10
8.0502613692
 20
-5.6715591598
 10
8.0605629834
 20
-5.6950774863
 10
8.071574801
 20
-5.7182918248
 10
8.0832895252
 20
-5.7411744953
 10
8.0956998592
 20
-5.763697818
 10
8.1087985062
 20
-5.7858341133
 10
8.1225781695
 20
-5.8075557011
 10
8.1370315523
 20
-5.8288349017
 10
8.1521513578
 20
-5.8496440353
 10
8.1679302892
 20
-5.869955422
 10
8.1843610498
 20
-5.8897413821
 10
8.2014363427
 20
-5.9089742356
 10
8.2191488711
 20
-5.9276263028
 10
8.2374792164
 20
-5.9456646446
 10
8.2564105904
 20
-5.9630850137
 10
8.2759146648
 20
-5.9798773419
 10
8.2959631112
 20
-5.9960315606
 10
8.3165276013
 20
-6.0115376016
 10
8.3375798066
 20
-6.0263853964
 10
8.3590913989
 20
-6.0405648767
 10
8.3810340497
 20
-6.0540659742
 10
8.4033794308
 20
-6.0668786204
 10
8.4260992136
 20
-6.0789927471
 10
8.44916507
 20
-6.0903982858
 10
8.4725486714
 20
-6.1010851681
 10
8.4962216896
 20
-6.1110433258
 10
8.5201557962
 20
-6.1202626904
 10
8.5443226628
 20
-6.1287331935
 10
8.568693961
 20
-6.1364447669
 10
8.5932413626
 20
-6.1433873421
 10
8.6179365391
 20
-6.1495508507
 10
8.6427511622
 20
-6.1549252245
 10
8.6676569035
 20
-6.159500395
 10
8.6926254346
 20
-6.1632662938
 10
8.7176284272
 20
-6.1662128527
 10
8.7426375529
 20
-6.1683300032
 10
8.7676244834
 20
-6.169607677
 10
8.7925608903
 20
-6.1700358057
  0
LINE
  5
4A8
100
AcDbEntity
  8
DRAFT
100
AcDbLine
 62
7
  6
CONTINUOUS
 10
7.4737913497
 20
-21.560101177
 11
7.4737913497
 21
-21.5479109821
  0
LINE
  5
4A9
100
AcDbEntity
  8
ASSI
100
AcDbLine
 62
7
  6
CONTINUOUS
 10
7.4737913497
 20
-21.560101177
 11
7.4737913497
 21
-21.5479109821
  0
LINE
  5
4AA
100
AcDbEntity
  8
CURVE
100
AcDbLine
 62
250
  6
CONTINUOUS
 10
7.4924153497
 20
-13.1033121797
 11
7.4924153497
 21
-13.6590061797
  0
LINE
  5
4AB
100
AcDbEntity
  8
CURVE
100
AcDbLine
 62
250
  6
CONTINUOUS
 10
7.4924153497
 20
-14.7700491797
 11
7.4924153497
 21
-15.3257431797
  0
LINE
  5
4AC
100
AcDbEntity
  8
CURVE
100
AcDbLine
 62
250
  6
CONTINUOUS
 10
7.5593496903
 20
-4.5147491797
 11
7.5593496903
 21
-3.8306201797
  0
LINE
  5
4AD
100
AcDbEntity
  8
CURVE
100
AcDbLine
 62
250
  6
CONTINUOUS
 10
7.5593501383
 20
-7.4143184817
 11
7.5593501383
 21
-8.1132408728
  0
LINE
  5
4AE
100
AcDbEntity
  8
CURVE
100
AcDbLine
 62
250
  6
CONTINUOUS
 10
7.5593546899
 20
-6.1700361797
 11
7.5593546899
 21
-5.6387871797
  0
LINE
  5
4AF
100
AcDbEntity
  8
ASSI
100
AcDbLine
 62
250
  6
CONTINUOUS
 10
7.6088108491
 20
-22.3631779703
 11
7.6088108491
 21
-21.4851293542
  0
LINE
  5
4B0
100
AcDbEntity
  8
ASSI
100
AcDbLine
 62
250
  6
CONTINUOUS
 10
7.6088108491
 20
21.7938545203
 11
7.6088108491
 21
22.5981096109
  0
LINE
  5
4B1
100
AcDbEntity
  8
ASSI
100
AcDbLine
 62
250
  6
CONTINUOUS
 10
7.7367549858
 20
-22.3419472829
 11
7.7367549858
 21
-21.482896081
  0
LINE
  5
4B2
100
AcDbEntity
  8
ASSI
100
AcDbLine
 62
250
  6
CONTINUOUS
 10
7.7367549858
 20
21.7927379688
 11
7.7367549858
 21
22.5768789235
  0
LINE
  5
4B3
100
AcDbEntity
  8
CURVE
100
AcDbLine
 62
250
  6
CONTINUOUS
 10
7.9842889287
 20
-4.6518269859
 11
7.9842889287
 21
-5.3507523194
  0
LINE
  5
4B4
100
AcDbEntity
  8
CURVE
100
AcDbLine
 62
250
  6
CONTINUOUS
 10
7.9843156719
 20
-8.1241957788
 11
7.9843156719
 21
-6.5950267028
  0
LINE
  5
4B5
100
AcDbEntity
  8
CURVE
100
AcDbLine
 62
250
  6
CONTINUOUS
 10
8.0481093497
 20
-13.1033121797
 11
8.0481093497
 21
-13.6590061797
  0
LINE
  5
4B6
100
AcDbEntity
  8
CURVE
100
AcDbLine
 62
250
  6
CONTINUOUS
 10
8.0481093497
 20
-15.3257431797
 11
8.0481093497
 21
-14.7700491797
  0
LINE
  5
4B7
100
AcDbEntity
  8
CURVE
100
AcDbLine
 62
250
  6
CONTINUOUS
 10
8.5154966847
 20
-5.3436096705
 11
8.5154966847
 21
-4.6589694609
  0
LINE
  5
4B8
100
AcDbEntity
  8
CURVE
100
AcDbLine
 62
250
  6
CONTINUOUS
 10
8.5155251886
 20
-6.5950267028
 11
8.5155251886
 21
-8.117055452
  0
LINE
  5
4B9
100
AcDbEntity
  8
RACCORDO
100
AcDbLine
 62
7
  6
CONTINUOUS
 10
8.5697454667
 20
-20.8559218185
 11
8.5697454667
 21
-21.2183942543
  0
LINE
  5
4BA
100
AcDbEntity
  8
DRAFT
100
AcDbLine
 62
7
  6
CONTINUOUS
 10
9.1737913497
 20
-20.0413148581
 11
9.1737913497
 21
-21.4569298006
  0
LINE
  5
4BB
100
AcDbEntity
  8
DRAFT
100
AcDbLine
 62
7
  6
CONTINUOUS
 10
9.1737913497
 20
-19.6325341797
 11
9.1737913497
 21
-19.3698095043
  0
LINE
  5
4BC
100
AcDbEntity
  8
ASSI
100
AcDbLine
 62
7
  6
CONTINUOUS
 10
9.1737913497
 20
-19.6325341797
 11
9.1737913497
 21
-19.3698095043
  0
LINE
  5
4BD
100
AcDbEntity
  8
ASSI
100
AcDbLine
 62
7
  6
CONTINUOUS
 10
9.1737913497
 20
-21.4569298006
 11
9.1737913497
 21
-22.1325341797
  0
LINE
  5
4BE
100
AcDbEntity
  8
RACCORDO
100
AcDbLine
 62
7
  6
CONTINUOUS
 10
9.1737913497
 20
19.4460693476
 11
9.1737913497
 21
21.7801971424
  0
LINE
  5
4BF
100
AcDbEntity
  8
ASSI
100
AcDbLine
 62
7
  6
CONTINUOUS
 10
9.1737913497
 20
19.4460693476
 11
9.1737913497
 21
22.3674658203
  0
LINE
  5
4C0
100
AcDbEntity
  8
CURVE
100
AcDbLine
 62
250
  6
CONTINUOUS
 10
9.2591875431
 20
-4.3637917115
 11
9.2591875431
 21
-5.63878742
  0
LINE
  5
4C1
100
AcDbEntity
  8
CURVE
100
AcDbLine
 62
250
  6
CONTINUOUS
 10
9.7146743497
 20
-10.8812251797
 11
9.7146743497
 21
-11.4369191797
  0
LINE
  5
4C2
100
AcDbEntity
  8
CURVE
100
AcDbLine
 62
250
  6
CONTINUOUS
 10
9.7146743497
 20
-14.7700491797
 11
9.7146743497
 21
-15.3257431797
  0
LINE
  5
4C3
100
AcDbEntity
  8
CURVE
100
AcDbLine
 62
250
  6
CONTINUOUS
 10
9.7903952992
 20
-5.63878742
 11
9.7903952992
 21
-4.3637917115
  0
LINE
  5
4C4
100
AcDbEntity
  8
CURVE
100
AcDbLine
 62
250
  6
CONTINUOUS
 10
9.790423803
 20
-8.117055452
 11
9.790423803
 21
-6.5950267028
  0
LWPOLYLINE
  5
4C5
100
AcDbEntity
  8
CURVE
100
AcDbPolyline
 62
250
  6
CONTINUOUS
 90
33
 70
0
 10
9.2717129211
 20
1.1174658196
 10
9.2711983332
 20
1.0744609497
 10
9.2696615053
 20
1.0313405537
 10
9.2671128417
 20
0.9881334704
 10
9.2635627462
 20
0.9448685385
 10
9.259021623
 20
0.9015745968
 10
9.2534998761
 20
0.858280484
 10
9.2470079096
 20
0.8150150389
 10
9.2395561275
 20
0.7718071003
 10
9.2311549339
 20
0.7286855068
 10
9.2218147328
 20
0.6856790974
 10
9.2115459283
 20
0.6428167106
 10
9.2003589243
 20
0.6001271854
 10
9.1882641251
 20
0.5576393604
 10
9.1752719345
 20
0.5153820745
 10
9.1613927567
 20
0.4733841663
 10
9.1466369958
 20
0.4316744747
 10
9.1310150556
 20
0.3902818383
 10
9.1145373405
 20
0.349235096
 10
9.0972142542
 20
0.3085630866
 10
9.079056201
 20
0.2682946487
 10
9.0600735849
 20
0.2284586212
 10
9.0402768098
 20
0.1890838427
 10
9.0196762799
 20
0.1501991522
 10
8.9982823993
 20
0.1118333882
 10
8.9761055719
 20
0.0740153896
 10
8.9531562018
 20
0.0367739952
 10
8.929444693
 20
0.0001380437
 10
8.9049814497
 20
-0.0358636262
 10
8.8797768759
 20
-0.0712021756
 10
8.8538413755
 20
-0.1058487658
 10
8.8271853527
 20
-0.1397745581
 10
8.7998192116
 20
-0.1729507137
  0
LWPOLYLINE
  5
4C6
100
AcDbEntity
  8
CURVE
100
AcDbPolyline
 62
250
  6
CONTINUOUS
 90
51
 70
0
 10
7.0281434717
 20
-8.106100546
 10
7.0280065542
 20
-8.1149873128
 10
7.027596962
 20
-8.1238952428
 10
7.0269164355
 20
-8.1328147275
 10
7.025966715
 20
-8.1417361582
 10
7.0247495409
 20
-8.1506499264
 10
7.0232666536
 20
-8.1595464234
 10
7.0215197934
 20
-8.1684160407
 10
7.0195107009
 20
-8.1772491697
 10
7.0172411162
 20
-8.1860362017
 10
7.0147127799
 20
-8.1947675281
 10
7.0119274322
 20
-8.2034335403
 10
7.0088868136
 20
-8.2120246298
 10
7.0055926645
 20
-8.2205311879
 10
7.0020467252
 20
-8.2289436061
 10
6.998250736
 20
-8.2372522756
 10
6.9942064375
 20
-8.245447588
 10
6.9899155699
 20
-8.2535199346
 10
6.9853798736
 20
-8.2614597068
 10
6.9806010891
 20
-8.2692572961
 10
6.9755809566
 20
-8.2769030937
 10
6.9703212166
 20
-8.2843874911
 10
6.9648236095
 20
-8.2917008798
 10
6.9590898756
 20
-8.298833651
 10
6.9531217553
 20
-8.3057761962
 10
6.9469209889
 20
-8.3125189068
 10
6.9404988848
 20
-8.3190450218
 10
6.9338567066
 20
-8.3253577081
 10
6.9270047111
 20
-8.3314524592
 10
6.9199531556
 20
-8.3373247687
 10
6.9127122969
 20
-8.3429701301
 10
6.9052923923
 20
-8.3483840369
 10
6.8977036987
 20
-8.3535619827
 10
6.8899564732
 20
-8.358499461
 10
6.8820609728
 20
-8.3631919654
 10
6.8740274546
 20
-8.3676349893
 10
6.8658661757
 20
-8.3718240263
 10
6.857587393
 20
-8.3757545699
 10
6.8492013636
 20
-8.3794221137
 10
6.8407183446
 20
-8.3828221511
 10
6.832148593
 20
-8.3859501758
 10
6.8235023658
 20
-8.3888016812
 10
6.8147899202
 20
-8.3913721608
 10
6.8060215131
 20
-8.3936571083
 10
6.7972074016
 20
-8.3956520171
 10
6.7883578428
 20
-8.3973523807
 10
6.7794830936
 20
-8.3987536928
 10
6.7705934112
 20
-8.3998514468
 10
6.7616990526
 20
-8.4006411362
 10
6.7528102749
 20
-8.4011182546
 10
6.743937335
 20
-8.4012782955
  0
LWPOLYLINE
  5
4C7
100
AcDbEntity
  8
CURVE
100
AcDbPolyline
 62
250
  6
CONTINUOUS
 90
51
 70
0
 10
8.5154966847
 20
-4.6589694609
 10
8.5156336062
 20
-4.6500827194
 10
8.51604321
 20
-4.6411748198
 10
8.5167237551
 20
-4.6322553704
 10
8.5176735004
 20
-4.623333979
 10
8.518890705
 20
-4.6144202538
 10
8.5203736277
 20
-4.6055238028
 10
8.5221205276
 20
-4.5966542341
 10
8.5241296635
 20
-4.5878211557
 10
8.5263992945
 20
-4.5790341757
 10
8.5289276796
 20
-4.570302902
 10
8.5317130777
 20
-4.5616369429
 10
8.5347537477
 20
-4.5530459063
 10
8.5380479487
 20
-4.5445394003
 10
8.5415939396
 20
-4.5361270329
 10
8.5453899793
 20
-4.5278184121
 10
8.5494343269
 20
-4.5196231461
 10
8.5537252413
 20
-4.5115508429
 10
8.5582609814
 20
-4.5036111105
 10
8.5630398063
 20
-4.495813557
 10
8.5680599748
 20
-4.4881677905
 10
8.573319746
 20
-4.4806834189
 10
8.5788173789
 20
-4.4733700503
 10
8.5845511323
 20
-4.4662372929
 10
8.5905192653
 20
-4.4592947546
 10
8.5967200368
 20
-4.4525520435
 10
8.6031421423
 20
-4.4460259162
 10
8.6097843147
 20
-4.4397132106
 10
8.6166362975
 20
-4.4336184337
 10
8.6236878342
 20
-4.4277460927
 10
8.6309286684
 20
-4.4221006947
 10
8.6383485436
 20
-4.4166867467
 10
8.6459372032
 20
-4.411508756
 10
8.6536843908
 20
-4.4065712296
 10
8.6615798499
 20
-4.4018786745
 10
8.669613324
 20
-4.3974355981
 10
8.6777745566
 20
-4.3932465072
 10
8.6860532912
 20
-4.3893159092
 10
8.6944392714
 20
-4.385648311
 10
8.7029222405
 20
-4.3822482198
 10
8.7114919422
 20
-4.3791201427
 10
8.72013812
 20
-4.3762685868
 10
8.7288505173
 20
-4.3736980592
 10
8.7376188777
 20
-4.371413067
 10
8.7464329447
 20
-4.3694181174
 10
8.7552824618
 20
-4.3677177175
 10
8.7641571725
 20
-4.3663163743
 10
8.7730468203
 20
-4.365218595
 10
8.7819411487
 20
-4.3644288867
 10
8.7908299012
 20
-4.3639517565
 10
8.7997028214
 20
-4.3637917115
  0
LWPOLYLINE
  5
4C8
100
AcDbEntity
  8
CURVE
100
AcDbPolyline
 62
250
  6
CONTINUOUS
 90
51
 70
0
 10
9.790423803
 20
-8.117055452
 10
9.790263777
 20
-8.125928931
 10
9.7897867022
 20
-8.1348182567
 10
9.7889970833
 20
-8.1437131707
 10
9.7878994249
 20
-8.1526034153
 10
9.7864982317
 20
-8.1614787321
 10
9.7847980085
 20
-8.1703288633
 10
9.7828032598
 20
-8.1791435508
 10
9.7805184903
 20
-8.1879125365
 10
9.7779482048
 20
-8.1966255622
 10
9.775096908
 20
-8.2052723701
 10
9.7719691044
 20
-8.213842702
 10
9.7685692988
 20
-8.2223262999
 10
9.7649019959
 20
-8.2307129057
 10
9.7609717003
 20
-8.2389922613
 10
9.7567829168
 20
-8.2471541087
 10
9.7523401499
 20
-8.2551881899
 10
9.7476479044
 20
-8.2630842467
 10
9.742710685
 20
-8.2708320212
 10
9.7375329964
 20
-8.2784212552
 10
9.7321193432
 20
-8.2858416908
 10
9.72647423
 20
-8.2930830697
 10
9.7206021617
 20
-8.3001351341
 10
9.7145076429
 20
-8.3069876258
 10
9.7081951781
 20
-8.3136302868
 10
9.7016692723
 20
-8.320052859
 10
9.6949271285
 20
-8.3262537481
 10
9.6879851582
 20
-8.3322219995
 10
9.6808529692
 20
-8.3379558717
 10
9.6735401698
 20
-8.3434536231
 10
9.6660563681
 20
-8.3487135123
 10
9.6584111722
 20
-8.3537337977
 10
9.6506141903
 20
-8.3585127379
 10
9.6426750303
 20
-8.3630485912
 10
9.6346033006
 20
-8.3673396163
 10
9.6264086091
 20
-8.3713840715
 10
9.618100564
 20
-8.3751802155
 10
9.6096887734
 20
-8.3787263066
 10
9.6011828455
 20
-8.3820206033
 10
9.5925923883
 20
-8.3850613642
 10
9.58392701
 20
-8.3878468478
 10
9.5751963187
 20
-8.3903753124
 10
9.5664099225
 20
-8.3926450167
 10
9.5575774296
 20
-8.3946542191
 10
9.548708448
 20
-8.396401178
 10
9.5398125859
 20
-8.397884152
 10
9.5308994513
 20
-8.3991013996
 10
9.5219786525
 20
-8.4000511793
 10
9.5130597976
 20
-8.4007317495
 10
9.5041524945
 20
-8.4011413687
 10
9.4952663516
 20
-8.4012782955
  0
LWPOLYLINE
  5
4C9
100
AcDbEntity
  8
DRAFT
100
AcDbPolyline
 62
7
  6
CONTINUOUS
 90
27
 70
0
 10
7.4737913497
 20
-21.5479109821
 10
7.4760178414
 20
-21.4638529131
 10
7.4826375008
 20
-21.3800110526
 10
7.4935546571
 20
-21.2963854006
 10
7.5086169534
 20
-21.2130396772
 10
7.5277397128
 20
-21.1299101622
 10
7.5510256695
 20
-21.046805695
 10
7.5784613984
 20
-20.9636891324
 10
7.6100185394
 20
-20.8805976176
 10
7.6459714064
 20
-20.7974514193
 10
7.6863653571
 20
-20.7141935582
 10
7.7312505659
 20
-20.6308810136
 10
7.78109536
 20
-20.5476049924
 10
7.8361672065
 20
-20.4640478085
 10
7.8964415899
 20
-20.3805271479
 10
7.9620333659
 20
-20.2980872764
 10
8.0330163847
 20
-20.2166329035
 10
8.1094268026
 20
-20.1362593197
 10
8.1912952237
 20
-20.0582966619
 10
8.2784225483
 20
-19.9827723973
 10
8.3709412294
 20
-19.9096590588
 10
8.4694091339
 20
-19.8402043819
 10
8.5742331901
 20
-19.7740652205
 10
8.6849046434
 20
-19.7115847208
 10
8.800546144
 20
-19.6550400573
 10
8.9206570615
 20
-19.6051902883
 10
9.0451842774
 20
-19.5612763556
  0
LWPOLYLINE
  5
4CA
100
AcDbEntity
  8
ASSI
100
AcDbPolyline
 62
7
  6
CONTINUOUS
 90
27
 70
0
 10
7.4737913497
 20
-21.5479109821
 10
7.4760178414
 20
-21.4638529131
 10
7.4826375008
 20
-21.3800110526
 10
7.4935546571
 20
-21.2963854006
 10
7.5086169534
 20
-21.2130396772
 10
7.5277397128
 20
-21.1299101622
 10
7.5510256695
 20
-21.046805695
 10
7.5784613984
 20
-20.9636891324
 10
7.6100185394
 20
-20.8805976176
 10
7.6459714064
 20
-20.7974514193
 10
7.6863653571
 20
-20.7141935582
 10
7.7312505659
 20
-20.6308810136
 10
7.78109536
 20
-20.5476049924
 10
7.8361672065
 20
-20.4640478085
 10
7.8964415899
 20
-20.3805271479
 10
7.9620333659
 20
-20.2980872764
 10
8.0330163847
 20
-20.2166329035
 10
8.1094268026
 20
-20.1362593197
 10
8.1912952237
 20
-20.0582966619
 10
8.2784225483
 20
-19.9827723973
 10
8.3709412294
 20
-19.9096590588
 10
8.4694091339
 20
-19.8402043819
 10
8.5742331901
 20
-19.7740652205
 10
8.6849046434
 20
-19.7115847208
 10
8.800546144
 20
-19.6550400573
 10
8.9206570615
 20
-19.6051902883
 10
9.0451842774
 20
-19.5612763556
  0
LWPOLYLINE
  5
4CB
100
AcDbEntity
  8
ASSI
100
AcDbPolyline
 62
250
  6
CONTINUOUS
 90
8
 70
0
 10
1.3230937244
 20
-23.1325341797
 10
1.3235257861
 20
-23.1310077721
 10
1.3239512536
 20
-23.1264518346
 10
1.3243636326
 20
-23.1189358894
 10
1.324756628
 20
-23.108574647
 10
1.3251242412
 20
-23.0955262427
 10
1.3254608611
 20
-23.079989811
 10
1.3260211178
 20
-23.0424357383
  0
LWPOLYLINE
  5
4CC
100
AcDbEntity
  8
ASSI
100
AcDbPolyline
 62
250
  6
CONTINUOUS
 90
13
 70
0
 10
0.7619890218
 20
-23.046460095
 10
0.7660148035
 20
-23.034131353
 10
0.7695485153
 20
-23.022040425
 10
0.7725901572
 20
-23.010187311
 10
0.7751079306
 20
-22.9985594153
 10
0.7771336341
 20
-22.9871693335
 10
0.7787626631
 20
-22.9760548529
 10
0.7799984102
 20
-22.9652332167
 10
0.7808374829
 20
-22.9546871817
 10
0.7813650994
 20
-22.9444028054
 10
0.7816096658
 20
-22.9343754402
 10
0.781542776
 20
-22.9246097338
 10
0.7811644301
 20
-22.915105686
  0
LWPOLYLINE
  5
4CD
100
AcDbEntity
  8
ASSI
100
AcDbPolyline
 62
250
  6
CONTINUOUS
 90
13
 70
0
 10
0.6005741671
 20
-22.9982116369
 10
0.6027211003
 20
-22.9920630294
 10
0.604575061
 20
-22.9860139787
 10
0.6061470421
 20
-22.9800749945
 10
0.6074412274
 20
-22.9742569533
 10
0.6084758222
 20
-22.9685670493
 10
0.6092827565
 20
-22.9630087632
 10
0.609874109
 20
-22.9575949278
 10
0.6102598838
 20
-22.9523254012
 10
0.6104670793
 20
-22.9471827387
 10
0.6105100824
 20
-22.9421637602
 10
0.6103922733
 20
-22.93727981
 10
0.6101224621
 20
-22.9325341797
  0
LWPOLYLINE
  5
4CE
100
AcDbEntity
  8
CURVE
100
AcDbPolyline
 62
250
  6
CONTINUOUS
 90
37
 70
0
 10
6.2049924053
 20
2.0894389685
 10
6.1817832689
 20
2.064121511
 10
6.1590435386
 20
2.0384019428
 10
6.1367813595
 20
2.0122750126
 10
6.1150048772
 20
1.985735469
 10
6.0937222369
 20
1.9587780606
 10
6.072941584
 20
1.9313975362
 10
6.0526710639
 20
1.9035886443
 10
6.0329188218
 20
1.8753461337
 10
6.0136930033
 20
1.846664753
 10
5.9950017535
 20
1.8175392508
 10
5.9768532179
 20
1.7879643758
 10
5.9624549374
 20
1.7634989213
 10
5.9484407298
 20
1.7387430793
 10
5.9348279263
 20
1.7137091342
 10
5.9216338581
 20
1.6884093705
 10
5.9088758564
 20
1.6628560724
 10
5.8965712523
 20
1.6370615244
 10
5.884737377
 20
1.6110380107
 10
5.8733915618
 20
1.5847978158
 10
5.8625511379
 20
1.5583532241
 10
5.8522334363
 20
1.5317165198
 10
5.8424557884
 20
1.5048999873
 10
5.8332355253
 20
1.4779159111
 10
5.8245899782
 20
1.4507765754
 10
5.8165364782
 20
1.4234942647
 10
5.8090923567
 20
1.3960812632
 10
5.8022749447
 20
1.3685498554
 10
5.7961015735
 20
1.3409123256
 10
5.7905895743
 20
1.3131809582
 10
5.7857562782
 20
1.2853680376
 10
5.7816190164
 20
1.257485848
 10
5.7781951202
 20
1.2295466739
 10
5.7755019206
 20
1.2015627997
 10
5.773556749
 20
1.1735465096
 10
5.7723769365
 20
1.1455100881
 10
5.7719798143
 20
1.1174658196
  0
LINE
  5
4CF
100
AcDbEntity
  8
CURVE
100
AcDbLine
 62
250
  6
CONTINUOUS
 10
11.8737913497
 20
-15.8825341797
 11
13.1737913497
 21
-15.8825341797
  0
LINE
  5
4D0
100
AcDbEntity
  8
CURVE
100
AcDbLine
 62
250
  6
CONTINUOUS
 10
5.2703283497
 20
-15.8810921797
 11
10.2703683497
 21
-15.8810921797
  0
LINE
  5
4D1
100
AcDbEntity
  8
CURVE
100
AcDbLine
 62
250
  6
CONTINUOUS
 10
9.7146743497
 20
-15.3257431797
 11
8.0481093497
 21
-15.3257431797
  0
LINE
  5
4D2
100
AcDbEntity
  8
CURVE
100
AcDbLine
 62
250
  6
CONTINUOUS
 10
7.4924153497
 20
-15.3257431797
 11
5.8258503497
 21
-15.3257431797
  0
LINE
  5
4D3
100
AcDbEntity
  8
CURVE
100
AcDbLine
 62
250
  6
CONTINUOUS
 10
13.1737913497
 20
-15.1396770036
 11
11.8737913497
 21
-15.1396770036
  0
LINE
  5
4D4
100
AcDbEntity
  8
CURVE
100
AcDbLine
 62
250
  6
CONTINUOUS
 10
10.2703683497
 20
-14.7700491797
 11
9.7146743497
 21
-14.7700491797
  0
LINE
  5
4D5
100
AcDbEntity
  8
CURVE
100
AcDbLine
 62
250
  6
CONTINUOUS
 10
8.0481093497
 20
-14.7700491797
 11
7.4924153497
 21
-14.7700491797
  0
LINE
  5
4D6
100
AcDbEntity
  8
CURVE
100
AcDbLine
 62
250
  6
CONTINUOUS
 10
5.8258503497
 20
-14.7700491797
 11
5.2703283497
 21
-14.7700491797
  0
LINE
  5
4D7
100
AcDbEntity
  8
0
100
AcDbLine
 62
7
  6
CONTINUOUS
 10
14.1737913497
 20
-14.6326740286
 11
14.3737913497
 21
-14.6326740286
  0
LINE
  5
4D8
100
AcDbEntity
  8
ASSI
100
AcDbLine
 62
7
  6
CONTINUOUS
 10
14.1737913497
 20
-14.6326740286
 11
14.3737913497
 21
-14.6326740286
  0
LINE
  5
4D9
100
AcDbEntity
  8
CURVE
100
AcDbLine
 62
250
  6
CONTINUOUS
 10
10.2703683497
 20
-14.2147001797
 11
5.2703283497
 21
-14.2147001797
  0
LINE
  5
4DA
100
AcDbEntity
  8
CURVE
100
AcDbLine
 62
250
  6
CONTINUOUS
 10
3.6661921862
 20
-9.0741601797
 11
0.666781616
 21
-8.1332821797
  0
LINE
  5
4DB
100
AcDbEntity
  8
CURVE
100
AcDbLine
 62
250
  6
CONTINUOUS
 10
10.2703683497
 20
-12.5479631797
 11
10.2703683497
 21
-13.1033121797
  0
LINE
  5
4DC
100
AcDbEntity
  8
CURVE
100
AcDbLine
 62
250
  6
CONTINUOUS
 10
10.2703683497
 20
-13.6590061797
 11
10.2703683497
 21
-14.2147001797
  0
LINE
  5
4DD
100
AcDbEntity
  8
CURVE
100
AcDbLine
 62
250
  6
CONTINUOUS
 10
10.2703683497
 20
-15.8810921797
 11
10.2703683497
 21
-14.7700491797
  0
LINE
  5
4DE
100
AcDbEntity
  8
CURVE
100
AcDbLine
 62
250
  6
CONTINUOUS
 10
10.2703683497
 20
-11.9922691797
 11
10.2703683497
 21
-10.8812251797
  0
LINE
  5
4DF
100
AcDbEntity
  8
CURVE
100
AcDbLine
 62
250
  6
CONTINUOUS
 10
10.2716371273
 20
-1.8825341797
 11
10.2716371273
 21
-0.8825348977
  0
LINE
  5
4E0
100
AcDbEntity
  8
CURVE
100
AcDbLine
 62
250
  6
CONTINUOUS
 10
10.3216333197
 20
-6.5950267028
 11
10.3216333197
 21
-8.1241957788
  0
LINE
  5
4E1
100
AcDbEntity
  8
CURVE
100
AcDbLine
 62
250
  6
CONTINUOUS
 10
10.3216333197
 20
-6.1700358057
 11
10.3216333197
 21
-5.63878742
  0
LINE
  5
4E2
100
AcDbEntity
  8
CURVE
100
AcDbLine
 62
250
  6
CONTINUOUS
 10
10.3216333197
 20
-4.3637917115
 11
10.3216333197
 21
-3.8325434996
  0
LINE
  5
4E3
100
AcDbEntity
  8
CURVE
100
AcDbLine
 62
250
  6
CONTINUOUS
 10
11.8737913497
 20
-6.0706296539
 11
11.8737913497
 21
-6.8134864426
  0
LINE
  5
4E4
100
AcDbEntity
  8
CURVE
100
AcDbLine
 62
250
  6
CONTINUOUS
 10
11.8737913497
 20
-11.920629344
 11
11.8737913497
 21
-12.4777722454
  0
LINE
  5
4E5
100
AcDbEntity
  8
CURVE
100
AcDbLine
 62
250
  6
CONTINUOUS
 10
11.8737913497
 20
-13.1896770811
 11
11.8737913497
 21
-13.653962729
  0
LINE
  5
4E6
100
AcDbEntity
  8
CURVE
100
AcDbLine
 62
250
  6
CONTINUOUS
 10
12.4309341736
 20
-12.4777722454
 11
12.4309341736
 21
-12.1063438511
  0
LINE
  5
4E7
100
AcDbEntity
  8
CURVE
100
AcDbLine
 62
250
  6
CONTINUOUS
 10
12.8023627616
 20
-5.0801535225
 11
12.8023627616
 21
-5.5753915882
  0
LINE
  5
4E8
100
AcDbEntity
  8
CURVE
100
AcDbLine
 62
250
  6
CONTINUOUS
 10
12.8023627616
 20
-14.1492007947
 11
12.8023627616
 21
-14.6444389379
  0
LWPOLYLINE
  5
4E9
100
AcDbEntity
  8
CURVE
100
AcDbPolyline
 62
250
  6
CONTINUOUS
 90
31
 70
0
 10
9.72005366
 20
-0.6165799782
 10
9.7546476968
 20
-0.5666566043
 10
9.7882281767
 20
-0.5158490288
 10
9.8207839322
 20
-0.4641937746
 10
9.8523037957
 20
-0.4117273648
 10
9.8827765996
 20
-0.3584863222
 10
9.9121911764
 20
-0.3045071697
 10
9.9405363583
 20
-0.2498264304
 10
9.9678009779
 20
-0.1944806271
 10
9.9939738675
 20
-0.1385062827
 10
10.0190438596
 20
-0.0819399203
 10
10.0429997865
 20
-0.0248180626
 10
10.0658304807
 20
0.0328227673
 10
10.0875247746
 20
0.0909460465
 10
10.1080715006
 20
0.1495152521
 10
10.1274594911
 20
0.2084938612
 10
10.1456775785
 20
0.2678453508
 10
10.1627145952
 20
0.327533198
 10
10.1785593736
 20
0.3875208798
 10
10.1932007462
 20
0.4477718734
 10
10.2066275453
 20
0.5082496558
 10
10.2188286035
 20
0.5689177041
 10
10.2297927529
 20
0.6297394954
 10
10.2395088262
 20
0.6906785066
 10
10.2479656556
 20
0.7516982149
 10
10.2551520737
 20
0.8127620974
 10
10.2610569127
 20
0.8738336311
 10
10.2656690052
 20
0.9348762931
 10
10.2689771835
 20
0.9958535605
 10
10.2709702801
 20
1.0567289103
 10
10.2716371273
 20
1.1174658196
  0
LWPOLYLINE
  5
4EA
100
AcDbEntity
  8
CURVE
100
AcDbPolyline
 62
250
  6
CONTINUOUS
 90
82
 70
0
 10
8.3296274649
 20
0.0538366987
 10
8.3691597465
 20
0.0948517837
 10
8.4072010683
 20
0.1373204882
 10
8.4437014989
 20
0.1811705384
 10
8.478611107
 20
0.2263296608
 10
8.5118799612
 20
0.2727255813
 10
8.54345813
 20
0.3202860264
 10
8.5737314005
 20
0.3696859154
 10
8.6021490365
 20
0.4201588935
 10
8.6286490324
 20
0.4716525337
 10
8.6531693826
 20
0.5241144089
 10
8.6756480814
 20
0.5774920921
 10
8.6960231231
 20
0.6317331562
 10
8.7142630951
 20
0.6869008612
 10
8.7302209756
 20
0.7427856172
 10
8.7437899672
 20
0.799289915
 10
8.7548632723
 20
0.8563162453
 10
8.7633340935
 20
0.9137670989
 10
8.7690956332
 20
0.9715449664
 10
8.7720886083
 20
1.0303242738
 10
8.7722444755
 20
1.0892031998
 10
8.7696181125
 20
1.1480456719
 10
8.7642643969
 20
1.2067156179
 10
8.7562382064
 20
1.2650769653
 10
8.7455944187
 20
1.3229936417
 10
8.7318840203
 20
1.3823701319
 10
8.7155579654
 20
1.4410646321
 10
8.696748704
 20
1.4990179069
 10
8.6755886861
 20
1.5561707206
 10
8.6522103616
 20
1.6124638376
 10
8.6267461805
 20
1.6678380223
 10
8.5984867718
 20
1.7238112265
 10
8.568225054
 20
1.7787050128
 10
8.5360279117
 20
1.8324761113
 10
8.5019622298
 20
1.8850812525
 10
8.466094893
 20
1.9364771667
 10
8.4284927859
 20
1.9866205843
 10
8.3889337209
 20
2.0358071584
 10
8.3477238302
 20
2.0836173013
 10
8.3049039309
 20
2.1299888048
 10
8.2605148398
 20
2.1748594607
 10
8.2145973739
 20
2.2181670607
 10
8.16719235
 20
2.2598493967
 10
8.1191667052
 20
2.2991847034
 10
8.0697749927
 20
2.3367925584
 10
8.0190499886
 20
2.372577115
 10
7.9670244691
 20
2.4064425266
 10
7.9137312101
 20
2.4382929466
 10
7.8592029879
 20
2.4680325284
 10
7.8130044166
 20
2.4910516707
 10
7.7660209514
 20
2.5124500361
 10
7.7182969523
 20
2.5321289914
 10
7.6698767791
 20
2.5499899034
 10
7.6208047918
 20
2.565934139
 10
7.5711253503
 20
2.579863065
 10
7.5208828145
 20
2.5916780484
 10
7.4711758247
 20
2.6011172544
 10
7.421080349
 20
2.6084029333
 10
7.3707056358
 20
2.6135045605
 10
7.3201609333
 20
2.6163916113
 10
7.2695554898
 20
2.6170335611
 10
7.2189985534
 20
2.6153998852
 10
7.1685993726
 20
2.6114600591
 10
7.1173836185
 20
2.6050471874
 10
7.0665100604
 20
2.5963108366
 10
7.0160422788
 20
2.5853658232
 10
6.9660438542
 20
2.5723269636
 10
6.9165783671
 20
2.5573090743
 10
6.867709398
 20
2.5404269717
 10
6.8195005273
 20
2.5217954722
 10
6.7620923188
 20
2.4970434791
 10
6.7057770405
 20
2.4699975328
 10
6.6505867571
 20
2.4407598669
 10
6.5965535333
 20
2.409432715
 10
6.5437094338
 20
2.3761183108
 10
6.4920865233
 20
2.3409188879
 10
6.4407080663
 20
2.3031627685
 10
6.3906802144
 20
2.2636334099
 10
6.342048845
 20
2.2224135815
 10
6.2948598354
 20
2.1795860523
 10
6.2491590631
 20
2.1352335916
 10
6.2049924053
 20
2.0894389685
  0
LINE
  5
4EB
100
AcDbEntity
  8
CURVE
100
AcDbLine
 62
250
  6
CONTINUOUS
 10
7.4924153497
 20
-13.6590061797
 11
5.8258503497
 21
-13.6590061797
  0
LINE
  5
4EC
100
AcDbEntity
  8
CURVE
100
AcDbLine
 62
250
  6
CONTINUOUS
 10
8.0481093497
 20
-13.6590061797
 11
10.2703683497
 21
-13.6590061797
  0
LINE
  5
4ED
100
AcDbEntity
  8
CURVE
100
AcDbLine
 62
250
  6
CONTINUOUS
 10
11.8737913497
 20
-13.653962729
 11
13.1737913497
 21
-13.653962729
  0
LINE
  5
4EE
100
AcDbEntity
  8
CURVE
100
AcDbLine
 62
250
  6
CONTINUOUS
 10
0.6666016297
 20
-13.1778481797
 11
3.6661921862
 21
-13.1778481797
  0
LINE
  5
4EF
100
AcDbEntity
  8
CURVE
100
AcDbLine
 62
250
  6
CONTINUOUS
 10
10.2703683497
 20
-13.1033121797
 11
8.0481093497
 21
-13.1033121797
  0
LINE
  5
4F0
100
AcDbEntity
  8
CURVE
100
AcDbLine
 62
250
  6
CONTINUOUS
 10
5.8258503497
 20
-13.1033121797
 11
7.4924153497
 21
-13.1033121797
  0
LINE
  5
4F1
100
AcDbEntity
  8
CURVE
100
AcDbLine
 62
250
  6
CONTINUOUS
 10
12.9880770556
 20
-13.0039628839
 11
12.0595056243
 21
-13.0039628839
  0
LINE
  5
4F2
100
AcDbEntity
  8
0
100
AcDbLine
 62
7
  6
CONTINUOUS
 10
14.1737913497
 20
-12.8165907455
 11
14.3737913497
 21
-12.8165907455
  0
LINE
  5
4F3
100
AcDbEntity
  8
ASSI
100
AcDbLine
 62
7
  6
CONTINUOUS
 10
14.1737913497
 20
-12.8165907455
 11
14.3737913497
 21
-12.8165907455
  0
LINE
  5
4F4
100
AcDbEntity
  8
CURVE
100
AcDbLine
 62
250
  6
CONTINUOUS
 10
3.6661921862
 20
-12.5517061797
 11
0.6666016297
 21
-12.5517061797
  0
LINE
  5
4F5
100
AcDbEntity
  8
CURVE
100
AcDbLine
 62
250
  6
CONTINUOUS
 10
5.2703283497
 20
-12.5479631797
 11
10.2703683497
 21
-12.5479631797
  0
LINE
  5
4F6
100
AcDbEntity
  8
0
100
AcDbLine
 62
7
  6
CONTINUOUS
 10
14.1737913497
 20
-12.5179007699
 11
14.3737913497
 21
-12.5179007699
  0
LINE
  5
4F7
100
AcDbEntity
  8
ASSI
100
AcDbLine
 62
7
  6
CONTINUOUS
 10
14.1737913497
 20
-12.5179007699
 11
14.3737913497
 21
-12.5179007699
  0
LINE
  5
4F8
100
AcDbEntity
  8
CURVE
100
AcDbLine
 62
250
  6
CONTINUOUS
 10
11.8737913497
 20
-12.4777722454
 11
13.1737913497
 21
-12.4777722454
  0
LINE
  5
4F9
100
AcDbEntity
  8
0
100
AcDbLine
 62
7
  6
CONTINUOUS
 10
14.1737913497
 20
-12.1349781541
 11
14.3737913497
 21
-12.1349781541
  0
LINE
  5
4FA
100
AcDbEntity
  8
ASSI
100
AcDbLine
 62
7
  6
CONTINUOUS
 10
14.1737913497
 20
-12.1349781541
 11
14.3737913497
 21
-12.1349781541
  0
LINE
  5
4FB
100
AcDbEntity
  8
0
100
AcDbLine
 62
7
  6
CONTINUOUS
 10
14.3737913497
 20
-12.0929205956
 11
14.1737913497
 21
-12.0929205956
  0
LINE
  5
4FC
100
AcDbEntity
  8
ASSI
100
AcDbLine
 62
7
  6
CONTINUOUS
 10
14.3737913497
 20
-12.0929205956
 11
14.1737913497
 21
-12.0929205956
  0
LINE
  5
4FD
100
AcDbEntity
  8
CURVE
100
AcDbLine
 62
250
  6
CONTINUOUS
 10
5.2703283497
 20
-11.9922691797
 11
10.2703683497
 21
-11.9922691797
  0
LINE
  5
4FE
100
AcDbEntity
  8
CURVE
100
AcDbLine
 62
250
  6
CONTINUOUS
 10
9.7146743497
 20
-11.4369191797
 11
5.8258503497
 21
-11.4369191797
  0
LINE
  5
4FF
100
AcDbEntity
  8
CURVE
100
AcDbLine
 62
250
  6
CONTINUOUS
 10
1.7076333466
 20
-11.4804981797
 11
3.6661921862
 21
-11.6156191797
  0
LINE
  5
500
100
AcDbEntity
  8
CURVE
100
AcDbLine
 62
250
  6
CONTINUOUS
 10
3.6661921862
 20
-12.2146341797
 11
0.666781616
 21
-11.9437841797
  0
LINE
  5
501
100
AcDbEntity
  8
CURVE
100
AcDbLine
 62
250
  6
CONTINUOUS
 10
1.4909428493
 20
-7.8421881797
 11
2.6040620762
 21
-8.1539541797
  0
LINE
  5
502
100
AcDbEntity
  8
CURVE
100
AcDbLine
 62
250
  6
CONTINUOUS
 10
3.067402789
 20
-8.2820351797
 11
3.6661921862
 21
-8.4548111797
  0
LWPOLYLINE
  5
503
100
AcDbEntity
  8
ASSI
100
AcDbPolyline
 62
250
  6
CONTINUOUS
 90
10
 70
0
 10
0.6005746105
 20
23.2331417843
 10
0.5956898756
 20
23.2453952248
 10
0.5902501041
 20
23.2568113304
 10
0.584360965
 20
23.2673890656
 10
0.5781610592
 20
23.2771341303
 10
0.5717021996
 20
23.2860690005
 10
0.5649493435
 20
23.2942299178
 10
0.5579391083
 20
23.3016503901
 10
0.5507793686
 20
23.3083612867
 10
0.5435303044
 20
23.3144003597
  0
LWPOLYLINE
  5
504
100
AcDbEntity
  8
ASSI
100
AcDbPolyline
 62
250
  6
CONTINUOUS
 90
7
 70
0
 10
5.3759142933
 20
23.3674658203
 10
5.3763463619
 20
23.365939363
 10
5.3767718351
 20
23.3613832916
 10
5.3771842183
 20
23.3538671528
 10
5.3775772166
 20
23.3435056771
 10
5.3779448312
 20
23.3304570281
 10
5.3782814504
 20
23.3149203878
  0
LINE
  5
505
100
AcDbEntity
  8
CURVE
100
AcDbLine
 62
250
  6
CONTINUOUS
 10
13.1737913497
 20
-4.1206296539
 11
13.1737913497
 21
-4.5849148369
  0
LINE
  5
506
100
AcDbEntity
  8
CURVE
100
AcDbLine
 62
250
  6
CONTINUOUS
 10
13.1737913497
 20
-13.653962729
 11
13.1737913497
 21
-13.1896770811
  0
LINE
  5
507
100
AcDbEntity
  8
CURVE
100
AcDbLine
 62
250
  6
CONTINUOUS
 10
13.1737913497
 20
-12.4777722454
 11
13.1737913497
 21
-11.920629344
  0
LINE
  5
508
100
AcDbEntity
  8
DRAFT
100
AcDbLine
 62
7
  6
CONTINUOUS
 10
14.1737913497
 20
-19.2825341797
 11
14.1737913497
 21
-18.5889237906
  0
LINE
  5
509
100
AcDbEntity
  8
RACCORDO
100
AcDbLine
 62
7
  6
CONTINUOUS
 10
14.1737913497
 20
-18.5889237906
 11
14.1737913497
 21
19.0261171888
  0
LINE
  5
50A
100
AcDbEntity
  8
ASSI
100
AcDbLine
 62
7
  6
CONTINUOUS
 10
14.1737913497
 20
-19.2825341797
 11
14.1737913497
 21
19.0261171888
  0
LINE
  5
50B
100
AcDbEntity
  8
ASSI
100
AcDbLine
 62
7
  6
CONTINUOUS
 10
14.3737913497
 20
18.1674535756
 11
14.3737913497
 21
13.0674540651
  0
LINE
  5
50C
100
AcDbEntity
  8
ASSI
100
AcDbLine
 62
7
  6
CONTINUOUS
 10
14.3737913497
 20
9.2174658185
 11
14.3737913497
 21
4.135205769
  0
LINE
  5
50D
100
AcDbEntity
  8
ASSI
100
AcDbLine
 62
7
  6
CONTINUOUS
 10
14.3737913497
 20
3.1242548203
 11
14.3737913497
 21
2.1174658203
  0
LINE
  5
50E
100
AcDbEntity
  8
0
100
AcDbLine
 62
7
  6
CONTINUOUS
 10
14.3737913497
 20
-12.0929045592
 11
14.3737913497
 21
-14.6326740286
  0
LINE
  5
50F
100
AcDbEntity
  8
ASSI
100
AcDbLine
 62
7
  6
CONTINUOUS
 10
14.3737913497
 20
-12.0929045592
 11
14.3737913497
 21
-14.6326740286
  0
LINE
  5
510
100
AcDbEntity
  8
RACCORDO
100
AcDbLine
 62
250
  6
CONTINUOUS
 10
14.4633215006
 20
-1.9926447954
 11
14.4633215006
 21
-9.972423564
  0
LINE
  5
511
100
AcDbEntity
  8
ASSI
100
AcDbLine
 62
250
  6
CONTINUOUS
 10
14.4633215006
 20
-1.9926447954
 11
14.4633215006
 21
-9.972423564
  0
LINE
  5
512
100
AcDbEntity
  8
RACCORDO
100
AcDbLine
 62
250
  6
CONTINUOUS
 10
15.8842611987
 20
-2.042265103
 11
15.8842611987
 21
-9.9228032564
  0
LINE
  5
513
100
AcDbEntity
  8
ASSI
100
AcDbLine
 62
250
  6
CONTINUOUS
 10
15.8842611987
 20
-2.042265103
 11
15.8842611987
 21
-9.9228032564
  0
LINE
  5
514
100
AcDbEntity
  8
RACCORDO
100
AcDbLine
 62
250
  6
CONTINUOUS
 10
13.6783866286
 20
17.5964856026
 11
13.6781546174
 21
19.366513093
  0
LINE
  5
515
100
AcDbEntity
  8
ASSI
100
AcDbLine
 62
250
  6
CONTINUOUS
 10
13.6783866286
 20
17.5964856026
 11
13.6781546174
 21
19.366513093
  0
LINE
  5
516
100
AcDbEntity
  8
RACCORDO
100
AcDbLine
 62
250
  6
CONTINUOUS
 10
13.6783347299
 20
-17.5006969662
 11
13.6781546174
 21
17.4848486056
  0
LINE
  5
517
100
AcDbEntity
  8
ASSI
100
AcDbLine
 62
250
  6
CONTINUOUS
 10
13.6783347299
 20
-17.5006969662
 11
13.6781546174
 21
17.4848486056
  0
LINE
  5
518
100
AcDbEntity
  8
RACCORDO
100
AcDbLine
 62
250
  6
CONTINUOUS
 10
13.6781546174
 20
17.4848486065
 11
13.6783866286
 21
17.5964856026
  0
LINE
  5
519
100
AcDbEntity
  8
ASSI
100
AcDbLine
 62
250
  6
CONTINUOUS
 10
13.6781546174
 20
17.4848486065
 11
13.6783866286
 21
17.5964856026
  0
LINE
  5
51A
100
AcDbEntity
  8
RACCORDO
100
AcDbLine
 62
250
  6
CONTINUOUS
 10
13.6781546174
 20
-19.291185546
 11
13.6783347299
 21
-17.5006969662
  0
LINE
  5
51B
100
AcDbEntity
  8
ASSI
100
AcDbLine
 62
250
  6
CONTINUOUS
 10
13.6781546174
 20
-19.291185546
 11
13.6783347299
 21
-17.5006969662
  0
LINE
  5
51C
100
AcDbEntity
  8
RACCORDO
100
AcDbLine
 62
250
  6
CONTINUOUS
 10
13.6781546174
 20
19.3665130938
 11
13.6806737577
 21
19.4748429459
  0
LINE
  5
51D
100
AcDbEntity
  8
ASSI
100
AcDbLine
 62
250
  6
CONTINUOUS
 10
13.6781546174
 20
19.3665130938
 11
13.6806737577
 21
19.4748429459
  0
LWPOLYLINE
  5
51E
100
AcDbEntity
  8
RACCORDO
100
AcDbPolyline
 62
250
  6
CONTINUOUS
 90
5
 70
0
 10
13.6806737577
 20
19.4748429459
 10
13.6816092779
 20
19.5074072833
 10
13.6819811307
 20
19.5177328077
 10
13.6822847324
 20
19.5239613609
 10
13.6825175529
 20
19.5260410363
  0
LWPOLYLINE
  5
51F
100
AcDbEntity
  8
ASSI
100
AcDbPolyline
 62
250
  6
CONTINUOUS
 90
5
 70
0
 10
13.6806737577
 20
19.4748429459
 10
13.6816092779
 20
19.5074072833
 10
13.6819811307
 20
19.5177328077
 10
13.6822847324
 20
19.5239613609
 10
13.6825175529
 20
19.5260410363
  0
LWPOLYLINE
  5
520
100
AcDbEntity
  8
RACCORDO
100
AcDbPolyline
 62
7
  6
CONTINUOUS
 90
16
 70
0
 10
14.1737913497
 20
-18.5889237906
 10
14.1720836691
 20
-18.6446738539
 10
14.1680785069
 20
-18.6985454085
 10
14.1617758631
 20
-18.7505384543
 10
14.1530076132
 20
-18.800753558
 10
14.1419418816
 20
-18.849090153
 10
14.129083042
 20
-18.8952465394
 10
14.1144729369
 20
-18.9391453308
 10
14.0980697238
 20
-18.9808639135
 10
14.0802522484
 20
-19.0203327467
 10
14.0611180081
 20
-19.0574787244
 10
14.0405695055
 20
-19.0923749524
 10
14.018693095
 20
-19.1251712076
 10
13.9955175614
 20
-19.1559174154
 10
13.9710141198
 20
-19.1845636502
 10
13.9451827703
 20
-19.2111099121
  0
LWPOLYLINE
  5
521
100
AcDbEntity
  8
ASSI
100
AcDbPolyline
 62
7
  6
CONTINUOUS
 90
16
 70
0
 10
14.1737913497
 20
-18.5889237906
 10
14.1720836691
 20
-18.6446738539
 10
14.1680785069
 20
-18.6985454085
 10
14.1617758631
 20
-18.7505384543
 10
14.1530076132
 20
-18.800753558
 10
14.1419418816
 20
-18.849090153
 10
14.129083042
 20
-18.8952465394
 10
14.1144729369
 20
-18.9391453308
 10
14.0980697238
 20
-18.9808639135
 10
14.0802522484
 20
-19.0203327467
 10
14.0611180081
 20
-19.0574787244
 10
14.0405695055
 20
-19.0923749524
 10
14.018693095
 20
-19.1251712076
 10
13.9955175614
 20
-19.1559174154
 10
13.9710141198
 20
-19.1845636502
 10
13.9451827703
 20
-19.2111099121
  0
LINE
  5
522
100
AcDbEntity
  8
CURVE
100
AcDbLine
 62
250
  6
CONTINUOUS
 10
7.5593496903
 20
-3.8306201797
 11
6.3879739002
 21
-5.3093401797
  0
LINE
  5
523
100
AcDbEntity
  8
CURVE
100
AcDbLine
 62
250
  6
CONTINUOUS
 10
6.6689275032
 20
-5.6387871797
 11
7.5593496903
 21
-4.5147491797
  0
LINE
  5
524
100
AcDbEntity
  8
CURVE
100
AcDbLine
 62
250
  6
CONTINUOUS
 10
0.666781616
 20
-15.1969641797
 11
2.7313683807
 21
-14.6251781797
  0
LINE
  5
525
100
AcDbEntity
  8
CURVE
100
AcDbLine
 62
250
  6
CONTINUOUS
 10
3.6661921862
 20
-9.7850151797
 11
1.7157977248
 21
-9.9136581797
  0
LINE
  5
526
100
AcDbEntity
  8
DRAFT
100
AcDbLine
 62
7
  6
CONTINUOUS
 10
14.4633215006
 20
-9.972423564
 11
15.8842611987
 21
-9.9228032564
  0
LINE
  5
527
100
AcDbEntity
  8
ASSI
100
AcDbLine
 62
7
  6
CONTINUOUS
 10
14.4633215006
 20
-9.972423564
 11
15.8842611987
 21
-9.9228032564
  0
LWPOLYLINE
  5
528
100
AcDbEntity
  8
CURVE
100
AcDbPolyline
 62
250
  6
CONTINUOUS
 90
51
 70
0
 10
6.7510781766
 20
-8.9325341797
 10
6.7760147059
 20
-8.9321060334
 10
6.8010017504
 20
-8.9308283082
 10
6.8260109818
 20
-8.9287110745
 10
6.8510140721
 20
-8.9257644027
 10
6.8759826929
 20
-8.9219983631
 10
6.9008885163
 20
-8.9174230262
 10
6.9257032138
 20
-8.9120484625
 10
6.9503984575
 20
-8.9058847422
 10
6.9749459191
 20
-8.8989419359
 10
6.9993172703
 20
-8.8912301138
 10
7.0234841831
 20
-8.8827593465
 10
7.0474183292
 20
-8.8735397043
 10
7.0710913805
 20
-8.8635812577
 10
7.0944750088
 20
-8.8528940769
 10
7.1175408858
 20
-8.8414882326
 10
7.1402606835
 20
-8.8293737949
 10
7.1626060736
 20
-8.8165608344
 10
7.1845487279
 20
-8.8030594215
 10
7.2060603183
 20
-8.7888796266
 10
7.2271125165
 20
-8.77403152
 10
7.2476769944
 20
-8.7585251722
 10
7.2677254239
 20
-8.7423706536
 10
7.2872294766
 20
-8.7255780345
 10
7.3061608245
 20
-8.7081573855
 10
7.3244911394
 20
-8.6901187769
 10
7.3422036363
 20
-8.6714664541
 10
7.3592788938
 20
-8.6522333592
 10
7.3757096155
 20
-8.6324471711
 10
7.3914885049
 20
-8.6121355689
 10
7.4066082659
 20
-8.5913262316
 10
7.4210616021
 20
-8.5700468384
 10
7.434841217
 20
-8.5483250683
 10
7.4479398145
 20
-8.5261886002
 10
7.4603500981
 20
-8.5036651134
 10
7.4720647715
 20
-8.4807822868
 10
7.4830765383
 20
-8.4575677995
 10
7.4933781023
 20
-8.4340493305
 10
7.5029621671
 20
-8.4102545589
 10
7.5118214363
 20
-8.3862111638
 10
7.5199486137
 20
-8.3619468242
 10
7.5273364028
 20
-8.3374892191
 10
7.5339775073
 20
-8.3128660277
 10
7.5398646309
 20
-8.2881049289
 10
7.5449904773
 20
-8.2632336019
 10
7.5493477501
 20
-8.2382797256
 10
7.5529291529
 20
-8.2132709792
 10
7.5557273895
 20
-8.1882350416
 10
7.5577351635
 20
-8.163199592
 10
7.5589451785
 20
-8.1381923094
 10
7.5593501383
 20
-8.1132408728
  0
LWPOLYLINE
  5
529
100
AcDbEntity
  8
CURVE
100
AcDbPolyline
 62
250
  6
CONTINUOUS
 90
51
 70
0
 10
9.4952663516
 20
-8.9325341797
 10
9.5203100292
 20
-8.9321315073
 10
9.5454068957
 20
-8.9309281489
 10
9.5705298351
 20
-8.9289310927
 10
9.5956517314
 20
-8.9261473268
 10
9.6207454685
 20
-8.9225838394
 10
9.6457839307
 20
-8.9182476187
 10
9.6707400018
 20
-8.9131456528
 10
9.6955865659
 20
-8.9072849299
 10
9.720296507
 20
-8.9006724382
 10
9.7448427092
 20
-8.8933151659
 10
9.7691980564
 20
-8.885220101
 10
9.7933354328
 20
-8.8763942318
 10
9.8172277223
 20
-8.8668445464
 10
9.8408478089
 20
-8.856578033
 10
9.8641685767
 20
-8.8456016798
 10
9.8871629098
 20
-8.833922475
 10
9.909803692
 20
-8.8215474066
 10
9.9320638075
 20
-8.8084834629
 10
9.9539161403
 20
-8.794737632
 10
9.9753335744
 20
-8.7803169022
 10
9.9962889938
 20
-8.7652282615
 10
10.0167552826
 20
-8.7494786981
 10
10.0367053247
 20
-8.7330752003
 10
10.0561120043
 20
-8.7160247561
 10
10.0749482053
 20
-8.6983343537
 10
10.0931799268
 20
-8.6800243634
 10
10.1108031393
 20
-8.6611102646
 10
10.127806297
 20
-8.6416202502
 10
10.1441778542
 20
-8.6215825132
 10
10.1599062651
 20
-8.6010252466
 10
10.174979984
 20
-8.5799766431
 10
10.1893874651
 20
-8.5584648958
 10
10.2031171627
 20
-8.5365181976
 10
10.2161575311
 20
-8.5141647414
 10
10.2284970244
 20
-8.4914327201
 10
10.2401240971
 20
-8.4683503267
 10
10.2510272032
 20
-8.444945754
 10
10.2611947971
 20
-8.421247195
 10
10.2706153331
 20
-8.3972828426
 10
10.2792772653
 20
-8.3730808898
 10
10.2871690481
 20
-8.3486695294
 10
10.2942791357
 20
-8.3240769544
 10
10.3005959823
 20
-8.2993313577
 10
10.3061080422
 20
-8.2744609322
 10
10.3108037697
 20
-8.2494938709
 10
10.3146716191
 20
-8.2244583666
 10
10.3177000445
 20
-8.1993826124
 10
10.3198775002
 20
-8.174294801
 10
10.3211924405
 20
-8.1492231255
 10
10.3216333197
 20
-8.1241957788
  0
LINE
  5
52A
100
AcDbEntity
  8
CURVE
100
AcDbLine
 62
250
  6
CONTINUOUS
 10
10.2703683497
 20
-10.8812251797
 11
9.7146743497
 21
-10.8812251797
  0
LINE
  5
52B
100
AcDbEntity
  8
CURVE
100
AcDbLine
 62
250
  6
CONTINUOUS
 10
5.8258503497
 20
-10.8812251797
 11
5.2703283497
 21
-10.8812251797
  0
LINE
  5
52C
100
AcDbEntity
  8
CURVE
100
AcDbLine
 62
250
  6
CONTINUOUS
 10
11.8737913497
 20
-10.2801535225
 11
13.1737913497
 21
-10.2801535225
  0
LINE
  5
52D
100
AcDbEntity
  8
CURVE
100
AcDbLine
 62
250
  6
CONTINUOUS
 10
11.8737913497
 20
-9.6920580482
 11
13.1737913497
 21
-9.6920580482
  0
LINE
  5
52E
100
AcDbEntity
  8
CURVE
100
AcDbLine
 62
250
  6
CONTINUOUS
 10
11.8737913497
 20
-9.0420580482
 11
13.1737913497
 21
-9.0420580482
  0
LINE
  5
52F
100
AcDbEntity
  8
CURVE
100
AcDbLine
 62
250
  6
CONTINUOUS
 10
9.4952663516
 20
-8.9325341797
 11
8.8106804595
 21
-8.9325341797
  0
LINE
  5
530
100
AcDbEntity
  8
CURVE
100
AcDbLine
 62
250
  6
CONTINUOUS
 10
6.7510781766
 20
-8.9325341797
 11
5.2220336596
 21
-8.9325341797
  0
LINE
  5
531
100
AcDbEntity
  8
CURVE
100
AcDbLine
 62
250
  6
CONTINUOUS
 10
5.2220336596
 20
-8.4012782955
 11
6.743937335
 21
-8.4012782955
  0
LINE
  5
532
100
AcDbEntity
  8
CURVE
100
AcDbLine
 62
250
  6
CONTINUOUS
 10
8.8106804595
 20
-8.4012782955
 11
9.4952663516
 21
-8.4012782955
  0
LWPOLYLINE
  5
533
100
AcDbEntity
  8
CURVE
100
AcDbPolyline
 62
250
  6
CONTINUOUS
 90
51
 70
0
 10
8.8106804595
 20
-8.4012782955
 10
8.8017943452
 20
-8.401141368
 10
8.79288707
 20
-8.4007317469
 10
8.7839682422
 20
-8.4000511735
 10
8.7750474699
 20
-8.3991013896
 10
8.7661343616
 20
-8.3978841367
 10
8.7572385256
 20
-8.3964011564
 10
8.7483695701
 20
-8.3946541904
 10
8.7395371034
 20
-8.3926449802
 10
8.7307507339
 20
-8.3903752675
 10
8.7220200697
 20
-8.3878467937
 10
8.7133547193
 20
-8.3850613006
 10
8.704764291
 20
-8.3820205298
 10
8.6962583929
 20
-8.3787262227
 10
8.6878466335
 20
-8.3751801211
 10
8.6795386209
 20
-8.3713839666
 10
8.6713439636
 20
-8.3673395006
 10
8.6632722698
 20
-8.3630484649
 10
8.6553331478
 20
-8.3585126011
 10
8.6475362059
 20
-8.3537336506
 10
8.6398910524
 20
-8.3487133552
 10
8.6324072956
 20
-8.3434534564
 10
8.6250945438
 20
-8.3379556959
 10
8.6179624053
 20
-8.3322218152
 10
8.6110204884
 20
-8.3262535559
 10
8.6042784013
 20
-8.3200526597
 10
8.5977525548
 20
-8.3136300806
 10
8.5914401524
 20
-8.3069874137
 10
8.5853456984
 20
-8.3001349169
 10
8.5794736969
 20
-8.2930828483
 10
8.5738286522
 20
-8.2858414662
 10
8.5684150686
 20
-8.2784210286
 10
8.5632374502
 20
-8.2708317936
 10
8.5583003012
 20
-8.2630840193
 10
8.553608126
 20
-8.2551879638
 10
8.5491654286
 20
-8.2471538853
 10
8.5449767134
 20
-8.2389920417
 10
8.5410464845
 20
-8.2307126914
 10
8.5373792462
 20
-8.2223260923
 10
8.5339795027
 20
-8.2138425025
 10
8.5308517582
 20
-8.2052721802
 10
8.528000517
 20
-8.1966253835
 10
8.5254302832
 20
-8.1879123705
 10
8.5231455612
 20
-8.1791433993
 10
8.521150855
 20
-8.170328728
 10
8.5194506689
 20
-8.1614786147
 10
8.5180495073
 20
-8.1526033175
 10
8.5169518742
 20
-8.1437130945
 10
8.5161622739
 20
-8.1348182038
 10
8.5156852106
 20
-8.1259289036
 10
8.5155251886
 20
-8.117055452
  0
LINE
  5
534
100
AcDbEntity
  8
CURVE
100
AcDbLine
 62
250
  6
CONTINUOUS
 10
11.8737913497
 20
-5.3277728653
 11
13.1737913497
 21
-5.6992006397
  0
LINE
  5
535
100
AcDbEntity
  8
CURVE
100
AcDbLine
 62
250
  6
CONTINUOUS
 10
11.8737913497
 20
-3.0063432312
 11
12.4309341736
 21
-3.3777728653
  0
LINE
  5
536
100
AcDbEntity
  8
CURVE
100
AcDbLine
 62
250
  6
CONTINUOUS
 10
5.388077081
 20
9.9269896412
 11
5.5309341557
 21
9.6888944173
  0
LINE
  5
537
100
AcDbEntity
  8
CURVE
100
AcDbLine
 62
250
  6
CONTINUOUS
 10
5.388077081
 20
12.9269896412
 11
5.5309341557
 21
12.6888943577
  0
LINE
  5
538
100
AcDbEntity
  8
RACCORDO
100
AcDbLine
 62
7
  6
CONTINUOUS
 10
16.1737913497
 20
-2.3420823511
 11
16.1737913497
 21
-9.6229860083
  0
LINE
  5
539
100
AcDbEntity
  8
ASSI
100
AcDbLine
 62
7
  6
CONTINUOUS
 10
16.1737913497
 20
-2.3420823511
 11
16.1737913497
 21
-9.6229860083
  0
LINE
  5
53A
100
AcDbEntity
  8
CURVE
100
AcDbLine
 62
250
  6
CONTINUOUS
 10
0.666781616
 20
-9.4529811797
 11
3.6661921862
 21
-9.1724811797
  0
LINE
  5
53B
100
AcDbEntity
  8
CURVE
100
AcDbLine
 62
250
  6
CONTINUOUS
 10
11.8737913497
 20
-7.4015819168
 11
13.1737913497
 21
-7.4015819168
  0
LINE
  5
53C
100
AcDbEntity
  8
CURVE
100
AcDbLine
 62
250
  6
CONTINUOUS
 10
6.743937335
 20
-7.126282587
 11
5.2220336596
 21
-7.126282587
  0
LINE
  5
53D
100
AcDbEntity
  8
RACCORDO
100
AcDbLine
 62
250
  6
CONTINUOUS
 10
14.1737913497
 20
-6.8575341797
 11
16.1737913497
 21
-6.8575341797
  0
LINE
  5
53E
100
AcDbEntity
  8
ASSI
100
AcDbLine
 62
250
  6
CONTINUOUS
 10
14.1737913497
 20
-6.8575341797
 11
16.1737913497
 21
-6.8575341797
  0
LINE
  5
53F
100
AcDbEntity
  8
CURVE
100
AcDbLine
 62
250
  6
CONTINUOUS
 10
5.2220336596
 20
-6.5950267028
 11
6.7510781766
 21
-6.5950267028
  0
LINE
  5
540
100
AcDbEntity
  8
CURVE
100
AcDbLine
 62
250
  6
CONTINUOUS
 10
7.9843156719
 20
-6.5950267028
 11
8.5155251886
 21
-6.5950267028
  0
LINE
  5
541
100
AcDbEntity
  8
CURVE
100
AcDbLine
 62
250
  6
CONTINUOUS
 10
9.790423803
 20
-6.5950267028
 11
10.3216333197
 21
-6.5950267028
  0
LINE
  5
542
100
AcDbEntity
  8
CURVE
100
AcDbLine
 62
250
  6
CONTINUOUS
 10
11.8737913497
 20
-6.4420580482
 11
13.1737913497
 21
-6.4420580482
  0
LINE
  5
543
100
AcDbEntity
  8
CURVE
100
AcDbLine
 62
250
  6
CONTINUOUS
 10
0.7018242379
 20
-6.4233354887
 11
3.6661918543
 21
-6.4233354887
  0
LINE
  5
544
100
AcDbEntity
  8
CURVE
100
AcDbLine
 62
250
  6
CONTINUOUS
 10
5.222021697
 20
-6.1700361797
 11
7.5593546899
 21
-6.1700361797
  0
LINE
  5
545
100
AcDbEntity
  8
CURVE
100
AcDbLine
 62
250
  6
CONTINUOUS
 10
8.7925608903
 20
-6.1700358057
 11
10.3216333197
 21
-6.1700358057
  0
LINE
  5
546
100
AcDbEntity
  8
CURVE
100
AcDbLine
 62
250
  6
CONTINUOUS
 10
2.0011572055
 20
-5.8204744764
 11
1.1777604932
 21
-5.8204744764
  0
LINE
  5
547
100
AcDbEntity
  8
CURVE
100
AcDbLine
 62
250
  6
CONTINUOUS
 10
3.6661918543
 20
-5.7997125379
 11
2.4923881986
 21
-5.7997125379
  0
LINE
  5
548
100
AcDbEntity
  8
CURVE
100
AcDbLine
 62
250
  6
CONTINUOUS
 10
10.3216333197
 20
-5.63878742
 11
9.7903952992
 21
-5.63878742
  0
LINE
  5
549
100
AcDbEntity
  8
CURVE
100
AcDbLine
 62
250
  6
CONTINUOUS
 10
9.2591875431
 20
-5.63878742
 11
8.7997028214
 21
-5.63878742
  0
LINE
  5
54A
100
AcDbEntity
  8
CURVE
100
AcDbLine
 62
250
  6
CONTINUOUS
 10
7.5593546899
 20
-5.6387871797
 11
6.6689275032
 21
-5.6387871797
  0
LINE
  5
54B
100
AcDbEntity
  8
CURVE
100
AcDbLine
 62
250
  6
CONTINUOUS
 10
6.1066123282
 20
-5.6387871797
 11
5.222021697
 21
-5.6387871797
  0
LWPOLYLINE
  5
54C
100
AcDbEntity
  8
CURVE
100
AcDbPolyline
 62
250
  6
CONTINUOUS
 90
51
 70
0
 10
6.743937335
 20
-7.126282587
 10
6.7528103023
 20
-7.1264426318
 10
6.7616991054
 20
-7.1269197618
 10
6.7705934875
 20
-7.1277094698
 10
6.7794831914
 20
-7.1288072491
 10
6.7883579603
 20
-7.1302085926
 10
6.797207537
 20
-7.1319089935
 10
6.8060216646
 20
-7.1339039448
 10
6.8147900861
 20
-7.1361889397
 10
6.8235025445
 20
-7.1387594711
 10
6.8321487828
 20
-7.1416110321
 10
6.8407185441
 20
-7.1447391158
 10
6.8492015712
 20
-7.1481392154
 10
6.8575876072
 20
-7.1518068238
 10
6.8658663952
 20
-7.1557374341
 10
6.8740276781
 20
-7.1599265394
 10
6.8820611989
 20
-7.1643696328
 10
6.8899567006
 20
-7.1690622074
 10
6.8977039263
 20
-7.1739997562
 10
6.9052926189
 20
-7.1791777722
 10
6.9127125215
 20
-7.1845917487
 10
6.9199533769
 20
-7.1902371785
 10
6.9270049283
 20
-7.1961095549
 10
6.9338569187
 20
-7.2022043708
 10
6.940499091
 20
-7.2085171194
 10
6.9469211883
 20
-7.2150432937
 10
6.9531219475
 20
-7.221786061
 10
6.9590900599
 20
-7.2287286597
 10
6.9648237853
 20
-7.2358614814
 10
6.9703213833
 20
-7.2431749176
 10
6.9755811137
 20
-7.25065936
 10
6.9806012362
 20
-7.2583052
 10
6.9853800104
 20
-7.2661028293
 10
6.9899156962
 20
-7.2740426394
 10
6.9942065531
 20
-7.282115022
 10
6.998250841
 20
-7.2903103686
 10
7.0020468195
 20
-7.2986190707
 10
7.0055927483
 20
-7.30703152
 10
7.0088868872
 20
-7.315538108
 10
7.0119274958
 20
-7.3241292262
 10
7.0147128339
 20
-7.3327952664
 10
7.0172411612
 20
-7.34152662
 10
7.0195107373
 20
-7.3503136786
 10
7.0215198221
 20
-7.3591468338
 10
7.0232666751
 20
-7.3680164772
 10
7.0247495562
 20
-7.3769130003
 10
7.025966725
 20
-7.3858267947
 10
7.0269164413
 20
-7.394748252
 10
7.0275969646
 20
-7.4036677638
 10
7.0280065549
 20
-7.4125757216
 10
7.0281434717
 20
-7.4214625171
  0
LWPOLYLINE
  5
54D
100
AcDbEntity
  8
CURVE
100
AcDbPolyline
 62
250
  6
CONTINUOUS
 90
51
 70
0
 10
8.7997028214
 20
-5.63878742
 10
8.7908299012
 20
-5.638627375
 10
8.7819411487
 20
-5.6381502448
 10
8.7730468203
 20
-5.6373605365
 10
8.7641571725
 20
-5.6362627572
 10
8.7552824618
 20
-5.634861414
 10
8.7464329447
 20
-5.633161014
 10
8.7376188777
 20
-5.6311660644
 10
8.7288505173
 20
-5.6288810723
 10
8.72013812
 20
-5.6263105447
 10
8.7114919422
 20
-5.6234589888
 10
8.7029222405
 20
-5.6203309117
 10
8.6944392714
 20
-5.6169308205
 10
8.6860532912
 20
-5.6132632223
 10
8.6777745566
 20
-5.6093326242
 10
8.669613324
 20
-5.6051435334
 10
8.6615798499
 20
-5.6007004569
 10
8.6536843908
 20
-5.5960079019
 10
8.6459372032
 20
-5.5910703755
 10
8.6383485436
 20
-5.5858923847
 10
8.6309286684
 20
-5.5804784368
 10
8.6236878342
 20
-5.5748330387
 10
8.6166362975
 20
-5.5689606977
 10
8.6097843147
 20
-5.5628659209
 10
8.6031421423
 20
-5.5565532152
 10
8.5967200368
 20
-5.550027088
 10
8.5905192653
 20
-5.5432843769
 10
8.5845511323
 20
-5.5363418386
 10
8.5788173789
 20
-5.5292090811
 10
8.573319746
 20
-5.5218957126
 10
8.5680599748
 20
-5.514411341
 10
8.5630398063
 20
-5.5067655744
 10
8.5582609814
 20
-5.4989680209
 10
8.5537252413
 20
-5.4910282885
 10
8.5494343269
 20
-5.4829559853
 10
8.5453899793
 20
-5.4747607193
 10
8.5415939396
 20
-5.4664520986
 10
8.5380479487
 20
-5.4580397312
 10
8.5347537477
 20
-5.4495332252
 10
8.5317130777
 20
-5.4409421885
 10
8.5289276796
 20
-5.4322762294
 10
8.5263992945
 20
-5.4235449558
 10
8.5241296635
 20
-5.4147579758
 10
8.5221205276
 20
-5.4059248974
 10
8.5203736277
 20
-5.3970553287
 10
8.518890705
 20
-5.3881588777
 10
8.5176735004
 20
-5.3792451525
 10
8.5167237551
 20
-5.3703237611
 10
8.51604321
 20
-5.3614043116
 10
8.5156336062
 20
-5.3524964121
 10
8.5154966847
 20
-5.3436096705
  0
LINE
  5
54E
100
AcDbEntity
  8
CURVE
100
AcDbLine
 62
250
  6
CONTINUOUS
 10
6.6549110249
 20
-0.2501671482
 11
7.8606134206
 21
-0.7943469103
  0
LINE
  5
54F
100
AcDbEntity
  8
CURVE
100
AcDbLine
 62
250
  6
CONTINUOUS
 10
9.0226762383
 20
-1.318830415
 11
10.2716371273
 21
-1.8825341797
  0
LINE
  5
550
100
AcDbEntity
  8
CURVE
100
AcDbLine
 62
250
  6
CONTINUOUS
 10
8.7998009109
 20
-0.1728656629
 11
8.3296274649
 21
0.0538366987
  0
LINE
  5
551
100
AcDbEntity
  8
CURVE
100
AcDbLine
 62
250
  6
CONTINUOUS
 10
10.2716371273
 20
-0.8825348977
 11
9.72005366
 21
-0.6165799782
  0
LINE
  5
552
100
AcDbEntity
  8
CURVE
100
AcDbLine
 62
250
  6
CONTINUOUS
 10
4.6737913497
 20
10.9746086264
 11
4.9595056183
 21
10.6888943577
  0
LINE
  5
553
100
AcDbEntity
  8
CURVE
100
AcDbLine
 62
250
  6
CONTINUOUS
 10
6.5309342004
 20
9.974608686
 11
6.6737913497
 21
9.8317515516
  0
LINE
  5
554
100
AcDbEntity
  8
CURVE
100
AcDbLine
 62
250
  6
CONTINUOUS
 10
5.388077081
 20
14.4507993126
 11
5.5309341557
 21
14.2603228951
  0
LINE
  5
555
100
AcDbEntity
  8
DRAFT
100
AcDbLine
 62
7
  6
CONTINUOUS
 10
-6.8262086503
 20
-23.1682484654
 11
-5.3262086503
 21
-21.8825341797
  0
LINE
  5
556
100
AcDbEntity
  8
CURVE
100
AcDbLine
 62
250
  6
CONTINUOUS
 10
12.4309341736
 20
-3.3777728653
 11
11.8737913497
 21
-3.7492012596
  0
LWPOLYLINE
  5
557
100
AcDbEntity
  8
CURVE
100
AcDbPolyline
 62
250
  6
CONTINUOUS
 90
58
 70
0
 10
7.8606134206
 20
-0.7943469103
 10
7.8018786528
 20
-0.8116336985
 10
7.7426425652
 20
-0.8274193803
 10
7.6829576217
 20
-0.8415530562
 10
7.6228762859
 20
-0.8538838267
 10
7.5624510216
 20
-0.8642607921
 10
7.5017342927
 20
-0.8725330529
 10
7.4407785628
 20
-0.8785497094
 10
7.3867463434
 20
-0.8818782429
 10
7.332640753
 20
-0.8832766596
 10
7.2785341719
 20
-0.8826951663
 10
7.22449898
 20
-0.8800839696
 10
7.1695169077
 20
-0.8753014917
 10
7.1147427761
 20
-0.868450752
 10
7.0602348844
 20
-0.8596279193
 10
7.0060515321
 20
-0.8489291623
 10
6.9423010896
 20
-0.8339369965
 10
6.8791398954
 20
-0.8165515243
 10
6.8166189993
 20
-0.7968814368
 10
6.7547894515
 20
-0.7750354248
 10
6.6937023019
 20
-0.7511221795
 10
6.6334086004
 20
-0.7252503918
 10
6.5739593972
 20
-0.6975287527
 10
6.5128727352
 20
-0.6667368359
 10
6.4527789183
 20
-0.6341155692
 10
6.3936956255
 20
-0.5997315583
 10
6.3356405363
 20
-0.5636514091
 10
6.2786313298
 20
-0.5259417275
 10
6.2226856855
 20
-0.4866691193
 10
6.1678212825
 20
-0.4459001903
 10
6.1041846668
 20
-0.3956924053
 10
6.0421482901
 20
-0.3435258765
 10
5.9817667736
 20
-0.2894527358
 10
5.9230947383
 20
-0.2335251154
 10
5.8661868052
 20
-0.1757951472
 10
5.8110975955
 20
-0.1163149634
 10
5.766033816
 20
-0.0647540126
 10
5.7223694056
 20
-0.0120013562
 10
5.6801675315
 20
0.0419235181
 10
5.6394913609
 20
0.0970011226
 10
5.6004040612
 20
0.1532119694
 10
5.5629687996
 20
0.210536571
 10
5.5272487434
 20
0.2689554395
 10
5.4946835536
 20
0.3259672144
 10
5.4638620108
 20
0.3839463471
 10
5.434893433
 20
0.4428724705
 10
5.4078871384
 20
0.5027252176
 10
5.3829524449
 20
0.5634842212
 10
5.3601986706
 20
0.6251291143
 10
5.3397351335
 20
0.6876395299
 10
5.3245733492
 20
0.7401502324
 10
5.311151222
 20
0.7931649793
 10
5.2995556432
 20
0.846605689
 10
5.2898735042
 20
0.9003942797
 10
5.2821916963
 20
0.9544526698
 10
5.2765971109
 20
1.0087027777
 10
5.2731766394
 20
1.0630665215
 10
5.272017173
 20
1.1174658196
  0
LWPOLYLINE
  5
558
100
AcDbEntity
  8
CURVE
100
AcDbPolyline
 62
250
  6
CONTINUOUS
 90
51
 70
0
 10
8.7925608903
 20
-3.8325434996
 10
8.7676244834
 20
-3.8329716283
 10
8.7426375529
 20
-3.8342493021
 10
8.7176284272
 20
-3.8363664526
 10
8.6926254346
 20
-3.8393130115
 10
8.6676569035
 20
-3.8430789103
 10
8.6427511622
 20
-3.8476540808
 10
8.6179365391
 20
-3.8530284546
 10
8.5932413626
 20
-3.8591919632
 10
8.568693961
 20
-3.8661345384
 10
8.5443226628
 20
-3.8738461118
 10
8.5201557962
 20
-3.8823166149
 10
8.4962216896
 20
-3.8915359795
 10
8.4725486714
 20
-3.9014941372
 10
8.44916507
 20
-3.9121810195
 10
8.4260992136
 20
-3.9235865582
 10
8.4033794308
 20
-3.9357006848
 10
8.3810340497
 20
-3.9485133311
 10
8.3590913989
 20
-3.9620144286
 10
8.3375798066
 20
-3.9761939089
 10
8.3165276013
 20
-3.9910417037
 10
8.2959631112
 20
-4.0065477447
 10
8.2759146648
 20
-4.0227019634
 10
8.2564105904
 20
-4.0394942916
 10
8.2374792164
 20
-4.0569146607
 10
8.2191488711
 20
-4.0749530025
 10
8.2014363427
 20
-4.0936050697
 10
8.1843610498
 20
-4.1128379232
 10
8.1679302892
 20
-4.1326238833
 10
8.1521513578
 20
-4.15293527
 10
8.1370315523
 20
-4.1737444036
 10
8.1225781695
 20
-4.1950236042
 10
8.1087985062
 20
-4.216745192
 10
8.0956998592
 20
-4.2388814872
 10
8.0832895252
 20
-4.26140481
 10
8.071574801
 20
-4.2842874805
 10
8.0605629834
 20
-4.307501819
 10
8.0502613692
 20
-4.3310201455
 10
8.0406772552
 20
-4.3548147803
 10
8.0318179382
 20
-4.3788580435
 10
8.0236907148
 20
-4.4031222553
 10
8.016302882
 20
-4.427579736
 10
8.0096617365
 20
-4.4522028055
 10
8.003774575
 20
-4.4769637843
 10
7.9986486944
 20
-4.5018349923
 10
7.9942913915
 20
-4.5267887498
 10
7.990709963
 20
-4.551797377
 10
7.9879117056
 20
-4.576833194
 10
7.9859039163
 20
-4.6018685211
 10
7.9846938917
 20
-4.6268756783
 10
7.9842889287
 20
-4.6518269859
  0
LWPOLYLINE
  5
559
100
AcDbEntity
  8
CURVE
100
AcDbPolyline
 62
250
  6
CONTINUOUS
 90
56
 70
0
 10
1.5350500686
 20
-4.9762531172
 10
1.549688967
 20
-4.9761538055
 10
1.5643545712
 20
-4.9763211539
 10
1.5790328352
 20
-4.9767762229
 10
1.5937097129
 20
-4.9775400733
 10
1.6083711585
 20
-4.9786337656
 10
1.623003126
 20
-4.9800783603
 10
1.6375915693
 20
-4.9818949181
 10
1.6521224426
 20
-4.9841044995
 10
1.6665816998
 20
-4.9867281652
 10
1.6809552949
 20
-4.9897869758
 10
1.695229182
 20
-4.9933019917
 10
1.7093893151
 20
-4.9972942737
 10
1.7234216482
 20
-5.0017848823
 10
1.7354231923
 20
-5.0060764091
 10
1.7473019218
 20
-5.0107503624
 10
1.7590407794
 20
-5.0158019248
 10
1.7706227077
 20
-5.0212262789
 10
1.7820306495
 20
-5.0270186074
 10
1.7932475475
 20
-5.0331740926
 10
1.8042563444
 20
-5.0396879173
 10
1.8150399828
 20
-5.0465552639
 10
1.8255814055
 20
-5.053771315
 10
1.8358635551
 20
-5.0613312532
 10
1.8458693744
 20
-5.0692302611
 10
1.855581806
 20
-5.0774635212
 10
1.8649837927
 20
-5.0860262162
 10
1.8740582771
 20
-5.0949135284
 10
1.8827882019
 20
-5.1041206406
 10
1.8911814279
 20
-5.1136658088
 10
1.8992161935
 20
-5.123510606
 10
1.906897533
 20
-5.1336380434
 10
1.9142304804
 20
-5.1440311318
 10
1.9212200701
 20
-5.1546728823
 10
1.9278713363
 20
-5.1655463059
 10
1.9341893132
 20
-5.1766344135
 10
1.9401790349
 20
-5.1879202163
 10
1.9458455358
 20
-5.1993867251
 10
1.95119385
 20
-5.211016951
 10
1.9562290119
 20
-5.2227939049
 10
1.9609560555
 20
-5.234700598
 10
1.9653800151
 20
-5.2467200411
 10
1.9695059249
 20
-5.2588352452
 10
1.9733388192
 20
-5.2710292215
 10
1.9778084766
 20
-5.2866626816
 10
1.9818280026
 20
-5.3023873651
 10
1.9854150845
 20
-5.3181941303
 10
1.9885874092
 20
-5.3340738358
 10
1.9913626639
 20
-5.3500173397
 10
1.9937585358
 20
-5.3660155006
 10
1.9957927119
 20
-5.3820591767
 10
1.9974828794
 20
-5.3981392264
 10
1.9988467253
 20
-5.4142465082
 10
1.9999019369
 20
-5.4303718803
 10
2.0006662013
 20
-5.4465062012
 10
2.0011572055
 20
-5.4626403291
  0
LINE
  5
55A
100
AcDbEntity
  8
RACCORDO
100
AcDbLine
 62
250
  6
CONTINUOUS
 10
14.1737913497
 20
-5.1075341797
 11
16.1737913497
 21
-5.1075341797
  0
LINE
  5
55B
100
AcDbEntity
  8
ASSI
100
AcDbLine
 62
250
  6
CONTINUOUS
 10
14.1737913497
 20
-5.1075341797
 11
16.1737913497
 21
-5.1075341797
  0
LINE
  5
55C
100
AcDbEntity
  8
CURVE
100
AcDbLine
 62
250
  6
CONTINUOUS
 10
2.2660935548
 20
-4.8135541992
 11
2.2483696526
 21
-4.8135541992
  0
LINE
  5
55D
100
AcDbEntity
  8
CURVE
100
AcDbLine
 62
250
  6
CONTINUOUS
 10
13.1737913497
 20
-4.5849148369
 11
11.8737913497
 21
-4.5849148369
  0
LINE
  5
55E
100
AcDbEntity
  8
CURVE
100
AcDbLine
 62
250
  6
CONTINUOUS
 10
8.7997028214
 20
-4.3637917115
 11
9.2591875431
 21
-4.3637917115
  0
LINE
  5
55F
100
AcDbEntity
  8
CURVE
100
AcDbLine
 62
250
  6
CONTINUOUS
 10
9.7903952992
 20
-4.3637917115
 11
10.3216333197
 21
-4.3637917115
  0
LINE
  5
560
100
AcDbEntity
  8
CURVE
100
AcDbLine
 62
250
  6
CONTINUOUS
 10
10.3216333197
 20
-3.8325434996
 11
8.7925608903
 21
-3.8325434996
  0
LINE
  5
561
100
AcDbEntity
  8
CURVE
100
AcDbLine
 62
250
  6
CONTINUOUS
 10
13.1737913497
 20
-3.3777728653
 11
12.4309341736
 21
-3.3777728653
  0
LINE
  5
562
100
AcDbEntity
  8
DRAFT
100
AcDbLine
 62
7
  6
CONTINUOUS
 10
-6.8262086503
 20
23.403180106
 11
-5.3262086503
 21
22.1174658203
  0
LINE
  5
563
100
AcDbEntity
  8
CURVE
100
AcDbLine
 62
250
  6
CONTINUOUS
 10
6.6737913497
 20
11.1174658203
 11
6.3880770512
 21
11.4031802082
  0
LINE
  5
564
100
AcDbEntity
  8
CURVE
100
AcDbLine
 62
250
  6
CONTINUOUS
 10
5.5309341557
 20
13.8317516708
 11
5.816648484
 21
13.5460370445
  0
LINE
  5
565
100
AcDbEntity
  8
CURVE
100
AcDbLine
 62
250
  6
CONTINUOUS
 10
6.5309342004
 20
12.9746087456
 11
6.6737913497
 21
12.8317514324
  0
LINE
  5
566
100
AcDbEntity
  8
CURVE
100
AcDbLine
 62
250
  6
CONTINUOUS
 10
5.1023628123
 20
15.4031799698
 11
4.6737913497
 21
15.8317516708
  0
LWPOLYLINE
  5
567
100
AcDbEntity
  8
ASSI
100
AcDbPolyline
 62
250
  6
CONTINUOUS
 90
10
 70
0
 10
0.7619910912
 20
23.2813883274
 10
0.7488902061
 20
23.2966154741
 10
0.7353763156
 20
23.3111273152
 10
0.7214293904
 20
23.324941692
 10
0.706882783
 20
23.3381087444
 10
0.6918705314
 20
23.3506400423
 10
0.6768181773
 20
23.3624888454
 10
0.6618501153
 20
23.3736471379
 10
0.6467977219
 20
23.3841616982
 10
0.631640716
 20
23.3940525462
  0
LWPOLYLINE
  5
568
100
AcDbEntity
  8
RACCORDO
100
AcDbPolyline
 62
250
  6
CONTINUOUS
 90
8
 70
0
 10
-3.9857598451
 20
-21.4952895568
 10
-3.9688579573
 20
-21.4804639397
 10
-3.9495692175
 20
-21.4674138283
 10
-3.9282163909
 20
-21.4563575688
 10
-3.9051567532
 20
-21.4474801368
 10
-3.880776147
 20
-21.4409300618
 10
-3.8554825313
 20
-21.4368169356
 10
-3.8296991316
 20
-21.4352095698
  0
LWPOLYLINE
  5
569
100
AcDbEntity
  8
CURVE
100
AcDbPolyline
 62
250
  6
CONTINUOUS
 90
8
 70
0
 10
2.7566722723
 20
-5.1146585427
 10
2.7972011407
 20
-5.0998008745
 10
2.8379408698
 20
-5.0855514367
 10
2.8788671557
 20
-5.0718416641
 10
2.9199556941
 20
-5.0586029917
 10
2.9611821808
 20
-5.0457668543
 10
3.0025223118
 20
-5.0332646868
 10
3.0439517828
 20
-5.021027924
  0
LINE
  5
56A
100
AcDbEntity
  8
CURVE
100
AcDbLine
 62
250
  6
CONTINUOUS
 10
0.666781616
 20
-7.5275641797
 11
3.6661921862
 21
-6.6072011797
  0
LINE
  5
56B
100
AcDbEntity
  8
CURVE
100
AcDbLine
 62
250
  6
CONTINUOUS
 10
3.3242002035
 20
-4.9404207981
 11
3.6661918543
 21
-4.8408618843
  0
LWPOLYLINE
  5
56C
100
AcDbEntity
  8
CURVE
100
AcDbPolyline
 62
250
  6
CONTINUOUS
 90
3
 70
0
 10
3.0439517828
 20
-5.021027924
 10
3.1269815285
 20
-4.9970763521
 10
3.3242002035
 20
-4.9404207981
  0
LINE
  5
56D
100
AcDbEntity
  8
CURVE
100
AcDbLine
 62
250
  6
CONTINUOUS
 10
3.6661921862
 20
-7.2671291797
 11
3.067402789
 21
-7.4293331797
  0
LINE
  5
56E
100
AcDbEntity
  8
CURVE
100
AcDbLine
 62
250
  6
CONTINUOUS
 10
2.6040620762
 20
-7.5544671797
 11
1.4909428493
 21
-7.8421881797
  0
LINE
  5
56F
100
AcDbEntity
  8
DRAFT
100
AcDbLine
 62
7
  6
CONTINUOUS
 10
14.4633215006
 20
-1.9926447954
 11
15.8842611987
 21
-2.042265103
  0
LINE
  5
570
100
AcDbEntity
  8
ASSI
100
AcDbLine
 62
7
  6
CONTINUOUS
 10
14.4633215006
 20
-1.9926447954
 11
15.8842611987
 21
-2.042265103
  0
LINE
  5
571
100
AcDbEntity
  8
CURVE
100
AcDbLine
 62
250
  6
CONTINUOUS
 10
6.6737913497
 20
14.2603228951
 11
6.3880770512
 21
14.5460370445
  0
LINE
  5
572
100
AcDbEntity
  8
CURVE
100
AcDbLine
 62
250
  6
CONTINUOUS
 10
6.3880770512
 20
16.1174658203
 11
6.6737913497
 21
15.8317516708
  0
LWPOLYLINE
  5
573
100
AcDbEntity
  8
0
100
AcDbPolyline
 62
7
  6
CONTINUOUS
 90
10
 70
0
 43
0.3500000006
 10
6.5880769901
 20
35.9804919434
 10
6.6595059071
 20
35.8376341095
 10
6.6595059071
 20
35.7662074585
 10
6.5166486397
 20
35.6233496246
 10
6.4452197227
 20
35.6233496246
 10
6.3737913723
 20
35.6947808075
 10
6.3737913723
 20
35.7662074585
 10
6.4452197227
 20
35.9090652924
 10
6.5166486397
 20
35.9804919434
 10
6.5880769901
 20
35.9804919434
  0
LINE
  5
574
100
AcDbEntity
  8
CURVE
100
AcDbLine
 62
250
  6
CONTINUOUS
 10
12.0595056243
 20
-13.0039628839
 11
11.8737913497
 21
-13.1896770811
  0
LWPOLYLINE
  5
575
100
AcDbEntity
  8
ASSI
100
AcDbPolyline
 62
250
  6
CONTINUOUS
 90
16
 70
0
 10
0.5435499339
 20
-23.079453418
 10
0.5480145996
 20
-23.0758238172
 10
0.5523764077
 20
-23.0720191678
 10
0.556627228
 20
-23.0680362227
 10
0.5607221079
 20
-23.0639055021
 10
0.5646898782
 20
-23.0595925298
 10
0.5686256633
 20
-23.0549897292
 10
0.5725349893
 20
-23.0500593211
 10
0.5763746991
 20
-23.0448201197
 10
0.5801565657
 20
-23.0392415623
 10
0.5838566601
 20
-23.0333078234
 10
0.5874501505
 20
-23.0270189393
 10
0.5909438125
 20
-23.0203683322
 10
0.5943209944
 20
-23.0133514497
 10
0.5975413573
 20
-23.0059660414
 10
0.6005741671
 20
-22.9982116369
  0
LINE
  5
576
100
AcDbEntity
  8
CURVE
100
AcDbLine
 62
250
  6
CONTINUOUS
 10
13.1737913497
 20
-9.0420580482
 11
11.8737913497
 21
-9.6920580482
  0
LINE
  5
577
100
AcDbEntity
  8
CURVE
100
AcDbLine
 62
250
  6
CONTINUOUS
 10
3.6661921862
 20
-10.7459571797
 11
1.7076333466
 21
-11.4804981797
  0
LINE
  5
578
100
AcDbEntity
  8
CURVE
100
AcDbLine
 62
250
  6
CONTINUOUS
 10
0.666781616
 20
-11.3181591797
 11
2.3320637911
 21
-10.6986301797
  0
LINE
  5
579
100
AcDbEntity
  8
CURVE
100
AcDbLine
 62
250
  6
CONTINUOUS
 10
13.1737913497
 20
-4.9563432312
 11
11.8737913497
 21
-5.3277728653
  0
LWPOLYLINE
  5
57A
100
AcDbEntity
  8
CURVE
100
AcDbPolyline
 62
250
  6
CONTINUOUS
 90
39
 70
0
 10
2.78210891
 20
-4.4722948266
 10
2.7580675259
 20
-4.4790207772
 10
2.7340859038
 20
-4.4859501541
 10
2.7101853412
 20
-4.4931528727
 10
2.6863871357
 20
-4.5006988486
 10
2.6645497257
 20
-4.5080161097
 10
2.6428338326
 20
-4.5157026637
 10
2.6212558129
 20
-4.5237764273
 10
2.5998320234
 20
-4.5322553172
 10
2.5785788205
 20
-4.5411572504
 10
2.5575125609
 20
-4.5505001435
 10
2.5366496012
 20
-4.5603019132
 10
2.5160062981
 20
-4.5705804765
 10
2.5025659844
 20
-4.5776066985
 10
2.4892432246
 20
-4.5848598334
 10
2.476053592
 20
-4.5923530316
 10
2.4630126601
 20
-4.6000994437
 10
2.4501360024
 20
-4.60811222
 10
2.4374391921
 20
-4.6164045109
 10
2.4249378028
 20
-4.6249894668
 10
2.4126474079
 20
-4.6338802382
 10
2.4005835807
 20
-4.6430899755
 10
2.3887618947
 20
-4.652631829
 10
2.3771979233
 20
-4.6625189493
 10
2.36590724
 20
-4.6727644866
 10
2.3569237262
 20
-4.6813830993
 10
2.3481506234
 20
-4.6902432291
 10
2.3396066352
 20
-4.6993397967
 10
2.3313104652
 20
-4.7086677224
 10
2.323280817
 20
-4.7182219269
 10
2.3155363941
 20
-4.7279973306
 10
2.3080959002
 20
-4.7379888542
 10
2.3009780388
 20
-4.7481914182
 10
2.2942015136
 20
-4.758599943
 10
2.287785028
 20
-4.7692093493
 10
2.2817472858
 20
-4.7800145575
 10
2.2761069905
 20
-4.7910104882
 10
2.2708828456
 20
-4.8021920619
 10
2.2660935548
 20
-4.8135541992
  0
LINE
  5
57B
100
AcDbEntity
  8
CURVE
100
AcDbLine
 62
250
  6
CONTINUOUS
 10
2.9557066528
 20
-4.4253273373
 11
2.78210891
 21
-4.4722948266
  0
LINE
  5
57C
100
AcDbEntity
  8
CURVE
100
AcDbLine
 62
250
  6
CONTINUOUS
 10
3.6661918543
 20
-4.2385857154
 11
3.564844836
 21
-4.2658268268
  0
LWPOLYLINE
  5
57D
100
AcDbEntity
  8
CURVE
100
AcDbPolyline
 62
250
  6
CONTINUOUS
 90
5
 70
0
 10
3.564844836
 20
-4.2658268268
 10
3.3618409119
 20
-4.3191516064
 10
3.260263516
 20
-4.3455321278
 10
3.1586888375
 20
-4.3719226391
 10
2.9557066528
 20
-4.4253273373
  0
LWPOLYLINE
  5
57E
100
AcDbEntity
  8
CURVE
100
AcDbPolyline
 62
250
  6
CONTINUOUS
 90
17
 70
0
 10
7.2718715841
 20
0.6174608203
 10
7.3689848676
 20
0.6269832236
 10
7.4623991362
 20
0.6551877281
 10
7.5485562696
 20
0.7010000329
 10
7.6254108054
 20
0.7639071368
 10
7.6873471671
 20
0.8393125689
 10
7.733458193
 20
0.9253125433
 10
7.7619875283
 20
1.0186313478
 10
7.7718515457
 20
1.1174598203
 10
7.762329505
 20
1.2145768017
 10
7.7341260745
 20
1.3079946274
 10
7.688315514
 20
1.3941550415
 10
7.6254108054
 20
1.4710125038
 10
7.5500082446
 20
1.532951224
 10
7.4640115448
 20
1.5790640057
 10
7.3706962935
 20
1.6075944274
 10
7.2718715404
 20
1.6174588203
  0
LWPOLYLINE
  5
57F
100
AcDbEntity
  8
CURVE
100
AcDbPolyline
 62
250
  6
CONTINUOUS
 90
17
 70
0
 10
7.2718715841
 20
1.6174588203
 10
7.1747583006
 20
1.607936417
 10
7.081344032
 20
1.5797319126
 10
6.9951868986
 20
1.5339196077
 10
6.9183323628
 20
1.4710125038
 10
6.8563960011
 20
1.3956070718
 10
6.8102849752
 20
1.3096070973
 10
6.7817556399
 20
1.2162882928
 10
6.7718916225
 20
1.1174598203
 10
6.7814136632
 20
1.0203428389
 10
6.8096170937
 20
0.9269250132
 10
6.8554276542
 20
0.8407645991
 10
6.9183323628
 20
0.7639071368
 10
6.9937349236
 20
0.7019684167
 10
7.0797316234
 20
0.655855635
 10
7.1730468747
 20
0.6273252133
 10
7.2718716278
 20
0.6174608203
  0
LINE
  5
580
100
AcDbEntity
  8
CURVE
100
AcDbLine
 62
250
  6
CONTINUOUS
 10
10.2716371273
 20
1.1174658196
 11
9.2717129211
 21
1.1174658196
  0
LINE
  5
581
100
AcDbEntity
  8
CURVE
100
AcDbLine
 62
250
  6
CONTINUOUS
 10
5.272017173
 20
1.1174658196
 11
4.2720940433
 21
1.1174658196
  0
LINE
  5
582
100
AcDbEntity
  8
ASSI
100
AcDbLine
 62
7
  6
CONTINUOUS
 10
14.1737913497
 20
2.1174658203
 11
14.3737913497
 21
2.1174658203
  0
LINE
  5
583
100
AcDbEntity
  8
ASSI
100
AcDbLine
 62
7
  6
CONTINUOUS
 10
14.1737913497
 20
3.1242548203
 11
14.3737913497
 21
3.1242548203
  0
LINE
  5
584
100
AcDbEntity
  8
CURVE
100
AcDbLine
 62
250
  6
CONTINUOUS
 10
4.9595056183
 20
10.6888943577
 11
5.245219887
 21
10.5460372829
  0
LINE
  5
585
100
AcDbEntity
  8
CURVE
100
AcDbLine
 62
250
  6
CONTINUOUS
 10
6.3880770512
 20
11.4031802082
 11
6.1023627527
 21
11.5460372829
  0
LINE
  5
586
100
AcDbEntity
  8
CURVE
100
AcDbLine
 62
250
  6
CONTINUOUS
 10
4.9595056183
 20
13.6412752533
 11
4.6737913497
 21
13.8317516708
  0
LWPOLYLINE
  5
587
100
AcDbEntity
  8
0
100
AcDbPolyline
 62
7
  6
CONTINUOUS
 90
10
 70
0
 43
0.3500000006
 10
3.7380769701
 20
45.9804949951
 10
3.8095056038
 20
45.8376371613
 10
3.8095056038
 20
45.7662059784
 10
3.6666486197
 20
45.6233481445
 10
3.595219986
 20
45.6233481445
 10
3.5237913523
 20
45.6947793274
 10
3.5237913523
 20
45.7662059784
 10
3.595219986
 20
45.9090638123
 10
3.6666486197
 20
45.9804949951
 10
3.7380769701
 20
45.9804949951
  0
LINE
  5
588
100
AcDbEntity
  8
ASSI
100
AcDbLine
 62
7
  6
CONTINUOUS
 10
14.1737913497
 20
4.135205769
 11
14.3737913497
 21
4.135205769
  0
LINE
  5
589
100
AcDbEntity
  8
ASSI
100
AcDbLine
 62
7
  6
CONTINUOUS
 10
14.1737913497
 20
4.2174982061
 11
14.3737913497
 21
4.2174982061
  0
LINE
  5
58A
100
AcDbEntity
  8
ASSI
100
AcDbLine
 62
7
  6
CONTINUOUS
 10
14.1737913497
 20
5.7149154222
 11
14.3737913497
 21
5.7149154222
  0
LINE
  5
58B
100
AcDbEntity
  8
CURVE
100
AcDbLine
 62
250
  6
CONTINUOUS
 10
5.6737913497
 20
15.1174658203
 11
5.1023628123
 21
15.4031799698
  0
LWPOLYLINE
  5
58C
100
AcDbEntity
  8
ASSI
100
AcDbPolyline
 62
250
  6
CONTINUOUS
 90
30
 70
0
 10
0.5435303044
 20
23.3144003597
 10
0.5384745449
 20
23.3182028022
 10
0.5332987822
 20
23.3217979747
 10
0.5280120409
 20
23.3251916113
 10
0.5226685506
 20
23.3283684078
 10
0.5172305175
 20
23.3313573899
 10
0.5115644432
 20
23.3342243866
 10
0.5056515194
 20
23.3369851123
 10
0.4995160248
 20
23.3396222714
 10
0.4930842236
 20
23.3421444717
 10
0.4863625356
 20
23.3445524098
 10
0.4793469245
 20
23.3468432083
 10
0.4719445767
 20
23.3490186657
 10
0.4641537619
 20
23.3510809876
 10
0.4559738447
 20
23.3530251751
 10
0.4473081928
 20
23.3548432782
 10
0.4381476229
 20
23.3565388526
 10
0.4284917517
 20
23.3581087563
 10
0.4182478379
 20
23.3595399756
 10
0.4073993788
 20
23.3608388335
 10
0.3959419314
 20
23.3620069276
 10
0.3837856933
 20
23.3630329094
 10
0.3709009502
 20
23.3639277994
 10
0.357280528
 20
23.3646986689
 10
0.3428459446
 20
23.3653397321
 10
0.3275464151
 20
23.365867217
 10
0.3113775466
 20
23.366293315
 10
0.29429961
 20
23.3666188475
 10
0.2762431083
 20
23.366863471
 10
0.2372107382
 20
23.3671589042
  0
LWPOLYLINE
  5
58D
100
AcDbEntity
  8
ASSI
100
AcDbPolyline
 62
250
  6
CONTINUOUS
 90
16
 70
0
 10
0.6316788357
 20
-23.1590936223
 10
0.6408273586
 20
-23.1531146643
 10
0.6498671542
 20
-23.1470110924
 10
0.6588005196
 20
-23.1407781451
 10
0.6675891529
 20
-23.1344575161
 10
0.6762752253
 20
-23.1279975277
 10
0.6849848282
 20
-23.1212543496
 10
0.6937961113
 20
-23.114182747
 10
0.7026430218
 20
-23.106820905
 10
0.711438346
 20
-23.0991488607
 10
0.7202039707
 20
-23.0911469419
 10
0.7289303107
 20
-23.0828237282
 10
0.7374812773
 20
-23.0741971442
 10
0.7458142364
 20
-23.0652679524
 10
0.7539819795
 20
-23.0560232284
 10
0.7619903745
 20
-23.0464595856
  0
LWPOLYLINE
  5
58E
100
AcDbEntity
  8
ASSI
100
AcDbPolyline
 62
250
  6
CONTINUOUS
 90
16
 70
0
 10
-2.529897846
 20
-24.4499626734
 10
-2.5477534146
 20
-24.4601114664
 10
-2.5654517317
 20
-24.4699649451
 10
-2.5828052731
 20
-24.4794188761
 10
-2.5996270677
 20
-24.4883716381
 10
-2.6157430253
 20
-24.4967308232
 10
-2.6309922042
 20
-24.5044129309
 10
-2.6452203598
 20
-24.5113397969
 10
-2.658265887
 20
-24.517432251
 10
-2.6699757629
 20
-24.5226190522
 10
-2.6802280875
 20
-24.5268470845
 10
-2.6889200401
 20
-24.5300749468
 10
-2.6959591454
 20
-24.5322698754
 10
-2.7012783986
 20
-24.5334137212
 10
-2.7048326127
 20
-24.5335003857
 10
-2.7065934081
 20
-24.5325341797
  0
LWPOLYLINE
  5
58F
100
AcDbEntity
  8
ASSI
100
AcDbPolyline
 62
250
  6
CONTINUOUS
 90
13
 70
0
 10
-2.9917780614
 20
-23.6499626734
 10
-3.014029037
 20
-23.6625779525
 10
-3.0359705262
 20
-23.6746976083
 10
-3.0572405668
 20
-23.6861217064
 10
-3.077488273
 20
-23.6966617868
 10
-3.0963796244
 20
-23.7061439727
 10
-3.1136029759
 20
-23.7144118395
 10
-3.1288741989
 20
-23.7213289945
 10
-3.1419413685
 20
-23.7267813275
 10
-3.1525889195
 20
-23.7306788929
 10
-3.1606412023
 20
-23.7329573936
 10
-3.1659653807
 20
-23.7335792421
 10
-3.1684736234
 20
-23.7325341797
  0
LINE
  5
590
100
AcDbEntity
  8
CURVE
100
AcDbLine
 62
250
  6
CONTINUOUS
 10
12.616648487
 20
-15.5111055917
 11
11.8737913497
 21
-15.8825341797
  0
LINE
  5
591
100
AcDbEntity
  8
CURVE
100
AcDbLine
 62
250
  6
CONTINUOUS
 10
3.6661921862
 20
-14.9262041797
 11
0.666781616
 21
-15.8771481797
  0
LINE
  5
592
100
AcDbEntity
  8
CURVE
100
AcDbLine
 62
250
  6
CONTINUOUS
 10
3.6716347717
 20
7.2718338203
 11
0.6682925009
 21
7.2718338203
  0
LINE
  5
593
100
AcDbEntity
  8
ASSI
100
AcDbLine
 62
7
  6
CONTINUOUS
 10
14.1737913497
 20
7.5589956174
 11
14.3737913497
 21
7.5589956174
  0
LINE
  5
594
100
AcDbEntity
  8
CURVE
100
AcDbLine
 62
250
  6
CONTINUOUS
 10
0.6682925009
 20
7.6249508203
 11
3.3891632843
 21
7.6249508203
  0
LINE
  5
595
100
AcDbEntity
  8
CURVE
100
AcDbLine
 62
250
  6
CONTINUOUS
 10
3.3891632843
 20
8.5679808203
 11
3.6716347717
 21
8.5679808203
  0
LINE
  5
596
100
AcDbEntity
  8
CURVE
100
AcDbLine
 62
250
  6
CONTINUOUS
 10
3.6716287722
 20
8.9824638203
 11
0.6682865014
 21
8.9824638203
  0
LINE
  5
597
100
AcDbEntity
  8
ASSI
100
AcDbLine
 62
7
  6
CONTINUOUS
 10
14.1737913497
 20
9.0356845781
 11
14.3737913497
 21
9.0356845781
  0
LINE
  5
598
100
AcDbEntity
  8
ASSI
100
AcDbLine
 62
7
  6
CONTINUOUS
 10
14.1737913497
 20
9.1983082594
 11
14.3737913497
 21
9.1983082594
  0
LINE
  5
599
100
AcDbEntity
  8
ASSI
100
AcDbLine
 62
7
  6
CONTINUOUS
 10
14.1737913497
 20
9.2174658185
 11
14.3737913497
 21
9.2174658185
  0
LINE
  5
59A
100
AcDbEntity
  8
CURVE
100
AcDbLine
 62
250
  6
CONTINUOUS
 10
0.9964665078
 20
15.0214108203
 11
2.62896018
 21
14.5852078203
  0
LINE
  5
59B
100
AcDbEntity
  8
CURVE
100
AcDbLine
 62
250
  6
CONTINUOUS
 10
2.9114346672
 20
14.4979658203
 11
3.671643771
 21
14.2860938203
  0
LINE
  5
59C
100
AcDbEntity
  8
CURVE
100
AcDbLine
 62
250
  6
CONTINUOUS
 10
3.671643771
 20
13.9329788203
 11
0.6682725025
 21
14.8136948203
  0
LWPOLYLINE
  5
59D
100
AcDbEntity
  8
ASSI
100
AcDbPolyline
 62
250
  6
CONTINUOUS
 90
13
 70
0
 10
-2.9917780614
 20
23.884894314
 10
-3.0140290061
 20
23.8975095758
 10
-3.0359704719
 20
23.9096292193
 10
-3.0572404973
 20
23.9210533101
 10
-3.077488197
 20
23.9315933884
 10
-3.0963795497
 20
23.9410755765
 10
-3.1136029085
 20
23.9493434485
 10
-3.1288741436
 20
23.9562606109
 10
-3.1419413279
 20
23.961712952
 10
-3.1525888934
 20
23.9656105248
 10
-3.1606411888
 20
23.9678890313
 10
-3.1659653765
 20
23.9685108829
 10
-3.1684736234
 20
23.9674658203
  0
LWPOLYLINE
  5
59E
100
AcDbEntity
  8
ASSI
100
AcDbPolyline
 62
250
  6
CONTINUOUS
 90
16
 70
0
 10
-2.529897846
 20
24.684894314
 10
-2.5477254586
 20
24.6950273791
 10
-2.565401397
 20
24.7048688594
 10
-2.5827386581
 20
24.7143146367
 10
-2.5995541249
 20
24.7232649383
 10
-2.6156695681
 20
24.7316248923
 10
-2.6309136725
 20
24.739305647
 10
-2.6451248214
 20
24.7462258245
 10
-2.6581534741
 20
24.7523126621
 10
-2.6698626743
 20
24.7575021977
 10
-2.6801323573
 20
24.7617410307
 10
-2.6888488973
 20
24.7649820478
 10
-2.6959129689
 20
24.7671890288
 10
-2.7012539818
 20
24.7683419674
 10
-2.7048246084
 20
24.7684333481
 10
-2.7065934081
 20
24.7674658203
  0
LWPOLYLINE
  5
59F
100
AcDbEntity
  8
ASSI
100
AcDbPolyline
 62
250
  6
CONTINUOUS
 90
30
 70
0
 10
0.6316390837
 20
23.3940490883
 10
0.6218621894
 20
23.4002745431
 10
0.6120714468
 20
23.4062851468
 10
0.6022674524
 20
23.4120823873
 10
0.5925160409
 20
23.4176284671
 10
0.5827523541
 20
23.422963602
 10
0.5727807858
 20
23.4282058892
 10
0.5625578895
 20
23.4333879792
 10
0.5521275099
 20
23.4384781997
 10
0.5414248283
 20
23.4434977978
 10
0.5304517976
 20
23.4484485402
 10
0.5192064063
 20
23.4533285162
 10
0.5076177541
 20
23.458153123
 10
0.4956776916
 20
23.4629255647
 10
0.483393743
 20
23.4676410987
 10
0.4707183287
 20
23.4723027324
 10
0.4576410536
 20
23.4769101593
 10
0.4441710558
 20
23.4814605596
 10
0.4302898641
 20
23.4859526837
 10
0.4159930559
 20
23.4903809026
 10
0.4012833153
 20
23.4947464268
 10
0.3861527666
 20
23.4990580696
 10
0.3706044692
 20
23.5033071304
 10
0.354633578
 20
23.5074975649
 10
0.3382205196
 20
23.5116575096
 10
0.3213776426
 20
23.5157778734
 10
0.3040913342
 20
23.5198639843
 10
0.2863034276
 20
23.5239664082
 10
0.2680478258
 20
23.5280772418
 10
0.2298709419
 20
23.5364150305
  0
LINE
  5
5A0
100
AcDbEntity
  8
ASSI
100
AcDbLine
 62
250
  6
CONTINUOUS
 10
-2.2067800219
 20
-24.4218550095
 11
0.1674852257
 21
-23.3147169421
  0
LINE
  5
5A1
100
AcDbEntity
  8
ASSI
100
AcDbLine
 62
7
  6
CONTINUOUS
 10
-2.1257468508
 20
-24.5856880732
 11
0.6891663318
 21
-23.2730724991
  0
LINE
  5
5A2
100
AcDbEntity
  8
CURVE
100
AcDbLine
 62
250
  6
CONTINUOUS
 10
13.1737913497
 20
-14.0253912783
 11
11.8737913497
 21
-14.3968198276
  0
LINE
  5
5A3
100
AcDbEntity
  8
CURVE
100
AcDbLine
 62
250
  6
CONTINUOUS
 10
0.6682865014
 20
9.3355808203
 11
3.6716287722
 21
9.3355808203
  0
LINE
  5
5A4
100
AcDbEntity
  8
CURVE
100
AcDbLine
 62
250
  6
CONTINUOUS
 10
3.6716347717
 20
9.8894698203
 11
0.6682925009
 21
9.8894698203
  0
LINE
  5
5A5
100
AcDbEntity
  8
CURVE
100
AcDbLine
 62
250
  6
CONTINUOUS
 10
4.9595056183
 20
9.9269896412
 11
5.388077081
 21
9.9269896412
  0
LINE
  5
5A6
100
AcDbEntity
  8
CURVE
100
AcDbLine
 62
250
  6
CONTINUOUS
 10
5.816648484
 20
9.974608686
 11
6.5309342004
 21
9.974608686
  0
LINE
  5
5A7
100
AcDbEntity
  8
CURVE
100
AcDbLine
 62
250
  6
CONTINUOUS
 10
0.9715334066
 20
10.2176618203
 11
3.6716347717
 21
10.2176618203
  0
LINE
  5
5A8
100
AcDbEntity
  8
CURVE
100
AcDbLine
 62
250
  6
CONTINUOUS
 10
5.245219887
 20
10.5460372829
 11
6.1023627527
 21
10.5460372829
  0
LINE
  5
5A9
100
AcDbEntity
  8
CURVE
100
AcDbLine
 62
250
  6
CONTINUOUS
 10
3.368393866
 20
11.4473388203
 11
0.6682925009
 21
11.4473388203
  0
LINE
  5
5AA
100
AcDbEntity
  8
CURVE
100
AcDbLine
 62
250
  6
CONTINUOUS
 10
6.1023627527
 20
11.5460372829
 11
5.245219887
 21
11.5460372829
  0
LINE
  5
5AB
100
AcDbEntity
  8
CURVE
100
AcDbLine
 62
250
  6
CONTINUOUS
 10
0.6682925009
 20
11.7755578203
 11
3.6716347717
 21
11.7755578203
  0
LWPOLYLINE
  5
5AC
100
AcDbEntity
  8
ASSI
100
AcDbPolyline
 62
250
  6
CONTINUOUS
 90
16
 70
0
 10
-2.2067800219
 20
24.6567866501
 10
-2.2166858774
 20
24.6611329151
 10
-2.226416347
 20
24.6650627564
 10
-2.2359714306
 20
24.6685761737
 10
-2.2453652798
 20
24.6716476342
 10
-2.254583743
 20
24.6743026708
 10
-2.2635843653
 20
24.6766178831
 10
-2.2723637917
 20
24.6785951975
 10
-2.2809253771
 20
24.6802326877
 10
-2.2892367315
 20
24.6816011731
 10
-2.2972951962
 20
24.6827024203
 10
-2.30510343
 20
24.6835346629
 10
-2.3126370187
 20
24.6841634214
 10
-2.3198878243
 20
24.6846105363
 10
-2.3268639848
 20
24.6848541671
 10
-2.3335655004
 20
24.684894314
  0
LINE
  5
5AD
100
AcDbEntity
  8
ASSI
100
AcDbLine
 62
250
  6
CONTINUOUS
 10
0.1674852256
 20
23.5496485827
 11
-2.2067800219
 21
24.6567866501
  0
LINE
  5
5AE
100
AcDbEntity
  8
ASSI
100
AcDbLine
 62
7
  6
CONTINUOUS
 10
0.6891663318
 20
23.5080041398
 11
-2.1257468508
 21
24.8206197138
  0
LWPOLYLINE
  5
5AF
100
AcDbEntity
  8
ASSI
100
AcDbPolyline
 62
250
  6
CONTINUOUS
 90
13
 70
0
 10
7.7338506588
 20
22.7532967656
 10
7.7390749871
 20
22.7504520175
 10
7.7435039548
 20
22.7449507644
 10
7.7470757485
 20
22.736869785
 10
7.7497405181
 20
22.7263218625
 10
7.7514610726
 20
22.7134542098
 10
7.7522133988
 20
22.6984464156
 10
7.7519869968
 20
22.6815079379
 10
7.7507850265
 20
22.66287518
 10
7.7486242632
 20
22.6428081919
 10
7.7455348638
 20
22.6215870407
 10
7.7415599459
 20
22.5995079013
 10
7.7367549858
 20
22.5768789235
  0
LINE
  5
5B0
100
AcDbEntity
  8
DRAFT
100
AcDbLine
 62
7
  6
CONTINUOUS
 10
9.0451842774
 20
-19.5612763556
 11
9.1737913497
 21
-19.5232982591
  0
LINE
  5
5B1
100
AcDbEntity
  8
ASSI
100
AcDbLine
 62
7
  6
CONTINUOUS
 10
9.0451842774
 20
-19.5612763556
 11
9.1737913497
 21
-19.5232982591
  0
LINE
  5
5B2
100
AcDbEntity
  8
CURVE
100
AcDbLine
 62
250
  6
CONTINUOUS
 10
3.6716347717
 20
12.3252698203
 11
0.6682925009
 21
12.3252698203
  0
LINE
  5
5B3
100
AcDbEntity
  8
CURVE
100
AcDbLine
 62
250
  6
CONTINUOUS
 10
0.9507639884
 20
12.6783858203
 11
1.9809565308
 21
12.6783858203
  0
LINE
  5
5B4
100
AcDbEntity
  8
CURVE
100
AcDbLine
 62
250
  6
CONTINUOUS
 10
2.2634290182
 20
12.6783858203
 11
3.3891632843
 21
12.6783858203
  0
LINE
  5
5B5
100
AcDbEntity
  8
CURVE
100
AcDbLine
 62
250
  6
CONTINUOUS
 10
4.9595056183
 20
12.9269896412
 11
5.388077081
 21
12.9269896412
  0
LINE
  5
5B6
100
AcDbEntity
  8
CURVE
100
AcDbLine
 62
250
  6
CONTINUOUS
 10
5.816648484
 20
12.9746087456
 11
6.5309342004
 21
12.9746087456
  0
LINE
  5
5B7
100
AcDbEntity
  8
ASSI
100
AcDbLine
 62
7
  6
CONTINUOUS
 10
14.1737913497
 20
13.0674537851
 11
14.3737913497
 21
13.0674537851
  0
LINE
  5
5B8
100
AcDbEntity
  8
CURVE
100
AcDbLine
 62
250
  6
CONTINUOUS
 10
5.816648484
 20
13.5460370445
 11
6.3880770512
 21
13.5460370445
  0
LINE
  5
5B9
100
AcDbEntity
  8
CURVE
100
AcDbLine
 62
250
  6
CONTINUOUS
 10
5.388077081
 20
13.6412752533
 11
4.9595056183
 21
13.6412752533
  0
LINE
  5
5BA
100
AcDbEntity
  8
CURVE
100
AcDbLine
 62
250
  6
CONTINUOUS
 10
1.9809565308
 20
13.6546518203
 11
2.2634290182
 21
13.6546518203
  0
LINE
  5
5BB
100
AcDbEntity
  8
CURVE
100
AcDbLine
 62
250
  6
CONTINUOUS
 10
0.6682925009
 20
13.7086568203
 11
0.9507639884
 21
13.7086568203
  0
LINE
  5
5BC
100
AcDbEntity
  8
CURVE
100
AcDbLine
 62
250
  6
CONTINUOUS
 10
3.3891632843
 20
13.7377378203
 11
3.6716347717
 21
13.7377378203
  0
LINE
  5
5BD
100
AcDbEntity
  8
CURVE
100
AcDbLine
 62
250
  6
CONTINUOUS
 10
4.9595056183
 20
14.4507993126
 11
5.388077081
 21
14.4507993126
  0
LINE
  5
5BE
100
AcDbEntity
  8
CURVE
100
AcDbLine
 62
250
  6
CONTINUOUS
 10
6.3880770512
 20
14.5460370445
 11
5.816648484
 21
14.5460370445
  0
LINE
  5
5BF
100
AcDbEntity
  8
CURVE
100
AcDbLine
 62
250
  6
CONTINUOUS
 10
6.3880770512
 20
15.1174658203
 11
5.6737913497
 21
15.1174658203
  0
LINE
  5
5C0
100
AcDbEntity
  8
CURVE
100
AcDbLine
 62
250
  6
CONTINUOUS
 10
5.816648484
 20
16.1174658203
 11
6.3880770512
 21
16.1174658203
  0
LINE
  5
5C1
100
AcDbEntity
  8
RACCORDO
100
AcDbLine
 62
250
  6
CONTINUOUS
 10
13.6781546174
 20
17.4848486056
 11
14.1737913497
 21
17.4848486056
  0
LINE
  5
5C2
100
AcDbEntity
  8
ASSI
100
AcDbLine
 62
250
  6
CONTINUOUS
 10
13.6781546174
 20
17.4848486056
 11
14.1737913497
 21
17.4848486056
  0
LINE
  5
5C3
100
AcDbEntity
  8
RACCORDO
100
AcDbLine
 62
250
  6
CONTINUOUS
 10
13.6781546174
 20
17.4848486056
 11
-0.8262086503
 21
17.5292501134
  0
LINE
  5
5C4
100
AcDbEntity
  8
ASSI
100
AcDbLine
 62
250
  6
CONTINUOUS
 10
13.6781546174
 20
17.4848486056
 11
-0.8262086503
 21
17.5292501134
  0
LINE
  5
5C5
100
AcDbEntity
  8
RACCORDO
100
AcDbLine
 62
250
  6
CONTINUOUS
 10
13.6781546174
 20
17.7974984002
 11
-0.8262086503
 21
17.841277164
  0
LINE
  5
5C6
100
AcDbEntity
  8
ASSI
100
AcDbLine
 62
250
  6
CONTINUOUS
 10
13.6781546174
 20
17.7974984002
 11
-0.8262086503
 21
17.841277164
  0
LINE
  5
5C7
100
AcDbEntity
  8
RACCORDO
100
AcDbLine
 62
250
  6
CONTINUOUS
 10
-0.8262086503
 20
17.6317937728
 11
-6.8262086503
 21
17.6686866224
  0
LINE
  5
5C8
100
AcDbEntity
  8
RACCORDO
100
AcDbLine
 62
250
  6
CONTINUOUS
 10
-0.8262086503
 20
17.9453808409
 11
-6.8262086503
 21
17.981759941
  0
LINE
  5
5C9
100
AcDbEntity
  8
SUPERFICI
100
AcDbLine
 62
7
  6
CONTINUOUS
 10
-6.8247620533
 20
18.3391117768
 11
-5.3343050825
 21
18.297467311
  0
LWPOLYLINE
  5
5CA
100
AcDbEntity
  8
RACCORDO
100
AcDbPolyline
 62
250
  6
CONTINUOUS
 90
19
 70
0
 10
13.6781546174
 20
17.7974984002
 10
13.7214462246
 20
17.7960869643
 10
13.7643872572
 20
17.7923350586
 10
13.8066545312
 20
17.7862696467
 10
13.847932082
 20
17.777934558
 10
13.8879060744
 20
17.7673916159
 10
13.9262680327
 20
17.7547214969
 10
13.9627269106
 20
17.7400205837
 10
13.9970107325
 20
17.7233988122
 10
14.0288617083
 20
17.7049811305
 10
14.0580403601
 20
17.6849058708
 10
14.0843265262
 20
17.6633243488
 10
14.1075216039
 20
17.6403996917
 10
14.1274508732
 20
17.6163049657
 10
14.1439649384
 20
17.5912212375
 10
14.1569399433
 20
17.5653368282
 10
14.1662782751
 20
17.5388463884
 10
14.1719095398
 20
17.5119494944
 10
14.1737913497
 20
17.4848486056
  0
LWPOLYLINE
  5
5CB
100
AcDbEntity
  8
ASSI
100
AcDbPolyline
 62
250
  6
CONTINUOUS
 90
19
 70
0
 10
13.6781546174
 20
17.7974984002
 10
13.7214462246
 20
17.7960869643
 10
13.7643872572
 20
17.7923350586
 10
13.8066545312
 20
17.7862696467
 10
13.847932082
 20
17.777934558
 10
13.8879060744
 20
17.7673916159
 10
13.9262680327
 20
17.7547214969
 10
13.9627269106
 20
17.7400205837
 10
13.9970107325
 20
17.7233988122
 10
14.0288617083
 20
17.7049811305
 10
14.0580403601
 20
17.6849058708
 10
14.0843265262
 20
17.6633243488
 10
14.1075216039
 20
17.6403996917
 10
14.1274508732
 20
17.6163049657
 10
14.1439649384
 20
17.5912212375
 10
14.1569399433
 20
17.5653368282
 10
14.1662782751
 20
17.5388463884
 10
14.1719095398
 20
17.5119494944
 10
14.1737913497
 20
17.4848486056
  0
LINE
  5
5CC
100
AcDbEntity
  8
ASSI
100
AcDbLine
 62
250
  6
CONTINUOUS
 10
0.2298709419
 20
23.5364150305
 11
0.1889410947
 21
23.5451494836
  0
LINE
  5
5CD
100
AcDbEntity
  8
ASSI
100
AcDbLine
 62
250
  6
CONTINUOUS
 10
5.4570504881
 20
23.1746720619
 11
7.6088108491
 21
22.5981096109
  0
LINE
  5
5CE
100
AcDbEntity
  8
ASSI
100
AcDbLine
 62
250
  6
CONTINUOUS
 10
7.7367549858
 20
22.5768789235
 11
9.1737913497
 21
22.1918261903
  0
LINE
  5
5CF
100
AcDbEntity
  8
ASSI
100
AcDbLine
 62
7
  6
CONTINUOUS
 10
5.5053238158
 20
23.3504287335
 11
9.1737913497
 21
22.3674658203
  0
LINE
  5
5D0
100
AcDbEntity
  8
CURVE
100
AcDbLine
 62
250
  6
CONTINUOUS
 10
3.671643771
 20
15.7525428203
 11
2.9114346672
 21
15.5407008203
  0
LINE
  5
5D1
100
AcDbEntity
  8
CURVE
100
AcDbLine
 62
250
  6
CONTINUOUS
 10
2.62896018
 20
15.4576148203
 11
0.9964665078
 21
15.0214108203
  0
LWPOLYLINE
  5
5D2
100
AcDbEntity
  8
RACCORDO
100
AcDbPolyline
 62
7
  6
CONTINUOUS
 90
13
 70
0
 10
-6.6366758416
 20
18.1560111065
 10
-6.6617885558
 20
18.1540460606
 10
-6.6863384353
 20
18.1496296219
 10
-6.7099324776
 20
18.1428287789
 10
-6.7321958369
 20
18.1337334061
 10
-6.7527673478
 20
18.122489287
 10
-6.7713081718
 20
18.1092988634
 10
-6.7875200211
 20
18.0943517721
 10
-6.801149235
 20
18.077875561
 10
-6.8119810725
 20
18.0601681547
 10
-6.8198434956
 20
18.0415067647
 10
-6.824611127
 20
18.0221443057
 10
-6.8262086503
 20
18.0023614006
  0
LINE
  5
5D3
100
AcDbEntity
  8
DRAFT
100
AcDbLine
 62
7
  6
CONTINUOUS
 10
-6.8262086503
 20
19.2389748073
 11
-6.2432884948
 21
19.2491497165
  0
LINE
  5
5D4
100
AcDbEntity
  8
ASSI
100
AcDbLine
 62
7
  6
CONTINUOUS
 10
14.1737913497
 20
18.1674538555
 11
14.3737913497
 21
18.1674538555
  0
LINE
  5
5D5
100
AcDbEntity
  8
SUPERFICI
100
AcDbLine
 62
250
  6
CONTINUOUS
 10
-6.8262086503
 20
18.7535301092
 11
-5.3262086503
 21
18.7461260779
  0
LINE
  5
5D6
100
AcDbEntity
  8
RACCORDO
100
AcDbLine
 62
250
  6
CONTINUOUS
 10
2.6737913497
 20
21.1772087784
 11
2.7748335022
 21
21.1757288606
  0
LINE
  5
5D7
100
AcDbEntity
  8
RACCORDO
100
AcDbLine
 62
7
  6
CONTINUOUS
 10
13.6825175529
 20
19.5260410363
 11
9.1737913497
 21
19.604741145
  0
LINE
  5
5D8
100
AcDbEntity
  8
ASSI
100
AcDbLine
 62
7
  6
CONTINUOUS
 10
13.6825175529
 20
19.5260410363
 11
9.1737913497
 21
19.604741145
  0
LINE
  5
5D9
100
AcDbEntity
  8
RACCORDO
100
AcDbLine
 62
250
  6
CONTINUOUS
 10
13.6781546174
 20
19.366513093
 11
9.1737913497
 21
19.4460693476
  0
LINE
  5
5DA
100
AcDbEntity
  8
ASSI
100
AcDbLine
 62
250
  6
CONTINUOUS
 10
13.6781546174
 20
19.366513093
 11
9.1737913497
 21
19.4460693476
  0
LINE
  5
5DB
100
AcDbEntity
  8
RACCORDO
100
AcDbLine
 62
7
  6
CONTINUOUS
 10
13.6825175529
 20
19.5260410363
 11
13.6924026023
 21
19.52577069
  0
LINE
  5
5DC
100
AcDbEntity
  8
ASSI
100
AcDbLine
 62
7
  6
CONTINUOUS
 10
13.6825175529
 20
19.5260410363
 11
13.6924026023
 21
19.52577069
  0
LWPOLYLINE
  5
5DD
100
AcDbEntity
  8
RACCORDO
100
AcDbPolyline
 62
250
  6
CONTINUOUS
 90
19
 70
0
 10
13.6781546174
 20
19.3665130938
 10
13.7215542244
 20
19.3650238537
 10
13.76441249
 20
19.3609325503
 10
13.8065179306
 20
19.3543134636
 10
13.8477320176
 20
19.3452666037
 10
13.8877563301
 20
19.3338177006
 10
13.9261312639
 20
19.3199944065
 10
13.9625777106
 20
19.3039949096
 10
13.9969065653
 20
19.2859346908
 10
14.0287922426
 20
19.2658330696
 10
14.0579708651
 20
19.2439618708
 10
14.0842654407
 20
19.2205274981
 10
14.1074833451
 20
19.1955180662
 10
14.1274238114
 20
19.1692493809
 10
14.1439420309
 20
19.1420081134
 10
14.1569319722
 20
19.1137687076
 10
14.1662839351
 20
19.0847504167
 10
14.171914432
 20
19.0554159031
 10
14.1737913497
 20
19.0261171888
  0
LWPOLYLINE
  5
5DE
100
AcDbEntity
  8
ASSI
100
AcDbPolyline
 62
250
  6
CONTINUOUS
 90
19
 70
0
 10
13.6781546174
 20
19.3665130938
 10
13.7215542244
 20
19.3650238537
 10
13.76441249
 20
19.3609325503
 10
13.8065179306
 20
19.3543134636
 10
13.8477320176
 20
19.3452666037
 10
13.8877563301
 20
19.3338177006
 10
13.9261312639
 20
19.3199944065
 10
13.9625777106
 20
19.3039949096
 10
13.9969065653
 20
19.2859346908
 10
14.0287922426
 20
19.2658330696
 10
14.0579708651
 20
19.2439618708
 10
14.0842654407
 20
19.2205274981
 10
14.1074833451
 20
19.1955180662
 10
14.1274238114
 20
19.1692493809
 10
14.1439420309
 20
19.1420081134
 10
14.1569319722
 20
19.1137687076
 10
14.1662839351
 20
19.0847504167
 10
14.171914432
 20
19.0554159031
 10
14.1737913497
 20
19.0261171888
  0
LINE
  5
5DF
100
AcDbEntity
  8
RACCORDO
100
AcDbLine
 62
250
  6
CONTINUOUS
 10
-3.8296991316
 20
21.6701412104
 11
1.3615755964
 21
21.48301177
  0
LWPOLYLINE
  5
5E0
100
AcDbEntity
  8
RACCORDO
100
AcDbPolyline
 62
250
  6
CONTINUOUS
 90
13
 70
0
 10
-3.8296991316
 20
21.5905309434
 10
-3.8554828084
 20
21.5921324029
 10
-3.8807766497
 20
21.5962304128
 10
-3.9051574216
 20
21.6027564025
 10
-3.9282171683
 20
21.6116011746
 10
-3.9495700381
 20
21.6226167323
 10
-3.9688587402
 20
21.6356187556
 10
-3.9857605226
 20
21.6503896857
 10
-3.9999925731
 20
21.6666823653
 10
-4.0113167511
 20
21.684224174
 10
-4.0195435729
 20
21.7027215902
 10
-4.0245353814
 20
21.7218651024
 10
-4.0262086503
 20
21.741334388
  0
LWPOLYLINE
  5
5E1
100
AcDbEntity
  8
RACCORDO
100
AcDbPolyline
 62
250
  6
CONTINUOUS
 90
12
 70
0
 10
-3.8296991316
 20
21.6701412104
 10
-3.8554821686
 20
21.6717485353
 10
-3.8807754885
 20
21.6758615606
 10
-3.9051558773
 20
21.6824114919
 10
-3.9282153713
 20
21.6912887512
 10
-3.9495681403
 20
21.7023448294
 10
-3.9688569291
 20
21.7153947878
 10
-3.9857589547
 20
21.7302203054
 10
-3.9999913518
 20
21.7465733366
 10
-4.0113159389
 20
21.7641803008
 10
-4.0195431582
 20
21.7827466129
 10
-4.0245352646
 20
21.8019616048
  0
LINE
  5
5E2
100
AcDbEntity
  8
ASSI
100
AcDbLine
 62
250
  6
CONTINUOUS
 10
7.6088108491
 20
22.5981096109
 11
7.6803926398
 21
22.5863778921
  0
LINE
  5
5E3
100
AcDbEntity
  8
ASSI
100
AcDbLine
 62
250
  6
CONTINUOUS
 10
7.6803926398
 20
22.5863778921
 11
7.7367549858
 21
22.5768789235
  0
LWPOLYLINE
  5
5E4
100
AcDbEntity
  8
ASSI
100
AcDbPolyline
 62
250
  6
CONTINUOUS
 90
10
 70
0
 10
4.1320605244
 20
23.1674658202
 10
4.1438477241
 20
23.1649983852
 10
4.1584058798
 20
23.1625853343
 10
4.1754498392
 20
23.1602654459
 10
4.1946231502
 20
23.1580788786
 10
4.2156120055
 20
23.15605409
 10
4.2381852291
 20
23.1542105414
 10
4.2620302614
 20
23.1525746404
 10
4.2867256548
 20
23.1511761367
 10
4.3118777111
 20
23.1500373268
  0
LINE
  5
5E5
100
AcDbEntity
  8
ASSI
100
AcDbLine
 62
250
  6
CONTINUOUS
 10
0.1889410947
 20
23.5451494836
 11
0.1674852256
 21
23.5496485827
  0
LWPOLYLINE
  5
5E6
100
AcDbEntity
  8
RACCORDO
100
AcDbPolyline
 62
250
  6
CONTINUOUS
 90
22
 70
0
 10
-4.2227181691
 20
21.3956916205
 10
-4.2104382519
 20
21.396025862
 10
-4.1978927296
 20
21.3979875369
 10
-4.1851384729
 20
21.4015766451
 10
-4.1722007197
 20
21.4067560549
 10
-4.1591929509
 20
21.4135628982
 10
-4.1463085035
 20
21.4221085697
 10
-4.1336461204
 20
21.4324517673
 10
-4.1212643169
 20
21.4445337931
 10
-4.1092888389
 20
21.4582899488
 10
-4.0978153959
 20
21.4737489055
 10
-4.0869085
 20
21.4908819921
 10
-4.0766443303
 20
21.5095384958
 10
-4.0671220172
 20
21.5297139842
 10
-4.0584040096
 20
21.5514128898
 10
-4.0505280792
 20
21.5744977976
 10
-4.0436053101
 20
21.5989415723
 10
-4.0377115941
 20
21.6247713492
 10
-4.0328896568
 20
21.6519311201
 10
-4.0292646005
 20
21.6804022155
 10
-4.0269937639
 20
21.7102033048
 10
-4.0262086503
 20
21.741334388
  0
LINE
  5
5E7
100
AcDbEntity
  8
ASSI
100
AcDbLine
 62
250
  6
CONTINUOUS
 10
0.0902437772
 20
23.3668645816
 11
0.0640832552
 21
23.3664445793
  0
LWPOLYLINE
  5
5E8
100
AcDbEntity
  8
RACCORDO
100
AcDbPolyline
 62
250
  6
CONTINUOUS
 90
22
 70
0
 10
-4.2227181691
 20
21.2473338982
 10
-4.1979414213
 20
21.2476589038
 10
-4.1728869581
 20
21.2496029014
 10
-4.1475547793
 20
21.253165175
 10
-4.1217180821
 20
21.2583056573
 10
-4.0956036693
 20
21.265061633
 10
-4.0698919497
 20
21.2735475934
 10
-4.0446196832
 20
21.2838173251
 10
-4.0197501098
 20
21.2958109647
 10
-3.9958533584
 20
21.3094717619
 10
-3.9729604054
 20
21.3248232243
 10
-3.9510402743
 20
21.3418330299
 10
-3.9305701648
 20
21.3603605535
 10
-3.9115644138
 20
21.3803953048
 10
-3.8940086843
 20
21.4019372361
 10
-3.8783371655
 20
21.4248617306
 10
-3.8645110953
 20
21.4491359562
 10
-3.8525692358
 20
21.4747810148
 10
-3.8430620621
 20
21.5017534055
 10
-3.8361730661
 20
21.530034281
 10
-3.8317187559
 20
21.559629185
 10
-3.8296991316
 20
21.5905309434
  0
LINE
  5
5E9
100
AcDbEntity
  8
ASSI
100
AcDbLine
 62
250
  6
CONTINUOUS
 10
0.1253232638
 20
23.5494572027
 11
0.0969578846
 21
23.5491189112
  0
LINE
  5
5EA
100
AcDbEntity
  8
ASSI
100
AcDbLine
 62
250
  6
CONTINUOUS
 10
0.1168753245
 20
23.3671032763
 11
0.0902437772
 21
23.3668645816
  0
LINE
  5
5EB
100
AcDbEntity
  8
DRAFT
100
AcDbLine
 62
7
  6
CONTINUOUS
 10
2.7737913497
 20
21.1045753559
 11
-0.8262086503
 21
21.0844369421
  0
LINE
  5
5EC
100
AcDbEntity
  8
ASSI
100
AcDbLine
 62
7
  6
CONTINUOUS
 10
2.7737913497
 20
21.1045753559
 11
-0.8262086503
 21
21.0844369421
  0
LINE
  5
5ED
100
AcDbEntity
  8
ASSI
100
AcDbLine
 62
250
  6
CONTINUOUS
 10
0.171053851
 20
23.3672714484
 11
0.1168753245
 21
23.3671032763
  0
LWPOLYLINE
  5
5EE
100
AcDbEntity
  8
ASSI
100
AcDbPolyline
 62
250
  6
CONTINUOUS
 90
3
 70
0
 10
0.1674852256
 20
23.5496485827
 10
0.153488084
 20
23.5496326749
 10
0.1253232638
 20
23.5494572027
  0
LINE
  5
5EF
100
AcDbEntity
  8
RACCORDO
100
AcDbLine
 62
250
  6
CONTINUOUS
 10
-5.3262086503
 20
22.6209263677
 11
-5.5227181691
 21
22.6209263677
  0
LINE
  5
5F0
100
AcDbEntity
  8
ASSI
100
AcDbLine
 62
250
  6
CONTINUOUS
 10
-4.2227181691
 20
22.8726451487
 11
-4.0262086503
 21
22.8726451487
  0
LINE
  5
5F1
100
AcDbEntity
  8
ASSI
100
AcDbLine
 62
250
  6
CONTINUOUS
 10
0.610122467
 20
23.1674658203
 11
-0.2537182671
 21
23.1674658203
  0
LINE
  5
5F2
100
AcDbEntity
  8
ASSI
100
AcDbLine
 62
250
  6
CONTINUOUS
 10
3.2228090897
 20
23.1674658203
 11
4.1320605244
 21
23.1674658203
  0
LINE
  5
5F3
100
AcDbEntity
  8
ASSI
100
AcDbLine
 62
250
  6
CONTINUOUS
 10
3.0374866852
 20
23.184894314
 11
1.3265842057
 21
23.184894314
  0
LINE
  5
5F4
100
AcDbEntity
  8
ASSI
100
AcDbLine
 62
250
  6
CONTINUOUS
 10
4.313209936
 20
23.184894314
 11
5.3794047746
 21
23.184894314
  0
LINE
  5
5F5
100
AcDbEntity
  8
ASSI
100
AcDbLine
 62
7
  6
CONTINUOUS
 10
1.3230937244
 20
23.3674658203
 11
5.3759142933
 21
23.3674658203
  0
LINE
  5
5F6
100
AcDbEntity
  8
ASSI
100
AcDbLine
 62
250
  6
CONTINUOUS
 10
-3.5227181691
 20
23.407507328
 11
-3.3262086503
 21
23.407507328
  0
LINE
  5
5F7
100
AcDbEntity
  8
ASSI
100
AcDbLine
 62
250
  6
CONTINUOUS
 10
-3.5227181691
 20
23.8598336404
 11
-3.3262086503
 21
23.8598336404
  0
LINE
  5
5F8
100
AcDbEntity
  8
RACCORDO
100
AcDbLine
 62
250
  6
CONTINUOUS
 10
-0.8262086503
 20
21.3108789962
 11
2.6737913497
 21
21.3086349389
  0
LINE
  5
5F9
100
AcDbEntity
  8
ASSI
100
AcDbLine
 62
250
  6
CONTINUOUS
 10
0.2372107382
 20
23.3671589042
 11
0.171053851
 21
23.3672714484
  0
LINE
  5
5FA
100
AcDbEntity
  8
RACCORDO
100
AcDbLine
 62
250
  6
CONTINUOUS
 10
-5.3262086503
 20
21.2559264764
 11
-4.2227181691
 21
21.2473338982
  0
LINE
  5
5FB
100
AcDbEntity
  8
RACCORDO
100
AcDbLine
 62
250
  6
CONTINUOUS
 10
-5.3262086503
 20
21.4042439479
 11
-4.2227181691
 21
21.3956913567
  0
LINE
  5
5FC
100
AcDbEntity
  8
DRAFT
100
AcDbLine
 62
7
  6
CONTINUOUS
 10
9.1737913497
 20
21.7801971424
 11
2.7737913497
 21
21.8360490963
  0
LINE
  5
5FD
100
AcDbEntity
  8
ASSI
100
AcDbLine
 62
7
  6
CONTINUOUS
 10
9.1737913497
 20
21.7801971424
 11
2.7737913497
 21
21.8360490963
  0
LWPOLYLINE
  5
5FE
100
AcDbEntity
  8
ASSI
100
AcDbPolyline
 62
250
  6
CONTINUOUS
 90
13
 70
0
 10
5.3794047746
 20
23.184894314
 10
5.3854939414
 20
23.1848368369
 10
5.3916185118
 20
23.1846491089
 10
5.3977784857
 20
23.18433113
 10
5.4039517467
 20
23.1838901436
 10
5.4101604112
 20
23.1833189062
 10
5.4164708284
 20
23.1825956873
 10
5.4228885349
 20
23.181726178
 10
5.4294079941
 20
23.1807046871
 10
5.4360789451
 20
23.1794924104
 10
5.4429179676
 20
23.1780764133
 10
5.4499084819
 20
23.1764696305
 10
5.4570504881
 20
23.1746720619
  0
LWPOLYLINE
  5
5FF
100
AcDbEntity
  8
ASSI
100
AcDbPolyline
 62
250
  6
CONTINUOUS
 90
13
 70
0
 10
1.3265842057
 20
23.184894314
 10
1.2766956052
 20
23.1857069476
 10
1.227392022
 20
23.1878618706
 10
1.178673456
 20
23.1913590831
 10
1.130579685
 20
23.1962214679
 10
1.0830709312
 20
23.2024261422
 10
1.0360278616
 20
23.2099044573
 10
0.9894595993
 20
23.2186333353
 10
0.9433570212
 20
23.2286358541
 10
0.8975734239
 20
23.2399125984
 10
0.8520599063
 20
23.2524637631
 10
0.8068653696
 20
23.2662891533
 10
0.7619898137
 20
23.2813887691
  0
LINE
  5
600
100
AcDbEntity
  8
ASSI
100
AcDbLine
 62
250
  6
CONTINUOUS
 10
2.6737913497
 20
21.5562401569
 11
2.7737913497
 21
21.5544946504
  0
LINE
  5
601
100
AcDbEntity
  8
ASSI
100
AcDbLine
 62
7
  6
CONTINUOUS
 10
1.3737913496
 20
21.8288936651
 11
2.7732400681
 21
21.8044661968
  0
LINE
  5
602
100
AcDbEntity
  8
DRAFT
100
AcDbLine
 62
7
  6
CONTINUOUS
 10
-6.8262086503
 20
22.1436484177
 11
-5.3262086503
 21
22.1174658203
  0
LINE
  5
603
100
AcDbEntity
  8
RACCORDO
100
AcDbLine
 62
250
  6
CONTINUOUS
 10
-5.9217043401
 20
22.6278906972
 11
-5.5227181691
 21
22.6209263677
  0
LINE
  5
604
100
AcDbEntity
  8
RACCORDO
100
AcDbLine
 62
7
  6
CONTINUOUS
 10
-5.5227181691
 20
22.8208959067
 11
-6.1598518288
 21
22.8320171161
  0
LINE
  5
605
100
AcDbEntity
  8
ASSI
100
AcDbLine
 62
250
  6
CONTINUOUS
 10
-3.5227181691
 20
23.8598336404
 11
-6.8262086503
 21
23.9174962813
  0
LINE
  5
606
100
AcDbEntity
  8
ASSI
100
AcDbLine
 62
7
  6
CONTINUOUS
 10
-3.5227181691
 20
24.0598031795
 11
-6.8262086503
 21
24.1174658203
  0
LINE
  5
607
100
AcDbEntity
  8
ASSI
100
AcDbLine
 62
250
  6
CONTINUOUS
 10
1.3615755964
 20
21.48301177
 11
2.6737913497
 21
21.4598129278
  0
LINE
  5
608
100
AcDbEntity
  8
RACCORDO
100
AcDbLine
 62
7
  6
CONTINUOUS
 10
-3.8331885497
 20
22.0107254099
 11
1.3737913496
 21
21.8288936651
  0
LINE
  5
609
100
AcDbEntity
  8
ASSI
100
AcDbLine
 62
7
  6
CONTINUOUS
 10
0.5520065971
 20
21.857591021
 11
-0.3467034745
 21
21.8889746682
  0
LWPOLYLINE
  5
60A
100
AcDbEntity
  8
ASSI
100
AcDbPolyline
 62
250
  6
CONTINUOUS
 90
13
 70
0
 10
3.037486685
 20
23.184894313
 10
3.0561853561
 20
23.1840861109
 10
3.0748910228
 20
23.1831263011
 10
3.0934131649
 20
23.1820216237
 10
3.1115890391
 20
23.1807777165
 10
3.1292207434
 20
23.1794058646
 10
3.1460662739
 20
23.1779234032
 10
3.1619353092
 20
23.1763561525
 10
3.1767300175
 20
23.1747055627
 10
3.1903473365
 20
23.1729535371
 10
3.2026549321
 20
23.1711040128
 10
3.2135160776
 20
23.1691857257
 10
3.2228092184
 20
23.1672177424
  0
LINE
  5
60B
100
AcDbEntity
  8
0
100
AcDbLine
 62
7
  6
CONTINUOUS
 10
-6.4445891271
 20
23.0760776575
 11
-5.3262086503
 21
23.0174658203
  0
LWPOLYLINE
  5
60C
100
AcDbEntity
  8
ASSI
100
AcDbPolyline
 62
250
  6
CONTINUOUS
 90
10
 70
0
 10
0.7811644307
 20
23.1500373247
 10
0.7580420255
 20
23.1513258921
 10
0.7352783146
 20
23.1528319487
 10
0.7131800392
 20
23.1545351974
 10
0.6920449742
 20
23.1564126826
 10
0.6721578976
 20
23.1584391042
 10
0.6537867569
 20
23.1605871584
 10
0.637179084
 20
23.1628278998
 10
0.6225586558
 20
23.1651311323
 10
0.6101224633
 20
23.1674658198
  0
LWPOLYLINE
  5
60D
100
AcDbEntity
  8
ASSI
100
AcDbPolyline
 62
250
  6
CONTINUOUS
 90
10
 70
0
 10
-0.4282125931
 20
23.1500373253
 10
-0.4050470421
 20
23.151325888
 10
-0.3821466112
 20
23.1528319358
 10
-0.3598198832
 20
23.1545351748
 10
-0.3383677104
 20
23.156412654
 10
-0.3180791606
 20
23.1584390744
 10
-0.2992276219
 20
23.16058713
 10
-0.2820671187
 20
23.1628278758
 10
-0.2668288887
 20
23.1651311178
 10
-0.253718267
 20
23.1674658199
  0
LWPOLYLINE
  5
60E
100
AcDbEntity
  8
ASSI
100
AcDbPolyline
 62
250
  6
CONTINUOUS
 90
10
 70
0
 10
3.0389262185
 20
23.1500373469
 10
3.064132063
 20
23.1511762262
 10
3.0889916735
 20
23.1525748244
 10
3.1131086921
 20
23.1542108425
 10
3.1360986002
 20
23.1560581962
 10
3.15759485
 20
23.1580874315
 10
3.1772547077
 20
23.1602661946
 10
3.1947647192
 20
23.1625597475
 10
3.209845707
 20
23.1649315222
 10
3.2222572218
 20
23.1673437035
  0
LINE
  5
60F
100
AcDbEntity
  8
0
100
AcDbLine
 62
250
  6
CONTINUOUS
 10
-6.8262086503
 20
26.0176371578
 11
-10.1392971245
 21
25.9308808829
  0
LWPOLYLINE
  5
610
100
AcDbEntity
  8
ASSI
100
AcDbPolyline
 62
250
  6
CONTINUOUS
 90
32
 70
0
 10
0.0640832552
 20
23.3664445793
 10
0.0512995759
 20
23.3661440377
 10
0.0388134605
 20
23.3657709277
 10
0.0265417208
 20
23.3653110025
 10
0.0144059205
 20
23.3647469167
 10
0.0024348573
 20
23.3640684849
 10
-0.0094232495
 20
23.3632539198
 10
-0.0213724942
 20
23.3622582361
 10
-0.0334752124
 20
23.3610540892
 10
-0.0456900666
 20
23.3596110444
 10
-0.0580744045
 20
23.3578591104
 10
-0.0706775112
 20
23.3557481732
 10
-0.0834583988
 20
23.3532339361
 10
-0.0963438247
 20
23.3502328219
 10
-0.109309322
 20
23.3466864089
 10
-0.1223505219
 20
23.342527206
 10
-0.1354180892
 20
23.3376340715
 10
-0.1484701259
 20
23.3319274137
 10
-0.1614469784
 20
23.3253272571
 10
-0.1742489578
 20
23.3176855325
 10
-0.1868805699
 20
23.3088116273
 10
-0.1991055132
 20
23.2987136464
 10
-0.2104630417
 20
23.2875847398
 10
-0.2208325675
 20
23.2753189171
 10
-0.230070713
 20
23.2620047469
 10
-0.237811028
 20
23.248271553
 10
-0.2439540692
 20
23.2342888191
 10
-0.2485721011
 20
23.2200801598
 10
-0.2517554918
 20
23.2061585831
 10
-0.2536273144
 20
23.1927670615
 10
-0.2542518585
 20
23.1798476857
 10
-0.2537179278
 20
23.1674658203
  0
LWPOLYLINE
  5
611
100
AcDbEntity
  8
ASSI
100
AcDbPolyline
 62
250
  6
CONTINUOUS
 90
35
 70
0
 10
0.0969578846
 20
23.5491189112
 10
0.0826496913
 20
23.5488348528
 10
0.0682125979
 20
23.5484652568
 10
0.0536784235
 20
23.5480046908
 10
0.0391023902
 20
23.5473937739
 10
0.0245534545
 20
23.5466434513
 10
0.0099626598
 20
23.5457427777
 10
-0.0048216419
 20
23.5445995361
 10
-0.0197396981
 20
23.543243644
 10
-0.0348512614
 20
23.541645184
 10
-0.0504872374
 20
23.5396221866
 10
-0.0667057829
 20
23.5372115275
 10
-0.0834487413
 20
23.5343763311
 10
-0.1008725484
 20
23.530824001
 10
-0.1190628536
 20
23.526586288
 10
-0.1379340077
 20
23.5216314414
 10
-0.1573854988
 20
23.5155716124
 10
-0.1774569462
 20
23.5084536129
 10
-0.1981087307
 20
23.500230631
 10
-0.2191214833
 20
23.4903743825
 10
-0.2405991418
 20
23.4789163871
 10
-0.2624377684
 20
23.4658251252
 10
-0.2841061811
 20
23.4504777536
 10
-0.3058812707
 20
23.4325970626
 10
-0.3274861464
 20
23.4124602619
 10
-0.3475589533
 20
23.3902761376
 10
-0.3660004847
 20
23.3656391855
 10
-0.3829099473
 20
23.3389549099
 10
-0.3972231067
 20
23.311648609
 10
-0.4085199819
 20
23.2837346988
 10
-0.4172205539
 20
23.2551987635
 10
-0.4235205302
 20
23.2274228535
 10
-0.4274851468
 20
23.2008676525
 10
-0.4290491678
 20
23.1750724768
 10
-0.4282125933
 20
23.1500373266
  0
LINE
  5
612
100
AcDbEntity
  8
ASSI
100
AcDbLine
 62
250
  6
CONTINUOUS
 10
-6.1761835667
 20
24.484894314
 11
-6.8262086503
 21
24.484894314
  0
LINE
  5
613
100
AcDbEntity
  8
ASSI
100
AcDbLine
 62
7
  6
CONTINUOUS
 10
-6.1796740479
 20
24.6674658203
 11
-6.8262086503
 21
24.6674658203
  0
LINE
  5
614
100
AcDbEntity
  8
ASSI
100
AcDbLine
 62
250
  6
CONTINUOUS
 10
-2.3335655004
 20
24.684894314
 11
-2.529897846
 21
24.684894314
  0
LINE
  5
615
100
AcDbEntity
  8
ASSI
100
AcDbLine
 62
7
  6
CONTINUOUS
 10
-2.3370559817
 20
24.8674658203
 11
-2.5333883273
 21
24.8674658203
  0
LINE
  5
616
100
AcDbEntity
  8
0
100
AcDbLine
 62
250
  6
CONTINUOUS
 10
-10.1392971245
 20
25.9308808829
 11
-10.6262086503
 21
25.9308808829
  0
LWPOLYLINE
  5
617
100
AcDbEntity
  8
0
100
AcDbPolyline
 62
7
  6
CONTINUOUS
 90
13
 70
0
 43
0.3500000006
 10
5.2380771446
 20
47.1947797852
 10
4.9523626099
 20
47.40906427
 10
4.9523626099
 20
48.0519222565
 10
5.2380771446
 20
48.4804912262
 10
5.8809339981
 20
48.4804912262
 10
6.1666485329
 20
48.0519222565
 10
6.1666485329
 20
47.40906427
 10
5.8809339981
 20
47.1947797852
 10
6.3095058002
 20
46.7662062836
 10
6.3095058002
 20
45.9090638123
 10
5.8809339981
 20
45.4804948425
 10
5.2380771446
 20
45.4804948425
 10
4.809505909
 20
45.9090638123
  0
LWPOLYLINE
  5
618
100
AcDbEntity
  8
ASSI
100
AcDbPolyline
 62
250
  6
CONTINUOUS
 90
13
 70
0
 10
4.1320604464
 20
23.1672152581
 10
4.1407466699
 20
23.1691848379
 10
4.1510344664
 20
23.1711043201
 10
4.162807678
 20
23.1729545999
 10
4.1759345546
 20
23.1747067957
 10
4.1902860325
 20
23.1763571283
 10
4.205762419
 20
23.177924108
 10
4.2222691091
 20
23.1794064246
 10
4.239619206
 20
23.1807781358
 10
4.2575741354
 20
23.1820219101
 10
4.275937563
 20
23.183126466
 10
4.2945464291
 20
23.1840861658
 10
4.3132099344
 20
23.184894271
  0
LINE
  5
619
100
AcDbEntity
  8
0
100
AcDbLine
 62
7
  6
CONTINUOUS
 10
-6.8262086503
 20
26.5174658203
 11
-10.1392971245
 21
26.4307095454
  0
LWPOLYLINE
  5
61A
100
AcDbEntity
  8
ASSI
100
AcDbPolyline
 62
250
  6
CONTINUOUS
 90
16
 70
0
 10
-6.1761835667
 20
24.484894314
 10
-6.1564333805
 20
24.4900332274
 10
-6.1369363944
 20
24.494932962
 10
-6.1178965869
 20
24.4995425076
 10
-6.0995195392
 20
24.5038124526
 10
-6.0819890295
 20
24.5077004675
 10
-6.065468618
 20
24.5111702221
 10
-6.0501167354
 20
24.514187678
 10
-6.0361165073
 20
24.5167160173
 10
-6.0236443364
 20
24.5187237202
 10
-6.0128269739
 20
24.5201918289
 10
-6.0037647121
 20
24.5211083929
 10
-5.9965509884
 20
24.5214664188
 10
-5.9912465766
 20
24.5212670877
 10
-5.9878865811
 20
24.5205173923
 10
-5.9864888827
 20
24.5192296293
  0
LWPOLYLINE
  5
61B
100
AcDbEntity
  8
0
100
AcDbPolyline
 62
7
  6
CONTINUOUS
 90
7
 70
0
 43
0.3500000006
 10
3.3737913065
 20
35.4804917908
 10
1.8737914152
 20
35.4804917908
 10
3.3737913065
 20
37.623350235
 10
3.3737913065
 20
38.0519192047
 10
2.9452197876
 20
38.4804927063
 10
2.3023627925
 20
38.4804927063
 10
1.8737914152
 20
37.8376347198
  0
LWPOLYLINE
  5
61C
100
AcDbEntity
  8
0
100
AcDbPolyline
 62
7
  6
CONTINUOUS
 90
7
 70
0
 43
0.3500000006
 10
-0.1190657972
 20
45.4804948425
 10
-1.6190657415
 20
45.4804948425
 10
-0.1190657972
 20
47.6233487549
 10
-0.1190657972
 20
48.0519222565
 10
-0.5476372275
 20
48.4804912262
 10
-1.1904943643
 20
48.4804912262
 10
-1.6190657415
 20
47.8376377716
  0
ARC
  5
61D
100
AcDbEntity
  8
ASSI
100
AcDbCircle
 62
7
  6
CONTINUOUS
 10
1.3230937244
 20
-24.6325341797
 40
1.5
100
AcDbArc
 50
90.0
 51
115.0
  0
ARC
  5
61E
100
AcDbEntity
  8
0
100
AcDbCircle
 62
7
  6
CONTINUOUS
 10
-10.1262086503
 20
-25.6959492423
 40
0.5
100
AcDbArc
 50
180.0
 51
268.5
  0
ARC
  5
61F
100
AcDbEntity
  8
ASSI
100
AcDbCircle
 62
7
  6
CONTINUOUS
 10
-2.3370559817
 20
-24.1325341797
 40
0.5
100
AcDbArc
 50
270.0
 51
295.0
  0
ARC
  5
620
100
AcDbEntity
  8
DRAFT
100
AcDbCircle
 62
7
  6
CONTINUOUS
 10
-6.2485242168
 20
-19.3141723844
 40
0.3
100
AcDbArc
 50
46.3156631378
 51
89.0
  0
ARC
  5
621
100
AcDbEntity
  8
RACCORDO
100
AcDbCircle
 62
7
  6
CONTINUOUS
 10
-5.5262086503
 20
-22.3859947271
 40
0.2
100
AcDbArc
 50
271.0
 51
360.0
  0
ARC
  5
622
100
AcDbEntity
  8
RACCORDO
100
AcDbCircle
 62
7
  6
CONTINUOUS
 10
-3.8262086503
 20
-21.9756719346
 40
0.2
100
AcDbArc
 50
92.0
 51
180.0
  0
ARC
  5
623
100
AcDbEntity
  8
ASSI
100
AcDbCircle
 62
7
  6
CONTINUOUS
 10
-6.1796740479
 20
-24.2325341797
 40
0.2
100
AcDbArc
 50
270.0
 51
345.0
  0
ARC
  5
624
100
AcDbEntity
  8
ASSI
100
AcDbCircle
 62
7
  6
CONTINUOUS
 10
-2.5333883273
 20
-24.4325341797
 40
0.2
100
AcDbArc
 50
210.0
 51
270.0
  0
ARC
  5
625
100
AcDbEntity
  8
ASSI
100
AcDbCircle
 62
7
  6
CONTINUOUS
 10
-3.3416787042
 20
-23.8325341797
 40
0.2
100
AcDbArc
 50
30.0
 51
85.6838888483
  0
ARC
  5
626
100
AcDbEntity
  8
ASSI
100
AcDbCircle
 62
7
  6
CONTINUOUS
 10
-3.8262086503
 20
-22.6377135081
 40
0.2
100
AcDbArc
 50
180.0
 51
250.0
  0
ARC
  5
627
100
AcDbEntity
  8
ASSI
100
AcDbCircle
 62
7
  6
CONTINUOUS
 10
-3.5262086503
 20
-23.1725756873
 40
0.2
100
AcDbArc
 50
0.0
 51
70.0
  0
ARC
  5
628
100
AcDbEntity
  8
ASSI
100
AcDbCircle
 62
7
  6
CONTINUOUS
 10
-3.5262086503
 20
-23.6249019998
 40
0.2
100
AcDbArc
 50
271.0
 51
360.0
  0
ARC
  5
629
100
AcDbEntity
  8
ASSI
100
AcDbCircle
 62
7
  6
CONTINUOUS
 10
1.3230937244
 20
24.8674658203
 40
1.5
100
AcDbArc
 50
245.0
 51
270.0
  0
ARC
  5
62A
100
AcDbEntity
  8
0
100
AcDbCircle
 62
7
  6
CONTINUOUS
 10
-10.1262086503
 20
25.9308808829
 40
0.5
100
AcDbArc
 50
91.5
 51
180.0
  0
ARC
  5
62B
100
AcDbEntity
  8
ASSI
100
AcDbCircle
 62
7
  6
CONTINUOUS
 10
-2.3370559817
 20
24.3674658203
 40
0.5
100
AcDbArc
 50
65.0
 51
90.0
  0
ARC
  5
62C
100
AcDbEntity
  8
DRAFT
100
AcDbCircle
 62
7
  6
CONTINUOUS
 10
-6.2485242168
 20
19.549104025
 40
0.3
100
AcDbArc
 50
271.0
 51
313.6843368622
  0
ARC
  5
62D
100
AcDbEntity
  8
RACCORDO
100
AcDbCircle
 62
7
  6
CONTINUOUS
 10
-5.5262086503
 20
22.6209263677
 40
0.2
100
AcDbArc
 50
0.0
 51
89.0
  0
ARC
  5
62E
100
AcDbEntity
  8
RACCORDO
100
AcDbCircle
 62
7
  6
CONTINUOUS
 10
-3.8262086503
 20
22.2106035753
 40
0.2
100
AcDbArc
 50
180.0
 51
268.0
  0
ARC
  5
62F
100
AcDbEntity
  8
ASSI
100
AcDbCircle
 62
7
  6
CONTINUOUS
 10
-2.5333883273
 20
24.6674658203
 40
0.2
100
AcDbArc
 50
90.0
 51
150.0
  0
ARC
  5
630
100
AcDbEntity
  8
ASSI
100
AcDbCircle
 62
7
  6
CONTINUOUS
 10
-6.1796740479
 20
24.4674658203
 40
0.2
100
AcDbArc
 50
15.0
 51
90.0
  0
ARC
  5
631
100
AcDbEntity
  8
ASSI
100
AcDbCircle
 62
7
  6
CONTINUOUS
 10
-3.3416787042
 20
24.0674658203
 40
0.2
100
AcDbArc
 50
274.3466611405
 51
330.0
  0
ARC
  5
632
100
AcDbEntity
  8
ASSI
100
AcDbCircle
 62
7
  6
CONTINUOUS
 10
-3.8262086503
 20
22.8726451487
 40
0.2
100
AcDbArc
 50
110.0
 51
180.0
  0
ARC
  5
633
100
AcDbEntity
  8
ASSI
100
AcDbCircle
 62
7
  6
CONTINUOUS
 10
-3.5262086503
 20
23.407507328
 40
0.2
100
AcDbArc
 50
290.0
 51
360.0
  0
ARC
  5
634
100
AcDbEntity
  8
ASSI
100
AcDbCircle
 62
7
  6
CONTINUOUS
 10
-3.5262086503
 20
23.8598336404
 40
0.2
100
AcDbArc
 50
0.0
 51
89.0
  0
ARC
  5
635
100
AcDbEntity
  8
RACCORDO
100
AcDbCircle
 62
7
  6
CONTINUOUS
 10
13.6737913497
 20
-18.7911855481
 40
0.5
100
AcDbArc
 50
271.0
 51
302.8848694766
  0
ARC
  5
636
100
AcDbEntity
  8
ASSI
100
AcDbCircle
 62
7
  6
CONTINUOUS
 10
13.6737913497
 20
-18.7911855481
 40
0.5
100
AcDbArc
 50
271.0
 51
302.8848694766
  0
ARC
  5
637
100
AcDbEntity
  8
ASSI
100
AcDbCircle
 62
7
  6
CONTINUOUS
 10
5.3759142933
 20
-22.6325341797
 40
0.5
100
AcDbArc
 50
270.0
 51
285.0
  0
ARC
  5
638
100
AcDbEntity
  8
RACCORDO
100
AcDbCircle
 62
7
  6
CONTINUOUS
 10
14.4737913497
 20
-10.2722408121
 40
0.3
100
AcDbArc
 50
92.0
 51
180.0
  0
ARC
  5
639
100
AcDbEntity
  8
RACCORDO
100
AcDbCircle
 62
7
  6
CONTINUOUS
 10
14.4737913497
 20
-1.6928275472
 40
0.3
100
AcDbArc
 50
180.0
 51
268.0
  0
ARC
  5
63A
100
AcDbEntity
  8
RACCORDO
100
AcDbCircle
 62
7
  6
CONTINUOUS
 10
15.8737913497
 20
-9.6229860083
 40
0.3
100
AcDbArc
 50
272.0
 51
360.0
  0
ARC
  5
63B
100
AcDbEntity
  8
RACCORDO
100
AcDbCircle
 62
7
  6
CONTINUOUS
 10
15.8737913497
 20
-2.3420823511
 40
0.3
100
AcDbArc
 50
0.0
 51
88.0
  0
ARC
  5
63C
100
AcDbEntity
  8
ASSI
100
AcDbCircle
 62
7
  6
CONTINUOUS
 10
14.4737913497
 20
-10.2722408121
 40
0.3
100
AcDbArc
 50
92.0
 51
180.0
  0
ARC
  5
63D
100
AcDbEntity
  8
ASSI
100
AcDbCircle
 62
7
  6
CONTINUOUS
 10
14.4737913497
 20
-1.6928275472
 40
0.3
100
AcDbArc
 50
180.0
 51
268.0
  0
ARC
  5
63E
100
AcDbEntity
  8
ASSI
100
AcDbCircle
 62
7
  6
CONTINUOUS
 10
15.8737913497
 20
-9.6229860083
 40
0.3
100
AcDbArc
 50
272.0
 51
360.0
  0
ARC
  5
63F
100
AcDbEntity
  8
ASSI
100
AcDbCircle
 62
7
  6
CONTINUOUS
 10
15.8737913497
 20
-2.3420823511
 40
0.3
100
AcDbArc
 50
0.0
 51
88.0
  0
ARC
  5
640
100
AcDbEntity
  8
RACCORDO
100
AcDbCircle
 62
7
  6
CONTINUOUS
 10
13.6737913497
 20
19.0261171888
 40
0.5
100
AcDbArc
 50
0.0
 51
87.8668147526
  0
ARC
  5
641
100
AcDbEntity
  8
ASSI
100
AcDbCircle
 62
7
  6
CONTINUOUS
 10
13.6737913497
 20
19.0261171888
 40
0.5
100
AcDbArc
 50
0.0
 51
87.8668147526
  0
ARC
  5
642
100
AcDbEntity
  8
ASSI
100
AcDbCircle
 62
7
  6
CONTINUOUS
 10
5.3759142933
 20
22.8674658203
 40
0.5
100
AcDbArc
 50
75.0
 51
90.0
  0
ELLIPSE
  5
643
100
AcDbEntity
  8
0
100
AcDbEllipse
 62
7
  6
CONTINUOUS
 10
52.7552827263
 20
-4.7545366097
 30
0.0
 11
0.0707968545
 21
0.0707968545
 31
0.0
 40
0.998782766
 41
2.3568034778
 42
3.9263818294
  0
ELLIPSE
  5
644
100
AcDbEntity
  8
0
100
AcDbEllipse
 62
7
  6
CONTINUOUS
 10
52.7552827263
 20
4.9894682503
 30
0.0
 11
0.0707968545
 21
-0.0707968545
 31
0.0
 40
0.998782766
 41
2.3568034778
 42
3.9263818294
  0
ELLIPSE
  5
645
100
AcDbEntity
  8
0
100
AcDbEllipse
 62
7
  6
CONTINUOUS
 10
62.4992875862
 20
4.9894682503
 30
0.0
 11
-0.0707968545
 21
-0.0707968545
 31
0.0
 40
0.998782766
 41
2.3568034778
 42
3.9263818294
  0
ELLIPSE
  5
646
100
AcDbEntity
  8
0
100
AcDbEllipse
 62
7
  6
CONTINUOUS
 10
62.4992875862
 20
-4.7545366097
 30
0.0
 11
-0.0707968545
 21
0.0707968545
 31
0.0
 40
0.998782766
 41
2.3568034778
 42
3.9263818294
  0
ELLIPSE
  5
647
100
AcDbEntity
  8
RACCORDO
100
AcDbEllipse
 62
7
  6
CONTINUOUS
 10
62.4992875862
 20
-4.7545366097
 30
0.0
 11
-0.0707968545
 21
0.0707968545
 31
0.0
 40
0.998782766
 41
-3.9263818294
 42
-2.3568034778
  0
ELLIPSE
  5
648
100
AcDbEntity
  8
RACCORDO
100
AcDbEllipse
 62
7
  6
CONTINUOUS
 10
62.4992875862
 20
4.9894682503
 30
0.0
 11
0.0707968545
 21
0.0707968545
 31
0.0
 40
0.998782766
 41
-0.7847891758
 42
0.7847891758
  0
ELLIPSE
  5
649
100
AcDbEntity
  8
RACCORDO
100
AcDbEllipse
 62
7
  6
CONTINUOUS
 10
52.7552827263
 20
4.9894682503
 30
0.0
 11
-0.0707968545
 21
0.0707968545
 31
0.0
 40
0.998782766
 41
-0.7847891758
 42
0.7847891758
  0
ELLIPSE
  5
64A
100
AcDbEntity
  8
RACCORDO
100
AcDbEllipse
 62
7
  6
CONTINUOUS
 10
52.7552827263
 20
-4.7545366097
 30
0.0
 11
0.0707968545
 21
0.0707968545
 31
0.0
 40
0.998782766
 41
-3.9263818294
 42
-2.3568034778
  0
ELLIPSE
  5
64B
100
AcDbEntity
  8
0
100
AcDbEllipse
 62
7
  6
CONTINUOUS
 10
68.22711376
 20
-25.7823627834
 30
0.0
 11
0.35379574
 21
-0.35379574
 31
0.0
 40
0.999315002
 41
-0.7850555471
 42
0.7850555471
  0
ELLIPSE
  5
64C
100
AcDbEntity
  8
0
100
AcDbEllipse
 62
7
  6
CONTINUOUS
 10
68.22711376
 20
26.0172944241
 30
0.0
 11
-0.35379574
 21
-0.35379574
 31
0.0
 40
0.999315002
 41
2.3565371065
 42
3.9266482006
  0
ELLIPSE
  5
64D
100
AcDbEntity
  8
0
100
AcDbEllipse
 62
7
  6
CONTINUOUS
 10
47.0274565525
 20
26.0172944241
 30
0.0
 11
0.35379574
 21
-0.35379574
 31
0.0
 40
0.999315002
 41
2.3565371065
 42
3.9266482006
  0
ELLIPSE
  5
64E
100
AcDbEntity
  8
0
100
AcDbEllipse
 62
7
  6
CONTINUOUS
 10
47.0274565525
 20
-25.7823627834
 30
0.0
 11
0.35379574
 21
0.35379574
 31
0.0
 40
0.999315002
 41
2.3565371065
 42
3.9266482006
  0
ELLIPSE
  5
64F
100
AcDbEntity
  8
RACCORDO
100
AcDbEllipse
 62
7
  6
CONTINUOUS
 10
-148.9707002625
 20
-7.1850919218
 30
0.0
 11
591.6544903202
 21
21.9522363776
 31
0.0
 40
0.0348940885
 41
1.324596945
 42
1.3265493164
  0
ELLIPSE
  5
650
100
AcDbEntity
  8
RACCORDO
100
AcDbEllipse
 62
7
  6
CONTINUOUS
 10
-148.9707002626
 20
7.4200235625
 30
0.0
 11
591.6544903202
 21
-21.9522363776
 31
0.0
 40
0.0348940885
 41
-1.3265493164
 42
-1.324596945
  0
ELLIPSE
  5
651
100
AcDbEntity
  8
0
100
AcDbEllipse
 62
7
  6
CONTINUOUS
 10
-1356.5171795482
 20
0.1174658203
 30
0.0
 11
1491.5228640581
 21
-0.0
 31
0.0
 40
0.0302453443
 41
6.7204492196
 42
6.7217244524
  0
ELLIPSE
  5
652
100
AcDbEntity
  8
0
100
AcDbEllipse
 62
7
  6
CONTINUOUS
 10
-1356.5171795482
 20
0.1174658203
 30
0.0
 11
1491.5228640581
 21
-0.0
 31
0.0
 40
0.0302453443
 41
5.844646162
 42
5.8459213948
  0
ELLIPSE
  5
653
100
AcDbEntity
  8
RACCORDO
100
AcDbEllipse
 62
7
  6
CONTINUOUS
 10
9.6737913497
 20
-20.2910752523
 30
0.0
 11
2.199988563
 21
0.0402441739
 31
0.0
 40
0.1762698288
 41
-2.5697735952
 42
-2.2680637803
  0
ENDSEC
  0
SECTION
  2
OBJECTS
  0
DICTIONARY
  5
C
100
AcDbDictionary
280
0
281
1
  3
ACAD_GROUP
350
D
  3
ACAD_MLINESTYLE
350
17
  3
ACAD_LAYOUT
350
1A
  3
ACAD_PLOTSETTINGS
350
19
  3
ACAD_PLOTSTYLENAME
350
E
  0
DICTIONARY
  5
D
102
{ACAD_REACTORS
330
C
102
}
100
AcDbDictionary
280
0
281
1
  0
ACDBDICTIONARYWDFLT
  5
E
102
{ACAD_REACTORS
330
C
102
}
100
AcDbDictionary
281
1
  3
Normal
350
F
100
AcDbDictionaryWithDefault
340
F
  0
DICTIONARY
  5
17
102
{ACAD_REACTORS
330
C
102
}
100
AcDbDictionary
280
0
281
1
  3
Standard
350
18
  0
DICTIONARY
  5
19
102
{ACAD_REACTORS
330
C
102
}
100
AcDbDictionary
281
1
  0
DICTIONARY
  5
1A
102
{ACAD_REACTORS
330
C
102
}
100
AcDbDictionary
281
1
  3
Model
350
654
  3
Layout1
350
655
  0
ACDBPLACEHOLDER
  5
F
102
{ACAD_REACTORS
330
E
102
}
  0
MLINESTYLE
  5
18
102
{ACAD_REACTORS
330
17
102
}
100
AcDbMlineStyle
  2
STANDARD
 70
0
  3

 62
256
 51
90.0
 52
90.0
 71
2
 49
0.5
 62
256
  6
BYLAYER
 49
-0.5
 62
256
  6
BYLAYER
  0
LAYOUT
  5
654
102
{ACAD_REACTORS
330
1A
102
}
100
AcDbPlotSettings
  1

  2
none_device
  4
ISO_A4_(297.00_x_210.00_MM)
  6

 40
0.0
 41
0.0
 42
0.0
 43
0.0
 44
297.0
 45
210.0
 46
0.0
 47
0.0
 48
0.0
 49
0.0
140
0.0
141
0.0
142
1.0
143
1.0
 70
1024
 72
1
 73
0
 74
0
  7

 75
0
147
1.0
148
0.0
149
0.0
100
AcDbLayout
  1
Model
 70
0
 71
0
 10
0.0
 20
0.0
 11
297.0
 21
210.0
 12
0.0
 22
0.0
 32
0.0
 14
0.0
 24
0.0
 34
0.0
 15
0.0
 25
0.0
 35
0.0
146
0.0
 13
0.0
 23
0.0
 33
0.0
 16
1.0
 26
0.0
 36
0.0
 17
0.0
 27
1.0
 37
0.0
 76
0
330
21D
345
0
346
0
  0
LAYOUT
  5
655
102
{ACAD_REACTORS
330
1A
102
}
100
AcDbPlotSettings
  1

  2
none_device
  4
ISO_A4_(297.00_x_210.00_MM)
  6

 40
0.0
 41
0.0
 42
0.0
 43
0.0
 44
297.0
 45
210.0
 46
0.0
 47
0.0
 48
0.0
 49
0.0
140
0.0
141
0.0
142
1.0
143
1.0
 70
0
 72
1
 73
0
 74
0
  7

 75
0
147
1.0
148
0.0
149
0.0
100
AcDbLayout
  1
Layout1
 70
0
 71
1
 10
0.0
 20
0.0
 11
297.0
 21
210.0
 12
0.0
 22
0.0
 32
0.0
 14
0.0
 24
0.0
 34
0.0
 15
0.0
 25
0.0
 35
0.0
146
0.0
 13
0.0
 23
0.0
 33
0.0
 16
1.0
 26
0.0
 36
0.0
 17
0.0
 27
1.0
 37
0.0
 76
0
330
21E
345
0
346
0
  0
ENDSEC
  0
EOF
