  0
SECTION
  2
HEADER
  9
$ACADVER
  1
AC1024
  9
$DWGCODEPAGE
  3
ANSI_1252
  9
$EXTMAX
 10
297.0
 20
210.0
 30
0.0
  9
$EXTMIN
 10
0.0
 20
0.0
 30
0.0
  9
$LIMMIN
 10
0.0
 20
0.0
  9
$LIMMAX
 10
297.0
 20
210.0
  9
$VIEWCTR
 10
148.5
 20
105.0
  9
$VIEWSIZE
 40
210.0
  9
$CLAYER
  8
0
  9
$LTSCALE
 40
16.335
  9
$CELTYPE
  6
BYLAYER
  9
$DIMSCALE
 40
1.0
  9
$DIMASZ
 40
3.0
  9
$DIMEXO
 40
0.5
  9
$DIMDLI
 40
11.286
  9
$DIMEXE
 40
1.5
  9
$DIMCEN
 40
2.673
  9
$DIMLFAC
 40
1.0
  9
$DIMBLK
  1
_FILLED
  9
$DIMALT
 70
0
  9
$DIMALTF
 40
0.0393700787
  9
$DIMTXT
 40
3.0
  9
$DIMTOL
 70
1
  9
$DIMLIM
 70
0
  9
$DIMTFAC
 40
1.0
  9
$DIMTP
 40
0.01
  9
$DIMTM
 40
0.01
  9
$DIMGAP
 40
0.625
  9
$DIMDSEP
 70
44
  9
$AUNITS
 70
0
  9
$PDMODE
 70
3
  9
$PDSIZE
 40
3.0
  9
$HANDSEED
  5
688
  9
$TILEMODE
 70
1
  9
$MEASUREMENT
 70
1
  9
$INSUNITS
 70
4
  0
ENDSEC
  0
SECTION
  2
CLASSES
  0
CLASS
  1
ACDBDICTIONARYWDFLT
  2
AcDbDictionaryWithDefault
  3
AutoCAD 2000
 90
0
 91
1
280
0
281
0
  0
CLASS
  1
ACDBPLACEHOLDER
  2
AcDbPlaceHolder
  3
AutoCAD 2000
 90
0
 91
1
280
0
281
0
  0
CLASS
  1
LAYOUT
  2
AcDbLayout
  3
AutoCAD 2000
 90
0
 91
0
280
0
281
0
  0
ENDSEC
  0
SECTION
  2
TABLES
  0
TABLE
  2
VPORT
  5
8
100
AcDbSymbolTable
 70
2
  0
VPORT
  5
1F4
100
AcDbSymbolTableRecord
100
AcDbViewportTableRecord
  2
*ACTIVE
 70
0
 10
0.0
 20
0.0
 11
1.0
 21
1.0
 12
148.5
 22
105.0
 13
0.0
 23
0.0
 14
1.0
 24
1.0
 15
0.0
 25
0.0
 16
0.0
 26
0.0
 36
1.0
 17
0.0
 27
0.0
 37
0.0
 40
210.0
 41
1.4142857143
 42
50.0
 43
0.0
 44
0.0
 50
0.0
 51
0.0
 71
0
 72
100
 73
1
 74
1
 75
0
 76
0
 77
0
 78
0
  0
ENDTAB
  0
TABLE
  2
LTYPE
  5
5
100
AcDbSymbolTable
 70
6
  0
LTYPE
  5
14
100
AcDbSymbolTableRecord
100
AcDbLinetypeTableRecord
  2
BYBLOCK
 70
0
  3

 72
65
 73
0
 40
0.0
  0
LTYPE
  5
15
100
AcDbSymbolTableRecord
100
AcDbLinetypeTableRecord
  2
BYLAYER
 70
0
  3

 72
65
 73
0
 40
0.0
  0
LTYPE
  5
16
100
AcDbSymbolTableRecord
100
AcDbLinetypeTableRecord
  2
CONTINUOUS
 70
64
  3
Solid line
 72
65
 73
0
 40
0.0
  0
LTYPE
  5
1F5
100
AcDbSymbolTableRecord
100
AcDbLinetypeTableRecord
  2
CENTER
 70
64
  3
____ _ ____ _ ____ _ ____ _ ____ _ ____ _ ____
 72
65
 73
4
 40
0.6
 49
0.375
 74
0
 49
-0.075
 74
0
 49
0.075
 74
0
 49
-0.075
 74
0
  0
LTYPE
  5
1F6
100
AcDbSymbolTableRecord
100
AcDbLinetypeTableRecord
  2
HIDDEN
 70
64
  3
- - - - - - - - - - - - - - - - - - - -
 72
65
 73
2
 40
0.2
 49
0.1
 74
0
 49
-0.1
 74
0
  0
LTYPE
  5
1F7
100
AcDbSymbolTableRecord
100
AcDbLinetypeTableRecord
  2
PHANTOM
 70
64
  3
_____ _ _ _____ _ _ _____ _ _ _____
 72
65
 73
6
 40
0.8
 49
0.45
 74
0
 49
-0.05
 74
0
 49
0.1
 74
0
 49
-0.05
 74
0
 49
0.1
 74
0
 49
-0.05
 74
0
  0
LTYPE
  5
1F8
100
AcDbSymbolTableRecord
100
AcDbLinetypeTableRecord
  2
DOT
 70
64
  3
. . . . . . . . . . . . . . . . . . . .
 72
65
 73
2
 40
0.2
 49
0.1
 74
0
 49
-0.1
 74
0
  0
LTYPE
  5
1F9
100
AcDbSymbolTableRecord
100
AcDbLinetypeTableRecord
  2
DASHED
 70
64
  3
- - - - - - - - - - - - - - - - - - - -
 72
65
 73
2
 40
0.2
 49
0.1
 74
0
 49
-0.1
 74
0
  0
ENDTAB
  0
TABLE
  2
LAYER
  5
2
100
AcDbSymbolTable
 70
36
  0
LAYER
  5
10
100
AcDbSymbolTableRecord
100
AcDbLayerTableRecord
  2
0
 70
0
 62
7
  6
CONTINUOUS
370
-3
390
F
  0
LAYER
  5
1FA
100
AcDbSymbolTableRecord
100
AcDbLayerTableRecord
  2
DEFAULT_1
 70
0
 62
7
  6
CENTER
370
-3
390
F
  0
LAYER
  5
1FB
100
AcDbSymbolTableRecord
100
AcDbLayerTableRecord
  2
DEFAULT_2
 70
0
 62
7
  6
HIDDEN
370
-3
390
F
  0
LAYER
  5
1FC
100
AcDbSymbolTableRecord
100
AcDbLayerTableRecord
  2
DEFAULT_3
 70
0
 62
7
  6
PHANTOM
370
-3
390
F
  0
LAYER
  5
1FD
100
AcDbSymbolTableRecord
100
AcDbLayerTableRecord
  2
ASSI
 70
0
 62
7
  6
CONTINUOUS
370
-3
390
F
  0
LAYER
  5
1FE
100
AcDbSymbolTableRecord
100
AcDbLayerTableRecord
  2
COORDINATE
 70
0
 62
7
  6
CONTINUOUS
370
-3
390
F
  0
LAYER
  5
1FF
100
AcDbSymbolTableRecord
100
AcDbLayerTableRecord
  2
COORD_ORIGINE
 70
0
 62
7
  6
CONTINUOUS
370
-3
390
F
  0
LAYER
  5
200
100
AcDbSymbolTableRecord
100
AcDbLayerTableRecord
  2
COPY_PUBLISH
 70
0
 62
7
  6
CONTINUOUS
370
-3
390
F
  0
LAYER
  5
201
100
AcDbSymbolTableRecord
100
AcDbLayerTableRecord
  2
COSMETICHE
 70
0
 62
7
  6
CONTINUOUS
370
-3
390
F
  0
LAYER
  5
202
100
AcDbSymbolTableRecord
100
AcDbLayerTableRecord
  2
COSMETICI
 70
0
 62
7
  6
CONTINUOUS
370
-3
390
F
  0
LAYER
  5
203
100
AcDbSymbolTableRecord
100
AcDbLayerTableRecord
  2
CURVE
 70
0
 62
7
  6
CONTINUOUS
370
-3
390
F
  0
LAYER
  5
204
100
AcDbSymbolTableRecord
100
AcDbLayerTableRecord
  2
DRAFT
 70
0
 62
7
  6
CONTINUOUS
370
-3
390
F
  0
LAYER
  5
205
100
AcDbSymbolTableRecord
100
AcDbLayerTableRecord
  2
IMPORT_IGES
 70
0
 62
7
  6
CONTINUOUS
370
-3
390
F
  0
LAYER
  5
206
100
AcDbSymbolTableRecord
100
AcDbLayerTableRecord
  2
INTF_1
 70
0
 62
7
  6
CONTINUOUS
370
-3
390
F
  0
LAYER
  5
207
100
AcDbSymbolTableRecord
100
AcDbLayerTableRecord
  2
INTF_10
 70
0
 62
7
  6
CONTINUOUS
370
-3
390
F
  0
LAYER
  5
208
100
AcDbSymbolTableRecord
100
AcDbLayerTableRecord
  2
INTF_11
 70
0
 62
7
  6
CONTINUOUS
370
-3
390
F
  0
LAYER
  5
209
100
AcDbSymbolTableRecord
100
AcDbLayerTableRecord
  2
INTF_12
 70
0
 62
7
  6
CONTINUOUS
370
-3
390
F
  0
LAYER
  5
20A
100
AcDbSymbolTableRecord
100
AcDbLayerTableRecord
  2
INTF_13
 70
0
 62
7
  6
CONTINUOUS
370
-3
390
F
  0
LAYER
  5
20B
100
AcDbSymbolTableRecord
100
AcDbLayerTableRecord
  2
INTF_14
 70
0
 62
7
  6
CONTINUOUS
370
-3
390
F
  0
LAYER
  5
20C
100
AcDbSymbolTableRecord
100
AcDbLayerTableRecord
  2
INTF_2
 70
0
 62
7
  6
CONTINUOUS
370
-3
390
F
  0
LAYER
  5
20D
100
AcDbSymbolTableRecord
100
AcDbLayerTableRecord
  2
INTF_8
 70
0
 62
7
  6
CONTINUOUS
370
-3
390
F
  0
LAYER
  5
20E
100
AcDbSymbolTableRecord
100
AcDbLayerTableRecord
  2
INTF_9
 70
0
 62
7
  6
CONTINUOUS
370
-3
390
F
  0
LAYER
  5
20F
100
AcDbSymbolTableRecord
100
AcDbLayerTableRecord
  2
NOTE
 70
0
 62
7
  6
CONTINUOUS
370
-3
390
F
  0
LAYER
  5
210
100
AcDbSymbolTableRecord
100
AcDbLayerTableRecord
  2
PIANI
 70
0
 62
7
  6
CONTINUOUS
370
-3
390
F
  0
LAYER
  5
211
100
AcDbSymbolTableRecord
100
AcDbLayerTableRecord
  2
PIANI_ORIGINE
 70
0
 62
7
  6
CONTINUOUS
370
-3
390
F
  0
LAYER
  5
212
100
AcDbSymbolTableRecord
100
AcDbLayerTableRecord
  2
PUNTI
 70
0
 62
7
  6
CONTINUOUS
370
-3
390
F
  0
LAYER
  5
213
100
AcDbSymbolTableRecord
100
AcDbLayerTableRecord
  2
RACCORDO
 70
0
 62
7
  6
CONTINUOUS
370
-3
390
F
  0
LAYER
  5
214
100
AcDbSymbolTableRecord
100
AcDbLayerTableRecord
  2
RGB__255__255__255__
 70
0
 62
7
  6
CONTINUOUS
370
-3
390
F
  0
LAYER
  5
215
100
AcDbSymbolTableRecord
100
AcDbLayerTableRecord
  2
RGB____0____0____0__
 70
0
 62
7
  6
CONTINUOUS
370
-3
390
F
  0
LAYER
  5
216
100
AcDbSymbolTableRecord
100
AcDbLayerTableRecord
  2
SIMBOLI
 70
0
 62
7
  6
CONTINUOUS
370
-3
390
F
  0
LAYER
  5
217
100
AcDbSymbolTableRecord
100
AcDbLayerTableRecord
  2
SMUSSO
 70
0
 62
7
  6
CONTINUOUS
370
-3
390
F
  0
LAYER
  5
218
100
AcDbSymbolTableRecord
100
AcDbLayerTableRecord
  2
SNAPLINE
 70
0
 62
7
  6
CONTINUOUS
370
-3
390
F
  0
LAYER
  5
219
100
AcDbSymbolTableRecord
100
AcDbLayerTableRecord
  2
SUPERFICI
 70
0
 62
7
  6
CONTINUOUS
370
-3
390
F
  0
LAYER
  5
21A
100
AcDbSymbolTableRecord
100
AcDbLayerTableRecord
  2
TRASH
 70
0
 62
7
  6
CONTINUOUS
370
-3
390
F
  0
LAYER
  5
21B
100
AcDbSymbolTableRecord
100
AcDbLayerTableRecord
  2
XSEC_DATUMS
 70
0
 62
7
  6
CONTINUOUS
370
-3
390
F
  0
ENDTAB
  0
TABLE
  2
STYLE
  5
3
100
AcDbSymbolTable
 70
1
  0
STYLE
  5
11
100
AcDbSymbolTableRecord
100
AcDbTextStyleTableRecord
  2
STANDARD
 70
0
 40
0.0
 41
0.8
 50
0.0
 71
0
 42
0.2
  3
txt
  4

  0
STYLE
  5
21C
100
AcDbSymbolTableRecord
100
AcDbTextStyleTableRecord
  2
TEXTSTYLE_1
 70
0
 40
0.0
 41
0.8
 50
0.0
 71
0
 42
0.2
  3
gdt
  4

  0
ENDTAB
  0
TABLE
  2
VIEW
  5
6
100
AcDbSymbolTable
 70
0
  0
ENDTAB
  0
TABLE
  2
UCS
  5
7
100
AcDbSymbolTable
 70
0
  0
ENDTAB
  0
TABLE
  2
APPID
  5
9
100
AcDbSymbolTable
 70
1
  0
APPID
  5
21D
100
AcDbSymbolTableRecord
100
AcDbRegAppTableRecord
  2
ACAD
 70
0
  0
ENDTAB
  0
TABLE
  2
BLOCK_RECORD
  5
1
100
AcDbSymbolTable
 70
0
  0
BLOCK_RECORD
  5
21E
100
AcDbSymbolTableRecord
100
AcDbBlockTableRecord
  2
*Model_Space
  0
BLOCK_RECORD
  5
21F
100
AcDbSymbolTableRecord
100
AcDbBlockTableRecord
  2
*Paper_Space
  0
BLOCK_RECORD
  5
220
100
AcDbSymbolTableRecord
100
AcDbBlockTableRecord
  2
_FILLED
  0
BLOCK_RECORD
  5
221
100
AcDbSymbolTableRecord
100
AcDbBlockTableRecord
  2
*D0
  0
BLOCK_RECORD
  5
222
100
AcDbSymbolTableRecord
100
AcDbBlockTableRecord
  2
*D1
  0
BLOCK_RECORD
  5
223
100
AcDbSymbolTableRecord
100
AcDbBlockTableRecord
  2
*D2
  0
BLOCK_RECORD
  5
224
100
AcDbSymbolTableRecord
100
AcDbBlockTableRecord
  2
*D3
  0
ENDTAB
  0
TABLE
  2
DIMSTYLE
  5
A
100
AcDbSymbolTable
 70
1
100
AcDbDimStyleTable
 71
0
  0
DIMSTYLE
105
225
100
AcDbSymbolTableRecord
100
AcDbDimStyleTableRecord
  2
STANDARD
 70
0
  3

  4

 40
1.0
 41
3.0
 42
0.5
 43
0.38
 44
1.5
 45
0.0
 46
0.0
 47
0.01
 48
0.01
140
3.0
141
0.09
142
0.0
143
25.4
144
1.0
145
0.0
146
1.0
147
0.625
 71
1
 72
0
 73
0
 74
0
 75
0
 76
0
 77
1
 78
8
 79
2
170
0
171
1
172
0
173
0
174
0
175
0
176
0
177
0
178
0
270
2
179
2
271
2
272
2
273
2
274
2
275
0
280
0
281
0
282
0
283
1
284
8
285
0
286
0
287
3
288
0
340
11
278
44
341
220
342
220
343
220
344
220
  0
DIMSTYLE
105
226
100
AcDbSymbolTableRecord
100
AcDbDimStyleTableRecord
  2
DIMSTYLE_1
 70
0
  3

  4

 40
1.0
 41
3.0
 42
0.5
 43
0.38
 44
1.5
 45
0.0
 46
0.0
 47
0.0
 48
0.0
140
3.0
141
0.09
142
0.0
143
25.4
144
1.0
145
0.0
146
1.0
147
0.75
 71
0
 72
0
 73
0
 74
0
 75
0
 76
0
 77
1
 78
8
 79
2
170
0
171
1
172
0
173
0
174
0
175
0
176
0
177
0
178
0
270
2
179
2
271
2
272
2
273
2
274
2
275
0
280
0
281
0
282
0
283
1
284
8
285
0
286
0
287
3
288
0
340
11
278
44
341
220
342
220
343
220
344
220
  0
ENDTAB
  0
ENDSEC
  0
SECTION
  2
BLOCKS
  0
BLOCK
  5
20
100
AcDbEntity
  8
0
100
AcDbBlockBegin
  2
*Model_Space
 70
0
 10
0.0
 20
0.0
 30
0.0
  3
*Model_Space
  1

  0
ENDBLK
  5
21
100
AcDbEntity
  8
0
100
AcDbBlockEnd
  0
BLOCK
  5
1C
100
AcDbEntity
  8
0
100
AcDbBlockBegin
  2
*Paper_Space
 70
0
 10
0.0
 20
0.0
 30
0.0
  3
*Paper_Space
  1

  0
ENDBLK
  5
1D
100
AcDbEntity
  8
0
100
AcDbBlockEnd
  0
BLOCK
  5
227
100
AcDbEntity
  8
0
100
AcDbBlockBegin
  2
_FILLED
 70
64
 10
0.0
 20
0.0
  3
_FILLED
  1

  0
SOLID
  5
228
100
AcDbEntity
  8
0
  6
BYBLOCK
 62
0
100
AcDbTrace
 10
0.0
 20
0.0
 11
-1.0
 21
0.3166666667
 12
-1.0
 22
-0.3166666667
 13
-1.0
 23
-0.3166666667
  0
ENDBLK
  5
229
100
AcDbEntity
  8
0
  6
BYBLOCK
 62
0
100
AcDbBlockEnd
  0
BLOCK
  5
22A
100
AcDbEntity
  8
0
100
AcDbBlockBegin
 62
7
  6
CONTINUOUS
  2
*D0
 70
65
 10
0.0
 20
0.0
  3
*D0
  1

  0
LINE
  5
22B
100
AcDbEntity
  8
0
100
AcDbLine
 62
7
  6
CONTINUOUS
 10
-12.7263503227
 20
26.3134150626
 11
-12.7263503227
 21
46.1130270187
  0
LINE
  5
22C
100
AcDbEntity
  8
0
100
AcDbLine
 62
7
  6
CONTINUOUS
 10
14.0736496773
 20
10.2404518286
 11
14.0736496773
 21
46.1130270187
  0
LINE
  5
22D
100
AcDbEntity
  8
0
100
AcDbLine
 62
7
  6
CONTINUOUS
 10
-12.7263503227
 20
44.6130270187
 11
0.6736496773
 21
44.6130270187
  0
LINE
  5
22E
100
AcDbEntity
  8
0
100
AcDbLine
 62
7
  6
CONTINUOUS
 10
14.0736496773
 20
44.6130270187
 11
0.6736496773
 21
44.6130270187
  0
INSERT
  5
22F
100
AcDbEntity
  8
0
100
AcDbBlockReference
 62
7
  6
CONTINUOUS
  2
_FILLED
 10
-12.7263503227
 20
44.6130270187
 41
3.0
 42
3.0
 43
3.0
 50
180.0
  0
INSERT
  5
230
100
AcDbEntity
  8
0
100
AcDbBlockReference
 62
7
  6
CONTINUOUS
  2
_FILLED
 10
14.0736496773
 20
44.6130270187
 41
3.0
 42
3.0
 43
3.0
  0
ENDBLK
  5
231
100
AcDbEntity
  8
0
  6
BYBLOCK
 62
0
100
AcDbBlockEnd
  0
BLOCK
  5
232
100
AcDbEntity
  8
0
100
AcDbBlockBegin
 62
7
  6
CONTINUOUS
  2
*D1
 70
65
 10
0.0
 20
0.0
  3
*D1
  1

  0
LINE
  5
233
100
AcDbEntity
  8
0
100
AcDbLine
 62
7
  6
CONTINUOUS
 10
14.0736496773
 20
5.725
 11
14.0736496773
 21
36.1130270187
  0
LINE
  5
234
100
AcDbEntity
  8
0
100
AcDbLine
 62
7
  6
CONTINUOUS
 10
-7.0263503227
 20
24.101875
 11
-7.0263503227
 21
36.1130270187
  0
LINE
  5
235
100
AcDbEntity
  8
0
100
AcDbLine
 62
7
  6
CONTINUOUS
 10
14.0736496773
 20
34.6130270187
 11
3.5236496773
 21
34.6130270187
  0
LINE
  5
236
100
AcDbEntity
  8
0
100
AcDbLine
 62
7
  6
CONTINUOUS
 10
-7.0263503227
 20
34.6130270187
 11
3.5236496773
 21
34.6130270187
  0
INSERT
  5
237
100
AcDbEntity
  8
0
100
AcDbBlockReference
 62
7
  6
CONTINUOUS
  2
_FILLED
 10
14.0736496773
 20
34.6130270187
 41
3.0
 42
3.0
 43
3.0
  0
INSERT
  5
238
100
AcDbEntity
  8
0
100
AcDbBlockReference
 62
7
  6
CONTINUOUS
  2
_FILLED
 10
-7.0263503227
 20
34.6130270187
 41
3.0
 42
3.0
 43
3.0
 50
180.0
  0
ENDBLK
  5
239
100
AcDbEntity
  8
0
  6
BYBLOCK
 62
0
100
AcDbBlockEnd
  0
BLOCK
  5
23A
100
AcDbEntity
  8
0
100
AcDbBlockBegin
 62
7
  6
CONTINUOUS
  2
*D2
 70
65
 10
0.0
 20
0.0
  3
*D2
  1

  0
LINE
  5
23B
100
AcDbEntity
  8
0
100
AcDbLine
 62
7
  6
CONTINUOUS
 10
41.3064331055
 20
26.4001713375
 11
41.3064331055
 21
36.1130270187
  0
LINE
  5
23C
100
AcDbEntity
  8
0
100
AcDbLine
 62
7
  6
CONTINUOUS
 10
63.5064331055
 20
26.4001713375
 11
63.5064331055
 21
36.1130270187
  0
LINE
  5
23D
100
AcDbEntity
  8
0
100
AcDbLine
 62
7
  6
CONTINUOUS
 10
41.3064331055
 20
34.6130270187
 11
52.4064331055
 21
34.6130270187
  0
LINE
  5
23E
100
AcDbEntity
  8
0
100
AcDbLine
 62
7
  6
CONTINUOUS
 10
63.5064331055
 20
34.6130270187
 11
52.4064331055
 21
34.6130270187
  0
INSERT
  5
23F
100
AcDbEntity
  8
0
100
AcDbBlockReference
 62
7
  6
CONTINUOUS
  2
_FILLED
 10
41.3064331055
 20
34.6130270187
 41
3.0
 42
3.0
 43
3.0
 50
180.0
  0
INSERT
  5
240
100
AcDbEntity
  8
0
100
AcDbBlockReference
 62
7
  6
CONTINUOUS
  2
_FILLED
 10
63.5064331055
 20
34.6130270187
 41
3.0
 42
3.0
 43
3.0
  0
ENDBLK
  5
241
100
AcDbEntity
  8
0
  6
BYBLOCK
 62
0
100
AcDbBlockEnd
  0
BLOCK
  5
242
100
AcDbEntity
  8
0
100
AcDbBlockBegin
 62
7
  6
CONTINUOUS
  2
*D3
 70
65
 10
0.0
 20
0.0
  3
*D3
  1

  0
LINE
  5
243
100
AcDbEntity
  8
0
100
AcDbLine
 62
7
  6
CONTINUOUS
 10
63.506604443
 20
26.4
 11
97.86754612
 21
26.4
  0
LINE
  5
244
100
AcDbEntity
  8
0
100
AcDbLine
 62
7
  6
CONTINUOUS
 10
63.506604443
 20
-26.4
 11
97.86754612
 21
-26.4
  0
LINE
  5
245
100
AcDbEntity
  8
0
100
AcDbLine
 62
7
  6
CONTINUOUS
 10
96.36754612
 20
26.4
 11
96.36754612
 21
0.0
  0
LINE
  5
246
100
AcDbEntity
  8
0
100
AcDbLine
 62
7
  6
CONTINUOUS
 10
96.36754612
 20
-26.4
 11
96.36754612
 21
0.0
  0
INSERT
  5
247
100
AcDbEntity
  8
0
100
AcDbBlockReference
 62
7
  6
CONTINUOUS
  2
_FILLED
 10
96.36754612
 20
26.4
 41
3.0
 42
3.0
 43
3.0
 50
90.0
  0
INSERT
  5
248
100
AcDbEntity
  8
0
100
AcDbBlockReference
 62
7
  6
CONTINUOUS
  2
_FILLED
 10
96.36754612
 20
-26.4
 41
3.0
 42
3.0
 43
3.0
 50
270.0
  0
ENDBLK
  5
249
100
AcDbEntity
  8
0
  6
BYBLOCK
 62
0
100
AcDbBlockEnd
  0
ENDSEC
  0
SECTION
  2
ENTITIES
  0
DIMENSION
  5
24A
100
AcDbEntity
  8
0
100
AcDbDimension
 62
7
  6
CONTINUOUS
  2
*D0
 10
14.0736496773
 20
44.6130270187
 11
-3.7192074656
 21
44.6130270187
 70
160
 71
2
 72
2
 41
0.9
 42
26.8
  3
DIMSTYLE_1
100
AcDbAlignedDimension
 13
-12.7263503227
 23
25.8134150626
 14
14.0736496773
 24
9.7404518286
100
AcDbRotatedDimension
  0
DIMENSION
  5
24B
100
AcDbEntity
  8
0
100
AcDbDimension
 62
7
  6
CONTINUOUS
  2
*D1
 10
-7.0263503227
 20
34.6130270187
 11
-0.2263503227
 21
34.6130270187
 70
160
 71
2
 72
2
 41
0.9
 42
21.1
  3
DIMSTYLE_1
100
AcDbAlignedDimension
 13
14.0736496773
 23
5.225
 14
-7.0263503227
 24
23.601875
 50
180.0
100
AcDbRotatedDimension
  0
DIMENSION
  5
24C
100
AcDbEntity
  8
0
100
AcDbDimension
 62
7
  6
CONTINUOUS
  2
*D2
 10
63.5064331055
 20
34.6130270187
 11
48.0135759626
 21
34.6130270187
 70
160
 71
2
 72
2
 41
0.9
 42
22.2
  3
DIMSTYLE_1
100
AcDbAlignedDimension
 13
41.3064331055
 23
25.9001713375
 14
63.5064331055
 24
25.9001713375
100
AcDbRotatedDimension
  0
DIMENSION
  5
24D
100
AcDbEntity
  8
0
100
AcDbDimension
 62
7
  6
CONTINUOUS
  2
*D3
 10
96.36754612
 20
-26.4
 11
96.36754612
 21
-4.2857142857
 70
160
 71
2
 72
2
 41
0.9
 42
52.8
  3
DIMSTYLE_1
100
AcDbAlignedDimension
 13
63.006604443
 23
26.4
 14
63.006604443
 24
-26.4
 50
270.0
100
AcDbRotatedDimension
  0
LINE
  5
24E
100
AcDbEntity
  8
DRAFT
100
AcDbLine
 62
7
  6
CONTINUOUS
 10
48.888483913
 20
-26.4
 11
49.1564331055
 21
-26.3738140784
  0
LINE
  5
24F
100
AcDbEntity
  8
DRAFT
100
AcDbLine
 62
7
  6
CONTINUOUS
 10
41.806261768
 20
-26.4
 11
48.888483913
 21
-26.4
  0
LINE
  5
250
100
AcDbEntity
  8
DRAFT
100
AcDbLine
 62
7
  6
CONTINUOUS
 10
55.9243822979
 20
-26.4
 11
63.006604443
 21
-26.4
  0
LINE
  5
251
100
AcDbEntity
  8
DRAFT
100
AcDbLine
 62
7
  6
CONTINUOUS
 10
49.1564331055
 20
-26.3738140784
 11
55.6564331055
 21
-26.3738140784
  0
LINE
  5
252
100
AcDbEntity
  8
0
100
AcDbLine
 62
250
  6
CONTINUOUS
 10
41.8930180429
 20
-26.3132437251
 11
62.919848168
 21
-26.3132437251
  0
LINE
  5
253
100
AcDbEntity
  8
0
100
AcDbLine
 62
250
  6
CONTINUOUS
 10
41.3931893804
 20
-25.8134150626
 11
63.4196768305
 21
-25.8134150626
  0
LINE
  5
254
100
AcDbEntity
  8
DRAFT
100
AcDbLine
 62
7
  6
CONTINUOUS
 10
55.9243822979
 20
-26.4
 11
55.6564331055
 21
-26.3738140784
  0
LINE
  5
255
100
AcDbEntity
  8
0
100
AcDbLine
 62
7
  6
CONTINUOUS
 10
57.2785574072
 20
-19.9720633844
 11
47.5343088038
 21
-19.9720633844
  0
LINE
  5
256
100
AcDbEntity
  8
RACCORDO
100
AcDbLine
 62
7
  6
CONTINUOUS
 10
57.2785574072
 20
-19.9720633844
 11
47.5343088038
 21
-19.9720633844
  0
LWPOLYLINE
  5
257
100
AcDbEntity
  8
0
100
AcDbPolyline
 62
250
  6
CONTINUOUS
 90
16
 70
0
 10
41.3931893804
 20
-25.8134150626
 10
41.3959777155
 20
-25.8657975315
 10
41.4042401872
 20
-25.9176029172
 10
41.4178857442
 20
-25.9682606712
 10
41.4367665398
 20
-26.0172184586
 10
41.460673261
 20
-26.0639310247
 10
41.4893317269
 20
-26.1078690436
 10
41.5224137843
 20
-26.1485433419
 10
41.5595570523
 20
-26.1855204357
 10
41.6003628986
 20
-26.2184079346
 10
41.6444466874
 20
-26.2468816807
 10
41.6912674641
 20
-26.2705791398
 10
41.7401142775
 20
-26.2891770144
 10
41.7903635161
 20
-26.3025182528
 10
41.8415176941
 20
-26.3105481619
 10
41.8930180431
 20
-26.3132437249
  0
LWPOLYLINE
  5
258
100
AcDbEntity
  8
0
100
AcDbPolyline
 62
250
  6
CONTINUOUS
 90
16
 70
0
 10
41.3931893804
 20
25.8134150626
 10
41.3959773449
 20
25.8657940376
 10
41.4042387543
 20
25.9175962153
 10
41.4178826344
 20
25.9682511464
 10
41.436761324
 20
26.0172067959
 10
41.4606655568
 20
26.0639177387
 10
41.4893208366
 20
26.1078541194
 10
41.5223982158
 20
26.1485261269
 10
41.5595358443
 20
26.1855014262
 10
41.6003371763
 20
26.2183893375
 10
41.6444186795
 20
26.2468656055
 10
41.6912392588
 20
26.270566676
 10
41.7400886507
 20
26.2891687618
 10
41.79034355
 20
26.3025140488
 10
41.8415063263
 20
26.3105469765
 10
41.8930180429
 20
26.3132437251
  0
LINE
  5
259
100
AcDbEntity
  8
0
100
AcDbLine
 62
7
  6
CONTINUOUS
 10
41.3064331055
 20
25.9001713375
 11
41.3064331055
 21
-25.9001713375
  0
LINE
  5
25A
100
AcDbEntity
  8
RACCORDO
100
AcDbLine
 62
7
  6
CONTINUOUS
 10
41.3064331055
 20
-17.5512208021
 11
41.3064331055
 21
17.5512208021
  0
LINE
  5
25B
100
AcDbEntity
  8
0
100
AcDbLine
 62
250
  6
CONTINUOUS
 10
41.3931893804
 20
-25.8134150626
 11
41.3931893804
 21
25.8134150626
  0
LINE
  5
25C
100
AcDbEntity
  8
0
100
AcDbLine
 62
250
  6
CONTINUOUS
 10
41.8930180429
 20
-26.3132437251
 11
41.8930180429
 21
26.3132437251
  0
LWPOLYLINE
  5
25D
100
AcDbEntity
  8
0
100
AcDbPolyline
 62
7
  6
CONTINUOUS
 90
3
 70
0
 43
0.3500000006
 10
53.4421490021
 20
35.6487416382
 10
53.3707178192
 20
35.4344571533
 10
53.2278599854
 20
35.1487414856
  0
LINE
  5
25E
100
AcDbEntity
  8
0
100
AcDbLine
 62
250
  6
CONTINUOUS
 10
63.006604443
 20
26.4
 11
62.919848168
 21
26.3132437251
  0
LINE
  5
25F
100
AcDbEntity
  8
0
100
AcDbLine
 62
250
  6
CONTINUOUS
 10
63.5064331055
 20
25.9001713375
 11
63.4196768305
 21
25.8134150626
  0
LINE
  5
260
100
AcDbEntity
  8
0
100
AcDbLine
 62
7
  6
CONTINUOUS
 10
47.5343088038
 20
-10.0279366156
 11
57.2785574072
 21
-10.0279366156
  0
LINE
  5
261
100
AcDbEntity
  8
RACCORDO
100
AcDbLine
 62
7
  6
CONTINUOUS
 10
47.5343088038
 20
-10.0279366156
 11
57.2785574072
 21
-10.0279366156
  0
LINE
  5
262
100
AcDbEntity
  8
0
100
AcDbLine
 62
250
  6
CONTINUOUS
 10
62.919848168
 20
-26.3132437251
 11
63.006604443
 21
-26.4
  0
LINE
  5
263
100
AcDbEntity
  8
0
100
AcDbLine
 62
250
  6
CONTINUOUS
 10
63.4196768305
 20
-25.8134150626
 11
63.5064331055
 21
-25.9001713375
  0
LINE
  5
264
100
AcDbEntity
  8
0
100
AcDbLine
 62
7
  6
CONTINUOUS
 10
47.4343697211
 20
-19.8721243017
 11
47.4343697211
 21
-10.1278756983
  0
LINE
  5
265
100
AcDbEntity
  8
RACCORDO
100
AcDbLine
 62
7
  6
CONTINUOUS
 10
47.4343697211
 20
-19.8721243017
 11
47.4343697211
 21
-10.1278756983
  0
LINE
  5
266
100
AcDbEntity
  8
0
100
AcDbLine
 62
7
  6
CONTINUOUS
 10
47.4343697211
 20
10.1278756983
 11
47.4343697211
 21
19.8721243017
  0
LINE
  5
267
100
AcDbEntity
  8
RACCORDO
100
AcDbLine
 62
7
  6
CONTINUOUS
 10
47.4343697211
 20
10.1278756983
 11
47.4343697211
 21
19.8721243017
  0
LWPOLYLINE
  5
268
100
AcDbEntity
  8
0
100
AcDbPolyline
 62
7
  6
CONTINUOUS
 90
4
 70
0
 43
0.3500000006
 10
95.1889713135
 20
1.928571373
 10
94.331833374
 20
1.928571373
 10
93.9032644043
 20
2.3571426086
 10
93.9032644043
 20
3.0000005951
  0
LINE
  5
269
100
AcDbEntity
  8
0
100
AcDbLine
 62
7
  6
CONTINUOUS
 10
57.3784964899
 20
19.8721243017
 11
57.3784964899
 21
10.1278756983
  0
LINE
  5
26A
100
AcDbEntity
  8
RACCORDO
100
AcDbLine
 62
7
  6
CONTINUOUS
 10
57.3784964899
 20
19.8721243017
 11
57.3784964899
 21
10.1278756983
  0
LINE
  5
26B
100
AcDbEntity
  8
0
100
AcDbLine
 62
7
  6
CONTINUOUS
 10
57.3784964899
 20
-10.1278756983
 11
57.3784964899
 21
-19.8721243017
  0
LINE
  5
26C
100
AcDbEntity
  8
RACCORDO
100
AcDbLine
 62
7
  6
CONTINUOUS
 10
57.3784964899
 20
-10.1278756983
 11
57.3784964899
 21
-19.8721243017
  0
LINE
  5
26D
100
AcDbEntity
  8
0
100
AcDbLine
 62
250
  6
CONTINUOUS
 10
62.919848168
 20
26.3132437251
 11
62.919848168
 21
-26.3132437251
  0
LINE
  5
26E
100
AcDbEntity
  8
0
100
AcDbLine
 62
250
  6
CONTINUOUS
 10
63.4196768305
 20
25.8134150626
 11
63.4196768305
 21
-25.8134150626
  0
LINE
  5
26F
100
AcDbEntity
  8
RACCORDO
100
AcDbLine
 62
7
  6
CONTINUOUS
 10
63.5064331055
 20
17.5512208021
 11
63.5064331055
 21
-17.5512208021
  0
LINE
  5
270
100
AcDbEntity
  8
0
100
AcDbLine
 62
7
  6
CONTINUOUS
 10
63.5064331055
 20
-25.9001713375
 11
63.5064331055
 21
25.9001713375
  0
LINE
  5
271
100
AcDbEntity
  8
0
100
AcDbLine
 62
250
  6
CONTINUOUS
 10
41.3064331055
 20
-25.9001713375
 11
41.3931893804
 21
-25.8134150626
  0
LINE
  5
272
100
AcDbEntity
  8
0
100
AcDbLine
 62
250
  6
CONTINUOUS
 10
41.806261768
 20
-26.4
 11
41.8930180429
 21
-26.3132437251
  0
LINE
  5
273
100
AcDbEntity
  8
0
100
AcDbLine
 62
7
  6
CONTINUOUS
 10
57.2785574072
 20
10.0279366156
 11
47.5343088038
 21
10.0279366156
  0
LINE
  5
274
100
AcDbEntity
  8
RACCORDO
100
AcDbLine
 62
7
  6
CONTINUOUS
 10
57.2785574072
 20
10.0279366156
 11
47.5343088038
 21
10.0279366156
  0
LINE
  5
275
100
AcDbEntity
  8
0
100
AcDbLine
 62
250
  6
CONTINUOUS
 10
41.3931893804
 20
25.8134150626
 11
41.3064331055
 21
25.9001713375
  0
LINE
  5
276
100
AcDbEntity
  8
0
100
AcDbLine
 62
250
  6
CONTINUOUS
 10
41.8930180429
 20
26.3132437251
 11
41.806261768
 21
26.4
  0
LWPOLYLINE
  5
277
100
AcDbEntity
  8
0
100
AcDbPolyline
 62
250
  6
CONTINUOUS
 90
16
 70
0
 10
63.4196768305
 20
25.8134150626
 10
63.4168884955
 20
25.8657975315
 10
63.4086260238
 20
25.9176029172
 10
63.3949804667
 20
25.9682606712
 10
63.3760996712
 20
26.0172184586
 10
63.35219295
 20
26.0639310247
 10
63.3235344841
 20
26.1078690436
 10
63.2904524266
 20
26.1485433419
 10
63.2533091586
 20
26.1855204357
 10
63.2125033124
 20
26.2184079346
 10
63.1684195235
 20
26.2468816807
 10
63.1215987468
 20
26.2705791398
 10
63.0727519334
 20
26.2891770144
 10
63.0225026949
 20
26.3025182528
 10
62.9713485169
 20
26.3105481619
 10
62.9198481679
 20
26.3132437249
  0
LWPOLYLINE
  5
278
100
AcDbEntity
  8
0
100
AcDbPolyline
 62
250
  6
CONTINUOUS
 90
16
 70
0
 10
63.4196768305
 20
-25.8134150626
 10
63.416888866
 20
-25.8657940376
 10
63.4086274567
 20
-25.9175962153
 10
63.3949835766
 20
-25.9682511464
 10
63.376104887
 20
-26.0172067959
 10
63.3522006542
 20
-26.0639177387
 10
63.3235453743
 20
-26.1078541194
 10
63.2904679951
 20
-26.1485261269
 10
63.2533303666
 20
-26.1855014262
 10
63.2125290347
 20
-26.2183893375
 10
63.1684475314
 20
-26.2468656055
 10
63.1216269522
 20
-26.270566676
 10
63.0727775603
 20
-26.2891687618
 10
63.022522661
 20
-26.3025140488
 10
62.9713598847
 20
-26.3105469765
 10
62.919848168
 20
-26.3132437251
  0
LWPOLYLINE
  5
279
100
AcDbEntity
  8
0
100
AcDbPolyline
 62
7
  6
CONTINUOUS
 90
3
 70
0
 43
0.3500000006
 10
95.3318336792
 20
0.9285710678
 10
95.5461181641
 20
0.8571421509
 10
95.8318338318
 20
0.7142865829
  0
LWPOLYLINE
  5
27A
100
AcDbEntity
  8
0
100
AcDbPolyline
 62
7
  6
CONTINUOUS
 90
10
 70
0
 43
0.3500000006
 10
53.3707178192
 20
35.863026123
 10
53.4421490021
 20
35.7201682892
 10
53.4421490021
 20
35.6487416382
 10
53.2992911682
 20
35.5058838043
 10
53.2278599854
 20
35.5058838043
 10
53.1564333344
 20
35.5773149872
 10
53.1564333344
 20
35.6487416382
 10
53.2278599854
 20
35.791599472
 10
53.2992911682
 20
35.863026123
 10
53.3707178192
 20
35.863026123
  0
LWPOLYLINE
  5
27B
100
AcDbEntity
  8
0
100
AcDbPolyline
 62
7
  6
CONTINUOUS
 90
10
 70
0
 43
0.3500000006
 10
95.1175491943
 20
0.8571421509
 10
95.2604024963
 20
0.9285710678
 10
95.3318336792
 20
0.9285710678
 10
95.4746869812
 20
0.7857132339
 10
95.4746869812
 20
0.7142865829
 10
95.4032648621
 20
0.642857666
 10
95.3318336792
 20
0.642857666
 10
95.1889713135
 20
0.7142865829
 10
95.1175491943
 20
0.7857132339
 10
95.1175491943
 20
0.8571421509
  0
LINE
  5
27C
100
AcDbEntity
  8
0
100
AcDbLine
 62
7
  6
CONTINUOUS
 10
47.5343088038
 20
19.9720633844
 11
57.2785574072
 21
19.9720633844
  0
LINE
  5
27D
100
AcDbEntity
  8
RACCORDO
100
AcDbLine
 62
7
  6
CONTINUOUS
 10
47.5343088038
 20
19.9720633844
 11
57.2785574072
 21
19.9720633844
  0
LINE
  5
27E
100
AcDbEntity
  8
DRAFT
100
AcDbLine
 62
7
  6
CONTINUOUS
 10
55.9243822979
 20
26.4
 11
55.6564331055
 21
26.3738140784
  0
LINE
  5
27F
100
AcDbEntity
  8
0
100
AcDbLine
 62
250
  6
CONTINUOUS
 10
41.3931893804
 20
25.8134150626
 11
63.4196768305
 21
25.8134150626
  0
LINE
  5
280
100
AcDbEntity
  8
0
100
AcDbLine
 62
250
  6
CONTINUOUS
 10
62.919848168
 20
26.3132437251
 11
41.8930180429
 21
26.3132437251
  0
LINE
  5
281
100
AcDbEntity
  8
DRAFT
100
AcDbLine
 62
7
  6
CONTINUOUS
 10
49.1564331055
 20
26.3738140784
 11
55.6564331055
 21
26.3738140784
  0
LINE
  5
282
100
AcDbEntity
  8
DRAFT
100
AcDbLine
 62
7
  6
CONTINUOUS
 10
63.006604443
 20
26.4
 11
55.9243822979
 21
26.4
  0
LINE
  5
283
100
AcDbEntity
  8
DRAFT
100
AcDbLine
 62
7
  6
CONTINUOUS
 10
48.888483913
 20
26.4
 11
41.806261768
 21
26.4
  0
LINE
  5
284
100
AcDbEntity
  8
DRAFT
100
AcDbLine
 62
7
  6
CONTINUOUS
 10
48.888483913
 20
26.4
 11
49.1564331055
 21
26.3738140784
  0
LWPOLYLINE
  5
285
100
AcDbEntity
  8
0
100
AcDbPolyline
 62
7
  6
CONTINUOUS
 90
13
 70
0
 43
0.3500000006
 10
93.9032644043
 20
2.3571426086
 10
93.6889708557
 20
2.0714292068
 10
93.0461174011
 20
2.0714292068
 10
92.6175484314
 20
2.3571426086
 10
92.6175484314
 20
3.0000005951
 10
93.0461174011
 20
3.2857139969
 10
93.6889708557
 20
3.2857139969
 10
93.9032644043
 20
3.0000005951
 10
94.331833374
 20
3.4285718307
 10
95.1889713135
 20
3.4285718307
 10
95.6175493469
 20
3.0000005951
 10
95.6175493469
 20
2.3571426086
 10
95.1889713135
 20
1.928571373
  0
LWPOLYLINE
  5
286
100
AcDbEntity
  8
0
100
AcDbPolyline
 62
7
  6
CONTINUOUS
 90
7
 70
0
 43
0.3500000006
 10
55.9421452332
 20
35.3630259705
 10
54.4421493073
 20
35.3630259705
 10
55.9421452332
 20
37.5058844147
 10
55.9421452332
 20
37.9344533844
 10
55.5135762634
 20
38.363026886
 10
54.870718277
 20
38.363026886
 10
54.4421493073
 20
37.7201688995
  0
LWPOLYLINE
  5
287
100
AcDbEntity
  8
0
100
AcDbPolyline
 62
7
  6
CONTINUOUS
 90
7
 70
0
 43
0.3500000006
 10
51.8707173615
 20
35.3630259705
 10
50.3707169037
 20
35.3630259705
 10
51.8707173615
 20
37.5058844147
 10
51.8707173615
 20
37.9344533844
 10
51.4421483917
 20
38.363026886
 10
50.7992904053
 20
38.363026886
 10
50.3707169037
 20
37.7201688995
  0
LWPOLYLINE
  5
288
100
AcDbEntity
  8
0
100
AcDbPolyline
 62
7
  6
CONTINUOUS
 90
7
 70
0
 43
0.3500000006
 10
49.5135744324
 20
35.3630259705
 10
48.0135739746
 20
35.3630259705
 10
49.5135744324
 20
37.5058844147
 10
49.5135744324
 20
37.9344533844
 10
49.0850054626
 20
38.363026886
 10
48.4421474762
 20
38.363026886
 10
48.0135739746
 20
37.7201688995
  0
LWPOLYLINE
  5
289
100
AcDbEntity
  8
0
100
AcDbPolyline
 62
7
  6
CONTINUOUS
 90
7
 70
0
 43
0.3500000006
 10
95.6175493469
 20
-0.642856041
 10
95.6175493469
 20
-2.1428576317
 10
93.4746863708
 20
-0.642856041
 10
93.0461174011
 20
-0.642856041
 10
92.6175484314
 20
-1.0714295425
 10
92.6175484314
 20
-1.7142852631
 10
93.260401886
 20
-2.1428576317
  0
LWPOLYLINE
  5
28A
100
AcDbEntity
  8
0
100
AcDbPolyline
 62
7
  6
CONTINUOUS
 90
8
 70
0
 43
0.3500000006
 10
95.6175493469
 20
-4.28571381
 10
95.6175493469
 20
-3.4285713387
 10
95.1889713135
 20
-3.000000103
 10
94.331833374
 20
-3.000000103
 10
93.9032644043
 20
-3.4285713387
 10
93.9032644043
 20
-4.28571381
 10
92.6175484314
 20
-4.28571381
 10
92.6175484314
 20
-3.000000103
  0
LWPOLYLINE
  5
28B
100
AcDbEntity
  8
0
100
AcDbPolyline
 62
7
  6
CONTINUOUS
 90
10
 70
0
 43
0.3500000006
 10
-0.2906360289
 20
48.3630254059
 10
-0.933493201
 20
47.7201719513
 10
-1.3620646491
 20
46.8630249481
 10
-1.3620646491
 20
45.7915979919
 10
-0.933493201
 20
45.3630290222
 10
-0.2906360289
 20
45.3630290222
 10
0.1379353926
 20
45.7915979919
 10
0.1379353926
 20
46.6487404633
 10
-0.2906360289
 20
47.0773139648
 10
-1.2192075233
 20
47.0773139648
  0
LWPOLYLINE
  5
28C
100
AcDbEntity
  8
0
100
AcDbPolyline
 62
7
  6
CONTINUOUS
 90
3
 70
0
 43
0.3500000006
 10
2.1307925076
 20
37.5058844147
 10
2.9879354038
 20
38.363026886
 10
2.9879354038
 20
35.3630259705
  0
LWPOLYLINE
  5
28D
100
AcDbEntity
  8
0
100
AcDbPolyline
 62
7
  6
CONTINUOUS
 90
3
 70
0
 43
0.3500000006
 10
5.5593639507
 20
37.5058844147
 10
6.4165069885
 20
38.363026886
 10
6.4165069885
 20
35.3630259705
  0
LINE
  5
28E
100
AcDbEntity
  8
0
100
AcDbLine
 62
7
  6
CONTINUOUS
 10
-12.7263503227
 20
25.8134150626
 11
-12.7263503227
 21
-25.8134150626
  0
LINE
  5
28F
100
AcDbEntity
  8
ASSI
100
AcDbLine
 62
7
  6
CONTINUOUS
 10
-4.8067350804
 20
24.65
 11
-5.2686152958
 21
23.85
  0
LINE
  5
290
100
AcDbEntity
  8
ASSI
100
AcDbLine
 62
250
  6
CONTINUOUS
 10
-4.6300395184
 20
24.5674284937
 11
-5.0919197337
 21
23.7674284937
  0
LWPOLYLINE
  5
291
100
AcDbEntity
  8
ASSI
100
AcDbPolyline
 62
250
  6
CONTINUOUS
 90
16
 70
0
 10
-5.0919197337
 20
23.7674284937
 10
-5.1086152721
 20
23.7414700549
 10
-5.1263510516
 20
23.7174406315
 10
-5.1451270723
 20
23.6953402234
 10
-5.1651058486
 20
23.6752081173
 10
-5.1861248662
 20
23.6570050265
 10
-5.2076965815
 20
23.6406130916
 10
-5.2295701924
 20
23.6260963203
 10
-5.2519965011
 20
23.6133907048
 10
-5.2752403707
 20
23.6021863629
 10
-5.2991705407
 20
23.592322178
 10
-5.3239182715
 20
23.5839592665
 10
-5.3501422079
 20
23.5772710957
 10
-5.3780618981
 20
23.5723154878
 10
-5.4074577939
 20
23.5690346204
 10
-5.4263503227
 20
23.5680517332
  0
LINE
  5
292
100
AcDbEntity
  8
DRAFT
100
AcDbLine
 62
7
  6
CONTINUOUS
 10
-8.1414604655
 20
19.2146914084
 11
-7.4263503227
 21
19.8976915844
  0
LINE
  5
293
100
AcDbEntity
  8
DRAFT
100
AcDbLine
 62
7
  6
CONTINUOUS
 10
-7.4263503227
 20
-19.8976915844
 11
-8.1414604655
 21
-19.2146914084
  0
LINE
  5
294
100
AcDbEntity
  8
ASSI
100
AcDbLine
 62
7
  6
CONTINUOUS
 10
-5.2686152958
 20
-23.85
 11
-4.8067350804
 21
-24.65
  0
LINE
  5
295
100
AcDbEntity
  8
ASSI
100
AcDbLine
 62
250
  6
CONTINUOUS
 10
-5.0919193755
 20
-23.7674291142
 11
-4.6300395184
 21
-24.5674284937
  0
LINE
  5
296
100
AcDbEntity
  8
0
100
AcDbLine
 62
250
  6
CONTINUOUS
 10
-12.2394387969
 20
25.8134150626
 11
-12.2418776763
 21
25.9176029172
  0
LINE
  5
297
100
AcDbEntity
  8
0
100
AcDbLine
 62
250
  6
CONTINUOUS
 10
-12.2418776763
 20
25.9176029172
 11
-12.2436344685
 21
26.0172184586
  0
LWPOLYLINE
  5
298
100
AcDbEntity
  8
0
100
AcDbPolyline
 62
250
  6
CONTINUOUS
 90
11
 70
0
 10
-12.2436344685
 20
26.0172184586
 10
-12.2446317698
 20
26.1078690436
 10
-12.2448305796
 20
26.1485433419
 10
-12.2448262282
 20
26.1855204357
 10
-12.2446188789
 20
26.2184079346
 10
-12.2442101153
 20
26.2468816807
 10
-12.2436046097
 20
26.2705791398
 10
-12.2428125139
 20
26.2891770144
 10
-12.2418460453
 20
26.3025182528
 10
-12.2407167988
 20
26.3105481619
 10
-12.2394388035
 20
26.3132437249
  0
LWPOLYLINE
  5
299
100
AcDbEntity
  8
0
100
AcDbPolyline
 62
250
  6
CONTINUOUS
 90
9
 70
0
 10
-12.2448305365
 20
-26.1485261269
 10
-12.2448262857
 20
-26.1855014262
 10
-12.2446190655
 20
-26.2183893375
 10
-12.2442104281
 20
-26.2468656055
 10
-12.2436050224
 20
-26.270566676
 10
-12.2428129688
 20
-26.2891687618
 10
-12.2418464566
 20
-26.3025140488
 10
-12.2407170618
 20
-26.3105469765
 10
-12.2394387969
 20
-26.3132437251
  0
LINE
  5
29A
100
AcDbEntity
  8
0
100
AcDbLine
 62
250
  6
CONTINUOUS
 10
-12.2394387969
 20
25.8134150626
 11
-12.2394387969
 21
-25.8134150626
  0
LINE
  5
29B
100
AcDbEntity
  8
0
100
AcDbLine
 62
250
  6
CONTINUOUS
 10
-12.2442315144
 20
-26.0639177387
 11
-12.2448305365
 21
-26.1485261269
  0
LINE
  5
29C
100
AcDbEntity
  8
0
100
AcDbLine
 62
250
  6
CONTINUOUS
 10
-12.2428467068
 20
-25.9682511464
 11
-12.2442315144
 21
-26.0639177387
  0
LWPOLYLINE
  5
29D
100
AcDbEntity
  8
0
100
AcDbPolyline
 62
250
  6
CONTINUOUS
 90
3
 70
0
 10
-12.2394387969
 20
-25.8134150626
 10
-12.2407373832
 20
-25.8657940376
 10
-12.2428467068
 20
-25.9682511464
  0
LWPOLYLINE
  5
29E
100
AcDbEntity
  8
0
100
AcDbPolyline
 62
7
  6
CONTINUOUS
 90
3
 70
0
 43
0.3500000006
 10
1.7093639088
 20
45.6487401581
 10
1.6379354167
 20
45.4344556732
 10
1.4950782909
 20
45.1487400055
  0
LINE
  5
29F
100
AcDbEntity
  8
ASSI
100
AcDbLine
 62
250
  6
CONTINUOUS
 10
-4.3069216942
 20
24.5393208298
 11
-4.2863272427
 21
24.5829720682
  0
LWPOLYLINE
  5
2A0
100
AcDbEntity
  8
ASSI
100
AcDbPolyline
 62
250
  6
CONTINUOUS
 90
10
 70
0
 10
-4.2863272427
 20
24.5829720682
 10
-4.2671991089
 20
24.622904619
 10
-4.258554373
 20
24.6407034996
 10
-4.2507020328
 20
24.6566869158
 10
-4.2437620868
 20
24.6706106083
 10
-4.2378405963
 20
24.6822617829
 10
-4.2330280637
 20
24.6914623633
 10
-4.2293980407
 20
24.6980717315
 10
-4.2270060068
 20
24.7019888692
 10
-4.2258885257
 20
24.7031538947
  0
LWPOLYLINE
  5
2A1
100
AcDbEntity
  8
ASSI
100
AcDbPolyline
 62
250
  6
CONTINUOUS
 90
10
 70
0
 10
-1.4685022863
 20
23.2765832241
 10
-1.4805997941
 20
23.2640066713
 10
-1.4923479058
 20
23.2521431443
 10
-1.5036417316
 20
23.241098561
 10
-1.5143804359
 20
23.2309715269
 10
-1.5244681427
 20
23.2218524582
 10
-1.5338147903
 20
23.2138227733
 10
-1.5423369299
 20
23.2069541623
 10
-1.5499584716
 20
23.2013079477
 10
-1.556611368
 20
23.1969345393
  0
LWPOLYLINE
  5
2A2
100
AcDbEntity
  8
ASSI
100
AcDbPolyline
 62
250
  6
CONTINUOUS
 90
10
 70
0
 10
-1.4684628696
 20
-23.2765593607
 10
-1.4805629651
 20
-23.263983957
 10
-1.4923136223
 20
-23.2521215373
 10
-1.5036099269
 20
-23.2410780181
 10
-1.5143510246
 20
-23.2309520068
 10
-1.524441012
 20
-23.2218339121
 10
-1.5337897954
 20
-23.2138051393
 10
-1.5423139055
 20
-23.2069373734
 10
-1.5499372406
 20
-23.2012919377
 10
-1.5565917384
 20
-23.1969192383
  0
LWPOLYLINE
  5
2A3
100
AcDbEntity
  8
ASSI
100
AcDbPolyline
 62
250
  6
CONTINUOUS
 90
8
 70
0
 10
-4.2585538153
 20
-24.640704573
 10
-4.2507015237
 20
-24.6566878747
 10
-4.2437616618
 20
-24.6706113857
 10
-4.2378402765
 20
-24.682262343
 10
-4.2330278516
 20
-24.6914627098
 10
-4.229397925
 20
-24.6980718967
 10
-4.2270059651
 20
-24.7019889097
 10
-4.2258885232
 20
-24.7031538935
  0
LINE
  5
2A4
100
AcDbEntity
  8
ASSI
100
AcDbLine
 62
250
  6
CONTINUOUS
 10
-4.2765036194
 20
-24.6035632946
 11
-4.2585538153
 21
-24.640704573
  0
LWPOLYLINE
  5
2A5
100
AcDbEntity
  8
ASSI
100
AcDbPolyline
 62
250
  6
CONTINUOUS
 90
3
 70
0
 10
-4.3069216942
 20
-24.5393208298
 10
-4.2965181124
 20
-24.5614490794
 10
-4.2765036194
 20
-24.6035632946
  0
LWPOLYLINE
  5
2A6
100
AcDbEntity
  8
RACCORDO
100
AcDbPolyline
 62
7
  6
CONTINUOUS
 90
12
 70
0
 10
-8.9247527994
 20
-17.9046784854
 10
-8.9199851679
 20
-17.9240409444
 10
-8.9121227449
 20
-17.9427023343
 10
-8.9012909073
 20
-17.9604097407
 10
-8.8876616935
 20
-17.9768859518
 10
-8.8714498441
 20
-17.9918330431
 10
-8.8529090202
 20
-18.0050234667
 10
-8.8323375093
 20
-18.0162675858
 10
-8.8100741499
 20
-18.0253629586
 10
-8.7864801077
 20
-18.0321638016
 10
-8.7619302282
 20
-18.0365802403
 10
-8.736817514
 20
-18.0385452862
  0
LWPOLYLINE
  5
2A7
100
AcDbEntity
  8
ASSI
100
AcDbPolyline
 62
250
  6
CONTINUOUS
 90
16
 70
0
 10
-6.3228598414
 20
-22.7551793284
 10
-6.3209418784
 20
-22.7908969025
 10
-6.3164306603
 20
-22.8252862733
 10
-6.3093261871
 20
-22.8583474406
 10
-6.2993780398
 20
-22.8902565872
 10
-6.2868366374
 20
-22.9208375305
 10
-6.272453237
 20
-22.949561722
 10
-6.2564194941
 20
-22.9761719926
 10
-6.2385437531
 20
-23.0009255115
 10
-6.2190023042
 20
-23.0240652384
 10
-6.1981301489
 20
-23.045614512
 10
-6.1755922857
 20
-23.0655499936
 10
-6.1505600005
 20
-23.0840446265
 10
-6.1227570553
 20
-23.1011560585
 10
-6.092459688
 20
-23.1168266419
 10
-6.0596678988
 20
-23.1310563767
  0
LWPOLYLINE
  5
2A8
100
AcDbEntity
  8
ASSI
100
AcDbPolyline
 62
250
  6
CONTINUOUS
 90
7
 70
0
 10
-8.2774541832
 20
24.4977478859
 10
-8.2777926721
 20
24.5132943749
 10
-8.278162268
 20
24.5263302855
 10
-8.2785558416
 20
24.5366233238
 10
-8.2789666454
 20
24.5440388257
 10
-8.2793887518
 20
24.5485095003
 10
-8.2798157203
 20
24.55
  0
LINE
  5
2A9
100
AcDbEntity
  8
ASSI
100
AcDbLine
 62
250
  6
CONTINUOUS
 10
-8.2768914082
 20
24.4601685163
 11
-8.2774541832
 21
24.4977478859
  0
LINE
  5
2AA
100
AcDbEntity
  8
RACCORDO
100
AcDbLine
 62
250
  6
CONTINUOUS
 10
-7.6219525216
 20
-22.5652432066
 11
-7.6228598414
 21
-22.5034605474
  0
LWPOLYLINE
  5
2AB
100
AcDbEntity
  8
RACCORDO
100
AcDbPolyline
 62
250
  6
CONTINUOUS
 90
7
 70
0
 10
-7.6214755272
 20
22.665217489
 10
-7.6215828945
 20
22.6766186977
 10
-7.6217424753
 20
22.6861234916
 10
-7.6219525216
 20
22.6936277432
 10
-7.6222107327
 20
22.6990492629
 10
-7.6225142808
 20
22.7023286824
 10
-7.6228598414
 20
22.7034300864
  0
LINE
  5
2AC
100
AcDbEntity
  8
RACCORDO
100
AcDbLine
 62
250
  6
CONTINUOUS
 10
-7.6215828945
 20
-22.6034281751
 11
-7.6219525216
 21
-22.5652432066
  0
LINE
  5
2AD
100
AcDbEntity
  8
ASSI
100
AcDbLine
 62
250
  6
CONTINUOUS
 10
-8.2765071541
 20
24.4158305838
 11
-8.2768914082
 21
24.4601685163
  0
LINE
  5
2AE
100
AcDbEntity
  8
RACCORDO
100
AcDbLine
 62
250
  6
CONTINUOUS
 10
-7.6214215489
 20
-22.6372455893
 11
-7.6215828945
 21
-22.6034281751
  0
LINE
  5
2AF
100
AcDbEntity
  8
ASSI
100
AcDbLine
 62
250
  6
CONTINUOUS
 10
-8.276325239
 20
24.3674284937
 11
-8.2765071541
 21
24.4158305838
  0
LINE
  5
2B0
100
AcDbEntity
  8
RACCORDO
100
AcDbLine
 62
7
  6
CONTINUOUS
 10
-8.9263503227
 20
17.5512208021
 11
-8.9263503227
 21
-17.5512208021
  0
LINE
  5
2B1
100
AcDbEntity
  8
0
100
AcDbLine
 62
7
  6
CONTINUOUS
 10
-8.9263503227
 20
-26.4
 11
-8.9263503227
 21
26.4
  0
LINE
  5
2B2
100
AcDbEntity
  8
RACCORDO
100
AcDbLine
 62
250
  6
CONTINUOUS
 10
-8.729840804
 20
-18.2161957674
 11
-8.729840804
 21
-18.0385452862
  0
LINE
  5
2B3
100
AcDbEntity
  8
RACCORDO
100
AcDbLine
 62
250
  6
CONTINUOUS
 10
-8.729840804
 20
18.0385452862
 11
-8.729840804
 21
18.2161957548
  0
LINE
  5
2B4
100
AcDbEntity
  8
RACCORDO
100
AcDbLine
 62
250
  6
CONTINUOUS
 10
-7.6228598414
 20
-22.5034605474
 11
-7.6228598414
 21
-22.1684367303
  0
LINE
  5
2B5
100
AcDbEntity
  8
RACCORDO
100
AcDbLine
 62
250
  6
CONTINUOUS
 10
-7.6228598414
 20
-18.1852659069
 11
-7.6228598414
 21
-18.0703365063
  0
LINE
  5
2B6
100
AcDbEntity
  8
RACCORDO
100
AcDbLine
 62
250
  6
CONTINUOUS
 10
-7.6228598414
 20
18.0703365063
 11
-7.6228598414
 21
18.1852658912
  0
LINE
  5
2B7
100
AcDbEntity
  8
RACCORDO
100
AcDbLine
 62
250
  6
CONTINUOUS
 10
-7.6228598414
 20
22.1684367303
 11
-7.6228598414
 21
22.5034605474
  0
LINE
  5
2B8
100
AcDbEntity
  8
RACCORDO
100
AcDbLine
 62
250
  6
CONTINUOUS
 10
-7.6214215503
 20
22.6372447897
 11
-7.6214755272
 21
22.665217489
  0
LINE
  5
2B9
100
AcDbEntity
  8
RACCORDO
100
AcDbLine
 62
7
  6
CONTINUOUS
 10
-7.4263503227
 20
22.9
 11
-7.4263503227
 21
22.0
  0
LINE
  5
2BA
100
AcDbEntity
  8
DRAFT
100
AcDbLine
 62
7
  6
CONTINUOUS
 10
-7.4263503227
 20
22.0
 11
-7.4263503227
 21
19.8976915844
  0
LINE
  5
2BB
100
AcDbEntity
  8
DRAFT
100
AcDbLine
 62
7
  6
CONTINUOUS
 10
-7.4263503227
 20
-19.8976915844
 11
-7.4263503227
 21
-22.0
  0
LINE
  5
2BC
100
AcDbEntity
  8
RACCORDO
100
AcDbLine
 62
7
  6
CONTINUOUS
 10
-7.4263503227
 20
-19.1030756686
 11
-7.4263503227
 21
-18.222700263
  0
LINE
  5
2BD
100
AcDbEntity
  8
RACCORDO
100
AcDbLine
 62
7
  6
CONTINUOUS
 10
-7.4263503227
 20
-22.0
 11
-7.4263503227
 21
-22.9
  0
LINE
  5
2BE
100
AcDbEntity
  8
RACCORDO
100
AcDbLine
 62
7
  6
CONTINUOUS
 10
-7.4263503227
 20
18.222700263
 11
-7.4263503227
 21
19.1030756686
  0
LINE
  5
2BF
100
AcDbEntity
  8
ASSI
100
AcDbLine
 62
250
  6
CONTINUOUS
 10
-8.276325239
 20
-24.3674284937
 11
-8.2765071707
 21
-24.4158332989
  0
LINE
  5
2C0
100
AcDbEntity
  8
RACCORDO
100
AcDbLine
 62
250
  6
CONTINUOUS
 10
-7.6215829001
 20
22.603427413
 11
-7.6214215503
 21
22.6372447897
  0
LINE
  5
2C1
100
AcDbEntity
  8
ASSI
100
AcDbLine
 62
250
  6
CONTINUOUS
 10
-8.2765071707
 20
-24.4158332989
 11
-8.2768914718
 21
-24.4601740184
  0
LINE
  5
2C2
100
AcDbEntity
  8
RACCORDO
100
AcDbLine
 62
250
  6
CONTINUOUS
 10
-7.6222107371
 20
22.5450284651
 11
-7.6215829001
 21
22.603427413
  0
LINE
  5
2C3
100
AcDbEntity
  8
RACCORDO
100
AcDbLine
 62
250
  6
CONTINUOUS
 10
-7.6228598414
 20
22.5034605474
 11
-7.6222107371
 21
22.5450284651
  0
LWPOLYLINE
  5
2C4
100
AcDbEntity
  8
ASSI
100
AcDbPolyline
 62
250
  6
CONTINUOUS
 90
8
 70
0
 10
-8.2768914718
 20
-24.4601740184
 10
-8.2774543157
 20
-24.4977547866
 10
-8.2777928239
 20
-24.5133005039
 10
-8.2781624257
 20
-24.5263351052
 10
-8.2785559881
 20
-24.5366265451
 10
-8.2789667614
 20
-24.5440404797
 10
-8.2793888185
 20
-24.5485099681
 10
-8.2798157203
 20
-24.55
  0
LWPOLYLINE
  5
2C5
100
AcDbEntity
  8
ASSI
100
AcDbPolyline
 62
250
  6
CONTINUOUS
 90
13
 70
0
 10
-6.3228598414
 20
22.7551790839
 10
-6.3207335861
 20
22.795972362
 10
-6.3146870545
 20
22.8356694217
 10
-6.3047202466
 20
22.8742702629
 10
-6.290701794
 20
22.9121512693
 10
-6.2727630652
 20
22.9489360572
 10
-6.2512981656
 20
22.9834954757
 10
-6.2260525259
 20
23.0158533073
 10
-6.1972807154
 20
23.0459857696
 10
-6.1661405477
 20
23.0726923642
 10
-6.1330179606
 20
23.095572925
 10
-6.0975270162
 20
23.1150276182
 10
-6.0596677146
 20
23.1310564437
  0
LWPOLYLINE
  5
2C6
100
AcDbEntity
  8
RACCORDO
100
AcDbPolyline
 62
7
  6
CONTINUOUS
 90
13
 70
0
 10
-7.4263503227
 20
18.222700263
 10
-7.4279464637
 20
18.2031985359
 10
-7.4327106366
 20
18.184079216
 10
-7.4405685845
 20
18.1656227813
 10
-7.4513962614
 20
18.1480787267
 10
-7.4650224663
 20
18.1317279875
 10
-7.4812321392
 20
18.1168790646
 10
-7.4997712085
 20
18.1037586433
 10
-7.5203421328
 20
18.092557518
 10
-7.542607043
 20
18.0834917452
 10
-7.5662052524
 20
18.0767120827
 10
-7.590761672
 20
18.0723044977
 10
-7.6158831315
 20
18.0703365063
  0
LINE
  5
2C7
100
AcDbEntity
  8
ASSI
100
AcDbLine
 62
250
  6
CONTINUOUS
 10
-1.4685025887
 20
23.276583268
 11
-1.4560556592
 21
23.3025417148
  0
LINE
  5
2C8
100
AcDbEntity
  8
ASSI
100
AcDbLine
 62
250
  6
CONTINUOUS
 10
-1.4560556592
 20
23.3025417148
 11
-1.4446185233
 21
23.3261159771
  0
LWPOLYLINE
  5
2C9
100
AcDbEntity
  8
ASSI
100
AcDbPolyline
 62
250
  6
CONTINUOUS
 90
11
 70
0
 10
-1.4446185233
 20
23.3261159771
 10
-1.4344829952
 20
23.3467035786
 10
-1.4299855414
 20
23.3557096984
 10
-1.4259074538
 20
23.3637785903
 10
-1.422274754
 20
23.3708585706
 10
-1.419110625
 20
23.3769043543
 10
-1.416435286
 20
23.3818772082
 10
-1.4142658037
 20
23.3857452304
 10
-1.4126159786
 20
23.3884837092
 10
-1.4114962869
 20
23.3900752152
 10
-1.4109138129
 20
23.3905096286
  0
LINE
  5
2CA
100
AcDbEntity
  8
ASSI
100
AcDbLine
 62
250
  6
CONTINUOUS
 10
-6.0596677146
 20
23.1310564437
 11
-5.6228598414
 21
23.2900415076
  0
LINE
  5
2CB
100
AcDbEntity
  8
ASSI
100
AcDbLine
 62
7
  6
CONTINUOUS
 10
-5.9947543514
 20
22.9431178525
 11
-5.557946294
 21
23.1021029835
  0
LWPOLYLINE
  5
2CC
100
AcDbEntity
  8
ASSI
100
AcDbPolyline
 62
250
  6
CONTINUOUS
 90
10
 70
0
 10
-1.3381505903
 20
23.1639225278
 10
-1.3599795424
 20
23.1564151636
 10
-1.3814676691
 20
23.149243551
 10
-1.4023256381
 20
23.1425042538
 10
-1.4222726029
 20
23.1362880142
 10
-1.4410399713
 20
23.1306785373
 10
-1.4583750258
 20
23.1257513621
 10
-1.4740443419
 20
23.121572837
 10
-1.4878369292
 20
23.1181992275
 10
-1.4995670618
 20
23.115675964
  0
LWPOLYLINE
  5
2CD
100
AcDbEntity
  8
ASSI
100
AcDbPolyline
 62
250
  6
CONTINUOUS
 90
16
 70
0
 10
-8.276325239
 20
-24.3674284937
 10
-8.2566242916
 20
-24.3725548124
 10
-8.2371655624
 20
-24.3774455498
 10
-8.2181522995
 20
-24.3820496212
 10
-8.1997821933
 20
-24.386319142
 10
-8.1822481124
 20
-24.3902092718
 10
-8.1657356317
 20
-24.393678882
 10
-8.150418198
 20
-24.3966916522
 10
-8.1364533706
 20
-24.399216726
 10
-8.1239843982
 20
-24.4012282541
 10
-8.1131339697
 20
-24.4027061346
 10
-8.1040253836
 20
-24.4036332182
 10
-8.0967670211
 20
-24.4039996285
 10
-8.0914258518
 20
-24.4038053668
 10
-8.0880394781
 20
-24.4030563728
 10
-8.086630555
 20
-24.401763809
  0
LWPOLYLINE
  5
2CE
100
AcDbEntity
  8
ASSI
100
AcDbPolyline
 62
250
  6
CONTINUOUS
 90
10
 70
0
 10
-1.3381526729
 20
-23.1639259343
 10
-1.3599818323
 20
-23.156418335
 10
-1.3814700355
 20
-23.1492464933
 10
-1.402327953
 20
-23.1425069782
 10
-1.4222747433
 20
-23.1362905418
 10
-1.4410418383
 20
-23.1306808803
 10
-1.4583765584
 20
-23.1257535121
 10
-1.4740455089
 20
-23.1215747799
 10
-1.487837723
 20
-23.1182009531
 10
-1.4995675052
 20
-23.1156774571
  0
LINE
  5
2CF
100
AcDbEntity
  8
ASSI
100
AcDbLine
 62
250
  6
CONTINUOUS
 10
-6.0596678988
 20
-23.1310563767
 11
-5.6228598414
 21
-23.2900415076
  0
LINE
  5
2D0
100
AcDbEntity
  8
ASSI
100
AcDbLine
 62
7
  6
CONTINUOUS
 10
-5.9947543514
 20
-22.9431178525
 11
-5.557946294
 21
-23.1021029835
  0
LWPOLYLINE
  5
2D1
100
AcDbEntity
  8
ASSI
100
AcDbPolyline
 62
250
  6
CONTINUOUS
 90
8
 70
0
 10
-1.4333258662
 20
-23.3490385466
 10
-1.4279058143
 20
-23.3598675803
 10
-1.4231614942
 20
-23.3691911462
 10
-1.4191403597
 20
-23.3769159873
 10
-1.4158826114
 20
-23.3829648752
 10
-1.4134208184
 20
-23.3872773369
 10
-1.4117795922
 20
-23.3898102592
 10
-1.4109753406
 20
-23.3905383194
  0
LINE
  5
2D2
100
AcDbEntity
  8
ASSI
100
AcDbLine
 62
250
  6
CONTINUOUS
 10
-1.4459703425
 20
-23.3233108189
 11
-1.4333258662
 21
-23.3490385466
  0
LWPOLYLINE
  5
2D3
100
AcDbEntity
  8
ASSI
100
AcDbPolyline
 62
250
  6
CONTINUOUS
 90
3
 70
0
 10
-1.4684624904
 20
-23.2765601439
 10
-1.4605909325
 20
-23.2930334081
 10
-1.4459703425
 20
-23.3233108189
  0
LWPOLYLINE
  5
2D4
100
AcDbEntity
  8
RACCORDO
100
AcDbPolyline
 62
250
  6
CONTINUOUS
 90
4
 70
0
 10
-5.932822595
 20
21.8764311087
 10
-5.9330373533
 20
21.8860994018
 10
-5.9332111445
 20
21.8915474984
 10
-5.9333302368
 20
21.8932595901
  0
LWPOLYLINE
  5
2D5
100
AcDbEntity
  8
ASSI
100
AcDbPolyline
 62
250
  6
CONTINUOUS
 90
7
 70
0
 10
-4.6311654435
 20
24.6975904721
 10
-4.6315030846
 20
24.7131380619
 10
-4.6318718459
 20
24.7261863826
 10
-4.6322652474
 20
24.7365158857
 10
-4.6326768606
 20
24.7439807348
 10
-4.6331006013
 20
24.7484924231
 10
-4.6335299997
 20
24.75
  0
LWPOLYLINE
  5
2D6
100
AcDbEntity
  8
ASSI
100
AcDbPolyline
 62
250
  6
CONTINUOUS
 90
7
 70
0
 10
-4.4348304969
 20
24.6974545671
 10
-4.4351671161
 20
24.7129912075
 10
-4.4355347307
 20
24.7260398566
 10
-4.435927729
 20
24.7364013324
 10
-4.4363401122
 20
24.7439174713
 10
-4.4367655855
 20
24.7484735426
 10
-4.437197654
 20
24.75
  0
LINE
  5
2D7
100
AcDbEntity
  8
ASSI
100
AcDbLine
 62
250
  6
CONTINUOUS
 10
-4.630603983
 20
24.6600209544
 11
-4.6311654435
 21
24.6975904721
  0
LINE
  5
2D8
100
AcDbEntity
  8
ASSI
100
AcDbLine
 62
250
  6
CONTINUOUS
 10
-4.4342702461
 20
24.6599003112
 11
-4.4348304969
 21
24.6974545671
  0
LINE
  5
2D9
100
AcDbEntity
  8
ASSI
100
AcDbLine
 62
250
  6
CONTINUOUS
 10
-5.6219504042
 20
-23.8043303799
 11
-5.6228598414
 21
-23.7423678201
  0
LINE
  5
2DA
100
AcDbEntity
  8
RACCORDO
100
AcDbLine
 62
250
  6
CONTINUOUS
 10
-5.9323377638
 20
21.8422481881
 11
-5.932822595
 21
21.8764311087
  0
LWPOLYLINE
  5
2DB
100
AcDbEntity
  8
ASSI
100
AcDbPolyline
 62
250
  6
CONTINUOUS
 90
7
 70
0
 10
-5.6214774718
 20
23.9044181149
 10
-5.6215865444
 20
23.9158096059
 10
-5.6217481365
 20
23.9252892682
 10
-5.6219595285
 20
23.9327269197
 10
-5.6222174485
 20
23.9380597461
 10
-5.6225188022
 20
23.9412662317
 10
-5.6228598414
 20
23.9423373592
  0
LINE
  5
2DC
100
AcDbEntity
  8
ASSI
100
AcDbLine
 62
250
  6
CONTINUOUS
 10
-5.6215808531
 20
-23.8426129815
 11
-5.6219504042
 21
-23.8043303799
  0
LINE
  5
2DD
100
AcDbEntity
  8
RACCORDO
100
AcDbLine
 62
250
  6
CONTINUOUS
 10
-5.9298407524
 20
21.5526753883
 11
-5.9323377638
 21
21.8422481881
  0
LINE
  5
2DE
100
AcDbEntity
  8
ASSI
100
AcDbLine
 62
250
  6
CONTINUOUS
 10
-4.6302208586
 20
24.6157363605
 11
-4.630603983
 21
24.6600209544
  0
LINE
  5
2DF
100
AcDbEntity
  8
ASSI
100
AcDbLine
 62
250
  6
CONTINUOUS
 10
-4.4338880558
 20
24.6156613373
 11
-4.4342702461
 21
24.6599003112
  0
LINE
  5
2E0
100
AcDbEntity
  8
RACCORDO
100
AcDbLine
 62
250
  6
CONTINUOUS
 10
-6.3228598165
 20
21.129868077
 11
-6.3230850236
 21
21.1571878836
  0
LINE
  5
2E1
100
AcDbEntity
  8
RACCORDO
100
AcDbLine
 62
250
  6
CONTINUOUS
 10
-6.3228598368
 20
-21.2782258053
 11
-6.3231505005
 21
-21.2232303437
  0
LINE
  5
2E2
100
AcDbEntity
  8
ASSI
100
AcDbLine
 62
250
  6
CONTINUOUS
 10
-5.6214210129
 20
-23.8764674428
 11
-5.6215808531
 21
-23.8426129815
  0
LINE
  5
2E3
100
AcDbEntity
  8
ASSI
100
AcDbLine
 62
250
  6
CONTINUOUS
 10
-4.6300395184
 20
24.5674284937
 11
-4.6302208586
 21
24.6157363605
  0
LINE
  5
2E4
100
AcDbEntity
  8
ASSI
100
AcDbLine
 62
250
  6
CONTINUOUS
 10
-4.4337071727
 20
24.5674284937
 11
-4.4338880558
 21
24.6156613373
  0
LINE
  5
2E5
100
AcDbEntity
  8
RACCORDO
100
AcDbLine
 62
250
  6
CONTINUOUS
 10
-6.3230850236
 20
21.1571878836
 11
-6.3231829585
 21
21.2056375157
  0
LINE
  5
2E6
100
AcDbEntity
  8
RACCORDO
100
AcDbLine
 62
250
  6
CONTINUOUS
 10
-6.3228598414
 20
-21.2782255363
 11
-6.3228598414
 21
-22.7551793284
  0
LINE
  5
2E7
100
AcDbEntity
  8
RACCORDO
100
AcDbLine
 62
250
  6
CONTINUOUS
 10
-6.3228598414
 20
21.2782255363
 11
-6.3228598414
 21
22.7551790839
  0
LINE
  5
2E8
100
AcDbEntity
  8
RACCORDO
100
AcDbLine
 62
7
  6
CONTINUOUS
 10
-6.1263503227
 20
-21.6238685677
 11
-6.1263503227
 21
-22.7551793284
  0
LINE
  5
2E9
100
AcDbEntity
  8
RACCORDO
100
AcDbLine
 62
7
  6
CONTINUOUS
 10
-6.1263503227
 20
21.6238685677
 11
-6.1263503227
 21
22.7551793284
  0
LINE
  5
2EA
100
AcDbEntity
  8
RACCORDO
100
AcDbLine
 62
250
  6
CONTINUOUS
 10
-5.929840804
 20
-21.4730651231
 11
-5.929840804
 21
-21.5526753901
  0
LINE
  5
2EB
100
AcDbEntity
  8
RACCORDO
100
AcDbLine
 62
250
  6
CONTINUOUS
 10
-5.929840804
 20
21.4730651231
 11
-5.929840804
 21
21.5526753901
  0
LINE
  5
2EC
100
AcDbEntity
  8
ASSI
100
AcDbLine
 62
250
  6
CONTINUOUS
 10
-5.6228598414
 20
-23.2900415076
 11
-5.6228598414
 21
-23.7423678201
  0
LINE
  5
2ED
100
AcDbEntity
  8
ASSI
100
AcDbLine
 62
250
  6
CONTINUOUS
 10
-5.6228598414
 20
23.2900415076
 11
-5.6228598414
 21
23.7423678201
  0
LINE
  5
2EE
100
AcDbEntity
  8
ASSI
100
AcDbLine
 62
250
  6
CONTINUOUS
 10
-5.6214210129
 20
23.8764674428
 11
-5.6214774718
 21
23.9044181149
  0
LINE
  5
2EF
100
AcDbEntity
  8
ASSI
100
AcDbLine
 62
7
  6
CONTINUOUS
 10
-5.4263503227
 20
-23.2900415076
 11
-5.4263503227
 21
-23.7423678201
  0
LINE
  5
2F0
100
AcDbEntity
  8
ASSI
100
AcDbLine
 62
7
  6
CONTINUOUS
 10
-5.4263503227
 20
23.2900415076
 11
-5.4263503227
 21
23.7423678201
  0
LINE
  5
2F1
100
AcDbEntity
  8
RACCORDO
100
AcDbLine
 62
250
  6
CONTINUOUS
 10
-6.3231505005
 20
-21.2232303437
 11
-6.3231505122
 21
-21.1724732185
  0
LINE
  5
2F2
100
AcDbEntity
  8
ASSI
100
AcDbLine
 62
250
  6
CONTINUOUS
 10
-4.6300395184
 20
-24.5674284937
 11
-4.6302208522
 21
-24.6157353055
  0
LINE
  5
2F3
100
AcDbEntity
  8
ASSI
100
AcDbLine
 62
250
  6
CONTINUOUS
 10
-4.4337071727
 20
-24.5674284937
 11
-4.4338880341
 21
-24.615660443
  0
LWPOLYLINE
  5
2F4
100
AcDbEntity
  8
RACCORDO
100
AcDbPolyline
 62
250
  6
CONTINUOUS
 90
3
 70
0
 10
-6.3231829585
 20
21.2056375157
 10
-6.3229880234
 20
21.2596817202
 10
-6.3228598358
 20
21.2782258014
  0
LINE
  5
2F5
100
AcDbEntity
  8
ASSI
100
AcDbLine
 62
250
  6
CONTINUOUS
 10
-5.6215808531
 20
23.8426129815
 11
-5.6214210129
 21
23.8764674428
  0
LWPOLYLINE
  5
2F6
100
AcDbEntity
  8
RACCORDO
100
AcDbPolyline
 62
250
  6
CONTINUOUS
 90
3
 70
0
 10
-6.3231505122
 20
-21.1724732185
 10
-6.3229880543
 20
-21.1429451207
 10
-6.322859824
 20
-21.1298680772
  0
LWPOLYLINE
  5
2F7
100
AcDbEntity
  8
RACCORDO
100
AcDbPolyline
 62
250
  6
CONTINUOUS
 90
3
 70
0
 10
-5.929840804
 20
-21.5526753901
 10
-5.9302166684
 20
-21.6015189229
 10
-5.9305633013
 20
-21.6471187796
  0
LINE
  5
2F8
100
AcDbEntity
  8
ASSI
100
AcDbLine
 62
250
  6
CONTINUOUS
 10
-4.6302208522
 20
-24.6157353055
 11
-4.63060396
 21
-24.6600189668
  0
LINE
  5
2F9
100
AcDbEntity
  8
ASSI
100
AcDbLine
 62
250
  6
CONTINUOUS
 10
-4.4338880341
 20
-24.615660443
 11
-4.4342702055
 21
-24.6598990758
  0
LINE
  5
2FA
100
AcDbEntity
  8
ASSI
100
AcDbLine
 62
250
  6
CONTINUOUS
 10
-5.6222090388
 20
23.7840593865
 11
-5.6215808531
 21
23.8426129815
  0
LWPOLYLINE
  5
2FB
100
AcDbEntity
  8
RACCORDO
100
AcDbPolyline
 62
250
  6
CONTINUOUS
 90
5
 70
0
 10
-5.9305633013
 20
-21.6471187796
 10
-5.932659685
 20
-21.8662507005
 10
-5.9328746561
 20
-21.8809368635
 10
-5.9330910849
 20
-21.8900971667
 10
-5.9333302476
 20
-21.8932595905
  0
LINE
  5
2FC
100
AcDbEntity
  8
ASSI
100
AcDbLine
 62
250
  6
CONTINUOUS
 10
-5.6228598414
 20
23.7423678201
 11
-5.6222090388
 21
23.7840593865
  0
LWPOLYLINE
  5
2FD
100
AcDbEntity
  8
ASSI
100
AcDbPolyline
 62
250
  6
CONTINUOUS
 90
8
 70
0
 10
-4.63060396
 20
-24.6600189668
 10
-4.631165398
 20
-24.697588099
 10
-4.631503033
 20
-24.713135973
 10
-4.6318717927
 20
-24.7261847516
 10
-4.6322651983
 20
-24.7365148011
 10
-4.6326768219
 20
-24.7439801796
 10
-4.6331005791
 20
-24.7484922664
 10
-4.6335299997
 20
-24.75
  0
LWPOLYLINE
  5
2FE
100
AcDbEntity
  8
ASSI
100
AcDbPolyline
 62
250
  6
CONTINUOUS
 90
8
 70
0
 10
-4.4342702055
 20
-24.6598990758
 10
-4.4348304458
 20
-24.697453482
 10
-4.4351670645
 20
-24.7129903225
 10
-4.4355346821
 20
-24.7260392131
 10
-4.4359276872
 20
-24.7364009282
 10
-4.4363400808
 20
-24.7439172724
 10
-4.4367655681
 20
-24.7484734883
 10
-4.437197654
 20
-24.75
  0
LWPOLYLINE
  5
2FF
100
AcDbEntity
  8
ASSI
100
AcDbPolyline
 62
250
  6
CONTINUOUS
 90
7
 70
0
 10
-5.557946294
 20
-23.1021029835
 10
-5.5579924783
 20
-23.1032172722
 10
-5.5587682851
 20
-23.106328296
 10
-5.5602712683
 20
-23.1114187393
 10
-5.5624920717
 20
-23.1184527263
 10
-5.5654118477
 20
-23.1273677101
 10
-5.5689995976
 20
-23.1380674704
  0
LWPOLYLINE
  5
300
100
AcDbEntity
  8
RACCORDO
100
AcDbPolyline
 62
250
  6
CONTINUOUS
 90
6
 70
0
 10
-6.1263503227
 20
-21.7040379307
 10
-6.1246770034
 20
-21.6844961705
 10
-6.1196850662
 20
-21.6652814663
 10
-6.1114580728
 20
-21.6467153346
 10
-6.1001337179
 20
-21.6291084385
 10
-6.0859015175
 20
-21.6127553771
  0
LWPOLYLINE
  5
301
100
AcDbEntity
  8
RACCORDO
100
AcDbPolyline
 62
250
  6
CONTINUOUS
 90
13
 70
0
 10
-6.1263503227
 20
-21.6238685677
 10
-6.1246770538
 20
-21.604399282
 10
-6.1196852452
 20
-21.5852557699
 10
-6.1114584235
 20
-21.5667583537
 10
-6.1001342454
 20
-21.549216545
 10
-6.0859021949
 20
-21.5329238654
 10
-6.0690004125
 20
-21.5181529353
 10
-6.0497117105
 20
-21.5051509119
 10
-6.0283588407
 20
-21.4941353543
 10
-6.005299094
 20
-21.4852905822
 10
-5.980918322
 20
-21.4787645925
 10
-5.9556244807
 20
-21.4746665825
 10
-5.929840804
 20
-21.4730651231
  0
LWPOLYLINE
  5
302
100
AcDbEntity
  8
0
100
AcDbPolyline
 62
7
  6
CONTINUOUS
 90
3
 70
0
 43
0.3500000006
 10
4.5593639288
 20
35.6487416382
 10
4.4879352951
 20
35.4344571533
 10
4.345078311
 20
35.1487414856
  0
LINE
  5
303
100
AcDbEntity
  8
CURVE
100
AcDbLine
 62
7
  6
CONTINUOUS
 10
-1.4318691699
 20
14.714733706
 11
-0.8443113332
 21
15.3022915427
  0
LINE
  5
304
100
AcDbEntity
  8
CURVE
100
AcDbLine
 62
7
  6
CONTINUOUS
 10
-1.1213962831
 20
14.6051851647
 11
-0.8818959483
 21
14.8446854996
  0
LINE
  5
305
100
AcDbEntity
  8
CURVE
100
AcDbLine
 62
7
  6
CONTINUOUS
 10
-0.7201610899
 20
15.006420358
 11
-0.2534870604
 21
15.4730943874
  0
LINE
  5
306
100
AcDbEntity
  8
CURVE
100
AcDbLine
 62
7
  6
CONTINUOUS
 10
-0.7966146286
 20
14.5099453912
 11
-0.5504397553
 21
14.7561202645
  0
LINE
  5
307
100
AcDbEntity
  8
CURVE
100
AcDbLine
 62
7
  6
CONTINUOUS
 10
-0.1469869337
 20
15.1595730861
 11
0.3373372123
 21
15.6438972322
  0
LINE
  5
308
100
AcDbEntity
  8
CURVE
100
AcDbLine
 62
7
  6
CONTINUOUS
 10
-1.4318491714
 20
13.4546894204
 11
-1.2953475918
 21
13.591191
  0
LINE
  5
309
100
AcDbEntity
  8
CURVE
100
AcDbLine
 62
7
  6
CONTINUOUS
 10
-0.4718329742
 20
14.4147056176
 11
-0.2189835623
 21
14.6675550295
  0
LINE
  5
30A
100
AcDbEntity
  8
CURVE
100
AcDbLine
 62
7
  6
CONTINUOUS
 10
0.4261872225
 20
15.3127258143
 11
0.9281614851
 21
15.8147000769
  0
LINE
  5
30B
100
AcDbEntity
  8
0
100
AcDbLine
 62
7
  6
CONTINUOUS
 10
-12.2394387969
 20
-26.3132437251
 11
-8.9263503227
 21
-26.4
  0
LINE
  5
30C
100
AcDbEntity
  8
0
100
AcDbLine
 62
250
  6
CONTINUOUS
 10
-12.2394387969
 20
-25.8134150626
 11
-8.9263503227
 21
-25.9001713375
  0
LWPOLYLINE
  5
30D
100
AcDbEntity
  8
ASSI
100
AcDbPolyline
 62
250
  6
CONTINUOUS
 90
10
 70
0
 10
1.1226674175
 20
-23.0499999999
 10
1.1100871598
 20
-23.0475325578
 10
1.0948016216
 20
-23.0451195027
 10
1.0771068359
 20
-23.0427996127
 10
1.0573695593
 20
-23.0406130473
 10
1.0359099119
 20
-23.0385882626
 10
1.0129630932
 20
-23.0367447167
 10
0.9888471695
 20
-23.0351088168
 10
0.9639887176
 20
-23.0337103143
 10
0.9387840348
 20
-23.0325715061
  0
LINE
  5
30E
100
AcDbEntity
  8
ASSI
100
AcDbLine
 62
250
  6
CONTINUOUS
 10
-1.3836941901
 20
-21.947837718
 11
-1.399403602
 21
-21.7349313834
  0
LINE
  5
30F
100
AcDbEntity
  8
ASSI
100
AcDbLine
 62
250
  6
CONTINUOUS
 10
-2.4843506788
 20
22.2899306702
 11
-2.4680987429
 21
22.0546031043
  0
LINE
  5
310
100
AcDbEntity
  8
ASSI
100
AcDbLine
 62
250
  6
CONTINUOUS
 10
-1.3677897669
 20
-22.180243849
 11
-1.3836941901
 21
-21.947837718
  0
LINE
  5
311
100
AcDbEntity
  8
ASSI
100
AcDbLine
 62
250
  6
CONTINUOUS
 10
-2.5008570427
 20
22.5484526034
 11
-2.4843506788
 21
22.2899306702
  0
LINE
  5
312
100
AcDbEntity
  8
ASSI
100
AcDbLine
 62
250
  6
CONTINUOUS
 10
-1.3516066712
 20
-22.436833356
 11
-1.3677897669
 21
-22.180243849
  0
LINE
  5
313
100
AcDbEntity
  8
ASSI
100
AcDbLine
 62
250
  6
CONTINUOUS
 10
-2.5119201083
 20
22.7343152478
 11
-2.5008570427
 21
22.5484526034
  0
LINE
  5
314
100
AcDbEntity
  8
ASSI
100
AcDbLine
 62
250
  6
CONTINUOUS
 10
-1.3406860609
 20
-22.6232024292
 11
-1.3516066712
 21
-22.436833356
  0
LINE
  5
315
100
AcDbEntity
  8
ASSI
100
AcDbLine
 62
250
  6
CONTINUOUS
 10
-1.3297977086
 20
-22.8217847659
 11
-1.3406860609
 21
-22.6232024292
  0
LINE
  5
316
100
AcDbEntity
  8
ASSI
100
AcDbLine
 62
250
  6
CONTINUOUS
 10
-2.5283542656
 20
23.0325715063
 11
-2.5119201083
 21
22.7343152478
  0
LINE
  5
317
100
AcDbEntity
  8
ASSI
100
AcDbLine
 62
250
  6
CONTINUOUS
 10
-2.3098633104
 20
22.0533842226
 11
-2.2943568603
 21
21.76618384
  0
LINE
  5
318
100
AcDbEntity
  8
ASSI
100
AcDbLine
 62
250
  6
CONTINUOUS
 10
-1.3189772423
 20
-23.0325715063
 11
-1.3297977086
 21
-22.8217847659
  0
LINE
  5
319
100
AcDbEntity
  8
ASSI
100
AcDbLine
 62
250
  6
CONTINUOUS
 10
-1.5329746608
 20
-22.0303485581
 11
-1.5481350474
 21
-21.7401251996
  0
LWPOLYLINE
  5
31A
100
AcDbEntity
  8
ASSI
100
AcDbPolyline
 62
250
  6
CONTINUOUS
 90
4
 70
0
 10
-0.727796585
 20
-21.6889350971
 10
-0.7271901094
 20
-21.7014201742
 10
-0.7267085241
 20
-21.7089264261
 10
-0.7263503227
 20
-21.7114278447
  0
LINE
  5
31B
100
AcDbEntity
  8
ASSI
100
AcDbLine
 62
250
  6
CONTINUOUS
 10
-2.3257174539
 20
22.3773072975
 11
-2.3098633104
 21
22.0533842226
  0
LINE
  5
31C
100
AcDbEntity
  8
ASSI
100
AcDbLine
 62
250
  6
CONTINUOUS
 10
-1.5175244818
 20
-22.3584906742
 11
-1.5329746608
 21
-22.0303485581
  0
LINE
  5
31D
100
AcDbEntity
  8
ASSI
100
AcDbLine
 62
250
  6
CONTINUOUS
 10
-2.337814737
 20
22.6490587755
 11
-2.3257174539
 21
22.3773072975
  0
LINE
  5
31E
100
AcDbEntity
  8
ASSI
100
AcDbLine
 62
250
  6
CONTINUOUS
 10
-1.5057149674
 20
-22.6360189313
 11
-1.5175244818
 21
-22.3584906742
  0
LINE
  5
31F
100
AcDbEntity
  8
ASSI
100
AcDbLine
 62
250
  6
CONTINUOUS
 10
-0.7293957673
 20
-21.6492208336
 11
-0.727796585
 21
-21.6889350971
  0
LWPOLYLINE
  5
320
100
AcDbEntity
  8
ASSI
100
AcDbPolyline
 62
250
  6
CONTINUOUS
 90
3
 70
0
 10
-2.3538599394
 20
23.05
 10
-2.3498791266
 20
22.9456814133
 10
-2.337814737
 20
22.6490587755
  0
LWPOLYLINE
  5
321
100
AcDbEntity
  8
ASSI
100
AcDbPolyline
 62
250
  6
CONTINUOUS
 90
3
 70
0
 10
-1.4900192055
 20
-23.05
 10
-1.4939136248
 20
-22.9418170216
 10
-1.5057149674
 20
-22.6360189313
  0
LINE
  5
322
100
AcDbEntity
  8
ASSI
100
AcDbLine
 62
250
  6
CONTINUOUS
 10
-0.7340042352
 20
-21.5131700177
 11
-0.7293957673
 21
-21.6492208336
  0
LINE
  5
323
100
AcDbEntity
  8
ASSI
100
AcDbLine
 62
250
  6
CONTINUOUS
 10
-0.7385660768
 20
-21.3655459497
 11
-0.7340042352
 21
-21.5131700177
  0
LWPOLYLINE
  5
324
100
AcDbEntity
  8
ASSI
100
AcDbPolyline
 62
250
  6
CONTINUOUS
 90
7
 70
0
 10
-1.9314348741
 20
23.305170162
 10
-1.9310946459
 20
23.2896537643
 10
-1.9307266979
 20
23.2764362904
 10
-1.9303363185
 20
23.2657077062
 10
-1.9299291181
 20
23.2576222059
 10
-1.9295109491
 20
23.2522959964
 10
-1.9290878214
 20
23.2498056281
  0
LINE
  5
325
100
AcDbEntity
  8
ASSI
100
AcDbLine
 62
250
  6
CONTINUOUS
 10
-1.932013081
 20
23.3421778723
 11
-1.9314348741
 21
23.305170162
  0
LINE
  5
326
100
AcDbEntity
  8
ASSI
100
AcDbLine
 62
250
  6
CONTINUOUS
 10
-1.932428198
 20
23.385339535
 11
-1.932013081
 21
23.3421778723
  0
LWPOLYLINE
  5
327
100
AcDbEntity
  8
ASSI
100
AcDbPolyline
 62
250
  6
CONTINUOUS
 90
37
 70
0
 10
-2.5283542354
 20
-23.0325709762
 10
-2.5282290105
 20
-23.0663093162
 10
-2.5252324257
 20
-23.0990049676
 10
-2.519364481
 20
-23.1306579307
 10
-2.5102466251
 20
-23.1616535447
 10
-2.4982574093
 20
-23.1916064703
 10
-2.4845324871
 20
-23.2193606895
 10
-2.4691123758
 20
-23.2444999312
 10
-2.4519565581
 20
-23.2674404666
 10
-2.4340791365
 20
-23.2882750915
 10
-2.4156138055
 20
-23.3068979803
 10
-2.3964268706
 20
-23.3234149587
 10
-2.3771313499
 20
-23.3382363
 10
-2.3578071115
 20
-23.3513630668
 10
-2.3383742874
 20
-23.3627941965
 10
-2.3192062923
 20
-23.3729367742
 10
-2.3003554389
 20
-23.3818068828
 10
-2.2817694145
 20
-23.3893884394
 10
-2.2636646956
 20
-23.3960402802
 10
-2.2461196841
 20
-23.4017771448
 10
-2.2290559782
 20
-23.4065842937
 10
-2.2124548479
 20
-23.4107763451
 10
-2.1963936117
 20
-23.414380616
 10
-2.1807949512
 20
-23.4173697896
 10
-2.1654081813
 20
-23.4199765334
 10
-2.1502116996
 20
-23.4222361306
 10
-2.1352271084
 20
-23.424113298
 10
-2.12026853
 20
-23.4257348549
 10
-2.1052859806
 20
-23.4271172115
 10
-2.0903294439
 20
-23.4282439574
 10
-2.0753629928
 20
-23.4291926809
 10
-2.0604380758
 20
-23.4299667998
 10
-2.0455032443
 20
-23.4305628962
 10
-2.0303682261
 20
-23.4310483037
 10
-2.0150554195
 20
-23.4314302145
 10
-1.9995424261
 20
-23.4317014365
 10
-1.9670576553
 20
-23.4320643371
  0
LINE
  5
328
100
AcDbEntity
  8
ASSI
100
AcDbLine
 62
250
  6
CONTINUOUS
 10
-1.9326564468
 20
23.4321827624
 11
-1.932428198
 21
23.385339535
  0
LINE
  5
329
100
AcDbEntity
  8
ASSI
100
AcDbLine
 62
7
  6
CONTINUOUS
 10
-2.9263503227
 20
-17.7238113437
 11
-2.9263503227
 21
17.7238113437
  0
LINE
  5
32A
100
AcDbEntity
  8
RACCORDO
100
AcDbLine
 62
7
  6
CONTINUOUS
 10
-2.9263503227
 20
-21.1934131759
 11
-2.9263503227
 21
21.1934131759
  0
LINE
  5
32B
100
AcDbEntity
  8
CURVE
100
AcDbLine
 62
250
  6
CONTINUOUS
 10
-1.4335400427
 20
-12.669172
 11
-1.4335400427
 21
-13.295314
  0
LINE
  5
32C
100
AcDbEntity
  8
CURVE
100
AcDbLine
 62
250
  6
CONTINUOUS
 10
-1.4333600564
 20
-15.994614
 11
-1.4333600564
 21
-15.31443
  0
LINE
  5
32D
100
AcDbEntity
  8
CURVE
100
AcDbLine
 62
250
  6
CONTINUOUS
 10
-1.4333600564
 20
-14.153392
 11
-1.4333600564
 21
-13.527677
  0
LINE
  5
32E
100
AcDbEntity
  8
CURVE
100
AcDbLine
 62
250
  6
CONTINUOUS
 10
-1.4333600564
 20
-12.06125
 11
-1.4333600564
 21
-11.435625
  0
LINE
  5
32F
100
AcDbEntity
  8
CURVE
100
AcDbLine
 62
250
  6
CONTINUOUS
 10
-1.4333600564
 20
-10.189954
 11
-1.4333600564
 21
-9.570447
  0
LINE
  5
330
100
AcDbEntity
  8
CURVE
100
AcDbLine
 62
250
  6
CONTINUOUS
 10
-1.4333600564
 20
-8.250748
 11
-1.4333600564
 21
-7.64503
  0
LINE
  5
331
100
AcDbEntity
  8
CURVE
100
AcDbLine
 62
250
  6
CONTINUOUS
 10
-1.4318691699
 20
14.696229
 11
-1.4318691699
 21
15.132433
  0
LINE
  5
332
100
AcDbEntity
  8
CURVE
100
AcDbLine
 62
250
  6
CONTINUOUS
 10
-1.431855171
 20
8.864998
 11
-1.431855171
 21
9.218115
  0
LINE
  5
333
100
AcDbEntity
  8
CURVE
100
AcDbLine
 62
250
  6
CONTINUOUS
 10
-1.4318491714
 20
7.154368
 11
-1.4318491714
 21
7.507485
  0
LINE
  5
334
100
AcDbEntity
  8
CURVE
100
AcDbLine
 62
250
  6
CONTINUOUS
 10
-1.4318491714
 20
9.772004
 11
-1.4318491714
 21
10.320374
  0
LINE
  5
335
100
AcDbEntity
  8
CURVE
100
AcDbLine
 62
250
  6
CONTINUOUS
 10
-1.4318491714
 20
11.329873
 11
-1.4318491714
 21
11.658092
  0
LINE
  5
336
100
AcDbEntity
  8
CURVE
100
AcDbLine
 62
250
  6
CONTINUOUS
 10
-1.4318491714
 20
12.207804
 11
-1.4318491714
 21
13.591191
  0
LINE
  5
337
100
AcDbEntity
  8
CURVE
100
AcDbLine
 62
250
  6
CONTINUOUS
 10
-1.149377684
 20
13.591191
 11
-1.149377684
 21
12.56092
  0
LINE
  5
338
100
AcDbEntity
  8
ASSI
100
AcDbLine
 62
250
  6
CONTINUOUS
 10
-1.9326564465
 20
-23.4321827624
 11
-1.9324258986
 21
-23.3853398679
  0
LINE
  5
339
100
AcDbEntity
  8
ASSI
100
AcDbLine
 62
250
  6
CONTINUOUS
 10
-1.9324258986
 20
-23.3853398679
 11
-1.9320093863
 21
-23.3421782628
  0
LWPOLYLINE
  5
33A
100
AcDbEntity
  8
ASSI
100
AcDbPolyline
 62
250
  6
CONTINUOUS
 90
8
 70
0
 10
-1.9320093863
 20
-23.3421782628
 10
-1.9314306849
 20
-23.3051704182
 10
-1.9310905809
 20
-23.2896539395
 10
-1.9307230019
 20
-23.2764363866
 10
-1.9303332089
 20
-23.2657077496
 10
-1.9299268083
 20
-23.2576222225
 10
-1.9295096726
 20
-23.2522960005
 10
-1.9290878207
 20
-23.249805628
  0
LWPOLYLINE
  5
33B
100
AcDbEntity
  8
ASSI
100
AcDbPolyline
 62
250
  6
CONTINUOUS
 90
35
 70
0
 10
-2.3538595021
 20
-23.05
 10
-2.3542028308
 20
-23.0667104427
 10
-2.3527883971
 20
-23.0830932073
 10
-2.3496815496
 20
-23.0990431886
 10
-2.3448877339
 20
-23.1146112366
 10
-2.3385364829
 20
-23.1295572577
 10
-2.3309757616
 20
-23.1433946069
 10
-2.3224325738
 20
-23.1559842942
 10
-2.3130121318
 20
-23.1674678681
 10
-2.3029527044
 20
-23.1778513745
 10
-2.2924085298
 20
-23.1871513992
 10
-2.2814650314
 20
-23.1954435107
 10
-2.2702328407
 20
-23.2028321736
 10
-2.2587855549
 20
-23.2093750707
 10
-2.2471907207
 20
-23.2151279258
 10
-2.2355248444
 20
-23.2201824196
 10
-2.2238211391
 20
-23.2245950881
 10
-2.2121178049
 20
-23.2284202629
 10
-2.2004852656
 20
-23.2317342901
 10
-2.1889646793
 20
-23.2345800782
 10
-2.1775397816
 20
-23.2370109332
 10
-2.1661898711
 20
-23.2391023789
 10
-2.1549642874
 20
-23.2408863959
 10
-2.1438121662
 20
-23.2423992545
 10
-2.1325633499
 20
-23.2437024958
 10
-2.1212017047
 20
-23.2448226203
 10
-2.1097311211
 20
-23.2457730212
 10
-2.0980129162
 20
-23.2465816611
 10
-2.0859942756
 20
-23.247267474
 10
-2.0737087408
 20
-23.2478401482
 10
-2.061144685
 20
-23.2483105791
 10
-2.0483225273
 20
-23.2486923394
 10
-2.0351951636
 20
-23.2489982505
 10
-2.0216431656
 20
-23.2492383932
 10
-1.9932097723
 20
-23.2495667964
  0
LWPOLYLINE
  5
33C
100
AcDbEntity
  8
ASSI
100
AcDbPolyline
 62
250
  6
CONTINUOUS
 90
10
 70
0
 10
-1.3189772415
 20
23.0325715063
 10
-1.3185791382
 20
23.0476544031
 10
-1.3188165864
 20
23.062616528
 10
-1.3196895862
 20
23.0774578808
 10
-1.3212026675
 20
23.0921801965
 10
-1.3233513004
 20
23.1067817402
 10
-1.3261218949
 20
23.1212573077
 10
-1.3295099212
 20
23.1356051642
 10
-1.3335199091
 20
23.1498270446
 10
-1.3381518587
 20
23.1639229488
  0
LINE
  5
33D
100
AcDbEntity
  8
ASSI
100
AcDbLine
 62
250
  6
CONTINUOUS
 10
-0.7385660768
 20
21.3655459497
 11
-0.731474714
 21
21.5903513425
  0
LINE
  5
33E
100
AcDbEntity
  8
ASSI
100
AcDbLine
 62
250
  6
CONTINUOUS
 10
-1.5010608959
 20
22.7528710662
 11
-1.4900192054
 21
23.05
  0
LWPOLYLINE
  5
33F
100
AcDbEntity
  8
ASSI
100
AcDbPolyline
 62
250
  6
CONTINUOUS
 90
6
 70
0
 10
-0.731474714
 20
21.5903513425
 10
-0.7285347834
 20
21.6715133401
 10
-0.7277965851
 20
21.6889350975
 10
-0.7271810369
 20
21.7014221599
 10
-0.726697291
 20
21.708928916
 10
-0.7263503227
 20
21.7114278447
  0
LINE
  5
340
100
AcDbEntity
  8
ASSI
100
AcDbLine
 62
250
  6
CONTINUOUS
 10
-2.3443545733
 20
-22.8063642021
 11
-2.3538599393
 21
-23.05
  0
LINE
  5
341
100
AcDbEntity
  8
ASSI
100
AcDbLine
 62
250
  6
CONTINUOUS
 10
-2.3345795102
 20
-22.5740710645
 11
-2.3443545733
 21
-22.8063642021
  0
LINE
  5
342
100
AcDbEntity
  8
ASSI
100
AcDbLine
 62
250
  6
CONTINUOUS
 10
-1.5164447364
 20
22.3828432613
 11
-1.5010608959
 21
22.7528710662
  0
LWPOLYLINE
  5
343
100
AcDbEntity
  8
ASSI
100
AcDbPolyline
 62
250
  6
CONTINUOUS
 90
10
 70
0
 10
-1.490019209
 20
23.05
 10
-1.489671739
 20
23.0575247013
 10
-1.4896848036
 20
23.0650092053
 10
-1.4900543906
 20
23.0724431844
 10
-1.4907744489
 20
23.0798075858
 10
-1.4918412076
 20
23.0871017592
 10
-1.4932560971
 20
23.0943429027
 10
-1.4950186377
 20
23.1015299615
 10
-1.497123547
 20
23.1086442053
 10
-1.4995670618
 20
23.115675964
  0
LINE
  5
344
100
AcDbEntity
  8
ASSI
100
AcDbLine
 62
250
  6
CONTINUOUS
 10
-2.319557166
 20
-22.247446826
 11
-2.3345795102
 21
-22.5740710645
  0
LINE
  5
345
100
AcDbEntity
  8
ASSI
100
AcDbLine
 62
250
  6
CONTINUOUS
 10
-1.5322740643
 20
22.0444834488
 11
-1.5164447364
 21
22.3828432613
  0
LINE
  5
346
100
AcDbEntity
  8
ASSI
100
AcDbLine
 62
250
  6
CONTINUOUS
 10
-2.304389618
 20
-21.9488410637
 11
-2.319557166
 21
-22.247446826
  0
LINE
  5
347
100
AcDbEntity
  8
ASSI
100
AcDbLine
 62
250
  6
CONTINUOUS
 10
-1.3342565498
 20
22.7387182667
 11
-1.3189772415
 21
23.0325715063
  0
LINE
  5
348
100
AcDbEntity
  8
ASSI
100
AcDbLine
 62
250
  6
CONTINUOUS
 10
-1.5481350474
 20
21.7401251996
 11
-1.5322740643
 21
22.0444834488
  0
LINE
  5
349
100
AcDbEntity
  8
ASSI
100
AcDbLine
 62
250
  6
CONTINUOUS
 10
-2.5153251255
 20
-22.7940393183
 11
-2.5283542354
 21
-23.0325709762
  0
LINE
  5
34A
100
AcDbEntity
  8
ASSI
100
AcDbLine
 62
250
  6
CONTINUOUS
 10
-2.2943568603
 20
-21.7661838396
 11
-2.304389618
 21
-21.9488410637
  0
LINE
  5
34B
100
AcDbEntity
  8
ASSI
100
AcDbLine
 62
250
  6
CONTINUOUS
 10
-1.3501398782
 20
22.4612087045
 11
-1.3342565498
 21
22.7387182667
  0
LINE
  5
34C
100
AcDbEntity
  8
ASSI
100
AcDbLine
 62
250
  6
CONTINUOUS
 10
-2.5019569311
 20
-22.5663569193
 11
-2.5153251255
 21
-22.7940393183
  0
LINE
  5
34D
100
AcDbEntity
  8
ASSI
100
AcDbLine
 62
250
  6
CONTINUOUS
 10
-2.4882901331
 20
-22.3496916584
 11
-2.5019569311
 21
-22.5663569193
  0
LINE
  5
34E
100
AcDbEntity
  8
ASSI
100
AcDbLine
 62
250
  6
CONTINUOUS
 10
-1.3664433683
 20
22.2007722874
 11
-1.3501398782
 21
22.4612087045
  0
LINE
  5
34F
100
AcDbEntity
  8
ASSI
100
AcDbLine
 62
250
  6
CONTINUOUS
 10
-1.3829457047
 20
21.9583766945
 11
-1.3664433683
 21
22.2007722874
  0
LWPOLYLINE
  5
350
100
AcDbEntity
  8
ASSI
100
AcDbPolyline
 62
250
  6
CONTINUOUS
 90
3
 70
0
 10
-2.4675235402
 20
-22.0465680259
 10
-2.4744531852
 20
-22.1445656722
 10
-2.4882901331
 20
-22.3496916584
  0
LINE
  5
351
100
AcDbEntity
  8
ASSI
100
AcDbLine
 62
250
  6
CONTINUOUS
 10
-1.3994005458
 20
21.7349312765
 11
-1.3829457047
 21
21.9583766945
  0
LWPOLYLINE
  5
352
100
AcDbEntity
  8
ASSI
100
AcDbPolyline
 62
250
  6
CONTINUOUS
 90
6
 70
0
 10
-5.9947543514
 20
-22.9431178525
 10
-5.9949343331
 20
-22.9448593895
 10
-5.9962728048
 20
-22.9497626758
 10
-5.9987470383
 20
-22.9577444503
 10
-6.0023150194
 20
-22.9686691771
 10
-6.0069161614
 20
-22.9823513471
  0
LINE
  5
353
100
AcDbEntity
  8
ASSI
100
AcDbLine
 62
250
  6
CONTINUOUS
 10
-8.276325239
 20
-24.3674284937
 11
-8.1743559401
 21
-23.9868738892
  0
LINE
  5
354
100
AcDbEntity
  8
ASSI
100
AcDbLine
 62
250
  6
CONTINUOUS
 10
3.3861738482
 20
23.1653850123
 11
3.3569088157
 21
23.0572062416
  0
LWPOLYLINE
  5
355
100
AcDbEntity
  8
ASSI
100
AcDbPolyline
 62
250
  6
CONTINUOUS
 90
6
 70
0
 10
3.4051821435
 20
23.2329629131
 10
3.4046517963
 20
23.2315280185
 10
3.4033410274
 20
23.2271722576
 10
3.4012698032
 20
23.2199619803
 10
3.3984696739
 20
23.2100070183
 10
3.3861738482
 20
23.1653850123
  0
LWPOLYLINE
  5
356
100
AcDbEntity
  8
ASSI
100
AcDbPolyline
 62
250
  6
CONTINUOUS
 90
6
 70
0
 10
5.5569425044
 20
22.6564004621
 10
5.5564121573
 20
22.6549655674
 10
5.5551013883
 20
22.6506098065
 10
5.5530301641
 20
22.6433995291
 10
5.5502300348
 20
22.6334445669
 10
5.537934209
 20
22.5888225608
  0
LINE
  5
357
100
AcDbEntity
  8
CURVE
100
AcDbLine
 62
250
  6
CONTINUOUS
 10
3.4307924833
 20
15.2857141495
 11
3.2879354086
 21
15.0952382088
  0
LINE
  5
358
100
AcDbEntity
  8
CURVE
100
AcDbLine
 62
250
  6
CONTINUOUS
 10
3.4307924833
 20
13.7142858505
 11
3.2879354086
 21
13.523809433
  0
LINE
  5
359
100
AcDbEntity
  8
CURVE
100
AcDbLine
 62
7
  6
CONTINUOUS
 10
-1.4318491714
 20
13.0346679923
 11
-1.149377684
 21
13.3171394798
  0
LINE
  5
35A
100
AcDbEntity
  8
CURVE
100
AcDbLine
 62
7
  6
CONTINUOUS
 10
-0.1470513197
 20
14.319465844
 11
0.1124726307
 21
14.5789897945
  0
LINE
  5
35B
100
AcDbEntity
  8
CURVE
100
AcDbLine
 62
7
  6
CONTINUOUS
 10
0.5288185076
 20
14.9953356714
 11
0.8112929949
 21
15.2778101586
  0
LINE
  5
35C
100
AcDbEntity
  8
CURVE
100
AcDbLine
 62
7
  6
CONTINUOUS
 10
1.0128975177
 20
15.4794146815
 11
1.5189857579
 21
15.9855029216
  0
LINE
  5
35D
100
AcDbEntity
  8
CURVE
100
AcDbLine
 62
7
  6
CONTINUOUS
 10
-1.4318491714
 20
12.6146465643
 11
-1.149377684
 21
12.8971180518
  0
LINE
  5
35E
100
AcDbEntity
  8
CURVE
100
AcDbLine
 62
7
  6
CONTINUOUS
 10
0.1777303347
 20
14.2242260705
 11
0.4439288237
 21
14.4904245595
  0
LINE
  5
35F
100
AcDbEntity
  8
CURVE
100
AcDbLine
 62
7
  6
CONTINUOUS
 10
0.5288185076
 20
14.5753142434
 11
0.8112929949
 21
14.8577887306
  0
LINE
  5
360
100
AcDbEntity
  8
CURVE
100
AcDbLine
 62
7
  6
CONTINUOUS
 10
-1.4186703077
 20
12.207804
 11
-1.0655543077
 21
12.56092
  0
LINE
  5
361
100
AcDbEntity
  8
CURVE
100
AcDbLine
 62
7
  6
CONTINUOUS
 10
-0.1191851416
 20
13.5072891661
 11
-0.0892883077
 21
13.537186
  0
LINE
  5
362
100
AcDbEntity
  8
CURVE
100
AcDbLine
 62
7
  6
CONTINUOUS
 10
0.5025119892
 20
14.1289862969
 11
0.8112929949
 21
14.4377673026
  0
LINE
  5
363
100
AcDbEntity
  8
CURVE
100
AcDbLine
 62
7
  6
CONTINUOUS
 10
-0.9986488797
 20
12.207804
 11
-0.6455328797
 21
12.56092
  0
LINE
  5
364
100
AcDbEntity
  8
CURVE
100
AcDbLine
 62
7
  6
CONTINUOUS
 10
-0.1191851416
 20
13.0872677381
 11
0.1632873458
 21
13.3697402255
  0
LINE
  5
365
100
AcDbEntity
  8
CURVE
100
AcDbLine
 62
7
  6
CONTINUOUS
 10
0.8272936436
 20
14.0337465233
 11
1.094982275
 21
14.3014351547
  0
LINE
  5
366
100
AcDbEntity
  8
CURVE
100
AcDbLine
 62
7
  6
CONTINUOUS
 10
-1.4318491714
 20
11.3545822802
 11
-1.1283394517
 21
11.658092
  0
LINE
  5
367
100
AcDbEntity
  8
CURVE
100
AcDbLine
 62
7
  6
CONTINUOUS
 10
-0.5786274517
 20
12.207804
 11
-0.2255114517
 21
12.56092
  0
LINE
  5
368
100
AcDbEntity
  8
CURVE
100
AcDbLine
 62
7
  6
CONTINUOUS
 10
-0.1191851416
 20
12.6672463101
 11
0.1632873458
 21
12.9497187975
  0
LINE
  5
369
100
AcDbEntity
  8
CURVE
100
AcDbLine
 62
7
  6
CONTINUOUS
 10
1.1520752981
 20
13.9385067497
 11
1.4234570413
 21
14.209888493
  0
LINE
  5
36A
100
AcDbEntity
  8
CURVE
100
AcDbLine
 62
7
  6
CONTINUOUS
 10
-1.0365370236
 20
11.329873
 11
-0.7083180236
 21
11.658092
  0
LINE
  5
36B
100
AcDbEntity
  8
CURVE
100
AcDbLine
 62
7
  6
CONTINUOUS
 10
-0.1586060236
 20
12.207804
 11
0.1945099764
 21
12.56092
  0
LINE
  5
36C
100
AcDbEntity
  8
CURVE
100
AcDbLine
 62
7
  6
CONTINUOUS
 10
1.4768569525
 20
13.8432669762
 11
1.5715020987
 21
13.9379121223
  0
LINE
  5
36D
100
AcDbEntity
  8
CURVE
100
AcDbLine
 62
250
  6
CONTINUOUS
 10
3.7165068116
 20
16.0
 11
3.4307924833
 21
15.7142858505
  0
LINE
  5
36E
100
AcDbEntity
  8
CURVE
100
AcDbLine
 62
7
  6
CONTINUOUS
 10
-0.6165155956
 20
11.329873
 11
-0.2882965956
 21
11.658092
  0
LINE
  5
36F
100
AcDbEntity
  8
CURVE
100
AcDbLine
 62
7
  6
CONTINUOUS
 10
0.2614154044
 20
12.207804
 11
0.6145314044
 21
12.56092
  0
LINE
  5
370
100
AcDbEntity
  8
CURVE
100
AcDbLine
 62
7
  6
CONTINUOUS
 10
1.2890216119
 20
13.2354102075
 11
1.5714930994
 21
13.517881695
  0
LINE
  5
371
100
AcDbEntity
  8
CURVE
100
AcDbLine
 62
7
  6
CONTINUOUS
 10
-1.4318491714
 20
10.0945179962
 11
-1.0711291601
 21
10.4552380075
  0
LINE
  5
372
100
AcDbEntity
  8
CURVE
100
AcDbLine
 62
7
  6
CONTINUOUS
 10
-0.1964941676
 20
11.329873
 11
0.1317248324
 21
11.658092
  0
LINE
  5
373
100
AcDbEntity
  8
CURVE
100
AcDbLine
 62
7
  6
CONTINUOUS
 10
0.6814368324
 20
12.207804
 11
1.0345528324
 21
12.56092
  0
LINE
  5
374
100
AcDbEntity
  8
CURVE
100
AcDbLine
 62
7
  6
CONTINUOUS
 10
1.2890216119
 20
12.8153887795
 11
1.5714930994
 21
13.097860267
  0
LINE
  5
375
100
AcDbEntity
  8
CURVE
100
AcDbLine
 62
7
  6
CONTINUOUS
 10
-1.3343417396
 20
9.772004
 11
-1.0061497396
 21
10.100196
  0
LINE
  5
376
100
AcDbEntity
  8
CURVE
100
AcDbLine
 62
7
  6
CONTINUOUS
 10
-0.9330269482
 20
10.1733187914
 11
-0.4003029182
 21
10.7060428214
  0
LINE
  5
377
100
AcDbEntity
  8
CURVE
100
AcDbLine
 62
7
  6
CONTINUOUS
 10
0.2235272604
 20
11.329873
 11
0.5517462604
 21
11.658092
  0
LINE
  5
378
100
AcDbEntity
  8
CURVE
100
AcDbLine
 62
7
  6
CONTINUOUS
 10
1.1014582604
 20
12.207804
 11
1.5714930994
 21
12.6778388389
  0
LINE
  5
379
100
AcDbEntity
  8
CURVE
100
AcDbLine
 62
250
  6
CONTINUOUS
 10
3.7165068116
 20
14.4285712242
 11
3.4307924833
 21
14.1428570747
  0
LINE
  5
37A
100
AcDbEntity
  8
CURVE
100
AcDbLine
 62
250
  6
CONTINUOUS
 10
4.2879353788
 20
15.0
 11
4.5736496773
 21
15.2857141495
  0
LINE
  5
37B
100
AcDbEntity
  8
CURVE
100
AcDbLine
 62
7
  6
CONTINUOUS
 10
-0.9143203116
 20
9.772004
 11
-0.5861283116
 21
10.100196
  0
LINE
  5
37C
100
AcDbEntity
  8
CURVE
100
AcDbLine
 62
7
  6
CONTINUOUS
 10
-0.262201103
 20
10.4241232085
 11
0.2705233237
 21
10.9568476353
  0
LINE
  5
37D
100
AcDbEntity
  8
CURVE
100
AcDbLine
 62
7
  6
CONTINUOUS
 10
0.6435486884
 20
11.329873
 11
0.9717676884
 21
11.658092
  0
LINE
  5
37E
100
AcDbEntity
  8
CURVE
100
AcDbLine
 62
7
  6
CONTINUOUS
 10
1.5214796884
 20
12.207804
 11
1.5714930994
 21
12.2578174109
  0
LINE
  5
37F
100
AcDbEntity
  8
CURVE
100
AcDbLine
 62
250
  6
CONTINUOUS
 10
2.5736496773
 20
15.7142858505
 11
2.859363946
 21
15.9047617912
  0
LWPOLYLINE
  5
380
100
AcDbEntity
  8
RACCORDO
100
AcDbPolyline
 62
7
  6
CONTINUOUS
 90
3
 70
0
 10
5.7274786991
 20
20.6522414444
 10
5.7116759289
 20
20.6466429361
 10
5.6978167006
 20
20.6394847958
  0
LWPOLYLINE
  5
381
100
AcDbEntity
  8
ASSI
100
AcDbPolyline
 62
250
  6
CONTINUOUS
 90
16
 70
0
 10
-4.4337071727
 20
-24.5674284937
 10
-4.4228920974
 20
-24.5671811168
 10
-4.4124120554
 20
-24.5666304442
 10
-4.4022670468
 20
-24.5657764759
 10
-4.3924550436
 20
-24.5645900832
 10
-4.3829780738
 20
-24.5631003948
 10
-4.3738422212
 20
-24.5613947972
 10
-4.3650497126
 20
-24.5594764579
 10
-4.3565983212
 20
-24.5573422094
 10
-4.34848745
 20
-24.5550699352
 10
-4.3407187613
 20
-24.5526623625
 10
-4.3332905927
 20
-24.550116764
 10
-4.3261973601
 20
-24.5475028413
 10
-4.3194372021
 20
-24.5448438283
 10
-4.3130119802
 20
-24.5421164912
 10
-4.3069216942
 20
-24.5393208298
  0
LINE
  5
382
100
AcDbEntity
  8
ASSI
100
AcDbLine
 62
7
  6
CONTINUOUS
 10
-5.6228598414
 20
-23.9423373592
 11
-8.9263503227
 21
-24.0
  0
LINE
  5
383
100
AcDbEntity
  8
ASSI
100
AcDbLine
 62
250
  6
CONTINUOUS
 10
-5.6228598414
 20
-23.7423678201
 11
-8.9263503227
 21
-23.800030461
  0
LINE
  5
384
100
AcDbEntity
  8
ASSI
100
AcDbLine
 62
250
  6
CONTINUOUS
 10
-1.8947915638
 20
-23.2497746799
 11
-1.8325876513
 21
-23.2494878039
  0
LINE
  5
385
100
AcDbEntity
  8
0
100
AcDbLine
 62
250
  6
CONTINUOUS
 10
-12.2394387969
 20
-25.8134150626
 11
-12.7263503227
 21
-25.8134150626
  0
LINE
  5
386
100
AcDbEntity
  8
ASSI
100
AcDbLine
 62
7
  6
CONTINUOUS
 10
-4.6335299997
 20
-24.75
 11
-4.437197654
 21
-24.75
  0
LINE
  5
387
100
AcDbEntity
  8
ASSI
100
AcDbLine
 62
250
  6
CONTINUOUS
 10
-4.6300395184
 20
-24.5674284937
 11
-4.4337071727
 21
-24.5674284937
  0
LINE
  5
388
100
AcDbEntity
  8
ASSI
100
AcDbLine
 62
7
  6
CONTINUOUS
 10
-8.9263503227
 20
-24.55
 11
-8.2798157203
 21
-24.55
  0
LINE
  5
389
100
AcDbEntity
  8
ASSI
100
AcDbLine
 62
250
  6
CONTINUOUS
 10
-8.9263503227
 20
-24.3674284937
 11
-8.276325239
 21
-24.3674284937
  0
LINE
  5
38A
100
AcDbEntity
  8
ASSI
100
AcDbLine
 62
250
  6
CONTINUOUS
 10
-5.4263503227
 20
-23.7423678201
 11
-5.6228598414
 21
-23.7423678201
  0
LINE
  5
38B
100
AcDbEntity
  8
ASSI
100
AcDbLine
 62
250
  6
CONTINUOUS
 10
-5.4263503227
 20
-23.2900415076
 11
-5.6228598414
 21
-23.2900415076
  0
LINE
  5
38C
100
AcDbEntity
  8
ASSI
100
AcDbLine
 62
7
  6
CONTINUOUS
 10
-0.777047948
 20
-23.25
 11
3.2757726209
 21
-23.25
  0
LINE
  5
38D
100
AcDbEntity
  8
ASSI
100
AcDbLine
 62
250
  6
CONTINUOUS
 10
0.9373450123
 20
-23.0674284937
 11
-0.7735574667
 21
-23.0674284937
  0
LINE
  5
38E
100
AcDbEntity
  8
ASSI
100
AcDbLine
 62
250
  6
CONTINUOUS
 10
2.2130682421
 20
-23.0674284937
 11
3.2792631022
 21
-23.0674284937
  0
LINE
  5
38F
100
AcDbEntity
  8
ASSI
100
AcDbLine
 62
250
  6
CONTINUOUS
 10
-2.3538599393
 20
-23.05
 11
-1.4900192055
 21
-23.05
  0
LINE
  5
390
100
AcDbEntity
  8
ASSI
100
AcDbLine
 62
250
  6
CONTINUOUS
 10
2.0319188519
 20
-23.05
 11
1.1226674175
 21
-23.05
  0
LINE
  5
391
100
AcDbEntity
  8
ASSI
100
AcDbLine
 62
250
  6
CONTINUOUS
 10
-1.9624548997
 20
-23.2497367395
 11
-1.8947915638
 21
-23.2497746799
  0
LINE
  5
392
100
AcDbEntity
  8
ASSI
100
AcDbLine
 62
250
  6
CONTINUOUS
 10
-1.9670576553
 20
-23.4320643371
 11
-1.9326564466
 21
-23.4321827624
  0
LINE
  5
393
100
AcDbEntity
  8
ASSI
100
AcDbLine
 62
250
  6
CONTINUOUS
 10
-1.9932097723
 20
-23.2495667964
 11
-1.9624548997
 21
-23.2497367395
  0
LWPOLYLINE
  5
394
100
AcDbEntity
  8
ASSI
100
AcDbPolyline
 62
250
  6
CONTINUOUS
 90
16
 70
0
 10
2.2130682431
 20
-23.0674285168
 10
2.1981425829
 20
-23.0667931828
 10
2.1832220326
 20
-23.0660603602
 10
2.1684034119
 20
-23.0652333384
 10
2.1537738783
 20
-23.0643151592
 10
2.139442278
 20
-23.0633100828
 10
2.1255281738
 20
-23.0622247744
 10
2.112110181
 20
-23.0610642068
 10
2.0992721044
 20
-23.0598353597
 10
2.0871265055
 20
-23.0585498128
 10
2.0757717921
 20
-23.0572297653
 10
2.065232377
 20
-23.0558686383
 10
2.0555122
 20
-23.054435224
 10
2.0466644062
 20
-23.0529248826
 10
2.0387770888
 20
-23.0513599787
 10
2.0319187096
 20
-23.0497503294
  0
LWPOLYLINE
  5
395
100
AcDbEntity
  8
ASSI
100
AcDbPolyline
 62
250
  6
CONTINUOUS
 90
13
 70
0
 10
-5.4263503227
 20
-23.5680015827
 10
-5.4036296272
 20
-23.5690884854
 10
-5.3698729837
 20
-23.5734323987
 10
-5.3370602882
 20
-23.5804602336
 10
-5.3052246226
 20
-23.5900973399
 10
-5.2743329051
 20
-23.6024183679
 10
-5.2442858904
 20
-23.6176472684
 10
-5.214666226
 20
-23.6359736841
 10
-5.1858912643
 20
-23.6572079724
 10
-5.1591138172
 20
-23.6810051572
 10
-5.1347181554
 20
-23.7072502464
 10
-5.1123200082
 20
-23.736058232
 10
-5.0919193755
 20
-23.7674291142
  0
LWPOLYLINE
  5
396
100
AcDbEntity
  8
ASSI
100
AcDbPolyline
 62
250
  6
CONTINUOUS
 90
10
 70
0
 10
-2.5283541865
 20
-23.0325715084
 10
-2.5051883481
 20
-23.0338600754
 10
-2.4822877183
 20
-23.0353661317
 10
-2.4599608841
 20
-23.03706938
 10
-2.4385087283
 20
-23.0389468623
 10
-2.4182202725
 20
-23.0409732808
 10
-2.3993688024
 20
-23.0431213403
 10
-2.3822083214
 20
-23.0453620995
 10
-2.3669701064
 20
-23.0476653598
 10
-2.3538595021
 20
-23.0500000844
  0
LWPOLYLINE
  5
397
100
AcDbEntity
  8
RACCORDO
100
AcDbPolyline
 62
7
  6
CONTINUOUS
 90
3
 70
0
 10
5.6978216639
 20
-20.6394780519
 10
5.7116245256
 20
-20.6466202162
 10
5.7274786991
 20
-20.6522414444
  0
LWPOLYLINE
  5
398
100
AcDbEntity
  8
ASSI
100
AcDbPolyline
 62
250
  6
CONTINUOUS
 90
4
 70
0
 10
3.4012698032
 20
-23.2199619803
 10
3.4033410274
 20
-23.2271722576
 10
3.4046517963
 20
-23.2315280185
 10
3.4051821435
 20
-23.2329629131
  0
LINE
  5
399
100
AcDbEntity
  8
ASSI
100
AcDbLine
 62
250
  6
CONTINUOUS
 10
3.394983293
 20
-23.197459012
 11
3.4012698032
 21
-23.2199619803
  0
LINE
  5
39A
100
AcDbEntity
  8
ASSI
100
AcDbLine
 62
250
  6
CONTINUOUS
 10
3.3753761896
 20
-23.1256868279
 11
3.394983293
 21
-23.197459012
  0
LINE
  5
39B
100
AcDbEntity
  8
ASSI
100
AcDbLine
 62
250
  6
CONTINUOUS
 10
3.3569088157
 20
-23.0572062416
 11
3.3753761896
 21
-23.1256868279
  0
LINE
  5
39C
100
AcDbEntity
  8
ASSI
100
AcDbLine
 62
250
  6
CONTINUOUS
 10
-8.1743559401
 20
23.9868738892
 11
-8.276325239
 21
24.3674284937
  0
LWPOLYLINE
  5
39D
100
AcDbEntity
  8
CURVE
100
AcDbPolyline
 62
250
  6
CONTINUOUS
 90
23
 70
0
 10
-0.9223811792
 20
-5.9379402968
 10
-0.9260467612
 20
-5.9158760532
 10
-0.92951233
 20
-5.8937729847
 10
-0.9327647156
 20
-5.871633243
 10
-0.9357907478
 20
-5.8494589793
 10
-0.9385772568
 20
-5.8272523451
 10
-0.9411110724
 20
-5.8050154919
 10
-0.9433790246
 20
-5.7827505712
 10
-0.9453679435
 20
-5.7604597344
 10
-0.9470646589
 20
-5.738145133
 10
-0.9484560009
 20
-5.7158089183
 10
-0.9495287994
 20
-5.693453242
 10
-0.9502730794
 20
-5.6710597039
 10
-0.9506877484
 20
-5.6486544762
 10
-0.9507755356
 20
-5.6262432121
 10
-0.9505391705
 20
-5.6038315652
 10
-0.9499813821
 20
-5.5814251885
 10
-0.9491048998
 20
-5.5590297356
 10
-0.9479124529
 20
-5.5366508598
 10
-0.9464067707
 20
-5.5142942143
 10
-0.9445905823
 20
-5.4919654525
 10
-0.9424666172
 20
-5.4696702278
 10
-0.9400376045
 20
-5.4474141935
  0
LWPOLYLINE
  5
39E
100
AcDbEntity
  8
ASSI
100
AcDbPolyline
 62
250
  6
CONTINUOUS
 90
3
 70
0
 10
-2.4680987429
 20
22.0546031043
 10
-2.4627433443
 20
21.9807673998
 10
-2.4468488586
 20
21.7715089782
  0
LINE
  5
39F
100
AcDbEntity
  8
ASSI
100
AcDbLine
 62
250
  6
CONTINUOUS
 10
2.1574980431
 20
-21.8904914701
 11
2.1465595287
 21
-21.7057293864
  0
LINE
  5
3A0
100
AcDbEntity
  8
ASSI
100
AcDbLine
 62
250
  6
CONTINUOUS
 10
2.1712044889
 20
-22.139460286
 11
2.1574980431
 21
-21.8904914701
  0
LINE
  5
3A1
100
AcDbEntity
  8
ASSI
100
AcDbLine
 62
250
  6
CONTINUOUS
 10
2.1849340266
 20
-22.4118131055
 11
2.1712044889
 21
-22.139460286
  0
LWPOLYLINE
  5
3A2
100
AcDbEntity
  8
ASSI
100
AcDbPolyline
 62
250
  6
CONTINUOUS
 90
16
 70
0
 10
1.1226674148
 20
-23.05
 10
1.1236556295
 20
-23.0709057259
 10
1.1266094439
 20
-23.0915823937
 10
1.1314964925
 20
-23.1118034655
 10
1.1382632276
 20
-23.1313473924
 10
1.1468355095
 20
-23.1500000516
 10
1.1571194215
 20
-23.1675570903
 10
1.169002293
 20
-23.1838261527
 10
1.1823539313
 20
-23.1986289888
 10
1.1970280532
 20
-23.2118034156
 10
1.2128638858
 20
-23.2232050912
 10
1.2296879287
 20
-23.232709097
 10
1.2473158557
 20
-23.2402113056
 10
1.2655545322
 20
-23.2456295209
 10
1.2842041312
 20
-23.2489043792
 10
1.3030603239
 20
-23.25
  0
LINE
  5
3A3
100
AcDbEntity
  8
ASSI
100
AcDbLine
 62
250
  6
CONTINUOUS
 10
0.9480235593
 20
22.8185356486
 11
0.9622054943
 21
22.5169240544
  0
LINE
  5
3A4
100
AcDbEntity
  8
ASSI
100
AcDbLine
 62
250
  6
CONTINUOUS
 10
2.1985376823
 20
-22.7096205622
 11
2.1849340266
 21
-22.4118131055
  0
LINE
  5
3A5
100
AcDbEntity
  8
ASSI
100
AcDbLine
 62
250
  6
CONTINUOUS
 10
0.9373450128
 20
23.0674284937
 11
0.9480235593
 21
22.8185356486
  0
LINE
  5
3A6
100
AcDbEntity
  8
ASSI
100
AcDbLine
 62
250
  6
CONTINUOUS
 10
1.9959634403
 20
-21.9766854218
 11
1.9846579116
 21
-21.7071422804
  0
LINE
  5
3A7
100
AcDbEntity
  8
ASSI
100
AcDbLine
 62
250
  6
CONTINUOUS
 10
2.2130682421
 20
-23.0674284937
 11
2.1985376823
 21
-22.7096205622
  0
LINE
  5
3A8
100
AcDbEntity
  8
ASSI
100
AcDbLine
 62
250
  6
CONTINUOUS
 10
1.1431963884
 20
22.4285404907
 11
1.1570947572
 21
22.0698280731
  0
LINE
  5
3A9
100
AcDbEntity
  8
ASSI
100
AcDbLine
 62
250
  6
CONTINUOUS
 10
2.0092055862
 20
-22.3271588353
 11
1.9959634403
 21
-21.9766854218
  0
LINE
  5
3AA
100
AcDbEntity
  8
ASSI
100
AcDbLine
 62
250
  6
CONTINUOUS
 10
1.1327997346
 20
22.727113278
 11
1.1431963884
 21
22.4285404907
  0
LINE
  5
3AB
100
AcDbEntity
  8
ASSI
100
AcDbLine
 62
250
  6
CONTINUOUS
 10
2.0191036073
 20
-22.6196340126
 11
2.0092055862
 21
-22.3271588353
  0
LINE
  5
3AC
100
AcDbEntity
  8
ASSI
100
AcDbLine
 62
250
  6
CONTINUOUS
 10
1.1226674174
 20
23.05
 11
1.1327997346
 21
22.727113278
  0
LWPOLYLINE
  5
3AD
100
AcDbEntity
  8
ASSI
100
AcDbPolyline
 62
250
  6
CONTINUOUS
 90
3
 70
0
 10
2.0319188519
 20
-23.05
 10
2.0287775883
 20
-22.9381092178
 10
2.0191036073
 20
-22.6196340126
  0
LWPOLYLINE
  5
3AE
100
AcDbEntity
  8
ASSI
100
AcDbPolyline
 62
250
  6
CONTINUOUS
 90
7
 70
0
 10
-0.7746808123
 20
23.1974556849
 10
-0.7750174322
 20
23.2129921061
 10
-0.7753850453
 20
23.226040498
 10
-0.7757780405
 20
23.2364017286
 10
-0.7761904192
 20
23.2439176641
 10
-0.7766158862
 20
23.2484735949
 10
-0.7770479472
 20
23.25
  0
LWPOLYLINE
  5
3AF
100
AcDbEntity
  8
ASSI
100
AcDbPolyline
 62
250
  6
CONTINUOUS
 90
7
 70
0
 10
0.9362216885
 20
23.1974545668
 10
0.9358850693
 20
23.2129912073
 10
0.9355174547
 20
23.2260398565
 10
0.9351244564
 20
23.2364013323
 10
0.9347120731
 20
23.2439174712
 10
0.9342865999
 20
23.2484735426
 10
0.9338545313
 20
23.25
  0
LINE
  5
3B0
100
AcDbEntity
  8
ASSI
100
AcDbLine
 62
250
  6
CONTINUOUS
 10
-0.7741205553
 20
23.1599016216
 11
-0.7746808123
 21
23.1974556849
  0
LINE
  5
3B1
100
AcDbEntity
  8
ASSI
100
AcDbLine
 62
250
  6
CONTINUOUS
 10
0.9367819393
 20
23.1599003106
 11
0.9362216885
 21
23.1974545668
  0
LINE
  5
3B2
100
AcDbEntity
  8
ASSI
100
AcDbLine
 62
250
  6
CONTINUOUS
 10
-0.7737383557
 20
23.1156623051
 11
-0.7741205553
 21
23.1599016216
  0
LINE
  5
3B3
100
AcDbEntity
  8
ASSI
100
AcDbLine
 62
250
  6
CONTINUOUS
 10
0.9371641296
 20
23.1156613367
 11
0.9367819393
 21
23.1599003106
  0
LINE
  5
3B4
100
AcDbEntity
  8
ASSI
100
AcDbLine
 62
250
  6
CONTINUOUS
 10
-0.7735574667
 20
23.0674284937
 11
-0.7737383557
 21
23.1156623051
  0
LINE
  5
3B5
100
AcDbEntity
  8
ASSI
100
AcDbLine
 62
250
  6
CONTINUOUS
 10
0.9373450127
 20
23.0674284937
 11
0.9371641296
 21
23.1156613367
  0
LINE
  5
3B6
100
AcDbEntity
  8
CURVE
100
AcDbLine
 62
250
  6
CONTINUOUS
 10
-0.1191851416
 20
12.56092
 11
-0.1191851416
 21
13.537186
  0
LINE
  5
3B7
100
AcDbEntity
  8
CURVE
100
AcDbLine
 62
250
  6
CONTINUOUS
 10
-0.0989844669
 20
-5.5801061494
 11
-0.0989844669
 21
-5.9379402968
  0
LINE
  5
3B8
100
AcDbEntity
  8
CURVE
100
AcDbLine
 62
250
  6
CONTINUOUS
 10
0.1632873458
 20
13.537186
 11
0.1632873458
 21
12.56092
  0
LINE
  5
3B9
100
AcDbEntity
  8
CURVE
100
AcDbLine
 62
250
  6
CONTINUOUS
 10
0.3922465263
 20
-5.9171783582
 11
0.3922465263
 21
-5.5814557879
  0
LINE
  5
3BA
100
AcDbEntity
  8
CURVE
100
AcDbLine
 62
250
  6
CONTINUOUS
 10
0.5039204038
 20
-8.27142
 11
0.5039204038
 21
-7.671933
  0
LINE
  5
3BB
100
AcDbEntity
  8
CURVE
100
AcDbLine
 62
250
  6
CONTINUOUS
 10
0.5288185076
 20
14.467742
 11
0.5288185076
 21
15.340149
  0
LINE
  5
3BC
100
AcDbEntity
  8
ASSI
100
AcDbLine
 62
7
  6
CONTINUOUS
 10
0.5736496773
 20
21.6887362603
 11
0.5736496773
 21
21.3423471075
  0
LINE
  5
3BD
100
AcDbEntity
  8
RACCORDO
100
AcDbLine
 62
7
  6
CONTINUOUS
 10
0.5736496773
 20
-20.9865501352
 11
0.5736496773
 21
-21.3423471075
  0
LINE
  5
3BE
100
AcDbEntity
  8
ASSI
100
AcDbLine
 62
7
  6
CONTINUOUS
 10
0.5736496773
 20
-21.3423471075
 11
0.5736496773
 21
-21.6887362603
  0
LINE
  5
3BF
100
AcDbEntity
  8
RACCORDO
100
AcDbLine
 62
7
  6
CONTINUOUS
 10
0.5736496773
 20
20.9865501352
 11
0.5736496773
 21
21.3423471075
  0
LINE
  5
3C0
100
AcDbEntity
  8
DRAFT
100
AcDbLine
 62
7
  6
CONTINUOUS
 10
0.6736496773
 20
-21.718583276
 11
0.6736496773
 21
-20.9871095356
  0
LINE
  5
3C1
100
AcDbEntity
  8
ASSI
100
AcDbLine
 62
7
  6
CONTINUOUS
 10
0.6736496773
 20
-21.718583276
 11
0.6736496773
 21
-20.9871095356
  0
LINE
  5
3C2
100
AcDbEntity
  8
DRAFT
100
AcDbLine
 62
7
  6
CONTINUOUS
 10
0.6736496773
 20
20.9871095356
 11
0.6736496773
 21
21.718583276
  0
LINE
  5
3C3
100
AcDbEntity
  8
ASSI
100
AcDbLine
 62
7
  6
CONTINUOUS
 10
0.6736496773
 20
20.9871095356
 11
0.6736496773
 21
21.718583276
  0
LINE
  5
3C4
100
AcDbEntity
  8
CURVE
100
AcDbLine
 62
250
  6
CONTINUOUS
 10
0.8112929949
 20
15.423235
 11
0.8112929949
 21
14.3805
  0
LINE
  5
3C5
100
AcDbEntity
  8
CURVE
100
AcDbLine
 62
250
  6
CONTINUOUS
 10
0.9672611166
 20
-7.546799
 11
0.9672611166
 21
-8.399501
  0
LINE
  5
3C6
100
AcDbEntity
  8
CURVE
100
AcDbLine
 62
250
  6
CONTINUOUS
 10
1.2890216119
 20
7.507485
 11
1.2890216119
 21
8.450515
  0
LINE
  5
3C7
100
AcDbEntity
  8
CURVE
100
AcDbLine
 62
250
  6
CONTINUOUS
 10
1.2890216119
 20
12.56092
 11
1.2890216119
 21
13.620272
  0
LINE
  5
3C8
100
AcDbEntity
  8
CURVE
100
AcDbLine
 62
250
  6
CONTINUOUS
 10
1.5660505139
 20
-6.724667
 11
1.5660505139
 21
-7.384595
  0
LINE
  5
3C9
100
AcDbEntity
  8
CURVE
100
AcDbLine
 62
250
  6
CONTINUOUS
 10
1.5660505139
 20
-8.572277
 11
1.5660505139
 21
-9.191626
  0
LINE
  5
3CA
100
AcDbEntity
  8
CURVE
100
AcDbLine
 62
250
  6
CONTINUOUS
 10
1.5660505139
 20
-9.289947
 11
1.5660505139
 21
-9.902481
  0
LINE
  5
3CB
100
AcDbEntity
  8
CURVE
100
AcDbLine
 62
250
  6
CONTINUOUS
 10
1.5660505139
 20
-10.775607
 11
1.5660505139
 21
-10.863423
  0
LINE
  5
3CC
100
AcDbEntity
  8
CURVE
100
AcDbLine
 62
250
  6
CONTINUOUS
 10
1.5660505139
 20
-11.733085
 11
1.5660505139
 21
-12.3321
  0
LINE
  5
3CD
100
AcDbEntity
  8
CURVE
100
AcDbLine
 62
250
  6
CONTINUOUS
 10
1.5660505139
 20
-14.491881
 11
1.5660505139
 21
-15.04367
  0
LINE
  5
3CE
100
AcDbEntity
  8
CURVE
100
AcDbLine
 62
250
  6
CONTINUOUS
 10
1.5660505139
 20
-13.295314
 11
1.5660505139
 21
-12.669172
  0
LINE
  5
3CF
100
AcDbEntity
  8
CURVE
100
AcDbLine
 62
250
  6
CONTINUOUS
 10
1.5660501819
 20
-6.540801309
 11
1.5660501819
 21
-5.9171783582
  0
LINE
  5
3D0
100
AcDbEntity
  8
CURVE
100
AcDbLine
 62
250
  6
CONTINUOUS
 10
1.5660501819
 20
-4.9583277046
 11
1.5660501819
 21
-4.3560515357
  0
LINE
  5
3D1
100
AcDbEntity
  8
CURVE
100
AcDbLine
 62
250
  6
CONTINUOUS
 10
1.5714870998
 20
9.218115
 11
1.5714870998
 21
8.864998
  0
LINE
  5
3D2
100
AcDbEntity
  8
CURVE
100
AcDbLine
 62
250
  6
CONTINUOUS
 10
1.5714930994
 20
13.620272
 11
1.5714930994
 21
12.207804
  0
LINE
  5
3D3
100
AcDbEntity
  8
CURVE
100
AcDbLine
 62
250
  6
CONTINUOUS
 10
1.5714930994
 20
11.658092
 11
1.5714930994
 21
11.109694
  0
LINE
  5
3D4
100
AcDbEntity
  8
CURVE
100
AcDbLine
 62
250
  6
CONTINUOUS
 10
1.5714930994
 20
10.100196
 11
1.5714930994
 21
9.772004
  0
LINE
  5
3D5
100
AcDbEntity
  8
CURVE
100
AcDbLine
 62
250
  6
CONTINUOUS
 10
1.5714930994
 20
8.450515
 11
1.5714930994
 21
7.154368
  0
LINE
  5
3D6
100
AcDbEntity
  8
CURVE
100
AcDbLine
 62
250
  6
CONTINUOUS
 10
1.5715020987
 20
16.000685
 11
1.5715020987
 21
15.635077
  0
LINE
  5
3D7
100
AcDbEntity
  8
CURVE
100
AcDbLine
 62
250
  6
CONTINUOUS
 10
1.5715020987
 20
14.168628
 11
1.5715020987
 21
13.815513
  0
LINE
  5
3D8
100
AcDbEntity
  8
ASSI
100
AcDbLine
 62
250
  6
CONTINUOUS
 10
-0.7737383555
 20
-23.1156622585
 11
-0.7735574667
 21
-23.0674284938
  0
LINE
  5
3D9
100
AcDbEntity
  8
ASSI
100
AcDbLine
 62
250
  6
CONTINUOUS
 10
0.9373450124
 20
-23.0674284937
 11
0.9371641293
 21
-23.1156613329
  0
LINE
  5
3DA
100
AcDbEntity
  8
ASSI
100
AcDbLine
 62
250
  6
CONTINUOUS
 10
-0.7741205546
 20
-23.1599015586
 11
-0.7737383555
 21
-23.1156622585
  0
LINE
  5
3DB
100
AcDbEntity
  8
ASSI
100
AcDbLine
 62
250
  6
CONTINUOUS
 10
0.9371641293
 20
-23.1156613329
 11
0.936781939
 21
-23.1599003065
  0
LWPOLYLINE
  5
3DC
100
AcDbEntity
  8
CURVE
100
AcDbPolyline
 62
250
  6
CONTINUOUS
 90
46
 70
0
 10
0.3922465263
 20
-5.5814557879
 10
0.3923643989
 20
-5.5718236396
 10
0.39272054
 20
-5.5621831607
 10
0.3933187348
 20
-5.5525436423
 10
0.3941627682
 20
-5.5429143754
 10
0.3952564253
 20
-5.5333046513
 10
0.396603491
 20
-5.5237237609
 10
0.3982077505
 20
-5.5141809953
 10
0.4000729888
 20
-5.5046856456
 10
0.4022029909
 20
-5.4952470028
 10
0.4046015418
 20
-5.4858743582
 10
0.4072724267
 20
-5.4765770026
 10
0.4102194304
 20
-5.4673642272
 10
0.4134515303
 20
-5.4582265312
 10
0.4169586974
 20
-5.4491898878
 10
0.4207349599
 20
-5.4402610978
 10
0.4247743461
 20
-5.4314469618
 10
0.4290708841
 20
-5.4227542806
 10
0.4336186023
 20
-5.4141898549
 10
0.4384115289
 20
-5.4057604854
 10
0.4434436921
 20
-5.3974729729
 10
0.4487091202
 20
-5.389334118
 10
0.4542018415
 20
-5.3813507215
 10
0.4599158841
 20
-5.3735295841
 10
0.4658452764
 20
-5.3658775065
 10
0.4726712713
 20
-5.3575882218
 10
0.4797440146
 20
-5.3495142384
 10
0.4870522843
 20
-5.3416541832
 10
0.4945848587
 20
-5.3340066834
 10
0.5023305156
 20
-5.326570366
 10
0.5102780334
 20
-5.3193438579
 10
0.51841619
 20
-5.3123257862
 10
0.5267337636
 20
-5.305514778
 10
0.5352195323
 20
-5.2989094603
 10
0.5438622741
 20
-5.2925084601
 10
0.5526507672
 20
-5.2863104045
 10
0.5624247521
 20
-5.2797584936
 10
0.5723531506
 20
-5.2734508764
 10
0.5824292241
 20
-5.2673903851
 10
0.592646234
 20
-5.2615798516
 10
0.6029974418
 20
-5.2560221081
 10
0.6134761089
 20
-5.2507199866
 10
0.6240754969
 20
-5.2456763193
 10
0.634788867
 20
-5.2408939382
 10
0.6456094809
 20
-5.2363756754
 10
0.6565306
 20
-5.232124363
  0
LWPOLYLINE
  5
3DD
100
AcDbEntity
  8
ASSI
100
AcDbPolyline
 62
250
  6
CONTINUOUS
 90
8
 70
0
 10
0.936781939
 20
-23.1599003065
 10
0.9362216881
 20
-23.1974545646
 10
0.9358850689
 20
-23.2129912057
 10
0.9355174543
 20
-23.2260398555
 10
0.9351244559
 20
-23.2364013317
 10
0.9347120726
 20
-23.243917471
 10
0.9342865994
 20
-23.2484735426
 10
0.9338545308
 20
-23.25
  0
LINE
  5
3DE
100
AcDbEntity
  8
ASSI
100
AcDbLine
 62
250
  6
CONTINUOUS
 10
2.0206033059
 20
22.666681418
 11
2.031918852
 21
23.05
  0
LINE
  5
3DF
100
AcDbEntity
  8
ASSI
100
AcDbLine
 62
250
  6
CONTINUOUS
 10
1.1346382428
 20
-22.6721266233
 11
1.1226674175
 21
-23.05
  0
LINE
  5
3E0
100
AcDbEntity
  8
ASSI
100
AcDbLine
 62
250
  6
CONTINUOUS
 10
2.008471824
 20
22.3066203852
 11
2.0206033059
 21
22.666681418
  0
LINE
  5
3E1
100
AcDbEntity
  8
ASSI
100
AcDbLine
 62
250
  6
CONTINUOUS
 10
1.1473719832
 20
-22.316364536
 11
1.1346382428
 21
-22.6721266233
  0
LINE
  5
3E2
100
AcDbEntity
  8
ASSI
100
AcDbLine
 62
250
  6
CONTINUOUS
 10
1.995760938
 20
21.9716280977
 11
2.008471824
 21
22.3066203852
  0
LINE
  5
3E3
100
AcDbEntity
  8
ASSI
100
AcDbLine
 62
250
  6
CONTINUOUS
 10
1.1561835871
 20
-22.0921549578
 11
1.1473719832
 21
-22.316364536
  0
LINE
  5
3E4
100
AcDbEntity
  8
ASSI
100
AcDbLine
 62
250
  6
CONTINUOUS
 10
2.2014352345
 20
22.7775871378
 11
2.2130682636
 21
23.0674284937
  0
LINE
  5
3E5
100
AcDbEntity
  8
ASSI
100
AcDbLine
 62
250
  6
CONTINUOUS
 10
1.9846501718
 20
21.707142348
 11
1.995760938
 21
21.9716280977
  0
LINE
  5
3E6
100
AcDbEntity
  8
ASSI
100
AcDbLine
 62
250
  6
CONTINUOUS
 10
0.9496419278
 20
-22.7825191052
 11
0.9373450123
 21
-23.0674284937
  0
LINE
  5
3E7
100
AcDbEntity
  8
ASSI
100
AcDbLine
 62
250
  6
CONTINUOUS
 10
2.1906261229
 20
22.5326151743
 11
2.2014352345
 21
22.7775871378
  0
LWPOLYLINE
  5
3E8
100
AcDbEntity
  8
ASSI
100
AcDbPolyline
 62
250
  6
CONTINUOUS
 90
16
 70
0
 10
1.1226674173
 20
23.05
 10
1.1236556285
 20
23.0709056931
 10
1.1266094352
 20
23.0915823387
 10
1.1314964746
 20
23.1118033991
 10
1.1382632032
 20
23.1313473282
 10
1.1468354833
 20
23.1499999986
 10
1.1571193953
 20
23.1675570483
 10
1.1690022664
 20
23.1838261184
 10
1.1823539054
 20
23.1986289616
 10
1.1970280293
 20
23.2118033953
 10
1.2128638652
 20
23.2232050773
 10
1.2296879125
 20
23.2327090885
 10
1.247315844
 20
23.240211301
 10
1.2655545247
 20
23.245629519
 10
1.2842041276
 20
23.2489043787
 10
1.3030603239
 20
23.25
  0
LINE
  5
3E9
100
AcDbEntity
  8
ASSI
100
AcDbLine
 62
250
  6
CONTINUOUS
 10
0.9609704403
 20
-22.5418997562
 11
0.9496419278
 21
-22.7825191052
  0
LINE
  5
3EA
100
AcDbEntity
  8
ASSI
100
AcDbLine
 62
250
  6
CONTINUOUS
 10
2.1793438558
 20
22.2978477887
 11
2.1906261229
 21
22.5326151743
  0
LINE
  5
3EB
100
AcDbEntity
  8
ASSI
100
AcDbLine
 62
250
  6
CONTINUOUS
 10
2.167700115
 20
22.073881219
 11
2.1793438558
 21
22.2978477887
  0
LINE
  5
3EC
100
AcDbEntity
  8
ASSI
100
AcDbLine
 62
250
  6
CONTINUOUS
 10
2.1558481594
 20
21.8616219481
 11
2.167700115
 21
22.073881219
  0
LINE
  5
3ED
100
AcDbEntity
  8
ASSI
100
AcDbLine
 62
250
  6
CONTINUOUS
 10
2.1465460244
 20
21.7057295043
 11
2.1558481594
 21
21.8616219481
  0
LWPOLYLINE
  5
3EE
100
AcDbEntity
  8
ASSI
100
AcDbPolyline
 62
250
  6
CONTINUOUS
 90
3
 70
0
 10
-2.4468405336
 20
-21.771508687
 10
-2.4537255818
 20
-21.8600768784
 10
-2.4675235402
 20
-22.0465680259
  0
LWPOLYLINE
  5
3EF
100
AcDbEntity
  8
CURVE
100
AcDbPolyline
 62
250
  6
CONTINUOUS
 90
49
 70
0
 10
-0.9400376045
 20
-5.4474141935
 10
-0.9385550102
 20
-5.4359682526
 10
-0.9367642583
 20
-5.424521598
 10
-0.934666166
 20
-5.4130867686
 10
-0.9322615501
 20
-5.4016763033
 10
-0.9295512275
 20
-5.3903027411
 10
-0.9265360152
 20
-5.3789786209
 10
-0.9232167302
 20
-5.3677164817
 10
-0.9195941894
 20
-5.3565288625
 10
-0.9156692097
 20
-5.3454283021
 10
-0.9114426081
 20
-5.3344273396
 10
-0.9069152015
 20
-5.3235385138
 10
-0.9020878069
 20
-5.3127743637
 10
-0.8969612413
 20
-5.3021474284
 10
-0.8915363215
 20
-5.2916702466
 10
-0.8858138645
 20
-5.2813553574
 10
-0.8797946873
 20
-5.2712152997
 10
-0.8734796068
 20
-5.2612626124
 10
-0.86686944
 20
-5.2515098346
 10
-0.8599650037
 20
-5.2419695051
 10
-0.852767115
 20
-5.2326541629
 10
-0.8452765908
 20
-5.223576347
 10
-0.8374942481
 20
-5.2147485963
 10
-0.8294209037
 20
-5.2061834496
 10
-0.8210573746
 20
-5.1978934461
 10
-0.8124090466
 20
-5.1898918212
 10
-0.8034851696
 20
-5.1821814186
 10
-0.7942994024
 20
-5.1747659376
 10
-0.7848654039
 20
-5.1676490773
 10
-0.7751968331
 20
-5.160834537
 10
-0.7653073489
 20
-5.1543260156
 10
-0.7552106102
 20
-5.1481272125
 10
-0.744920276
 20
-5.1422418268
 10
-0.734450005
 20
-5.1366735576
 10
-0.7238134563
 20
-5.1314261042
 10
-0.7130242888
 20
-5.1265031656
 10
-0.7020961613
 20
-5.121908441
 10
-0.6910427329
 20
-5.1176456297
 10
-0.6798776623
 20
-5.1137184307
 10
-0.6686146086
 20
-5.1101305433
 10
-0.6572672307
 20
-5.1068856666
 10
-0.6458491874
 20
-5.1039874997
 10
-0.6343741376
 20
-5.1014397418
 10
-0.6228557404
 20
-5.0992460922
 10
-0.6113076546
 20
-5.0974102499
 10
-0.5997435391
 20
-5.0959359141
 10
-0.5881770529
 20
-5.094826784
 10
-0.5766218548
 20
-5.0940865587
 10
-0.5650916038
 20
-5.0937189375
  0
LINE
  5
3F0
100
AcDbEntity
  8
ASSI
100
AcDbLine
 62
7
  6
CONTINUOUS
 10
-8.086630555
 20
-24.401763809
 11
-7.9745265198
 21
-23.9833858537
  0
LINE
  5
3F1
100
AcDbEntity
  8
ASSI
100
AcDbLine
 62
250
  6
CONTINUOUS
 10
5.537934209
 20
22.5888225608
 11
5.5086691767
 21
22.4806437906
  0
LWPOLYLINE
  5
3F2
100
AcDbEntity
  8
RACCORDO
100
AcDbPolyline
 62
250
  6
CONTINUOUS
 90
8
 70
0
 10
-7.6228598414
 20
-22.7034300864
 10
-7.6225142833
 20
-22.7023286992
 10
-7.6222107371
 20
-22.6990493304
 10
-7.6219525271
 20
-22.6936278953
 10
-7.6217424814
 20
-22.6861237699
 10
-7.6215829001
 20
-22.6766191378
 10
-7.6214755311
 20
-22.6652180872
 10
-7.6214215489
 20
-22.6372455893
  0
LWPOLYLINE
  5
3F3
100
AcDbEntity
  8
CURVE
100
AcDbPolyline
 62
250
  6
CONTINUOUS
 90
30
 70
0
 10
-1.3667382992
 20
-4.9955777265
 10
-1.3782758026
 20
-5.0289995332
 10
-1.3888892155
 20
-5.0627311232
 10
-1.3986224947
 20
-5.0967437668
 10
-1.407519597
 20
-5.1310087345
 10
-1.4156244791
 20
-5.1654972967
 10
-1.4229810978
 20
-5.2001807237
 10
-1.4296334098
 20
-5.235030286
 10
-1.4356253719
 20
-5.2700172541
 10
-1.4410009408
 20
-5.3051128982
 10
-1.4458040734
 20
-5.3402884889
 10
-1.4500787263
 20
-5.3755152965
 10
-1.4558288609
 20
-5.4310696289
 10
-1.4604345727
 20
-5.4866711798
 10
-1.4639542413
 20
-5.5423113438
 10
-1.4664462463
 20
-5.5979815157
 10
-1.4679689674
 20
-5.6536730903
 10
-1.4685807841
 20
-5.7093774624
 10
-1.4683400761
 20
-5.7650860267
 10
-1.4670551713
 20
-5.8300214149
 10
-1.4647481823
 20
-5.8949379191
 10
-1.461476219
 20
-5.9598226527
 10
-1.4572963917
 20
-6.0246627288
 10
-1.4522658105
 20
-6.0894452605
 10
-1.4464415856
 20
-6.1541573611
 10
-1.4384888555
 20
-6.2316939686
 10
-1.4295879584
 20
-6.3091186509
 10
-1.4198510111
 20
-6.3864394244
 10
-1.4093901308
 20
-6.463664305
 10
-1.3983174344
 20
-6.540801309
  0
LINE
  5
3F4
100
AcDbEntity
  8
CURVE
100
AcDbLine
 62
7
  6
CONTINUOUS
 10
-1.4013048835
 20
8.864998
 11
-1.0481878835
 21
9.218115
  0
LINE
  5
3F5
100
AcDbEntity
  8
CURVE
100
AcDbLine
 62
7
  6
CONTINUOUS
 10
-0.4942988835
 20
9.772004
 11
-0.1661068835
 21
10.100196
  0
LINE
  5
3F6
100
AcDbEntity
  8
CURVE
100
AcDbLine
 62
7
  6
CONTINUOUS
 10
0.4086247421
 20
10.6749276256
 11
0.9413495657
 21
11.2076524492
  0
LINE
  5
3F7
100
AcDbEntity
  8
CURVE
100
AcDbLine
 62
7
  6
CONTINUOUS
 10
1.0635701165
 20
11.329873
 11
1.3917891165
 21
11.658092
  0
LINE
  5
3F8
100
AcDbEntity
  8
CURVE
100
AcDbLine
 62
7
  6
CONTINUOUS
 10
-0.9812834555
 20
8.864998
 11
-0.6281664555
 21
9.218115
  0
LINE
  5
3F9
100
AcDbEntity
  8
CURVE
100
AcDbLine
 62
7
  6
CONTINUOUS
 10
-0.0742774555
 20
9.772004
 11
0.2539145445
 21
10.100196
  0
LINE
  5
3FA
100
AcDbEntity
  8
CURVE
100
AcDbLine
 62
7
  6
CONTINUOUS
 10
1.0794505872
 20
10.9257320427
 11
1.5714930994
 21
11.4177745549
  0
LINE
  5
3FB
100
AcDbEntity
  8
CURVE
100
AcDbLine
 62
7
  6
CONTINUOUS
 10
-0.5612620275
 20
8.864998
 11
-0.2081450275
 21
9.218115
  0
LINE
  5
3FC
100
AcDbEntity
  8
CURVE
100
AcDbLine
 62
7
  6
CONTINUOUS
 10
0.3457439725
 20
9.772004
 11
0.6739359725
 21
10.100196
  0
LINE
  5
3FD
100
AcDbEntity
  8
CURVE
100
AcDbLine
 62
250
  6
CONTINUOUS
 10
4.2879353788
 20
13.4285712242
 11
4.5736496773
 21
13.7142858505
  0
LINE
  5
3FE
100
AcDbEntity
  8
CURVE
100
AcDbLine
 62
250
  6
CONTINUOUS
 10
3.4307924833
 20
12.5714285374
 11
3.7165068116
 21
12.8571429253
  0
LINE
  5
3FF
100
AcDbEntity
  8
CURVE
100
AcDbLine
 62
7
  6
CONTINUOUS
 10
-0.1412405995
 20
8.864998
 11
0.2118764005
 21
9.218115
  0
LINE
  5
400
100
AcDbEntity
  8
CURVE
100
AcDbLine
 62
7
  6
CONTINUOUS
 10
0.7657654005
 20
9.772004
 11
1.0939574005
 21
10.100196
  0
LINE
  5
401
100
AcDbEntity
  8
CURVE
100
AcDbLine
 62
7
  6
CONTINUOUS
 10
-1.4318491714
 20
7.154368
 11
-1.0787321714
 21
7.507485
  0
LINE
  5
402
100
AcDbEntity
  8
CURVE
100
AcDbLine
 62
7
  6
CONTINUOUS
 10
0.2787808286
 20
8.864998
 11
0.6318978286
 21
9.218115
  0
LINE
  5
403
100
AcDbEntity
  8
CURVE
100
AcDbLine
 62
7
  6
CONTINUOUS
 10
1.1857868286
 20
9.772004
 11
1.5139788286
 21
10.100196
  0
LINE
  5
404
100
AcDbEntity
  8
CURVE
100
AcDbLine
 62
250
  6
CONTINUOUS
 10
2.859363946
 20
11.2857143879
 11
2.5736496773
 21
11.0
  0
LINE
  5
405
100
AcDbEntity
  8
CURVE
100
AcDbLine
 62
7
  6
CONTINUOUS
 10
-1.0118277434
 20
7.154368
 11
-0.6587107434
 21
7.507485
  0
LINE
  5
406
100
AcDbEntity
  8
CURVE
100
AcDbLine
 62
7
  6
CONTINUOUS
 10
0.6988022566
 20
8.864998
 11
1.0519192566
 21
9.218115
  0
LINE
  5
407
100
AcDbEntity
  8
CURVE
100
AcDbLine
 62
7
  6
CONTINUOUS
 10
-0.5918063154
 20
7.154368
 11
-0.2386893154
 21
7.507485
  0
LINE
  5
408
100
AcDbEntity
  8
CURVE
100
AcDbLine
 62
7
  6
CONTINUOUS
 10
1.1188236846
 20
8.864998
 11
1.4719406846
 21
9.218115
  0
LINE
  5
409
100
AcDbEntity
  8
CURVE
100
AcDbLine
 62
7
  6
CONTINUOUS
 10
-0.1717848874
 20
7.154368
 11
0.1813321126
 21
7.507485
  0
LINE
  5
40A
100
AcDbEntity
  8
CURVE
100
AcDbLine
 62
7
  6
CONTINUOUS
 10
1.5388451126
 20
8.864998
 11
1.5714870998
 21
8.8976399872
  0
LINE
  5
40B
100
AcDbEntity
  8
CURVE
100
AcDbLine
 62
7
  6
CONTINUOUS
 10
0.2482365407
 20
7.154368
 11
0.6013535407
 21
7.507485
  0
LINE
  5
40C
100
AcDbEntity
  8
CURVE
100
AcDbLine
 62
7
  6
CONTINUOUS
 10
1.2890216119
 20
8.1951530712
 11
1.5443835407
 21
8.450515
  0
LINE
  5
40D
100
AcDbEntity
  8
CURVE
100
AcDbLine
 62
7
  6
CONTINUOUS
 10
0.6682579687
 20
7.154368
 11
1.0213749687
 21
7.507485
  0
LINE
  5
40E
100
AcDbEntity
  8
CURVE
100
AcDbLine
 62
7
  6
CONTINUOUS
 10
1.2890216119
 20
7.7751316432
 11
1.5714930994
 21
8.0576031307
  0
LINE
  5
40F
100
AcDbEntity
  8
CURVE
100
AcDbLine
 62
250
  6
CONTINUOUS
 10
4.2879353788
 20
10.5714285374
 11
4.5736496773
 21
10.8571428061
  0
LINE
  5
410
100
AcDbEntity
  8
CURVE
100
AcDbLine
 62
250
  6
CONTINUOUS
 10
2.5736496773
 20
12.5714285374
 11
2.859363946
 21
12.8095238209
  0
LINE
  5
411
100
AcDbEntity
  8
CURVE
100
AcDbLine
 62
250
  6
CONTINUOUS
 10
2.5736496773
 20
14.1428570747
 11
2.859363946
 21
14.3333334923
  0
LINE
  5
412
100
AcDbEntity
  8
CURVE
100
AcDbLine
 62
250
  6
CONTINUOUS
 10
-1.4318691699
 20
15.132433
 11
1.5715020987
 21
16.000685
  0
LWPOLYLINE
  5
413
100
AcDbEntity
  8
ASSI
100
AcDbPolyline
 62
250
  6
CONTINUOUS
 90
10
 70
0
 10
-1.3189772423
 20
-23.0325715064
 10
-1.3420993445
 20
-23.0338600685
 10
-1.364862845
 20
-23.0353661158
 10
-1.386961006
 20
-23.0370693544
 10
-1.4080960552
 20
-23.0389468334
 10
-1.4279831978
 20
-23.0409732536
 10
-1.4463544542
 20
-23.0431213092
 10
-1.4629622717
 20
-23.0453620552
 10
-1.4775828597
 20
-23.0476652975
 10
-1.4900192055
 20
-23.05
  0
LINE
  5
414
100
AcDbEntity
  8
0
100
AcDbLine
 62
7
  6
CONTINUOUS
 10
-8.5447307994
 20
-22.9586118372
 11
-7.4263503227
 21
-22.9
  0
LWPOLYLINE
  5
415
100
AcDbEntity
  8
ASSI
100
AcDbPolyline
 62
250
  6
CONTINUOUS
 90
10
 70
0
 10
2.2117354897
 20
-23.0325715281
 10
2.1865822968
 20
-23.0337104046
 10
2.1618857993
 20
-23.0351089988
 10
2.1380397526
 20
-23.0367450119
 10
2.1154243531
 20
-23.0385923598
 10
2.0944001762
 20
-23.0406215887
 10
2.0753024275
 20
-23.0428003451
 10
2.058435598
 20
-23.0450938913
 10
2.0440686091
 20
-23.0474656596
 10
2.0324305254
 20
-23.049877835
  0
LINE
  5
416
100
AcDbEntity
  8
RACCORDO
100
AcDbLine
 62
250
  6
CONTINUOUS
 10
-5.929840804
 20
-21.5526753901
 11
-0.7385660768
 21
-21.3655459497
  0
LINE
  5
417
100
AcDbEntity
  8
RACCORDO
100
AcDbLine
 62
7
  6
CONTINUOUS
 10
-5.933330222
 20
-21.8932595896
 11
-0.7263503227
 21
-21.7114278447
  0
LINE
  5
418
100
AcDbEntity
  8
ASSI
100
AcDbLine
 62
7
  6
CONTINUOUS
 10
-1.5481350672
 20
-21.7401252004
 11
-5.933330222
 21
-21.8932595896
  0
LINE
  5
419
100
AcDbEntity
  8
ASSI
100
AcDbLine
 62
250
  6
CONTINUOUS
 10
-0.7385660768
 20
-21.3655459497
 11
0.5736496773
 21
-21.3423471075
  0
LINE
  5
41A
100
AcDbEntity
  8
RACCORDO
100
AcDbLine
 62
7
  6
CONTINUOUS
 10
-7.6228598414
 20
-22.7034300864
 11
-8.2599935011
 21
-22.7145512958
  0
LINE
  5
41B
100
AcDbEntity
  8
RACCORDO
100
AcDbLine
 62
250
  6
CONTINUOUS
 10
-8.0218460124
 20
-22.5104248769
 11
-7.6228598414
 21
-22.5034605474
  0
LINE
  5
41C
100
AcDbEntity
  8
DRAFT
100
AcDbLine
 62
7
  6
CONTINUOUS
 10
-8.9263503227
 20
-22.0261825974
 11
-7.4263503227
 21
-22.0
  0
LINE
  5
41D
100
AcDbEntity
  8
ASSI
100
AcDbLine
 62
7
  6
CONTINUOUS
 10
7.0736496773
 20
-21.5752783383
 11
5.3725952788
 21
-21.6049703533
  0
LINE
  5
41E
100
AcDbEntity
  8
ASSI
100
AcDbLine
 62
7
  6
CONTINUOUS
 10
0.6730983957
 20
-21.6870003765
 11
-0.7263503227
 21
-21.7114278447
  0
LINE
  5
41F
100
AcDbEntity
  8
ASSI
100
AcDbLine
 62
250
  6
CONTINUOUS
 10
6.4696037943
 20
-21.3358600746
 11
5.4041473134
 21
-21.3544576867
  0
LINE
  5
420
100
AcDbEntity
  8
ASSI
100
AcDbLine
 62
250
  6
CONTINUOUS
 10
0.6736496773
 20
-21.4370288301
 11
0.5736496773
 21
-21.4387743365
  0
LWPOLYLINE
  5
421
100
AcDbEntity
  8
ASSI
100
AcDbPolyline
 62
250
  6
CONTINUOUS
 90
13
 70
0
 10
-0.7735574667
 20
-23.0674284937
 10
-0.8232788046
 20
-23.0682337026
 10
-0.8724174906
 20
-23.0703729707
 10
-0.9209735247
 20
-23.073846298
 10
-0.9688903734
 20
-23.0786724286
 10
-1.0162245701
 20
-23.0848326184
 10
-1.0631457156
 20
-23.0922706355
 10
-1.1096431231
 20
-23.1009564297
 10
-1.1557274794
 20
-23.1109200512
 10
-1.2016004442
 20
-23.1221954187
 10
-1.2473292377
 20
-23.1347938383
 10
-1.2928466398
 20
-23.1487040038
 10
-1.3381526505
 20
-23.1639259153
  0
LINE
  5
422
100
AcDbEntity
  8
RACCORDO
100
AcDbLine
 62
250
  6
CONTINUOUS
 10
0.5736496773
 20
-21.0597429581
 11
0.6746918298
 21
-21.0582630403
  0
LINE
  5
423
100
AcDbEntity
  8
RACCORDO
100
AcDbLine
 62
250
  6
CONTINUOUS
 10
5.5144978989
 20
-20.9873766341
 11
6.4696037943
 21
-20.9733876388
  0
LINE
  5
424
100
AcDbEntity
  8
RACCORDO
100
AcDbLine
 62
250
  6
CONTINUOUS
 10
5.6364484271
 20
-20.7394260405
 11
6.1664194525
 21
-20.7316637995
  0
LINE
  5
425
100
AcDbEntity
  8
RACCORDO
100
AcDbLine
 62
250
  6
CONTINUOUS
 10
5.6890383372
 20
-20.6528044626
 11
5.7274786991
 21
-20.6522414444
  0
LWPOLYLINE
  5
426
100
AcDbEntity
  8
ASSI
100
AcDbPolyline
 62
250
  6
CONTINUOUS
 90
16
 70
0
 10
-1.8325876513
 20
-23.2494878039
 10
-1.8043998683
 20
-23.2491339938
 10
-1.7779922152
 20
-23.248552475
 10
-1.7535252256
 20
-23.2477205965
 10
-1.7310863086
 20
-23.2465882312
 10
-1.7103773015
 20
-23.2450799948
 10
-1.6911190153
 20
-23.2431935472
 10
-1.6734082375
 20
-23.2409248852
 10
-1.6570418701
 20
-23.2381990162
 10
-1.6413789241
 20
-23.2349190105
 10
-1.6264104125
 20
-23.2310725439
 10
-1.6121384567
 20
-23.2265557726
 10
-1.5979966615
 20
-23.2210498869
 10
-1.5838551881
 20
-23.2143265705
 10
-1.5700084449
 20
-23.206326999
 10
-1.5565917384
 20
-23.1969192383
  0
LWPOLYLINE
  5
427
100
AcDbEntity
  8
ASSI
100
AcDbPolyline
 62
250
  6
CONTINUOUS
 90
13
 70
0
 10
3.2792631022
 20
-23.0674284937
 10
3.2853883883
 20
-23.0673690317
 10
3.2915368721
 20
-23.0671798334
 10
3.2977085536
 20
-23.066860899
 10
3.3038774056
 20
-23.0664194341
 10
3.3100694554
 20
-23.065848233
 10
3.3163627842
 20
-23.0651256781
 10
3.3227647883
 20
-23.0642579872
 10
3.3292680714
 20
-23.0632389424
 10
3.3359285265
 20
-23.0620282725
 10
3.3427647843
 20
-23.0606125539
 10
3.3497582141
 20
-23.0590052103
 10
3.3569088157
 20
-23.0572062416
  0
LINE
  5
428
100
AcDbEntity
  8
DRAFT
100
AcDbLine
 62
7
  6
CONTINUOUS
 10
5.3736496773
 20
-21.6775669973
 11
0.6736496773
 21
-21.718583276
  0
LINE
  5
429
100
AcDbEntity
  8
ASSI
100
AcDbLine
 62
7
  6
CONTINUOUS
 10
5.3736496773
 20
-21.6775669973
 11
0.6736496773
 21
-21.718583276
  0
LINE
  5
42A
100
AcDbEntity
  8
RACCORDO
100
AcDbLine
 62
250
  6
CONTINUOUS
 10
-7.4263503227
 20
-21.2867781405
 11
-6.3228598414
 21
-21.2782255363
  0
LINE
  5
42B
100
AcDbEntity
  8
RACCORDO
100
AcDbLine
 62
250
  6
CONTINUOUS
 10
-7.4263503227
 20
-21.1384606474
 11
-6.3228598414
 21
-21.1298680779
  0
LINE
  5
42C
100
AcDbEntity
  8
RACCORDO
100
AcDbLine
 62
250
  6
CONTINUOUS
 10
0.5736496773
 20
-21.1911691186
 11
-2.9263503227
 21
-21.1934131759
  0
LINE
  5
42D
100
AcDbEntity
  8
ASSI
100
AcDbLine
 62
250
  6
CONTINUOUS
 10
-6.1263503227
 20
-22.7551793284
 11
-6.3228598414
 21
-22.7551793282
  0
LINE
  5
42E
100
AcDbEntity
  8
RACCORDO
100
AcDbLine
 62
250
  6
CONTINUOUS
 10
-7.4263503227
 20
-22.5034605474
 11
-7.6228598414
 21
-22.5034605474
  0
LINE
  5
42F
100
AcDbEntity
  8
DRAFT
100
AcDbLine
 62
7
  6
CONTINUOUS
 10
0.6736496773
 20
-20.9871095356
 11
-2.9263503227
 21
-20.9669711218
  0
LINE
  5
430
100
AcDbEntity
  8
ASSI
100
AcDbLine
 62
7
  6
CONTINUOUS
 10
0.6736496773
 20
-20.9871095356
 11
-2.9263503227
 21
-20.9669711218
  0
LWPOLYLINE
  5
431
100
AcDbEntity
  8
ASSI
100
AcDbPolyline
 62
7
  6
CONTINUOUS
 90
28
 70
0
 10
7.0736496773
 20
-21.5743956209
 10
7.0347838577
 20
-21.5741719955
 10
6.9971959511
 20
-21.573552381
 10
6.9608849096
 20
-21.57249539
 10
6.9258729705
 20
-21.5709534806
 10
6.892135537
 20
-21.5688876369
 10
6.8596013683
 20
-21.5662762959
 10
6.828251114
 20
-21.5630884563
 10
6.7981017762
 20
-21.5592874693
 10
6.7691368515
 20
-21.554856885
 10
6.7413767591
 20
-21.5497842357
 10
6.7147987794
 20
-21.544033663
 10
6.6893215901
 20
-21.5375544554
 10
6.6649531648
 20
-21.5303534334
 10
6.6416828049
 20
-21.5223795827
 10
6.6194001296
 20
-21.5134672386
 10
6.5979129481
 20
-21.5035203376
 10
6.5774085057
 20
-21.4925549415
 10
6.5583448126
 20
-21.4805603983
 10
6.5406938015
 20
-21.46747115
 10
6.5244789376
 20
-21.453333986
 10
6.5102367905
 20
-21.4383479831
 10
6.4980596984
 20
-21.4225583495
 10
6.4878537608
 20
-21.4060140348
 10
6.4798784241
 20
-21.3889695403
 10
6.474221045
 20
-21.3715703323
 10
6.4707958514
 20
-21.3538376697
 10
6.4696037943
 20
-21.3358600746
  0
LWPOLYLINE
  5
432
100
AcDbEntity
  8
RACCORDO
100
AcDbPolyline
 62
250
  6
CONTINUOUS
 90
22
 70
0
 10
-6.3228598414
 20
-21.1298680779
 10
-6.2979536097
 20
-21.1301968467
 10
-6.2727693471
 20
-21.1321622909
 10
-6.2473070537
 20
-21.1357636796
 10
-6.2213378818
 20
-21.1409598521
 10
-6.1950906792
 20
-21.1477891278
 10
-6.1692519884
 20
-21.1563691555
 10
-6.1438536356
 20
-21.1667582254
 10
-6.1188637946
 20
-21.1788918248
 10
-6.0948735305
 20
-21.1927026339
 10
-6.0719102557
 20
-21.208229606
 10
-6.0499465578
 20
-21.225424796
 10
-6.0294912646
 20
-21.2440906086
 10
-6.0105830076
 20
-21.2642063579
 10
-5.9931831554
 20
-21.2857824952
 10
-5.977684641
 20
-21.308668795
 10
-5.9640542463
 20
-21.3328051772
 10
-5.9523251894
 20
-21.3582407355
 10
-5.942990058
 20
-21.3849891014
 10
-5.9362130479
 20
-21.4130504323
 10
-5.9318299632
 20
-21.4424114529
 10
-5.929840804
 20
-21.4730651231
  0
LWPOLYLINE
  5
433
100
AcDbEntity
  8
RACCORDO
100
AcDbPolyline
 62
250
  6
CONTINUOUS
 90
22
 70
0
 10
-6.3228598414
 20
-21.2782258041
 10
-6.3105170036
 20
-21.2785639644
 10
-6.2979062953
 20
-21.2805472967
 10
-6.2850855094
 20
-21.2841758009
 10
-6.2720813129
 20
-21.2894113142
 10
-6.2590080723
 20
-21.2962919994
 10
-6.2460594507
 20
-21.3049323449
 10
-6.233332948
 20
-21.3153956709
 10
-6.2208916919
 20
-21.3276186572
 10
-6.2088697813
 20
-21.3415258311
 10
-6.1973577217
 20
-21.35716137
 10
-6.1864272412
 20
-21.3744810965
 10
-6.1761756697
 20
-21.393277006
 10
-6.1667028869
 20
-21.4135340043
 10
-6.1580580177
 20
-21.4352671857
 10
-6.1502726176
 20
-21.4583138275
 10
-6.1434544666
 20
-21.4826190347
 10
-6.137663726
 20
-21.5082377024
 10
-6.1329245083
 20
-21.5351717933
 10
-6.1293578366
 20
-21.5634219616
 10
-6.1271231126
 20
-21.5929875531
 10
-6.1263503227
 20
-21.6238685677
  0
LINE
  5
434
100
AcDbEntity
  8
DRAFT
100
AcDbLine
 62
7
  6
CONTINUOUS
 10
6.165641909
 20
-20.1111940077
 11
7.0736496773
 21
-20.1587806784
  0
LWPOLYLINE
  5
435
100
AcDbEntity
  8
RACCORDO
100
AcDbPolyline
 62
7
  6
CONTINUOUS
 90
13
 70
0
 10
-7.6158831315
 20
-18.0703365063
 10
-7.590761672
 20
-18.0723044977
 10
-7.5662052524
 20
-18.0767120827
 10
-7.542607043
 20
-18.0834917452
 10
-7.5203421328
 20
-18.092557518
 10
-7.4997712085
 20
-18.1037586433
 10
-7.4812321392
 20
-18.1168790646
 10
-7.4650224663
 20
-18.1317279875
 10
-7.4513962614
 20
-18.1480787267
 10
-7.4405685845
 20
-18.1656227813
 10
-7.4327106366
 20
-18.184079216
 10
-7.4279464637
 20
-18.2031985359
 10
-7.4263503227
 20
-18.222700263
  0
LWPOLYLINE
  5
436
100
AcDbEntity
  8
RACCORDO
100
AcDbPolyline
 62
7
  6
CONTINUOUS
 90
22
 70
0
 10
6.1664194525
 20
-20.7316637995
 10
6.1900026048
 20
-20.7353750679
 10
6.21285427
 20
-20.7403495768
 10
6.2349734403
 20
-20.746441091
 10
6.2563846745
 20
-20.7534732951
 10
6.2770603977
 20
-20.7613295101
 10
6.2969219633
 20
-20.7699959273
 10
6.3159425181
 20
-20.7793633343
 10
6.3341468336
 20
-20.7893498251
 10
6.3515356201
 20
-20.8000642182
 10
6.3681973561
 20
-20.8114970645
 10
6.3840434839
 20
-20.8235571439
 10
6.3988106788
 20
-20.83628142
 10
6.4125299732
 20
-20.8496375566
 10
6.4251705018
 20
-20.8635627828
 10
6.4363766526
 20
-20.8780612851
 10
6.4461473314
 20
-20.8931221968
 10
6.4544837403
 20
-20.90864959
 10
6.4610334804
 20
-20.9245147171
 10
6.4656785245
 20
-20.9406275716
 10
6.4685355582
 20
-20.9569418844
 10
6.4696037943
 20
-20.9733876388
  0
LINE
  5
437
100
AcDbEntity
  8
CURVE
100
AcDbLine
 62
250
  6
CONTINUOUS
 10
-1.4333600564
 20
-13.527677
 11
1.5660505139
 21
-14.491881
  0
LWPOLYLINE
  5
438
100
AcDbEntity
  8
ASSI
100
AcDbPolyline
 62
250
  6
CONTINUOUS
 90
4
 70
0
 10
5.5530301641
 20
-22.6433995292
 10
5.5551013883
 20
-22.6506098065
 10
5.5564121573
 20
-22.6549655674
 10
5.5569425044
 20
-22.6564004621
  0
LINE
  5
439
100
AcDbEntity
  8
ASSI
100
AcDbLine
 62
250
  6
CONTINUOUS
 10
5.5467436539
 20
-22.6208965609
 11
5.5530301641
 21
-22.6433995292
  0
LINE
  5
43A
100
AcDbEntity
  8
ASSI
100
AcDbLine
 62
250
  6
CONTINUOUS
 10
5.5271365505
 20
-22.5491243767
 11
5.5467436539
 21
-22.6208965609
  0
LINE
  5
43B
100
AcDbEntity
  8
ASSI
100
AcDbLine
 62
250
  6
CONTINUOUS
 10
5.5086691767
 20
-22.4806437906
 11
5.5271365505
 21
-22.5491243767
  0
LINE
  5
43C
100
AcDbEntity
  8
ASSI
100
AcDbLine
 62
7
  6
CONTINUOUS
 10
-7.9745265198
 20
23.9833858537
 11
-8.086630555
 21
24.401763809
  0
LWPOLYLINE
  5
43D
100
AcDbEntity
  8
ASSI
100
AcDbPolyline
 62
250
  6
CONTINUOUS
 90
13
 70
0
 10
5.6366133134
 20
-22.4594131032
 10
5.6414182735
 20
-22.482042081
 10
5.6453931914
 20
-22.5041212204
 10
5.6484825908
 20
-22.5253423716
 10
5.6506433541
 20
-22.5454093597
 10
5.6518453244
 20
-22.5640421175
 10
5.6520717264
 20
-22.5809805953
 10
5.6513194002
 20
-22.5959883895
 10
5.6495988457
 20
-22.6088560421
 10
5.6469340761
 20
-22.6194039647
 10
5.6433622824
 20
-22.6274849441
 10
5.6389333148
 20
-22.6329861972
 10
5.6337089865
 20
-22.6358309453
  0
LWPOLYLINE
  5
43E
100
AcDbEntity
  8
CURVE
100
AcDbPolyline
 62
250
  6
CONTINUOUS
 90
12
 70
0
 10
0.1482279803
 20
-4.9310200195
 10
0.146330591
 20
-4.9206284046
 10
0.1434316099
 20
-4.9105389597
 10
0.1396372012
 20
-4.9007293538
 10
0.1350535294
 20
-4.891177256
 10
0.1297867588
 20
-4.8818603352
 10
0.1239430538
 20
-4.8727562605
 10
0.1176285788
 20
-4.8638427008
 10
0.1109494981
 20
-4.8550973253
 10
0.1040119762
 20
-4.8464978028
 10
0.0969221774
 20
-4.8380218025
 10
0.0702607218
 20
-4.8069091413
  0
LINE
  5
43F
100
AcDbEntity
  8
ASSI
100
AcDbLine
 62
250
  6
CONTINUOUS
 10
0.9955559379
 20
21.9065224946
 11
1.0073921662
 21
21.7156707494
  0
LINE
  5
440
100
AcDbEntity
  8
ASSI
100
AcDbLine
 62
250
  6
CONTINUOUS
 10
0.9813307494
 20
22.1524189977
 11
0.9955559379
 21
21.9065224946
  0
LWPOLYLINE
  5
441
100
AcDbEntity
  8
ASSI
100
AcDbPolyline
 62
250
  6
CONTINUOUS
 90
3
 70
0
 10
0.9622054943
 20
22.5169240544
 10
0.9669839661
 20
22.4216936249
 10
0.9813307494
 20
22.1524189977
  0
LWPOLYLINE
  5
442
100
AcDbEntity
  8
ASSI
100
AcDbPolyline
 62
250
  6
CONTINUOUS
 90
16
 70
0
 10
2.0319188636
 20
23.05
 10
2.0309146802
 20
23.0709057359
 10
2.027913136
 20
23.0915824101
 10
2.0229471203
 20
23.1118034846
 10
2.0160710476
 20
23.1313474099
 10
2.007360256
 20
23.1500000644
 10
1.9969101789
 20
23.1675570988
 10
1.9848353065
 20
23.1838261581
 10
1.9712679357
 20
23.1986289915
 10
1.9563567131
 20
23.2118034161
 10
1.94026501
 20
23.2232050897
 10
1.9231691295
 20
23.2327090942
 10
1.9052563743
 20
23.2402113029
 10
1.8867229986
 20
23.2456295192
 10
1.8677720587
 20
23.2489043787
 10
1.848611185
 20
23.25
  0
LWPOLYLINE
  5
443
100
AcDbEntity
  8
ASSI
100
AcDbPolyline
 62
250
  6
CONTINUOUS
 90
3
 70
0
 10
1.1570947572
 20
22.0698280731
 10
1.1605407428
 20
21.9869269769
 10
1.1725424255
 20
21.7142295049
  0
LWPOLYLINE
  5
444
100
AcDbEntity
  8
CURVE
100
AcDbPolyline
 62
250
  6
CONTINUOUS
 90
63
 70
0
 10
2.171952371
 20
0.9999999992
 10
2.1738571106
 20
0.9140597464
 10
2.1794761747
 20
0.8281793161
 10
2.1886668309
 20
0.7424839974
 10
2.2012863472
 20
0.6570990793
 10
2.2171919912
 20
0.5721498509
 10
2.2362410306
 20
0.4877616013
 10
2.2582907334
 20
0.4040596194
 10
2.2831983672
 20
0.3211691944
 10
2.3108211997
 20
0.2392156153
 10
2.34712167
 20
0.142864958
 10
2.3869204839
 20
0.0480481056
 10
2.4300586668
 20
-0.0452111917
 10
2.4763772443
 20
-0.1368891838
 10
2.5257172419
 20
-0.2269621206
 10
2.577919685
 20
-0.315406252
 10
2.6328255991
 20
-0.4021978276
 10
2.6902760098
 20
-0.4873130975
 10
2.7617019506
 20
-0.5862992779
 10
2.8363845066
 20
-0.6828264434
 10
2.914207757
 20
-0.7768390359
 10
2.995055781
 20
-0.8682814977
 10
3.0788126577
 20
-0.9570982707
 10
3.1653624665
 20
-1.0432337971
 10
3.2545892866
 20
-1.1266325188
 10
3.3465660613
 20
-1.2073820367
 10
3.4410356393
 20
-1.2851992939
 10
3.5379196758
 20
-1.3599553578
 10
3.6371398263
 20
-1.4315212959
 10
3.7386177462
 20
-1.4997681754
 10
3.8422750908
 20
-1.5645670637
 10
3.9480335157
 20
-1.6257890282
 10
4.0403302359
 20
-1.6753280142
 10
4.1340762488
 20
-1.7220085082
 10
4.2292337384
 20
-1.7656965512
 10
4.3257648891
 20
-1.8062581845
 10
4.4213299743
 20
-1.8427223781
 10
4.5180903892
 20
-1.8759138786
 10
4.6159671274
 20
-1.9056702372
 10
4.7148811827
 20
-1.9318290052
 10
4.8122494428
 20
-1.9537094729
 10
4.9103884354
 20
-1.9718128893
 10
5.0091576203
 20
-1.9859376843
 10
5.1084164571
 20
-1.9958822878
 10
5.2061190727
 20
-2.0014212684
 10
5.3039863419
 20
-2.0027928255
 10
5.401846974
 20
-2.0000460311
 10
5.4995296783
 20
-1.9932299571
 10
5.5958037607
 20
-1.9825475579
 10
5.6916238628
 20
-1.9680582377
 10
5.7868775811
 20
-1.9498873136
 10
5.8814525123
 20
-1.9281601028
 10
5.9752362531
 20
-1.9030019226
 10
6.0681164
 20
-1.8745380902
 10
6.1599805497
 20
-1.8428939228
 10
6.2507162989
 20
-1.8081947377
 10
6.352147537
 20
-1.7652862404
 10
6.4518987504
 20
-1.7187441477
 10
6.549886514
 20
-1.6687046448
 10
6.6460274024
 20
-1.6153039168
 10
6.7402379907
 20
-1.5586781491
 10
6.8324348536
 20
-1.4989635269
 10
6.922534566
 20
-1.4362962353
  0
LWPOLYLINE
  5
445
100
AcDbEntity
  8
ASSI
100
AcDbPolyline
 62
250
  6
CONTINUOUS
 90
7
 70
0
 10
2.2119449387
 20
23.1974545547
 10
2.2116083196
 20
23.2129911992
 10
2.2112407053
 20
23.2260398518
 10
2.2108477071
 20
23.23640133
 10
2.210435324
 20
23.2439174703
 10
2.2100098509
 20
23.2484735424
 10
2.2095777825
 20
23.25
  0
LWPOLYLINE
  5
446
100
AcDbEntity
  8
CURVE
100
AcDbPolyline
 62
250
  6
CONTINUOUS
 90
44
 70
0
 10
3.671838142
 20
0.9999999992
 10
3.6724658754
 20
0.9620274517
 10
3.6743348277
 20
0.9238964675
 10
3.6774236272
 20
0.8856400864
 10
3.681710902
 20
0.8472913482
 10
3.6871752803
 20
0.8088832928
 10
3.6937953903
 20
0.77044896
 10
3.7015498602
 20
0.7320213896
 10
3.7104173181
 20
0.6936336216
 10
3.7203763924
 20
0.6553186957
 10
3.731405711
 20
0.6171096517
 10
3.7434839023
 20
0.5790395296
 10
3.7565895944
 20
0.5411413691
 10
3.7707014154
 20
0.5034482101
 10
3.7857979937
 20
0.4659930924
 10
3.8018579574
 20
0.4288090559
 10
3.8188599346
 20
0.3919291404
 10
3.8367825535
 20
0.3553863857
 10
3.8556044424
 20
0.3192138317
 10
3.8753042295
 20
0.2834445182
 10
3.8958605428
 20
0.2481114851
 10
3.9172520106
 20
0.2132477721
 10
3.9394572612
 20
0.1788864192
 10
3.9624549226
 20
0.1450604661
 10
3.986223623
 20
0.1118029528
 10
4.0107419907
 20
0.0791469189
 10
4.0359886538
 20
0.0471254045
 10
4.0619422406
 20
0.0157714493
 10
4.0885813791
 20
-0.0148819069
 10
4.1158846977
 20
-0.0448016242
 10
4.1438308244
 20
-0.0739546628
 10
4.1723983875
 20
-0.1023079827
 10
4.2015660152
 20
-0.1298285443
 10
4.2313123356
 20
-0.1564833077
 10
4.2616159769
 20
-0.1822392329
 10
4.2924555673
 20
-0.2070632803
 10
4.3238097351
 20
-0.2309224098
 10
4.3556571083
 20
-0.2537835818
 10
4.3879763152
 20
-0.2756137564
 10
4.420745984
 20
-0.2963798937
 10
4.4539447428
 20
-0.3160489538
 10
4.4875512199
 20
-0.3345878971
 10
4.5215440434
 20
-0.3519636835
 10
4.5559018415
 20
-0.3681432733
  0
LINE
  5
447
100
AcDbEntity
  8
ASSI
100
AcDbLine
 62
250
  6
CONTINUOUS
 10
2.2125051892
 20
23.1599002866
 11
2.2119449387
 21
23.1974545547
  0
LINE
  5
448
100
AcDbEntity
  8
ASSI
100
AcDbLine
 62
250
  6
CONTINUOUS
 10
3.2781397781
 20
23.1974545675
 11
3.2787000288
 21
23.1599003116
  0
LINE
  5
449
100
AcDbEntity
  8
ASSI
100
AcDbLine
 62
250
  6
CONTINUOUS
 10
2.2128873792
 20
23.1156613138
 11
2.2125051892
 21
23.1599002866
  0
LINE
  5
44A
100
AcDbEntity
  8
ASSI
100
AcDbLine
 62
250
  6
CONTINUOUS
 10
3.2787000288
 20
23.1599003116
 11
3.2790822191
 21
23.1156613376
  0
LINE
  5
44B
100
AcDbEntity
  8
ASSI
100
AcDbLine
 62
250
  6
CONTINUOUS
 10
2.2130682621
 20
23.0674284937
 11
2.2128873792
 21
23.1156613138
  0
LINE
  5
44C
100
AcDbEntity
  8
ASSI
100
AcDbLine
 62
250
  6
CONTINUOUS
 10
3.2790822191
 20
23.1156613376
 11
3.2792631022
 21
23.0674284937
  0
LINE
  5
44D
100
AcDbEntity
  8
CURVE
100
AcDbLine
 62
250
  6
CONTINUOUS
 10
2.5736496773
 20
11.0
 11
2.5736496773
 21
10.8571428061
  0
LINE
  5
44E
100
AcDbEntity
  8
CURVE
100
AcDbLine
 62
250
  6
CONTINUOUS
 10
2.5736496773
 20
9.0
 11
2.5736496773
 21
9.571428597
  0
LINE
  5
44F
100
AcDbEntity
  8
CURVE
100
AcDbLine
 62
250
  6
CONTINUOUS
 10
2.5736496773
 20
12.0
 11
2.5736496773
 21
12.5714285374
  0
LINE
  5
450
100
AcDbEntity
  8
CURVE
100
AcDbLine
 62
250
  6
CONTINUOUS
 10
2.5736496773
 20
13.7142858505
 11
2.5736496773
 21
14.1428570747
  0
LINE
  5
451
100
AcDbEntity
  8
CURVE
100
AcDbLine
 62
250
  6
CONTINUOUS
 10
2.5736496773
 20
15.2857141495
 11
2.5736496773
 21
15.7142858505
  0
LWPOLYLINE
  5
452
100
AcDbEntity
  8
0
100
AcDbPolyline
 62
7
  6
CONTINUOUS
 90
4
 70
0
 43
0.3500000006
 10
2.7093639307
 20
45.7915979919
 10
2.7093639307
 20
46.6487404633
 10
3.1379354496
 20
47.0773139648
 10
3.7807925863
 20
47.0773139648
  0
LINE
  5
453
100
AcDbEntity
  8
CURVE
100
AcDbLine
 62
250
  6
CONTINUOUS
 10
3.1218800247
 20
-5.756253
 11
3.1218800247
 21
-6.287502
  0
LINE
  5
454
100
AcDbEntity
  8
CURVE
100
AcDbLine
 62
250
  6
CONTINUOUS
 10
3.1218920237
 20
-3.945157
 11
3.1218920237
 21
-4.632141
  0
LINE
  5
455
100
AcDbEntity
  8
CURVE
100
AcDbLine
 62
250
  6
CONTINUOUS
 10
3.1218919873
 20
-9.05
 11
3.1218919873
 21
-8.5187441158
  0
LINE
  5
456
100
AcDbEntity
  8
CURVE
100
AcDbLine
 62
250
  6
CONTINUOUS
 10
3.1218919873
 20
-7.2437484073
 11
3.1218919873
 21
-6.7124925231
  0
LINE
  5
457
100
AcDbEntity
  8
CURVE
100
AcDbLine
 62
250
  6
CONTINUOUS
 10
3.1684134808
 20
-10.998691
 11
3.1684134808
 21
-12.109735
  0
LINE
  5
458
100
AcDbEntity
  8
CURVE
100
AcDbLine
 62
250
  6
CONTINUOUS
 10
3.1684134808
 20
-14.887515
 11
3.1684134808
 21
-15.998558
  0
LINE
  5
459
100
AcDbEntity
  8
CURVE
100
AcDbLine
 62
250
  6
CONTINUOUS
 10
3.1684134808
 20
-14.332166
 11
3.1684134808
 21
-12.665429
  0
LINE
  5
45A
100
AcDbEntity
  8
CURVE
100
AcDbLine
 62
250
  6
CONTINUOUS
 10
3.4307924833
 20
15.7142858505
 11
3.4307924833
 21
15.2857141495
  0
LINE
  5
45B
100
AcDbEntity
  8
CURVE
100
AcDbLine
 62
250
  6
CONTINUOUS
 10
3.4307924833
 20
14.1428570747
 11
3.4307924833
 21
13.7142858505
  0
LINE
  5
45C
100
AcDbEntity
  8
CURVE
100
AcDbLine
 62
250
  6
CONTINUOUS
 10
3.4307924833
 20
9.2857142985
 11
3.4307924833
 21
9.571428597
  0
LINE
  5
45D
100
AcDbEntity
  8
CURVE
100
AcDbLine
 62
250
  6
CONTINUOUS
 10
3.4307924833
 20
12.2857143879
 11
3.4307924833
 21
12.5714285374
  0
LINE
  5
45E
100
AcDbEntity
  8
CURVE
100
AcDbLine
 62
250
  6
CONTINUOUS
 10
3.7238931764
 20
-15.443209
 11
3.7238931764
 21
-14.887515
  0
LINE
  5
45F
100
AcDbEntity
  8
CURVE
100
AcDbLine
 62
250
  6
CONTINUOUS
 10
3.7238931764
 20
-13.776472
 11
3.7238931764
 21
-13.220778
  0
LINE
  5
460
100
AcDbEntity
  8
CURVE
100
AcDbLine
 62
250
  6
CONTINUOUS
 10
3.7238931764
 20
-11.554385
 11
3.7238931764
 21
-10.998691
  0
LINE
  5
461
100
AcDbEntity
  8
CURVE
100
AcDbLine
 62
250
  6
CONTINUOUS
 10
4.5736496773
 20
12.7142856121
 11
4.5736496773
 21
12.0
  0
LINE
  5
462
100
AcDbEntity
  8
CURVE
100
AcDbLine
 62
250
  6
CONTINUOUS
 10
4.5736496773
 20
9.7142857313
 11
4.5736496773
 21
9.0
  0
LINE
  5
463
100
AcDbEntity
  8
CURVE
100
AcDbLine
 62
250
  6
CONTINUOUS
 10
4.5736496773
 20
10.8571428061
 11
4.5736496773
 21
11.0
  0
LINE
  5
464
100
AcDbEntity
  8
CURVE
100
AcDbLine
 62
250
  6
CONTINUOUS
 10
4.5736496773
 20
13.7142858505
 11
4.5736496773
 21
14.1428570747
  0
LINE
  5
465
100
AcDbEntity
  8
CURVE
100
AcDbLine
 62
250
  6
CONTINUOUS
 10
4.5736496773
 20
15.2857141495
 11
4.5736496773
 21
15.7142858505
  0
LINE
  5
466
100
AcDbEntity
  8
CURVE
100
AcDbLine
 62
250
  6
CONTINUOUS
 10
4.9280017993
 20
-8.2235663663
 11
4.9280017993
 21
-7.5389283374
  0
LINE
  5
467
100
AcDbEntity
  8
ASSI
100
AcDbLine
 62
250
  6
CONTINUOUS
 10
2.2130682432
 20
-23.0674284937
 11
2.2128873593
 21
-23.1156613513
  0
LINE
  5
468
100
AcDbEntity
  8
ASSI
100
AcDbLine
 62
250
  6
CONTINUOUS
 10
3.2792631022
 20
-23.0674284937
 11
3.2790822192
 21
-23.1156613377
  0
LINE
  5
469
100
AcDbEntity
  8
ASSI
100
AcDbLine
 62
250
  6
CONTINUOUS
 10
2.2128873593
 20
-23.1156613513
 11
2.2125051688
 21
-23.1599003265
  0
LINE
  5
46A
100
AcDbEntity
  8
ASSI
100
AcDbLine
 62
250
  6
CONTINUOUS
 10
3.2790822192
 20
-23.1156613377
 11
3.2787000288
 21
-23.1599003117
  0
LWPOLYLINE
  5
46B
100
AcDbEntity
  8
ASSI
100
AcDbPolyline
 62
250
  6
CONTINUOUS
 90
8
 70
0
 10
2.2125051688
 20
-23.1599003265
 10
2.2119449184
 20
-23.1974545759
 10
2.2116082993
 20
-23.2129912141
 10
2.2112406849
 20
-23.2260398612
 10
2.2108476866
 20
-23.2364013352
 10
2.2104353033
 20
-23.2439174726
 10
2.2100098299
 20
-23.248473543
 10
2.209577761
 20
-23.25
  0
LWPOLYLINE
  5
46C
100
AcDbEntity
  8
ASSI
100
AcDbPolyline
 62
250
  6
CONTINUOUS
 90
8
 70
0
 10
3.2787000288
 20
-23.1599003117
 10
3.2781397781
 20
-23.1974545676
 10
3.2778031588
 20
-23.2129912079
 10
3.2774355443
 20
-23.2260398569
 10
3.2770425459
 20
-23.2364013325
 10
3.2766301627
 20
-23.2439174713
 10
3.2762046895
 20
-23.2484735427
 10
3.2757726209
 20
-23.25
  0
LINE
  5
46D
100
AcDbEntity
  8
ASSI
100
AcDbLine
 62
250
  6
CONTINUOUS
 10
1.1725493
 20
-21.7142294449
 11
1.1561835871
 21
-22.0921549578
  0
LWPOLYLINE
  5
46E
100
AcDbEntity
  8
ASSI
100
AcDbPolyline
 62
250
  6
CONTINUOUS
 90
16
 70
0
 10
2.0319188466
 20
-23.05
 10
2.0309146688
 20
-23.0709056844
 10
2.027913137
 20
-23.0915823239
 10
2.0229471359
 20
-23.1118033812
 10
2.0160710733
 20
-23.1313473105
 10
2.0073602843
 20
-23.1499999836
 10
1.9969102065
 20
-23.1675570362
 10
1.9848353334
 20
-23.1838261089
 10
1.9712679596
 20
-23.1986289549
 10
1.9563567322
 20
-23.2118033907
 10
1.9402650222
 20
-23.2232050743
 10
1.9231691333
 20
-23.2327090867
 10
1.9052563712
 20
-23.2402113001
 10
1.8867229915
 20
-23.2456295186
 10
1.86777205
 20
-23.2489043786
 10
1.8486111773
 20
-23.25
  0
LINE
  5
46F
100
AcDbEntity
  8
ASSI
100
AcDbLine
 62
250
  6
CONTINUOUS
 10
0.9727380548
 20
-22.3108739809
 11
0.9609704403
 21
-22.5418997562
  0
LINE
  5
470
100
AcDbEntity
  8
ASSI
100
AcDbLine
 62
250
  6
CONTINUOUS
 10
0.9848461779
 20
-22.089918121
 11
0.9727380548
 21
-22.3108739809
  0
LINE
  5
471
100
AcDbEntity
  8
ASSI
100
AcDbLine
 62
250
  6
CONTINUOUS
 10
0.9971477096
 20
-21.8799195027
 11
0.9848461779
 21
-22.089918121
  0
LINE
  5
472
100
AcDbEntity
  8
ASSI
100
AcDbLine
 62
250
  6
CONTINUOUS
 10
1.0073986906
 20
-21.7156706924
 11
0.9971477096
 21
-21.8799195027
  0
LWPOLYLINE
  5
473
100
AcDbEntity
  8
ASSI
100
AcDbPolyline
 62
250
  6
CONTINUOUS
 90
8
 70
0
 10
-5.6228598414
 20
-23.9423373592
 10
-5.6225188022
 20
-23.9412662317
 10
-5.6222174485
 20
-23.9380597461
 10
-5.6219595285
 20
-23.9327269197
 10
-5.6217481365
 20
-23.9252892682
 10
-5.6215865444
 20
-23.9158096059
 10
-5.6214774718
 20
-23.9044181149
 10
-5.6214210129
 20
-23.8764674428
  0
LINE
  5
474
100
AcDbEntity
  8
ASSI
100
AcDbLine
 62
250
  6
CONTINUOUS
 10
-5.5689995976
 20
-23.1380674704
 11
-5.578029485
 21
-23.1643737196
  0
LINE
  5
475
100
AcDbEntity
  8
ASSI
100
AcDbLine
 62
250
  6
CONTINUOUS
 10
-6.0069161614
 20
-22.9823513471
 11
-6.0188891893
 21
-23.0170158091
  0
LINE
  5
476
100
AcDbEntity
  8
ASSI
100
AcDbLine
 62
250
  6
CONTINUOUS
 10
-5.578029485
 20
-23.1643737196
 11
-5.5891632638
 21
-23.1961498385
  0
LINE
  5
477
100
AcDbEntity
  8
ASSI
100
AcDbLine
 62
250
  6
CONTINUOUS
 10
-6.0188891893
 20
-23.0170158091
 11
-6.0338563342
 21
-23.0593933284
  0
LINE
  5
478
100
AcDbEntity
  8
ASSI
100
AcDbLine
 62
250
  6
CONTINUOUS
 10
-5.5891632638
 20
-23.1961498385
 11
-5.6087192532
 21
-23.2509691266
  0
LWPOLYLINE
  5
479
100
AcDbEntity
  8
ASSI
100
AcDbPolyline
 62
250
  6
CONTINUOUS
 90
3
 70
0
 10
-6.0338563342
 20
-23.0593933284
 10
-6.0508053035
 20
-23.1066177301
 10
-6.0596678988
 20
-23.1310563767
  0
LINE
  5
47A
100
AcDbEntity
  8
ASSI
100
AcDbLine
 62
250
  6
CONTINUOUS
 10
-5.6087192532
 20
-23.2509691266
 11
-5.6228598414
 21
-23.2900415076
  0
LINE
  5
47B
100
AcDbEntity
  8
CURVE
100
AcDbLine
 62
250
  6
CONTINUOUS
 10
3.4307924833
 20
9.571428597
 11
3.7165068116
 21
9.8571428657
  0
LINE
  5
47C
100
AcDbEntity
  8
CURVE
100
AcDbLine
 62
7
  6
CONTINUOUS
 10
1.0882793967
 20
7.154368
 11
1.5714930994
 21
7.6375817026
  0
LINE
  5
47D
100
AcDbEntity
  8
CURVE
100
AcDbLine
 62
7
  6
CONTINUOUS
 10
1.5083008247
 20
7.154368
 11
1.5714930994
 21
7.2175602746
  0
LINE
  5
47E
100
AcDbEntity
  8
CURVE
100
AcDbLine
 62
250
  6
CONTINUOUS
 10
2.5736496773
 20
9.571428597
 11
2.859363946
 21
9.8095238209
  0
LINE
  5
47F
100
AcDbEntity
  8
CURVE
100
AcDbLine
 62
250
  6
CONTINUOUS
 10
3.1450782147
 20
11.4285714626
 11
2.859363946
 21
11.2857143879
  0
LINE
  5
480
100
AcDbEntity
  8
CURVE
100
AcDbLine
 62
250
  6
CONTINUOUS
 10
4.0022210803
 20
10.4285714626
 11
4.2879353788
 21
10.5714285374
  0
LINE
  5
481
100
AcDbEntity
  8
CURVE
100
AcDbLine
 62
250
  6
CONTINUOUS
 10
-1.4318491714
 20
10.320374
 11
1.2682521937
 21
11.329873
  0
LINE
  5
482
100
AcDbEntity
  8
CURVE
100
AcDbLine
 62
250
  6
CONTINUOUS
 10
1.5714930994
 20
11.109694
 11
-1.1286082657
 21
10.100196
  0
LINE
  5
483
100
AcDbEntity
  8
ASSI
100
AcDbLine
 62
7
  6
CONTINUOUS
 10
3.4051821435
 20
-23.2329629131
 11
7.0736496773
 21
-22.25
  0
LINE
  5
484
100
AcDbEntity
  8
ASSI
100
AcDbLine
 62
250
  6
CONTINUOUS
 10
5.6366133134
 20
-22.4594131032
 11
7.0736496773
 21
-22.07436037
  0
LINE
  5
485
100
AcDbEntity
  8
ASSI
100
AcDbLine
 62
250
  6
CONTINUOUS
 10
3.3569088157
 20
-23.0572062416
 11
5.5086691767
 21
-22.4806437906
  0
LWPOLYLINE
  5
486
100
AcDbEntity
  8
ASSI
100
AcDbPolyline
 62
250
  6
CONTINUOUS
 90
15
 70
0
 10
-1.8121306252
 20
-23.4060984527
 10
-1.7844933557
 20
-23.3997014658
 10
-1.7576842086
 20
-23.3931342
 10
-1.731693119
 20
-23.3863942767
 10
-1.706525741
 20
-23.3794973131
 10
-1.6820480426
 20
-23.3722770713
 10
-1.6584215778
 20
-23.3648131223
 10
-1.6354775288
 20
-23.3570446102
 10
-1.6125851389
 20
-23.348597298
 10
-1.5897730375
 20
-23.3395946086
 10
-1.5670075212
 20
-23.3299256871
 10
-1.5435642897
 20
-23.3188648972
 10
-1.5192028115
 20
-23.3061681457
 10
-1.4941671152
 20
-23.2920709264
 10
-1.4684624904
 20
-23.2765601439
  0
LWPOLYLINE
  5
487
100
AcDbEntity
  8
ASSI
100
AcDbPolyline
 62
250
  6
CONTINUOUS
 90
13
 70
0
 10
1.1226675375
 20
-23.0497493833
 10
1.1133712768
 20
-23.0517190476
 10
1.102507173
 20
-23.0536385847
 10
1.090197175
 20
-23.0554888995
 10
1.0765787513
 20
-23.0572411123
 10
1.0617842895
 20
-23.0588914476
 10
1.0459158492
 20
-23.060458427
 10
1.0290707473
 20
-23.0619407464
 10
1.0114397403
 20
-23.0633124549
 10
0.9932649967
 20
-23.0645562131
 10
0.9747444821
 20
-23.0656607415
 10
0.956040953
 20
-23.0666204106
 10
0.9373450124
 20
-23.0674284861
  0
LWPOLYLINE
  5
488
100
AcDbEntity
  8
ASSI
100
AcDbPolyline
 62
250
  6
CONTINUOUS
 90
4
 70
0
 10
-1.9326564466
 20
-23.4321827624
 10
-1.9010414166
 20
-23.4255986522
 10
-1.870405559
 20
-23.419046823
 10
-1.8121306252
 20
-23.4060984527
  0
LINE
  5
489
100
AcDbEntity
  8
ASSI
100
AcDbLine
 62
250
  6
CONTINUOUS
 10
5.5803035425
 20
-22.4689033261
 11
5.6366133134
 21
-22.4594131032
  0
LINE
  5
48A
100
AcDbEntity
  8
ASSI
100
AcDbLine
 62
250
  6
CONTINUOUS
 10
5.5086691767
 20
-22.4806437906
 11
5.5803035425
 21
-22.4689033261
  0
LWPOLYLINE
  5
48B
100
AcDbEntity
  8
RACCORDO
100
AcDbPolyline
 62
250
  6
CONTINUOUS
 90
19
 70
0
 10
11.578012945
 20
-17.6800325795
 10
11.6213966656
 20
-17.6785761744
 10
11.6642944797
 20
-17.6748309118
 10
11.7064587791
 20
-17.6688131456
 10
11.7476964501
 20
-17.6604879626
 10
11.7877033483
 20
-17.6499165114
 10
11.8260672017
 20
-17.6372773148
 10
11.8625130781
 20
-17.6225949305
 10
11.8968259841
 20
-17.6059252112
 10
11.9286947702
 20
-17.5875312447
 10
11.9578676323
 20
-17.5674812349
 10
11.9841575412
 20
-17.5458518861
 10
12.0073647804
 20
-17.5229503899
 10
12.0272975626
 20
-17.4988790738
 10
12.0438122621
 20
-17.4737433158
 10
12.0567957648
 20
-17.4478768902
 10
12.06614186
 20
-17.421477424
 10
12.0717716051
 20
-17.3946017059
 10
12.0736496773
 20
-17.3673827853
  0
LWPOLYLINE
  5
48C
100
AcDbEntity
  8
ASSI
100
AcDbPolyline
 62
250
  6
CONTINUOUS
 90
19
 70
0
 10
11.578012945
 20
-17.6800325795
 10
11.6213966656
 20
-17.6785761744
 10
11.6642944797
 20
-17.6748309118
 10
11.7064587791
 20
-17.6688131456
 10
11.7476964501
 20
-17.6604879626
 10
11.7877033483
 20
-17.6499165114
 10
11.8260672017
 20
-17.6372773148
 10
11.8625130781
 20
-17.6225949305
 10
11.8968259841
 20
-17.6059252112
 10
11.9286947702
 20
-17.5875312447
 10
11.9578676323
 20
-17.5674812349
 10
11.9841575412
 20
-17.5458518861
 10
12.0073647804
 20
-17.5229503899
 10
12.0272975626
 20
-17.4988790738
 10
12.0438122621
 20
-17.4737433158
 10
12.0567957648
 20
-17.4478768902
 10
12.06614186
 20
-17.421477424
 10
12.0717716051
 20
-17.3946017059
 10
12.0736496773
 20
-17.3673827853
  0
LINE
  5
48D
100
AcDbEntity
  8
SUPERFICI
100
AcDbLine
 62
7
  6
CONTINUOUS
 10
-7.434446748
 20
-18.1800015068
 11
-8.924902583
 21
-18.2216459366
  0
LINE
  5
48E
100
AcDbEntity
  8
RACCORDO
100
AcDbLine
 62
7
  6
CONTINUOUS
 10
11.5823758805
 20
-19.408575216
 11
7.0736496773
 21
-19.4872753246
  0
LINE
  5
48F
100
AcDbEntity
  8
DRAFT
100
AcDbLine
 62
7
  6
CONTINUOUS
 10
11.5823758805
 20
-19.408575216
 11
12.0736496773
 21
-19.4
  0
LINE
  5
490
100
AcDbEntity
  8
ASSI
100
AcDbLine
 62
7
  6
CONTINUOUS
 10
7.0736496773
 20
-19.4872753246
 11
12.0736496773
 21
-19.4
  0
LINE
  5
491
100
AcDbEntity
  8
RACCORDO
100
AcDbLine
 62
250
  6
CONTINUOUS
 10
-8.9263503227
 20
-17.8642941207
 11
-2.9263503227
 21
-17.8279150206
  0
LINE
  5
492
100
AcDbEntity
  8
RACCORDO
100
AcDbLine
 62
250
  6
CONTINUOUS
 10
-8.9263503227
 20
-17.5512208021
 11
-2.9263503227
 21
-17.5143279524
  0
LINE
  5
493
100
AcDbEntity
  8
SUPERFICI
100
AcDbLine
 62
250
  6
CONTINUOUS
 10
-8.9263501501
 20
-18.636064288
 11
-7.426350323
 21
-18.6286602576
  0
LINE
  5
494
100
AcDbEntity
  8
RACCORDO
100
AcDbLine
 62
250
  6
CONTINUOUS
 10
-2.9263503227
 20
-17.7238113437
 11
11.578012945
 21
-17.6800325799
  0
LINE
  5
495
100
AcDbEntity
  8
ASSI
100
AcDbLine
 62
250
  6
CONTINUOUS
 10
-2.9263503227
 20
-17.7238113437
 11
11.578012945
 21
-17.6800325799
  0
LINE
  5
496
100
AcDbEntity
  8
RACCORDO
100
AcDbLine
 62
250
  6
CONTINUOUS
 10
-2.9263503227
 20
-17.4117842931
 11
11.578012945
 21
-17.3673827853
  0
LINE
  5
497
100
AcDbEntity
  8
ASSI
100
AcDbLine
 62
250
  6
CONTINUOUS
 10
-2.9263503227
 20
-17.4117842931
 11
11.578012945
 21
-17.3673827853
  0
LINE
  5
498
100
AcDbEntity
  8
RACCORDO
100
AcDbLine
 62
250
  6
CONTINUOUS
 10
11.578012945
 20
-17.3673827853
 11
12.0736496773
 21
-17.3673827853
  0
LINE
  5
499
100
AcDbEntity
  8
ASSI
100
AcDbLine
 62
250
  6
CONTINUOUS
 10
11.578012945
 20
-17.3673827853
 11
12.0736496773
 21
-17.3673827853
  0
LINE
  5
49A
100
AcDbEntity
  8
ASSI
100
AcDbLine
 62
7
  6
CONTINUOUS
 10
6.7675069543
 20
-19.7446562589
 11
7.0736496773
 21
-19.75
  0
LINE
  5
49B
100
AcDbEntity
  8
DRAFT
100
AcDbLine
 62
7
  6
CONTINUOUS
 10
-8.3434301672
 20
-19.1316838962
 11
-8.9263503227
 21
-19.121508987
  0
LINE
  5
49C
100
AcDbEntity
  8
CURVE
100
AcDbLine
 62
250
  6
CONTINUOUS
 10
0.6312267084
 20
-14.742644
 11
-1.4333600564
 21
-14.153392
  0
LINE
  5
49D
100
AcDbEntity
  8
CURVE
100
AcDbLine
 62
250
  6
CONTINUOUS
 10
9.7736496773
 20
-14.5142856479
 11
11.0736496773
 21
-14.8857142746
  0
LINE
  5
49E
100
AcDbEntity
  8
CURVE
100
AcDbLine
 62
250
  6
CONTINUOUS
 10
0.2319221187
 20
-10.816096
 11
-1.4333600564
 21
-10.189954
  0
LINE
  5
49F
100
AcDbEntity
  8
CURVE
100
AcDbLine
 62
250
  6
CONTINUOUS
 10
-0.3843439476
 20
-10.031124
 11
1.5660505139
 21
-10.775607
  0
LINE
  5
4A0
100
AcDbEntity
  8
CURVE
100
AcDbLine
 62
250
  6
CONTINUOUS
 10
9.7736496773
 20
-15.2571428239
 11
10.5165068146
 21
-15.628571412
  0
LINE
  5
4A1
100
AcDbEntity
  8
CURVE
100
AcDbLine
 62
250
  6
CONTINUOUS
 10
11.0736496773
 20
-13.3071429014
 11
10.8879353833
 21
-13.1214287043
  0
LWPOLYLINE
  5
4A2
100
AcDbEntity
  8
CURVE
100
AcDbPolyline
 62
250
  6
CONTINUOUS
 90
61
 70
0
 10
0.0702607218
 20
-4.8069091413
 10
0.0508509386
 20
-4.7847688068
 10
0.031213512
 20
-4.7632205305
 10
0.0110050373
 20
-4.7422588531
 10
-0.0096565306
 20
-4.7222662427
 10
-0.0311442603
 20
-4.7029424309
 10
-0.0534031268
 20
-4.6843962177
 10
-0.0763781054
 20
-4.6667364028
 10
-0.1003547409
 20
-4.6498198402
 10
-0.1249623061
 20
-4.6338984918
 10
-0.1501517887
 20
-4.6189439895
 10
-0.1758741762
 20
-4.6049279654
 10
-0.2022508142
 20
-4.5917478725
 10
-0.2290790904
 20
-4.5794994772
 10
-0.2563205638
 20
-4.5681927315
 10
-0.2839367935
 20
-4.5578375871
 10
-0.3117031115
 20
-4.5485019137
 10
-0.3397692837
 20
-4.5401161723
 10
-0.3681033134
 20
-4.5326815059
 10
-0.3966732039
 20
-4.5261990574
 10
-0.4294400992
 20
-4.5199762024
 10
-0.4624273999
 20
-4.5149639182
 10
-0.4955913768
 20
-4.5111375627
 10
-0.5288883006
 20
-4.5084724939
 10
-0.562274442
 20
-4.5069440698
 10
-0.5957060718
 20
-4.5065276484
 10
-0.6291394608
 20
-4.5071985877
 10
-0.658363592
 20
-4.5086650336
 10
-0.6875258973
 20
-4.5109682804
 10
-0.7165966906
 20
-4.5141313226
 10
-0.7455462858
 20
-4.5181771548
 10
-0.7743449968
 20
-4.5231287715
 10
-0.8029631374
 20
-4.5290091672
 10
-0.8313710216
 20
-4.5358413365
 10
-0.8595389632
 20
-4.5436482739
 10
-0.8874567579
 20
-4.5524547021
 10
-0.9150605958
 20
-4.5622499166
 10
-0.9423065732
 20
-4.5730233702
 10
-0.9691507866
 20
-4.5847645158
 10
-0.9955493323
 20
-4.5974628061
 10
-1.0214583066
 20
-4.6111076939
 10
-1.046833806
 20
-4.625688632
 10
-1.0716319267
 20
-4.6411950732
 10
-1.0958165062
 20
-4.6576155273
 10
-1.1193658111
 20
-4.6749233517
 10
-1.1422659914
 20
-4.6930907511
 10
-1.1645031969
 20
-4.7120899305
 10
-1.1860635775
 20
-4.7318930948
 10
-1.2069332832
 20
-4.7524724487
 10
-1.2270984638
 20
-4.7738001973
 10
-1.2465452692
 20
-4.7958485454
 10
-1.2615446505
 20
-4.8139588933
 10
-1.2760237005
 20
-4.8325035551
 10
-1.2899292036
 20
-4.8514748773
 10
-1.3032079442
 20
-4.8708652063
 10
-1.3158067067
 20
-4.8906668887
 10
-1.3276722754
 20
-4.9108722708
 10
-1.3387514346
 20
-4.9314736992
 10
-1.3489909687
 20
-4.9524635203
 10
-1.3583376621
 20
-4.9738340805
 10
-1.3667382992
 20
-4.9955777265
  0
LINE
  5
4A3
100
AcDbEntity
  8
CURVE
100
AcDbLine
 62
250
  6
CONTINUOUS
 10
3.1218920237
 20
-4.632141
 11
4.0064706558
 21
-5.756253
  0
LINE
  5
4A4
100
AcDbEntity
  8
CURVE
100
AcDbLine
 62
250
  6
CONTINUOUS
 10
4.2878322278
 20
-5.426806
 11
3.1218920237
 21
-3.945157
  0
LINE
  5
4A5
100
AcDbEntity
  8
ASSI
100
AcDbLine
 62
250
  6
CONTINUOUS
 10
-6.0596678988
 20
23.1310563767
 11
-6.0421524717
 21
23.0825940681
  0
LINE
  5
4A6
100
AcDbEntity
  8
ASSI
100
AcDbLine
 62
250
  6
CONTINUOUS
 10
-5.6228598414
 20
23.2900415076
 11
-5.601905057
 21
23.2319819505
  0
LINE
  5
4A7
100
AcDbEntity
  8
ASSI
100
AcDbLine
 62
250
  6
CONTINUOUS
 10
-6.0421524717
 20
23.0825940681
 11
-6.0260577651
 21
23.0374094753
  0
LINE
  5
4A8
100
AcDbEntity
  8
ASSI
100
AcDbLine
 62
250
  6
CONTINUOUS
 10
-5.601905057
 20
23.2319819505
 11
-5.5891632638
 21
23.1961498384
  0
LINE
  5
4A9
100
AcDbEntity
  8
ASSI
100
AcDbLine
 62
250
  6
CONTINUOUS
 10
-5.5891632638
 20
23.1961498384
 11
-5.578029485
 21
23.1643737195
  0
LWPOLYLINE
  5
4AA
100
AcDbEntity
  8
ASSI
100
AcDbPolyline
 62
250
  6
CONTINUOUS
 90
8
 70
0
 10
-6.0260577651
 20
23.0374094753
 10
-6.0124723338
 20
22.9985586279
 10
-6.0069161614
 20
22.9823513471
 10
-6.0023150194
 20
22.9686691771
 10
-5.9987470383
 20
22.9577444503
 10
-5.9962728048
 20
22.9497626758
 10
-5.9949343331
 20
22.9448593895
 10
-5.9947543514
 20
22.9431178525
  0
LWPOLYLINE
  5
4AB
100
AcDbEntity
  8
ASSI
100
AcDbPolyline
 62
250
  6
CONTINUOUS
 90
8
 70
0
 10
-5.578029485
 20
23.1643737195
 10
-5.5689995976
 20
23.1380674703
 10
-5.5654118477
 20
23.12736771
 10
-5.5624920717
 20
23.1184527262
 10
-5.5602712683
 20
23.1114187393
 10
-5.5587682851
 20
23.1063282959
 10
-5.5579924783
 20
23.1032172722
 10
-5.557946294
 20
23.1021029835
  0
LWPOLYLINE
  5
4AC
100
AcDbEntity
  8
CURVE
100
AcDbPolyline
 62
250
  6
CONTINUOUS
 90
51
 70
0
 10
5.8841739995
 20
-8.2416615991
 10
5.8846148748
 20
-8.2666889185
 10
5.8859298037
 20
-8.2917605687
 10
5.8881072409
 20
-8.3168483565
 10
5.8911356412
 20
-8.3419240891
 10
5.8950034593
 20
-8.3669595735
 10
5.8996991498
 20
-8.3919266167
 10
5.9052111675
 20
-8.4167970258
 10
5.9115279671
 20
-8.4415426077
 10
5.9186380033
 20
-8.4661351696
 10
5.9265297308
 20
-8.4905465184
 10
5.9351916044
 20
-8.5147484612
 10
5.9446120786
 20
-8.5387128051
 10
5.9547796084
 20
-8.5624113569
 10
5.9656826482
 20
-8.5858159239
 10
5.9773096529
 20
-8.608898313
 10
5.9896490772
 20
-8.6316303313
 10
6.0026893757
 20
-8.6539837857
 10
6.0164190033
 20
-8.6759304834
 10
6.0308264145
 20
-8.6974422313
 10
6.0459000641
 20
-8.7184908365
 10
6.0616284068
 20
-8.739048106
 10
6.0779998974
 20
-8.7590858469
 10
6.0950029904
 20
-8.7785758662
 10
6.1126261408
 20
-8.7974899709
 10
6.130857803
 20
-8.815799968
 10
6.1496939473
 20
-8.8334903774
 10
6.1691005733
 20
-8.8505408295
 10
6.1890505649
 20
-8.866944336
 10
6.2095168059
 20
-8.8826939086
 10
6.2304721801
 20
-8.8977825591
 10
6.2518895715
 20
-8.9122032991
 10
6.2737418639
 20
-8.9259491406
 10
6.2960019411
 20
-8.9390130951
 10
6.318642687
 20
-8.9513881745
 10
6.3416369854
 20
-8.9630673904
 10
6.3649577203
 20
-8.9740437547
 10
6.3885777753
 20
-8.984310279
 10
6.4124700345
 20
-8.9938599751
 10
6.4366073817
 20
-9.0026858547
 10
6.4609627006
 20
-9.0107809295
 10
6.4855088752
 20
-9.0181382114
 10
6.5102187893
 20
-9.024750712
 10
6.5350653268
 20
-9.0306114431
 10
6.5600213715
 20
-9.0357134164
 10
6.5850598073
 20
-9.0400496436
 10
6.610153518
 20
-9.0436131365
 10
6.6352753875
 20
-9.0463969069
 10
6.6603982996
 20
-9.0483939665
 10
6.6854951382
 20
-9.0495973269
 10
6.7105387871
 20
-9.05
  0
LWPOLYLINE
  5
4AD
100
AcDbEntity
  8
CURVE
100
AcDbPolyline
 62
250
  6
CONTINUOUS
 90
51
 70
0
 10
5.4592084659
 20
-7.531784302
 10
5.4588035057
 20
-7.5068328855
 10
5.4575934891
 20
-7.4818256224
 10
5.4555857128
 20
-7.4567901918
 10
5.4527874729
 20
-7.431754273
 10
5.4492060661
 20
-7.4067455451
 10
5.4448487886
 20
-7.3817916873
 10
5.4397229369
 20
-7.3569203788
 10
5.4338358074
 20
-7.3321592987
 10
5.4271946965
 20
-7.3075361262
 10
5.4198069006
 20
-7.2830785405
 10
5.4116797161
 20
-7.2588142208
 10
5.4028204395
 20
-7.2347708462
 10
5.393236367
 20
-7.2109760959
 10
5.3829347952
 20
-7.1874576491
 10
5.3719230205
 20
-7.1642431849
 10
5.3602083392
 20
-7.1413603826
 10
5.3477980477
 20
-7.1188369213
 10
5.3346994426
 20
-7.0967004802
 10
5.3209198201
 20
-7.0749787384
 10
5.3064664767
 20
-7.0536993752
 10
5.2913467088
 20
-7.0328900696
 10
5.2755678128
 20
-7.0125785009
 10
5.2591370851
 20
-6.9927923483
 10
5.2420618221
 20
-6.9735592909
 10
5.2243493202
 20
-6.9549070079
 10
5.2060190006
 20
-6.9368684408
 10
5.1870876487
 20
-6.9194478353
 10
5.1675835925
 20
-6.9026552615
 10
5.1475351605
 20
-6.8865007896
 10
5.1269706806
 20
-6.8709944895
 10
5.1059184813
 20
-6.8561464315
 10
5.0844068906
 20
-6.8419666855
 10
5.0624642368
 20
-6.8284653216
 10
5.0401188482
 20
-6.81565241
 10
5.0173990528
 20
-6.8035380208
 10
4.994333179
 20
-6.792132224
 10
4.9709495549
 20
-6.7814450897
 10
4.9472765088
 20
-6.771486688
 10
4.9233423688
 20
-6.762267089
 10
4.8991754632
 20
-6.7537963628
 10
4.8748041202
 20
-6.7460845794
 10
4.850256668
 20
-6.739141809
 10
4.8255614348
 20
-6.7329781217
 10
4.8007467488
 20
-6.7276035875
 10
4.7758409382
 20
-6.7230282765
 10
4.7508723313
 20
-6.7192622589
 10
4.7258692562
 20
-6.7163156046
 10
4.7008600412
 20
-6.7141983838
 10
4.6758730145
 20
-6.7129206666
 10
4.6509365043
 20
-6.7124925231
  0
LWPOLYLINE
  5
4AE
100
AcDbEntity
  8
CURVE
100
AcDbPolyline
 62
250
  6
CONTINUOUS
 90
51
 70
0
 10
5.8841472563
 20
-5.4682181397
 10
5.8845522194
 20
-5.4931694473
 10
5.8857622439
 20
-5.5181766045
 10
5.8877700333
 20
-5.5432119316
 10
5.8905682906
 20
-5.5682477486
 10
5.8941497191
 20
-5.5932563758
 10
5.8985070221
 20
-5.6182101333
 10
5.9036329027
 20
-5.6430813414
 10
5.9095200641
 20
-5.6678423201
 10
5.9161612096
 20
-5.6924653897
 10
5.9235490425
 20
-5.7169228703
 10
5.9316762658
 20
-5.7411870821
 10
5.9405355829
 20
-5.7652303453
 10
5.9501196969
 20
-5.7890249801
 10
5.9604213111
 20
-5.8125433066
 10
5.9714331286
 20
-5.8357576451
 10
5.9831478528
 20
-5.8586403156
 10
5.9955581868
 20
-5.8811636384
 10
6.0086568339
 20
-5.9032999336
 10
6.0224364972
 20
-5.9250215214
 10
6.03688988
 20
-5.946300722
 10
6.0520096855
 20
-5.9671098556
 10
6.0677886169
 20
-5.9874212423
 10
6.0842193774
 20
-6.0072072024
 10
6.1012946703
 20
-6.0264400559
 10
6.1190071988
 20
-6.0450921231
 10
6.1373375441
 20
-6.0631304649
 10
6.1562689181
 20
-6.0805508341
 10
6.1757729925
 20
-6.0973431622
 10
6.1958214389
 20
-6.1134973809
 10
6.2163859289
 20
-6.1290034219
 10
6.2374381343
 20
-6.1438512167
 10
6.2589497265
 20
-6.158030697
 10
6.2808923774
 20
-6.1715317945
 10
6.3032377584
 20
-6.1843444408
 10
6.3259575413
 20
-6.1964585674
 10
6.3490233976
 20
-6.2078641061
 10
6.372406999
 20
-6.2185509884
 10
6.3960800172
 20
-6.2285091461
 10
6.4200141238
 20
-6.2377285107
 10
6.4441809904
 20
-6.2461990138
 10
6.4685522887
 20
-6.2539105872
 10
6.4930996902
 20
-6.2608531624
 10
6.5177948667
 20
-6.267016671
 10
6.5426094898
 20
-6.2723910448
 10
6.5675152311
 20
-6.2769662153
 10
6.5924837622
 20
-6.2807321142
 10
6.6174867548
 20
-6.283678673
 10
6.6424958806
 20
-6.2857958235
 10
6.6674828111
 20
-6.2870734973
 10
6.692419218
 20
-6.287501626
  0
LINE
  5
4AF
100
AcDbEntity
  8
DRAFT
100
AcDbLine
 62
7
  6
CONTINUOUS
 10
5.3736496773
 20
-21.6775669973
 11
5.3736496773
 21
-21.6653768024
  0
LINE
  5
4B0
100
AcDbEntity
  8
ASSI
100
AcDbLine
 62
7
  6
CONTINUOUS
 10
5.3736496773
 20
-21.6775669973
 11
5.3736496773
 21
-21.6653768024
  0
LINE
  5
4B1
100
AcDbEntity
  8
DRAFT
100
AcDbLine
 62
7
  6
CONTINUOUS
 10
5.3736496773
 20
21.6653768024
 11
5.3736496773
 21
21.6775669973
  0
LINE
  5
4B2
100
AcDbEntity
  8
ASSI
100
AcDbLine
 62
7
  6
CONTINUOUS
 10
5.3736496773
 20
21.6653768024
 11
5.3736496773
 21
21.6775669973
  0
LINE
  5
4B3
100
AcDbEntity
  8
CURVE
100
AcDbLine
 62
250
  6
CONTINUOUS
 10
5.3903312634
 20
-13.220778
 11
5.3903312634
 21
-13.776472
  0
LINE
  5
4B4
100
AcDbEntity
  8
CURVE
100
AcDbLine
 62
250
  6
CONTINUOUS
 10
5.3903312634
 20
-14.887515
 11
5.3903312634
 21
-15.443209
  0
LINE
  5
4B5
100
AcDbEntity
  8
CURVE
100
AcDbLine
 62
250
  6
CONTINUOUS
 10
5.4592080179
 20
-4.632215
 11
5.4592080179
 21
-3.948086
  0
LINE
  5
4B6
100
AcDbEntity
  8
CURVE
100
AcDbLine
 62
250
  6
CONTINUOUS
 10
5.4592084659
 20
-7.531784302
 11
5.4592084659
 21
-8.2307066931
  0
LINE
  5
4B7
100
AcDbEntity
  8
CURVE
100
AcDbLine
 62
250
  6
CONTINUOUS
 10
5.4592130175
 20
-6.287502
 11
5.4592130175
 21
-5.756253
  0
LINE
  5
4B8
100
AcDbEntity
  8
ASSI
100
AcDbLine
 62
250
  6
CONTINUOUS
 10
5.5086691767
 20
-22.4806437906
 11
5.5086691767
 21
-21.6025951746
  0
LINE
  5
4B9
100
AcDbEntity
  8
ASSI
100
AcDbLine
 62
250
  6
CONTINUOUS
 10
5.5086691767
 20
21.6025951746
 11
5.5086691767
 21
22.4806437906
  0
LINE
  5
4BA
100
AcDbEntity
  8
ASSI
100
AcDbLine
 62
250
  6
CONTINUOUS
 10
5.6366133134
 20
-22.4594131032
 11
5.6366133134
 21
-21.6003619013
  0
LINE
  5
4BB
100
AcDbEntity
  8
ASSI
100
AcDbLine
 62
250
  6
CONTINUOUS
 10
5.6366133134
 20
21.6003619013
 11
5.6366133134
 21
22.4594131032
  0
LINE
  5
4BC
100
AcDbEntity
  8
CURVE
100
AcDbLine
 62
250
  6
CONTINUOUS
 10
5.8841472563
 20
-4.7692928062
 11
5.8841472563
 21
-5.4682181397
  0
LINE
  5
4BD
100
AcDbEntity
  8
CURVE
100
AcDbLine
 62
250
  6
CONTINUOUS
 10
5.8841739995
 20
-8.2416615991
 11
5.8841739995
 21
-6.7124925231
  0
LINE
  5
4BE
100
AcDbEntity
  8
CURVE
100
AcDbLine
 62
250
  6
CONTINUOUS
 10
5.945982946
 20
-13.220778
 11
5.945982946
 21
-13.776472
  0
LINE
  5
4BF
100
AcDbEntity
  8
CURVE
100
AcDbLine
 62
250
  6
CONTINUOUS
 10
5.945982946
 20
-15.443209
 11
5.945982946
 21
-14.887515
  0
LINE
  5
4C0
100
AcDbEntity
  8
CURVE
100
AcDbLine
 62
250
  6
CONTINUOUS
 10
6.4153550123
 20
-5.4610754908
 11
6.4153550123
 21
-4.7764352812
  0
LINE
  5
4C1
100
AcDbEntity
  8
CURVE
100
AcDbLine
 62
250
  6
CONTINUOUS
 10
6.4153835162
 20
-6.7124925231
 11
6.4153835162
 21
-8.2345212723
  0
LINE
  5
4C2
100
AcDbEntity
  8
RACCORDO
100
AcDbLine
 62
7
  6
CONTINUOUS
 10
6.4696037943
 20
21.3358600746
 11
6.4696037943
 21
20.9733876388
  0
LINE
  5
4C3
100
AcDbEntity
  8
RACCORDO
100
AcDbLine
 62
7
  6
CONTINUOUS
 10
6.4696037943
 20
-20.9733876388
 11
6.4696037943
 21
-21.3358600746
  0
LINE
  5
4C4
100
AcDbEntity
  8
DRAFT
100
AcDbLine
 62
7
  6
CONTINUOUS
 10
7.0736496773
 20
21.5743956209
 11
7.0736496773
 21
20.1587806784
  0
LINE
  5
4C5
100
AcDbEntity
  8
DRAFT
100
AcDbLine
 62
7
  6
CONTINUOUS
 10
7.0736496773
 20
-20.1587806784
 11
7.0736496773
 21
-21.5743956209
  0
LINE
  5
4C6
100
AcDbEntity
  8
DRAFT
100
AcDbLine
 62
7
  6
CONTINUOUS
 10
7.0736496773
 20
-19.75
 11
7.0736496773
 21
-19.4872753246
  0
LINE
  5
4C7
100
AcDbEntity
  8
ASSI
100
AcDbLine
 62
7
  6
CONTINUOUS
 10
7.0736496773
 20
-19.75
 11
7.0736496773
 21
-19.4872753246
  0
LINE
  5
4C8
100
AcDbEntity
  8
ASSI
100
AcDbLine
 62
7
  6
CONTINUOUS
 10
7.0736496773
 20
-21.5743956209
 11
7.0736496773
 21
-22.25
  0
LINE
  5
4C9
100
AcDbEntity
  8
DRAFT
100
AcDbLine
 62
7
  6
CONTINUOUS
 10
7.0736496773
 20
19.4872753246
 11
7.0736496773
 21
19.75
  0
LINE
  5
4CA
100
AcDbEntity
  8
ASSI
100
AcDbLine
 62
7
  6
CONTINUOUS
 10
7.0736496773
 20
19.4872753246
 11
7.0736496773
 21
19.75
  0
LINE
  5
4CB
100
AcDbEntity
  8
ASSI
100
AcDbLine
 62
7
  6
CONTINUOUS
 10
7.0736496773
 20
21.5752783383
 11
7.0736496773
 21
22.25
  0
LINE
  5
4CC
100
AcDbEntity
  8
CURVE
100
AcDbLine
 62
250
  6
CONTINUOUS
 10
7.1590458708
 20
-4.4812575318
 11
7.1590458708
 21
-5.7562532403
  0
LINE
  5
4CD
100
AcDbEntity
  8
CURVE
100
AcDbLine
 62
250
  6
CONTINUOUS
 10
7.612421033
 20
-10.998691
 11
7.612421033
 21
-11.554385
  0
LINE
  5
4CE
100
AcDbEntity
  8
CURVE
100
AcDbLine
 62
250
  6
CONTINUOUS
 10
7.612421033
 20
-14.887515
 11
7.612421033
 21
-15.443209
  0
LINE
  5
4CF
100
AcDbEntity
  8
CURVE
100
AcDbLine
 62
250
  6
CONTINUOUS
 10
7.6902536268
 20
-5.7562532403
 11
7.6902536268
 21
-4.4812575318
  0
LINE
  5
4D0
100
AcDbEntity
  8
CURVE
100
AcDbLine
 62
250
  6
CONTINUOUS
 10
7.6902821306
 20
-8.2345212723
 11
7.6902821306
 21
-6.7124925231
  0
LWPOLYLINE
  5
4D1
100
AcDbEntity
  8
CURVE
100
AcDbPolyline
 62
250
  6
CONTINUOUS
 90
33
 70
0
 10
7.1715712488
 20
0.9999999992
 10
7.1710566608
 20
0.9569951294
 10
7.169519833
 20
0.9138747334
 10
7.1669711693
 20
0.8706676501
 10
7.1634210738
 20
0.8274027182
 10
7.1588799506
 20
0.7841087765
 10
7.1533582038
 20
0.7408146637
 10
7.1468662373
 20
0.6975492186
 10
7.1394144552
 20
0.6543412799
 10
7.1310132615
 20
0.6112196865
 10
7.1216730604
 20
0.568213277
 10
7.1114042559
 20
0.5253508903
 10
7.100217252
 20
0.4826613651
 10
7.0881224527
 20
0.4401735401
 10
7.0751302621
 20
0.3979162542
 10
7.0612510844
 20
0.355918346
 10
7.0464953234
 20
0.3142086544
 10
7.0308733833
 20
0.272816018
 10
7.0143956681
 20
0.2317692757
 10
6.9970725819
 20
0.1910972663
 10
6.9789145286
 20
0.1508288284
 10
6.9599319125
 20
0.1109928009
 10
6.9401351374
 20
0.0716180224
 10
6.9195346076
 20
0.0327333318
 10
6.8981407269
 20
-0.0056324321
 10
6.8759638995
 20
-0.0434504307
 10
6.8530145294
 20
-0.0806918251
 10
6.8293030207
 20
-0.1173277766
 10
6.8048397774
 20
-0.1533294465
 10
6.7796352035
 20
-0.1886679959
 10
6.7536997032
 20
-0.2233145861
 10
6.7270436804
 20
-0.2572403784
 10
6.6996775392
 20
-0.290416534
  0
LWPOLYLINE
  5
4D2
100
AcDbEntity
  8
CURVE
100
AcDbPolyline
 62
250
  6
CONTINUOUS
 90
51
 70
0
 10
4.9280017993
 20
-8.2235663663
 10
4.9278648819
 20
-8.2324531331
 10
4.9274552897
 20
-8.2413610631
 10
4.9267747631
 20
-8.2502805478
 10
4.9258250426
 20
-8.2592019785
 10
4.9246078685
 20
-8.2681157467
 10
4.9231249812
 20
-8.2770122438
 10
4.9213781211
 20
-8.2858818611
 10
4.9193690285
 20
-8.29471499
 10
4.9170994438
 20
-8.303502022
 10
4.9145711075
 20
-8.3122333484
 10
4.9117857599
 20
-8.3208993606
 10
4.9087451413
 20
-8.3294904501
 10
4.9054509921
 20
-8.3379970082
 10
4.9019050528
 20
-8.3464094264
 10
4.8981090637
 20
-8.3547180959
 10
4.8940647651
 20
-8.3629134083
 10
4.8897738975
 20
-8.3709857549
 10
4.8852382013
 20
-8.3789255271
 10
4.8804594167
 20
-8.3867231164
 10
4.8754392843
 20
-8.394368914
 10
4.8701795443
 20
-8.4018533114
 10
4.8646819371
 20
-8.4091667001
 10
4.8589482032
 20
-8.4162994713
 10
4.8529800829
 20
-8.4232420165
 10
4.8467793166
 20
-8.4299847272
 10
4.8403572125
 20
-8.4365108421
 10
4.8337150342
 20
-8.4428235284
 10
4.8268630387
 20
-8.4489182795
 10
4.8198114832
 20
-8.454790589
 10
4.8125706246
 20
-8.4604359504
 10
4.80515072
 20
-8.4658498572
 10
4.7975620264
 20
-8.471027803
 10
4.7898148009
 20
-8.4759652814
 10
4.7819193005
 20
-8.4806577857
 10
4.7738857823
 20
-8.4851008096
 10
4.7657245033
 20
-8.4892898466
 10
4.7574457206
 20
-8.4932203902
 10
4.7490596912
 20
-8.496887934
 10
4.7405766722
 20
-8.5002879714
 10
4.7320069206
 20
-8.5034159961
 10
4.7233606934
 20
-8.5062675015
 10
4.7146482478
 20
-8.5088379811
 10
4.7058798407
 20
-8.5111229286
 10
4.6970657292
 20
-8.5131178374
 10
4.6882161704
 20
-8.5148182011
 10
4.6793414213
 20
-8.5162195131
 10
4.6704517389
 20
-8.5173172671
 10
4.6615573803
 20
-8.5181069565
 10
4.6526686025
 20
-8.5185840749
 10
4.6437956626
 20
-8.5187441158
  0
LWPOLYLINE
  5
4D3
100
AcDbEntity
  8
CURVE
100
AcDbPolyline
 62
250
  6
CONTINUOUS
 90
51
 70
0
 10
6.4153550123
 20
-4.7764352812
 10
6.4154919338
 20
-4.7675485397
 10
6.4159015377
 20
-4.7586406402
 10
6.4165820827
 20
-4.7497211907
 10
6.4175318281
 20
-4.7407997993
 10
6.4187490326
 20
-4.7318860741
 10
6.4202319553
 20
-4.7229896231
 10
6.4219788552
 20
-4.7141200544
 10
6.4239879912
 20
-4.705286976
 10
6.4262576222
 20
-4.696499996
 10
6.4287860073
 20
-4.6877687224
 10
6.4315714053
 20
-4.6791027632
 10
6.4346120754
 20
-4.6705117266
 10
6.4379062763
 20
-4.6620052206
 10
6.4414522672
 20
-4.6535928532
 10
6.445248307
 20
-4.6452842324
 10
6.4492926545
 20
-4.6370889664
 10
6.4535835689
 20
-4.6290166632
 10
6.458119309
 20
-4.6210769308
 10
6.4628981339
 20
-4.6132793773
 10
6.4679183025
 20
-4.6056336108
 10
6.4731780737
 20
-4.5981492392
 10
6.4786757065
 20
-4.5908358707
 10
6.4844094599
 20
-4.5837031132
 10
6.4903775929
 20
-4.5767605749
 10
6.4965783644
 20
-4.5700178638
 10
6.5030004699
 20
-4.5634917365
 10
6.5096426423
 20
-4.5571790309
 10
6.5164946251
 20
-4.551084254
 10
6.5235461619
 20
-4.545211913
 10
6.5307869961
 20
-4.539566515
 10
6.5382068712
 20
-4.534152567
 10
6.5457955309
 20
-4.5289745763
 10
6.5535427185
 20
-4.5240370499
 10
6.5614381776
 20
-4.5193444949
 10
6.5694716517
 20
-4.5149014184
 10
6.5776328842
 20
-4.5107123276
 10
6.5859116189
 20
-4.5067817295
 10
6.594297599
 20
-4.5031141313
 10
6.6027805682
 20
-4.4997140401
 10
6.6113502699
 20
-4.496585963
 10
6.6199964476
 20
-4.4937344071
 10
6.628708845
 20
-4.4911638795
 10
6.6374772054
 20
-4.4888788873
 10
6.6462912724
 20
-4.4868839377
 10
6.6551407894
 20
-4.4851835378
 10
6.6640155001
 20
-4.4837821946
 10
6.6729051479
 20
-4.4826844153
 10
6.6817994763
 20
-4.481894707
 10
6.6906882289
 20
-4.4814175768
 10
6.6995611491
 20
-4.4812575318
  0
LWPOLYLINE
  5
4D4
100
AcDbEntity
  8
CURVE
100
AcDbPolyline
 62
250
  6
CONTINUOUS
 90
51
 70
0
 10
7.6902821306
 20
-8.2345212723
 10
7.6901221047
 20
-8.2433947514
 10
7.6896450299
 20
-8.252284077
 10
7.6888554109
 20
-8.2611789911
 10
7.6877577526
 20
-8.2700692356
 10
7.6863565594
 20
-8.2789445525
 10
7.6846563361
 20
-8.2877946837
 10
7.6826615874
 20
-8.2966093711
 10
7.680376818
 20
-8.3053783568
 10
7.6778065325
 20
-8.3140913826
 10
7.6749552356
 20
-8.3227381904
 10
7.671827432
 20
-8.3313085223
 10
7.6684276264
 20
-8.3397921202
 10
7.6647603235
 20
-8.348178726
 10
7.6608300279
 20
-8.3564580816
 10
7.6566412444
 20
-8.364619929
 10
7.6521984775
 20
-8.3726540102
 10
7.6475062321
 20
-8.380550067
 10
7.6425690127
 20
-8.3882978415
 10
7.637391324
 20
-8.3958870755
 10
7.6319776708
 20
-8.4033075111
 10
7.6263325577
 20
-8.4105488901
 10
7.6204604894
 20
-8.4176009544
 10
7.6143659705
 20
-8.4244534461
 10
7.6080535058
 20
-8.4310961071
 10
7.6015275999
 20
-8.4375186793
 10
7.5947854562
 20
-8.4437195685
 10
7.5878434858
 20
-8.4496878199
 10
7.5807112968
 20
-8.455421692
 10
7.5733984975
 20
-8.4609194434
 10
7.5659146958
 20
-8.4661793326
 10
7.5582694999
 20
-8.471199618
 10
7.5504725179
 20
-8.4759785582
 10
7.542533358
 20
-8.4805144115
 10
7.5344616282
 20
-8.4848054366
 10
7.5262669367
 20
-8.4888498918
 10
7.5179588916
 20
-8.4926460358
 10
7.509547101
 20
-8.4961921269
 10
7.5010411731
 20
-8.4994864236
 10
7.4924507159
 20
-8.5025271845
 10
7.4837853376
 20
-8.5053126681
 10
7.4750546463
 20
-8.5078411327
 10
7.4662682502
 20
-8.510110837
 10
7.4574357572
 20
-8.5121200394
 10
7.4485667756
 20
-8.5138669983
 10
7.4396709135
 20
-8.5153499724
 10
7.430757779
 20
-8.51656722
 10
7.4218369802
 20
-8.5175169996
 10
7.4129181252
 20
-8.5181975698
 10
7.4040108222
 20
-8.518607189
 10
7.3951246792
 20
-8.5187441158
  0
LWPOLYLINE
  5
4D5
100
AcDbEntity
  8
DRAFT
100
AcDbPolyline
 62
7
  6
CONTINUOUS
 90
27
 70
0
 10
5.3736496773
 20
-21.6653046413
 10
5.375876169
 20
-21.581278644
 10
5.3824958285
 20
-21.4974608372
 10
5.3934129847
 20
-21.4138512209
 10
5.408475281
 20
-21.3305108427
 10
5.4275980405
 20
-21.2473786552
 10
5.4508839972
 20
-21.1642715153
 10
5.478319726
 20
-21.0811549527
 10
5.509876867
 20
-20.9980634379
 10
5.545829734
 20
-20.9149172396
 10
5.5862236848
 20
-20.8316593785
 10
5.6311088935
 20
-20.7483468339
 10
5.6809536877
 20
-20.6650708128
 10
5.7360255342
 20
-20.5815136288
 10
5.7962999175
 20
-20.4979929682
 10
5.8618916935
 20
-20.4155530967
 10
5.9328747123
 20
-20.3340987238
 10
6.0092851302
 20
-20.25372514
 10
6.0911535513
 20
-20.1757624823
 10
6.1782808759
 20
-20.1002382176
 10
6.270799557
 20
-20.0271248791
 10
6.3692674616
 20
-19.9576702022
 10
6.4740915177
 20
-19.8915310408
 10
6.584762971
 20
-19.8290505411
 10
6.7004044717
 20
-19.7725058776
 10
6.8205153892
 20
-19.7226561086
 10
6.9450426051
 20
-19.6787421759
  0
LWPOLYLINE
  5
4D6
100
AcDbEntity
  8
ASSI
100
AcDbPolyline
 62
7
  6
CONTINUOUS
 90
27
 70
0
 10
5.3736496773
 20
-21.6653046413
 10
5.375876169
 20
-21.581278644
 10
5.3824958285
 20
-21.4974608372
 10
5.3934129847
 20
-21.4138512209
 10
5.408475281
 20
-21.3305108427
 10
5.4275980405
 20
-21.2473786552
 10
5.4508839972
 20
-21.1642715153
 10
5.478319726
 20
-21.0811549527
 10
5.509876867
 20
-20.9980634379
 10
5.545829734
 20
-20.9149172396
 10
5.5862236848
 20
-20.8316593785
 10
5.6311088935
 20
-20.7483468339
 10
5.6809536877
 20
-20.6650708128
 10
5.7360255342
 20
-20.5815136288
 10
5.7962999175
 20
-20.4979929682
 10
5.8618916935
 20
-20.4155530967
 10
5.9328747123
 20
-20.3340987238
 10
6.0092851302
 20
-20.25372514
 10
6.0911535513
 20
-20.1757624823
 10
6.1782808759
 20
-20.1002382176
 10
6.270799557
 20
-20.0271248791
 10
6.3692674616
 20
-19.9576702022
 10
6.4740915177
 20
-19.8915310408
 10
6.584762971
 20
-19.8290505411
 10
6.7004044717
 20
-19.7725058776
 10
6.8205153892
 20
-19.7226561086
 10
6.9450426051
 20
-19.6787421759
  0
LWPOLYLINE
  5
4D7
100
AcDbEntity
  8
RACCORDO
100
AcDbPolyline
 62
7
  6
CONTINUOUS
 90
22
 70
0
 10
6.4696037943
 20
20.9733876388
 10
6.4685443299
 20
20.9569847175
 10
6.4657002461
 20
20.9407072475
 10
6.4610723446
 20
20.9246248709
 10
6.4545491887
 20
20.9087868459
 10
6.4462435831
 20
20.8932797506
 10
6.4364922794
 20
20.8782231471
 10
6.4252858059
 20
20.8637056669
 10
6.412633687
 20
20.8497483878
 10
6.3989009049
 20
20.8363636985
 10
6.3841190526
 20
20.8236182061
 10
6.368256339
 20
20.8115401377
 10
6.3515831363
 20
20.8000950384
 10
6.3341928779
 20
20.7893760223
 10
6.3159921462
 20
20.7793888553
 10
6.2969725749
 20
20.7700193984
 10
6.2771063863
 20
20.7613483539
 10
6.2564234649
 20
20.7534871094
 10
6.2350038877
 20
20.7464502494
 10
6.2128757065
 20
20.7403547898
 10
6.1900138913
 20
20.7353771427
 10
6.1664194525
 20
20.7316637995
  0
LWPOLYLINE
  5
4D8
100
AcDbEntity
  8
ASSI
100
AcDbPolyline
 62
7
  6
CONTINUOUS
 90
28
 70
0
 10
6.4696037943
 20
21.3358600746
 10
6.4708571619
 20
21.3540607894
 10
6.4743495783
 20
21.3719632152
 10
6.4800802674
 20
21.3894773866
 10
6.4881772046
 20
21.4065996547
 10
6.4985111897
 20
21.4231679479
 10
6.5106971805
 20
21.4388812419
 10
6.5247313131
 20
21.4536294122
 10
6.5406202988
 20
21.4674549067
 10
6.5579965557
 20
21.4803234066
 10
6.5768817864
 20
21.4922379439
 10
6.5972578641
 20
21.5031930491
 10
6.6186979798
 20
21.5131656892
 10
6.6410590673
 20
21.5221403117
 10
6.664488708
 20
21.5301992189
 10
6.6889957364
 20
21.5374649755
 10
6.7145555112
 20
21.5439777192
 10
6.7411956272
 20
21.5497483162
 10
6.7690024406
 20
21.5548343596
 10
6.797996336
 20
21.5592732901
 10
6.8281592933
 20
21.563078233
 10
6.8595198886
 20
21.566268904
 10
6.8920627665
 20
21.5688826183
 10
6.9258056395
 20
21.5709500384
 10
6.9608268653
 20
21.5724932735
 10
6.9971534099
 20
21.5735513718
 10
7.0347606647
 20
21.5741717022
 10
7.0736496773
 20
21.5743956209
  0
LWPOLYLINE
  5
4D9
100
AcDbEntity
  8
ASSI
100
AcDbPolyline
 62
250
  6
CONTINUOUS
 90
8
 70
0
 10
-0.777047948
 20
-23.25
 10
-0.7766158863
 20
-23.2484735924
 10
-0.7761904187
 20
-23.2439176549
 10
-0.7757780398
 20
-23.2364017097
 10
-0.7753850443
 20
-23.2260404673
 10
-0.7750174311
 20
-23.212992063
 10
-0.7746808112
 20
-23.1974556313
 10
-0.7741205546
 20
-23.1599015586
  0
LWPOLYLINE
  5
4DA
100
AcDbEntity
  8
ASSI
100
AcDbPolyline
 62
250
  6
CONTINUOUS
 90
13
 70
0
 10
-1.3381526505
 20
-23.1639259153
 10
-1.3341268688
 20
-23.1515971733
 10
-1.330593157
 20
-23.1395062454
 10
-1.3275515152
 20
-23.1276531314
 10
-1.3250337418
 20
-23.1160252356
 10
-1.3230080383
 20
-23.1046351538
 10
-1.3213790092
 20
-23.0935206732
 10
-1.3201432621
 20
-23.082699037
 10
-1.3193041894
 20
-23.072153002
 10
-1.3187765729
 20
-23.0618686257
 10
-1.3185320065
 20
-23.0518412606
 10
-1.3185988963
 20
-23.0420755541
 10
-1.3189772423
 20
-23.0325715063
  0
LWPOLYLINE
  5
4DB
100
AcDbEntity
  8
ASSI
100
AcDbPolyline
 62
250
  6
CONTINUOUS
 90
13
 70
0
 10
-1.4995675052
 20
-23.1156774572
 10
-1.4974205721
 20
-23.1095288497
 10
-1.4955666113
 20
-23.103479799
 10
-1.4939946303
 20
-23.0975408149
 10
-1.492700445
 20
-23.0917227736
 10
-1.4916658502
 20
-23.0860328696
 10
-1.4908589158
 20
-23.0804745835
 10
-1.4902675634
 20
-23.0750607481
 10
-1.4898817885
 20
-23.0697912216
 10
-1.489674593
 20
-23.064648559
 10
-1.48963159
 20
-23.0596295805
 10
-1.489749399
 20
-23.0547456303
 10
-1.4900192103
 20
-23.05
  0
LWPOLYLINE
  5
4DC
100
AcDbEntity
  8
CURVE
100
AcDbPolyline
 62
250
  6
CONTINUOUS
 90
37
 70
0
 10
4.1048507329
 20
1.9719731481
 10
4.0816415965
 20
1.9466556907
 10
4.0589018662
 20
1.9209361225
 10
4.0366396872
 20
1.8948091923
 10
4.0148632048
 20
1.8682696487
 10
3.9935805645
 20
1.8413122403
 10
3.9727999116
 20
1.8139317159
 10
3.9525293915
 20
1.786122824
 10
3.9327771495
 20
1.7578803134
 10
3.9135513309
 20
1.7291989327
 10
3.8948600811
 20
1.7000734305
 10
3.8767115455
 20
1.6704985555
 10
3.8623132651
 20
1.646033101
 10
3.8482990575
 20
1.621277259
 10
3.834686254
 20
1.5962433139
 10
3.8214921858
 20
1.5709435502
 10
3.808734184
 20
1.5453902521
 10
3.7964295799
 20
1.5195957041
 10
3.7845957047
 20
1.4935721904
 10
3.7732498895
 20
1.4673319955
 10
3.7624094655
 20
1.4408874038
 10
3.752091764
 20
1.4142506995
 10
3.742314116
 20
1.387434167
 10
3.7330938529
 20
1.3604500908
 10
3.7244483058
 20
1.3333107551
 10
3.7163948059
 20
1.3060284443
 10
3.7089506843
 20
1.2786154429
 10
3.7021332724
 20
1.2510840351
 10
3.6959599012
 20
1.2234465053
 10
3.6904479019
 20
1.1957151379
 10
3.6856146058
 20
1.1679022173
 10
3.681477344
 20
1.1400200277
 10
3.6780534478
 20
1.1120808536
 10
3.6753602483
 20
1.0840969794
 10
3.6734150767
 20
1.0560806893
 10
3.6722352642
 20
1.0280442678
 10
3.671838142
 20
0.9999999992
  0
LINE
  5
4DD
100
AcDbEntity
  8
CURVE
100
AcDbLine
 62
250
  6
CONTINUOUS
 10
9.7736496773
 20
-16.0
 11
11.0736496773
 21
-16.0
  0
LINE
  5
4DE
100
AcDbEntity
  8
CURVE
100
AcDbLine
 62
250
  6
CONTINUOUS
 10
3.1684134808
 20
-15.998558
 11
8.1680727156
 21
-15.998558
  0
LINE
  5
4DF
100
AcDbEntity
  8
CURVE
100
AcDbLine
 62
250
  6
CONTINUOUS
 10
7.612421033
 20
-15.443209
 11
5.945982946
 21
-15.443209
  0
LINE
  5
4E0
100
AcDbEntity
  8
CURVE
100
AcDbLine
 62
250
  6
CONTINUOUS
 10
5.3903312634
 20
-15.443209
 11
3.7238931764
 21
-15.443209
  0
LINE
  5
4E1
100
AcDbEntity
  8
CURVE
100
AcDbLine
 62
250
  6
CONTINUOUS
 10
11.0736496773
 20
-15.2571428239
 11
9.7736496773
 21
-15.2571428239
  0
LINE
  5
4E2
100
AcDbEntity
  8
CURVE
100
AcDbLine
 62
250
  6
CONTINUOUS
 10
8.1680727156
 20
-14.887515
 11
7.612421033
 21
-14.887515
  0
LINE
  5
4E3
100
AcDbEntity
  8
CURVE
100
AcDbLine
 62
250
  6
CONTINUOUS
 10
5.945982946
 20
-14.887515
 11
5.3903312634
 21
-14.887515
  0
LINE
  5
4E4
100
AcDbEntity
  8
CURVE
100
AcDbLine
 62
250
  6
CONTINUOUS
 10
3.7238931764
 20
-14.887515
 11
3.1684134808
 21
-14.887515
  0
LINE
  5
4E5
100
AcDbEntity
  8
CURVE
100
AcDbLine
 62
250
  6
CONTINUOUS
 10
8.1680727156
 20
-14.332166
 11
3.1684134808
 21
-14.332166
  0
LINE
  5
4E6
100
AcDbEntity
  8
0
100
AcDbLine
 62
7
  6
CONTINUOUS
 10
12.0736496773
 20
-14.2501398489
 11
12.2736496773
 21
-14.2501398489
  0
LINE
  5
4E7
100
AcDbEntity
  8
ASSI
100
AcDbLine
 62
7
  6
CONTINUOUS
 10
12.0736496773
 20
-14.2501398489
 11
12.2736496773
 21
-14.2501398489
  0
LINE
  5
4E8
100
AcDbEntity
  8
CURVE
100
AcDbLine
 62
250
  6
CONTINUOUS
 10
1.5660505139
 20
-9.191626
 11
-1.4333600564
 21
-8.250748
  0
LINE
  5
4E9
100
AcDbEntity
  8
CURVE
100
AcDbLine
 62
250
  6
CONTINUOUS
 10
8.1680727156
 20
-12.665429
 11
8.1680727156
 21
-13.220778
  0
LINE
  5
4EA
100
AcDbEntity
  8
CURVE
100
AcDbLine
 62
250
  6
CONTINUOUS
 10
8.1680727156
 20
-13.776472
 11
8.1680727156
 21
-14.332166
  0
LINE
  5
4EB
100
AcDbEntity
  8
CURVE
100
AcDbLine
 62
250
  6
CONTINUOUS
 10
8.1680727156
 20
-15.998558
 11
8.1680727156
 21
-14.887515
  0
LINE
  5
4EC
100
AcDbEntity
  8
CURVE
100
AcDbLine
 62
250
  6
CONTINUOUS
 10
8.1680727156
 20
-12.109735
 11
8.1680727156
 21
-10.998691
  0
LINE
  5
4ED
100
AcDbEntity
  8
CURVE
100
AcDbLine
 62
250
  6
CONTINUOUS
 10
8.1714954549
 20
-2.0
 11
8.1714954549
 21
-1.000000718
  0
LINE
  5
4EE
100
AcDbEntity
  8
CURVE
100
AcDbLine
 62
250
  6
CONTINUOUS
 10
8.2214916473
 20
-6.7124925231
 11
8.2214916473
 21
-8.2416615991
  0
LINE
  5
4EF
100
AcDbEntity
  8
CURVE
100
AcDbLine
 62
250
  6
CONTINUOUS
 10
8.2214916473
 20
-6.287501626
 11
8.2214916473
 21
-5.7562532403
  0
LINE
  5
4F0
100
AcDbEntity
  8
CURVE
100
AcDbLine
 62
250
  6
CONTINUOUS
 10
8.2214916473
 20
-4.4812575318
 11
8.2214916473
 21
-3.95000932
  0
LINE
  5
4F1
100
AcDbEntity
  8
CURVE
100
AcDbLine
 62
250
  6
CONTINUOUS
 10
9.7736496773
 20
-6.1880954742
 11
9.7736496773
 21
-6.9309522629
  0
LINE
  5
4F2
100
AcDbEntity
  8
CURVE
100
AcDbLine
 62
250
  6
CONTINUOUS
 10
9.7736496773
 20
-12.0380951643
 11
9.7736496773
 21
-12.5952380657
  0
LINE
  5
4F3
100
AcDbEntity
  8
CURVE
100
AcDbLine
 62
250
  6
CONTINUOUS
 10
9.7736496773
 20
-13.3071429014
 11
9.7736496773
 21
-13.7714285493
  0
LINE
  5
4F4
100
AcDbEntity
  8
CURVE
100
AcDbLine
 62
250
  6
CONTINUOUS
 10
10.3307925012
 20
-12.5952380657
 11
10.3307925012
 21
-12.2238096714
  0
LINE
  5
4F5
100
AcDbEntity
  8
CURVE
100
AcDbLine
 62
250
  6
CONTINUOUS
 10
10.7022210893
 20
-5.1976193428
 11
10.7022210893
 21
-5.6928574085
  0
LINE
  5
4F6
100
AcDbEntity
  8
CURVE
100
AcDbLine
 62
250
  6
CONTINUOUS
 10
10.7022210893
 20
-14.266666615
 11
10.7022210893
 21
-14.7619047582
  0
LWPOLYLINE
  5
4F7
100
AcDbEntity
  8
CURVE
100
AcDbPolyline
 62
250
  6
CONTINUOUS
 90
31
 70
0
 10
7.6199119876
 20
-0.7340457986
 10
7.6545060244
 20
-0.6841224246
 10
7.6880865043
 20
-0.6333148491
 10
7.7206422598
 20
-0.5816595949
 10
7.7521621234
 20
-0.5291931851
 10
7.7826349273
 20
-0.4759521425
 10
7.812049504
 20
-0.42197299
 10
7.8403946859
 20
-0.3672922507
 10
7.8676593055
 20
-0.3119464474
 10
7.8938321951
 20
-0.255972103
 10
7.9189021872
 20
-0.1994057406
 10
7.9428581141
 20
-0.1422838829
 10
7.9656888083
 20
-0.084643053
 10
7.9873831022
 20
-0.0265197738
 10
8.0079298282
 20
0.0320494318
 10
8.0273178187
 20
0.0910280409
 10
8.0455359061
 20
0.1503795305
 10
8.0625729228
 20
0.2100673777
 10
8.0784177013
 20
0.2700550595
 10
8.0930590738
 20
0.3303060531
 10
8.106485873
 20
0.3907838355
 10
8.1186869311
 20
0.4514518838
 10
8.1296510806
 20
0.512273675
 10
8.1393671538
 20
0.5732126863
 10
8.1478239833
 20
0.6342323946
 10
8.1550104013
 20
0.6952962771
 10
8.1609152404
 20
0.7563678108
 10
8.1655273329
 20
0.8174104728
 10
8.1688355112
 20
0.8783877402
 10
8.1708286077
 20
0.93926309
 10
8.1714954549
 20
0.9999999992
  0
LWPOLYLINE
  5
4F8
100
AcDbEntity
  8
CURVE
100
AcDbPolyline
 62
250
  6
CONTINUOUS
 90
82
 70
0
 10
6.2294857925
 20
-0.0636291216
 10
6.2690180741
 20
-0.0226140367
 10
6.3070593959
 20
0.0198546678
 10
6.3435598265
 20
0.0637047181
 10
6.3784694346
 20
0.1088638405
 10
6.4117382888
 20
0.155259761
 10
6.4433164577
 20
0.2028202061
 10
6.4735897281
 20
0.2522200951
 10
6.5020073641
 20
0.3026930732
 10
6.52850736
 20
0.3541867134
 10
6.5530277102
 20
0.4066485886
 10
6.575506409
 20
0.4600262718
 10
6.5958814508
 20
0.5142673359
 10
6.6141214227
 20
0.5694350409
 10
6.6300793032
 20
0.6253197969
 10
6.6436482948
 20
0.6818240947
 10
6.6547215999
 20
0.738850425
 10
6.6631924211
 20
0.7963012786
 10
6.6689539608
 20
0.8540791461
 10
6.6719469359
 20
0.9128584535
 10
6.6721028032
 20
0.9717373795
 10
6.6694764401
 20
1.0305798516
 10
6.6641227245
 20
1.0892497976
 10
6.656096534
 20
1.147611145
 10
6.6454527463
 20
1.2055278214
 10
6.6317423479
 20
1.2649043115
 10
6.615416293
 20
1.3235988118
 10
6.5966070317
 20
1.3815520866
 10
6.5754470137
 20
1.4387049003
 10
6.5520686892
 20
1.4949980173
 10
6.5266045081
 20
1.550372202
 10
6.4983450995
 20
1.6063454062
 10
6.4680833816
 20
1.6612391925
 10
6.4358862394
 20
1.715010291
 10
6.4018205574
 20
1.7676154322
 10
6.3659532206
 20
1.8190113464
 10
6.3283511135
 20
1.8691547639
 10
6.2887920485
 20
1.9183413381
 10
6.2475821578
 20
1.966151481
 10
6.2047622585
 20
2.0125229845
 10
6.1603731674
 20
2.0573936404
 10
6.1144557015
 20
2.1007012404
 10
6.0670506776
 20
2.1423835763
 10
6.0190250328
 20
2.1817188831
 10
5.9696333204
 20
2.2193267381
 10
5.9189083163
 20
2.2551112947
 10
5.8668827967
 20
2.2889767063
 10
5.8135895377
 20
2.3208271263
 10
5.7590613155
 20
2.3505667081
 10
5.7128627442
 20
2.3735858504
 10
5.6658792791
 20
2.3949842158
 10
5.6181552799
 20
2.414663171
 10
5.5697351067
 20
2.432524083
 10
5.5206631194
 20
2.4484683187
 10
5.4709836779
 20
2.4623972447
 10
5.4207411422
 20
2.4742122281
 10
5.3710341523
 20
2.4836514341
 10
5.3209386766
 20
2.490937113
 10
5.2705639634
 20
2.4960387402
 10
5.2200192609
 20
2.498925791
 10
5.1694138174
 20
2.4995677408
 10
5.1188568811
 20
2.4979340649
 10
5.0684577002
 20
2.4939942388
 10
5.0172419461
 20
2.487581367
 10
4.966368388
 20
2.4788450163
 10
4.9159006064
 20
2.4679000029
 10
4.8659021819
 20
2.4548611433
 10
4.8164366948
 20
2.439843254
 10
4.7675677256
 20
2.4229611514
 10
4.719358855
 20
2.4043296519
 10
4.6619506464
 20
2.3795776588
 10
4.6056353681
 20
2.3525317125
 10
4.5504450847
 20
2.3232940466
 10
4.4964118609
 20
2.2919668947
 10
4.4435677614
 20
2.2586524905
 10
4.391944851
 20
2.2234530676
 10
4.3405663939
 20
2.1856969481
 10
4.290538542
 20
2.1461675896
 10
4.2419071726
 20
2.1049477612
 10
4.194718163
 20
2.062120232
 10
4.1490173907
 20
2.0177677713
 10
4.1048507329
 20
1.9719731481
  0
LINE
  5
4F9
100
AcDbEntity
  8
CURVE
100
AcDbLine
 62
250
  6
CONTINUOUS
 10
5.3903312634
 20
-13.776472
 11
3.7238931764
 21
-13.776472
  0
LINE
  5
4FA
100
AcDbEntity
  8
CURVE
100
AcDbLine
 62
250
  6
CONTINUOUS
 10
5.945982946
 20
-13.776472
 11
8.1680727156
 21
-13.776472
  0
LINE
  5
4FB
100
AcDbEntity
  8
CURVE
100
AcDbLine
 62
250
  6
CONTINUOUS
 10
9.7736496773
 20
-13.7714285493
 11
11.0736496773
 21
-13.7714285493
  0
LINE
  5
4FC
100
AcDbEntity
  8
CURVE
100
AcDbLine
 62
250
  6
CONTINUOUS
 10
-1.4335400427
 20
-13.295314
 11
1.5660505139
 21
-13.295314
  0
LINE
  5
4FD
100
AcDbEntity
  8
CURVE
100
AcDbLine
 62
250
  6
CONTINUOUS
 10
8.1680727156
 20
-13.220778
 11
5.945982946
 21
-13.220778
  0
LINE
  5
4FE
100
AcDbEntity
  8
CURVE
100
AcDbLine
 62
250
  6
CONTINUOUS
 10
3.7238931764
 20
-13.220778
 11
5.3903312634
 21
-13.220778
  0
LINE
  5
4FF
100
AcDbEntity
  8
CURVE
100
AcDbLine
 62
250
  6
CONTINUOUS
 10
10.8879353833
 20
-13.1214287043
 11
9.9593639519
 21
-13.1214287043
  0
LINE
  5
500
100
AcDbEntity
  8
CURVE
100
AcDbLine
 62
250
  6
CONTINUOUS
 10
1.5660505139
 20
-12.669172
 11
-1.4335400427
 21
-12.669172
  0
LINE
  5
501
100
AcDbEntity
  8
CURVE
100
AcDbLine
 62
250
  6
CONTINUOUS
 10
3.1684134808
 20
-12.665429
 11
8.1680727156
 21
-12.665429
  0
LINE
  5
502
100
AcDbEntity
  8
CURVE
100
AcDbLine
 62
250
  6
CONTINUOUS
 10
9.7736496773
 20
-12.5952380657
 11
11.0736496773
 21
-12.5952380657
  0
LINE
  5
503
100
AcDbEntity
  8
0
100
AcDbLine
 62
7
  6
CONTINUOUS
 10
12.0736496773
 20
-12.4340565658
 11
12.2736496773
 21
-12.4340565658
  0
LINE
  5
504
100
AcDbEntity
  8
ASSI
100
AcDbLine
 62
7
  6
CONTINUOUS
 10
12.0736496773
 20
-12.4340565658
 11
12.2736496773
 21
-12.4340565658
  0
LINE
  5
505
100
AcDbEntity
  8
0
100
AcDbLine
 62
7
  6
CONTINUOUS
 10
12.0736496773
 20
-12.1353665902
 11
12.2736496773
 21
-12.1353665902
  0
LINE
  5
506
100
AcDbEntity
  8
ASSI
100
AcDbLine
 62
7
  6
CONTINUOUS
 10
12.0736496773
 20
-12.1353665902
 11
12.2736496773
 21
-12.1353665902
  0
LINE
  5
507
100
AcDbEntity
  8
CURVE
100
AcDbLine
 62
250
  6
CONTINUOUS
 10
3.1684134808
 20
-12.109735
 11
8.1680727156
 21
-12.109735
  0
LINE
  5
508
100
AcDbEntity
  8
0
100
AcDbLine
 62
7
  6
CONTINUOUS
 10
12.0736496773
 20
-11.7524439744
 11
12.2736496773
 21
-11.7524439744
  0
LINE
  5
509
100
AcDbEntity
  8
ASSI
100
AcDbLine
 62
7
  6
CONTINUOUS
 10
12.0736496773
 20
-11.7524439744
 11
12.2736496773
 21
-11.7524439744
  0
LINE
  5
50A
100
AcDbEntity
  8
0
100
AcDbLine
 62
7
  6
CONTINUOUS
 10
12.2736496773
 20
-11.7103864159
 11
12.0736496773
 21
-11.7103864159
  0
LINE
  5
50B
100
AcDbEntity
  8
ASSI
100
AcDbLine
 62
7
  6
CONTINUOUS
 10
12.2736496773
 20
-11.7103864159
 11
12.0736496773
 21
-11.7103864159
  0
LINE
  5
50C
100
AcDbEntity
  8
CURVE
100
AcDbLine
 62
250
  6
CONTINUOUS
 10
7.612421033
 20
-11.554385
 11
3.7238931764
 21
-11.554385
  0
LINE
  5
50D
100
AcDbEntity
  8
CURVE
100
AcDbLine
 62
250
  6
CONTINUOUS
 10
-0.3925083258
 20
-11.597964
 11
1.5660505139
 21
-11.733085
  0
LINE
  5
50E
100
AcDbEntity
  8
CURVE
100
AcDbLine
 62
250
  6
CONTINUOUS
 10
1.5660505139
 20
-12.3321
 11
-1.4333600564
 21
-12.06125
  0
LINE
  5
50F
100
AcDbEntity
  8
CURVE
100
AcDbLine
 62
250
  6
CONTINUOUS
 10
-0.609198823
 20
-7.959654
 11
0.5039204038
 21
-8.27142
  0
LINE
  5
510
100
AcDbEntity
  8
CURVE
100
AcDbLine
 62
250
  6
CONTINUOUS
 10
0.9672611166
 20
-8.399501
 11
1.5660505139
 21
-8.572277
  0
LWPOLYLINE
  5
511
100
AcDbEntity
  8
ASSI
100
AcDbPolyline
 62
250
  6
CONTINUOUS
 90
10
 70
0
 10
-1.4995670618
 20
23.115675964
 10
-1.5044517967
 20
23.1279294045
 10
-1.5098915682
 20
23.1393455101
 10
-1.5157807074
 20
23.1499232453
 10
-1.5219806131
 20
23.15966831
 10
-1.5284394728
 20
23.1686031802
 10
-1.5351923288
 20
23.1767640975
 10
-1.5422025641
 20
23.1841845698
 10
-1.5493623038
 20
23.1908954663
 10
-1.556611368
 20
23.1969345393
  0
LWPOLYLINE
  5
512
100
AcDbEntity
  8
ASSI
100
AcDbPolyline
 62
250
  6
CONTINUOUS
 90
7
 70
0
 10
3.2757726209
 20
23.25
 10
3.2762046895
 20
23.2484735427
 10
3.2766301627
 20
23.2439174713
 10
3.2770425459
 20
23.2364013325
 10
3.2774355443
 20
23.2260398568
 10
3.2778031588
 20
23.2129912078
 10
3.2781397781
 20
23.1974545675
  0
LINE
  5
513
100
AcDbEntity
  8
CURVE
100
AcDbLine
 62
250
  6
CONTINUOUS
 10
11.0736496773
 20
-4.2380954742
 11
11.0736496773
 21
-4.7023806572
  0
LINE
  5
514
100
AcDbEntity
  8
CURVE
100
AcDbLine
 62
250
  6
CONTINUOUS
 10
11.0736496773
 20
-13.7714285493
 11
11.0736496773
 21
-13.3071429014
  0
LINE
  5
515
100
AcDbEntity
  8
CURVE
100
AcDbLine
 62
250
  6
CONTINUOUS
 10
11.0736496773
 20
-12.5952380657
 11
11.0736496773
 21
-12.0380951643
  0
LINE
  5
516
100
AcDbEntity
  8
DRAFT
100
AcDbLine
 62
7
  6
CONTINUOUS
 10
12.0736496773
 20
19.4
 11
12.0736496773
 21
18.706389611
  0
LINE
  5
517
100
AcDbEntity
  8
DRAFT
100
AcDbLine
 62
7
  6
CONTINUOUS
 10
12.0736496773
 20
-18.706389611
 11
12.0736496773
 21
-19.4
  0
LINE
  5
518
100
AcDbEntity
  8
RACCORDO
100
AcDbLine
 62
7
  6
CONTINUOUS
 10
12.0736496773
 20
-18.706389611
 11
12.0736496773
 21
18.706389611
  0
LINE
  5
519
100
AcDbEntity
  8
ASSI
100
AcDbLine
 62
7
  6
CONTINUOUS
 10
12.0736496773
 20
-19.4
 11
12.0736496773
 21
19.4
  0
LINE
  5
51A
100
AcDbEntity
  8
0
100
AcDbLine
 62
7
  6
CONTINUOUS
 10
12.2736496773
 20
14.2887249438
 11
12.2736496773
 21
11.7103901915
  0
LINE
  5
51B
100
AcDbEntity
  8
ASSI
100
AcDbLine
 62
7
  6
CONTINUOUS
 10
12.2736496773
 20
14.2887249438
 11
12.2736496773
 21
11.7103901915
  0
LINE
  5
51C
100
AcDbEntity
  8
0
100
AcDbLine
 62
7
  6
CONTINUOUS
 10
12.2736496773
 20
-11.7103864189
 11
12.2736496773
 21
-14.2501398489
  0
LINE
  5
51D
100
AcDbEntity
  8
ASSI
100
AcDbLine
 62
7
  6
CONTINUOUS
 10
12.2736496773
 20
-11.7103864189
 11
12.2736496773
 21
-14.2501398489
  0
LINE
  5
51E
100
AcDbEntity
  8
RACCORDO
100
AcDbLine
 62
250
  6
CONTINUOUS
 10
12.3631798283
 20
10.0898893843
 11
12.3631798283
 21
2.1101106157
  0
LINE
  5
51F
100
AcDbEntity
  8
ASSI
100
AcDbLine
 62
250
  6
CONTINUOUS
 10
12.3631798283
 20
10.0898893843
 11
12.3631798283
 21
2.1101106157
  0
LINE
  5
520
100
AcDbEntity
  8
RACCORDO
100
AcDbLine
 62
250
  6
CONTINUOUS
 10
12.3631798283
 20
-2.1101106157
 11
12.3631798283
 21
-10.0898893843
  0
LINE
  5
521
100
AcDbEntity
  8
ASSI
100
AcDbLine
 62
250
  6
CONTINUOUS
 10
12.3631798283
 20
-2.1101106157
 11
12.3631798283
 21
-10.0898893843
  0
LINE
  5
522
100
AcDbEntity
  8
RACCORDO
100
AcDbLine
 62
250
  6
CONTINUOUS
 10
13.7841195263
 20
10.0402690767
 11
13.7841195263
 21
2.1597309233
  0
LINE
  5
523
100
AcDbEntity
  8
ASSI
100
AcDbLine
 62
250
  6
CONTINUOUS
 10
13.7841195263
 20
10.0402690767
 11
13.7841195263
 21
2.1597309233
  0
LINE
  5
524
100
AcDbEntity
  8
RACCORDO
100
AcDbLine
 62
250
  6
CONTINUOUS
 10
13.7841195263
 20
-2.1597309233
 11
13.7841195263
 21
-10.0402690767
  0
LINE
  5
525
100
AcDbEntity
  8
ASSI
100
AcDbLine
 62
250
  6
CONTINUOUS
 10
13.7841195263
 20
-2.1597309233
 11
13.7841195263
 21
-10.0402690767
  0
LINE
  5
526
100
AcDbEntity
  8
RACCORDO
100
AcDbLine
 62
250
  6
CONTINUOUS
 10
11.5782449562
 20
17.4790197823
 11
11.578012945
 21
19.4086513714
  0
LINE
  5
527
100
AcDbEntity
  8
ASSI
100
AcDbLine
 62
250
  6
CONTINUOUS
 10
11.5782449562
 20
17.4790197823
 11
11.578012945
 21
19.4086513714
  0
LINE
  5
528
100
AcDbEntity
  8
RACCORDO
100
AcDbLine
 62
250
  6
CONTINUOUS
 10
11.5781930575
 20
-17.6181627865
 11
11.578012945
 21
17.3673827853
  0
LINE
  5
529
100
AcDbEntity
  8
ASSI
100
AcDbLine
 62
250
  6
CONTINUOUS
 10
11.5781930575
 20
-17.6181627865
 11
11.578012945
 21
17.3673827853
  0
LINE
  5
52A
100
AcDbEntity
  8
RACCORDO
100
AcDbLine
 62
250
  6
CONTINUOUS
 10
11.578012945
 20
17.3673827862
 11
11.5782449562
 21
17.4790197823
  0
LINE
  5
52B
100
AcDbEntity
  8
ASSI
100
AcDbLine
 62
250
  6
CONTINUOUS
 10
11.578012945
 20
17.3673827862
 11
11.5782449562
 21
17.4790197823
  0
LINE
  5
52C
100
AcDbEntity
  8
RACCORDO
100
AcDbLine
 62
250
  6
CONTINUOUS
 10
11.578012945
 20
-19.4086513663
 11
11.5781930575
 21
-17.6181627865
  0
LINE
  5
52D
100
AcDbEntity
  8
ASSI
100
AcDbLine
 62
250
  6
CONTINUOUS
 10
11.578012945
 20
-19.4086513663
 11
11.5781930575
 21
-17.6181627865
  0
LWPOLYLINE
  5
52E
100
AcDbEntity
  8
RACCORDO
100
AcDbPolyline
 62
7
  6
CONTINUOUS
 90
16
 70
0
 10
12.0736496773
 20
-18.706389611
 10
12.0719419967
 20
-18.7621396742
 10
12.0679368346
 20
-18.8160112288
 10
12.0616341908
 20
-18.8680042746
 10
12.0528659408
 20
-18.9182193783
 10
12.0418002092
 20
-18.9665559733
 10
12.0289413696
 20
-19.0127123597
 10
12.0143312645
 20
-19.0566111511
 10
11.9979280514
 20
-19.0983297338
 10
11.9801105761
 20
-19.137798567
 10
11.9609763357
 20
-19.1749445447
 10
11.9404278331
 20
-19.2098407728
 10
11.9185514227
 20
-19.2426370279
 10
11.895375889
 20
-19.2733832357
 10
11.8708724474
 20
-19.3020294705
 10
11.845041098
 20
-19.3285757325
  0
LWPOLYLINE
  5
52F
100
AcDbEntity
  8
ASSI
100
AcDbPolyline
 62
7
  6
CONTINUOUS
 90
16
 70
0
 10
12.0736496773
 20
-18.706389611
 10
12.0719419967
 20
-18.7621396742
 10
12.0679368346
 20
-18.8160112288
 10
12.0616341908
 20
-18.8680042746
 10
12.0528659408
 20
-18.9182193783
 10
12.0418002092
 20
-18.9665559733
 10
12.0289413696
 20
-19.0127123597
 10
12.0143312645
 20
-19.0566111511
 10
11.9979280514
 20
-19.0983297338
 10
11.9801105761
 20
-19.137798567
 10
11.9609763357
 20
-19.1749445447
 10
11.9404278331
 20
-19.2098407728
 10
11.9185514227
 20
-19.2426370279
 10
11.895375889
 20
-19.2733832357
 10
11.8708724474
 20
-19.3020294705
 10
11.845041098
 20
-19.3285757325
  0
LINE
  5
530
100
AcDbEntity
  8
CURVE
100
AcDbLine
 62
250
  6
CONTINUOUS
 10
5.4592080179
 20
-3.948086
 11
4.2878322278
 21
-5.426806
  0
LINE
  5
531
100
AcDbEntity
  8
CURVE
100
AcDbLine
 62
250
  6
CONTINUOUS
 10
4.5687858309
 20
-5.756253
 11
5.4592080179
 21
-4.632215
  0
LINE
  5
532
100
AcDbEntity
  8
CURVE
100
AcDbLine
 62
250
  6
CONTINUOUS
 10
-1.4333600564
 20
-15.31443
 11
0.6312267084
 21
-14.742644
  0
LINE
  5
533
100
AcDbEntity
  8
CURVE
100
AcDbLine
 62
250
  6
CONTINUOUS
 10
1.5660505139
 20
-9.902481
 11
-0.3843439476
 21
-10.031124
  0
LINE
  5
534
100
AcDbEntity
  8
DRAFT
100
AcDbLine
 62
7
  6
CONTINUOUS
 10
12.3631798283
 20
-10.0898893843
 11
13.7841195263
 21
-10.0402690767
  0
LINE
  5
535
100
AcDbEntity
  8
ASSI
100
AcDbLine
 62
7
  6
CONTINUOUS
 10
12.3631798283
 20
-10.0898893843
 11
13.7841195263
 21
-10.0402690767
  0
LWPOLYLINE
  5
536
100
AcDbEntity
  8
CURVE
100
AcDbPolyline
 62
250
  6
CONTINUOUS
 90
51
 70
0
 10
4.6509365043
 20
-9.05
 10
4.6758730336
 20
-9.0495718537
 10
4.700860078
 20
-9.0482941285
 10
4.7258693094
 20
-9.0461768948
 10
4.7508723997
 20
-9.043230223
 10
4.7758410206
 20
-9.0394641834
 10
4.8007468439
 20
-9.0348888466
 10
4.8255615415
 20
-9.0295142828
 10
4.8502567851
 20
-9.0233505625
 10
4.8748042467
 20
-9.0164077562
 10
4.899175598
 20
-9.0086959341
 10
4.9233425107
 20
-9.0002251668
 10
4.9472766569
 20
-8.9910055246
 10
4.9709497082
 20
-8.981047078
 10
4.9943333364
 20
-8.9703598972
 10
5.0173992135
 20
-8.9589540529
 10
5.0401190111
 20
-8.9468396152
 10
5.0624644012
 20
-8.9340266548
 10
5.0844070555
 20
-8.9205252418
 10
5.1059186459
 20
-8.9063454469
 10
5.1269708441
 20
-8.8914973403
 10
5.1475353221
 20
-8.8759909925
 10
5.1675837515
 20
-8.8598364739
 10
5.1870878043
 20
-8.8430438549
 10
5.2060191522
 20
-8.8256232058
 10
5.224349467
 20
-8.8075845972
 10
5.242061964
 20
-8.7889322744
 10
5.2591372214
 20
-8.7696991795
 10
5.2755679431
 20
-8.7499129914
 10
5.2913468326
 20
-8.7296013892
 10
5.3064665936
 20
-8.7087920519
 10
5.3209199297
 20
-8.6875126587
 10
5.3346995447
 20
-8.6657908886
 10
5.3477981421
 20
-8.6436544206
 10
5.3602084257
 20
-8.6211309337
 10
5.3719230991
 20
-8.5982481071
 10
5.382934866
 20
-8.5750336198
 10
5.39323643
 20
-8.5515151508
 10
5.4028204947
 20
-8.5277203792
 10
5.411679764
 20
-8.5036769841
 10
5.4198069413
 20
-8.4794126445
 10
5.4271947304
 20
-8.4549550394
 10
5.4338358349
 20
-8.430331848
 10
5.4397229585
 20
-8.4055707492
 10
5.4448488049
 20
-8.3806994222
 10
5.4492060777
 20
-8.3557455459
 10
5.4527874806
 20
-8.3307367995
 10
5.4555857171
 20
-8.3057008619
 10
5.4575934911
 20
-8.2806654123
 10
5.4588035062
 20
-8.2556581297
 10
5.4592084659
 20
-8.2307066931
  0
LWPOLYLINE
  5
537
100
AcDbEntity
  8
CURVE
100
AcDbPolyline
 62
250
  6
CONTINUOUS
 90
51
 70
0
 10
7.3951246792
 20
-9.05
 10
7.4201683569
 20
-9.0495973276
 10
7.4452652234
 20
-9.0483939692
 10
7.4703881627
 20
-9.046396913
 10
7.495510059
 20
-9.0436131471
 10
7.5206037962
 20
-9.0400496597
 10
7.5456422583
 20
-9.035713439
 10
7.5705983294
 20
-9.0306114731
 10
7.5954448935
 20
-9.0247507503
 10
7.6201548347
 20
-9.0181382585
 10
7.6447010368
 20
-9.0107809862
 10
7.6690563841
 20
-9.0026859213
 10
7.6931937604
 20
-8.9938600521
 10
7.7170860499
 20
-8.9843103667
 10
7.7407061366
 20
-8.9740438533
 10
7.7640269044
 20
-8.9630675001
 10
7.7870212374
 20
-8.9513882953
 10
7.8096620196
 20
-8.9390132269
 10
7.8319221351
 20
-8.9259492832
 10
7.8537744679
 20
-8.9122034523
 10
7.875191902
 20
-8.8977827225
 10
7.8961473214
 20
-8.8826940818
 10
7.9166136102
 20
-8.8669445184
 10
7.9365636524
 20
-8.8505410206
 10
7.9559703319
 20
-8.8334905764
 10
7.9748065329
 20
-8.8158001741
 10
7.9930382545
 20
-8.7974901837
 10
8.0106614669
 20
-8.7785760849
 10
8.0276646246
 20
-8.7590860705
 10
8.0440361818
 20
-8.7390483335
 10
8.0597645927
 20
-8.7184910669
 10
8.0748383116
 20
-8.6974424634
 10
8.0892457927
 20
-8.6759307162
 10
8.1029754903
 20
-8.6539840179
 10
8.1160158587
 20
-8.6316305617
 10
8.1283553521
 20
-8.6088985404
 10
8.1399824247
 20
-8.585816147
 10
8.1508855308
 20
-8.5624115743
 10
8.1610531248
 20
-8.5387130153
 10
8.1704736607
 20
-8.5147486629
 10
8.179135593
 20
-8.4905467101
 10
8.1870273757
 20
-8.4661353497
 10
8.1941374633
 20
-8.4415427747
 10
8.2004543099
 20
-8.416797178
 10
8.2059663699
 20
-8.3919267525
 10
8.2106620974
 20
-8.3669596912
 10
8.2145299467
 20
-8.3419241869
 10
8.2175583721
 20
-8.3168484327
 10
8.2197358278
 20
-8.2917606213
 10
8.2210507681
 20
-8.2666889458
 10
8.2214916473
 20
-8.2416615991
  0
LINE
  5
538
100
AcDbEntity
  8
CURVE
100
AcDbLine
 62
250
  6
CONTINUOUS
 10
8.1680727156
 20
-10.998691
 11
7.612421033
 21
-10.998691
  0
LINE
  5
539
100
AcDbEntity
  8
CURVE
100
AcDbLine
 62
250
  6
CONTINUOUS
 10
3.7238931764
 20
-10.998691
 11
3.1684134808
 21
-10.998691
  0
LINE
  5
53A
100
AcDbEntity
  8
CURVE
100
AcDbLine
 62
250
  6
CONTINUOUS
 10
9.7736496773
 20
-10.3976193428
 11
11.0736496773
 21
-10.3976193428
  0
LINE
  5
53B
100
AcDbEntity
  8
CURVE
100
AcDbLine
 62
250
  6
CONTINUOUS
 10
9.7736496773
 20
-9.8095238686
 11
11.0736496773
 21
-9.8095238686
  0
LINE
  5
53C
100
AcDbEntity
  8
CURVE
100
AcDbLine
 62
250
  6
CONTINUOUS
 10
9.7736496773
 20
-9.1595238686
 11
11.0736496773
 21
-9.1595238686
  0
LINE
  5
53D
100
AcDbEntity
  8
CURVE
100
AcDbLine
 62
250
  6
CONTINUOUS
 10
7.3951246792
 20
-9.05
 11
6.7105387871
 21
-9.05
  0
LINE
  5
53E
100
AcDbEntity
  8
CURVE
100
AcDbLine
 62
250
  6
CONTINUOUS
 10
4.6509365043
 20
-9.05
 11
3.1218919873
 21
-9.05
  0
LINE
  5
53F
100
AcDbEntity
  8
CURVE
100
AcDbLine
 62
250
  6
CONTINUOUS
 10
3.1218919873
 20
-8.5187441158
 11
4.6437956626
 21
-8.5187441158
  0
LINE
  5
540
100
AcDbEntity
  8
CURVE
100
AcDbLine
 62
250
  6
CONTINUOUS
 10
6.7105387871
 20
-8.5187441158
 11
7.3951246792
 21
-8.5187441158
  0
LWPOLYLINE
  5
541
100
AcDbEntity
  8
CURVE
100
AcDbPolyline
 62
250
  6
CONTINUOUS
 90
51
 70
0
 10
6.7105387871
 20
-8.5187441158
 10
6.7016526729
 20
-8.5186071884
 10
6.6927453977
 20
-8.5181975672
 10
6.6838265698
 20
-8.5175169938
 10
6.6749057976
 20
-8.5165672099
 10
6.6659926893
 20
-8.515349957
 10
6.6570968532
 20
-8.5138669768
 10
6.6482278977
 20
-8.5121200107
 10
6.639395431
 20
-8.5101108005
 10
6.6306090615
 20
-8.5078410878
 10
6.6218783974
 20
-8.505312614
 10
6.613213047
 20
-8.5025271209
 10
6.6046226186
 20
-8.4994863501
 10
6.5961167205
 20
-8.496192043
 10
6.5877049611
 20
-8.4926459414
 10
6.5793969486
 20
-8.4888497869
 10
6.5712022913
 20
-8.4848053209
 10
6.5631305974
 20
-8.4805142852
 10
6.5551914754
 20
-8.4759784214
 10
6.5473945335
 20
-8.4711994709
 10
6.53974938
 20
-8.4661791755
 10
6.5322656232
 20
-8.4609192768
 10
6.5249528714
 20
-8.4554215162
 10
6.5178207329
 20
-8.4496876355
 10
6.510878816
 20
-8.4437193762
 10
6.504136729
 20
-8.43751848
 10
6.4976108824
 20
-8.4310959009
 10
6.49129848
 20
-8.424453234
 10
6.485204026
 20
-8.4176007372
 10
6.4793320245
 20
-8.4105486687
 10
6.4736869799
 20
-8.4033072865
 10
6.4682733962
 20
-8.3958868489
 10
6.4630957778
 20
-8.3882976139
 10
6.4581586289
 20
-8.3805498396
 10
6.4534664536
 20
-8.3726537841
 10
6.4490237562
 20
-8.3646197056
 10
6.444835041
 20
-8.3564578621
 10
6.4409048121
 20
-8.3481785117
 10
6.4372375738
 20
-8.3397919126
 10
6.4338378303
 20
-8.3313083228
 10
6.4307100859
 20
-8.3227380006
 10
6.4278588446
 20
-8.3140912038
 10
6.4252886109
 20
-8.3053781908
 10
6.4230038888
 20
-8.2966092196
 10
6.4210091826
 20
-8.2877945483
 10
6.4193089966
 20
-8.278944435
 10
6.4179078349
 20
-8.2700691378
 10
6.4168102018
 20
-8.2611789148
 10
6.4160206015
 20
-8.2522840242
 10
6.4155435382
 20
-8.243394724
 10
6.4153835162
 20
-8.2345212723
  0
LINE
  5
542
100
AcDbEntity
  8
CURVE
100
AcDbLine
 62
250
  6
CONTINUOUS
 10
9.7736496773
 20
-5.4452386856
 11
11.0736496773
 21
-5.81666646
  0
LINE
  5
543
100
AcDbEntity
  8
CURVE
100
AcDbLine
 62
250
  6
CONTINUOUS
 10
9.7736496773
 20
-3.1238090515
 11
10.3307925012
 21
-3.4952386856
  0
LINE
  5
544
100
AcDbEntity
  8
CURVE
100
AcDbLine
 62
250
  6
CONTINUOUS
 10
3.2879354086
 20
9.8095238209
 11
3.4307924833
 21
9.571428597
  0
LINE
  5
545
100
AcDbEntity
  8
CURVE
100
AcDbLine
 62
250
  6
CONTINUOUS
 10
3.2879354086
 20
12.8095238209
 11
3.4307924833
 21
12.5714285374
  0
LINE
  5
546
100
AcDbEntity
  8
RACCORDO
100
AcDbLine
 62
7
  6
CONTINUOUS
 10
14.0736496773
 20
9.7404518286
 11
14.0736496773
 21
2.4595481714
  0
LINE
  5
547
100
AcDbEntity
  8
ASSI
100
AcDbLine
 62
7
  6
CONTINUOUS
 10
14.0736496773
 20
9.7404518286
 11
14.0736496773
 21
2.4595481714
  0
LINE
  5
548
100
AcDbEntity
  8
RACCORDO
100
AcDbLine
 62
7
  6
CONTINUOUS
 10
14.0736496773
 20
-2.4595481714
 11
14.0736496773
 21
-9.7404518286
  0
LINE
  5
549
100
AcDbEntity
  8
ASSI
100
AcDbLine
 62
7
  6
CONTINUOUS
 10
14.0736496773
 20
-2.4595481714
 11
14.0736496773
 21
-9.7404518286
  0
LINE
  5
54A
100
AcDbEntity
  8
CURVE
100
AcDbLine
 62
250
  6
CONTINUOUS
 10
-1.4333600564
 20
-9.570447
 11
1.5660505139
 21
-9.289947
  0
LINE
  5
54B
100
AcDbEntity
  8
CURVE
100
AcDbLine
 62
250
  6
CONTINUOUS
 10
9.7736496773
 20
-7.5190477371
 11
11.0736496773
 21
-7.5190477371
  0
LINE
  5
54C
100
AcDbEntity
  8
CURVE
100
AcDbLine
 62
250
  6
CONTINUOUS
 10
4.6437956626
 20
-7.2437484073
 11
3.1218919873
 21
-7.2437484073
  0
LINE
  5
54D
100
AcDbEntity
  8
RACCORDO
100
AcDbLine
 62
250
  6
CONTINUOUS
 10
12.0736496773
 20
-6.975
 11
14.0736496773
 21
-6.975
  0
LINE
  5
54E
100
AcDbEntity
  8
ASSI
100
AcDbLine
 62
250
  6
CONTINUOUS
 10
12.0736496773
 20
-6.975
 11
14.0736496773
 21
-6.975
  0
LINE
  5
54F
100
AcDbEntity
  8
CURVE
100
AcDbLine
 62
250
  6
CONTINUOUS
 10
3.1218919873
 20
-6.7124925231
 11
4.6509365043
 21
-6.7124925231
  0
LINE
  5
550
100
AcDbEntity
  8
CURVE
100
AcDbLine
 62
250
  6
CONTINUOUS
 10
5.8841739995
 20
-6.7124925231
 11
6.4153835162
 21
-6.7124925231
  0
LINE
  5
551
100
AcDbEntity
  8
CURVE
100
AcDbLine
 62
250
  6
CONTINUOUS
 10
7.6902821306
 20
-6.7124925231
 11
8.2214916473
 21
-6.7124925231
  0
LINE
  5
552
100
AcDbEntity
  8
CURVE
100
AcDbLine
 62
250
  6
CONTINUOUS
 10
9.7736496773
 20
-6.5595238686
 11
11.0736496773
 21
-6.5595238686
  0
LINE
  5
553
100
AcDbEntity
  8
CURVE
100
AcDbLine
 62
250
  6
CONTINUOUS
 10
-1.3983174344
 20
-6.540801309
 11
1.5660501819
 21
-6.540801309
  0
LINE
  5
554
100
AcDbEntity
  8
CURVE
100
AcDbLine
 62
250
  6
CONTINUOUS
 10
3.1218800247
 20
-6.287502
 11
5.4592130175
 21
-6.287502
  0
LINE
  5
555
100
AcDbEntity
  8
CURVE
100
AcDbLine
 62
250
  6
CONTINUOUS
 10
6.692419218
 20
-6.287501626
 11
8.2214916473
 21
-6.287501626
  0
LINE
  5
556
100
AcDbEntity
  8
CURVE
100
AcDbLine
 62
250
  6
CONTINUOUS
 10
-0.0989844669
 20
-5.9379402968
 11
-0.9223811792
 21
-5.9379402968
  0
LINE
  5
557
100
AcDbEntity
  8
CURVE
100
AcDbLine
 62
250
  6
CONTINUOUS
 10
1.5660501819
 20
-5.9171783582
 11
0.3922465263
 21
-5.9171783582
  0
LINE
  5
558
100
AcDbEntity
  8
CURVE
100
AcDbLine
 62
250
  6
CONTINUOUS
 10
8.2214916473
 20
-5.7562532403
 11
7.6902536268
 21
-5.7562532403
  0
LINE
  5
559
100
AcDbEntity
  8
CURVE
100
AcDbLine
 62
250
  6
CONTINUOUS
 10
7.1590458708
 20
-5.7562532403
 11
6.6995611491
 21
-5.7562532403
  0
LINE
  5
55A
100
AcDbEntity
  8
CURVE
100
AcDbLine
 62
250
  6
CONTINUOUS
 10
5.4592130175
 20
-5.756253
 11
4.5687858309
 21
-5.756253
  0
LINE
  5
55B
100
AcDbEntity
  8
CURVE
100
AcDbLine
 62
250
  6
CONTINUOUS
 10
4.0064706558
 20
-5.756253
 11
3.1218800247
 21
-5.756253
  0
LWPOLYLINE
  5
55C
100
AcDbEntity
  8
CURVE
100
AcDbPolyline
 62
250
  6
CONTINUOUS
 90
51
 70
0
 10
4.6437956626
 20
-7.2437484073
 10
4.6526686299
 20
-7.2439084522
 10
4.6615574331
 20
-7.2443855821
 10
4.6704518151
 20
-7.2451752901
 10
4.6793415191
 20
-7.2462730694
 10
4.6882162879
 20
-7.2476744129
 10
4.6970658646
 20
-7.2493748138
 10
4.7058799922
 20
-7.2513697651
 10
4.7146484137
 20
-7.25365476
 10
4.7233608721
 20
-7.2562252914
 10
4.7320071105
 20
-7.2590768524
 10
4.7405768717
 20
-7.2622049362
 10
4.7490598988
 20
-7.2656050357
 10
4.7574459349
 20
-7.2692726441
 10
4.7657247228
 20
-7.2732032544
 10
4.7738860057
 20
-7.2773923598
 10
4.7819195265
 20
-7.2818354532
 10
4.7898150283
 20
-7.2865280277
 10
4.797562254
 20
-7.2914655765
 10
4.8051509466
 20
-7.2966435925
 10
4.8125708491
 20
-7.302057569
 10
4.8198117046
 20
-7.3077029988
 10
4.826863256
 20
-7.3135753752
 10
4.8337152463
 20
-7.3196701911
 10
4.8403574187
 20
-7.3259829397
 10
4.8467795159
 20
-7.332509114
 10
4.8529802751
 20
-7.3392518813
 10
4.8589483875
 20
-7.34619448
 10
4.8646821129
 20
-7.3533273017
 10
4.8701797109
 20
-7.3606407379
 10
4.8754394413
 20
-7.3681251803
 10
4.8804595638
 20
-7.3757710203
 10
4.885238338
 20
-7.3835686496
 10
4.8897740238
 20
-7.3915084597
 10
4.8940648807
 20
-7.3995808423
 10
4.8981091686
 20
-7.4077761889
 10
4.9019051471
 20
-7.416084891
 10
4.9054510759
 20
-7.4244973403
 10
4.9087452148
 20
-7.4330039283
 10
4.9117858234
 20
-7.4415950465
 10
4.9145711615
 20
-7.4502610867
 10
4.9170994888
 20
-7.4589924403
 10
4.919369065
 20
-7.4677794989
 10
4.9213781497
 20
-7.4766126541
 10
4.9231250028
 20
-7.4854822975
 10
4.9246078838
 20
-7.4943788206
 10
4.9258250527
 20
-7.503292615
 10
4.9267747689
 20
-7.5122140723
 10
4.9274552923
 20
-7.5211335841
 10
4.9278648825
 20
-7.530041542
 10
4.9280017993
 20
-7.5389283374
  0
LWPOLYLINE
  5
55D
100
AcDbEntity
  8
CURVE
100
AcDbPolyline
 62
250
  6
CONTINUOUS
 90
51
 70
0
 10
6.6995611491
 20
-5.7562532403
 10
6.6906882289
 20
-5.7560931953
 10
6.6817994763
 20
-5.7556160651
 10
6.6729051479
 20
-5.7548263568
 10
6.6640155001
 20
-5.7537285775
 10
6.6551407894
 20
-5.7523272343
 10
6.6462912724
 20
-5.7506268344
 10
6.6374772054
 20
-5.7486318848
 10
6.628708845
 20
-5.7463468926
 10
6.6199964476
 20
-5.743776365
 10
6.6113502699
 20
-5.7409248091
 10
6.6027805682
 20
-5.737796732
 10
6.594297599
 20
-5.7343966408
 10
6.5859116189
 20
-5.7307290426
 10
6.5776328842
 20
-5.7267984445
 10
6.5694716517
 20
-5.7226093537
 10
6.5614381776
 20
-5.7181662772
 10
6.5535427185
 20
-5.7134737222
 10
6.5457955309
 20
-5.7085361958
 10
6.5382068712
 20
-5.703358205
 10
6.5307869961
 20
-5.6979442571
 10
6.5235461619
 20
-5.6922988591
 10
6.5164946251
 20
-5.686426518
 10
6.5096426423
 20
-5.6803317412
 10
6.5030004699
 20
-5.6740190356
 10
6.4965783644
 20
-5.6674929083
 10
6.4903775929
 20
-5.6607501972
 10
6.4844094599
 20
-5.6538076589
 10
6.4786757065
 20
-5.6466749014
 10
6.4731780737
 20
-5.6393615329
 10
6.4679183025
 20
-5.6318771613
 10
6.4628981339
 20
-5.6242313947
 10
6.458119309
 20
-5.6164338412
 10
6.4535835689
 20
-5.6084941089
 10
6.4492926545
 20
-5.6004218056
 10
6.445248307
 20
-5.5922265396
 10
6.4414522672
 20
-5.5839179189
 10
6.4379062763
 20
-5.5755055515
 10
6.4346120754
 20
-5.5669990455
 10
6.4315714053
 20
-5.5584080089
 10
6.4287860073
 20
-5.5497420497
 10
6.4262576222
 20
-5.5410107761
 10
6.4239879912
 20
-5.5322237961
 10
6.4219788552
 20
-5.5233907177
 10
6.4202319553
 20
-5.514521149
 10
6.4187490326
 20
-5.505624698
 10
6.4175318281
 20
-5.4967109728
 10
6.4165820827
 20
-5.4877895814
 10
6.4159015377
 20
-5.4788701319
 10
6.4154919338
 20
-5.4699622324
 10
6.4153550123
 20
-5.4610754908
  0
LINE
  5
55E
100
AcDbEntity
  8
CURVE
100
AcDbLine
 62
250
  6
CONTINUOUS
 10
4.5547693526
 20
-0.3676329685
 11
5.7604717482
 21
-0.9118127306
  0
LINE
  5
55F
100
AcDbEntity
  8
CURVE
100
AcDbLine
 62
250
  6
CONTINUOUS
 10
6.922534566
 20
-1.4362962353
 11
8.1714954549
 21
-2.0
  0
LINE
  5
560
100
AcDbEntity
  8
CURVE
100
AcDbLine
 62
250
  6
CONTINUOUS
 10
6.6996592385
 20
-0.2903314832
 11
6.2294857925
 21
-0.0636291216
  0
LINE
  5
561
100
AcDbEntity
  8
CURVE
100
AcDbLine
 62
250
  6
CONTINUOUS
 10
8.1714954549
 20
-1.000000718
 11
7.6199119876
 21
-0.7340457986
  0
LINE
  5
562
100
AcDbEntity
  8
CURVE
100
AcDbLine
 62
250
  6
CONTINUOUS
 10
2.5736496773
 20
10.8571428061
 11
2.859363946
 21
10.5714285374
  0
LINE
  5
563
100
AcDbEntity
  8
CURVE
100
AcDbLine
 62
250
  6
CONTINUOUS
 10
4.430792528
 20
9.8571428657
 11
4.5736496773
 21
9.7142857313
  0
LINE
  5
564
100
AcDbEntity
  8
CURVE
100
AcDbLine
 62
250
  6
CONTINUOUS
 10
3.2879354086
 20
14.3333334923
 11
3.4307924833
 21
14.1428570747
  0
LINE
  5
565
100
AcDbEntity
  8
CURVE
100
AcDbLine
 62
250
  6
CONTINUOUS
 10
3.2879354086
 20
15.9047617912
 11
3.4307924833
 21
15.7142858505
  0
LINE
  5
566
100
AcDbEntity
  8
DRAFT
100
AcDbLine
 62
7
  6
CONTINUOUS
 10
-8.9263503227
 20
-23.2857142857
 11
-7.4263503227
 21
-22.0
  0
LINE
  5
567
100
AcDbEntity
  8
CURVE
100
AcDbLine
 62
250
  6
CONTINUOUS
 10
10.3307925012
 20
-3.4952386856
 11
9.7736496773
 21
-3.8666670799
  0
LWPOLYLINE
  5
568
100
AcDbEntity
  8
CURVE
100
AcDbPolyline
 62
250
  6
CONTINUOUS
 90
58
 70
0
 10
5.7604717482
 20
-0.9118127306
 10
5.7017369804
 20
-0.9290995188
 10
5.6425008929
 20
-0.9448852006
 10
5.5828159493
 20
-0.9590188765
 10
5.5227346135
 20
-0.971349647
 10
5.4623093493
 20
-0.9817266124
 10
5.4015926203
 20
-0.9899988732
 10
5.3406368904
 20
-0.9960155297
 10
5.286604671
 20
-0.9993440632
 10
5.2324990807
 20
-1.0007424799
 10
5.1783924995
 20
-1.0001609866
 10
5.1243573076
 20
-0.9975497899
 10
5.0693752353
 20
-0.992767312
 10
5.0146011037
 20
-0.9859165723
 10
4.9600932121
 20
-0.9770937396
 10
4.9059098598
 20
-0.9663949826
 10
4.8421594173
 20
-0.9514028168
 10
4.778998223
 20
-0.9340173447
 10
4.716477327
 20
-0.9143472571
 10
4.6546477791
 20
-0.8925012451
 10
4.5935606295
 20
-0.8685879998
 10
4.5332669281
 20
-0.8427162121
 10
4.4738177248
 20
-0.814994573
 10
4.4127310629
 20
-0.7842026562
 10
4.3526372459
 20
-0.7515813895
 10
4.2935539531
 20
-0.7171973786
 10
4.2354988639
 20
-0.6811172294
 10
4.1784896575
 20
-0.6434075478
 10
4.1225440131
 20
-0.6041349396
 10
4.0676796102
 20
-0.5633660106
 10
4.0040429944
 20
-0.5131582256
 10
3.9420066177
 20
-0.4609916968
 10
3.8816251012
 20
-0.4069185562
 10
3.8229530659
 20
-0.3509909357
 10
3.7660451329
 20
-0.2932609675
 10
3.7109559232
 20
-0.2337807837
 10
3.6658921437
 20
-0.182219833
 10
3.6222277332
 20
-0.1294671765
 10
3.5800258591
 20
-0.0755423022
 10
3.5393496886
 20
-0.0204646978
 10
3.5002623889
 20
0.0357461491
 10
3.4628271273
 20
0.0930707507
 10
3.427107071
 20
0.1514896191
 10
3.3945418812
 20
0.2085013941
 10
3.3637203384
 20
0.2664805268
 10
3.3347517607
 20
0.3254066502
 10
3.307745466
 20
0.3852593973
 10
3.2828107725
 20
0.4460184009
 10
3.2600569982
 20
0.507663294
 10
3.2395934611
 20
0.5701737096
 10
3.2244316768
 20
0.6226844121
 10
3.2110095496
 20
0.675699159
 10
3.1994139708
 20
0.7291398687
 10
3.1897318318
 20
0.7829284594
 10
3.1820500239
 20
0.8369868495
 10
3.1764554385
 20
0.8912369573
 10
3.173034967
 20
0.9456007011
 10
3.1718755006
 20
0.9999999992
  0
LWPOLYLINE
  5
569
100
AcDbEntity
  8
CURVE
100
AcDbPolyline
 62
250
  6
CONTINUOUS
 90
51
 70
0
 10
6.692419218
 20
-3.95000932
 10
6.6674828111
 20
-3.9504374486
 10
6.6424958806
 20
-3.9517151224
 10
6.6174867548
 20
-3.9538322729
 10
6.5924837622
 20
-3.9567788318
 10
6.5675152311
 20
-3.9605447306
 10
6.5426094898
 20
-3.9651199011
 10
6.5177948667
 20
-3.9704942749
 10
6.4930996902
 20
-3.9766577835
 10
6.4685522887
 20
-3.9836003587
 10
6.4441809904
 20
-3.9913119321
 10
6.4200141238
 20
-3.9997824353
 10
6.3960800172
 20
-4.0090017998
 10
6.372406999
 20
-4.0189599575
 10
6.3490233976
 20
-4.0296468398
 10
6.3259575413
 20
-4.0410523785
 10
6.3032377584
 20
-4.0531665052
 10
6.2808923774
 20
-4.0659791514
 10
6.2589497265
 20
-4.0794802489
 10
6.2374381343
 20
-4.0936597292
 10
6.2163859289
 20
-4.108507524
 10
6.1958214389
 20
-4.124013565
 10
6.1757729925
 20
-4.1401677837
 10
6.1562689181
 20
-4.1569601119
 10
6.1373375441
 20
-4.174380481
 10
6.1190071988
 20
-4.1924188228
 10
6.1012946703
 20
-4.21107089
 10
6.0842193774
 20
-4.2303037436
 10
6.0677886169
 20
-4.2500897036
 10
6.0520096855
 20
-4.2704010903
 10
6.03688988
 20
-4.2912102239
 10
6.0224364972
 20
-4.3124894245
 10
6.0086568339
 20
-4.3342110123
 10
5.9955581868
 20
-4.3563473076
 10
5.9831478528
 20
-4.3788706303
 10
5.9714331286
 20
-4.4017533009
 10
5.9604213111
 20
-4.4249676393
 10
5.9501196969
 20
-4.4484859658
 10
5.9405355829
 20
-4.4722806006
 10
5.9316762658
 20
-4.4963238638
 10
5.9235490425
 20
-4.5205880756
 10
5.9161612096
 20
-4.5450455563
 10
5.9095200641
 20
-4.5696686258
 10
5.9036329027
 20
-4.5944296046
 10
5.8985070221
 20
-4.6193008126
 10
5.8941497191
 20
-4.6442545701
 10
5.8905682906
 20
-4.6692631973
 10
5.8877700333
 20
-4.6942990144
 10
5.8857622439
 20
-4.7193343414
 10
5.8845522194
 20
-4.7443414986
 10
5.8841472563
 20
-4.7692928062
  0
LWPOLYLINE
  5
56A
100
AcDbEntity
  8
CURVE
100
AcDbPolyline
 62
250
  6
CONTINUOUS
 90
56
 70
0
 10
-0.5650916038
 20
-5.0937189375
 10
-0.5504527054
 20
-5.0936196258
 10
-0.5357871012
 20
-5.0937869742
 10
-0.5211088372
 20
-5.0942420433
 10
-0.5064319594
 20
-5.0950058936
 10
-0.4917705138
 20
-5.0960995859
 10
-0.4771385464
 20
-5.0975441806
 10
-0.462550103
 20
-5.0993607384
 10
-0.4480192298
 20
-5.1015703199
 10
-0.4335599726
 20
-5.1041939855
 10
-0.4191863775
 20
-5.1072527961
 10
-0.4049124904
 20
-5.110767812
 10
-0.3907523573
 20
-5.114760094
 10
-0.3767200242
 20
-5.1192507026
 10
-0.3647184801
 20
-5.1235422294
 10
-0.3528397506
 20
-5.1282161827
 10
-0.341100893
 20
-5.1332677451
 10
-0.3295189647
 20
-5.1386920993
 10
-0.3181110228
 20
-5.1444844277
 10
-0.3068941248
 20
-5.1506399129
 10
-0.295885328
 20
-5.1571537376
 10
-0.2851016896
 20
-5.1640210842
 10
-0.2745602669
 20
-5.1712371353
 10
-0.2642781173
 20
-5.1787970735
 10
-0.254272298
 20
-5.1866960814
 10
-0.2445598664
 20
-5.1949293416
 10
-0.2351578797
 20
-5.2034920365
 10
-0.2260833953
 20
-5.2123793487
 10
-0.2173534705
 20
-5.2215864609
 10
-0.2089602445
 20
-5.2311316291
 10
-0.2009254788
 20
-5.2409764263
 10
-0.1932441394
 20
-5.2511038637
 10
-0.1859111919
 20
-5.2614969521
 10
-0.1789216022
 20
-5.2721387026
 10
-0.1722703361
 20
-5.2830121262
 10
-0.1659523592
 20
-5.2941002338
 10
-0.1599626374
 20
-5.3053860366
 10
-0.1542961366
 20
-5.3168525454
 10
-0.1489478223
 20
-5.3284827713
 10
-0.1439126605
 20
-5.3402597253
 10
-0.1391856169
 20
-5.3521664183
 10
-0.1347616573
 20
-5.3641858614
 10
-0.1306357475
 20
-5.3763010656
 10
-0.1268028532
 20
-5.3884950418
 10
-0.1223331958
 20
-5.4041285019
 10
-0.1183136697
 20
-5.4198531854
 10
-0.1147265879
 20
-5.4356599507
 10
-0.1115542632
 20
-5.4515396561
 10
-0.1087790085
 20
-5.46748316
 10
-0.1063831366
 20
-5.4834813209
 10
-0.1043489605
 20
-5.499524997
 10
-0.102658793
 20
-5.5156050468
 10
-0.101294947
 20
-5.5317123285
 10
-0.1002397354
 20
-5.5478377006
 10
-0.0994754711
 20
-5.5639720215
 10
-0.0989844669
 20
-5.5801061494
  0
LINE
  5
56B
100
AcDbEntity
  8
RACCORDO
100
AcDbLine
 62
250
  6
CONTINUOUS
 10
12.0736496773
 20
-5.225
 11
14.0736496773
 21
-5.225
  0
LINE
  5
56C
100
AcDbEntity
  8
ASSI
100
AcDbLine
 62
250
  6
CONTINUOUS
 10
12.0736496773
 20
-5.225
 11
14.0736496773
 21
-5.225
  0
LINE
  5
56D
100
AcDbEntity
  8
CURVE
100
AcDbLine
 62
250
  6
CONTINUOUS
 10
0.1659518824
 20
-4.9310200195
 11
0.1482279803
 21
-4.9310200195
  0
LINE
  5
56E
100
AcDbEntity
  8
CURVE
100
AcDbLine
 62
250
  6
CONTINUOUS
 10
11.0736496773
 20
-4.7023806572
 11
9.7736496773
 21
-4.7023806572
  0
LINE
  5
56F
100
AcDbEntity
  8
CURVE
100
AcDbLine
 62
250
  6
CONTINUOUS
 10
6.6995611491
 20
-4.4812575318
 11
7.1590458708
 21
-4.4812575318
  0
LINE
  5
570
100
AcDbEntity
  8
CURVE
100
AcDbLine
 62
250
  6
CONTINUOUS
 10
7.6902536268
 20
-4.4812575318
 11
8.2214916473
 21
-4.4812575318
  0
LINE
  5
571
100
AcDbEntity
  8
CURVE
100
AcDbLine
 62
250
  6
CONTINUOUS
 10
8.2214916473
 20
-3.95000932
 11
6.692419218
 21
-3.95000932
  0
LINE
  5
572
100
AcDbEntity
  8
CURVE
100
AcDbLine
 62
250
  6
CONTINUOUS
 10
11.0736496773
 20
-3.4952386856
 11
10.3307925012
 21
-3.4952386856
  0
LINE
  5
573
100
AcDbEntity
  8
DRAFT
100
AcDbLine
 62
7
  6
CONTINUOUS
 10
-8.9263503227
 20
23.2857142857
 11
-7.4263503227
 21
22.0
  0
LINE
  5
574
100
AcDbEntity
  8
CURVE
100
AcDbLine
 62
250
  6
CONTINUOUS
 10
4.5736496773
 20
11.0
 11
4.2879353788
 21
11.2857143879
  0
LINE
  5
575
100
AcDbEntity
  8
CURVE
100
AcDbLine
 62
250
  6
CONTINUOUS
 10
3.4307924833
 20
13.7142858505
 11
3.7165068116
 21
13.4285712242
  0
LINE
  5
576
100
AcDbEntity
  8
CURVE
100
AcDbLine
 62
250
  6
CONTINUOUS
 10
4.430792528
 20
12.8571429253
 11
4.5736496773
 21
12.7142856121
  0
LWPOLYLINE
  5
577
100
AcDbEntity
  8
ASSI
100
AcDbPolyline
 62
250
  6
CONTINUOUS
 90
10
 70
0
 10
-1.3381505812
 20
23.1639225071
 10
-1.3512514662
 20
23.1791496538
 10
-1.3647653568
 20
23.1936614949
 10
-1.3787122819
 20
23.2074758716
 10
-1.3932588894
 20
23.220642924
 10
-1.408271141
 20
23.233174222
 10
-1.423323495
 20
23.2450230251
 10
-1.438291557
 20
23.2561813176
 10
-1.4533439505
 20
23.2666958779
 10
-1.4685009563
 20
23.2765867259
  0
LWPOLYLINE
  5
578
100
AcDbEntity
  8
RACCORDO
100
AcDbPolyline
 62
250
  6
CONTINUOUS
 90
8
 70
0
 10
-6.0859015175
 20
-21.6127553771
 10
-6.0689996297
 20
-21.59792976
 10
-6.0497108899
 20
-21.5848796486
 10
-6.0283580633
 20
-21.5738233891
 10
-6.0052984256
 20
-21.5649459571
 10
-5.9809178193
 20
-21.5583958821
 10
-5.9556242037
 20
-21.5542827559
 10
-5.929840804
 20
-21.5526753901
  0
LWPOLYLINE
  5
579
100
AcDbEntity
  8
CURVE
100
AcDbPolyline
 62
250
  6
CONTINUOUS
 90
8
 70
0
 10
0.6565306
 20
-5.232124363
 10
0.6970594683
 20
-5.2172666948
 10
0.7377991975
 20
-5.203017257
 10
0.7787254833
 20
-5.1893074844
 10
0.8198140217
 20
-5.176068812
 10
0.8610405085
 20
-5.1632326746
 10
0.9023806394
 20
-5.1507305071
 10
0.9438101105
 20
-5.1384937443
  0
LINE
  5
57A
100
AcDbEntity
  8
CURVE
100
AcDbLine
 62
250
  6
CONTINUOUS
 10
-1.4333600564
 20
-7.64503
 11
1.5660505139
 21
-6.724667
  0
LINE
  5
57B
100
AcDbEntity
  8
CURVE
100
AcDbLine
 62
250
  6
CONTINUOUS
 10
1.2240585311
 20
-5.0578866184
 11
1.5660501819
 21
-4.9583277046
  0
LWPOLYLINE
  5
57C
100
AcDbEntity
  8
CURVE
100
AcDbPolyline
 62
250
  6
CONTINUOUS
 90
3
 70
0
 10
0.9438101105
 20
-5.1384937443
 10
1.0268398561
 20
-5.1145421724
 10
1.2240585311
 20
-5.0578866184
  0
LINE
  5
57D
100
AcDbEntity
  8
CURVE
100
AcDbLine
 62
250
  6
CONTINUOUS
 10
1.5660505139
 20
-7.384595
 11
0.9672611166
 21
-7.546799
  0
LINE
  5
57E
100
AcDbEntity
  8
CURVE
100
AcDbLine
 62
250
  6
CONTINUOUS
 10
0.5039204038
 20
-7.671933
 11
-0.609198823
 21
-7.959654
  0
LINE
  5
57F
100
AcDbEntity
  8
DRAFT
100
AcDbLine
 62
7
  6
CONTINUOUS
 10
12.3631798283
 20
-2.1101106157
 11
13.7841195263
 21
-2.1597309233
  0
LINE
  5
580
100
AcDbEntity
  8
ASSI
100
AcDbLine
 62
7
  6
CONTINUOUS
 10
12.3631798283
 20
-2.1101106157
 11
13.7841195263
 21
-2.1597309233
  0
LINE
  5
581
100
AcDbEntity
  8
CURVE
100
AcDbLine
 62
250
  6
CONTINUOUS
 10
4.5736496773
 20
14.1428570747
 11
4.2879353788
 21
14.4285712242
  0
LINE
  5
582
100
AcDbEntity
  8
CURVE
100
AcDbLine
 62
250
  6
CONTINUOUS
 10
3.4307924833
 20
15.2857141495
 11
3.7165068116
 21
15.0
  0
LINE
  5
583
100
AcDbEntity
  8
CURVE
100
AcDbLine
 62
250
  6
CONTINUOUS
 10
4.5736496773
 20
15.7142858505
 11
4.2879353788
 21
16.0
  0
LWPOLYLINE
  5
584
100
AcDbEntity
  8
0
100
AcDbPolyline
 62
7
  6
CONTINUOUS
 90
10
 70
0
 43
0.3500000006
 10
4.4879352951
 20
35.863026123
 10
4.5593639288
 20
35.7201682892
 10
4.5593639288
 20
35.6487416382
 10
4.4165069447
 20
35.5058838043
 10
4.345078311
 20
35.5058838043
 10
4.2736496773
 20
35.5773149872
 10
4.2736496773
 20
35.6487416382
 10
4.345078311
 20
35.791599472
 10
4.4165069447
 20
35.863026123
 10
4.4879352951
 20
35.863026123
  0
LINE
  5
585
100
AcDbEntity
  8
CURVE
100
AcDbLine
 62
250
  6
CONTINUOUS
 10
9.9593639519
 20
-13.1214287043
 11
9.7736496773
 21
-13.3071429014
  0
LWPOLYLINE
  5
586
100
AcDbEntity
  8
ASSI
100
AcDbPolyline
 62
250
  6
CONTINUOUS
 90
16
 70
0
 10
-1.5565917384
 20
-23.1969192383
 10
-1.5521270728
 20
-23.1932896375
 10
-1.5477652647
 20
-23.1894849881
 10
-1.5435144444
 20
-23.1855020431
 10
-1.5394195645
 20
-23.1813713225
 10
-1.5354517942
 20
-23.1770583501
 10
-1.5315160091
 20
-23.1724555495
 10
-1.5276066831
 20
-23.1675251414
 10
-1.5237669732
 20
-23.16228594
 10
-1.5199851066
 20
-23.1567073827
 10
-1.5162850123
 20
-23.1507736437
 10
-1.5126915218
 20
-23.1444847596
 10
-1.5091978598
 20
-23.1378341525
 10
-1.5058206779
 20
-23.13081727
 10
-1.5026003151
 20
-23.1234318617
 10
-1.4995675052
 20
-23.1156774572
  0
LINE
  5
587
100
AcDbEntity
  8
CURVE
100
AcDbLine
 62
250
  6
CONTINUOUS
 10
11.0736496773
 20
-9.1595238686
 11
9.7736496773
 21
-9.8095238686
  0
LINE
  5
588
100
AcDbEntity
  8
CURVE
100
AcDbLine
 62
250
  6
CONTINUOUS
 10
1.5660505139
 20
-10.863423
 11
-0.3925083258
 21
-11.597964
  0
LINE
  5
589
100
AcDbEntity
  8
CURVE
100
AcDbLine
 62
250
  6
CONTINUOUS
 10
-1.4333600564
 20
-11.435625
 11
0.2319221187
 21
-10.816096
  0
LINE
  5
58A
100
AcDbEntity
  8
CURVE
100
AcDbLine
 62
250
  6
CONTINUOUS
 10
11.0736496773
 20
-5.0738090515
 11
9.7736496773
 21
-5.4452386856
  0
LWPOLYLINE
  5
58B
100
AcDbEntity
  8
CURVE
100
AcDbPolyline
 62
250
  6
CONTINUOUS
 90
39
 70
0
 10
0.6819672376
 20
-4.5897606469
 10
0.6579258536
 20
-4.5964865975
 10
0.6339442314
 20
-4.6034159744
 10
0.6100436688
 20
-4.610618693
 10
0.5862454634
 20
-4.6181646689
 10
0.5644080534
 20
-4.62548193
 10
0.5426921602
 20
-4.633168484
 10
0.5211141406
 20
-4.6412422476
 10
0.499690351
 20
-4.6497211376
 10
0.4784371481
 20
-4.6586230707
 10
0.4573708886
 20
-4.6679659638
 10
0.4365079289
 20
-4.6777677336
 10
0.4158646257
 20
-4.6880462968
 10
0.402424312
 20
-4.6950725188
 10
0.3891015522
 20
-4.7023256537
 10
0.3759119196
 20
-4.709818852
 10
0.3628709878
 20
-4.717565264
 10
0.34999433
 20
-4.7255780403
 10
0.3372975197
 20
-4.7338703312
 10
0.3247961304
 20
-4.7424552872
 10
0.3125057355
 20
-4.7513460586
 10
0.3004419083
 20
-4.7605557958
 10
0.2886202223
 20
-4.7700976493
 10
0.277056251
 20
-4.7799847696
 10
0.2657655676
 20
-4.7902303069
 10
0.2567820538
 20
-4.7988489196
 10
0.248008951
 20
-4.8077090494
 10
0.2394649628
 20
-4.816805617
 10
0.2311687928
 20
-4.8261335427
 10
0.2231391446
 20
-4.8356877472
 10
0.2153947217
 20
-4.845463151
 10
0.2079542278
 20
-4.8554546745
 10
0.2008363665
 20
-4.8656572385
 10
0.1940598412
 20
-4.8760657633
 10
0.1876433557
 20
-4.8866751696
 10
0.1816056134
 20
-4.8974803778
 10
0.1759653181
 20
-4.9084763085
 10
0.1707411732
 20
-4.9196578822
 10
0.1659518824
 20
-4.9310200195
  0
LINE
  5
58C
100
AcDbEntity
  8
CURVE
100
AcDbLine
 62
250
  6
CONTINUOUS
 10
0.8555649805
 20
-4.5427931576
 11
0.6819672376
 21
-4.5897606469
  0
LINE
  5
58D
100
AcDbEntity
  8
CURVE
100
AcDbLine
 62
250
  6
CONTINUOUS
 10
1.5660501819
 20
-4.3560515357
 11
1.4647031637
 21
-4.3832926471
  0
LWPOLYLINE
  5
58E
100
AcDbEntity
  8
CURVE
100
AcDbPolyline
 62
250
  6
CONTINUOUS
 90
5
 70
0
 10
1.4647031637
 20
-4.3832926471
 10
1.2616992395
 20
-4.4366174267
 10
1.1601218436
 20
-4.4629979482
 10
1.0585471651
 20
-4.4893884594
 10
0.8555649805
 20
-4.5427931576
  0
LWPOLYLINE
  5
58F
100
AcDbEntity
  8
CURVE
100
AcDbPolyline
 62
250
  6
CONTINUOUS
 90
17
 70
0
 10
5.1717299117
 20
0.5000140384
 10
5.2688394974
 20
0.5095360791
 10
5.3622502092
 20
0.5377395096
 10
5.448404062
 20
0.5835500701
 10
5.5252556713
 20
0.6464547787
 10
5.5871896747
 20
0.7218573395
 10
5.6332989448
 20
0.8078540393
 10
5.6618271938
 20
0.9011692906
 10
5.6716908356
 20
0.999994
 10
5.6621691575
 20
1.0971072835
 10
5.6339668009
 20
1.1905215521
 10
5.5881579847
 20
1.2766786855
 10
5.5252556713
 20
1.3535332213
 10
5.4498559816
 20
1.415469583
 10
5.3638625563
 20
1.4615806089
 10
5.2705508582
 20
1.4901099442
 10
5.171729868
 20
1.4999739616
  0
LWPOLYLINE
  5
590
100
AcDbEntity
  8
CURVE
100
AcDbPolyline
 62
250
  6
CONTINUOUS
 90
17
 70
0
 10
5.1717299117
 20
1.4999739616
 10
5.0746203261
 20
1.4904519209
 10
4.9812096143
 20
1.4622484904
 10
4.8950557615
 20
1.4164379299
 10
4.8182041521
 20
1.3535332213
 10
4.7562701488
 20
1.2781306605
 10
4.7101608787
 20
1.1921339607
 10
4.6816326296
 20
1.0988187094
 10
4.6717689879
 20
0.999994
 10
4.681290666
 20
0.9028807165
 10
4.7094930226
 20
0.8094664479
 10
4.7553018387
 20
0.7233093145
 10
4.8182041521
 20
0.6464547787
 10
4.8936038419
 20
0.584518417
 10
4.9795972672
 20
0.5384073911
 10
5.0729089652
 20
0.5098780558
 10
5.1717299554
 20
0.5000140384
  0
LINE
  5
591
100
AcDbEntity
  8
DRAFT
100
AcDbLine
 62
7
  6
CONTINUOUS
 10
12.3631798283
 20
2.1101106157
 11
13.7841195263
 21
2.1597309233
  0
LINE
  5
592
100
AcDbEntity
  8
ASSI
100
AcDbLine
 62
7
  6
CONTINUOUS
 10
12.3631798283
 20
2.1101106157
 11
13.7841195263
 21
2.1597309233
  0
LINE
  5
593
100
AcDbEntity
  8
CURVE
100
AcDbLine
 62
250
  6
CONTINUOUS
 10
8.1714954549
 20
0.9999999992
 11
7.1715712488
 21
0.9999999992
  0
LINE
  5
594
100
AcDbEntity
  8
CURVE
100
AcDbLine
 62
250
  6
CONTINUOUS
 10
3.1718755006
 20
0.9999999992
 11
2.171952371
 21
0.9999999992
  0
LINE
  5
595
100
AcDbEntity
  8
CURVE
100
AcDbLine
 62
250
  6
CONTINUOUS
 10
2.859363946
 20
10.5714285374
 11
3.1450782147
 21
10.4285714626
  0
LINE
  5
596
100
AcDbEntity
  8
CURVE
100
AcDbLine
 62
250
  6
CONTINUOUS
 10
4.2879353788
 20
11.2857143879
 11
4.0022210803
 21
11.4285714626
  0
LINE
  5
597
100
AcDbEntity
  8
CURVE
100
AcDbLine
 62
250
  6
CONTINUOUS
 10
2.859363946
 20
13.523809433
 11
2.5736496773
 21
13.7142858505
  0
LINE
  5
598
100
AcDbEntity
  8
CURVE
100
AcDbLine
 62
250
  6
CONTINUOUS
 10
2.859363946
 20
15.0952382088
 11
2.5736496773
 21
15.2857141495
  0
LWPOLYLINE
  5
599
100
AcDbEntity
  8
0
100
AcDbPolyline
 62
7
  6
CONTINUOUS
 90
10
 70
0
 43
0.3500000006
 10
1.6379354167
 20
45.8630291748
 10
1.7093639088
 20
45.7201713409
 10
1.7093639088
 20
45.6487401581
 10
1.566506783
 20
45.5058823242
 10
1.4950782909
 20
45.5058823242
 10
1.4236496572
 20
45.5773135071
 10
1.4236496572
 20
45.6487401581
 10
1.4950782909
 20
45.7915979919
 10
1.566506783
 20
45.8630291748
 10
1.6379354167
 20
45.8630291748
  0
LINE
  5
59A
100
AcDbEntity
  8
RACCORDO
100
AcDbLine
 62
250
  6
CONTINUOUS
 10
12.0736496773
 20
5.225
 11
14.0736496773
 21
5.225
  0
LINE
  5
59B
100
AcDbEntity
  8
ASSI
100
AcDbLine
 62
250
  6
CONTINUOUS
 10
12.0736496773
 20
5.225
 11
14.0736496773
 21
5.225
  0
LWPOLYLINE
  5
59C
100
AcDbEntity
  8
ASSI
100
AcDbPolyline
 62
250
  6
CONTINUOUS
 90
30
 70
0
 10
-1.556611368
 20
23.1969345393
 10
-1.5616671275
 20
23.2007369819
 10
-1.5668428902
 20
23.2043321544
 10
-1.5721296315
 20
23.207725791
 10
-1.5774731218
 20
23.2109025875
 10
-1.5829111549
 20
23.2138915696
 10
-1.5885772292
 20
23.2167585662
 10
-1.5944901529
 20
23.219519292
 10
-1.6006256476
 20
23.222156451
 10
-1.6070574487
 20
23.2246786514
 10
-1.6137791368
 20
23.2270865895
 10
-1.6207947479
 20
23.2293773879
 10
-1.6281970957
 20
23.2315528454
 10
-1.6359879105
 20
23.2336151673
 10
-1.6441678276
 20
23.2355593548
 10
-1.6528334796
 20
23.2373774579
 10
-1.6619940495
 20
23.2390730323
 10
-1.6716499206
 20
23.240642936
 10
-1.6818938344
 20
23.2420741553
 10
-1.6927422936
 20
23.2433730132
 10
-1.704199741
 20
23.2445411073
 10
-1.7163559791
 20
23.2455670891
 10
-1.7292407222
 20
23.2464619791
 10
-1.7428611444
 20
23.2472328486
 10
-1.7572957278
 20
23.2478739118
 10
-1.7725952573
 20
23.2484013967
 10
-1.7887641258
 20
23.2488274947
 10
-1.8058420624
 20
23.2491530272
 10
-1.823898564
 20
23.2493976507
 10
-1.8629309341
 20
23.2496930839
  0
LWPOLYLINE
  5
59D
100
AcDbEntity
  8
ASSI
100
AcDbPolyline
 62
250
  6
CONTINUOUS
 90
16
 70
0
 10
-1.4684628367
 20
-23.2765594426
 10
-1.4593143138
 20
-23.2705804846
 10
-1.4502745182
 20
-23.2644769128
 10
-1.4413411528
 20
-23.2582439654
 10
-1.4325525195
 20
-23.2519233364
 10
-1.4238664471
 20
-23.245463348
 10
-1.4151568441
 20
-23.2387201699
 10
-1.4063455611
 20
-23.2316485673
 10
-1.3974986505
 20
-23.2242867253
 10
-1.3887033264
 20
-23.2166146811
 10
-1.3799377017
 20
-23.2086127622
 10
-1.3712113617
 20
-23.2002895485
 10
-1.362660395
 20
-23.1916629645
 10
-1.354327436
 20
-23.1827337727
 10
-1.3461596929
 20
-23.1734890487
 10
-1.3381512978
 20
-23.1639254059
  0
LWPOLYLINE
  5
59E
100
AcDbEntity
  8
ASSI
100
AcDbPolyline
 62
250
  6
CONTINUOUS
 90
16
 70
0
 10
-4.6300395184
 20
-24.5674284937
 10
-4.647895087
 20
-24.5775772867
 10
-4.6655934041
 20
-24.5874307655
 10
-4.6829469455
 20
-24.5968846964
 10
-4.6997687401
 20
-24.6058374584
 10
-4.7158846977
 20
-24.6141966435
 10
-4.7311338765
 20
-24.6218787512
 10
-4.7453620322
 20
-24.6288056172
 10
-4.7584075594
 20
-24.6348980713
 10
-4.7701174352
 20
-24.6400848725
 10
-4.7803697599
 20
-24.6443129048
 10
-4.7890617125
 20
-24.6475407672
 10
-4.7961008177
 20
-24.6497356958
 10
-4.8014200709
 20
-24.6508795416
 10
-4.8049742851
 20
-24.650966206
 10
-4.8067350804
 20
-24.65
  0
LWPOLYLINE
  5
59F
100
AcDbEntity
  8
ASSI
100
AcDbPolyline
 62
250
  6
CONTINUOUS
 90
13
 70
0
 10
-5.0919197337
 20
-23.7674284937
 10
-5.1141707094
 20
-23.7800437728
 10
-5.1361121986
 20
-23.7921634286
 10
-5.1573822392
 20
-23.8035875267
 10
-5.1776299454
 20
-23.8141276071
 10
-5.1965212968
 20
-23.8236097931
 10
-5.2137446482
 20
-23.8318776598
 10
-5.2290158713
 20
-23.8387948149
 10
-5.2420830409
 20
-23.8442471478
 10
-5.2527305918
 20
-23.8481447132
 10
-5.2607828746
 20
-23.850423214
 10
-5.2661070531
 20
-23.8510450624
 10
-5.2686152958
 20
-23.85
  0
LINE
  5
5A0
100
AcDbEntity
  8
CURVE
100
AcDbLine
 62
250
  6
CONTINUOUS
 10
10.5165068146
 20
-15.628571412
 11
9.7736496773
 21
-16.0
  0
LINE
  5
5A1
100
AcDbEntity
  8
CURVE
100
AcDbLine
 62
250
  6
CONTINUOUS
 10
1.5660505139
 20
-15.04367
 11
-1.4333600564
 21
-15.994614
  0
LINE
  5
5A2
100
AcDbEntity
  8
RACCORDO
100
AcDbLine
 62
250
  6
CONTINUOUS
 10
12.0736496773
 20
6.975
 11
14.0736496773
 21
6.975
  0
LINE
  5
5A3
100
AcDbEntity
  8
ASSI
100
AcDbLine
 62
250
  6
CONTINUOUS
 10
12.0736496773
 20
6.975
 11
14.0736496773
 21
6.975
  0
LINE
  5
5A4
100
AcDbEntity
  8
CURVE
100
AcDbLine
 62
250
  6
CONTINUOUS
 10
1.5714930994
 20
7.154368
 11
-1.4318491714
 21
7.154368
  0
LINE
  5
5A5
100
AcDbEntity
  8
CURVE
100
AcDbLine
 62
250
  6
CONTINUOUS
 10
-1.4318491714
 20
7.507485
 11
1.2890216119
 21
7.507485
  0
LINE
  5
5A6
100
AcDbEntity
  8
CURVE
100
AcDbLine
 62
250
  6
CONTINUOUS
 10
1.2890216119
 20
8.450515
 11
1.5714930994
 21
8.450515
  0
LINE
  5
5A7
100
AcDbEntity
  8
CURVE
100
AcDbLine
 62
250
  6
CONTINUOUS
 10
1.5714870998
 20
8.864998
 11
-1.431855171
 21
8.864998
  0
LINE
  5
5A8
100
AcDbEntity
  8
CURVE
100
AcDbLine
 62
250
  6
CONTINUOUS
 10
-1.1036751646
 20
14.903945
 11
0.5288185076
 21
14.467742
  0
LINE
  5
5A9
100
AcDbEntity
  8
CURVE
100
AcDbLine
 62
250
  6
CONTINUOUS
 10
0.8112929949
 20
14.3805
 11
1.5715020987
 21
14.168628
  0
LINE
  5
5AA
100
AcDbEntity
  8
CURVE
100
AcDbLine
 62
250
  6
CONTINUOUS
 10
1.5715020987
 20
13.815513
 11
-1.4318691699
 21
14.696229
  0
LWPOLYLINE
  5
5AB
100
AcDbEntity
  8
ASSI
100
AcDbPolyline
 62
250
  6
CONTINUOUS
 90
13
 70
0
 10
-5.0919197337
 20
23.7674284937
 10
-5.1141706784
 20
23.7800437555
 10
-5.1361121442
 20
23.7921633989
 10
-5.1573821696
 20
23.8035874898
 10
-5.1776298694
 20
23.8141275681
 10
-5.1965212221
 20
23.8236097562
 10
-5.2137445809
 20
23.8318776282
 10
-5.2290158159
 20
23.8387947906
 10
-5.2420830002
 20
23.8442471317
 10
-5.2527305658
 20
23.8481447045
 10
-5.2607828611
 20
23.850423211
 10
-5.2661070488
 20
23.8510450626
 10
-5.2686152958
 20
23.85
  0
LWPOLYLINE
  5
5AC
100
AcDbEntity
  8
ASSI
100
AcDbPolyline
 62
250
  6
CONTINUOUS
 90
16
 70
0
 10
-4.6300395184
 20
24.5674284937
 10
-4.647867131
 20
24.5775615587
 10
-4.6655430694
 20
24.5874030391
 10
-4.6828803304
 20
24.5968488164
 10
-4.6996957973
 20
24.605799118
 10
-4.7158112405
 20
24.614159072
 10
-4.7310553448
 20
24.6218398267
 10
-4.7452664938
 20
24.6287600042
 10
-4.7582951465
 20
24.6348468418
 10
-4.7700043467
 20
24.6400363774
 10
-4.7802740297
 20
24.6442752104
 10
-4.7889905697
 20
24.6475162275
 10
-4.7960546413
 20
24.6497232084
 10
-4.8013956542
 20
24.650876147
 10
-4.8049662808
 20
24.6509675278
 10
-4.8067350804
 20
24.65
  0
LWPOLYLINE
  5
5AD
100
AcDbEntity
  8
ASSI
100
AcDbPolyline
 62
250
  6
CONTINUOUS
 90
30
 70
0
 10
-1.4685025887
 20
23.276583268
 10
-1.478279483
 20
23.2828087227
 10
-1.4880702256
 20
23.2888193265
 10
-1.49787422
 20
23.294616567
 10
-1.5076256314
 20
23.3001626468
 10
-1.5173893183
 20
23.3054977817
 10
-1.5273608866
 20
23.3107400689
 10
-1.5375837828
 20
23.3159221589
 10
-1.5480141625
 20
23.3210123794
 10
-1.558716844
 20
23.3260319775
 10
-1.5696898747
 20
23.3309827199
 10
-1.5809352661
 20
23.3358626958
 10
-1.5925239183
 20
23.3406873027
 10
-1.6044639808
 20
23.3454597444
 10
-1.6167479294
 20
23.3501752784
 10
-1.6294233437
 20
23.3548369121
 10
-1.6425006188
 20
23.359444339
 10
-1.6559706166
 20
23.3639947393
 10
-1.6698518083
 20
23.3684868634
 10
-1.6841486165
 20
23.3729150823
 10
-1.698858357
 20
23.3772806065
 10
-1.7139889058
 20
23.3815922492
 10
-1.7295372031
 20
23.3858413101
 10
-1.7455080944
 20
23.3900317446
 10
-1.7619211527
 20
23.3941916892
 10
-1.7787640298
 20
23.398312053
 10
-1.7960503381
 20
23.402398164
 10
-1.8138382447
 20
23.4065005879
 10
-1.8320938465
 20
23.4106114215
 10
-1.8702707305
 20
23.4189492102
  0
LINE
  5
5AE
100
AcDbEntity
  8
ASSI
100
AcDbLine
 62
250
  6
CONTINUOUS
 10
-4.3069216942
 20
-24.5393208298
 11
-1.9326564466
 21
-23.4321827624
  0
LINE
  5
5AF
100
AcDbEntity
  8
ASSI
100
AcDbLine
 62
7
  6
CONTINUOUS
 10
-4.2258885232
 20
-24.7031538935
 11
-1.4109753406
 21
-23.3905383194
  0
LINE
  5
5B0
100
AcDbEntity
  8
CURVE
100
AcDbLine
 62
250
  6
CONTINUOUS
 10
11.0736496773
 20
-14.1428570986
 11
9.7736496773
 21
-14.5142856479
  0
LINE
  5
5B1
100
AcDbEntity
  8
CURVE
100
AcDbLine
 62
250
  6
CONTINUOUS
 10
-1.431855171
 20
9.218115
 11
1.5714870998
 21
9.218115
  0
LINE
  5
5B2
100
AcDbEntity
  8
CURVE
100
AcDbLine
 62
250
  6
CONTINUOUS
 10
1.5714930994
 20
9.772004
 11
-1.4318491714
 21
9.772004
  0
LINE
  5
5B3
100
AcDbEntity
  8
CURVE
100
AcDbLine
 62
250
  6
CONTINUOUS
 10
2.859363946
 20
9.8095238209
 11
3.2879354086
 21
9.8095238209
  0
LINE
  5
5B4
100
AcDbEntity
  8
CURVE
100
AcDbLine
 62
250
  6
CONTINUOUS
 10
3.7165068116
 20
9.8571428657
 11
4.430792528
 21
9.8571428657
  0
LINE
  5
5B5
100
AcDbEntity
  8
CURVE
100
AcDbLine
 62
250
  6
CONTINUOUS
 10
-1.1286082657
 20
10.100196
 11
1.5714930994
 21
10.100196
  0
LINE
  5
5B6
100
AcDbEntity
  8
CURVE
100
AcDbLine
 62
250
  6
CONTINUOUS
 10
3.1450782147
 20
10.4285714626
 11
4.0022210803
 21
10.4285714626
  0
LINE
  5
5B7
100
AcDbEntity
  8
CURVE
100
AcDbLine
 62
250
  6
CONTINUOUS
 10
1.2682521937
 20
11.329873
 11
-1.4318491714
 21
11.329873
  0
LINE
  5
5B8
100
AcDbEntity
  8
CURVE
100
AcDbLine
 62
250
  6
CONTINUOUS
 10
4.0022210803
 20
11.4285714626
 11
3.1450782147
 21
11.4285714626
  0
LINE
  5
5B9
100
AcDbEntity
  8
CURVE
100
AcDbLine
 62
250
  6
CONTINUOUS
 10
-1.4318491714
 20
11.658092
 11
1.5714930994
 21
11.658092
  0
LINE
  5
5BA
100
AcDbEntity
  8
0
100
AcDbLine
 62
7
  6
CONTINUOUS
 10
12.0736496773
 20
11.710390188
 11
12.2736496773
 21
11.710390188
  0
LINE
  5
5BB
100
AcDbEntity
  8
ASSI
100
AcDbLine
 62
7
  6
CONTINUOUS
 10
12.0736496773
 20
11.710390188
 11
12.2736496773
 21
11.710390188
  0
LINE
  5
5BC
100
AcDbEntity
  8
0
100
AcDbLine
 62
7
  6
CONTINUOUS
 10
12.0736496773
 20
11.7524439744
 11
12.2736496773
 21
11.7524439744
  0
LINE
  5
5BD
100
AcDbEntity
  8
ASSI
100
AcDbLine
 62
7
  6
CONTINUOUS
 10
12.0736496773
 20
11.7524439744
 11
12.2736496773
 21
11.7524439744
  0
LINE
  5
5BE
100
AcDbEntity
  8
DRAFT
100
AcDbLine
 62
7
  6
CONTINUOUS
 10
12.3631798283
 20
10.0898893843
 11
13.7841195263
 21
10.0402690767
  0
LINE
  5
5BF
100
AcDbEntity
  8
ASSI
100
AcDbLine
 62
7
  6
CONTINUOUS
 10
12.3631798283
 20
10.0898893843
 11
13.7841195263
 21
10.0402690767
  0
LWPOLYLINE
  5
5C0
100
AcDbEntity
  8
ASSI
100
AcDbPolyline
 62
250
  6
CONTINUOUS
 90
16
 70
0
 10
-4.3069216942
 20
24.5393208298
 10
-4.3168275498
 20
24.5436670948
 10
-4.3265580194
 20
24.547596936
 10
-4.336113103
 20
24.5511103534
 10
-4.3455069522
 20
24.5541818139
 10
-4.3547254154
 20
24.5568368505
 10
-4.3637260377
 20
24.5591520627
 10
-4.372505464
 20
24.5611293772
 10
-4.3810670495
 20
24.5627668673
 10
-4.3893784039
 20
24.5641353528
 10
-4.3974368686
 20
24.5652366
 10
-4.4052451023
 20
24.5660688425
 10
-4.412778691
 20
24.5666976011
 10
-4.4200294966
 20
24.5671447159
 10
-4.4270056572
 20
24.5673883468
 10
-4.4337071727
 20
24.5674284937
  0
LINE
  5
5C1
100
AcDbEntity
  8
ASSI
100
AcDbLine
 62
250
  6
CONTINUOUS
 10
-1.9326564468
 20
23.4321827624
 11
-4.3069216942
 21
24.5393208298
  0
LINE
  5
5C2
100
AcDbEntity
  8
ASSI
100
AcDbLine
 62
7
  6
CONTINUOUS
 10
-1.4109753406
 20
23.3905383194
 11
-4.2258885232
 21
24.7031538935
  0
LWPOLYLINE
  5
5C3
100
AcDbEntity
  8
ASSI
100
AcDbPolyline
 62
250
  6
CONTINUOUS
 90
13
 70
0
 10
5.6337089865
 20
22.6358309453
 10
5.6389333148
 20
22.6329861972
 10
5.6433622824
 20
22.6274849441
 10
5.6469340761
 20
22.6194039647
 10
5.6495988457
 20
22.6088560421
 10
5.6513194002
 20
22.5959883895
 10
5.6520717264
 20
22.5809805953
 10
5.6518453244
 20
22.5640421175
 10
5.6506433541
 20
22.5454093597
 10
5.6484825908
 20
22.5253423716
 10
5.6453931914
 20
22.5041212204
 10
5.6414182735
 20
22.482042081
 10
5.6366133134
 20
22.4594131032
  0
LWPOLYLINE
  5
5C4
100
AcDbEntity
  8
RACCORDO
100
AcDbPolyline
 62
7
  6
CONTINUOUS
 90
19
 70
0
 10
11.7397834311
 20
19.405827657
 10
11.7699564588
 20
19.3882110668
 10
11.7991636829
 20
19.3678740894
 10
11.8274051036
 20
19.3448167246
 10
11.8548297032
 20
19.3189033952
 10
11.8812884994
 20
19.2902696785
 10
11.9063345451
 20
19.2593223065
 10
11.92985082
 20
19.2262409883
 10
11.9519543444
 20
19.1908460148
 10
11.9725492323
 20
19.1530049912
 10
11.9917390809
 20
19.112655717
 10
12.0094202929
 20
19.0698603926
 10
12.0251861907
 20
19.0246732243
 10
12.0390899906
 20
18.977002662
 10
12.0510784761
 20
18.9269402556
 10
12.0605853203
 20
18.8748148618
 10
12.0674217474
 20
18.8207360991
 10
12.071776533
 20
18.7645943488
 10
12.0736496773
 20
18.706389611
  0
LWPOLYLINE
  5
5C5
100
AcDbEntity
  8
ASSI
100
AcDbPolyline
 62
7
  6
CONTINUOUS
 90
19
 70
0
 10
11.7397834311
 20
19.405827657
 10
11.7699564588
 20
19.3882110668
 10
11.7991636829
 20
19.3678740894
 10
11.8274051036
 20
19.3448167246
 10
11.8548297032
 20
19.3189033952
 10
11.8812884994
 20
19.2902696785
 10
11.9063345451
 20
19.2593223065
 10
11.92985082
 20
19.2262409883
 10
11.9519543444
 20
19.1908460148
 10
11.9725492323
 20
19.1530049912
 10
11.9917390809
 20
19.112655717
 10
12.0094202929
 20
19.0698603926
 10
12.0251861907
 20
19.0246732243
 10
12.0390899906
 20
18.977002662
 10
12.0510784761
 20
18.9269402556
 10
12.0605853203
 20
18.8748148618
 10
12.0674217474
 20
18.8207360991
 10
12.071776533
 20
18.7645943488
 10
12.0736496773
 20
18.706389611
  0
LINE
  5
5C6
100
AcDbEntity
  8
DRAFT
100
AcDbLine
 62
7
  6
CONTINUOUS
 10
6.9450426051
 20
-19.6787421759
 11
7.0736496773
 21
-19.6407640794
  0
LINE
  5
5C7
100
AcDbEntity
  8
ASSI
100
AcDbLine
 62
7
  6
CONTINUOUS
 10
6.9450426051
 20
-19.6787421759
 11
7.0736496773
 21
-19.6407640794
  0
LINE
  5
5C8
100
AcDbEntity
  8
CURVE
100
AcDbLine
 62
250
  6
CONTINUOUS
 10
1.5714930994
 20
12.207804
 11
-1.4318491714
 21
12.207804
  0
LINE
  5
5C9
100
AcDbEntity
  8
CURVE
100
AcDbLine
 62
250
  6
CONTINUOUS
 10
-1.149377684
 20
12.56092
 11
-0.1191851416
 21
12.56092
  0
LINE
  5
5CA
100
AcDbEntity
  8
CURVE
100
AcDbLine
 62
250
  6
CONTINUOUS
 10
0.1632873458
 20
12.56092
 11
1.2890216119
 21
12.56092
  0
LINE
  5
5CB
100
AcDbEntity
  8
CURVE
100
AcDbLine
 62
250
  6
CONTINUOUS
 10
2.859363946
 20
12.8095238209
 11
3.2879354086
 21
12.8095238209
  0
LINE
  5
5CC
100
AcDbEntity
  8
CURVE
100
AcDbLine
 62
250
  6
CONTINUOUS
 10
3.7165068116
 20
12.8571429253
 11
4.430792528
 21
12.8571429253
  0
LINE
  5
5CD
100
AcDbEntity
  8
0
100
AcDbLine
 62
7
  6
CONTINUOUS
 10
12.0736496773
 20
13.4210770735
 11
12.2736496773
 21
13.4210770735
  0
LINE
  5
5CE
100
AcDbEntity
  8
ASSI
100
AcDbLine
 62
7
  6
CONTINUOUS
 10
12.0736496773
 20
13.4210770735
 11
12.2736496773
 21
13.4210770735
  0
LINE
  5
5CF
100
AcDbEntity
  8
CURVE
100
AcDbLine
 62
250
  6
CONTINUOUS
 10
3.7165068116
 20
13.4285712242
 11
4.2879353788
 21
13.4285712242
  0
LINE
  5
5D0
100
AcDbEntity
  8
CURVE
100
AcDbLine
 62
250
  6
CONTINUOUS
 10
3.2879354086
 20
13.523809433
 11
2.859363946
 21
13.523809433
  0
LINE
  5
5D1
100
AcDbEntity
  8
CURVE
100
AcDbLine
 62
250
  6
CONTINUOUS
 10
-0.1191851416
 20
13.537186
 11
0.1632873458
 21
13.537186
  0
LINE
  5
5D2
100
AcDbEntity
  8
CURVE
100
AcDbLine
 62
250
  6
CONTINUOUS
 10
-1.4318491714
 20
13.591191
 11
-1.149377684
 21
13.591191
  0
LINE
  5
5D3
100
AcDbEntity
  8
CURVE
100
AcDbLine
 62
250
  6
CONTINUOUS
 10
1.2890216119
 20
13.620272
 11
1.5714930994
 21
13.620272
  0
LINE
  5
5D4
100
AcDbEntity
  8
0
100
AcDbLine
 62
7
  6
CONTINUOUS
 10
12.0736496773
 20
13.6424246044
 11
12.2736496773
 21
13.6424246044
  0
LINE
  5
5D5
100
AcDbEntity
  8
ASSI
100
AcDbLine
 62
7
  6
CONTINUOUS
 10
12.0736496773
 20
13.6424246044
 11
12.2736496773
 21
13.6424246044
  0
LINE
  5
5D6
100
AcDbEntity
  8
0
100
AcDbLine
 62
7
  6
CONTINUOUS
 10
12.0736496773
 20
14.2501398489
 11
12.2736496773
 21
14.2501398489
  0
LINE
  5
5D7
100
AcDbEntity
  8
ASSI
100
AcDbLine
 62
7
  6
CONTINUOUS
 10
12.0736496773
 20
14.2501398489
 11
12.2736496773
 21
14.2501398489
  0
LINE
  5
5D8
100
AcDbEntity
  8
0
100
AcDbLine
 62
7
  6
CONTINUOUS
 10
12.0736496773
 20
14.2887249438
 11
12.2736496773
 21
14.2887249438
  0
LINE
  5
5D9
100
AcDbEntity
  8
ASSI
100
AcDbLine
 62
7
  6
CONTINUOUS
 10
12.0736496773
 20
14.2887249438
 11
12.2736496773
 21
14.2887249438
  0
LINE
  5
5DA
100
AcDbEntity
  8
CURVE
100
AcDbLine
 62
250
  6
CONTINUOUS
 10
2.859363946
 20
14.3333334923
 11
3.2879354086
 21
14.3333334923
  0
LINE
  5
5DB
100
AcDbEntity
  8
CURVE
100
AcDbLine
 62
250
  6
CONTINUOUS
 10
4.2879353788
 20
14.4285712242
 11
3.7165068116
 21
14.4285712242
  0
LINE
  5
5DC
100
AcDbEntity
  8
CURVE
100
AcDbLine
 62
250
  6
CONTINUOUS
 10
3.7165068116
 20
15.0
 11
4.2879353788
 21
15.0
  0
LWPOLYLINE
  5
5DD
100
AcDbEntity
  8
DRAFT
100
AcDbPolyline
 62
7
  6
CONTINUOUS
 90
28
 70
0
 10
7.0736496773
 20
19.6407640794
 10
6.9450555896
 20
19.6787373442
 10
6.8205390554
 20
19.7226464077
 10
6.7004365195
 20
19.7724912699
 10
6.5848009522
 20
19.829030798
 10
6.4741332747
 20
19.8915061249
 10
6.3693115098
 20
19.9576406494
 10
6.2708445571
 20
20.0270913843
 10
6.1783255546
 20
20.1002013168
 10
6.0911971171
 20
20.1757228075
 10
6.0093269428
 20
20.2536833507
 10
5.9329141498
 20
20.3340554521
 10
5.8619283534
 20
20.4155089889
 10
5.7963335064
 20
20.4979486766
 10
5.7360558039
 20
20.5814697996
 10
5.6809804909
 20
20.6650280893
 10
5.631132145
 20
20.748305918
 10
5.5862433906
 20
20.8316209133
 10
5.545846022
 20
20.9148816892
 10
5.5098899081
 20
20.9980313074
 10
5.4783297598
 20
21.0811267063
 10
5.4508913758
 20
21.1642473147
 10
5.4276031374
 20
21.2473586676
 10
5.408478492
 20
21.33049523
 10
5.3934147573
 20
21.4138398256
 10
5.3824966043
 20
21.4974533956
 10
5.3758763598
 20
21.5812749989
 10
5.3736496773
 20
21.6653046354
  0
LWPOLYLINE
  5
5DE
100
AcDbEntity
  8
ASSI
100
AcDbPolyline
 62
7
  6
CONTINUOUS
 90
28
 70
0
 10
7.0736496773
 20
19.6407640794
 10
6.9450555896
 20
19.6787373442
 10
6.8205390554
 20
19.7226464077
 10
6.7004365195
 20
19.7724912699
 10
6.5848009522
 20
19.829030798
 10
6.4741332747
 20
19.8915061249
 10
6.3693115098
 20
19.9576406494
 10
6.2708445571
 20
20.0270913843
 10
6.1783255546
 20
20.1002013168
 10
6.0911971171
 20
20.1757228075
 10
6.0093269428
 20
20.2536833507
 10
5.9329141498
 20
20.3340554521
 10
5.8619283534
 20
20.4155089889
 10
5.7963335064
 20
20.4979486766
 10
5.7360558039
 20
20.5814697996
 10
5.6809804909
 20
20.6650280893
 10
5.631132145
 20
20.748305918
 10
5.5862433906
 20
20.8316209133
 10
5.545846022
 20
20.9148816892
 10
5.5098899081
 20
20.9980313074
 10
5.4783297598
 20
21.0811267063
 10
5.4508913758
 20
21.1642473147
 10
5.4276031374
 20
21.2473586676
 10
5.408478492
 20
21.33049523
 10
5.3934147573
 20
21.4138398256
 10
5.3824966043
 20
21.4974533956
 10
5.3758763598
 20
21.5812749989
 10
5.3736496773
 20
21.6653046354
  0
LINE
  5
5DF
100
AcDbEntity
  8
CURVE
100
AcDbLine
 62
250
  6
CONTINUOUS
 10
3.2879354086
 20
15.0952382088
 11
2.859363946
 21
15.0952382088
  0
LINE
  5
5E0
100
AcDbEntity
  8
CURVE
100
AcDbLine
 62
250
  6
CONTINUOUS
 10
2.859363946
 20
15.9047617912
 11
3.2879354086
 21
15.9047617912
  0
LINE
  5
5E1
100
AcDbEntity
  8
CURVE
100
AcDbLine
 62
250
  6
CONTINUOUS
 10
4.2879353788
 20
16.0
 11
3.7165068116
 21
16.0
  0
LINE
  5
5E2
100
AcDbEntity
  8
RACCORDO
100
AcDbLine
 62
250
  6
CONTINUOUS
 10
11.578012945
 20
17.3673827853
 11
12.0736496773
 21
17.3673827853
  0
LINE
  5
5E3
100
AcDbEntity
  8
ASSI
100
AcDbLine
 62
250
  6
CONTINUOUS
 10
11.578012945
 20
17.3673827853
 11
12.0736496773
 21
17.3673827853
  0
LINE
  5
5E4
100
AcDbEntity
  8
RACCORDO
100
AcDbLine
 62
250
  6
CONTINUOUS
 10
11.578012945
 20
17.3673827853
 11
-2.9263503227
 21
17.4117842931
  0
LINE
  5
5E5
100
AcDbEntity
  8
ASSI
100
AcDbLine
 62
250
  6
CONTINUOUS
 10
11.578012945
 20
17.3673827853
 11
-2.9263503227
 21
17.4117842931
  0
LINE
  5
5E6
100
AcDbEntity
  8
RACCORDO
100
AcDbLine
 62
250
  6
CONTINUOUS
 10
11.578012945
 20
17.6800325799
 11
-2.9263503227
 21
17.7238113437
  0
LINE
  5
5E7
100
AcDbEntity
  8
ASSI
100
AcDbLine
 62
250
  6
CONTINUOUS
 10
11.578012945
 20
17.6800325799
 11
-2.9263503227
 21
17.7238113437
  0
LINE
  5
5E8
100
AcDbEntity
  8
RACCORDO
100
AcDbLine
 62
250
  6
CONTINUOUS
 10
-2.9263503227
 20
17.5143279524
 11
-8.9263503227
 21
17.5512208021
  0
LINE
  5
5E9
100
AcDbEntity
  8
RACCORDO
100
AcDbLine
 62
250
  6
CONTINUOUS
 10
-2.9263503227
 20
17.8279150206
 11
-8.9263503227
 21
17.8642941207
  0
LINE
  5
5EA
100
AcDbEntity
  8
SUPERFICI
100
AcDbLine
 62
7
  6
CONTINUOUS
 10
-8.9249037256
 20
18.2216459565
 11
-7.4344467548
 21
18.1800014907
  0
LWPOLYLINE
  5
5EB
100
AcDbEntity
  8
RACCORDO
100
AcDbPolyline
 62
250
  6
CONTINUOUS
 90
19
 70
0
 10
11.578012945
 20
17.6800325799
 10
11.6213044974
 20
17.6786211472
 10
11.6642454915
 20
17.674869249
 10
11.7065127438
 20
17.6688038461
 10
11.7477902939
 20
17.6604687645
 10
11.7877643005
 20
17.6499258256
 10
11.8261262733
 20
17.6372557084
 10
11.8625851613
 20
17.6225547974
 10
11.8968689935
 20
17.6059330271
 10
11.9287199798
 20
17.5875153455
 10
11.9578986425
 20
17.5674400844
 10
11.984184819
 20
17.5458585597
 10
12.007379906
 20
17.5229338992
 10
12.0273091828
 20
17.4988391695
 10
12.0438232544
 20
17.4737554373
 10
12.0567982643
 20
17.4478710234
 10
12.0661365997
 20
17.4213805787
 10
12.0717678667
 20
17.3944836795
 10
12.0736496773
 20
17.3673827853
  0
LWPOLYLINE
  5
5EC
100
AcDbEntity
  8
ASSI
100
AcDbPolyline
 62
250
  6
CONTINUOUS
 90
19
 70
0
 10
11.578012945
 20
17.6800325799
 10
11.6213044974
 20
17.6786211472
 10
11.6642454915
 20
17.674869249
 10
11.7065127438
 20
17.6688038461
 10
11.7477902939
 20
17.6604687645
 10
11.7877643005
 20
17.6499258256
 10
11.8261262733
 20
17.6372557084
 10
11.8625851613
 20
17.6225547974
 10
11.8968689935
 20
17.6059330271
 10
11.9287199798
 20
17.5875153455
 10
11.9578986425
 20
17.5674400844
 10
11.984184819
 20
17.5458585597
 10
12.007379906
 20
17.5229338992
 10
12.0273091828
 20
17.4988391695
 10
12.0438232544
 20
17.4737554373
 10
12.0567982643
 20
17.4478710234
 10
12.0661365997
 20
17.4213805787
 10
12.0717678667
 20
17.3944836795
 10
12.0736496773
 20
17.3673827853
  0
LINE
  5
5ED
100
AcDbEntity
  8
ASSI
100
AcDbLine
 62
250
  6
CONTINUOUS
 10
-1.8702707305
 20
23.4189492102
 11
-1.9112005777
 21
23.4276836633
  0
LINE
  5
5EE
100
AcDbEntity
  8
ASSI
100
AcDbLine
 62
250
  6
CONTINUOUS
 10
3.3569088157
 20
23.0572062416
 11
5.5086691767
 21
22.4806437906
  0
LINE
  5
5EF
100
AcDbEntity
  8
ASSI
100
AcDbLine
 62
250
  6
CONTINUOUS
 10
5.6366133134
 20
22.4594131032
 11
7.0736496773
 21
22.07436037
  0
LINE
  5
5F0
100
AcDbEntity
  8
ASSI
100
AcDbLine
 62
7
  6
CONTINUOUS
 10
3.4051821435
 20
23.2329629131
 11
7.0736496773
 21
22.25
  0
LINE
  5
5F1
100
AcDbEntity
  8
CURVE
100
AcDbLine
 62
250
  6
CONTINUOUS
 10
1.5715020987
 20
15.635077
 11
0.8112929949
 21
15.423235
  0
LINE
  5
5F2
100
AcDbEntity
  8
CURVE
100
AcDbLine
 62
250
  6
CONTINUOUS
 10
0.5288185076
 20
15.340149
 11
-1.1036751646
 21
14.903945
  0
LWPOLYLINE
  5
5F3
100
AcDbEntity
  8
RACCORDO
100
AcDbPolyline
 62
7
  6
CONTINUOUS
 90
13
 70
0
 10
-8.736817514
 20
18.0385452862
 10
-8.7619302282
 20
18.0365802403
 10
-8.7864801077
 20
18.0321638016
 10
-8.8100741499
 20
18.0253629586
 10
-8.8323375093
 20
18.0162675858
 10
-8.8529090202
 20
18.0050234667
 10
-8.8714498441
 20
17.9918330431
 10
-8.8876616935
 20
17.9768859518
 10
-8.9012909073
 20
17.9604097407
 10
-8.9121227449
 20
17.9427023343
 10
-8.9199851679
 20
17.9240409444
 10
-8.9247527994
 20
17.9046784854
 10
-8.9263503227
 20
17.8848955803
  0
LINE
  5
5F4
100
AcDbEntity
  8
DRAFT
100
AcDbLine
 62
7
  6
CONTINUOUS
 10
-8.9263503227
 20
19.121508987
 11
-8.3434301672
 21
19.1316838962
  0
LINE
  5
5F5
100
AcDbEntity
  8
0
100
AcDbLine
 62
7
  6
CONTINUOUS
 10
7.0736496773
 20
19.75
 11
6.7675057765
 21
19.7446562383
  0
LINE
  5
5F6
100
AcDbEntity
  8
ASSI
100
AcDbLine
 62
7
  6
CONTINUOUS
 10
7.0736496773
 20
19.75
 11
6.7675057765
 21
19.7446562383
  0
LINE
  5
5F7
100
AcDbEntity
  8
SUPERFICI
100
AcDbLine
 62
250
  6
CONTINUOUS
 10
-8.9263503227
 20
18.6360642889
 11
-7.4263503227
 21
18.6286602576
  0
LINE
  5
5F8
100
AcDbEntity
  8
RACCORDO
100
AcDbLine
 62
250
  6
CONTINUOUS
 10
5.689037373
 20
20.6528044768
 11
5.7274786991
 21
20.6522414444
  0
LINE
  5
5F9
100
AcDbEntity
  8
RACCORDO
100
AcDbLine
 62
250
  6
CONTINUOUS
 10
5.6364474431
 20
20.7394260549
 11
6.1664194525
 21
20.7316637995
  0
LINE
  5
5FA
100
AcDbEntity
  8
RACCORDO
100
AcDbLine
 62
250
  6
CONTINUOUS
 10
0.5736496773
 20
21.0597429581
 11
0.6746918298
 21
21.0582630403
  0
LINE
  5
5FB
100
AcDbEntity
  8
RACCORDO
100
AcDbLine
 62
250
  6
CONTINUOUS
 10
5.5144972691
 20
20.9873766434
 11
6.4696037943
 21
20.9733876388
  0
LINE
  5
5FC
100
AcDbEntity
  8
DRAFT
100
AcDbLine
 62
7
  6
CONTINUOUS
 10
12.0736496773
 20
19.4
 11
11.7397834311
 21
19.405827657
  0
LINE
  5
5FD
100
AcDbEntity
  8
RACCORDO
100
AcDbLine
 62
7
  6
CONTINUOUS
 10
7.0736496773
 20
19.4872753246
 11
11.7397834311
 21
19.405827657
  0
LINE
  5
5FE
100
AcDbEntity
  8
ASSI
100
AcDbLine
 62
7
  6
CONTINUOUS
 10
7.0736496773
 20
19.4872753246
 11
12.0736496773
 21
19.4
  0
LINE
  5
5FF
100
AcDbEntity
  8
RACCORDO
100
AcDbLine
 62
250
  6
CONTINUOUS
 10
-5.929840804
 20
21.5526753901
 11
-0.7385660759
 21
21.3655459496
  0
LWPOLYLINE
  5
600
100
AcDbEntity
  8
RACCORDO
100
AcDbPolyline
 62
250
  6
CONTINUOUS
 90
13
 70
0
 10
-5.929840804
 20
21.4730651231
 10
-5.9556244807
 20
21.4746665825
 10
-5.980918322
 20
21.4787645925
 10
-6.005299094
 20
21.4852905822
 10
-6.0283588407
 20
21.4941353543
 10
-6.0497117105
 20
21.5051509119
 10
-6.0690004125
 20
21.5181529353
 10
-6.0859021949
 20
21.5329238654
 10
-6.1001342454
 20
21.549216545
 10
-6.1114584235
 20
21.5667583537
 10
-6.1196852452
 20
21.5852557699
 10
-6.1246770538
 20
21.604399282
 10
-6.1263503227
 20
21.6238685677
  0
LWPOLYLINE
  5
601
100
AcDbEntity
  8
RACCORDO
100
AcDbPolyline
 62
250
  6
CONTINUOUS
 90
12
 70
0
 10
-5.929840804
 20
21.5526753901
 10
-5.955623841
 20
21.554282715
 10
-5.9809171609
 20
21.5583957402
 10
-6.0052975496
 20
21.5649456716
 10
-6.0283570437
 20
21.5738229309
 10
-6.0497098127
 20
21.5848790091
 10
-6.0689986014
 20
21.5979289675
 10
-6.085900627
 20
21.612754485
 10
-6.1001330241
 20
21.6291075162
 10
-6.1114576113
 20
21.6467144805
 10
-6.1196848306
 20
21.6652807926
 10
-6.124676937
 20
21.6844957845
  0
LINE
  5
602
100
AcDbEntity
  8
ASSI
100
AcDbLine
 62
250
  6
CONTINUOUS
 10
5.5086691767
 20
22.4806437906
 11
5.5802509675
 21
22.4689120718
  0
LINE
  5
603
100
AcDbEntity
  8
ASSI
100
AcDbLine
 62
250
  6
CONTINUOUS
 10
5.5802509675
 20
22.4689120718
 11
5.6366133134
 21
22.4594131032
  0
LWPOLYLINE
  5
604
100
AcDbEntity
  8
ASSI
100
AcDbPolyline
 62
250
  6
CONTINUOUS
 90
10
 70
0
 10
2.031918852
 20
23.0499999999
 10
2.0437060517
 20
23.0475325649
 10
2.0582642075
 20
23.045119514
 10
2.0753081668
 20
23.0427996256
 10
2.0944814779
 20
23.0406130582
 10
2.1154703331
 20
23.0385882697
 10
2.1380435567
 20
23.0367447211
 10
2.1618885891
 20
23.03510882
 10
2.1865839824
 20
23.0337103164
 10
2.2117360388
 20
23.0325715065
  0
LINE
  5
605
100
AcDbEntity
  8
ASSI
100
AcDbLine
 62
250
  6
CONTINUOUS
 10
-1.9112005777
 20
23.4276836633
 11
-1.9326564468
 21
23.4321827624
  0
LINE
  5
606
100
AcDbEntity
  8
DRAFT
100
AcDbLine
 62
7
  6
CONTINUOUS
 10
6.1656433054
 20
20.1111940809
 11
7.0736496773
 21
20.1587806784
  0
LWPOLYLINE
  5
607
100
AcDbEntity
  8
RACCORDO
100
AcDbPolyline
 62
250
  6
CONTINUOUS
 90
22
 70
0
 10
-6.3228598414
 20
21.2782258002
 10
-6.3105799243
 20
21.2785600417
 10
-6.298034402
 20
21.2805217166
 10
-6.2852801452
 20
21.2841108247
 10
-6.272342392
 20
21.2892902346
 10
-6.2593346233
 20
21.2960970778
 10
-6.2464501759
 20
21.3046427493
 10
-6.2337877928
 20
21.3149859469
 10
-6.2214059893
 20
21.3270679728
 10
-6.2094305113
 20
21.3408241285
 10
-6.1979570683
 20
21.3562830852
 10
-6.1870501724
 20
21.3734161718
 10
-6.1767860027
 20
21.3920726755
 10
-6.1672636896
 20
21.4122481639
 10
-6.158545682
 20
21.4339470695
 10
-6.1506697515
 20
21.4570319773
 10
-6.1437469825
 20
21.481475752
 10
-6.1378532665
 20
21.5073055289
 10
-6.1330313291
 20
21.5344652998
 10
-6.1294062728
 20
21.5629363952
 10
-6.1271354363
 20
21.5927374845
 10
-6.1263503227
 20
21.6238685677
  0
LINE
  5
608
100
AcDbEntity
  8
ASSI
100
AcDbLine
 62
250
  6
CONTINUOUS
 10
-2.0098978952
 20
23.2493987613
 11
-2.0360584171
 21
23.248978759
  0
LWPOLYLINE
  5
609
100
AcDbEntity
  8
RACCORDO
100
AcDbPolyline
 62
250
  6
CONTINUOUS
 90
22
 70
0
 10
-6.3228598414
 20
21.1298680779
 10
-6.2980830937
 20
21.1301930835
 10
-6.2730286305
 20
21.1321370811
 10
-6.2476964517
 20
21.1356993547
 10
-6.2218597544
 20
21.140839837
 10
-6.1957453417
 20
21.1475958127
 10
-6.170033622
 20
21.1560817731
 10
-6.1447613555
 20
21.1663515048
 10
-6.1198917822
 20
21.1783451444
 10
-6.0959950308
 20
21.1920059416
 10
-6.0731020778
 20
21.207357404
 10
-6.0511819467
 20
21.2243672096
 10
-6.0307118372
 20
21.2428947332
 10
-6.0117060861
 20
21.2629294845
 10
-5.9941503567
 20
21.2844714158
 10
-5.9784788379
 20
21.3073959102
 10
-5.9646527677
 20
21.3316701359
 10
-5.9527109082
 20
21.3573151944
 10
-5.9432037345
 20
21.3842875852
 10
-5.9363147385
 20
21.4125684607
 10
-5.9318604283
 20
21.4421633647
 10
-5.929840804
 20
21.4730651231
  0
LINE
  5
60A
100
AcDbEntity
  8
ASSI
100
AcDbLine
 62
250
  6
CONTINUOUS
 10
-1.9748184085
 20
23.4319913824
 11
-2.0031837877
 21
23.4316530909
  0
LINE
  5
60B
100
AcDbEntity
  8
ASSI
100
AcDbLine
 62
250
  6
CONTINUOUS
 10
-1.9832663478
 20
23.249637456
 11
-2.0098978952
 21
23.2493987613
  0
LINE
  5
60C
100
AcDbEntity
  8
DRAFT
100
AcDbLine
 62
7
  6
CONTINUOUS
 10
0.6736496773
 20
20.9871095356
 11
-2.9263503227
 21
20.9669711218
  0
LINE
  5
60D
100
AcDbEntity
  8
ASSI
100
AcDbLine
 62
7
  6
CONTINUOUS
 10
0.6736496773
 20
20.9871095356
 11
-2.9263503227
 21
20.9669711218
  0
LINE
  5
60E
100
AcDbEntity
  8
ASSI
100
AcDbLine
 62
250
  6
CONTINUOUS
 10
-1.9290878214
 20
23.2498056281
 11
-1.9832663478
 21
23.249637456
  0
LWPOLYLINE
  5
60F
100
AcDbEntity
  8
ASSI
100
AcDbPolyline
 62
250
  6
CONTINUOUS
 90
3
 70
0
 10
-1.9326564468
 20
23.4321827624
 10
-1.9466535884
 20
23.4321668546
 10
-1.9748184085
 20
23.4319913824
  0
LINE
  5
610
100
AcDbEntity
  8
RACCORDO
100
AcDbLine
 62
250
  6
CONTINUOUS
 10
-7.4263503227
 20
22.5034605474
 11
-7.6228598414
 21
22.5034605474
  0
LINE
  5
611
100
AcDbEntity
  8
ASSI
100
AcDbLine
 62
250
  6
CONTINUOUS
 10
-6.3228598414
 20
22.7551793284
 11
-6.1263503227
 21
22.7551793284
  0
LINE
  5
612
100
AcDbEntity
  8
ASSI
100
AcDbLine
 62
250
  6
CONTINUOUS
 10
1.1226674174
 20
23.05
 11
2.031918852
 21
23.05
  0
LINE
  5
613
100
AcDbEntity
  8
ASSI
100
AcDbLine
 62
250
  6
CONTINUOUS
 10
-1.4900192054
 20
23.05
 11
-2.3538599394
 21
23.05
  0
LINE
  5
614
100
AcDbEntity
  8
ASSI
100
AcDbLine
 62
250
  6
CONTINUOUS
 10
0.9373450128
 20
23.0674284937
 11
-0.7735574667
 21
23.0674284937
  0
LINE
  5
615
100
AcDbEntity
  8
ASSI
100
AcDbLine
 62
250
  6
CONTINUOUS
 10
2.2130682636
 20
23.0674284937
 11
3.2792631022
 21
23.0674284937
  0
LINE
  5
616
100
AcDbEntity
  8
ASSI
100
AcDbLine
 62
7
  6
CONTINUOUS
 10
-0.777047948
 20
23.25
 11
3.2757726209
 21
23.25
  0
LINE
  5
617
100
AcDbEntity
  8
ASSI
100
AcDbLine
 62
250
  6
CONTINUOUS
 10
-5.6228598414
 20
23.2900415076
 11
-5.4263503227
 21
23.2900415076
  0
LINE
  5
618
100
AcDbEntity
  8
ASSI
100
AcDbLine
 62
250
  6
CONTINUOUS
 10
-5.6228598414
 20
23.7423678201
 11
-5.4263503227
 21
23.7423678201
  0
LINE
  5
619
100
AcDbEntity
  8
RACCORDO
100
AcDbLine
 62
250
  6
CONTINUOUS
 10
-2.9263503227
 20
21.1934131759
 11
0.5736496773
 21
21.1911691186
  0
LINE
  5
61A
100
AcDbEntity
  8
ASSI
100
AcDbLine
 62
250
  6
CONTINUOUS
 10
-1.8629309341
 20
23.2496930839
 11
-1.9290878214
 21
23.2498056281
  0
LINE
  5
61B
100
AcDbEntity
  8
RACCORDO
100
AcDbLine
 62
250
  6
CONTINUOUS
 10
-7.4263503227
 20
21.1384606561
 11
-6.3228598414
 21
21.1298680779
  0
LINE
  5
61C
100
AcDbEntity
  8
RACCORDO
100
AcDbLine
 62
250
  6
CONTINUOUS
 10
-7.4263503227
 20
21.2867781276
 11
-6.3228598414
 21
21.2782255363
  0
LINE
  5
61D
100
AcDbEntity
  8
DRAFT
100
AcDbLine
 62
7
  6
CONTINUOUS
 10
5.3736496773
 20
21.6775669973
 11
0.6736496773
 21
21.718583276
  0
LINE
  5
61E
100
AcDbEntity
  8
ASSI
100
AcDbLine
 62
7
  6
CONTINUOUS
 10
5.3736496773
 20
21.6775669973
 11
0.6736496773
 21
21.718583276
  0
LWPOLYLINE
  5
61F
100
AcDbEntity
  8
ASSI
100
AcDbPolyline
 62
250
  6
CONTINUOUS
 90
13
 70
0
 10
3.2792631022
 20
23.0674284937
 10
3.2853522691
 20
23.0673710166
 10
3.2914768394
 20
23.0671832886
 10
3.2976368133
 20
23.0668653096
 10
3.3038100743
 20
23.0664243233
 10
3.3100187388
 20
23.0658530859
 10
3.316329156
 20
23.065129867
 10
3.3227468625
 20
23.0642603577
 10
3.3292663217
 20
23.0632388667
 10
3.3359372727
 20
23.0620265901
 10
3.3427762952
 20
23.060610593
 10
3.3497668096
 20
23.0590038102
 10
3.3569088157
 20
23.0572062416
  0
LWPOLYLINE
  5
620
100
AcDbEntity
  8
ASSI
100
AcDbPolyline
 62
250
  6
CONTINUOUS
 90
13
 70
0
 10
-0.7735574667
 20
23.0674284937
 10
-0.8234460672
 20
23.0682411273
 10
-0.8727496504
 20
23.0703960503
 10
-0.9214682164
 20
23.0738932628
 10
-0.9695619874
 20
23.0787556476
 10
-1.0170707411
 20
23.0849603219
 10
-1.0641138108
 20
23.092438637
 10
-1.110682073
 20
23.101167515
 10
-1.1567846512
 20
23.1111700338
 10
-1.2025682485
 20
23.1224467781
 10
-1.248081766
 20
23.1349979428
 10
-1.2932763028
 20
23.148823333
 10
-1.3381518587
 20
23.1639229488
  0
LINE
  5
621
100
AcDbEntity
  8
ASSI
100
AcDbLine
 62
250
  6
CONTINUOUS
 10
0.5736496773
 20
21.4387743365
 11
0.6736496773
 21
21.4370288301
  0
LINE
  5
622
100
AcDbEntity
  8
ASSI
100
AcDbLine
 62
250
  6
CONTINUOUS
 10
5.4041475089
 20
21.3544576833
 11
6.4696037943
 21
21.3358600746
  0
LINE
  5
623
100
AcDbEntity
  8
ASSI
100
AcDbLine
 62
7
  6
CONTINUOUS
 10
-0.7263503227
 20
21.7114278447
 11
0.6730983957
 21
21.6870003765
  0
LINE
  5
624
100
AcDbEntity
  8
ASSI
100
AcDbLine
 62
7
  6
CONTINUOUS
 10
5.3725952788
 20
21.6049703533
 11
7.0736496773
 21
21.5752783383
  0
LINE
  5
625
100
AcDbEntity
  8
DRAFT
100
AcDbLine
 62
7
  6
CONTINUOUS
 10
-8.9263503227
 20
22.0261825974
 11
-7.4263503227
 21
22.0
  0
LINE
  5
626
100
AcDbEntity
  8
RACCORDO
100
AcDbLine
 62
250
  6
CONTINUOUS
 10
-8.0218460124
 20
22.5104248769
 11
-7.6228598414
 21
22.5034605474
  0
LINE
  5
627
100
AcDbEntity
  8
RACCORDO
100
AcDbLine
 62
7
  6
CONTINUOUS
 10
-7.6228598414
 20
22.7034300864
 11
-8.2599935011
 21
22.7145512958
  0
LINE
  5
628
100
AcDbEntity
  8
ASSI
100
AcDbLine
 62
250
  6
CONTINUOUS
 10
-5.6228598414
 20
23.7423678201
 11
-8.9263503227
 21
23.800030461
  0
LINE
  5
629
100
AcDbEntity
  8
ASSI
100
AcDbLine
 62
7
  6
CONTINUOUS
 10
-5.6228598414
 20
23.9423373592
 11
-8.9263503227
 21
24.0
  0
LINE
  5
62A
100
AcDbEntity
  8
ASSI
100
AcDbLine
 62
250
  6
CONTINUOUS
 10
-0.7385660759
 20
21.3655459496
 11
0.5736496773
 21
21.3423471075
  0
LINE
  5
62B
100
AcDbEntity
  8
RACCORDO
100
AcDbLine
 62
7
  6
CONTINUOUS
 10
-5.933330222
 20
21.8932595896
 11
-0.7263503227
 21
21.7114278447
  0
LINE
  5
62C
100
AcDbEntity
  8
ASSI
100
AcDbLine
 62
7
  6
CONTINUOUS
 10
-1.5481350753
 20
21.7401252007
 11
-2.4468451469
 21
21.7715088479
  0
LWPOLYLINE
  5
62D
100
AcDbEntity
  8
ASSI
100
AcDbPolyline
 62
250
  6
CONTINUOUS
 90
13
 70
0
 10
0.9373450127
 20
23.0674284927
 10
0.9560436838
 20
23.0666202905
 10
0.9747493504
 20
23.0656604808
 10
0.9932714925
 20
23.0645558034
 10
1.0114473667
 20
23.0633118962
 10
1.0290790711
 20
23.0619400442
 10
1.0459246016
 20
23.0604575829
 10
1.0617936368
 20
23.0588903322
 10
1.0765883451
 20
23.0572397423
 10
1.0902056641
 20
23.0554877167
 10
1.1025132597
 20
23.0536381925
 10
1.1133744052
 20
23.0517199054
 10
1.122667546
 20
23.0497519221
  0
LINE
  5
62E
100
AcDbEntity
  8
0
100
AcDbLine
 62
7
  6
CONTINUOUS
 10
-8.5447307994
 20
22.9586118372
 11
-7.4263503227
 21
22.9
  0
LWPOLYLINE
  5
62F
100
AcDbEntity
  8
ASSI
100
AcDbPolyline
 62
250
  6
CONTINUOUS
 90
10
 70
0
 10
-1.3189772417
 20
23.0325715044
 10
-1.3420996469
 20
23.0338600718
 10
-1.3648633577
 20
23.0353661284
 10
-1.3869616332
 20
23.0370693771
 10
-1.4080966982
 20
23.0389468623
 10
-1.4279837748
 20
23.0409732839
 10
-1.4463549155
 20
23.0431213381
 10
-1.4629625884
 20
23.0453620795
 10
-1.4775830166
 20
23.047665312
 10
-1.490019209
 20
23.0499999995
  0
LWPOLYLINE
  5
630
100
AcDbEntity
  8
ASSI
100
AcDbPolyline
 62
250
  6
CONTINUOUS
 90
10
 70
0
 10
-2.5283542655
 20
23.032571505
 10
-2.5051887145
 20
23.0338600676
 10
-2.4822882836
 20
23.0353661155
 10
-2.4599615556
 20
23.0370693545
 10
-2.4385093828
 20
23.0389468337
 10
-2.4182208329
 20
23.0409732541
 10
-2.3993692942
 20
23.0431213097
 10
-2.3822087911
 20
23.0453620555
 10
-2.3669705611
 20
23.0476652975
 10
-2.3538599394
 20
23.0499999996
  0
LWPOLYLINE
  5
631
100
AcDbEntity
  8
ASSI
100
AcDbPolyline
 62
250
  6
CONTINUOUS
 90
10
 70
0
 10
0.9387845461
 20
23.0325715266
 10
0.9639903906
 20
23.0337104058
 10
0.9888500012
 20
23.0351090041
 10
1.0129670197
 20
23.0367450222
 10
1.0359569279
 20
23.0385923759
 10
1.0574531776
 20
23.0406216112
 10
1.0771130353
 20
23.0428003742
 10
1.0946230468
 20
23.0450939272
 10
1.1097040347
 20
23.0474657019
 10
1.1221155495
 20
23.0498778832
  0
LINE
  5
632
100
AcDbEntity
  8
0
100
AcDbLine
 62
250
  6
CONTINUOUS
 10
-8.9263503227
 20
25.9001713375
 11
-12.2394387969
 21
25.8134150626
  0
LWPOLYLINE
  5
633
100
AcDbEntity
  8
ASSI
100
AcDbPolyline
 62
250
  6
CONTINUOUS
 90
32
 70
0
 10
-2.0360584171
 20
23.248978759
 10
-2.0488420964
 20
23.2486782174
 10
-2.0613282118
 20
23.2483051073
 10
-2.0735999516
 20
23.2478451821
 10
-2.0857357519
 20
23.2472810964
 10
-2.097706815
 20
23.2466026646
 10
-2.1095649219
 20
23.2457880995
 10
-2.1215141665
 20
23.2447924158
 10
-2.1336168847
 20
23.2435882689
 10
-2.145831739
 20
23.2421452241
 10
-2.1582160769
 20
23.2403932901
 10
-2.1708191836
 20
23.2382823529
 10
-2.1836000712
 20
23.2357681158
 10
-2.1964854971
 20
23.2327670016
 10
-2.2094509944
 20
23.2292205886
 10
-2.2224921942
 20
23.2250613857
 10
-2.2355597615
 20
23.2201682512
 10
-2.2486117983
 20
23.2144615934
 10
-2.2615886507
 20
23.2078614367
 10
-2.2743906301
 20
23.2002197121
 10
-2.2870222422
 20
23.191345807
 10
-2.2992471855
 20
23.1812478261
 10
-2.310604714
 20
23.1701189195
 10
-2.3209742399
 20
23.1578530968
 10
-2.3302123854
 20
23.1445389266
 10
-2.3379527003
 20
23.1308057327
 10
-2.3440957416
 20
23.1168229988
 10
-2.3487137735
 20
23.1026143395
 10
-2.3518971642
 20
23.0886927628
 10
-2.3537689868
 20
23.0753012411
 10
-2.3543935309
 20
23.0623818654
 10
-2.3538596002
 20
23.05
  0
LWPOLYLINE
  5
634
100
AcDbEntity
  8
ASSI
100
AcDbPolyline
 62
250
  6
CONTINUOUS
 90
35
 70
0
 10
-2.0031837877
 20
23.4316530909
 10
-2.0174919811
 20
23.4313690325
 10
-2.0319290745
 20
23.4309994365
 10
-2.0464632488
 20
23.4305388705
 10
-2.0610392822
 20
23.4299279536
 10
-2.0755882179
 20
23.429177631
 10
-2.0901790126
 20
23.4282769574
 10
-2.1049633143
 20
23.4271337158
 10
-2.1198813705
 20
23.4257778237
 10
-2.1349929337
 20
23.4241793637
 10
-2.1506289098
 20
23.4221563663
 10
-2.1668474553
 20
23.4197457072
 10
-2.1835904136
 20
23.4169105108
 10
-2.2010142208
 20
23.4133581806
 10
-2.219204526
 20
23.4091204677
 10
-2.23807568
 20
23.4041656211
 10
-2.2575271712
 20
23.3981057921
 10
-2.2775986186
 20
23.3909877926
 10
-2.2982504031
 20
23.3827648107
 10
-2.3192631557
 20
23.3729085622
 10
-2.3407408142
 20
23.3614505668
 10
-2.3625794408
 20
23.3483593049
 10
-2.3842478535
 20
23.3330119333
 10
-2.4060229431
 20
23.3151312423
 10
-2.4276278188
 20
23.2949944416
 10
-2.4477006257
 20
23.2728103173
 10
-2.4661421571
 20
23.2481733652
 10
-2.4830516197
 20
23.2214890895
 10
-2.497364779
 20
23.1941827887
 10
-2.5086616543
 20
23.1662688785
 10
-2.5173622262
 20
23.1377329431
 10
-2.5236622026
 20
23.1099570332
 10
-2.5276268192
 20
23.0834018321
 10
-2.5291908402
 20
23.0576066565
 10
-2.5283542656
 20
23.0325715063
  0
LINE
  5
635
100
AcDbEntity
  8
ASSI
100
AcDbLine
 62
250
  6
CONTINUOUS
 10
-8.276325239
 20
24.3674284937
 11
-8.9263503227
 21
24.3674284937
  0
LINE
  5
636
100
AcDbEntity
  8
ASSI
100
AcDbLine
 62
7
  6
CONTINUOUS
 10
-8.2798157203
 20
24.55
 11
-8.9263503227
 21
24.55
  0
LINE
  5
637
100
AcDbEntity
  8
ASSI
100
AcDbLine
 62
250
  6
CONTINUOUS
 10
-4.4337071727
 20
24.5674284937
 11
-4.6300395184
 21
24.5674284937
  0
LINE
  5
638
100
AcDbEntity
  8
ASSI
100
AcDbLine
 62
7
  6
CONTINUOUS
 10
-4.437197654
 20
24.75
 11
-4.6335299997
 21
24.75
  0
LINE
  5
639
100
AcDbEntity
  8
0
100
AcDbLine
 62
250
  6
CONTINUOUS
 10
-12.2394387969
 20
25.8134150626
 11
-12.7263503227
 21
25.8134150626
  0
LWPOLYLINE
  5
63A
100
AcDbEntity
  8
0
100
AcDbPolyline
 62
7
  6
CONTINUOUS
 90
13
 70
0
 43
0.3500000006
 10
3.1379354496
 20
47.0773139648
 10
2.8522211981
 20
47.2915984497
 10
2.8522211981
 20
47.9344564362
 10
3.1379354496
 20
48.3630254059
 10
3.7807925863
 20
48.3630254059
 10
4.0665068378
 20
47.9344564362
 10
4.0665068378
 20
47.2915984497
 10
3.7807925863
 20
47.0773139648
 10
4.209363822
 20
46.6487404633
 10
4.209363822
 20
45.7915979919
 10
3.7807925863
 20
45.3630290222
 10
3.1379354496
 20
45.3630290222
 10
2.7093639307
 20
45.7915979919
  0
LWPOLYLINE
  5
63B
100
AcDbEntity
  8
ASSI
100
AcDbPolyline
 62
250
  6
CONTINUOUS
 90
13
 70
0
 10
2.0319187741
 20
23.0497494378
 10
2.0406049975
 20
23.0517190176
 10
2.050892794
 20
23.0536384998
 10
2.0626660056
 20
23.0554887796
 10
2.0757928822
 20
23.0572409754
 10
2.0901443601
 20
23.058891308
 10
2.1056207467
 20
23.0604582876
 10
2.1221274367
 20
23.0619406043
 10
2.1394775336
 20
23.0633123155
 10
2.157432463
 20
23.0645560898
 10
2.1757958906
 20
23.0656606457
 10
2.1944047568
 20
23.0666203455
 10
2.213068262
 20
23.0674284507
  0
LINE
  5
63C
100
AcDbEntity
  8
0
100
AcDbLine
 62
7
  6
CONTINUOUS
 10
-8.9263503227
 20
26.4
 11
-12.2394387969
 21
26.3132437251
  0
LWPOLYLINE
  5
63D
100
AcDbEntity
  8
ASSI
100
AcDbPolyline
 62
250
  6
CONTINUOUS
 90
16
 70
0
 10
-8.276325239
 20
24.3674284937
 10
-8.2565750528
 20
24.3725674071
 10
-8.2370780668
 20
24.3774671417
 10
-8.2180382593
 20
24.3820766873
 10
-8.1996612115
 20
24.3863466323
 10
-8.1821307019
 20
24.3902346472
 10
-8.1656102903
 20
24.3937044018
 10
-8.1502584078
 20
24.3967218577
 10
-8.1362581797
 20
24.399250197
 10
-8.1237860087
 20
24.4012578999
 10
-8.1129686462
 20
24.4027260085
 10
-8.1039063844
 20
24.4036425726
 10
-8.0966926607
 20
24.4040005985
 10
-8.091388249
 20
24.4038012674
 10
-8.0880282535
 20
24.403051572
 10
-8.086630555
 20
24.401763809
  0
LWPOLYLINE
  5
63E
100
AcDbEntity
  8
0
100
AcDbPolyline
 62
7
  6
CONTINUOUS
 90
7
 70
0
 43
0.3500000006
 10
1.2736496115
 20
35.3630259705
 10
-0.2263503152
 20
35.3630259705
 10
1.2736496115
 20
37.5058844147
 10
1.2736496115
 20
37.9344533844
 10
0.8450782342
 20
38.363026886
 10
0.2022210975
 20
38.363026886
 10
-0.2263503152
 20
37.7201688995
  0
LWPOLYLINE
  5
63F
100
AcDbEntity
  8
0
100
AcDbPolyline
 62
7
  6
CONTINUOUS
 90
7
 70
0
 43
0.3500000006
 10
-2.2192074037
 20
45.3630290222
 10
-3.7192074366
 20
45.3630290222
 10
-2.2192074037
 20
47.5058829346
 10
-2.2192074037
 20
47.9344564362
 10
-2.6477787809
 20
48.3630254059
 10
-3.2906359177
 20
48.3630254059
 10
-3.7192074366
 20
47.7201719513
  0
ARC
  5
640
100
AcDbEntity
  8
ASSI
100
AcDbCircle
 62
7
  6
CONTINUOUS
 10
-0.777047948
 20
-24.75
 40
1.5
100
AcDbArc
 50
90.0
 51
115.0
  0
ARC
  5
641
100
AcDbEntity
  8
0
100
AcDbCircle
 62
7
  6
CONTINUOUS
 10
-12.2263503227
 20
-25.8134150626
 40
0.5
100
AcDbArc
 50
180.0
 51
268.5
  0
ARC
  5
642
100
AcDbEntity
  8
ASSI
100
AcDbCircle
 62
7
  6
CONTINUOUS
 10
-4.437197654
 20
-24.25
 40
0.5
100
AcDbArc
 50
270.0
 51
295.0
  0
ARC
  5
643
100
AcDbEntity
  8
DRAFT
100
AcDbCircle
 62
7
  6
CONTINUOUS
 10
-8.3486658891
 20
-19.4316382047
 40
0.3
100
AcDbArc
 50
46.3156631378
 51
89.0
  0
ARC
  5
644
100
AcDbEntity
  8
RACCORDO
100
AcDbCircle
 62
7
  6
CONTINUOUS
 10
-7.6263503227
 20
-22.5034605474
 40
0.2
100
AcDbArc
 50
271.0
 51
360.0
  0
ARC
  5
645
100
AcDbEntity
  8
RACCORDO
100
AcDbCircle
 62
7
  6
CONTINUOUS
 10
-5.9263503227
 20
-22.093137755
 40
0.2
100
AcDbArc
 50
92.0
 51
180.0
  0
ARC
  5
646
100
AcDbEntity
  8
ASSI
100
AcDbCircle
 62
7
  6
CONTINUOUS
 10
-8.2798157203
 20
-24.35
 40
0.2
100
AcDbArc
 50
270.0
 51
345.0
  0
ARC
  5
647
100
AcDbEntity
  8
ASSI
100
AcDbCircle
 62
7
  6
CONTINUOUS
 10
-4.6335299997
 20
-24.55
 40
0.2
100
AcDbArc
 50
210.0
 51
270.0
  0
ARC
  5
648
100
AcDbEntity
  8
ASSI
100
AcDbCircle
 62
7
  6
CONTINUOUS
 10
-5.4418203765
 20
-23.95
 40
0.2
100
AcDbArc
 50
30.0
 51
85.6838888483
  0
ARC
  5
649
100
AcDbEntity
  8
ASSI
100
AcDbCircle
 62
7
  6
CONTINUOUS
 10
-5.9263503227
 20
-22.7551793284
 40
0.2
100
AcDbArc
 50
180.0
 51
250.0
  0
ARC
  5
64A
100
AcDbEntity
  8
ASSI
100
AcDbCircle
 62
7
  6
CONTINUOUS
 10
-5.6263503227
 20
-23.2900415076
 40
0.2
100
AcDbArc
 50
0.0
 51
70.0
  0
ARC
  5
64B
100
AcDbEntity
  8
ASSI
100
AcDbCircle
 62
7
  6
CONTINUOUS
 10
-5.6263503227
 20
-23.7423678201
 40
0.2
100
AcDbArc
 50
271.0
 51
360.0
  0
ARC
  5
64C
100
AcDbEntity
  8
ASSI
100
AcDbCircle
 62
7
  6
CONTINUOUS
 10
-0.777047948
 20
24.75
 40
1.5
100
AcDbArc
 50
245.0
 51
270.0
  0
ARC
  5
64D
100
AcDbEntity
  8
0
100
AcDbCircle
 62
7
  6
CONTINUOUS
 10
-12.2263503227
 20
25.8134150626
 40
0.5
100
AcDbArc
 50
91.5
 51
180.0
  0
ARC
  5
64E
100
AcDbEntity
  8
ASSI
100
AcDbCircle
 62
7
  6
CONTINUOUS
 10
-4.437197654
 20
24.25
 40
0.5
100
AcDbArc
 50
65.0
 51
90.0
  0
ARC
  5
64F
100
AcDbEntity
  8
DRAFT
100
AcDbCircle
 62
7
  6
CONTINUOUS
 10
-8.3486658891
 20
19.4316382047
 40
0.3
100
AcDbArc
 50
271.0
 51
313.6843368622
  0
ARC
  5
650
100
AcDbEntity
  8
RACCORDO
100
AcDbCircle
 62
7
  6
CONTINUOUS
 10
-7.6263503227
 20
22.5034605474
 40
0.2
100
AcDbArc
 50
0.0
 51
89.0
  0
ARC
  5
651
100
AcDbEntity
  8
RACCORDO
100
AcDbCircle
 62
7
  6
CONTINUOUS
 10
-5.9263503227
 20
22.093137755
 40
0.2
100
AcDbArc
 50
180.0
 51
268.0
  0
ARC
  5
652
100
AcDbEntity
  8
ASSI
100
AcDbCircle
 62
7
  6
CONTINUOUS
 10
-4.6335299997
 20
24.55
 40
0.2
100
AcDbArc
 50
90.0
 51
150.0
  0
ARC
  5
653
100
AcDbEntity
  8
ASSI
100
AcDbCircle
 62
7
  6
CONTINUOUS
 10
-8.2798157203
 20
24.35
 40
0.2
100
AcDbArc
 50
15.0
 51
90.0
  0
ARC
  5
654
100
AcDbEntity
  8
ASSI
100
AcDbCircle
 62
7
  6
CONTINUOUS
 10
-5.4418203765
 20
23.95
 40
0.2
100
AcDbArc
 50
274.3466611405
 51
330.0
  0
ARC
  5
655
100
AcDbEntity
  8
ASSI
100
AcDbCircle
 62
7
  6
CONTINUOUS
 10
-5.9263503227
 20
22.7551793284
 40
0.2
100
AcDbArc
 50
110.0
 51
180.0
  0
ARC
  5
656
100
AcDbEntity
  8
ASSI
100
AcDbCircle
 62
7
  6
CONTINUOUS
 10
-5.6263503227
 20
23.2900415076
 40
0.2
100
AcDbArc
 50
290.0
 51
360.0
  0
ARC
  5
657
100
AcDbEntity
  8
ASSI
100
AcDbCircle
 62
7
  6
CONTINUOUS
 10
-5.6263503227
 20
23.7423678201
 40
0.2
100
AcDbArc
 50
0.0
 51
89.0
  0
ARC
  5
658
100
AcDbEntity
  8
RACCORDO
100
AcDbCircle
 62
7
  6
CONTINUOUS
 10
11.5736496773
 20
-18.9086513684
 40
0.5
100
AcDbArc
 50
271.0
 51
302.8848694766
  0
ARC
  5
659
100
AcDbEntity
  8
ASSI
100
AcDbCircle
 62
7
  6
CONTINUOUS
 10
11.5736496773
 20
-18.9086513684
 40
0.5
100
AcDbArc
 50
271.0
 51
302.8848694766
  0
ARC
  5
65A
100
AcDbEntity
  8
ASSI
100
AcDbCircle
 62
7
  6
CONTINUOUS
 10
3.2757726209
 20
-22.75
 40
0.5
100
AcDbArc
 50
270.0
 51
285.0
  0
ARC
  5
65B
100
AcDbEntity
  8
RACCORDO
100
AcDbCircle
 62
7
  6
CONTINUOUS
 10
12.3736496773
 20
-1.8102933676
 40
0.3
100
AcDbArc
 50
180.0
 51
268.0
  0
ARC
  5
65C
100
AcDbEntity
  8
RACCORDO
100
AcDbCircle
 62
7
  6
CONTINUOUS
 10
12.3736496773
 20
-10.3897066324
 40
0.3
100
AcDbArc
 50
92.0
 51
180.0
  0
ARC
  5
65D
100
AcDbEntity
  8
RACCORDO
100
AcDbCircle
 62
7
  6
CONTINUOUS
 10
13.7736496773
 20
-2.4595481714
 40
0.3
100
AcDbArc
 50
0.0
 51
88.0
  0
ARC
  5
65E
100
AcDbEntity
  8
RACCORDO
100
AcDbCircle
 62
7
  6
CONTINUOUS
 10
13.7736496773
 20
-9.7404518286
 40
0.3
100
AcDbArc
 50
272.0
 51
360.0
  0
ARC
  5
65F
100
AcDbEntity
  8
ASSI
100
AcDbCircle
 62
7
  6
CONTINUOUS
 10
12.3736496773
 20
-1.8102933676
 40
0.3
100
AcDbArc
 50
180.0
 51
268.0
  0
ARC
  5
660
100
AcDbEntity
  8
ASSI
100
AcDbCircle
 62
7
  6
CONTINUOUS
 10
12.3736496773
 20
-10.3897066324
 40
0.3
100
AcDbArc
 50
92.0
 51
180.0
  0
ARC
  5
661
100
AcDbEntity
  8
ASSI
100
AcDbCircle
 62
7
  6
CONTINUOUS
 10
13.7736496773
 20
-2.4595481714
 40
0.3
100
AcDbArc
 50
0.0
 51
88.0
  0
ARC
  5
662
100
AcDbEntity
  8
ASSI
100
AcDbCircle
 62
7
  6
CONTINUOUS
 10
13.7736496773
 20
-9.7404518286
 40
0.3
100
AcDbArc
 50
272.0
 51
360.0
  0
ARC
  5
663
100
AcDbEntity
  8
ASSI
100
AcDbCircle
 62
7
  6
CONTINUOUS
 10
3.2757726209
 20
22.75
 40
0.5
100
AcDbArc
 50
75.0
 51
90.0
  0
ARC
  5
664
100
AcDbEntity
  8
RACCORDO
100
AcDbCircle
 62
7
  6
CONTINUOUS
 10
12.3736496773
 20
10.3897066324
 40
0.3
100
AcDbArc
 50
180.0
 51
268.0
  0
ARC
  5
665
100
AcDbEntity
  8
RACCORDO
100
AcDbCircle
 62
7
  6
CONTINUOUS
 10
12.3736496773
 20
1.8102933676
 40
0.3
100
AcDbArc
 50
92.0
 51
180.0
  0
ARC
  5
666
100
AcDbEntity
  8
RACCORDO
100
AcDbCircle
 62
7
  6
CONTINUOUS
 10
13.7736496773
 20
9.7404518286
 40
0.3
100
AcDbArc
 50
0.0
 51
88.0
  0
ARC
  5
667
100
AcDbEntity
  8
RACCORDO
100
AcDbCircle
 62
7
  6
CONTINUOUS
 10
13.7736496773
 20
2.4595481714
 40
0.3
100
AcDbArc
 50
272.0
 51
360.0
  0
ARC
  5
668
100
AcDbEntity
  8
ASSI
100
AcDbCircle
 62
7
  6
CONTINUOUS
 10
12.3736496773
 20
10.3897066324
 40
0.3
100
AcDbArc
 50
180.0
 51
268.0
  0
ARC
  5
669
100
AcDbEntity
  8
ASSI
100
AcDbCircle
 62
7
  6
CONTINUOUS
 10
12.3736496773
 20
1.8102933676
 40
0.3
100
AcDbArc
 50
92.0
 51
180.0
  0
ARC
  5
66A
100
AcDbEntity
  8
ASSI
100
AcDbCircle
 62
7
  6
CONTINUOUS
 10
13.7736496773
 20
9.7404518286
 40
0.3
100
AcDbArc
 50
0.0
 51
88.0
  0
ARC
  5
66B
100
AcDbEntity
  8
ASSI
100
AcDbCircle
 62
7
  6
CONTINUOUS
 10
13.7736496773
 20
2.4595481714
 40
0.3
100
AcDbArc
 50
272.0
 51
360.0
  0
ELLIPSE
  5
66C
100
AcDbEntity
  8
0
100
AcDbEllipse
 62
7
  6
CONTINUOUS
 10
57.2784355354
 20
-10.12799757
 30
0.0
 11
-0.0707968545
 21
-0.0707968545
 31
0.0
 40
0.998782766
 41
2.3568034778
 42
3.9263818294
  0
ELLIPSE
  5
66D
100
AcDbEntity
  8
0
100
AcDbEllipse
 62
7
  6
CONTINUOUS
 10
57.2784355354
 20
-19.87200243
 30
0.0
 11
-0.0707968545
 21
0.0707968545
 31
0.0
 40
0.998782766
 41
2.3568034778
 42
3.9263818294
  0
ELLIPSE
  5
66E
100
AcDbEntity
  8
0
100
AcDbEllipse
 62
7
  6
CONTINUOUS
 10
57.2784355354
 20
10.12799757
 30
0.0
 11
-0.0707968545
 21
0.0707968545
 31
0.0
 40
0.998782766
 41
2.3568034778
 42
3.9263818294
  0
ELLIPSE
  5
66F
100
AcDbEntity
  8
0
100
AcDbEllipse
 62
7
  6
CONTINUOUS
 10
47.5344306755
 20
10.12799757
 30
0.0
 11
0.0707968545
 21
0.0707968545
 31
0.0
 40
0.998782766
 41
2.3568034778
 42
3.9263818294
  0
ELLIPSE
  5
670
100
AcDbEntity
  8
0
100
AcDbEllipse
 62
7
  6
CONTINUOUS
 10
47.5344306755
 20
19.87200243
 30
0.0
 11
0.0707968545
 21
-0.0707968545
 31
0.0
 40
0.998782766
 41
2.3568034778
 42
3.9263818294
  0
ELLIPSE
  5
671
100
AcDbEntity
  8
0
100
AcDbEllipse
 62
7
  6
CONTINUOUS
 10
57.2784355354
 20
19.87200243
 30
0.0
 11
-0.0707968545
 21
-0.0707968545
 31
0.0
 40
0.998782766
 41
2.3568034778
 42
3.9263818294
  0
ELLIPSE
  5
672
100
AcDbEntity
  8
0
100
AcDbEllipse
 62
7
  6
CONTINUOUS
 10
47.5344306755
 20
-19.87200243
 30
0.0
 11
0.0707968545
 21
0.0707968545
 31
0.0
 40
0.998782766
 41
2.3568034778
 42
3.9263818294
  0
ELLIPSE
  5
673
100
AcDbEntity
  8
0
100
AcDbEllipse
 62
7
  6
CONTINUOUS
 10
47.5344306755
 20
-10.12799757
 30
0.0
 11
0.0707968545
 21
-0.0707968545
 31
0.0
 40
0.998782766
 41
2.3568034778
 42
3.9263818294
  0
ELLIPSE
  5
674
100
AcDbEntity
  8
RACCORDO
100
AcDbEllipse
 62
7
  6
CONTINUOUS
 10
57.2784355354
 20
19.87200243
 30
0.0
 11
0.0707968545
 21
0.0707968545
 31
0.0
 40
0.998782766
 41
-0.7847891758
 42
0.7847891758
  0
ELLIPSE
  5
675
100
AcDbEntity
  8
RACCORDO
100
AcDbEllipse
 62
7
  6
CONTINUOUS
 10
47.5344306755
 20
19.87200243
 30
0.0
 11
0.0707968545
 21
-0.0707968545
 31
0.0
 40
0.998782766
 41
2.3568034778
 42
3.9263818294
  0
ELLIPSE
  5
676
100
AcDbEntity
  8
RACCORDO
100
AcDbEllipse
 62
7
  6
CONTINUOUS
 10
47.5344306755
 20
10.12799757
 30
0.0
 11
0.0707968545
 21
0.0707968545
 31
0.0
 40
0.998782766
 41
-3.9263818294
 42
-2.3568034778
  0
ELLIPSE
  5
677
100
AcDbEntity
  8
RACCORDO
100
AcDbEllipse
 62
7
  6
CONTINUOUS
 10
57.2784355354
 20
10.12799757
 30
0.0
 11
-0.0707968545
 21
0.0707968545
 31
0.0
 40
0.998782766
 41
-3.9263818294
 42
-2.3568034778
  0
ELLIPSE
  5
678
100
AcDbEntity
  8
RACCORDO
100
AcDbEllipse
 62
7
  6
CONTINUOUS
 10
57.2784355354
 20
-19.87200243
 30
0.0
 11
-0.0707968545
 21
0.0707968545
 31
0.0
 40
0.998782766
 41
-3.9263818294
 42
-2.3568034778
  0
ELLIPSE
  5
679
100
AcDbEntity
  8
RACCORDO
100
AcDbEllipse
 62
7
  6
CONTINUOUS
 10
57.2784355354
 20
-10.12799757
 30
0.0
 11
0.0707968545
 21
0.0707968545
 31
0.0
 40
0.998782766
 41
-0.7847891758
 42
0.7847891758
  0
ELLIPSE
  5
67A
100
AcDbEntity
  8
RACCORDO
100
AcDbEllipse
 62
7
  6
CONTINUOUS
 10
47.5344306755
 20
-10.12799757
 30
0.0
 11
0.0707968545
 21
-0.0707968545
 31
0.0
 40
0.998782766
 41
2.3568034778
 42
3.9263818294
  0
ELLIPSE
  5
67B
100
AcDbEntity
  8
0
100
AcDbEllipse
 62
7
  6
CONTINUOUS
 10
63.0062617092
 20
-25.8998286038
 30
0.0
 11
0.35379574
 21
-0.35379574
 31
0.0
 40
0.999315002
 41
-0.7850555471
 42
0.7850555471
  0
ELLIPSE
  5
67C
100
AcDbEntity
  8
0
100
AcDbEllipse
 62
7
  6
CONTINUOUS
 10
63.0062617092
 20
25.8998286038
 30
0.0
 11
-0.35379574
 21
-0.35379574
 31
0.0
 40
0.999315002
 41
2.3565371065
 42
3.9266482006
  0
ELLIPSE
  5
67D
100
AcDbEntity
  8
RACCORDO
100
AcDbEllipse
 62
7
  6
CONTINUOUS
 10
47.5344306755
 20
-19.87200243
 30
0.0
 11
0.0707968545
 21
0.0707968545
 31
0.0
 40
0.998782766
 41
2.3568034778
 42
3.9263818294
  0
ELLIPSE
  5
67E
100
AcDbEntity
  8
0
100
AcDbEllipse
 62
7
  6
CONTINUOUS
 10
41.8066045017
 20
25.8998286038
 30
0.0
 11
0.35379574
 21
-0.35379574
 31
0.0
 40
0.999315002
 41
2.3565371065
 42
3.9266482006
  0
ELLIPSE
  5
67F
100
AcDbEntity
  8
0
100
AcDbEllipse
 62
7
  6
CONTINUOUS
 10
41.8066045017
 20
-25.8998286038
 30
0.0
 11
0.35379574
 21
0.35379574
 31
0.0
 40
0.999315002
 41
2.3565371065
 42
3.9266482006
  0
ELLIPSE
  5
680
100
AcDbEntity
  8
RACCORDO
100
AcDbEllipse
 62
7
  6
CONTINUOUS
 10
-151.0708419349
 20
-7.3025577421
 30
0.0
 11
591.6544903202
 21
21.9522363776
 31
0.0
 40
0.0348940885
 41
1.324596945
 42
1.3265493164
  0
ELLIPSE
  5
681
100
AcDbEntity
  8
RACCORDO
100
AcDbEllipse
 62
7
  6
CONTINUOUS
 10
-151.0708419349
 20
7.3025577421
 30
0.0
 11
591.6544903202
 21
-21.9522363776
 31
0.0
 40
0.0348940885
 41
-1.3265493164
 42
-1.324596945
  0
ELLIPSE
  5
682
100
AcDbEntity
  8
0
100
AcDbEllipse
 62
7
  6
CONTINUOUS
 10
-1358.6173212206
 20
0.0
 30
0.0
 11
1491.5228640581
 21
-0.0
 31
0.0
 40
0.0302453443
 41
6.7204492196
 42
6.7217244524
  0
ELLIPSE
  5
683
100
AcDbEntity
  8
0
100
AcDbEllipse
 62
7
  6
CONTINUOUS
 10
-1358.6173212206
 20
0.0
 30
0.0
 11
1491.5228640581
 21
-0.0
 31
0.0
 40
0.0302453443
 41
5.844646162
 42
5.8459213948
  0
ELLIPSE
  5
684
100
AcDbEntity
  8
RACCORDO
100
AcDbEllipse
 62
7
  6
CONTINUOUS
 10
7.5736496773
 20
20.4085410726
 30
0.0
 11
2.199988563
 21
-0.0402441739
 31
0.0
 40
0.1762698288
 41
2.2680637803
 42
2.5697735952
  0
ELLIPSE
  5
685
100
AcDbEntity
  8
RACCORDO
100
AcDbEllipse
 62
7
  6
CONTINUOUS
 10
7.5736496773
 20
-20.4085410726
 30
0.0
 11
2.199988563
 21
0.0402441739
 31
0.0
 40
0.1762698288
 41
-2.5697735952
 42
-2.2680637803
  0
ENDSEC
  0
SECTION
  2
OBJECTS
  0
DICTIONARY
  5
C
100
AcDbDictionary
280
0
281
1
  3
ACAD_GROUP
350
D
  3
ACAD_MLINESTYLE
350
17
  3
ACAD_LAYOUT
350
1A
  3
ACAD_PLOTSETTINGS
350
19
  3
ACAD_PLOTSTYLENAME
350
E
  0
DICTIONARY
  5
D
102
{ACAD_REACTORS
330
C
102
}
100
AcDbDictionary
280
0
281
1
  0
ACDBDICTIONARYWDFLT
  5
E
102
{ACAD_REACTORS
330
C
102
}
100
AcDbDictionary
281
1
  3
Normal
350
F
100
AcDbDictionaryWithDefault
340
F
  0
DICTIONARY
  5
17
102
{ACAD_REACTORS
330
C
102
}
100
AcDbDictionary
280
0
281
1
  3
Standard
350
18
  0
DICTIONARY
  5
19
102
{ACAD_REACTORS
330
C
102
}
100
AcDbDictionary
281
1
  0
DICTIONARY
  5
1A
102
{ACAD_REACTORS
330
C
102
}
100
AcDbDictionary
281
1
  3
Model
350
686
  3
Layout1
350
687
  0
ACDBPLACEHOLDER
  5
F
102
{ACAD_REACTORS
330
E
102
}
  0
MLINESTYLE
  5
18
102
{ACAD_REACTORS
330
17
102
}
100
AcDbMlineStyle
  2
STANDARD
 70
0
  3

 62
256
 51
90.0
 52
90.0
 71
2
 49
0.5
 62
256
  6
BYLAYER
 49
-0.5
 62
256
  6
BYLAYER
  0
LAYOUT
  5
686
102
{ACAD_REACTORS
330
1A
102
}
100
AcDbPlotSettings
  1

  2
none_device
  4
ISO_A4_(297.00_x_210.00_MM)
  6

 40
0.0
 41
0.0
 42
0.0
 43
0.0
 44
297.0
 45
210.0
 46
0.0
 47
0.0
 48
0.0
 49
0.0
140
0.0
141
0.0
142
1.0
143
1.0
 70
1024
 72
1
 73
0
 74
0
  7

 75
0
147
1.0
148
0.0
149
0.0
100
AcDbLayout
  1
Model
 70
0
 71
0
 10
0.0
 20
0.0
 11
297.0
 21
210.0
 12
0.0
 22
0.0
 32
0.0
 14
0.0
 24
0.0
 34
0.0
 15
0.0
 25
0.0
 35
0.0
146
0.0
 13
0.0
 23
0.0
 33
0.0
 16
1.0
 26
0.0
 36
0.0
 17
0.0
 27
1.0
 37
0.0
 76
0
330
21E
345
0
346
0
  0
LAYOUT
  5
687
102
{ACAD_REACTORS
330
1A
102
}
100
AcDbPlotSettings
  1

  2
none_device
  4
ISO_A4_(297.00_x_210.00_MM)
  6

 40
0.0
 41
0.0
 42
0.0
 43
0.0
 44
297.0
 45
210.0
 46
0.0
 47
0.0
 48
0.0
 49
0.0
140
0.0
141
0.0
142
1.0
143
1.0
 70
0
 72
1
 73
0
 74
0
  7

 75
0
147
1.0
148
0.0
149
0.0
100
AcDbLayout
  1
Layout1
 70
0
 71
1
 10
0.0
 20
0.0
 11
297.0
 21
210.0
 12
0.0
 22
0.0
 32
0.0
 14
0.0
 24
0.0
 34
0.0
 15
0.0
 25
0.0
 35
0.0
146
0.0
 13
0.0
 23
0.0
 33
0.0
 16
1.0
 26
0.0
 36
0.0
 17
0.0
 27
1.0
 37
0.0
 76
0
330
21F
345
0
346
0
  0
ENDSEC
  0
EOF
