  0
SECTION
  2
HEADER
  9
$ACADVER
  1
AC1024
  9
$DWGCODEPAGE
  3
ANSI_1252
  9
$EXTMAX
 10
297.0
 20
210.0
 30
0.0
  9
$EXTMIN
 10
0.0
 20
0.0
 30
0.0
  9
$LIMMIN
 10
0.0
 20
0.0
  9
$LIMMAX
 10
297.0
 20
210.0
  9
$VIEWCTR
 10
148.5
 20
105.0
  9
$VIEWSIZE
 40
210.0
  9
$CLAYER
  8
0
  9
$LTSCALE
 40
16.335
  9
$CELTYPE
  6
BYLAYER
  9
$DIMSCALE
 40
1.0
  9
$DIMASZ
 40
3.0
  9
$DIMEXO
 40
0.5
  9
$DIMDLI
 40
11.286
  9
$DIMEXE
 40
1.5
  9
$DIMCEN
 40
2.673
  9
$DIMLFAC
 40
1.0
  9
$DIMBLK
  1
_FILLED
  9
$DIMALT
 70
0
  9
$DIMALTF
 40
0.0393700787
  9
$DIMTXT
 40
3.0
  9
$DIMTOL
 70
1
  9
$DIMLIM
 70
0
  9
$DIMTFAC
 40
1.0
  9
$DIMTP
 40
0.01
  9
$DIMTM
 40
0.01
  9
$DIMGAP
 40
0.625
  9
$DIMDSEP
 70
44
  9
$AUNITS
 70
0
  9
$PDMODE
 70
3
  9
$PDSIZE
 40
3.0
  9
$HANDSEED
  5
2C4
  9
$TILEMODE
 70
1
  9
$MEASUREMENT
 70
1
  9
$INSUNITS
 70
4
  0
ENDSEC
  0
SECTION
  2
CLASSES
  0
CLASS
  1
ACDBDICTIONARYWDFLT
  2
AcDbDictionaryWithDefault
  3
AutoCAD 2000
 90
0
 91
1
280
0
281
0
  0
CLASS
  1
ACDBPLACEHOLDER
  2
AcDbPlaceHolder
  3
AutoCAD 2000
 90
0
 91
1
280
0
281
0
  0
CLASS
  1
LAYOUT
  2
AcDbLayout
  3
AutoCAD 2000
 90
0
 91
0
280
0
281
0
  0
ENDSEC
  0
SECTION
  2
TABLES
  0
TABLE
  2
VPORT
  5
8
100
AcDbSymbolTable
 70
2
  0
VPORT
  5
1F4
100
AcDbSymbolTableRecord
100
AcDbViewportTableRecord
  2
*ACTIVE
 70
0
 10
0.0
 20
0.0
 11
1.0
 21
1.0
 12
148.5
 22
105.0
 13
0.0
 23
0.0
 14
1.0
 24
1.0
 15
0.0
 25
0.0
 16
0.0
 26
0.0
 36
1.0
 17
0.0
 27
0.0
 37
0.0
 40
210.0
 41
1.4142857143
 42
50.0
 43
0.0
 44
0.0
 50
0.0
 51
0.0
 71
0
 72
100
 73
1
 74
1
 75
0
 76
0
 77
0
 78
0
  0
ENDTAB
  0
TABLE
  2
LTYPE
  5
5
100
AcDbSymbolTable
 70
6
  0
LTYPE
  5
14
100
AcDbSymbolTableRecord
100
AcDbLinetypeTableRecord
  2
BYBLOCK
 70
0
  3

 72
65
 73
0
 40
0.0
  0
LTYPE
  5
15
100
AcDbSymbolTableRecord
100
AcDbLinetypeTableRecord
  2
BYLAYER
 70
0
  3

 72
65
 73
0
 40
0.0
  0
LTYPE
  5
16
100
AcDbSymbolTableRecord
100
AcDbLinetypeTableRecord
  2
CONTINUOUS
 70
64
  3
Solid line
 72
65
 73
0
 40
0.0
  0
LTYPE
  5
1F5
100
AcDbSymbolTableRecord
100
AcDbLinetypeTableRecord
  2
CENTER
 70
64
  3
____ _ ____ _ ____ _ ____ _ ____ _ ____ _ ____
 72
65
 73
4
 40
0.6
 49
0.375
 74
0
 49
-0.075
 74
0
 49
0.075
 74
0
 49
-0.075
 74
0
  0
LTYPE
  5
1F6
100
AcDbSymbolTableRecord
100
AcDbLinetypeTableRecord
  2
HIDDEN
 70
64
  3
- - - - - - - - - - - - - - - - - - - -
 72
65
 73
2
 40
0.2
 49
0.1
 74
0
 49
-0.1
 74
0
  0
LTYPE
  5
1F7
100
AcDbSymbolTableRecord
100
AcDbLinetypeTableRecord
  2
PHANTOM
 70
64
  3
_____ _ _ _____ _ _ _____ _ _ _____
 72
65
 73
6
 40
0.8
 49
0.45
 74
0
 49
-0.05
 74
0
 49
0.1
 74
0
 49
-0.05
 74
0
 49
0.1
 74
0
 49
-0.05
 74
0
  0
LTYPE
  5
1F8
100
AcDbSymbolTableRecord
100
AcDbLinetypeTableRecord
  2
DOT
 70
64
  3
. . . . . . . . . . . . . . . . . . . .
 72
65
 73
2
 40
0.2
 49
0.1
 74
0
 49
-0.1
 74
0
  0
LTYPE
  5
1F9
100
AcDbSymbolTableRecord
100
AcDbLinetypeTableRecord
  2
DASHED
 70
64
  3
- - - - - - - - - - - - - - - - - - - -
 72
65
 73
2
 40
0.2
 49
0.1
 74
0
 49
-0.1
 74
0
  0
ENDTAB
  0
TABLE
  2
LAYER
  5
2
100
AcDbSymbolTable
 70
36
  0
LAYER
  5
10
100
AcDbSymbolTableRecord
100
AcDbLayerTableRecord
  2
0
 70
0
 62
7
  6
CONTINUOUS
370
-3
390
F
  0
LAYER
  5
1FA
100
AcDbSymbolTableRecord
100
AcDbLayerTableRecord
  2
DEFAULT_1
 70
0
 62
7
  6
CENTER
370
-3
390
F
  0
LAYER
  5
1FB
100
AcDbSymbolTableRecord
100
AcDbLayerTableRecord
  2
DEFAULT_2
 70
0
 62
7
  6
HIDDEN
370
-3
390
F
  0
LAYER
  5
1FC
100
AcDbSymbolTableRecord
100
AcDbLayerTableRecord
  2
DEFAULT_3
 70
0
 62
7
  6
PHANTOM
370
-3
390
F
  0
LAYER
  5
1FD
100
AcDbSymbolTableRecord
100
AcDbLayerTableRecord
  2
ASSI
 70
0
 62
7
  6
CONTINUOUS
370
-3
390
F
  0
LAYER
  5
1FE
100
AcDbSymbolTableRecord
100
AcDbLayerTableRecord
  2
COORDINATE
 70
0
 62
7
  6
CONTINUOUS
370
-3
390
F
  0
LAYER
  5
1FF
100
AcDbSymbolTableRecord
100
AcDbLayerTableRecord
  2
COPY_PUBLISH
 70
0
 62
7
  6
CONTINUOUS
370
-3
390
F
  0
LAYER
  5
200
100
AcDbSymbolTableRecord
100
AcDbLayerTableRecord
  2
COSMETICI
 70
0
 62
7
  6
CONTINUOUS
370
-3
390
F
  0
LAYER
  5
201
100
AcDbSymbolTableRecord
100
AcDbLayerTableRecord
  2
CURVE
 70
0
 62
7
  6
CONTINUOUS
370
-3
390
F
  0
LAYER
  5
202
100
AcDbSymbolTableRecord
100
AcDbLayerTableRecord
  2
DRAFT
 70
0
 62
7
  6
CONTINUOUS
370
-3
390
F
  0
LAYER
  5
203
100
AcDbSymbolTableRecord
100
AcDbLayerTableRecord
  2
IMPORT_IGES
 70
0
 62
7
  6
CONTINUOUS
370
-3
390
F
  0
LAYER
  5
204
100
AcDbSymbolTableRecord
100
AcDbLayerTableRecord
  2
INTF_1
 70
0
 62
7
  6
CONTINUOUS
370
-3
390
F
  0
LAYER
  5
205
100
AcDbSymbolTableRecord
100
AcDbLayerTableRecord
  2
INTF_11
 70
0
 62
7
  6
CONTINUOUS
370
-3
390
F
  0
LAYER
  5
206
100
AcDbSymbolTableRecord
100
AcDbLayerTableRecord
  2
INTF_13
 70
0
 62
7
  6
CONTINUOUS
370
-3
390
F
  0
LAYER
  5
207
100
AcDbSymbolTableRecord
100
AcDbLayerTableRecord
  2
INTF_2
 70
0
 62
7
  6
CONTINUOUS
370
-3
390
F
  0
LAYER
  5
208
100
AcDbSymbolTableRecord
100
AcDbLayerTableRecord
  2
INTF_4
 70
0
 62
7
  6
CONTINUOUS
370
-3
390
F
  0
LAYER
  5
209
100
AcDbSymbolTableRecord
100
AcDbLayerTableRecord
  2
NOTE
 70
0
 62
7
  6
CONTINUOUS
370
-3
390
F
  0
LAYER
  5
20A
100
AcDbSymbolTableRecord
100
AcDbLayerTableRecord
  2
PIANI
 70
0
 62
7
  6
CONTINUOUS
370
-3
390
F
  0
LAYER
  5
20B
100
AcDbSymbolTableRecord
100
AcDbLayerTableRecord
  2
PUNTI
 70
0
 62
7
  6
CONTINUOUS
370
-3
390
F
  0
LAYER
  5
20C
100
AcDbSymbolTableRecord
100
AcDbLayerTableRecord
  2
RACCORDO
 70
0
 62
7
  6
CONTINUOUS
370
-3
390
F
  0
LAYER
  5
20D
100
AcDbSymbolTableRecord
100
AcDbLayerTableRecord
  2
RGB____0____0____0__
 70
0
 62
7
  6
CONTINUOUS
370
-3
390
F
  0
LAYER
  5
20E
100
AcDbSymbolTableRecord
100
AcDbLayerTableRecord
  2
SIMBOLI
 70
0
 62
7
  6
CONTINUOUS
370
-3
390
F
  0
LAYER
  5
20F
100
AcDbSymbolTableRecord
100
AcDbLayerTableRecord
  2
SMUSSO
 70
0
 62
7
  6
CONTINUOUS
370
-3
390
F
  0
LAYER
  5
210
100
AcDbSymbolTableRecord
100
AcDbLayerTableRecord
  2
SUPERFICI
 70
0
 62
7
  6
CONTINUOUS
370
-3
390
F
  0
LAYER
  5
211
100
AcDbSymbolTableRecord
100
AcDbLayerTableRecord
  2
TRASH
 70
0
 62
7
  6
CONTINUOUS
370
-3
390
F
  0
ENDTAB
  0
TABLE
  2
STYLE
  5
3
100
AcDbSymbolTable
 70
1
  0
STYLE
  5
11
100
AcDbSymbolTableRecord
100
AcDbTextStyleTableRecord
  2
STANDARD
 70
0
 40
0.0
 41
0.8
 50
0.0
 71
0
 42
0.2
  3
txt
  4

  0
STYLE
  5
212
100
AcDbSymbolTableRecord
100
AcDbTextStyleTableRecord
  2
TEXTSTYLE_1
 70
0
 40
0.0
 41
0.8
 50
0.0
 71
0
 42
0.2
  3
gdt
  4

  0
ENDTAB
  0
TABLE
  2
VIEW
  5
6
100
AcDbSymbolTable
 70
0
  0
ENDTAB
  0
TABLE
  2
UCS
  5
7
100
AcDbSymbolTable
 70
0
  0
ENDTAB
  0
TABLE
  2
APPID
  5
9
100
AcDbSymbolTable
 70
1
  0
APPID
  5
213
100
AcDbSymbolTableRecord
100
AcDbRegAppTableRecord
  2
ACAD
 70
0
  0
ENDTAB
  0
TABLE
  2
BLOCK_RECORD
  5
1
100
AcDbSymbolTable
 70
0
  0
BLOCK_RECORD
  5
214
100
AcDbSymbolTableRecord
100
AcDbBlockTableRecord
  2
*Model_Space
  0
BLOCK_RECORD
  5
215
100
AcDbSymbolTableRecord
100
AcDbBlockTableRecord
  2
*Paper_Space
  0
BLOCK_RECORD
  5
216
100
AcDbSymbolTableRecord
100
AcDbBlockTableRecord
  2
_FILLED
  0
BLOCK_RECORD
  5
217
100
AcDbSymbolTableRecord
100
AcDbBlockTableRecord
  2
*D0
  0
BLOCK_RECORD
  5
218
100
AcDbSymbolTableRecord
100
AcDbBlockTableRecord
  2
*D1
  0
BLOCK_RECORD
  5
219
100
AcDbSymbolTableRecord
100
AcDbBlockTableRecord
  2
*D2
  0
ENDTAB
  0
TABLE
  2
DIMSTYLE
  5
A
100
AcDbSymbolTable
 70
1
100
AcDbDimStyleTable
 71
0
  0
DIMSTYLE
105
21A
100
AcDbSymbolTableRecord
100
AcDbDimStyleTableRecord
  2
STANDARD
 70
0
  3

  4

 40
1.0
 41
3.0
 42
0.5
 43
0.38
 44
1.5
 45
0.0
 46
0.0
 47
0.01
 48
0.01
140
3.0
141
0.09
142
0.0
143
25.4
144
1.0
145
0.0
146
1.0
147
0.625
 71
1
 72
0
 73
0
 74
0
 75
0
 76
0
 77
1
 78
8
 79
2
170
0
171
1
172
0
173
0
174
0
175
0
176
0
177
0
178
0
270
2
179
2
271
2
272
2
273
2
274
2
275
0
280
0
281
0
282
0
283
1
284
8
285
0
286
0
287
3
288
0
340
11
278
44
341
216
342
216
343
216
344
216
  0
DIMSTYLE
105
21B
100
AcDbSymbolTableRecord
100
AcDbDimStyleTableRecord
  2
DIMSTYLE_1
 70
0
  3

  4

 40
1.0
 41
3.0
 42
0.5
 43
0.38
 44
1.5
 45
0.0
 46
0.0
 47
0.0
 48
0.0
140
3.0
141
0.09
142
0.0
143
25.4
144
1.0
145
0.0
146
1.0
147
0.75
 71
0
 72
0
 73
0
 74
0
 75
0
 76
0
 77
1
 78
8
 79
2
170
0
171
1
172
0
173
0
174
0
175
0
176
0
177
0
178
0
270
2
179
2
271
2
272
2
273
2
274
2
275
0
280
0
281
0
282
0
283
1
284
8
285
0
286
0
287
3
288
0
340
11
278
44
341
216
342
216
343
216
344
216
  0
ENDTAB
  0
ENDSEC
  0
SECTION
  2
BLOCKS
  0
BLOCK
  5
20
100
AcDbEntity
  8
0
100
AcDbBlockBegin
  2
*Model_Space
 70
0
 10
0.0
 20
0.0
 30
0.0
  3
*Model_Space
  1

  0
ENDBLK
  5
21
100
AcDbEntity
  8
0
100
AcDbBlockEnd
  0
BLOCK
  5
1C
100
AcDbEntity
  8
0
100
AcDbBlockBegin
  2
*Paper_Space
 70
0
 10
0.0
 20
0.0
 30
0.0
  3
*Paper_Space
  1

  0
ENDBLK
  5
1D
100
AcDbEntity
  8
0
100
AcDbBlockEnd
  0
BLOCK
  5
21C
100
AcDbEntity
  8
0
100
AcDbBlockBegin
  2
_FILLED
 70
64
 10
0.0
 20
0.0
  3
_FILLED
  1

  0
SOLID
  5
21D
100
AcDbEntity
  8
0
  6
BYBLOCK
 62
0
100
AcDbTrace
 10
0.0
 20
0.0
 11
-1.0
 21
0.3166666667
 12
-1.0
 22
-0.3166666667
 13
-1.0
 23
-0.3166666667
  0
ENDBLK
  5
21E
100
AcDbEntity
  8
0
  6
BYBLOCK
 62
0
100
AcDbBlockEnd
  0
BLOCK
  5
21F
100
AcDbEntity
  8
0
100
AcDbBlockBegin
 62
7
  6
CONTINUOUS
  2
*D0
 70
65
 10
0.0
 20
0.0
  3
*D0
  1

  0
LINE
  5
220
100
AcDbEntity
  8
0
100
AcDbLine
 62
7
  6
CONTINUOUS
 10
-71.2485160878
 20
44.0210579846
 11
-71.2485160878
 21
53.1281797771
  0
LINE
  5
221
100
AcDbEntity
  8
0
100
AcDbLine
 62
7
  6
CONTINUOUS
 10
-63.3485160878
 20
43.4210935444
 11
-63.3485160878
 21
53.1281797771
  0
LINE
  5
222
100
AcDbEntity
  8
0
100
AcDbLine
 62
7
  6
CONTINUOUS
 10
-71.2485160878
 20
51.6281797771
 11
-81.3997391266
 21
51.6281797771
  0
LINE
  5
223
100
AcDbEntity
  8
0
100
AcDbLine
 62
7
  6
CONTINUOUS
 10
-81.3997391266
 20
51.6281797771
 11
-67.2985160878
 21
51.6281797771
  0
LINE
  5
224
100
AcDbEntity
  8
0
100
AcDbLine
 62
7
  6
CONTINUOUS
 10
-63.3485160878
 20
51.6281797771
 11
-59.3485160878
 21
51.6281797771
  0
LINE
  5
225
100
AcDbEntity
  8
0
100
AcDbLine
 62
7
  6
CONTINUOUS
 10
-59.3485160878
 20
51.6281797771
 11
-67.2985160878
 21
51.6281797771
  0
INSERT
  5
226
100
AcDbEntity
  8
0
100
AcDbBlockReference
 62
7
  6
CONTINUOUS
  2
_FILLED
 10
-71.2485160878
 20
51.6281797771
 41
3.0
 42
3.0
 43
3.0
  0
INSERT
  5
227
100
AcDbEntity
  8
0
100
AcDbBlockReference
 62
7
  6
CONTINUOUS
  2
_FILLED
 10
-63.3485160878
 20
51.6281797771
 41
3.0
 42
3.0
 43
3.0
 50
180.0
  0
ENDBLK
  5
228
100
AcDbEntity
  8
0
  6
BYBLOCK
 62
0
100
AcDbBlockEnd
  0
BLOCK
  5
229
100
AcDbEntity
  8
0
100
AcDbBlockBegin
 62
7
  6
CONTINUOUS
  2
*D1
 70
65
 10
0.0
 20
0.0
  3
*D1
  1

  0
LINE
  5
22A
100
AcDbEntity
  8
0
100
AcDbLine
 62
7
  6
CONTINUOUS
 10
-45.0
 20
43.9531773084
 11
-45.0
 21
52.9616959056
  0
LINE
  5
22B
100
AcDbEntity
  8
0
100
AcDbLine
 62
7
  6
CONTINUOUS
 10
45.0
 20
43.7176097193
 11
45.0
 21
52.9616959056
  0
LINE
  5
22C
100
AcDbEntity
  8
0
100
AcDbLine
 62
7
  6
CONTINUOUS
 10
-45.0
 20
51.4616959056
 11
0.0
 21
51.4616959056
  0
LINE
  5
22D
100
AcDbEntity
  8
0
100
AcDbLine
 62
7
  6
CONTINUOUS
 10
45.0
 20
51.4616959056
 11
0.0
 21
51.4616959056
  0
INSERT
  5
22E
100
AcDbEntity
  8
0
100
AcDbBlockReference
 62
7
  6
CONTINUOUS
  2
_FILLED
 10
-45.0
 20
51.4616959056
 41
3.0
 42
3.0
 43
3.0
 50
180.0
  0
INSERT
  5
22F
100
AcDbEntity
  8
0
100
AcDbBlockReference
 62
7
  6
CONTINUOUS
  2
_FILLED
 10
45.0
 20
51.4616959056
 41
3.0
 42
3.0
 43
3.0
  0
ENDBLK
  5
230
100
AcDbEntity
  8
0
  6
BYBLOCK
 62
0
100
AcDbBlockEnd
  0
BLOCK
  5
231
100
AcDbEntity
  8
0
100
AcDbBlockBegin
 62
7
  6
CONTINUOUS
  2
*D2
 70
65
 10
0.0
 20
0.0
  3
*D2
  1

  0
LINE
  5
232
100
AcDbEntity
  8
0
100
AcDbLine
 62
7
  6
CONTINUOUS
 10
44.707671469
 20
44.0
 11
57.0575432052
 21
44.0
  0
LINE
  5
233
100
AcDbEntity
  8
0
100
AcDbLine
 62
7
  6
CONTINUOUS
 10
44.7722700959
 20
-44.0
 11
57.0575432052
 21
-44.0
  0
LINE
  5
234
100
AcDbEntity
  8
0
100
AcDbLine
 62
7
  6
CONTINUOUS
 10
55.5575432052
 20
44.0
 11
55.5575432052
 21
0.0
  0
LINE
  5
235
100
AcDbEntity
  8
0
100
AcDbLine
 62
7
  6
CONTINUOUS
 10
55.5575432052
 20
-44.0
 11
55.5575432052
 21
0.0
  0
INSERT
  5
236
100
AcDbEntity
  8
0
100
AcDbBlockReference
 62
7
  6
CONTINUOUS
  2
_FILLED
 10
55.5575432052
 20
44.0
 41
3.0
 42
3.0
 43
3.0
 50
90.0
  0
INSERT
  5
237
100
AcDbEntity
  8
0
100
AcDbBlockReference
 62
7
  6
CONTINUOUS
  2
_FILLED
 10
55.5575432052
 20
-44.0
 41
3.0
 42
3.0
 43
3.0
 50
270.0
  0
ENDBLK
  5
238
100
AcDbEntity
  8
0
  6
BYBLOCK
 62
0
100
AcDbBlockEnd
  0
ENDSEC
  0
SECTION
  2
ENTITIES
  0
DIMENSION
  5
239
100
AcDbEntity
  8
0
100
AcDbDimension
 62
7
  6
CONTINUOUS
  2
*D0
 10
-63.3485160878
 20
51.6281797771
 11
-81.3997391266
 21
51.6281797771
 70
160
 71
3
 72
2
 41
0.9
 42
7.9
  3
DIMSTYLE_1
100
AcDbAlignedDimension
 13
-71.2485160878
 23
43.5210579846
 14
-63.3485160878
 24
42.9210935444
100
AcDbRotatedDimension
  0
DIMENSION
  5
23A
100
AcDbEntity
  8
0
100
AcDbDimension
 62
7
  6
CONTINUOUS
  2
*D1
 10
45.0
 20
51.4616959056
 11
-2.3571428571
 21
51.4616959056
 70
160
 71
2
 72
2
 41
0.9
 42
90.0
  3
DIMSTYLE_1
100
AcDbAlignedDimension
 13
-45.0
 23
43.4531773084
 14
45.0
 24
43.2176097193
100
AcDbRotatedDimension
  0
DIMENSION
  5
23B
100
AcDbEntity
  8
0
100
AcDbDimension
 62
7
  6
CONTINUOUS
  2
*D2
 10
55.5575432052
 20
-44.0
 11
55.5575432052
 21
-2.3571428571
 70
160
 71
2
 72
2
 41
0.9
 42
88.0
  3
DIMSTYLE_1
100
AcDbAlignedDimension
 13
44.207671469
 23
44.0
 14
44.2722700959
 24
-44.0
 50
270.0
100
AcDbRotatedDimension
  0
LWPOLYLINE
  5
23C
100
AcDbEntity
  8
RACCORDO
100
AcDbPolyline
 62
250
  6
CONTINUOUS
 90
28
 70
0
 10
-44.2687195982
 20
-42.2700900634
 10
-44.2667648841
 20
-42.3293812625
 10
-44.2616610202
 20
-42.3875151169
 10
-44.2534080066
 20
-42.4444916267
 10
-44.2419735505
 20
-42.5002642132
 10
-44.2273899447
 20
-42.554879455
 10
-44.2097540673
 20
-42.6084770882
 10
-44.1890135659
 20
-42.6613015238
 10
-44.1652207929
 20
-42.7131083507
 10
-44.1386296841
 20
-42.7633040712
 10
-44.1092248885
 20
-42.8118350392
 10
-44.0770217571
 20
-42.8587549008
 10
-44.0423202786
 20
-42.9036310956
 10
-44.0050803304
 20
-42.9464590462
 10
-43.9653420351
 20
-42.9872433301
 10
-43.9235257492
 20
-43.0255651187
 10
-43.8798181367
 20
-43.0613093634
 10
-43.8340325337
 20
-43.0945911128
 10
-43.7860293052
 20
-43.1253366849
 10
-43.7356501305
 20
-43.1536977705
 10
-43.6830533303
 20
-43.1795226789
 10
-43.6285742328
 20
-43.2022826551
 10
-43.5720561692
 20
-43.2219755894
 10
-43.5136558083
 20
-43.2386035915
 10
-43.4541784839
 20
-43.251644236
 10
-43.3938926405
 20
-43.2609233811
 10
-43.3325298337
 20
-43.2666151684
 10
-43.2700900634
 20
-43.2687195982
  0
LWPOLYLINE
  5
23D
100
AcDbEntity
  8
RACCORDO
100
AcDbPolyline
 62
250
  6
CONTINUOUS
 90
28
 70
0
 10
-44.7680343655
 20
-42.2700900634
 10
-44.7653466495
 20
-42.3585096779
 10
-44.7575580758
 20
-42.4457323633
 10
-44.7448497175
 20
-42.531475135
 10
-44.7274939462
 20
-42.6151469804
 10
-44.7056551199
 20
-42.6968416697
 10
-44.6792044304
 20
-42.7772889658
 10
-44.6480551596
 20
-42.8565820897
 10
-44.6123985317
 20
-42.934087334
 10
-44.5724035472
 20
-43.0094151271
 10
-44.528236046
 20
-43.082273018
 10
-44.480015415
 20
-43.1524827461
 10
-44.4278793177
 20
-43.2198455431
 10
-44.3719713892
 20
-43.2841684913
 10
-44.3124913862
 20
-43.3452153972
 10
-44.2496832358
 20
-43.40274229
 10
-44.1840265918
 20
-43.4563633149
 10
-44.1154926092
 20
-43.5061522764
 10
-44.0434900961
 20
-43.5524511663
 10
-43.9679200202
 20
-43.5951137668
 10
-43.8891937741
 20
-43.6337021859
 10
-43.8074174394
 20
-43.6679800695
 10
-43.7226498458
 20
-43.6977157954
 10
-43.6352877986
 20
-43.7225661256
 10
-43.5459946003
 20
-43.7421932418
 10
-43.4552103058
 20
-43.7564017395
 10
-43.3631290892
 20
-43.7650628987
 10
-43.2700900634
 20
-43.7680343655
  0
LWPOLYLINE
  5
23E
100
AcDbEntity
  8
0
100
AcDbPolyline
 62
7
  6
CONTINUOUS
 90
28
 70
0
 10
-45.0
 20
-42.5020556979
 10
-44.9974765131
 20
-42.5891032464
 10
-44.9898921975
 20
-42.6759992202
 10
-44.9772461355
 20
-42.7624487916
 10
-44.9595228958
 20
-42.8482929527
 10
-44.9367724067
 20
-42.9330942861
 10
-44.9091890166
 20
-43.0161591785
 10
-44.8770028956
 20
-43.0970056382
 10
-44.8402982275
 20
-43.1756028698
 10
-44.7990987564
 20
-43.2519488305
 10
-44.753531714
 20
-43.3258000991
 10
-44.7037543105
 20
-43.3968946557
 10
-44.6497803815
 20
-43.4651710977
 10
-44.5915898729
 20
-43.5305503359
 10
-44.529494738
 20
-43.5925852718
 10
-44.4640598395
 20
-43.6507117177
 10
-44.395711059
 20
-43.7046343029
 10
-44.3245474034
 20
-43.7543547461
 10
-44.2507005802
 20
-43.7998190289
 10
-44.1744923863
 20
-43.8408560644
 10
-44.0961219597
 20
-43.877384518
 10
-44.0155044573
 20
-43.9094277082
 10
-43.9326509362
 20
-43.9369053252
 10
-43.848056256
 20
-43.9595790334
 10
-43.7623673174
 20
-43.9772604851
 10
-43.6760030745
 20
-43.9898916964
 10
-43.589134649
 20
-43.9974746297
 10
-43.5020556979
 20
-44.0
  0
LINE
  5
23F
100
AcDbEntity
  8
0
100
AcDbLine
 62
7
  6
CONTINUOUS
 10
-45.0
 20
42.5020556979
 11
-45.0
 21
-42.5020556979
  0
LINE
  5
240
100
AcDbEntity
  8
RACCORDO
100
AcDbLine
 62
250
  6
CONTINUOUS
 10
-44.7680343655
 20
42.2700900634
 11
-44.7680343655
 21
-42.2700900634
  0
LINE
  5
241
100
AcDbEntity
  8
RACCORDO
100
AcDbLine
 62
250
  6
CONTINUOUS
 10
-44.2687195982
 20
42.2700900634
 11
-44.2687195982
 21
-42.2700900634
  0
LINE
  5
242
100
AcDbEntity
  8
RACCORDO
100
AcDbLine
 62
250
  6
CONTINUOUS
 10
-43.2700900634
 20
-43.2687195982
 11
-43.2700900634
 21
-43.7680343655
  0
LINE
  5
243
100
AcDbEntity
  8
RACCORDO
100
AcDbLine
 62
250
  6
CONTINUOUS
 10
-43.2700900634
 20
43.2687195982
 11
-43.2700900634
 21
43.7680343655
  0
LWPOLYLINE
  5
244
100
AcDbEntity
  8
RACCORDO
100
AcDbPolyline
 62
250
  6
CONTINUOUS
 90
28
 70
0
 10
43.2700900634
 20
-43.2687195982
 10
43.3293812625
 20
-43.2667648841
 10
43.3875151169
 20
-43.2616610202
 10
43.4444916267
 20
-43.2534080066
 10
43.5002642132
 20
-43.2419735505
 10
43.554879455
 20
-43.2273899447
 10
43.6084770882
 20
-43.2097540673
 10
43.6613015238
 20
-43.1890135659
 10
43.7131083507
 20
-43.1652207929
 10
43.7633040712
 20
-43.1386296841
 10
43.8118350392
 20
-43.1092248885
 10
43.8587549008
 20
-43.0770217571
 10
43.9036310956
 20
-43.0423202786
 10
43.9464590462
 20
-43.0050803304
 10
43.9872433301
 20
-42.9653420351
 10
44.0255651187
 20
-42.9235257492
 10
44.0613093634
 20
-42.8798181367
 10
44.0945911128
 20
-42.8340325337
 10
44.1253366849
 20
-42.7860293052
 10
44.1536977705
 20
-42.7356501305
 10
44.1795226789
 20
-42.6830533303
 10
44.2022826551
 20
-42.6285742328
 10
44.2219755894
 20
-42.5720561692
 10
44.2386035915
 20
-42.5136558083
 10
44.251644236
 20
-42.4541784839
 10
44.2609233811
 20
-42.3938926405
 10
44.2666151684
 20
-42.3325298337
 10
44.2687195982
 20
-42.2700900634
  0
LWPOLYLINE
  5
245
100
AcDbEntity
  8
RACCORDO
100
AcDbPolyline
 62
250
  6
CONTINUOUS
 90
28
 70
0
 10
43.2700900634
 20
-43.7680343655
 10
43.3585096779
 20
-43.7653466495
 10
43.4457323633
 20
-43.7575580758
 10
43.531475135
 20
-43.7448497175
 10
43.6151469804
 20
-43.7274939462
 10
43.6968416697
 20
-43.7056551199
 10
43.7772889658
 20
-43.6792044304
 10
43.8565820897
 20
-43.6480551596
 10
43.934087334
 20
-43.6123985317
 10
44.0094151271
 20
-43.5724035472
 10
44.082273018
 20
-43.528236046
 10
44.1524827461
 20
-43.480015415
 10
44.2198455431
 20
-43.4278793177
 10
44.2841684913
 20
-43.3719713892
 10
44.3452153972
 20
-43.3124913862
 10
44.40274229
 20
-43.2496832358
 10
44.4563633149
 20
-43.1840265918
 10
44.5061522764
 20
-43.1154926092
 10
44.5524511663
 20
-43.0434900961
 10
44.5951137668
 20
-42.9679200202
 10
44.6337021859
 20
-42.8891937741
 10
44.6679800695
 20
-42.8074174394
 10
44.6977157954
 20
-42.7226498458
 10
44.7225661256
 20
-42.6352877986
 10
44.7421932418
 20
-42.5459946003
 10
44.7564017395
 20
-42.4552103058
 10
44.7650628987
 20
-42.3631290892
 10
44.7680343655
 20
-42.2700900634
  0
LWPOLYLINE
  5
246
100
AcDbEntity
  8
0
100
AcDbPolyline
 62
7
  6
CONTINUOUS
 90
28
 70
0
 10
43.5020556979
 20
-44.0
 10
43.5891032464
 20
-43.9974765131
 10
43.6759992202
 20
-43.9898921975
 10
43.7624487916
 20
-43.9772461355
 10
43.8482929527
 20
-43.9595228958
 10
43.9330942861
 20
-43.9367724067
 10
44.0161591785
 20
-43.9091890166
 10
44.0970056382
 20
-43.8770028956
 10
44.1756028698
 20
-43.8402982275
 10
44.2519488305
 20
-43.7990987564
 10
44.3258000991
 20
-43.753531714
 10
44.3968946557
 20
-43.7037543105
 10
44.4651710977
 20
-43.6497803815
 10
44.5305503359
 20
-43.5915898729
 10
44.5925852718
 20
-43.529494738
 10
44.6507117177
 20
-43.4640598395
 10
44.7046343029
 20
-43.395711059
 10
44.7543547461
 20
-43.3245474034
 10
44.7998190289
 20
-43.2507005802
 10
44.8408560644
 20
-43.1744923863
 10
44.877384518
 20
-43.0961219597
 10
44.9094277082
 20
-43.0155044573
 10
44.9369053252
 20
-42.9326509362
 10
44.9595790334
 20
-42.848056256
 10
44.9772604851
 20
-42.7623673174
 10
44.9898916964
 20
-42.6760030745
 10
44.9974746297
 20
-42.589134649
 10
45.0
 20
-42.5020556979
  0
LINE
  5
247
100
AcDbEntity
  8
0
100
AcDbLine
 62
7
  6
CONTINUOUS
 10
-43.5020556979
 20
-44.0
 11
43.5020556979
 21
-44.0
  0
LINE
  5
248
100
AcDbEntity
  8
RACCORDO
100
AcDbLine
 62
250
  6
CONTINUOUS
 10
-43.2700900634
 20
-43.7680343655
 11
43.2700900634
 21
-43.7680343655
  0
LINE
  5
249
100
AcDbEntity
  8
RACCORDO
100
AcDbLine
 62
250
  6
CONTINUOUS
 10
-43.2700900634
 20
-43.2687195982
 11
43.2700900634
 21
-43.2687195982
  0
LINE
  5
24A
100
AcDbEntity
  8
RACCORDO
100
AcDbLine
 62
250
  6
CONTINUOUS
 10
44.2687195982
 20
-42.2700900634
 11
44.7680343655
 21
-42.2700900634
  0
LINE
  5
24B
100
AcDbEntity
  8
RACCORDO
100
AcDbLine
 62
250
  6
CONTINUOUS
 10
-44.2687195982
 20
-42.2700900634
 11
-44.7680343655
 21
-42.2700900634
  0
LWPOLYLINE
  5
24C
100
AcDbEntity
  8
0
100
AcDbPolyline
 62
7
  6
CONTINUOUS
 90
10
 70
0
 43
0.3500000006
 10
-1.9285714102
 20
52.2116942139
 10
-1.0714285848
 20
53.0688366852
 10
-0.8571428254
 20
53.9259836884
 10
-0.8571428254
 20
54.7831261597
 10
-1.2857142735
 20
55.2116951294
 10
-1.9285714102
 20
55.2116951294
 10
-2.3571427875
 20
54.7831261597
 10
-2.3571427875
 20
53.9259836884
 10
-1.9285714102
 20
53.4974101868
 10
-1.0000000219
 20
53.4974101868
  0
LINE
  5
24D
100
AcDbEntity
  8
RACCORDO
100
AcDbLine
 62
250
  6
CONTINUOUS
 10
22.2338950748
 20
-27.0837732309
 11
-22.2338950748
 21
-27.0837732309
  0
LINE
  5
24E
100
AcDbEntity
  8
RACCORDO
100
AcDbLine
 62
250
  6
CONTINUOUS
 10
22.2338950748
 20
-26.7838189223
 11
-22.2338950748
 21
-26.7838189223
  0
LINE
  5
24F
100
AcDbEntity
  8
RACCORDO
100
AcDbLine
 62
7
  6
CONTINUOUS
 10
-22.2250761524
 20
-26.775
 11
22.2250761524
 21
-26.775
  0
LINE
  5
250
100
AcDbEntity
  8
RACCORDO
100
AcDbLine
 62
250
  6
CONTINUOUS
 10
-23.0337732309
 20
-26.2838950748
 11
-22.7338189223
 21
-26.2838950748
  0
LINE
  5
251
100
AcDbEntity
  8
RACCORDO
100
AcDbLine
 62
250
  6
CONTINUOUS
 10
23.0337732309
 20
-26.2838950748
 11
22.7338189223
 21
-26.2838950748
  0
LWPOLYLINE
  5
252
100
AcDbEntity
  8
RACCORDO
100
AcDbPolyline
 62
250
  6
CONTINUOUS
 90
25
 70
0
 10
-22.2338950722
 20
-26.7838189197
 10
-22.266466405
 20
-26.7827632489
 10
-22.2987787304
 20
-26.7796042325
 10
-22.3306982271
 20
-26.7743785801
 10
-22.362049998
 20
-26.7671432879
 10
-22.3927559187
 20
-26.7579448914
 10
-22.4228264582
 20
-26.7467902784
 10
-22.4521829563
 20
-26.7336993285
 10
-22.4806537652
 20
-26.7187390378
 10
-22.5081075153
 20
-26.7019755599
 10
-22.534438009
 20
-26.6834713029
 10
-22.5595268565
 20
-26.6633069914
 10
-22.5832378344
 20
-26.641596108
 10
-22.6054560105
 20
-26.6184581323
 10
-22.6261200619
 20
-26.5939721235
 10
-22.6451814718
 20
-26.568198984
 10
-22.6624824248
 20
-26.5413712211
 10
-22.6780426451
 20
-26.5134790462
 10
-22.6919976971
 20
-26.4841738396
 10
-22.7042627956
 20
-26.4533550363
 10
-22.714599967
 20
-26.4212907423
 10
-22.7228473603
 20
-26.3881658029
 10
-22.7288746448
 20
-26.3541366278
 10
-22.7325688544
 20
-26.3193261736
 10
-22.7338189191
 20
-26.2838950715
  0
LWPOLYLINE
  5
253
100
AcDbEntity
  8
RACCORDO
100
AcDbPolyline
 62
250
  6
CONTINUOUS
 90
25
 70
0
 10
-22.2338950748
 20
-27.0837732309
 10
-22.2863452692
 20
-27.0819554266
 10
-22.3379651076
 20
-27.076912063
 10
-22.38875459
 20
-27.06864314
 10
-22.438842429
 20
-27.0570940361
 10
-22.488099912
 20
-27.0423193729
 10
-22.5361409012
 20
-27.0244830151
 10
-22.5830324329
 20
-27.0035410956
 10
-22.6287074707
 20
-26.9795374816
 10
-22.6725787679
 20
-26.952767639
 10
-22.7146304779
 20
-26.9231791144
 10
-22.7548784472
 20
-26.8908243613
 10
-22.7927829682
 20
-26.8561562061
 10
-22.8282791491
 20
-26.8191839865
 10
-22.8614318816
 20
-26.7798983648
 10
-22.8918961345
 20
-26.7387241542
 10
-22.9196066045
 20
-26.6958832251
 10
-22.9446285948
 20
-26.6511537071
 10
-22.9668129838
 20
-26.6042948024
 10
-22.9863418502
 20
-26.5550057852
 10
-23.0030331153
 20
-26.5035873812
 10
-23.0161914217
 20
-26.4507009703
 10
-23.0255849835
 20
-26.3965670121
 10
-23.0314455865
 20
-26.340965047
 10
-23.0337732309
 20
-26.2838950748
  0
LINE
  5
254
100
AcDbEntity
  8
RACCORDO
100
AcDbLine
 62
250
  6
CONTINUOUS
 10
-23.0337732309
 20
-26.2838950748
 11
-23.0337732309
 21
26.2838950748
  0
LINE
  5
255
100
AcDbEntity
  8
RACCORDO
100
AcDbLine
 62
250
  6
CONTINUOUS
 10
-22.7338189223
 20
-26.2838950748
 11
-22.7338189223
 21
26.2838950748
  0
LINE
  5
256
100
AcDbEntity
  8
RACCORDO
100
AcDbLine
 62
7
  6
CONTINUOUS
 10
-22.725
 20
26.2750761524
 11
-22.725
 21
-26.2750761524
  0
LINE
  5
257
100
AcDbEntity
  8
RACCORDO
100
AcDbLine
 62
250
  6
CONTINUOUS
 10
-22.2338950748
 20
27.0837732309
 11
-22.2338950748
 21
26.7838189223
  0
LINE
  5
258
100
AcDbEntity
  8
RACCORDO
100
AcDbLine
 62
250
  6
CONTINUOUS
 10
-22.2338950748
 20
-27.0837732309
 11
-22.2338950748
 21
-26.7838189223
  0
LWPOLYLINE
  5
259
100
AcDbEntity
  8
RACCORDO
100
AcDbPolyline
 62
250
  6
CONTINUOUS
 90
25
 70
0
 10
-22.7338189197
 20
26.2838950722
 10
-22.7327632489
 20
26.316466405
 10
-22.7296042325
 20
26.3487787304
 10
-22.7243785801
 20
26.3806982271
 10
-22.7171432879
 20
26.412049998
 10
-22.7079448914
 20
26.4427559187
 10
-22.6967902784
 20
26.4728264582
 10
-22.6836993285
 20
26.5021829563
 10
-22.6687390378
 20
26.5306537652
 10
-22.6519755599
 20
26.5581075153
 10
-22.6334713029
 20
26.584438009
 10
-22.6133069914
 20
26.6095268565
 10
-22.591596108
 20
26.6332378344
 10
-22.5684581323
 20
26.6554560105
 10
-22.5439721235
 20
26.6761200619
 10
-22.518198984
 20
26.6951814718
 10
-22.4913712211
 20
26.7124824248
 10
-22.4634790462
 20
26.7280426451
 10
-22.4341738396
 20
26.7419976971
 10
-22.4033550363
 20
26.7542627956
 10
-22.3712907423
 20
26.764599967
 10
-22.3381658029
 20
26.7728473603
 10
-22.3041366278
 20
26.7788746448
 10
-22.2693261736
 20
26.7825688544
 10
-22.2338950715
 20
26.7838189191
  0
LWPOLYLINE
  5
25A
100
AcDbEntity
  8
RACCORDO
100
AcDbPolyline
 62
250
  6
CONTINUOUS
 90
25
 70
0
 10
-23.0337732309
 20
26.2838950748
 10
-23.0319554266
 20
26.3363452692
 10
-23.026912063
 20
26.3879651076
 10
-23.01864314
 20
26.43875459
 10
-23.0070940361
 20
26.488842429
 10
-22.9923193729
 20
26.538099912
 10
-22.9744830151
 20
26.5861409012
 10
-22.9535410956
 20
26.6330324329
 10
-22.9295374816
 20
26.6787074707
 10
-22.902767639
 20
26.7225787679
 10
-22.8731791144
 20
26.7646304779
 10
-22.8408243613
 20
26.8048784472
 10
-22.8061562061
 20
26.8427829682
 10
-22.7691839865
 20
26.8782791491
 10
-22.7298983648
 20
26.9114318816
 10
-22.6887241542
 20
26.9418961345
 10
-22.6458832251
 20
26.9696066045
 10
-22.6011537071
 20
26.9946285948
 10
-22.5542948024
 20
27.0168129838
 10
-22.5050057852
 20
27.0363418502
 10
-22.4535873812
 20
27.0530331153
 10
-22.4007009703
 20
27.0661914217
 10
-22.3465670121
 20
27.0755849835
 10
-22.290965047
 20
27.0814455865
 10
-22.2338950748
 20
27.0837732309
  0
LWPOLYLINE
  5
25B
100
AcDbEntity
  8
0
100
AcDbPolyline
 62
7
  6
CONTINUOUS
 90
13
 70
0
 43
0.3500000006
 10
0.0
 20
53.0688366852
 10
0.0
 20
54.3545526581
 10
0.2142857063
 20
54.7831261597
 10
0.6428571367
 20
55.2116951294
 10
0.8571428254
 20
55.2116951294
 10
1.2857142735
 20
54.7831261597
 10
1.5000000329
 20
54.3545526581
 10
1.5000000329
 20
53.0688366852
 10
1.2857142735
 20
52.6402677155
 10
0.8571428254
 20
52.2116942139
 10
0.6428571367
 20
52.2116942139
 10
0.2142857063
 20
52.6402677155
 10
0.0
 20
53.0688366852
  0
LINE
  5
25C
100
AcDbEntity
  8
RACCORDO
100
AcDbLine
 62
250
  6
CONTINUOUS
 10
22.2338950748
 20
26.7838189223
 11
22.2250761524
 21
26.775
  0
LINE
  5
25D
100
AcDbEntity
  8
RACCORDO
100
AcDbLine
 62
250
  6
CONTINUOUS
 10
22.7338189223
 20
26.2838950748
 11
22.725
 21
26.2750761524
  0
LINE
  5
25E
100
AcDbEntity
  8
RACCORDO
100
AcDbLine
 62
250
  6
CONTINUOUS
 10
-44.7680343655
 20
-42.2700900634
 11
-45.0
 21
-42.5020556979
  0
LINE
  5
25F
100
AcDbEntity
  8
RACCORDO
100
AcDbLine
 62
250
  6
CONTINUOUS
 10
43.2700900634
 20
43.7680343655
 11
43.5020556979
 21
44.0
  0
LINE
  5
260
100
AcDbEntity
  8
RACCORDO
100
AcDbLine
 62
250
  6
CONTINUOUS
 10
-43.2700900634
 20
-43.7680343655
 11
-43.5020556979
 21
-44.0
  0
LWPOLYLINE
  5
261
100
AcDbEntity
  8
0
100
AcDbPolyline
 62
7
  6
CONTINUOUS
 90
4
 70
0
 43
0.3500000006
 10
54.3789706421
 20
-2.3571432495
 10
53.5218281708
 20
-2.3571432495
 10
53.093259201
 20
-1.9285708809
 10
53.093259201
 20
-1.2857140274
  0
LWPOLYLINE
  5
262
100
AcDbEntity
  8
0
100
AcDbPolyline
 62
7
  6
CONTINUOUS
 90
4
 70
0
 43
0.3500000006
 10
54.3789706421
 20
-0.0000003204
 10
53.5218281708
 20
-0.0000003204
 10
53.093259201
 20
0.4285709152
 10
53.093259201
 20
1.0714289017
  0
LINE
  5
263
100
AcDbEntity
  8
RACCORDO
100
AcDbLine
 62
250
  6
CONTINUOUS
 10
22.2338950748
 20
-26.7838189223
 11
22.2250761524
 21
-26.775
  0
LINE
  5
264
100
AcDbEntity
  8
RACCORDO
100
AcDbLine
 62
250
  6
CONTINUOUS
 10
22.7338189223
 20
-26.2838950748
 11
22.725
 21
-26.2750761524
  0
LINE
  5
265
100
AcDbEntity
  8
RACCORDO
100
AcDbLine
 62
250
  6
CONTINUOUS
 10
-44.7680343655
 20
42.2700900634
 11
-45.0
 21
42.5020556979
  0
LINE
  5
266
100
AcDbEntity
  8
RACCORDO
100
AcDbLine
 62
250
  6
CONTINUOUS
 10
43.2700900634
 20
-43.7680343655
 11
43.5020556979
 21
-44.0
  0
LINE
  5
267
100
AcDbEntity
  8
RACCORDO
100
AcDbLine
 62
250
  6
CONTINUOUS
 10
-43.2700900634
 20
43.7680343655
 11
-43.5020556979
 21
44.0
  0
LINE
  5
268
100
AcDbEntity
  8
RACCORDO
100
AcDbLine
 62
250
  6
CONTINUOUS
 10
44.7680343655
 20
42.2700900634
 11
45.0
 21
42.5020556979
  0
LINE
  5
269
100
AcDbEntity
  8
RACCORDO
100
AcDbLine
 62
250
  6
CONTINUOUS
 10
-22.7338189223
 20
-26.2838950748
 11
-22.725
 21
-26.2750761524
  0
LINE
  5
26A
100
AcDbEntity
  8
RACCORDO
100
AcDbLine
 62
250
  6
CONTINUOUS
 10
-22.2338950748
 20
-26.7838189223
 11
-22.2250761524
 21
-26.775
  0
LINE
  5
26B
100
AcDbEntity
  8
RACCORDO
100
AcDbLine
 62
250
  6
CONTINUOUS
 10
44.7680343655
 20
-42.2700900634
 11
45.0
 21
-42.5020556979
  0
LINE
  5
26C
100
AcDbEntity
  8
RACCORDO
100
AcDbLine
 62
250
  6
CONTINUOUS
 10
-22.7338189223
 20
26.2838950748
 11
-22.725
 21
26.2750761524
  0
LINE
  5
26D
100
AcDbEntity
  8
RACCORDO
100
AcDbLine
 62
250
  6
CONTINUOUS
 10
-22.2338950748
 20
26.7838189223
 11
-22.2250761524
 21
26.775
  0
LINE
  5
26E
100
AcDbEntity
  8
RACCORDO
100
AcDbLine
 62
250
  6
CONTINUOUS
 10
22.2338950748
 20
27.0837732309
 11
22.2338950748
 21
26.7838189223
  0
LINE
  5
26F
100
AcDbEntity
  8
RACCORDO
100
AcDbLine
 62
250
  6
CONTINUOUS
 10
22.2338950748
 20
-27.0837732309
 11
22.2338950748
 21
-26.7838189223
  0
LINE
  5
270
100
AcDbEntity
  8
RACCORDO
100
AcDbLine
 62
7
  6
CONTINUOUS
 10
22.725
 20
-26.2750761524
 11
22.725
 21
26.2750761524
  0
LINE
  5
271
100
AcDbEntity
  8
RACCORDO
100
AcDbLine
 62
250
  6
CONTINUOUS
 10
22.7338189223
 20
26.2838950748
 11
22.7338189223
 21
-26.2838950748
  0
LINE
  5
272
100
AcDbEntity
  8
RACCORDO
100
AcDbLine
 62
250
  6
CONTINUOUS
 10
23.0337732309
 20
26.2838950748
 11
23.0337732309
 21
-26.2838950748
  0
LWPOLYLINE
  5
273
100
AcDbEntity
  8
RACCORDO
100
AcDbPolyline
 62
250
  6
CONTINUOUS
 90
25
 70
0
 10
22.7338189197
 20
-26.2838950722
 10
22.7327632489
 20
-26.316466405
 10
22.7296042325
 20
-26.3487787304
 10
22.7243785801
 20
-26.3806982271
 10
22.7171432879
 20
-26.412049998
 10
22.7079448914
 20
-26.4427559187
 10
22.6967902784
 20
-26.4728264582
 10
22.6836993285
 20
-26.5021829563
 10
22.6687390378
 20
-26.5306537652
 10
22.6519755599
 20
-26.5581075153
 10
22.6334713029
 20
-26.584438009
 10
22.6133069914
 20
-26.6095268565
 10
22.591596108
 20
-26.6332378344
 10
22.5684581323
 20
-26.6554560105
 10
22.5439721235
 20
-26.6761200619
 10
22.518198984
 20
-26.6951814718
 10
22.4913712211
 20
-26.7124824248
 10
22.4634790462
 20
-26.7280426451
 10
22.4341738396
 20
-26.7419976971
 10
22.4033550363
 20
-26.7542627956
 10
22.3712907423
 20
-26.764599967
 10
22.3381658029
 20
-26.7728473603
 10
22.3041366278
 20
-26.7788746448
 10
22.2693261736
 20
-26.7825688544
 10
22.2338950715
 20
-26.7838189191
  0
LWPOLYLINE
  5
274
100
AcDbEntity
  8
RACCORDO
100
AcDbPolyline
 62
250
  6
CONTINUOUS
 90
25
 70
0
 10
23.0337732309
 20
-26.2838950748
 10
23.0319554266
 20
-26.3363452692
 10
23.026912063
 20
-26.3879651076
 10
23.01864314
 20
-26.43875459
 10
23.0070940361
 20
-26.488842429
 10
22.9923193729
 20
-26.538099912
 10
22.9744830151
 20
-26.5861409012
 10
22.9535410956
 20
-26.6330324329
 10
22.9295374816
 20
-26.6787074707
 10
22.902767639
 20
-26.7225787679
 10
22.8731791144
 20
-26.7646304779
 10
22.8408243613
 20
-26.8048784472
 10
22.8061562061
 20
-26.8427829682
 10
22.7691839865
 20
-26.8782791491
 10
22.7298983648
 20
-26.9114318816
 10
22.6887241542
 20
-26.9418961345
 10
22.6458832251
 20
-26.9696066045
 10
22.6011537071
 20
-26.9946285948
 10
22.5542948024
 20
-27.0168129838
 10
22.5050057852
 20
-27.0363418502
 10
22.4535873812
 20
-27.0530331153
 10
22.4007009703
 20
-27.0661914217
 10
22.3465670121
 20
-27.0755849835
 10
22.290965047
 20
-27.0814455865
 10
22.2338950748
 20
-27.0837732309
  0
LINE
  5
275
100
AcDbEntity
  8
RACCORDO
100
AcDbLine
 62
250
  6
CONTINUOUS
 10
-23.0337732309
 20
26.2838950748
 11
-22.7338189223
 21
26.2838950748
  0
LINE
  5
276
100
AcDbEntity
  8
RACCORDO
100
AcDbLine
 62
250
  6
CONTINUOUS
 10
23.0337732309
 20
26.2838950748
 11
22.7338189223
 21
26.2838950748
  0
LINE
  5
277
100
AcDbEntity
  8
RACCORDO
100
AcDbLine
 62
7
  6
CONTINUOUS
 10
22.2250761524
 20
26.775
 11
-22.2250761524
 21
26.775
  0
LINE
  5
278
100
AcDbEntity
  8
RACCORDO
100
AcDbLine
 62
250
  6
CONTINUOUS
 10
-22.2338950748
 20
26.7838189223
 11
22.2338950748
 21
26.7838189223
  0
LINE
  5
279
100
AcDbEntity
  8
RACCORDO
100
AcDbLine
 62
250
  6
CONTINUOUS
 10
-22.2338950748
 20
27.0837732309
 11
22.2338950748
 21
27.0837732309
  0
LWPOLYLINE
  5
27A
100
AcDbEntity
  8
RACCORDO
100
AcDbPolyline
 62
250
  6
CONTINUOUS
 90
25
 70
0
 10
22.2338950722
 20
26.7838189197
 10
22.266466405
 20
26.7827632489
 10
22.2987787304
 20
26.7796042325
 10
22.3306982271
 20
26.7743785801
 10
22.362049998
 20
26.7671432879
 10
22.3927559187
 20
26.7579448914
 10
22.4228264582
 20
26.7467902784
 10
22.4521829563
 20
26.7336993285
 10
22.4806537652
 20
26.7187390378
 10
22.5081075153
 20
26.7019755599
 10
22.534438009
 20
26.6834713029
 10
22.5595268565
 20
26.6633069914
 10
22.5832378344
 20
26.641596108
 10
22.6054560105
 20
26.6184581323
 10
22.6261200619
 20
26.5939721235
 10
22.6451814718
 20
26.568198984
 10
22.6624824248
 20
26.5413712211
 10
22.6780426451
 20
26.5134790462
 10
22.6919976971
 20
26.4841738396
 10
22.7042627956
 20
26.4533550363
 10
22.714599967
 20
26.4212907423
 10
22.7228473603
 20
26.3881658029
 10
22.7288746448
 20
26.3541366278
 10
22.7325688544
 20
26.3193261736
 10
22.7338189191
 20
26.2838950715
  0
LWPOLYLINE
  5
27B
100
AcDbEntity
  8
RACCORDO
100
AcDbPolyline
 62
250
  6
CONTINUOUS
 90
25
 70
0
 10
22.2338950748
 20
27.0837732309
 10
22.2863452692
 20
27.0819554266
 10
22.3379651076
 20
27.076912063
 10
22.38875459
 20
27.06864314
 10
22.438842429
 20
27.0570940361
 10
22.488099912
 20
27.0423193729
 10
22.5361409012
 20
27.0244830151
 10
22.5830324329
 20
27.0035410956
 10
22.6287074707
 20
26.9795374816
 10
22.6725787679
 20
26.952767639
 10
22.7146304779
 20
26.9231791144
 10
22.7548784472
 20
26.8908243613
 10
22.7927829682
 20
26.8561562061
 10
22.8282791491
 20
26.8191839865
 10
22.8614318816
 20
26.7798983648
 10
22.8918961345
 20
26.7387241542
 10
22.9196066045
 20
26.6958832251
 10
22.9446285948
 20
26.6511537071
 10
22.9668129838
 20
26.6042948024
 10
22.9863418502
 20
26.5550057852
 10
23.0030331153
 20
26.5035873812
 10
23.0161914217
 20
26.4507009703
 10
23.0255849835
 20
26.3965670121
 10
23.0314455865
 20
26.340965047
 10
23.0337732309
 20
26.2838950748
  0
LWPOLYLINE
  5
27C
100
AcDbEntity
  8
0
100
AcDbPolyline
 62
7
  6
CONTINUOUS
 90
13
 70
0
 43
0.3500000006
 10
53.093259201
 20
0.4285709152
 10
52.8789701843
 20
0.1428575134
 10
52.2361167297
 20
0.1428575134
 10
51.8075432281
 20
0.4285709152
 10
51.8075432281
 20
1.0714289017
 10
52.2361167297
 20
1.3571423035
 10
52.8789701843
 20
1.3571423035
 10
53.093259201
 20
1.0714289017
 10
53.5218281708
 20
1.5000001373
 10
54.3789706421
 20
1.5000001373
 10
54.8075441437
 20
1.0714289017
 10
54.8075441437
 20
0.4285709152
 10
54.3789706421
 20
-0.0000003204
  0
LINE
  5
27D
100
AcDbEntity
  8
RACCORDO
100
AcDbLine
 62
250
  6
CONTINUOUS
 10
44.2687195982
 20
42.2700900634
 11
44.7680343655
 21
42.2700900634
  0
LINE
  5
27E
100
AcDbEntity
  8
RACCORDO
100
AcDbLine
 62
250
  6
CONTINUOUS
 10
-44.2687195982
 20
42.2700900634
 11
-44.7680343655
 21
42.2700900634
  0
LWPOLYLINE
  5
27F
100
AcDbEntity
  8
RACCORDO
100
AcDbPolyline
 62
250
  6
CONTINUOUS
 90
28
 70
0
 10
44.2687195982
 20
42.2700900634
 10
44.2667648841
 20
42.3293812625
 10
44.2616610202
 20
42.3875151169
 10
44.2534080066
 20
42.4444916267
 10
44.2419735505
 20
42.5002642132
 10
44.2273899447
 20
42.554879455
 10
44.2097540673
 20
42.6084770882
 10
44.1890135659
 20
42.6613015238
 10
44.1652207929
 20
42.7131083507
 10
44.1386296841
 20
42.7633040712
 10
44.1092248885
 20
42.8118350392
 10
44.0770217571
 20
42.8587549008
 10
44.0423202786
 20
42.9036310956
 10
44.0050803304
 20
42.9464590462
 10
43.9653420351
 20
42.9872433301
 10
43.9235257492
 20
43.0255651187
 10
43.8798181367
 20
43.0613093634
 10
43.8340325337
 20
43.0945911128
 10
43.7860293052
 20
43.1253366849
 10
43.7356501305
 20
43.1536977705
 10
43.6830533303
 20
43.1795226789
 10
43.6285742328
 20
43.2022826551
 10
43.5720561692
 20
43.2219755894
 10
43.5136558083
 20
43.2386035915
 10
43.4541784839
 20
43.251644236
 10
43.3938926405
 20
43.2609233811
 10
43.3325298337
 20
43.2666151684
 10
43.2700900634
 20
43.2687195982
  0
LWPOLYLINE
  5
280
100
AcDbEntity
  8
RACCORDO
100
AcDbPolyline
 62
250
  6
CONTINUOUS
 90
28
 70
0
 10
44.7680343655
 20
42.2700900634
 10
44.7653466495
 20
42.3585096779
 10
44.7575580758
 20
42.4457323633
 10
44.7448497175
 20
42.531475135
 10
44.7274939462
 20
42.6151469804
 10
44.7056551199
 20
42.6968416697
 10
44.6792044304
 20
42.7772889658
 10
44.6480551596
 20
42.8565820897
 10
44.6123985317
 20
42.934087334
 10
44.5724035472
 20
43.0094151271
 10
44.528236046
 20
43.082273018
 10
44.480015415
 20
43.1524827461
 10
44.4278793177
 20
43.2198455431
 10
44.3719713892
 20
43.2841684913
 10
44.3124913862
 20
43.3452153972
 10
44.2496832358
 20
43.40274229
 10
44.1840265918
 20
43.4563633149
 10
44.1154926092
 20
43.5061522764
 10
44.0434900961
 20
43.5524511663
 10
43.9679200202
 20
43.5951137668
 10
43.8891937741
 20
43.6337021859
 10
43.8074174394
 20
43.6679800695
 10
43.7226498458
 20
43.6977157954
 10
43.6352877986
 20
43.7225661256
 10
43.5459946003
 20
43.7421932418
 10
43.4552103058
 20
43.7564017395
 10
43.3631290892
 20
43.7650628987
 10
43.2700900634
 20
43.7680343655
  0
LWPOLYLINE
  5
281
100
AcDbEntity
  8
0
100
AcDbPolyline
 62
7
  6
CONTINUOUS
 90
28
 70
0
 10
45.0
 20
42.5020556979
 10
44.9974765131
 20
42.5891032464
 10
44.9898921975
 20
42.6759992202
 10
44.9772461355
 20
42.7624487916
 10
44.9595228958
 20
42.8482929527
 10
44.9367724067
 20
42.9330942861
 10
44.9091890166
 20
43.0161591785
 10
44.8770028956
 20
43.0970056382
 10
44.8402982275
 20
43.1756028698
 10
44.7990987564
 20
43.2519488305
 10
44.753531714
 20
43.3258000991
 10
44.7037543105
 20
43.3968946557
 10
44.6497803815
 20
43.4651710977
 10
44.5915898729
 20
43.5305503359
 10
44.529494738
 20
43.5925852718
 10
44.4640598395
 20
43.6507117177
 10
44.395711059
 20
43.7046343029
 10
44.3245474034
 20
43.7543547461
 10
44.2507005802
 20
43.7998190289
 10
44.1744923863
 20
43.8408560644
 10
44.0961219597
 20
43.877384518
 10
44.0155044573
 20
43.9094277082
 10
43.9326509362
 20
43.9369053252
 10
43.848056256
 20
43.9595790334
 10
43.7623673174
 20
43.9772604851
 10
43.6760030745
 20
43.9898916964
 10
43.589134649
 20
43.9974746297
 10
43.5020556979
 20
44.0
  0
LINE
  5
282
100
AcDbEntity
  8
RACCORDO
100
AcDbLine
 62
250
  6
CONTINUOUS
 10
43.2700900634
 20
-43.2687195982
 11
43.2700900634
 21
-43.7680343655
  0
LINE
  5
283
100
AcDbEntity
  8
RACCORDO
100
AcDbLine
 62
250
  6
CONTINUOUS
 10
43.2700900634
 20
43.2687195982
 11
43.2700900634
 21
43.7680343655
  0
LINE
  5
284
100
AcDbEntity
  8
RACCORDO
100
AcDbLine
 62
250
  6
CONTINUOUS
 10
44.2687195982
 20
-42.2700900634
 11
44.2687195982
 21
42.2700900634
  0
LINE
  5
285
100
AcDbEntity
  8
RACCORDO
100
AcDbLine
 62
250
  6
CONTINUOUS
 10
44.7680343655
 20
-42.2700900634
 11
44.7680343655
 21
42.2700900634
  0
LINE
  5
286
100
AcDbEntity
  8
0
100
AcDbLine
 62
7
  6
CONTINUOUS
 10
45.0
 20
-42.5020556979
 11
45.0
 21
42.5020556979
  0
LWPOLYLINE
  5
287
100
AcDbEntity
  8
0
100
AcDbPolyline
 62
7
  6
CONTINUOUS
 90
13
 70
0
 43
0.3500000006
 10
53.093259201
 20
-1.9285708809
 10
52.8789701843
 20
-2.2142854156
 10
52.2361167297
 20
-2.2142854156
 10
51.8075432281
 20
-1.9285708809
 10
51.8075432281
 20
-1.2857140274
 10
52.2361167297
 20
-1.0000006256
 10
52.8789701843
 20
-1.0000006256
 10
53.093259201
 20
-1.2857140274
 10
53.5218281708
 20
-0.8571427917
 10
54.3789706421
 20
-0.8571427917
 10
54.8075441437
 20
-1.2857140274
 10
54.8075441437
 20
-1.9285708809
 10
54.3789706421
 20
-2.3571432495
  0
LWPOLYLINE
  5
288
100
AcDbEntity
  8
RACCORDO
100
AcDbPolyline
 62
250
  6
CONTINUOUS
 90
28
 70
0
 10
-43.2700900634
 20
43.2687195982
 10
-43.3293812625
 20
43.2667648841
 10
-43.3875151169
 20
43.2616610202
 10
-43.4444916267
 20
43.2534080066
 10
-43.5002642132
 20
43.2419735505
 10
-43.554879455
 20
43.2273899447
 10
-43.6084770882
 20
43.2097540673
 10
-43.6613015238
 20
43.1890135659
 10
-43.7131083507
 20
43.1652207929
 10
-43.7633040712
 20
43.1386296841
 10
-43.8118350392
 20
43.1092248885
 10
-43.8587549008
 20
43.0770217571
 10
-43.9036310956
 20
43.0423202786
 10
-43.9464590462
 20
43.0050803304
 10
-43.9872433301
 20
42.9653420351
 10
-44.0255651187
 20
42.9235257492
 10
-44.0613093634
 20
42.8798181367
 10
-44.0945911128
 20
42.8340325337
 10
-44.1253366849
 20
42.7860293052
 10
-44.1536977705
 20
42.7356501305
 10
-44.1795226789
 20
42.6830533303
 10
-44.2022826551
 20
42.6285742328
 10
-44.2219755894
 20
42.5720561692
 10
-44.2386035915
 20
42.5136558083
 10
-44.251644236
 20
42.4541784839
 10
-44.2609233811
 20
42.3938926405
 10
-44.2666151684
 20
42.3325298337
 10
-44.2687195982
 20
42.2700900634
  0
LWPOLYLINE
  5
289
100
AcDbEntity
  8
RACCORDO
100
AcDbPolyline
 62
250
  6
CONTINUOUS
 90
28
 70
0
 10
-43.2700900634
 20
43.7680343655
 10
-43.3585096779
 20
43.7653466495
 10
-43.4457323633
 20
43.7575580758
 10
-43.531475135
 20
43.7448497175
 10
-43.6151469804
 20
43.7274939462
 10
-43.6968416697
 20
43.7056551199
 10
-43.7772889658
 20
43.6792044304
 10
-43.8565820897
 20
43.6480551596
 10
-43.934087334
 20
43.6123985317
 10
-44.0094151271
 20
43.5724035472
 10
-44.082273018
 20
43.528236046
 10
-44.1524827461
 20
43.480015415
 10
-44.2198455431
 20
43.4278793177
 10
-44.2841684913
 20
43.3719713892
 10
-44.3452153972
 20
43.3124913862
 10
-44.40274229
 20
43.2496832358
 10
-44.4563633149
 20
43.1840265918
 10
-44.5061522764
 20
43.1154926092
 10
-44.5524511663
 20
43.0434900961
 10
-44.5951137668
 20
42.9679200202
 10
-44.6337021859
 20
42.8891937741
 10
-44.6679800695
 20
42.8074174394
 10
-44.6977157954
 20
42.7226498458
 10
-44.7225661256
 20
42.6352877986
 10
-44.7421932418
 20
42.5459946003
 10
-44.7564017395
 20
42.4552103058
 10
-44.7650628987
 20
42.3631290892
 10
-44.7680343655
 20
42.2700900634
  0
LWPOLYLINE
  5
28A
100
AcDbEntity
  8
0
100
AcDbPolyline
 62
7
  6
CONTINUOUS
 90
28
 70
0
 10
-43.5020556979
 20
44.0
 10
-43.5891032464
 20
43.9974765131
 10
-43.6759992202
 20
43.9898921975
 10
-43.7624487916
 20
43.9772461355
 10
-43.8482929527
 20
43.9595228958
 10
-43.9330942861
 20
43.9367724067
 10
-44.0161591785
 20
43.9091890166
 10
-44.0970056382
 20
43.8770028956
 10
-44.1756028698
 20
43.8402982275
 10
-44.2519488305
 20
43.7990987564
 10
-44.3258000991
 20
43.753531714
 10
-44.3968946557
 20
43.7037543105
 10
-44.4651710977
 20
43.6497803815
 10
-44.5305503359
 20
43.5915898729
 10
-44.5925852718
 20
43.529494738
 10
-44.6507117177
 20
43.4640598395
 10
-44.7046343029
 20
43.395711059
 10
-44.7543547461
 20
43.3245474034
 10
-44.7998190289
 20
43.2507005802
 10
-44.8408560644
 20
43.1744923863
 10
-44.877384518
 20
43.0961219597
 10
-44.9094277082
 20
43.0155044573
 10
-44.9369053252
 20
42.9326509362
 10
-44.9595790334
 20
42.848056256
 10
-44.9772604851
 20
42.7623673174
 10
-44.9898916964
 20
42.6760030745
 10
-44.9974746297
 20
42.589134649
 10
-45.0
 20
42.5020556979
  0
LINE
  5
28B
100
AcDbEntity
  8
RACCORDO
100
AcDbLine
 62
250
  6
CONTINUOUS
 10
43.2700900634
 20
43.2687195982
 11
-43.2700900634
 21
43.2687195982
  0
LINE
  5
28C
100
AcDbEntity
  8
RACCORDO
100
AcDbLine
 62
250
  6
CONTINUOUS
 10
43.2700900634
 20
43.7680343655
 11
-43.2700900634
 21
43.7680343655
  0
LINE
  5
28D
100
AcDbEntity
  8
0
100
AcDbLine
 62
7
  6
CONTINUOUS
 10
43.5020556979
 20
44.0
 11
-43.5020556979
 21
44.0
  0
LINE
  5
28E
100
AcDbEntity
  8
RACCORDO
100
AcDbLine
 62
7
  6
CONTINUOUS
 10
-70.774684066
 20
-43.7680343655
 11
-66.3485160878
 21
-44.0
  0
LWPOLYLINE
  5
28F
100
AcDbEntity
  8
0
100
AcDbPolyline
 62
7
  6
CONTINUOUS
 90
10
 70
0
 43
0.3500000006
 10
-76.8997424927
 20
52.3781811676
 10
-76.0425954895
 20
53.2353236389
 10
-75.8283110046
 20
54.0924661102
 10
-75.8283110046
 20
54.9496085815
 10
-76.2568799744
 20
55.3781775513
 10
-76.8997424927
 20
55.3781775513
 10
-77.3283114624
 20
54.9496085815
 10
-77.3283114624
 20
54.0924661102
 10
-76.8997424927
 20
53.6638926086
 10
-75.9711688385
 20
53.6638926086
  0
LINE
  5
290
100
AcDbEntity
  8
RACCORDO
100
AcDbLine
 62
7
  6
CONTINUOUS
 10
-63.5450256066
 20
-43.1589196708
 11
-65.8985160878
 21
-43.2
  0
LINE
  5
291
100
AcDbEntity
  8
0
100
AcDbLine
 62
250
  6
CONTINUOUS
 10
-66.3485160878
 20
-42.5020556979
 11
-65.8985160878
 21
-42.497941481
  0
LINE
  5
292
100
AcDbEntity
  8
RACCORDO
100
AcDbLine
 62
250
  6
CONTINUOUS
 10
-63.3485160878
 20
-42.497941481
 11
-65.8985160878
 21
-42.497941481
  0
LINE
  5
293
100
AcDbEntity
  8
RACCORDO
100
AcDbLine
 62
250
  6
CONTINUOUS
 10
-71.2485160878
 20
-42.2700900634
 11
-70.774684066
 21
-42.2700900634
  0
LINE
  5
294
100
AcDbEntity
  8
RACCORDO
100
AcDbLine
 62
250
  6
CONTINUOUS
 10
-70.774684066
 20
-42.2700900634
 11
-66.3485160878
 21
-42.5020556979
  0
LINE
  5
295
100
AcDbEntity
  8
0
100
AcDbLine
 62
7
  6
CONTINUOUS
 10
-71.2485160878
 20
-31.5801797807
 11
-71.3985160878
 21
-31.5801797807
  0
LINE
  5
296
100
AcDbEntity
  8
0
100
AcDbLine
 62
250
  6
CONTINUOUS
 10
-71.2485160878
 20
-30.9036074326
 11
-71.3985160878
 21
-30.9036074326
  0
LINE
  5
297
100
AcDbEntity
  8
0
100
AcDbLine
 62
7
  6
CONTINUOUS
 10
-71.2485160878
 20
-30.4133253901
 11
-71.3985160878
 21
-30.4133253901
  0
LINE
  5
298
100
AcDbEntity
  8
0
100
AcDbLine
 62
7
  6
CONTINUOUS
 10
-71.2485160878
 20
-30.3985541322
 11
-71.3985160878
 21
-30.3985541322
  0
LINE
  5
299
100
AcDbEntity
  8
0
100
AcDbLine
 62
250
  6
CONTINUOUS
 10
-71.2485160878
 20
-29.1359677442
 11
-71.3985160878
 21
-29.1359677442
  0
LWPOLYLINE
  5
29A
100
AcDbEntity
  8
0
100
AcDbPolyline
 62
7
  6
CONTINUOUS
 90
3
 70
0
 43
0.3500000006
 10
-78.3283117676
 20
52.6638923035
 10
-78.3997429504
 20
52.4496078186
 10
-78.5425962524
 20
52.1638921509
  0
LINE
  5
29B
100
AcDbEntity
  8
0
100
AcDbLine
 62
7
  6
CONTINUOUS
 10
-71.2485160878
 20
-29.051114715
 11
-71.3985160878
 21
-29.051114715
  0
LWPOLYLINE
  5
29C
100
AcDbEntity
  8
RACCORDO
100
AcDbPolyline
 62
250
  6
CONTINUOUS
 90
9
 70
0
 10
-70.774684066
 20
-43.7680343655
 10
-70.7761719747
 20
-43.7653466495
 10
-70.7775556271
 20
-43.7575580758
 10
-70.7788296824
 20
-43.7448497175
 10
-70.7799816361
 20
-43.7274939462
 10
-70.7810208213
 20
-43.7056551199
 10
-70.7819661479
 20
-43.6792044304
 10
-70.782807794
 20
-43.6480551596
 10
-70.7835327327
 20
-43.6123985317
  0
LWPOLYLINE
  5
29D
100
AcDbEntity
  8
0
100
AcDbPolyline
 62
7
  6
CONTINUOUS
 90
4
 70
0
 43
0.3500000006
 10
-81.3997348022
 20
54.7353240967
 10
-81.3997348022
 20
55.3781775513
 10
-79.8997434082
 20
55.3781775513
 10
-80.7568813477
 20
52.3781811676
  0
LINE
  5
29E
100
AcDbEntity
  8
RACCORDO
100
AcDbLine
 62
250
  6
CONTINUOUS
 10
-70.774684066
 20
42.2700900634
 11
-70.7810208213
 21
42.6968416697
  0
LINE
  5
29F
100
AcDbEntity
  8
RACCORDO
100
AcDbLine
 62
250
  6
CONTINUOUS
 10
-70.7835327327
 20
-43.6123985317
 11
-70.7846485469
 21
-43.528236046
  0
LINE
  5
2A0
100
AcDbEntity
  8
RACCORDO
100
AcDbLine
 62
250
  6
CONTINUOUS
 10
-70.7810208213
 20
42.6968416697
 11
-70.784147308
 21
43.0094151271
  0
LINE
  5
2A1
100
AcDbEntity
  8
RACCORDO
100
AcDbLine
 62
250
  6
CONTINUOUS
 10
-70.7846485469
 20
-43.528236046
 11
-70.7852944856
 21
-43.4278793177
  0
LINE
  5
2A2
100
AcDbEntity
  8
RACCORDO
100
AcDbLine
 62
250
  6
CONTINUOUS
 10
-70.784147308
 20
43.0094151271
 11
-70.7852944856
 21
43.2198455431
  0
LINE
  5
2A3
100
AcDbEntity
  8
0
100
AcDbLine
 62
7
  6
CONTINUOUS
 10
-71.3985160878
 20
-31.5801797807
 11
-71.3985160878
 21
-29.051114715
  0
LINE
  5
2A4
100
AcDbEntity
  8
RACCORDO
100
AcDbLine
 62
7
  6
CONTINUOUS
 10
-71.2485160878
 20
-43.2687195982
 11
-71.2485160878
 21
43.2687195982
  0
LINE
  5
2A5
100
AcDbEntity
  8
RACCORDO
100
AcDbLine
 62
250
  6
CONTINUOUS
 10
-70.774684066
 20
-42.2700900634
 11
-70.774684066
 21
42.2700900634
  0
LINE
  5
2A6
100
AcDbEntity
  8
RACCORDO
100
AcDbLine
 62
250
  6
CONTINUOUS
 10
-70.7852944856
 20
-43.4278793177
 11
-70.7853763024
 21
-43.2496832358
  0
LINE
  5
2A7
100
AcDbEntity
  8
RACCORDO
100
AcDbLine
 62
250
  6
CONTINUOUS
 10
-70.7852944856
 20
43.2198455431
 11
-70.7853763024
 21
43.40274229
  0
LINE
  5
2A8
100
AcDbEntity
  8
RACCORDO
100
AcDbLine
 62
250
  6
CONTINUOUS
 10
-70.7853763024
 20
43.40274229
 11
-70.7848357495
 21
43.5061522764
  0
LINE
  5
2A9
100
AcDbEntity
  8
RACCORDO
100
AcDbLine
 62
250
  6
CONTINUOUS
 10
-70.7853763024
 20
-43.2496832358
 11
-70.7838224918
 21
-42.9679200202
  0
LINE
  5
2AA
100
AcDbEntity
  8
RACCORDO
100
AcDbLine
 62
250
  6
CONTINUOUS
 10
-70.7838224918
 20
-42.9679200202
 11
-70.7802536792
 21
-42.6352877986
  0
LWPOLYLINE
  5
2AB
100
AcDbEntity
  8
RACCORDO
100
AcDbPolyline
 62
250
  6
CONTINUOUS
 90
10
 70
0
 10
-70.7848357495
 20
43.5061522764
 10
-70.7838224918
 20
43.5951137668
 10
-70.7831221056
 20
43.6337021859
 10
-70.7822951597
 20
43.6679800695
 10
-70.7813408235
 20
43.6977157954
 10
-70.7802536792
 20
43.7225661256
 10
-70.7790361423
 20
43.7421932418
 10
-70.7776961536
 20
43.7564017395
 10
-70.7762420243
 20
43.7650628987
 10
-70.774684066
 20
43.7680343655
  0
LINE
  5
2AC
100
AcDbEntity
  8
RACCORDO
100
AcDbLine
 62
250
  6
CONTINUOUS
 10
-70.7802536792
 20
-42.6352877986
 11
-70.774684066
 21
-42.2700900634
  0
LINE
  5
2AD
100
AcDbEntity
  8
0
100
AcDbLine
 62
7
  6
CONTINUOUS
 10
-66.3485160878
 20
-44.0
 11
-66.3485160878
 21
44.0
  0
LINE
  5
2AE
100
AcDbEntity
  8
0
100
AcDbLine
 62
7
  6
CONTINUOUS
 10
-65.8985160878
 20
-43.2
 11
-65.8985160878
 21
43.2
  0
LINE
  5
2AF
100
AcDbEntity
  8
RACCORDO
100
AcDbLine
 62
250
  6
CONTINUOUS
 10
-63.5450256066
 20
43.1589196708
 11
-63.5450256066
 21
-43.1589196708
  0
LINE
  5
2B0
100
AcDbEntity
  8
RACCORDO
100
AcDbLine
 62
7
  6
CONTINUOUS
 10
-63.3485160878
 20
42.9589501318
 11
-63.3485160878
 21
-42.9589501318
  0
LWPOLYLINE
  5
2B1
100
AcDbEntity
  8
0
100
AcDbPolyline
 62
7
  6
CONTINUOUS
 90
10
 70
0
 43
0.3500000006
 10
-78.3997429504
 20
52.8781813202
 10
-78.3283117676
 20
52.7353234863
 10
-78.3283117676
 20
52.6638923035
 10
-78.4711650696
 20
52.5210390015
 10
-78.5425962524
 20
52.5210390015
 10
-78.6140274353
 20
52.5924656525
 10
-78.6140274353
 20
52.6638923035
 10
-78.5425962524
 20
52.8067501373
 10
-78.4711650696
 20
52.8781813202
 10
-78.3997429504
 20
52.8781813202
  0
LINE
  5
2B2
100
AcDbEntity
  8
0
100
AcDbLine
 62
7
  6
CONTINUOUS
 10
-66.3485160878
 20
-44.0
 11
-65.8985160878
 21
-43.2
  0
LINE
  5
2B3
100
AcDbEntity
  8
0
100
AcDbLine
 62
7
  6
CONTINUOUS
 10
-66.3485160878
 20
44.0
 11
-65.8985160878
 21
43.2
  0
LINE
  5
2B4
100
AcDbEntity
  8
RACCORDO
100
AcDbLine
 62
250
  6
CONTINUOUS
 10
-70.774684066
 20
42.2700900634
 11
-66.3485160878
 21
42.5020556979
  0
LINE
  5
2B5
100
AcDbEntity
  8
RACCORDO
100
AcDbLine
 62
7
  6
CONTINUOUS
 10
-70.774684066
 20
43.7680343655
 11
-66.3485160878
 21
44.0
  0
LINE
  5
2B6
100
AcDbEntity
  8
RACCORDO
100
AcDbLine
 62
250
  6
CONTINUOUS
 10
-71.2485160878
 20
42.2700900634
 11
-70.774684066
 21
42.2700900634
  0
LINE
  5
2B7
100
AcDbEntity
  8
RACCORDO
100
AcDbLine
 62
250
  6
CONTINUOUS
 10
-63.3485160878
 20
42.497941481
 11
-65.8985160878
 21
42.497941481
  0
LINE
  5
2B8
100
AcDbEntity
  8
0
100
AcDbLine
 62
250
  6
CONTINUOUS
 10
-66.3485160878
 20
42.5020556979
 11
-65.8985160878
 21
42.497941481
  0
LINE
  5
2B9
100
AcDbEntity
  8
RACCORDO
100
AcDbLine
 62
7
  6
CONTINUOUS
 10
-63.5450256066
 20
43.1589196708
 11
-65.8985160878
 21
43.2
  0
ARC
  5
2BA
100
AcDbEntity
  8
RACCORDO
100
AcDbCircle
 62
7
  6
CONTINUOUS
 10
-70.7485160878
 20
43.2687195982
 40
0.5
100
AcDbArc
 50
93.0
 51
180.0
  0
ARC
  5
2BB
100
AcDbEntity
  8
RACCORDO
100
AcDbCircle
 62
7
  6
CONTINUOUS
 10
-70.7485160878
 20
-43.2687195982
 40
0.5
100
AcDbArc
 50
180.0
 51
267.0
  0
ARC
  5
2BC
100
AcDbEntity
  8
RACCORDO
100
AcDbCircle
 62
7
  6
CONTINUOUS
 10
-63.5485160878
 20
-42.9589501318
 40
0.2
100
AcDbArc
 50
271.0
 51
360.0
  0
ARC
  5
2BD
100
AcDbEntity
  8
RACCORDO
100
AcDbCircle
 62
7
  6
CONTINUOUS
 10
-63.5485160878
 20
42.9589501318
 40
0.2
100
AcDbArc
 50
0.0
 51
89.0
  0
ELLIPSE
  5
2BE
100
AcDbEntity
  8
RACCORDO
100
AcDbEllipse
 62
7
  6
CONTINUOUS
 10
-22.224923836
 20
26.274923836
 30
0.0
 11
0.3536610946
 21
-0.3536610946
 31
0.0
 40
0.9996954599
 41
2.3563467834
 42
3.9268385237
  0
ELLIPSE
  5
2BF
100
AcDbEntity
  8
RACCORDO
100
AcDbEllipse
 62
7
  6
CONTINUOUS
 10
22.224923836
 20
26.274923836
 30
0.0
 11
-0.3536610946
 21
-0.3536610946
 31
0.0
 40
0.9996954599
 41
2.3563467834
 42
3.9268385237
  0
ELLIPSE
  5
2C0
100
AcDbEntity
  8
RACCORDO
100
AcDbEllipse
 62
7
  6
CONTINUOUS
 10
22.224923836
 20
-26.274923836
 30
0.0
 11
-0.3536610946
 21
0.3536610946
 31
0.0
 40
0.9996954599
 41
2.3563467834
 42
3.9268385237
  0
ELLIPSE
  5
2C1
100
AcDbEntity
  8
RACCORDO
100
AcDbEllipse
 62
7
  6
CONTINUOUS
 10
-22.224923836
 20
-26.274923836
 30
0.0
 11
0.3536610946
 21
0.3536610946
 31
0.0
 40
0.9996954599
 41
2.3563467834
 42
3.9268385237
  0
ENDSEC
  0
SECTION
  2
OBJECTS
  0
DICTIONARY
  5
C
100
AcDbDictionary
280
0
281
1
  3
ACAD_GROUP
350
D
  3
ACAD_MLINESTYLE
350
17
  3
ACAD_LAYOUT
350
1A
  3
ACAD_PLOTSETTINGS
350
19
  3
ACAD_PLOTSTYLENAME
350
E
  0
DICTIONARY
  5
D
102
{ACAD_REACTORS
330
C
102
}
100
AcDbDictionary
280
0
281
1
  0
ACDBDICTIONARYWDFLT
  5
E
102
{ACAD_REACTORS
330
C
102
}
100
AcDbDictionary
281
1
  3
Normal
350
F
100
AcDbDictionaryWithDefault
340
F
  0
DICTIONARY
  5
17
102
{ACAD_REACTORS
330
C
102
}
100
AcDbDictionary
280
0
281
1
  3
Standard
350
18
  0
DICTIONARY
  5
19
102
{ACAD_REACTORS
330
C
102
}
100
AcDbDictionary
281
1
  0
DICTIONARY
  5
1A
102
{ACAD_REACTORS
330
C
102
}
100
AcDbDictionary
281
1
  3
Model
350
2C2
  3
Layout1
350
2C3
  0
ACDBPLACEHOLDER
  5
F
102
{ACAD_REACTORS
330
E
102
}
  0
MLINESTYLE
  5
18
102
{ACAD_REACTORS
330
17
102
}
100
AcDbMlineStyle
  2
STANDARD
 70
0
  3

 62
256
 51
90.0
 52
90.0
 71
2
 49
0.5
 62
256
  6
BYLAYER
 49
-0.5
 62
256
  6
BYLAYER
  0
LAYOUT
  5
2C2
102
{ACAD_REACTORS
330
1A
102
}
100
AcDbPlotSettings
  1

  2
none_device
  4
ISO_A4_(297.00_x_210.00_MM)
  6

 40
0.0
 41
0.0
 42
0.0
 43
0.0
 44
297.0
 45
210.0
 46
0.0
 47
0.0
 48
0.0
 49
0.0
140
0.0
141
0.0
142
1.0
143
1.0
 70
1024
 72
1
 73
0
 74
0
  7

 75
0
147
1.0
148
0.0
149
0.0
100
AcDbLayout
  1
Model
 70
0
 71
0
 10
0.0
 20
0.0
 11
297.0
 21
210.0
 12
0.0
 22
0.0
 32
0.0
 14
0.0
 24
0.0
 34
0.0
 15
0.0
 25
0.0
 35
0.0
146
0.0
 13
0.0
 23
0.0
 33
0.0
 16
1.0
 26
0.0
 36
0.0
 17
0.0
 27
1.0
 37
0.0
 76
0
330
214
345
0
346
0
  0
LAYOUT
  5
2C3
102
{ACAD_REACTORS
330
1A
102
}
100
AcDbPlotSettings
  1

  2
none_device
  4
ISO_A4_(297.00_x_210.00_MM)
  6

 40
0.0
 41
0.0
 42
0.0
 43
0.0
 44
297.0
 45
210.0
 46
0.0
 47
0.0
 48
0.0
 49
0.0
140
0.0
141
0.0
142
1.0
143
1.0
 70
0
 72
1
 73
0
 74
0
  7

 75
0
147
1.0
148
0.0
149
0.0
100
AcDbLayout
  1
Layout1
 70
0
 71
1
 10
0.0
 20
0.0
 11
297.0
 21
210.0
 12
0.0
 22
0.0
 32
0.0
 14
0.0
 24
0.0
 34
0.0
 15
0.0
 25
0.0
 35
0.0
146
0.0
 13
0.0
 23
0.0
 33
0.0
 16
1.0
 26
0.0
 36
0.0
 17
0.0
 27
1.0
 37
0.0
 76
0
330
215
345
0
346
0
  0
ENDSEC
  0
EOF
