  0
SECTION
  2
HEADER
  9
$ACADVER
  1
AC1024
  9
$DWGCODEPAGE
  3
ANSI_1252
  9
$EXTMAX
 10
297.0
 20
210.0
 30
0.0
  9
$EXTMIN
 10
0.0
 20
0.0
 30
0.0
  9
$LIMMIN
 10
0.0
 20
0.0
  9
$LIMMAX
 10
297.0
 20
210.0
  9
$VIEWCTR
 10
148.5
 20
105.0
  9
$VIEWSIZE
 40
210.0
  9
$CLAYER
  8
0
  9
$LTSCALE
 40
16.335
  9
$CELTYPE
  6
BYLAYER
  9
$DIMSCALE
 40
1.0
  9
$DIMASZ
 40
3.0
  9
$DIMEXO
 40
0.5
  9
$DIMDLI
 40
11.286
  9
$DIMEXE
 40
1.5
  9
$DIMCEN
 40
2.673
  9
$DIMLFAC
 40
1.0
  9
$DIMBLK
  1
_FILLED
  9
$DIMALT
 70
0
  9
$DIMALTF
 40
0.0393700787
  9
$DIMTXT
 40
3.0
  9
$DIMTOL
 70
1
  9
$DIMLIM
 70
0
  9
$DIMTFAC
 40
1.0
  9
$DIMTP
 40
0.01
  9
$DIMTM
 40
0.01
  9
$DIMGAP
 40
0.625
  9
$DIMDSEP
 70
44
  9
$AUNITS
 70
0
  9
$PDMODE
 70
3
  9
$PDSIZE
 40
3.0
  9
$HANDSEED
  5
313
  9
$TILEMODE
 70
1
  9
$MEASUREMENT
 70
1
  9
$INSUNITS
 70
4
  0
ENDSEC
  0
SECTION
  2
CLASSES
  0
CLASS
  1
ACDBDICTIONARYWDFLT
  2
AcDbDictionaryWithDefault
  3
AutoCAD 2000
 90
0
 91
1
280
0
281
0
  0
CLASS
  1
ACDBPLACEHOLDER
  2
AcDbPlaceHolder
  3
AutoCAD 2000
 90
0
 91
1
280
0
281
0
  0
CLASS
  1
LAYOUT
  2
AcDbLayout
  3
AutoCAD 2000
 90
0
 91
0
280
0
281
0
  0
ENDSEC
  0
SECTION
  2
TABLES
  0
TABLE
  2
VPORT
  5
8
100
AcDbSymbolTable
 70
2
  0
VPORT
  5
1F4
100
AcDbSymbolTableRecord
100
AcDbViewportTableRecord
  2
*ACTIVE
 70
0
 10
0.0
 20
0.0
 11
1.0
 21
1.0
 12
148.5
 22
105.0
 13
0.0
 23
0.0
 14
1.0
 24
1.0
 15
0.0
 25
0.0
 16
0.0
 26
0.0
 36
1.0
 17
0.0
 27
0.0
 37
0.0
 40
210.0
 41
1.4142857143
 42
50.0
 43
0.0
 44
0.0
 50
0.0
 51
0.0
 71
0
 72
100
 73
1
 74
1
 75
0
 76
0
 77
0
 78
0
  0
ENDTAB
  0
TABLE
  2
LTYPE
  5
5
100
AcDbSymbolTable
 70
6
  0
LTYPE
  5
14
100
AcDbSymbolTableRecord
100
AcDbLinetypeTableRecord
  2
BYBLOCK
 70
0
  3

 72
65
 73
0
 40
0.0
  0
LTYPE
  5
15
100
AcDbSymbolTableRecord
100
AcDbLinetypeTableRecord
  2
BYLAYER
 70
0
  3

 72
65
 73
0
 40
0.0
  0
LTYPE
  5
16
100
AcDbSymbolTableRecord
100
AcDbLinetypeTableRecord
  2
CONTINUOUS
 70
64
  3
Solid line
 72
65
 73
0
 40
0.0
  0
LTYPE
  5
1F5
100
AcDbSymbolTableRecord
100
AcDbLinetypeTableRecord
  2
CENTER
 70
64
  3
____ _ ____ _ ____ _ ____ _ ____ _ ____ _ ____
 72
65
 73
4
 40
0.6
 49
0.375
 74
0
 49
-0.075
 74
0
 49
0.075
 74
0
 49
-0.075
 74
0
  0
LTYPE
  5
1F6
100
AcDbSymbolTableRecord
100
AcDbLinetypeTableRecord
  2
HIDDEN
 70
64
  3
- - - - - - - - - - - - - - - - - - - -
 72
65
 73
2
 40
0.2
 49
0.1
 74
0
 49
-0.1
 74
0
  0
LTYPE
  5
1F7
100
AcDbSymbolTableRecord
100
AcDbLinetypeTableRecord
  2
PHANTOM
 70
64
  3
_____ _ _ _____ _ _ _____ _ _ _____
 72
65
 73
6
 40
0.8
 49
0.45
 74
0
 49
-0.05
 74
0
 49
0.1
 74
0
 49
-0.05
 74
0
 49
0.1
 74
0
 49
-0.05
 74
0
  0
LTYPE
  5
1F8
100
AcDbSymbolTableRecord
100
AcDbLinetypeTableRecord
  2
DOT
 70
64
  3
. . . . . . . . . . . . . . . . . . . .
 72
65
 73
2
 40
0.2
 49
0.1
 74
0
 49
-0.1
 74
0
  0
LTYPE
  5
1F9
100
AcDbSymbolTableRecord
100
AcDbLinetypeTableRecord
  2
DASHED
 70
64
  3
- - - - - - - - - - - - - - - - - - - -
 72
65
 73
2
 40
0.2
 49
0.1
 74
0
 49
-0.1
 74
0
  0
ENDTAB
  0
TABLE
  2
LAYER
  5
2
100
AcDbSymbolTable
 70
36
  0
LAYER
  5
10
100
AcDbSymbolTableRecord
100
AcDbLayerTableRecord
  2
0
 70
0
 62
7
  6
CONTINUOUS
370
-3
390
F
  0
LAYER
  5
1FA
100
AcDbSymbolTableRecord
100
AcDbLayerTableRecord
  2
DEFAULT_1
 70
0
 62
7
  6
CENTER
370
-3
390
F
  0
LAYER
  5
1FB
100
AcDbSymbolTableRecord
100
AcDbLayerTableRecord
  2
DEFAULT_2
 70
0
 62
7
  6
HIDDEN
370
-3
390
F
  0
LAYER
  5
1FC
100
AcDbSymbolTableRecord
100
AcDbLayerTableRecord
  2
DEFAULT_3
 70
0
 62
7
  6
PHANTOM
370
-3
390
F
  0
LAYER
  5
1FD
100
AcDbSymbolTableRecord
100
AcDbLayerTableRecord
  2
ASSI
 70
0
 62
7
  6
CONTINUOUS
370
-3
390
F
  0
LAYER
  5
1FE
100
AcDbSymbolTableRecord
100
AcDbLayerTableRecord
  2
COORDINATE
 70
0
 62
7
  6
CONTINUOUS
370
-3
390
F
  0
LAYER
  5
1FF
100
AcDbSymbolTableRecord
100
AcDbLayerTableRecord
  2
COPY_PUBLISH
 70
0
 62
7
  6
CONTINUOUS
370
-3
390
F
  0
LAYER
  5
200
100
AcDbSymbolTableRecord
100
AcDbLayerTableRecord
  2
COSMETICI
 70
0
 62
7
  6
CONTINUOUS
370
-3
390
F
  0
LAYER
  5
201
100
AcDbSymbolTableRecord
100
AcDbLayerTableRecord
  2
CURVE
 70
0
 62
7
  6
CONTINUOUS
370
-3
390
F
  0
LAYER
  5
202
100
AcDbSymbolTableRecord
100
AcDbLayerTableRecord
  2
DRAFT
 70
0
 62
7
  6
CONTINUOUS
370
-3
390
F
  0
LAYER
  5
203
100
AcDbSymbolTableRecord
100
AcDbLayerTableRecord
  2
IMPORT_IGES
 70
0
 62
7
  6
CONTINUOUS
370
-3
390
F
  0
LAYER
  5
204
100
AcDbSymbolTableRecord
100
AcDbLayerTableRecord
  2
INTF_1
 70
0
 62
7
  6
CONTINUOUS
370
-3
390
F
  0
LAYER
  5
205
100
AcDbSymbolTableRecord
100
AcDbLayerTableRecord
  2
INTF_11
 70
0
 62
7
  6
CONTINUOUS
370
-3
390
F
  0
LAYER
  5
206
100
AcDbSymbolTableRecord
100
AcDbLayerTableRecord
  2
INTF_13
 70
0
 62
7
  6
CONTINUOUS
370
-3
390
F
  0
LAYER
  5
207
100
AcDbSymbolTableRecord
100
AcDbLayerTableRecord
  2
INTF_2
 70
0
 62
7
  6
CONTINUOUS
370
-3
390
F
  0
LAYER
  5
208
100
AcDbSymbolTableRecord
100
AcDbLayerTableRecord
  2
NOTE
 70
0
 62
7
  6
CONTINUOUS
370
-3
390
F
  0
LAYER
  5
209
100
AcDbSymbolTableRecord
100
AcDbLayerTableRecord
  2
PIANI
 70
0
 62
7
  6
CONTINUOUS
370
-3
390
F
  0
LAYER
  5
20A
100
AcDbSymbolTableRecord
100
AcDbLayerTableRecord
  2
PUNTI
 70
0
 62
7
  6
CONTINUOUS
370
-3
390
F
  0
LAYER
  5
20B
100
AcDbSymbolTableRecord
100
AcDbLayerTableRecord
  2
RACCORDO
 70
0
 62
7
  6
CONTINUOUS
370
-3
390
F
  0
LAYER
  5
20C
100
AcDbSymbolTableRecord
100
AcDbLayerTableRecord
  2
SIMBOLI
 70
0
 62
7
  6
CONTINUOUS
370
-3
390
F
  0
LAYER
  5
20D
100
AcDbSymbolTableRecord
100
AcDbLayerTableRecord
  2
SMUSSO
 70
0
 62
7
  6
CONTINUOUS
370
-3
390
F
  0
LAYER
  5
20E
100
AcDbSymbolTableRecord
100
AcDbLayerTableRecord
  2
SUPERFICI
 70
0
 62
7
  6
CONTINUOUS
370
-3
390
F
  0
LAYER
  5
20F
100
AcDbSymbolTableRecord
100
AcDbLayerTableRecord
  2
TRASH
 70
0
 62
7
  6
CONTINUOUS
370
-3
390
F
  0
ENDTAB
  0
TABLE
  2
STYLE
  5
3
100
AcDbSymbolTable
 70
1
  0
STYLE
  5
11
100
AcDbSymbolTableRecord
100
AcDbTextStyleTableRecord
  2
STANDARD
 70
0
 40
0.0
 41
0.8
 50
0.0
 71
0
 42
0.2
  3
txt
  4

  0
STYLE
  5
210
100
AcDbSymbolTableRecord
100
AcDbTextStyleTableRecord
  2
TEXTSTYLE_1
 70
0
 40
0.0
 41
0.8
 50
0.0
 71
0
 42
0.2
  3
gdt
  4

  0
ENDTAB
  0
TABLE
  2
VIEW
  5
6
100
AcDbSymbolTable
 70
0
  0
ENDTAB
  0
TABLE
  2
UCS
  5
7
100
AcDbSymbolTable
 70
0
  0
ENDTAB
  0
TABLE
  2
APPID
  5
9
100
AcDbSymbolTable
 70
1
  0
APPID
  5
211
100
AcDbSymbolTableRecord
100
AcDbRegAppTableRecord
  2
ACAD
 70
0
  0
ENDTAB
  0
TABLE
  2
BLOCK_RECORD
  5
1
100
AcDbSymbolTable
 70
0
  0
BLOCK_RECORD
  5
212
100
AcDbSymbolTableRecord
100
AcDbBlockTableRecord
  2
*Model_Space
  0
BLOCK_RECORD
  5
213
100
AcDbSymbolTableRecord
100
AcDbBlockTableRecord
  2
*Paper_Space
  0
BLOCK_RECORD
  5
214
100
AcDbSymbolTableRecord
100
AcDbBlockTableRecord
  2
_FILLED
  0
BLOCK_RECORD
  5
215
100
AcDbSymbolTableRecord
100
AcDbBlockTableRecord
  2
*D0
  0
BLOCK_RECORD
  5
216
100
AcDbSymbolTableRecord
100
AcDbBlockTableRecord
  2
*D1
  0
BLOCK_RECORD
  5
217
100
AcDbSymbolTableRecord
100
AcDbBlockTableRecord
  2
*D2
  0
ENDTAB
  0
TABLE
  2
DIMSTYLE
  5
A
100
AcDbSymbolTable
 70
1
100
AcDbDimStyleTable
 71
0
  0
DIMSTYLE
105
218
100
AcDbSymbolTableRecord
100
AcDbDimStyleTableRecord
  2
STANDARD
 70
0
  3

  4

 40
1.0
 41
3.0
 42
0.5
 43
0.38
 44
1.5
 45
0.0
 46
0.0
 47
0.01
 48
0.01
140
3.0
141
0.09
142
0.0
143
25.4
144
1.0
145
0.0
146
1.0
147
0.625
 71
1
 72
0
 73
0
 74
0
 75
0
 76
0
 77
1
 78
8
 79
2
170
0
171
1
172
0
173
0
174
0
175
0
176
0
177
0
178
0
270
2
179
2
271
2
272
2
273
2
274
2
275
0
280
0
281
0
282
0
283
1
284
8
285
0
286
0
287
3
288
0
340
11
278
44
341
214
342
214
343
214
344
214
  0
DIMSTYLE
105
219
100
AcDbSymbolTableRecord
100
AcDbDimStyleTableRecord
  2
DIMSTYLE_1
 70
0
  3

  4

 40
1.0
 41
3.0
 42
0.5
 43
0.38
 44
1.5
 45
0.0
 46
0.0
 47
0.0
 48
0.0
140
3.0
141
0.09
142
0.0
143
25.4
144
1.0
145
0.0
146
1.0
147
0.75
 71
0
 72
0
 73
0
 74
0
 75
0
 76
0
 77
1
 78
8
 79
2
170
0
171
1
172
0
173
0
174
0
175
0
176
0
177
0
178
0
270
2
179
2
271
2
272
2
273
2
274
2
275
0
280
0
281
0
282
0
283
1
284
8
285
0
286
0
287
3
288
0
340
11
278
44
341
214
342
214
343
214
344
214
  0
ENDTAB
  0
ENDSEC
  0
SECTION
  2
BLOCKS
  0
BLOCK
  5
20
100
AcDbEntity
  8
0
100
AcDbBlockBegin
  2
*Model_Space
 70
0
 10
0.0
 20
0.0
 30
0.0
  3
*Model_Space
  1

  0
ENDBLK
  5
21
100
AcDbEntity
  8
0
100
AcDbBlockEnd
  0
BLOCK
  5
1C
100
AcDbEntity
  8
0
100
AcDbBlockBegin
  2
*Paper_Space
 70
0
 10
0.0
 20
0.0
 30
0.0
  3
*Paper_Space
  1

  0
ENDBLK
  5
1D
100
AcDbEntity
  8
0
100
AcDbBlockEnd
  0
BLOCK
  5
21A
100
AcDbEntity
  8
0
100
AcDbBlockBegin
  2
_FILLED
 70
64
 10
0.0
 20
0.0
  3
_FILLED
  1

  0
SOLID
  5
21B
100
AcDbEntity
  8
0
  6
BYBLOCK
 62
0
100
AcDbTrace
 10
0.0
 20
0.0
 11
-1.0
 21
0.3166666667
 12
-1.0
 22
-0.3166666667
 13
-1.0
 23
-0.3166666667
  0
ENDBLK
  5
21C
100
AcDbEntity
  8
0
  6
BYBLOCK
 62
0
100
AcDbBlockEnd
  0
BLOCK
  5
21D
100
AcDbEntity
  8
0
100
AcDbBlockBegin
 62
7
  6
CONTINUOUS
  2
*D0
 70
65
 10
0.0
 20
0.0
  3
*D0
  1

  0
LINE
  5
21E
100
AcDbEntity
  8
0
100
AcDbLine
 62
7
  6
CONTINUOUS
 10
-70.0227750813
 20
44.0662819964
 11
-70.0227750813
 21
53.5295134962
  0
LINE
  5
21F
100
AcDbEntity
  8
0
100
AcDbLine
 62
7
  6
CONTINUOUS
 10
-62.2227750813
 20
43.3872487861
 11
-62.2227750813
 21
53.5295134962
  0
LINE
  5
220
100
AcDbEntity
  8
0
100
AcDbLine
 62
7
  6
CONTINUOUS
 10
-70.0227750813
 20
52.0295134962
 11
-74.0227750813
 21
52.0295134962
  0
LINE
  5
221
100
AcDbEntity
  8
0
100
AcDbLine
 62
7
  6
CONTINUOUS
 10
-74.0227750813
 20
52.0295134962
 11
-66.1227750813
 21
52.0295134962
  0
LINE
  5
222
100
AcDbEntity
  8
0
100
AcDbLine
 62
7
  6
CONTINUOUS
 10
-62.2227750813
 20
52.0295134962
 11
-58.2227750813
 21
52.0295134962
  0
LINE
  5
223
100
AcDbEntity
  8
0
100
AcDbLine
 62
7
  6
CONTINUOUS
 10
-58.2227750813
 20
52.0295134962
 11
-66.1227750813
 21
52.0295134962
  0
INSERT
  5
224
100
AcDbEntity
  8
0
100
AcDbBlockReference
 62
7
  6
CONTINUOUS
  2
_FILLED
 10
-70.0227750813
 20
52.0295134962
 41
3.0
 42
3.0
 43
3.0
  0
INSERT
  5
225
100
AcDbEntity
  8
0
100
AcDbBlockReference
 62
7
  6
CONTINUOUS
  2
_FILLED
 10
-62.2227750813
 20
52.0295134962
 41
3.0
 42
3.0
 43
3.0
 50
180.0
  0
ENDBLK
  5
226
100
AcDbEntity
  8
0
  6
BYBLOCK
 62
0
100
AcDbBlockEnd
  0
BLOCK
  5
227
100
AcDbEntity
  8
0
100
AcDbBlockBegin
 62
7
  6
CONTINUOUS
  2
*D1
 70
65
 10
0.0
 20
0.0
  3
*D1
  1

  0
LINE
  5
228
100
AcDbEntity
  8
0
100
AcDbLine
 62
7
  6
CONTINUOUS
 10
-45.0
 20
43.8778640053
 11
-45.0
 21
53.4743809263
  0
LINE
  5
229
100
AcDbEntity
  8
0
100
AcDbLine
 62
7
  6
CONTINUOUS
 10
45.0
 20
43.7287902509
 11
45.0
 21
53.4743809263
  0
LINE
  5
22A
100
AcDbEntity
  8
0
100
AcDbLine
 62
7
  6
CONTINUOUS
 10
-45.0
 20
51.9743809263
 11
0.0
 21
51.9743809263
  0
LINE
  5
22B
100
AcDbEntity
  8
0
100
AcDbLine
 62
7
  6
CONTINUOUS
 10
45.0
 20
51.9743809263
 11
0.0
 21
51.9743809263
  0
INSERT
  5
22C
100
AcDbEntity
  8
0
100
AcDbBlockReference
 62
7
  6
CONTINUOUS
  2
_FILLED
 10
-45.0
 20
51.9743809263
 41
3.0
 42
3.0
 43
3.0
 50
180.0
  0
INSERT
  5
22D
100
AcDbEntity
  8
0
100
AcDbBlockReference
 62
7
  6
CONTINUOUS
  2
_FILLED
 10
45.0
 20
51.9743809263
 41
3.0
 42
3.0
 43
3.0
  0
ENDBLK
  5
22E
100
AcDbEntity
  8
0
  6
BYBLOCK
 62
0
100
AcDbBlockEnd
  0
BLOCK
  5
22F
100
AcDbEntity
  8
0
100
AcDbBlockBegin
 62
7
  6
CONTINUOUS
  2
*D2
 70
65
 10
0.0
 20
0.0
  3
*D2
  1

  0
LINE
  5
230
100
AcDbEntity
  8
0
100
AcDbLine
 62
7
  6
CONTINUOUS
 10
44.7474244702
 20
-44.0
 11
56.6579172196
 21
-44.0
  0
LINE
  5
231
100
AcDbEntity
  8
0
100
AcDbLine
 62
7
  6
CONTINUOUS
 10
44.6915218122
 20
44.0
 11
56.6579172196
 21
44.0
  0
LINE
  5
232
100
AcDbEntity
  8
0
100
AcDbLine
 62
7
  6
CONTINUOUS
 10
55.1579172196
 20
-44.0
 11
55.1579172196
 21
0.0
  0
LINE
  5
233
100
AcDbEntity
  8
0
100
AcDbLine
 62
7
  6
CONTINUOUS
 10
55.1579172196
 20
44.0
 11
55.1579172196
 21
0.0
  0
INSERT
  5
234
100
AcDbEntity
  8
0
100
AcDbBlockReference
 62
7
  6
CONTINUOUS
  2
_FILLED
 10
55.1579172196
 20
-44.0
 41
3.0
 42
3.0
 43
3.0
 50
270.0
  0
INSERT
  5
235
100
AcDbEntity
  8
0
100
AcDbBlockReference
 62
7
  6
CONTINUOUS
  2
_FILLED
 10
55.1579172196
 20
44.0
 41
3.0
 42
3.0
 43
3.0
 50
90.0
  0
ENDBLK
  5
236
100
AcDbEntity
  8
0
  6
BYBLOCK
 62
0
100
AcDbBlockEnd
  0
ENDSEC
  0
SECTION
  2
ENTITIES
  0
DIMENSION
  5
237
100
AcDbEntity
  8
0
100
AcDbDimension
 62
7
  6
CONTINUOUS
  2
*D0
 10
-62.2227750813
 20
52.0295134962
 11
-69.3370607956
 21
52.0295134962
 70
160
 71
2
 72
2
 41
0.9
 42
7.8
  3
DIMSTYLE_1
100
AcDbAlignedDimension
 13
-70.0227750813
 23
43.5662819964
 14
-62.2227750813
 24
42.8872487861
100
AcDbRotatedDimension
  0
DIMENSION
  5
238
100
AcDbEntity
  8
0
100
AcDbDimension
 62
7
  6
CONTINUOUS
  2
*D1
 10
45.0
 20
51.9743809263
 11
-2.3571428571
 21
51.9743809263
 70
160
 71
2
 72
2
 41
0.9
 42
90.0
  3
DIMSTYLE_1
100
AcDbAlignedDimension
 13
-45.0
 23
43.3778640053
 14
45.0
 24
43.2287902509
100
AcDbRotatedDimension
  0
DIMENSION
  5
239
100
AcDbEntity
  8
0
100
AcDbDimension
 62
7
  6
CONTINUOUS
  2
*D2
 10
55.1579172196
 20
44.0
 11
55.1579172196
 21
-2.3571428571
 70
160
 71
2
 72
2
 41
0.9
 42
88.0
  3
DIMSTYLE_1
100
AcDbAlignedDimension
 13
44.2474244702
 23
-44.0
 14
44.1915218122
 24
44.0
 50
90.0
100
AcDbRotatedDimension
  0
LWPOLYLINE
  5
23A
100
AcDbEntity
  8
RACCORDO
100
AcDbPolyline
 62
250
  6
CONTINUOUS
 90
28
 70
0
 10
-44.4207021581
 20
-42.4220726233
 10
-44.4187453678
 20
-42.4813718933
 10
-44.4136410235
 20
-42.5395084621
 10
-44.4053891252
 20
-42.5964823298
 10
-44.3939575614
 20
-42.6522446765
 10
-44.3793784436
 20
-42.7068443221
 10
-44.3617481057
 20
-42.7604277258
 10
-44.3410139882
 20
-42.8132417555
 10
-44.3172286507
 20
-42.8650395433
 10
-44.2906461056
 20
-42.9152269448
 10
-44.2612511516
 20
-42.9637499386
 10
-44.2290589901
 20
-43.0106625461
 10
-44.1943692372
 20
-43.0555326872
 10
-44.1571415243
 20
-43.0983560345
 10
-44.1174162199
 20
-43.1391369153
 10
-44.0756140465
 20
-43.1774562312
 10
-44.0319236334
 20
-43.2131979568
 10
-43.9861563513
 20
-43.2464781176
 10
-43.9381670339
 20
-43.2772256913
 10
-43.8877965119
 20
-43.305593974
 10
-43.8352039546
 20
-43.3314296696
 10
-43.7807217035
 20
-43.354201867
 10
-43.7241915278
 20
-43.373909063
 10
-43.6657716582
 20
-43.3905527608
 10
-43.6062691296
 20
-43.4036065594
 10
-43.5459529533
 20
-43.4128949916
 10
-43.4845541179
 20
-43.4185935245
 10
-43.4220726233
 20
-43.4207021581
  0
LWPOLYLINE
  5
23B
100
AcDbEntity
  8
RACCORDO
100
AcDbPolyline
 62
250
  6
CONTINUOUS
 90
28
 70
0
 10
-44.9200169255
 20
-42.4220726233
 10
-44.9173284538
 20
-42.5105047517
 10
-44.9095386645
 20
-42.5977314761
 10
-44.8968301063
 20
-42.6834699006
 10
-44.8794773181
 20
-42.7671261349
 10
-44.857645618
 20
-42.8487975793
 10
-44.831204236
 20
-42.9292236702
 10
-44.8000647498
 20
-43.0085011949
 10
-44.7644191659
 20
-43.0859929707
 10
-44.7244369347
 20
-43.1613081929
 10
-44.680284173
 20
-43.2341540373
 10
-44.6320799185
 20
-43.3043529638
 10
-44.5799614955
 20
-43.3717066705
 10
-44.5240720262
 20
-43.4360227431
 10
-44.4646114283
 20
-43.4970646387
 10
-44.4018243822
 20
-43.5545876592
 10
-44.3361930959
 20
-43.6082041115
 10
-44.2676862968
 20
-43.65799037
 10
-44.195705325
 20
-43.7042933118
 10
-44.1201485347
 20
-43.7469666858
 10
-44.041428191
 20
-43.7855702802
 10
-43.9596472268
 20
-43.8198674687
 10
-43.8748619663
 20
-43.8496254491
 10
-43.7874705511
 20
-43.8744982252
 10
-43.6981391689
 20
-43.8941453269
 10
-43.6073090554
 20
-43.9083697376
 10
-43.515173674
 20
-43.9170415437
 10
-43.4220726233
 20
-43.9200169255
  0
LINE
  5
23C
100
AcDbEntity
  8
RACCORDO
100
AcDbLine
 62
7
  6
CONTINUOUS
 10
-45.0
 20
42.5020556979
 11
-45.0
 21
-42.5020556979
  0
LINE
  5
23D
100
AcDbEntity
  8
RACCORDO
100
AcDbLine
 62
250
  6
CONTINUOUS
 10
-44.9200169255
 20
42.4220726233
 11
-44.9200169255
 21
-42.4220726233
  0
LINE
  5
23E
100
AcDbEntity
  8
RACCORDO
100
AcDbLine
 62
250
  6
CONTINUOUS
 10
-44.4207021581
 20
42.4220726233
 11
-44.4207021581
 21
-42.4220726233
  0
LINE
  5
23F
100
AcDbEntity
  8
RACCORDO
100
AcDbLine
 62
250
  6
CONTINUOUS
 10
-43.4220726233
 20
-43.4207021581
 11
-43.4220726233
 21
-43.9200169255
  0
LINE
  5
240
100
AcDbEntity
  8
RACCORDO
100
AcDbLine
 62
250
  6
CONTINUOUS
 10
-43.4220726233
 20
43.4207021581
 11
-43.4220726233
 21
43.9200169255
  0
LWPOLYLINE
  5
241
100
AcDbEntity
  8
RACCORDO
100
AcDbPolyline
 62
250
  6
CONTINUOUS
 90
28
 70
0
 10
43.4220726233
 20
-43.4207021581
 10
43.4813718933
 20
-43.4187453678
 10
43.5395084621
 20
-43.4136410235
 10
43.5964823298
 20
-43.4053891252
 10
43.6522446765
 20
-43.3939575614
 10
43.7068443221
 20
-43.3793784436
 10
43.7604277258
 20
-43.3617481057
 10
43.8132417555
 20
-43.3410139882
 10
43.8650395433
 20
-43.3172286507
 10
43.9152269448
 20
-43.2906461056
 10
43.9637499386
 20
-43.2612511516
 10
44.0106625461
 20
-43.2290589901
 10
44.0555326872
 20
-43.1943692372
 10
44.0983560345
 20
-43.1571415243
 10
44.1391369153
 20
-43.1174162199
 10
44.1774562312
 20
-43.0756140465
 10
44.2131979568
 20
-43.0319236334
 10
44.2464781176
 20
-42.9861563513
 10
44.2772256913
 20
-42.9381670339
 10
44.305593974
 20
-42.8877965119
 10
44.3314296696
 20
-42.8352039546
 10
44.354201867
 20
-42.7807217035
 10
44.373909063
 20
-42.7241915278
 10
44.3905527608
 20
-42.6657716582
 10
44.4036065594
 20
-42.6062691296
 10
44.4128949916
 20
-42.5459529533
 10
44.4185935245
 20
-42.4845541179
 10
44.4207021581
 20
-42.4220726233
  0
LWPOLYLINE
  5
242
100
AcDbEntity
  8
RACCORDO
100
AcDbPolyline
 62
250
  6
CONTINUOUS
 90
28
 70
0
 10
43.4220726233
 20
-43.9200169255
 10
43.5105047517
 20
-43.9173284538
 10
43.5977314761
 20
-43.9095386645
 10
43.6834699006
 20
-43.8968301063
 10
43.7671261349
 20
-43.8794773181
 10
43.8487975793
 20
-43.857645618
 10
43.9292236702
 20
-43.831204236
 10
44.0085011949
 20
-43.8000647498
 10
44.0859929707
 20
-43.7644191659
 10
44.1613081929
 20
-43.7244369347
 10
44.2341540373
 20
-43.680284173
 10
44.3043529638
 20
-43.6320799185
 10
44.3717066705
 20
-43.5799614955
 10
44.4360227431
 20
-43.5240720262
 10
44.4970646387
 20
-43.4646114283
 10
44.5545876592
 20
-43.4018243822
 10
44.6082041115
 20
-43.3361930959
 10
44.65799037
 20
-43.2676862968
 10
44.7042933118
 20
-43.195705325
 10
44.7469666858
 20
-43.1201485347
 10
44.7855702802
 20
-43.041428191
 10
44.8198674687
 20
-42.9596472268
 10
44.8496254491
 20
-42.8748619663
 10
44.8744982252
 20
-42.7874705511
 10
44.8941453269
 20
-42.6981391689
 10
44.9083697376
 20
-42.6073090554
 10
44.9170415437
 20
-42.515173674
 10
44.9200169255
 20
-42.4220726233
  0
LINE
  5
243
100
AcDbEntity
  8
RACCORDO
100
AcDbLine
 62
7
  6
CONTINUOUS
 10
-43.5020556979
 20
-44.0
 11
43.5020556979
 21
-44.0
  0
LINE
  5
244
100
AcDbEntity
  8
RACCORDO
100
AcDbLine
 62
250
  6
CONTINUOUS
 10
-43.4220726233
 20
-43.9200169255
 11
43.4220726233
 21
-43.9200169255
  0
LINE
  5
245
100
AcDbEntity
  8
RACCORDO
100
AcDbLine
 62
250
  6
CONTINUOUS
 10
-43.4220726233
 20
-43.4207021581
 11
43.4220726233
 21
-43.4207021581
  0
LINE
  5
246
100
AcDbEntity
  8
RACCORDO
100
AcDbLine
 62
250
  6
CONTINUOUS
 10
44.4207021581
 20
-42.4220726233
 11
44.9200169255
 21
-42.4220726233
  0
LINE
  5
247
100
AcDbEntity
  8
RACCORDO
100
AcDbLine
 62
250
  6
CONTINUOUS
 10
-44.4207021581
 20
-42.4220726233
 11
-44.9200169255
 21
-42.4220726233
  0
LWPOLYLINE
  5
248
100
AcDbEntity
  8
0
100
AcDbPolyline
 62
7
  6
CONTINUOUS
 90
10
 70
0
 43
0.3500000006
 10
-1.9285714102
 20
52.7243790436
 10
-1.0714285848
 20
53.5815260468
 10
-0.8571428254
 20
54.4386685181
 10
-0.8571428254
 20
55.2958109894
 10
-1.2857142735
 20
55.7243799591
 10
-1.9285714102
 20
55.7243799591
 10
-2.3571427875
 20
55.2958109894
 10
-2.3571427875
 20
54.4386685181
 10
-1.9285714102
 20
54.0100950165
 10
-1.0000000219
 20
54.0100950165
  0
LINE
  5
249
100
AcDbEntity
  8
RACCORDO
100
AcDbLine
 62
250
  6
CONTINUOUS
 10
22.2908771007
 20
-27.1407552568
 11
-22.2908771007
 21
-27.1407552568
  0
LINE
  5
24A
100
AcDbEntity
  8
RACCORDO
100
AcDbLine
 62
250
  6
CONTINUOUS
 10
22.2908771007
 20
-26.8408009483
 11
-22.2908771007
 21
-26.8408009483
  0
LINE
  5
24B
100
AcDbEntity
  8
RACCORDO
100
AcDbLine
 62
7
  6
CONTINUOUS
 10
-22.2750761524
 20
-26.825
 11
22.2750761524
 21
-26.825
  0
LINE
  5
24C
100
AcDbEntity
  8
RACCORDO
100
AcDbLine
 62
250
  6
CONTINUOUS
 10
-23.0907552568
 20
-26.3408771007
 11
-22.7908009483
 21
-26.3408771007
  0
LINE
  5
24D
100
AcDbEntity
  8
RACCORDO
100
AcDbLine
 62
250
  6
CONTINUOUS
 10
23.0907552568
 20
-26.3408771007
 11
22.7908009483
 21
-26.3408771007
  0
LWPOLYLINE
  5
24E
100
AcDbEntity
  8
RACCORDO
100
AcDbPolyline
 62
250
  6
CONTINUOUS
 90
25
 70
0
 10
-22.2908770981
 20
-26.8408009457
 10
-22.3234438478
 20
-26.8397455731
 10
-22.355751686
 20
-26.8365874435
 10
-22.3876668476
 20
-26.8313632483
 10
-22.4190145094
 20
-26.8241299539
 10
-22.4497165749
 20
-26.8149340727
 10
-22.4797835006
 20
-26.8037824944
 10
-22.5091366314
 20
-26.7906951053
 10
-22.5376044198
 20
-26.7757388578
 10
-22.5650556218
 20
-26.758979825
 10
-22.5913841451
 20
-26.7404803161
 10
-22.6164715556
 20
-26.7203210469
 10
-22.6401815347
 20
-26.6986155596
 10
-22.662399119
 20
-26.6754833774
 10
-22.6830631098
 20
-26.6510034552
 10
-22.7021251223
 20
-26.625236531
 10
-22.7194267429
 20
-26.5984160256
 10
-22.7349884388
 20
-26.5705311845
 10
-22.7489473052
 20
-26.5412300406
 10
-22.7612182413
 20
-26.5104108736
 10
-22.7715621371
 20
-26.4783422813
 10
-22.7798165764
 20
-26.4452079495
 10
-22.785850265
 20
-26.4111638482
 10
-22.7895491013
 20
-26.3763332928
 10
-22.790800945
 20
-26.3408770975
  0
LWPOLYLINE
  5
24F
100
AcDbEntity
  8
RACCORDO
100
AcDbPolyline
 62
250
  6
CONTINUOUS
 90
25
 70
0
 10
-22.2908771007
 20
-27.1407552568
 10
-22.3433198219
 20
-27.1389379909
 10
-22.3949325118
 20
-27.1338960376
 10
-22.4457151703
 20
-27.1256293968
 10
-22.4957964618
 20
-27.1140834709
 10
-22.545047722
 20
-27.0993128575
 10
-22.5930829579
 20
-27.0814813495
 10
-22.6399691421
 20
-27.0605451368
 10
-22.6856393019
 20
-27.0365480294
 10
-22.729506526
 20
-27.0097852511
 10
-22.7715550903
 20
-26.9802042809
 10
-22.8118007188
 20
-26.9478576396
 10
-22.8497036734
 20
-26.9131981132
 10
-22.8851989538
 20
-26.8762351651
 10
-22.9183515602
 20
-26.8369593318
 10
-22.9488167548
 20
-26.7957950088
 10
-22.9765288788
 20
-26.7529658981
 10
-23.0015535909
 20
-26.7082482977
 10
-23.0237431291
 20
-26.6613954963
 10
-23.0432812364
 20
-26.6121055882
 10
-23.0599841696
 20
-26.5606804791
 10
-23.0731529375
 20
-26.5077791752
 10
-23.0825545427
 20
-26.4536213452
 10
-23.0884219825
 20
-26.3979873204
 10
-23.0907552568
 20
-26.3408771007
  0
LINE
  5
250
100
AcDbEntity
  8
RACCORDO
100
AcDbLine
 62
250
  6
CONTINUOUS
 10
-23.0907552568
 20
-26.3408771007
 11
-23.0907552568
 21
26.3408771007
  0
LINE
  5
251
100
AcDbEntity
  8
RACCORDO
100
AcDbLine
 62
250
  6
CONTINUOUS
 10
-22.7908009483
 20
-26.3408771007
 11
-22.7908009483
 21
26.3408771007
  0
LINE
  5
252
100
AcDbEntity
  8
RACCORDO
100
AcDbLine
 62
7
  6
CONTINUOUS
 10
-22.775
 20
26.3250761524
 11
-22.775
 21
-26.3250761524
  0
LINE
  5
253
100
AcDbEntity
  8
RACCORDO
100
AcDbLine
 62
250
  6
CONTINUOUS
 10
-22.2908771007
 20
27.1407552568
 11
-22.2908771007
 21
26.8408009483
  0
LINE
  5
254
100
AcDbEntity
  8
RACCORDO
100
AcDbLine
 62
250
  6
CONTINUOUS
 10
-22.2908771007
 20
-27.1407552568
 11
-22.2908771007
 21
-26.8408009483
  0
LWPOLYLINE
  5
255
100
AcDbEntity
  8
RACCORDO
100
AcDbPolyline
 62
250
  6
CONTINUOUS
 90
25
 70
0
 10
-22.7908009457
 20
26.3408770981
 10
-22.7897455731
 20
26.3734438478
 10
-22.7865874435
 20
26.405751686
 10
-22.7813632483
 20
26.4376668476
 10
-22.7741299539
 20
26.4690145094
 10
-22.7649340727
 20
26.4997165749
 10
-22.7537824944
 20
26.5297835006
 10
-22.7406951053
 20
26.5591366314
 10
-22.7257388578
 20
26.5876044198
 10
-22.708979825
 20
26.6150556218
 10
-22.6904803161
 20
26.6413841451
 10
-22.6703210469
 20
26.6664715556
 10
-22.6486155596
 20
26.6901815347
 10
-22.6254833774
 20
26.712399119
 10
-22.6010034552
 20
26.7330631098
 10
-22.575236531
 20
26.7521251223
 10
-22.5484160256
 20
26.7694267429
 10
-22.5205311845
 20
26.7849884388
 10
-22.4912300406
 20
26.7989473052
 10
-22.4604108736
 20
26.8112182413
 10
-22.4283422813
 20
26.8215621371
 10
-22.3952079495
 20
26.8298165764
 10
-22.3611638482
 20
26.835850265
 10
-22.3263332928
 20
26.8395491013
 10
-22.2908770975
 20
26.840800945
  0
LWPOLYLINE
  5
256
100
AcDbEntity
  8
RACCORDO
100
AcDbPolyline
 62
250
  6
CONTINUOUS
 90
25
 70
0
 10
-23.0907552568
 20
26.3408771007
 10
-23.0889379909
 20
26.3933198219
 10
-23.0838960376
 20
26.4449325118
 10
-23.0756293968
 20
26.4957151703
 10
-23.0640834709
 20
26.5457964618
 10
-23.0493128575
 20
26.595047722
 10
-23.0314813495
 20
26.6430829579
 10
-23.0105451368
 20
26.6899691421
 10
-22.9865480294
 20
26.7356393019
 10
-22.9597852511
 20
26.779506526
 10
-22.9302042809
 20
26.8215550903
 10
-22.8978576396
 20
26.8618007188
 10
-22.8631981132
 20
26.8997036734
 10
-22.8262351651
 20
26.9351989538
 10
-22.7869593318
 20
26.9683515602
 10
-22.7457950088
 20
26.9988167548
 10
-22.7029658981
 20
27.0265288788
 10
-22.6582482977
 20
27.0515535909
 10
-22.6113954963
 20
27.0737431291
 10
-22.5621055882
 20
27.0932812364
 10
-22.5106804791
 20
27.1099841696
 10
-22.4577791752
 20
27.1231529375
 10
-22.4036213452
 20
27.1325545427
 10
-22.3479873204
 20
27.1384219825
 10
-22.2908771007
 20
27.1407552568
  0
LWPOLYLINE
  5
257
100
AcDbEntity
  8
0
100
AcDbPolyline
 62
7
  6
CONTINUOUS
 90
13
 70
0
 43
0.3500000006
 10
0.0
 20
53.5815260468
 10
0.0
 20
54.8672374878
 10
0.2142857063
 20
55.2958109894
 10
0.6428571367
 20
55.7243799591
 10
0.8571428254
 20
55.7243799591
 10
1.2857142735
 20
55.2958109894
 10
1.5000000329
 20
54.8672374878
 10
1.5000000329
 20
53.5815260468
 10
1.2857142735
 20
53.1529525452
 10
0.8571428254
 20
52.7243790436
 10
0.6428571367
 20
52.7243790436
 10
0.2142857063
 20
53.1529525452
 10
0.0
 20
53.5815260468
  0
LINE
  5
258
100
AcDbEntity
  8
RACCORDO
100
AcDbLine
 62
250
  6
CONTINUOUS
 10
22.2908771007
 20
26.8408009483
 11
22.2750761524
 21
26.825
  0
LINE
  5
259
100
AcDbEntity
  8
RACCORDO
100
AcDbLine
 62
250
  6
CONTINUOUS
 10
22.7908009483
 20
26.3408771007
 11
22.775
 21
26.3250761524
  0
LINE
  5
25A
100
AcDbEntity
  8
RACCORDO
100
AcDbLine
 62
250
  6
CONTINUOUS
 10
-44.9200169255
 20
-42.4220726233
 11
-45.0
 21
-42.5020556979
  0
LINE
  5
25B
100
AcDbEntity
  8
RACCORDO
100
AcDbLine
 62
250
  6
CONTINUOUS
 10
43.4220726233
 20
43.9200169255
 11
43.5020556979
 21
44.0
  0
LINE
  5
25C
100
AcDbEntity
  8
RACCORDO
100
AcDbLine
 62
250
  6
CONTINUOUS
 10
-43.4220726233
 20
-43.9200169255
 11
-43.5020556979
 21
-44.0
  0
LWPOLYLINE
  5
25D
100
AcDbEntity
  8
0
100
AcDbPolyline
 62
7
  6
CONTINUOUS
 90
4
 70
0
 43
0.3500000006
 10
53.9793466644
 20
-2.3571432495
 10
53.1222041931
 20
-2.3571432495
 10
52.6936306915
 20
-1.9285708809
 10
52.6936306915
 20
-1.2857140274
  0
LWPOLYLINE
  5
25E
100
AcDbEntity
  8
0
100
AcDbPolyline
 62
7
  6
CONTINUOUS
 90
4
 70
0
 43
0.3500000006
 10
53.9793466644
 20
-0.0000003204
 10
53.1222041931
 20
-0.0000003204
 10
52.6936306915
 20
0.4285709152
 10
52.6936306915
 20
1.0714289017
  0
LINE
  5
25F
100
AcDbEntity
  8
RACCORDO
100
AcDbLine
 62
250
  6
CONTINUOUS
 10
22.2908771007
 20
-26.8408009483
 11
22.2750761524
 21
-26.825
  0
LINE
  5
260
100
AcDbEntity
  8
RACCORDO
100
AcDbLine
 62
250
  6
CONTINUOUS
 10
22.7908009483
 20
-26.3408771007
 11
22.775
 21
-26.3250761524
  0
LINE
  5
261
100
AcDbEntity
  8
RACCORDO
100
AcDbLine
 62
250
  6
CONTINUOUS
 10
-44.9200169255
 20
42.4220726233
 11
-45.0
 21
42.5020556979
  0
LINE
  5
262
100
AcDbEntity
  8
RACCORDO
100
AcDbLine
 62
250
  6
CONTINUOUS
 10
43.4220726233
 20
-43.9200169255
 11
43.5020556979
 21
-44.0
  0
LINE
  5
263
100
AcDbEntity
  8
RACCORDO
100
AcDbLine
 62
250
  6
CONTINUOUS
 10
-43.4220726233
 20
43.9200169255
 11
-43.5020556979
 21
44.0
  0
LINE
  5
264
100
AcDbEntity
  8
RACCORDO
100
AcDbLine
 62
250
  6
CONTINUOUS
 10
44.9200169255
 20
42.4220726233
 11
45.0
 21
42.5020556979
  0
LINE
  5
265
100
AcDbEntity
  8
RACCORDO
100
AcDbLine
 62
250
  6
CONTINUOUS
 10
-22.7908009483
 20
-26.3408771007
 11
-22.775
 21
-26.3250761524
  0
LINE
  5
266
100
AcDbEntity
  8
RACCORDO
100
AcDbLine
 62
250
  6
CONTINUOUS
 10
-22.2908771007
 20
-26.8408009483
 11
-22.2750761524
 21
-26.825
  0
LINE
  5
267
100
AcDbEntity
  8
RACCORDO
100
AcDbLine
 62
250
  6
CONTINUOUS
 10
44.9200169255
 20
-42.4220726233
 11
45.0
 21
-42.5020556979
  0
LINE
  5
268
100
AcDbEntity
  8
RACCORDO
100
AcDbLine
 62
250
  6
CONTINUOUS
 10
-22.7908009483
 20
26.3408771007
 11
-22.775
 21
26.3250761524
  0
LINE
  5
269
100
AcDbEntity
  8
RACCORDO
100
AcDbLine
 62
250
  6
CONTINUOUS
 10
-22.2908771007
 20
26.8408009483
 11
-22.2750761524
 21
26.825
  0
LINE
  5
26A
100
AcDbEntity
  8
RACCORDO
100
AcDbLine
 62
250
  6
CONTINUOUS
 10
22.2908771007
 20
27.1407552568
 11
22.2908771007
 21
26.8408009483
  0
LINE
  5
26B
100
AcDbEntity
  8
RACCORDO
100
AcDbLine
 62
250
  6
CONTINUOUS
 10
22.2908771007
 20
-27.1407552568
 11
22.2908771007
 21
-26.8408009483
  0
LINE
  5
26C
100
AcDbEntity
  8
RACCORDO
100
AcDbLine
 62
7
  6
CONTINUOUS
 10
22.775
 20
26.3250761524
 11
22.775
 21
-26.3250761524
  0
LINE
  5
26D
100
AcDbEntity
  8
RACCORDO
100
AcDbLine
 62
250
  6
CONTINUOUS
 10
22.7908009483
 20
26.3408771007
 11
22.7908009483
 21
-26.3408771007
  0
LINE
  5
26E
100
AcDbEntity
  8
RACCORDO
100
AcDbLine
 62
250
  6
CONTINUOUS
 10
23.0907552568
 20
26.3408771007
 11
23.0907552568
 21
-26.3408771007
  0
LWPOLYLINE
  5
26F
100
AcDbEntity
  8
RACCORDO
100
AcDbPolyline
 62
250
  6
CONTINUOUS
 90
25
 70
0
 10
22.7908009457
 20
-26.3408770981
 10
22.7897455731
 20
-26.3734438478
 10
22.7865874435
 20
-26.405751686
 10
22.7813632483
 20
-26.4376668476
 10
22.7741299539
 20
-26.4690145094
 10
22.7649340727
 20
-26.4997165749
 10
22.7537824944
 20
-26.5297835006
 10
22.7406951053
 20
-26.5591366314
 10
22.7257388578
 20
-26.5876044198
 10
22.708979825
 20
-26.6150556218
 10
22.6904803161
 20
-26.6413841451
 10
22.6703210469
 20
-26.6664715556
 10
22.6486155596
 20
-26.6901815347
 10
22.6254833774
 20
-26.712399119
 10
22.6010034552
 20
-26.7330631098
 10
22.575236531
 20
-26.7521251223
 10
22.5484160256
 20
-26.7694267429
 10
22.5205311845
 20
-26.7849884388
 10
22.4912300406
 20
-26.7989473052
 10
22.4604108736
 20
-26.8112182413
 10
22.4283422813
 20
-26.8215621371
 10
22.3952079495
 20
-26.8298165764
 10
22.3611638482
 20
-26.835850265
 10
22.3263332928
 20
-26.8395491013
 10
22.2908770975
 20
-26.840800945
  0
LWPOLYLINE
  5
270
100
AcDbEntity
  8
RACCORDO
100
AcDbPolyline
 62
250
  6
CONTINUOUS
 90
25
 70
0
 10
23.0907552568
 20
-26.3408771007
 10
23.0889379909
 20
-26.3933198219
 10
23.0838960376
 20
-26.4449325118
 10
23.0756293968
 20
-26.4957151703
 10
23.0640834709
 20
-26.5457964618
 10
23.0493128575
 20
-26.595047722
 10
23.0314813495
 20
-26.6430829579
 10
23.0105451368
 20
-26.6899691421
 10
22.9865480294
 20
-26.7356393019
 10
22.9597852511
 20
-26.779506526
 10
22.9302042809
 20
-26.8215550903
 10
22.8978576396
 20
-26.8618007188
 10
22.8631981132
 20
-26.8997036734
 10
22.8262351651
 20
-26.9351989538
 10
22.7869593318
 20
-26.9683515602
 10
22.7457950088
 20
-26.9988167548
 10
22.7029658981
 20
-27.0265288788
 10
22.6582482977
 20
-27.0515535909
 10
22.6113954963
 20
-27.0737431291
 10
22.5621055882
 20
-27.0932812364
 10
22.5106804791
 20
-27.1099841696
 10
22.4577791752
 20
-27.1231529375
 10
22.4036213452
 20
-27.1325545427
 10
22.3479873204
 20
-27.1384219825
 10
22.2908771007
 20
-27.1407552568
  0
LINE
  5
271
100
AcDbEntity
  8
RACCORDO
100
AcDbLine
 62
250
  6
CONTINUOUS
 10
-23.0907552568
 20
26.3408771007
 11
-22.7908009483
 21
26.3408771007
  0
LINE
  5
272
100
AcDbEntity
  8
RACCORDO
100
AcDbLine
 62
250
  6
CONTINUOUS
 10
23.0907552568
 20
26.3408771007
 11
22.7908009483
 21
26.3408771007
  0
LINE
  5
273
100
AcDbEntity
  8
RACCORDO
100
AcDbLine
 62
7
  6
CONTINUOUS
 10
22.2750761524
 20
26.825
 11
-22.2750761524
 21
26.825
  0
LINE
  5
274
100
AcDbEntity
  8
RACCORDO
100
AcDbLine
 62
250
  6
CONTINUOUS
 10
-22.2908771007
 20
26.8408009483
 11
22.2908771007
 21
26.8408009483
  0
LINE
  5
275
100
AcDbEntity
  8
RACCORDO
100
AcDbLine
 62
250
  6
CONTINUOUS
 10
-22.2908771007
 20
27.1407552568
 11
22.2908771007
 21
27.1407552568
  0
LWPOLYLINE
  5
276
100
AcDbEntity
  8
RACCORDO
100
AcDbPolyline
 62
250
  6
CONTINUOUS
 90
25
 70
0
 10
22.2908770981
 20
26.8408009457
 10
22.3234438478
 20
26.8397455731
 10
22.355751686
 20
26.8365874435
 10
22.3876668476
 20
26.8313632483
 10
22.4190145094
 20
26.8241299539
 10
22.4497165749
 20
26.8149340727
 10
22.4797835006
 20
26.8037824944
 10
22.5091366314
 20
26.7906951053
 10
22.5376044198
 20
26.7757388578
 10
22.5650556218
 20
26.758979825
 10
22.5913841451
 20
26.7404803161
 10
22.6164715556
 20
26.7203210469
 10
22.6401815347
 20
26.6986155596
 10
22.662399119
 20
26.6754833774
 10
22.6830631098
 20
26.6510034552
 10
22.7021251223
 20
26.625236531
 10
22.7194267429
 20
26.5984160256
 10
22.7349884388
 20
26.5705311845
 10
22.7489473052
 20
26.5412300406
 10
22.7612182413
 20
26.5104108736
 10
22.7715621371
 20
26.4783422813
 10
22.7798165764
 20
26.4452079495
 10
22.785850265
 20
26.4111638482
 10
22.7895491013
 20
26.3763332928
 10
22.790800945
 20
26.3408770975
  0
LWPOLYLINE
  5
277
100
AcDbEntity
  8
RACCORDO
100
AcDbPolyline
 62
250
  6
CONTINUOUS
 90
25
 70
0
 10
22.2908771007
 20
27.1407552568
 10
22.3433198219
 20
27.1389379909
 10
22.3949325118
 20
27.1338960376
 10
22.4457151703
 20
27.1256293968
 10
22.4957964618
 20
27.1140834709
 10
22.545047722
 20
27.0993128575
 10
22.5930829579
 20
27.0814813495
 10
22.6399691421
 20
27.0605451368
 10
22.6856393019
 20
27.0365480294
 10
22.729506526
 20
27.0097852511
 10
22.7715550903
 20
26.9802042809
 10
22.8118007188
 20
26.9478576396
 10
22.8497036734
 20
26.9131981132
 10
22.8851989538
 20
26.8762351651
 10
22.9183515602
 20
26.8369593318
 10
22.9488167548
 20
26.7957950088
 10
22.9765288788
 20
26.7529658981
 10
23.0015535909
 20
26.7082482977
 10
23.0237431291
 20
26.6613954963
 10
23.0432812364
 20
26.6121055882
 10
23.0599841696
 20
26.5606804791
 10
23.0731529375
 20
26.5077791752
 10
23.0825545427
 20
26.4536213452
 10
23.0884219825
 20
26.3979873204
 10
23.0907552568
 20
26.3408771007
  0
LWPOLYLINE
  5
278
100
AcDbEntity
  8
0
100
AcDbPolyline
 62
7
  6
CONTINUOUS
 90
13
 70
0
 43
0.3500000006
 10
52.6936306915
 20
0.4285709152
 10
52.4793462067
 20
0.1428575134
 10
51.8364882202
 20
0.1428575134
 10
51.4079192505
 20
0.4285709152
 10
51.4079192505
 20
1.0714289017
 10
51.8364882202
 20
1.3571423035
 10
52.4793462067
 20
1.3571423035
 10
52.6936306915
 20
1.0714289017
 10
53.1222041931
 20
1.5000001373
 10
53.9793466644
 20
1.5000001373
 10
54.4079156342
 20
1.0714289017
 10
54.4079156342
 20
0.4285709152
 10
53.9793466644
 20
-0.0000003204
  0
LINE
  5
279
100
AcDbEntity
  8
RACCORDO
100
AcDbLine
 62
250
  6
CONTINUOUS
 10
44.4207021581
 20
42.4220726233
 11
44.9200169255
 21
42.4220726233
  0
LINE
  5
27A
100
AcDbEntity
  8
RACCORDO
100
AcDbLine
 62
250
  6
CONTINUOUS
 10
-44.4207021581
 20
42.4220726233
 11
-44.9200169255
 21
42.4220726233
  0
LWPOLYLINE
  5
27B
100
AcDbEntity
  8
RACCORDO
100
AcDbPolyline
 62
250
  6
CONTINUOUS
 90
28
 70
0
 10
44.4207021581
 20
42.4220726233
 10
44.4187453678
 20
42.4813718933
 10
44.4136410235
 20
42.5395084621
 10
44.4053891252
 20
42.5964823298
 10
44.3939575614
 20
42.6522446765
 10
44.3793784436
 20
42.7068443221
 10
44.3617481057
 20
42.7604277258
 10
44.3410139882
 20
42.8132417555
 10
44.3172286507
 20
42.8650395433
 10
44.2906461056
 20
42.9152269448
 10
44.2612511516
 20
42.9637499386
 10
44.2290589901
 20
43.0106625461
 10
44.1943692372
 20
43.0555326872
 10
44.1571415243
 20
43.0983560345
 10
44.1174162199
 20
43.1391369153
 10
44.0756140465
 20
43.1774562312
 10
44.0319236334
 20
43.2131979568
 10
43.9861563513
 20
43.2464781176
 10
43.9381670339
 20
43.2772256913
 10
43.8877965119
 20
43.305593974
 10
43.8352039546
 20
43.3314296696
 10
43.7807217035
 20
43.354201867
 10
43.7241915278
 20
43.373909063
 10
43.6657716582
 20
43.3905527608
 10
43.6062691296
 20
43.4036065594
 10
43.5459529533
 20
43.4128949916
 10
43.4845541179
 20
43.4185935245
 10
43.4220726233
 20
43.4207021581
  0
LWPOLYLINE
  5
27C
100
AcDbEntity
  8
RACCORDO
100
AcDbPolyline
 62
250
  6
CONTINUOUS
 90
28
 70
0
 10
44.9200169255
 20
42.4220726233
 10
44.9173284538
 20
42.5105047517
 10
44.9095386645
 20
42.5977314761
 10
44.8968301063
 20
42.6834699006
 10
44.8794773181
 20
42.7671261349
 10
44.857645618
 20
42.8487975793
 10
44.831204236
 20
42.9292236702
 10
44.8000647498
 20
43.0085011949
 10
44.7644191659
 20
43.0859929707
 10
44.7244369347
 20
43.1613081929
 10
44.680284173
 20
43.2341540373
 10
44.6320799185
 20
43.3043529638
 10
44.5799614955
 20
43.3717066705
 10
44.5240720262
 20
43.4360227431
 10
44.4646114283
 20
43.4970646387
 10
44.4018243822
 20
43.5545876592
 10
44.3361930959
 20
43.6082041115
 10
44.2676862968
 20
43.65799037
 10
44.195705325
 20
43.7042933118
 10
44.1201485347
 20
43.7469666858
 10
44.041428191
 20
43.7855702802
 10
43.9596472268
 20
43.8198674687
 10
43.8748619663
 20
43.8496254491
 10
43.7874705511
 20
43.8744982252
 10
43.6981391689
 20
43.8941453269
 10
43.6073090554
 20
43.9083697376
 10
43.515173674
 20
43.9170415437
 10
43.4220726233
 20
43.9200169255
  0
LINE
  5
27D
100
AcDbEntity
  8
RACCORDO
100
AcDbLine
 62
250
  6
CONTINUOUS
 10
43.4220726233
 20
-43.4207021581
 11
43.4220726233
 21
-43.9200169255
  0
LINE
  5
27E
100
AcDbEntity
  8
RACCORDO
100
AcDbLine
 62
250
  6
CONTINUOUS
 10
43.4220726233
 20
43.4207021581
 11
43.4220726233
 21
43.9200169255
  0
LINE
  5
27F
100
AcDbEntity
  8
RACCORDO
100
AcDbLine
 62
250
  6
CONTINUOUS
 10
44.4207021581
 20
-42.4220726233
 11
44.4207021581
 21
42.4220726233
  0
LINE
  5
280
100
AcDbEntity
  8
RACCORDO
100
AcDbLine
 62
250
  6
CONTINUOUS
 10
44.9200169255
 20
-42.4220726233
 11
44.9200169255
 21
42.4220726233
  0
LINE
  5
281
100
AcDbEntity
  8
RACCORDO
100
AcDbLine
 62
7
  6
CONTINUOUS
 10
45.0
 20
-42.5020556979
 11
45.0
 21
42.5020556979
  0
LWPOLYLINE
  5
282
100
AcDbEntity
  8
0
100
AcDbPolyline
 62
7
  6
CONTINUOUS
 90
13
 70
0
 43
0.3500000006
 10
52.6936306915
 20
-1.9285708809
 10
52.4793462067
 20
-2.2142854156
 10
51.8364882202
 20
-2.2142854156
 10
51.4079192505
 20
-1.9285708809
 10
51.4079192505
 20
-1.2857140274
 10
51.8364882202
 20
-1.0000006256
 10
52.4793462067
 20
-1.0000006256
 10
52.6936306915
 20
-1.2857140274
 10
53.1222041931
 20
-0.8571427917
 10
53.9793466644
 20
-0.8571427917
 10
54.4079156342
 20
-1.2857140274
 10
54.4079156342
 20
-1.9285708809
 10
53.9793466644
 20
-2.3571432495
  0
LWPOLYLINE
  5
283
100
AcDbEntity
  8
RACCORDO
100
AcDbPolyline
 62
250
  6
CONTINUOUS
 90
28
 70
0
 10
-43.4220726233
 20
43.4207021581
 10
-43.4813718933
 20
43.4187453678
 10
-43.5395084621
 20
43.4136410235
 10
-43.5964823298
 20
43.4053891252
 10
-43.6522446765
 20
43.3939575614
 10
-43.7068443221
 20
43.3793784436
 10
-43.7604277258
 20
43.3617481057
 10
-43.8132417555
 20
43.3410139882
 10
-43.8650395433
 20
43.3172286507
 10
-43.9152269448
 20
43.2906461056
 10
-43.9637499386
 20
43.2612511516
 10
-44.0106625461
 20
43.2290589901
 10
-44.0555326872
 20
43.1943692372
 10
-44.0983560345
 20
43.1571415243
 10
-44.1391369153
 20
43.1174162199
 10
-44.1774562312
 20
43.0756140465
 10
-44.2131979568
 20
43.0319236334
 10
-44.2464781176
 20
42.9861563513
 10
-44.2772256913
 20
42.9381670339
 10
-44.305593974
 20
42.8877965119
 10
-44.3314296696
 20
42.8352039546
 10
-44.354201867
 20
42.7807217035
 10
-44.373909063
 20
42.7241915278
 10
-44.3905527608
 20
42.6657716582
 10
-44.4036065594
 20
42.6062691296
 10
-44.4128949916
 20
42.5459529533
 10
-44.4185935245
 20
42.4845541179
 10
-44.4207021581
 20
42.4220726233
  0
LWPOLYLINE
  5
284
100
AcDbEntity
  8
RACCORDO
100
AcDbPolyline
 62
250
  6
CONTINUOUS
 90
28
 70
0
 10
-43.4220726233
 20
43.9200169255
 10
-43.5105047517
 20
43.9173284538
 10
-43.5977314761
 20
43.9095386645
 10
-43.6834699006
 20
43.8968301063
 10
-43.7671261349
 20
43.8794773181
 10
-43.8487975793
 20
43.857645618
 10
-43.9292236702
 20
43.831204236
 10
-44.0085011949
 20
43.8000647498
 10
-44.0859929707
 20
43.7644191659
 10
-44.1613081929
 20
43.7244369347
 10
-44.2341540373
 20
43.680284173
 10
-44.3043529638
 20
43.6320799185
 10
-44.3717066705
 20
43.5799614955
 10
-44.4360227431
 20
43.5240720262
 10
-44.4970646387
 20
43.4646114283
 10
-44.5545876592
 20
43.4018243822
 10
-44.6082041115
 20
43.3361930959
 10
-44.65799037
 20
43.2676862968
 10
-44.7042933118
 20
43.195705325
 10
-44.7469666858
 20
43.1201485347
 10
-44.7855702802
 20
43.041428191
 10
-44.8198674687
 20
42.9596472268
 10
-44.8496254491
 20
42.8748619663
 10
-44.8744982252
 20
42.7874705511
 10
-44.8941453269
 20
42.6981391689
 10
-44.9083697376
 20
42.6073090554
 10
-44.9170415437
 20
42.515173674
 10
-44.9200169255
 20
42.4220726233
  0
LINE
  5
285
100
AcDbEntity
  8
RACCORDO
100
AcDbLine
 62
250
  6
CONTINUOUS
 10
43.4220726233
 20
43.4207021581
 11
-43.4220726233
 21
43.4207021581
  0
LINE
  5
286
100
AcDbEntity
  8
RACCORDO
100
AcDbLine
 62
250
  6
CONTINUOUS
 10
43.4220726233
 20
43.9200169255
 11
-43.4220726233
 21
43.9200169255
  0
LINE
  5
287
100
AcDbEntity
  8
RACCORDO
100
AcDbLine
 62
7
  6
CONTINUOUS
 10
43.5020556979
 20
44.0
 11
-43.5020556979
 21
44.0
  0
LINE
  5
288
100
AcDbEntity
  8
RACCORDO
100
AcDbLine
 62
7
  6
CONTINUOUS
 10
-69.5489430594
 20
-43.9200169255
 11
-68.0227750813
 21
-44.0
  0
LWPOLYLINE
  5
289
100
AcDbEntity
  8
RACCORDO
100
AcDbPolyline
 62
250
  6
CONTINUOUS
 90
10
 70
0
 10
-67.6852596845
 20
-43.6941086468
 10
-67.6618244568
 20
-43.6923180342
 10
-67.6387611649
 20
-43.6877898991
 10
-67.616388391
 20
-43.6805867909
 10
-67.5950151788
 20
-43.6708082089
 10
-67.5749367648
 20
-43.6585892288
 10
-67.5564304994
 20
-43.644098636
 10
-67.5397520168
 20
-43.6275365949
 10
-67.5251317033
 20
-43.6091318833
 10
-67.5127715146
 20
-43.5891387329
  0
LINE
  5
28A
100
AcDbEntity
  8
RACCORDO
100
AcDbLine
 62
7
  6
CONTINUOUS
 10
-67.6851114753
 20
-43.6941060598
 11
-68.0227750813
 21
-43.7
  0
LINE
  5
28B
100
AcDbEntity
  8
RACCORDO
100
AcDbLine
 62
7
  6
CONTINUOUS
 10
-67.316688924
 20
-43.2250317298
 11
-62.4192846
 21
-43.1395472194
  0
LINE
  5
28C
100
AcDbEntity
  8
RACCORDO
100
AcDbLine
 62
250
  6
CONTINUOUS
 10
-67.3166889107
 20
-42.4751459582
 11
-62.4192846
 21
-42.389661448
  0
LINE
  5
28D
100
AcDbEntity
  8
RACCORDO
100
AcDbLine
 62
250
  6
CONTINUOUS
 10
-67.6852596818
 20
-42.5020556979
 11
-68.0227750813
 21
-42.5020556979
  0
LINE
  5
28E
100
AcDbEntity
  8
RACCORDO
100
AcDbLine
 62
250
  6
CONTINUOUS
 10
-67.685088267
 20
-42.4794002217
 11
-67.5128153254
 21
-42.4794002256
  0
LINE
  5
28F
100
AcDbEntity
  8
RACCORDO
100
AcDbLine
 62
250
  6
CONTINUOUS
 10
-70.0227750813
 20
-42.4220726233
 11
-69.5489430594
 21
-42.4220726233
  0
LINE
  5
290
100
AcDbEntity
  8
RACCORDO
100
AcDbLine
 62
250
  6
CONTINUOUS
 10
-62.2227750813
 20
-42.389661448
 11
-62.4192846
 21
-42.389661448
  0
LINE
  5
291
100
AcDbEntity
  8
RACCORDO
100
AcDbLine
 62
250
  6
CONTINUOUS
 10
-67.6852596818
 20
-42.5020556979
 11
-67.5127715146
 21
-42.5046218944
  0
LINE
  5
292
100
AcDbEntity
  8
RACCORDO
100
AcDbLine
 62
250
  6
CONTINUOUS
 10
-69.5489430594
 20
-42.4220726233
 11
-68.0227750813
 21
-42.5020556979
  0
LWPOLYLINE
  5
293
100
AcDbEntity
  8
RACCORDO
100
AcDbPolyline
 62
250
  6
CONTINUOUS
 90
16
 70
0
 10
-67.6852596845
 20
-43.6941086468
 10
-67.6854214983
 20
-43.6940409762
 10
-67.6855828124
 20
-43.6938280157
 10
-67.6857436267
 20
-43.6934632755
 10
-67.685904351
 20
-43.6929444868
 10
-67.6860645756
 20
-43.692262936
 10
-67.6862230716
 20
-43.6913924459
 10
-67.6863803545
 20
-43.6903082601
 10
-67.6865359087
 20
-43.6889981008
 10
-67.6866869593
 20
-43.687443876
 10
-67.6868326555
 20
-43.6856287337
 10
-67.6869738479
 20
-43.683532272
 10
-67.6871103137
 20
-43.6811286309
 10
-67.6872415006
 20
-43.6783939463
 10
-67.6873679607
 20
-43.6753075199
 10
-67.6874911278
 20
-43.6718454171
  0
LWPOLYLINE
  5
294
100
AcDbEntity
  8
0
100
AcDbPolyline
 62
7
  6
CONTINUOUS
 90
15
 70
0
 10
-67.316688924
 20
43.2250317298
 10
-67.3189014933
 20
43.2234586439
 10
-67.3208801955
 20
43.2186786088
 10
-67.3226279268
 20
43.2107326016
 10
-67.3241304587
 20
43.1996829523
 10
-67.325406791
 20
43.1855924275
 10
-67.3265096101
 20
43.1685033485
 10
-67.3274598445
 20
43.1485122402
 10
-67.3282402447
 20
43.1256873109
 10
-67.3288473602
 20
43.0999846635
 10
-67.3292847528
 20
43.0713699236
 10
-67.3295538031
 20
43.0400108849
 10
-67.3296472937
 20
43.006183798
 10
-67.329559278
 20
42.9700341352
 10
-67.3288641649
 20
42.8916334291
  0
LINE
  5
295
100
AcDbEntity
  8
0
100
AcDbLine
 62
7
  6
CONTINUOUS
 10
-70.0227750813
 20
-31.5801797807
 11
-70.1227750813
 21
-31.5801797807
  0
LINE
  5
296
100
AcDbEntity
  8
0
100
AcDbLine
 62
250
  6
CONTINUOUS
 10
-70.0227750813
 20
-30.9036074326
 11
-70.1227750813
 21
-30.9036074326
  0
LINE
  5
297
100
AcDbEntity
  8
0
100
AcDbLine
 62
7
  6
CONTINUOUS
 10
-70.0227750813
 20
-30.4133253901
 11
-70.1227750813
 21
-30.4133253901
  0
LINE
  5
298
100
AcDbEntity
  8
0
100
AcDbLine
 62
7
  6
CONTINUOUS
 10
-70.0227750813
 20
-30.3985541322
 11
-70.1227750813
 21
-30.3985541322
  0
LINE
  5
299
100
AcDbEntity
  8
0
100
AcDbLine
 62
250
  6
CONTINUOUS
 10
-70.0227750813
 20
-29.1359677442
 11
-70.1227750813
 21
-29.1359677442
  0
LINE
  5
29A
100
AcDbEntity
  8
0
100
AcDbLine
 62
7
  6
CONTINUOUS
 10
-70.0227750813
 20
-29.051114715
 11
-70.1227750813
 21
-29.051114715
  0
LWPOLYLINE
  5
29B
100
AcDbEntity
  8
RACCORDO
100
AcDbPolyline
 62
250
  6
CONTINUOUS
 90
9
 70
0
 10
-69.5489430594
 20
-43.9200169255
 10
-69.5504312699
 20
-43.9173284538
 10
-69.5518149531
 20
-43.9095386645
 10
-69.5530888501
 20
-43.8968301063
 10
-69.5542405272
 20
-43.8794773181
 10
-69.5552794502
 20
-43.857645618
 10
-69.5562246089
 20
-43.831204236
 10
-69.5570661609
 20
-43.8000647498
 10
-69.5577910564
 20
-43.7644191659
  0
LWPOLYLINE
  5
29C
100
AcDbEntity
  8
0
100
AcDbPolyline
 62
7
  6
CONTINUOUS
 90
3
 70
0
 43
0.3500000006
 10
-66.2656324768
 20
53.0652293243
 10
-66.3370591278
 20
52.8509403076
 10
-66.4799169617
 20
52.5652291718
  0
LWPOLYLINE
  5
29D
100
AcDbEntity
  8
RACCORDO
100
AcDbPolyline
 62
250
  6
CONTINUOUS
 90
10
 70
0
 10
-67.5127715146
 20
43.5891387329
 10
-67.5127580584
 20
43.5891846194
 10
-67.5127490802
 20
43.5892312727
 10
-67.5127445802
 20
43.5892784825
 10
-67.5127444208
 20
43.5893257722
 10
-67.5127487396
 20
43.5893731872
 10
-67.5127579482
 20
43.5894212774
 10
-67.5127721841
 20
43.5894700532
 10
-67.5127913099
 20
43.589519003
 10
-67.5128153257
 20
43.589567868
  0
LWPOLYLINE
  5
29E
100
AcDbEntity
  8
RACCORDO
100
AcDbPolyline
 62
250
  6
CONTINUOUS
 90
13
 70
0
 10
-67.5127715146
 20
-43.5891387329
 10
-67.5128466327
 20
-43.5888940504
 10
-67.5129235599
 20
-43.5885131333
 10
-67.513002296
 20
-43.5879955875
 10
-67.5130842934
 20
-43.5873495677
 10
-67.5131680998
 20
-43.586566615
 10
-67.5132493584
 20
-43.5856106024
 10
-67.5133277134
 20
-43.5844574853
 10
-67.5134035207
 20
-43.5831014502
 10
-67.5134734912
 20
-43.5815223776
 10
-67.5135366561
 20
-43.5797039492
 10
-67.5135939844
 20
-43.5776290916
 10
-67.5136450935
 20
-43.5752740923
  0
LWPOLYLINE
  5
29F
100
AcDbEntity
  8
RACCORDO
100
AcDbPolyline
 62
250
  6
CONTINUOUS
 90
3
 70
0
 10
-67.6874911278
 20
-43.6718454171
 10
-67.6877267207
 20
-43.6636992486
 10
-67.6878423048
 20
-43.6589647321
  0
LINE
  5
2A0
100
AcDbEntity
  8
RACCORDO
100
AcDbLine
 62
250
  6
CONTINUOUS
 10
-69.5489430594
 20
42.4220726233
 11
-69.5552794502
 21
42.8487975793
  0
LINE
  5
2A1
100
AcDbEntity
  8
RACCORDO
100
AcDbLine
 62
250
  6
CONTINUOUS
 10
-69.5577910564
 20
-43.7644191659
 11
-69.5589069105
 21
-43.680284173
  0
LINE
  5
2A2
100
AcDbEntity
  8
RACCORDO
100
AcDbLine
 62
250
  6
CONTINUOUS
 10
-69.5552794502
 20
42.8487975793
 11
-69.5584056283
 21
43.1613081929
  0
LINE
  5
2A3
100
AcDbEntity
  8
RACCORDO
100
AcDbLine
 62
250
  6
CONTINUOUS
 10
-69.5589069105
 20
-43.680284173
 11
-69.5595530994
 21
-43.5799614955
  0
LINE
  5
2A4
100
AcDbEntity
  8
RACCORDO
100
AcDbLine
 62
250
  6
CONTINUOUS
 10
-69.5584056283
 20
43.1613081929
 11
-69.5595530994
 21
43.3717066705
  0
LINE
  5
2A5
100
AcDbEntity
  8
0
100
AcDbLine
 62
7
  6
CONTINUOUS
 10
-70.1227750813
 20
-31.5801797807
 11
-70.1227750813
 21
-29.051114715
  0
LINE
  5
2A6
100
AcDbEntity
  8
RACCORDO
100
AcDbLine
 62
7
  6
CONTINUOUS
 10
-70.0227750813
 20
-43.4207021581
 11
-70.0227750813
 21
43.4207021581
  0
LINE
  5
2A7
100
AcDbEntity
  8
RACCORDO
100
AcDbLine
 62
250
  6
CONTINUOUS
 10
-69.5489430594
 20
-42.4220726233
 11
-69.5489430594
 21
42.4220726233
  0
LWPOLYLINE
  5
2A8
100
AcDbEntity
  8
0
100
AcDbPolyline
 62
7
  6
CONTINUOUS
 90
4
 70
0
 43
0.3500000006
 10
-69.3370600433
 20
55.1366565857
 10
-69.3370600433
 20
55.7795100403
 10
-67.8370595856
 20
55.7795100403
 10
-68.6942020569
 20
52.7795136566
  0
LINE
  5
2A9
100
AcDbEntity
  8
RACCORDO
100
AcDbLine
 62
250
  6
CONTINUOUS
 10
-69.5595530994
 20
-43.5799614955
 11
-69.5596356683
 21
-43.4018243822
  0
LINE
  5
2AA
100
AcDbEntity
  8
RACCORDO
100
AcDbLine
 62
250
  6
CONTINUOUS
 10
-69.5595530994
 20
43.3717066705
 11
-69.5596356683
 21
43.5545876592
  0
LINE
  5
2AB
100
AcDbEntity
  8
RACCORDO
100
AcDbLine
 62
250
  6
CONTINUOUS
 10
-69.5596356683
 20
43.5545876592
 11
-69.5590958413
 21
43.65799037
  0
LINE
  5
2AC
100
AcDbEntity
  8
RACCORDO
100
AcDbLine
 62
250
  6
CONTINUOUS
 10
-69.5596356683
 20
-43.4018243822
 11
-69.5580835212
 21
-43.1201485347
  0
LINE
  5
2AD
100
AcDbEntity
  8
RACCORDO
100
AcDbLine
 62
250
  6
CONTINUOUS
 10
-69.5580835212
 20
-43.1201485347
 11
-69.5545152836
 21
-42.7874705511
  0
LWPOLYLINE
  5
2AE
100
AcDbEntity
  8
RACCORDO
100
AcDbPolyline
 62
250
  6
CONTINUOUS
 90
10
 70
0
 10
-69.5590958413
 20
43.65799037
 10
-69.5580835212
 20
43.7469666858
 10
-69.557383452
 20
43.7855702802
 10
-69.5565568
 20
43.8198674687
 10
-69.5556025912
 20
43.8496254491
 10
-69.5545152836
 20
43.8744982252
 10
-69.5532974243
 20
43.8941453269
 10
-69.5519569714
 20
43.9083697376
 10
-69.5505020963
 20
43.9170415437
 10
-69.5489430594
 20
43.9200169255
  0
LINE
  5
2AF
100
AcDbEntity
  8
RACCORDO
100
AcDbLine
 62
250
  6
CONTINUOUS
 10
-69.5545152836
 20
-42.7874705511
 11
-69.5489430594
 21
-42.4220726233
  0
LINE
  5
2B0
100
AcDbEntity
  8
RACCORDO
100
AcDbLine
 62
250
  6
CONTINUOUS
 10
-67.6878506543
 20
43.658601847
 11
-67.6876339078
 21
43.6671670716
  0
LWPOLYLINE
  5
2B1
100
AcDbEntity
  8
RACCORDO
100
AcDbPolyline
 62
250
  6
CONTINUOUS
 90
16
 70
0
 10
-67.6876339078
 20
43.6671670716
 10
-67.687409375
 20
43.674196539
 10
-67.6872933027
 20
43.677190459
 10
-67.6871736465
 20
43.6798652085
 10
-67.6870503738
 20
43.6822343144
 10
-67.6869235172
 20
43.6843251074
 10
-67.6867920083
 20
43.6861731207
 10
-67.6866568968
 20
43.6877801654
 10
-67.6865171329
 20
43.6891734068
 10
-67.6863684997
 20
43.690403333
 10
-67.6862104185
 20
43.6914667857
 10
-67.6860434679
 20
43.6923574652
 10
-67.6858651673
 20
43.6930883093
 10
-67.6856746898
 20
43.693642366
 10
-67.6854728622
 20
43.6939900786
 10
-67.6852596845
 20
43.6941086468
  0
LWPOLYLINE
  5
2B2
100
AcDbEntity
  8
0
100
AcDbPolyline
 62
7
  6
CONTINUOUS
 90
4
 70
0
 10
-67.3226581243
 20
42.6224486843
 10
-67.3209029622
 20
42.5738273494
 10
-67.3189141895
 20
42.5246562597
 10
-67.3161406601
 20
42.4630681291
  0
LINE
  5
2B3
100
AcDbEntity
  8
0
100
AcDbLine
 62
7
  6
CONTINUOUS
 10
-67.325443573
 20
42.7172192243
 11
-67.3226581243
 21
42.6224486843
  0
LINE
  5
2B4
100
AcDbEntity
  8
0
100
AcDbLine
 62
7
  6
CONTINUOUS
 10
-67.3274920105
 20
42.8073198303
 11
-67.325443573
 21
42.7172192243
  0
LINE
  5
2B5
100
AcDbEntity
  8
RACCORDO
100
AcDbLine
 62
250
  6
CONTINUOUS
 10
-67.6878423048
 20
-43.6589647321
 11
-67.6881883888
 21
-43.6418042805
  0
LINE
  5
2B6
100
AcDbEntity
  8
0
100
AcDbLine
 62
7
  6
CONTINUOUS
 10
-67.3288641649
 20
42.8916334291
 11
-67.3274920105
 21
42.8073198303
  0
LINE
  5
2B7
100
AcDbEntity
  8
RACCORDO
100
AcDbLine
 62
250
  6
CONTINUOUS
 10
-67.6881883888
 20
-43.6418042805
 11
-67.6888199808
 21
-43.6008083375
  0
LINE
  5
2B8
100
AcDbEntity
  8
RACCORDO
100
AcDbLine
 62
250
  6
CONTINUOUS
 10
-67.5136450935
 20
-43.5752740923
 11
-67.5137270564
 21
-43.5696302512
  0
LINE
  5
2B9
100
AcDbEntity
  8
RACCORDO
100
AcDbLine
 62
250
  6
CONTINUOUS
 10
-67.6888199808
 20
-43.6008083375
 11
-67.6893558446
 21
-43.5522217517
  0
LINE
  5
2BA
100
AcDbEntity
  8
RACCORDO
100
AcDbLine
 62
250
  6
CONTINUOUS
 10
-67.6851234575
 20
42.489508273
 11
-67.6871228247
 21
42.6785251541
  0
LINE
  5
2BB
100
AcDbEntity
  8
RACCORDO
100
AcDbLine
 62
250
  6
CONTINUOUS
 10
-67.5137270564
 20
-43.5696302512
 11
-67.5138142857
 21
-43.5585289923
  0
LINE
  5
2BC
100
AcDbEntity
  8
RACCORDO
100
AcDbLine
 62
250
  6
CONTINUOUS
 10
-67.5127579498
 20
-42.4878942253
 11
-67.5128151265
 21
-42.4794001504
  0
LINE
  5
2BD
100
AcDbEntity
  8
RACCORDO
100
AcDbLine
 62
250
  6
CONTINUOUS
 10
-67.6893558446
 20
-43.5522217517
 11
-67.6897560443
 21
-43.4849668619
  0
LINE
  5
2BE
100
AcDbEntity
  8
RACCORDO
100
AcDbLine
 62
250
  6
CONTINUOUS
 10
-67.685090701
 20
42.481932543
 11
-67.6851234575
 21
42.489508273
  0
LINE
  5
2BF
100
AcDbEntity
  8
RACCORDO
100
AcDbLine
 62
250
  6
CONTINUOUS
 10
-67.5127490811
 20
42.4990845737
 11
-67.5137314865
 21
42.696909271
  0
LINE
  5
2C0
100
AcDbEntity
  8
RACCORDO
100
AcDbLine
 62
250
  6
CONTINUOUS
 10
-67.6871228247
 20
42.6785251541
 11
-67.6899215404
 21
43.2697665503
  0
LINE
  5
2C1
100
AcDbEntity
  8
RACCORDO
100
AcDbLine
 62
250
  6
CONTINUOUS
 10
-67.5138142857
 20
-43.5585289923
 11
-67.5145527429
 21
-43.3759607077
  0
LINE
  5
2C2
100
AcDbEntity
  8
RACCORDO
100
AcDbLine
 62
250
  6
CONTINUOUS
 10
-67.5145527429
 20
-43.3759607077
 11
-67.5145866767
 21
-43.3164426517
  0
LINE
  5
2C3
100
AcDbEntity
  8
RACCORDO
100
AcDbLine
 62
7
  6
CONTINUOUS
 10
-68.0227750813
 20
-44.0
 11
-68.0227750813
 21
44.0
  0
LINE
  5
2C4
100
AcDbEntity
  8
RACCORDO
100
AcDbLine
 62
250
  6
CONTINUOUS
 10
-67.5128153254
 20
-42.4794002256
 11
-67.5128153254
 21
42.4794002256
  0
LINE
  5
2C5
100
AcDbEntity
  8
0
100
AcDbLine
 62
7
  6
CONTINUOUS
 10
-67.3148711242
 20
42.4046079547
 11
-67.3148711242
 21
-42.4046079547
  0
LINE
  5
2C6
100
AcDbEntity
  8
RACCORDO
100
AcDbLine
 62
250
  6
CONTINUOUS
 10
-67.5127445811
 20
-42.4963007515
 11
-67.5127579498
 21
-42.4878942253
  0
LINE
  5
2C7
100
AcDbEntity
  8
RACCORDO
100
AcDbLine
 62
250
  6
CONTINUOUS
 10
-67.6897560443
 20
-43.4849668619
 11
-67.689922647
 21
-43.2717762189
  0
LINE
  5
2C8
100
AcDbEntity
  8
RACCORDO
100
AcDbLine
 62
250
  6
CONTINUOUS
 10
-67.5127487408
 20
42.4907063153
 11
-67.5127490811
 21
42.4990845737
  0
LWPOLYLINE
  5
2C9
100
AcDbEntity
  8
0
100
AcDbPolyline
 62
7
  6
CONTINUOUS
 90
14
 70
0
 10
-67.3295590681
 20
-42.9700063435
 10
-67.3296472954
 20
-43.0061613303
 10
-67.3295540192
 20
-43.039986124
 10
-67.3292851415
 20
-43.0713385129
 10
-67.3288481144
 20
-43.0999458278
 10
-67.3282417803
 20
-43.1256389882
 10
-67.3274623057
 20
-43.1484557444
 10
-67.3265127294
 20
-43.1684471891
 10
-67.3254103734
 20
-43.1855451182
 10
-67.3241343675
 20
-43.1996478846
 10
-67.3226316511
 20
-43.2107102411
 10
-67.3208831164
 20
-43.2186674477
 10
-67.3189031636
 20
-43.2234555603
 10
-67.316688924
 20
-43.2250317298
  0
LINE
  5
2CA
100
AcDbEntity
  8
RACCORDO
100
AcDbLine
 62
250
  6
CONTINUOUS
 10
-67.6899215404
 20
43.2697665503
 11
-67.6897623577
 21
43.4830287063
  0
LINE
  5
2CB
100
AcDbEntity
  8
RACCORDO
100
AcDbLine
 62
250
  6
CONTINUOUS
 10
-67.5137314865
 20
42.696909271
 11
-67.5143704406
 21
43.4516562443
  0
LINE
  5
2CC
100
AcDbEntity
  8
RACCORDO
100
AcDbLine
 62
250
  6
CONTINUOUS
 10
-67.6851082471
 20
-42.4869863592
 11
-67.685090701
 21
42.481932543
  0
LINE
  5
2CD
100
AcDbEntity
  8
RACCORDO
100
AcDbLine
 62
250
  6
CONTINUOUS
 10
-67.5127715146
 20
-42.5046218944
 11
-67.5127445811
 21
-42.4963007515
  0
LWPOLYLINE
  5
2CE
100
AcDbEntity
  8
0
100
AcDbPolyline
 62
7
  6
CONTINUOUS
 90
7
 70
0
 10
-67.3148711242
 20
-42.4046079547
 10
-67.3149288741
 20
-42.416045551
 10
-67.3150847099
 20
-42.4276106423
 10
-67.3153386314
 20
-42.4393032287
 10
-67.3156906387
 20
-42.4511233102
 10
-67.3161407319
 20
-42.4630708867
 10
-67.3189129208
 20
-42.5246219694
  0
LINE
  5
2CF
100
AcDbEntity
  8
RACCORDO
100
AcDbLine
 62
250
  6
CONTINUOUS
 10
-67.689922647
 20
-43.2717762189
 11
-67.6887998861
 21
-42.9611669241
  0
LINE
  5
2D0
100
AcDbEntity
  8
RACCORDO
100
AcDbLine
 62
250
  6
CONTINUOUS
 10
-67.5145866767
 20
-43.3164426517
 11
-67.5133251114
 21
-42.5898617957
  0
LINE
  5
2D1
100
AcDbEntity
  8
RACCORDO
100
AcDbLine
 62
250
  6
CONTINUOUS
 10
-67.6887998861
 20
-42.9611669241
 11
-67.6878681948
 21
-42.7934998663
  0
LINE
  5
2D2
100
AcDbEntity
  8
RACCORDO
100
AcDbLine
 62
250
  6
CONTINUOUS
 10
-67.5133251114
 20
-42.5898617957
 11
-67.5127715146
 21
-42.5046218944
  0
LINE
  5
2D3
100
AcDbEntity
  8
RACCORDO
100
AcDbLine
 62
250
  6
CONTINUOUS
 10
-67.5143704406
 20
43.4516562443
 11
-67.5137687002
 21
43.5653626982
  0
LINE
  5
2D4
100
AcDbEntity
  8
RACCORDO
100
AcDbLine
 62
250
  6
CONTINUOUS
 10
-67.6897623577
 20
43.4830287063
 11
-67.6893861358
 21
43.5484504213
  0
LWPOLYLINE
  5
2D5
100
AcDbEntity
  8
RACCORDO
100
AcDbPolyline
 62
250
  6
CONTINUOUS
 90
3
 70
0
 10
-67.5128153254
 20
42.4794002256
 10
-67.5127913103
 20
42.4822405845
 10
-67.5127487408
 20
42.4907063153
  0
LINE
  5
2D6
100
AcDbEntity
  8
RACCORDO
100
AcDbLine
 62
250
  6
CONTINUOUS
 10
-67.6851662624
 20
-42.4945403692
 11
-67.6851082471
 21
-42.4869863592
  0
LINE
  5
2D7
100
AcDbEntity
  8
RACCORDO
100
AcDbLine
 62
250
  6
CONTINUOUS
 10
-67.6878681948
 20
-42.7934998663
 11
-67.6865233232
 21
-42.6105859623
  0
LINE
  5
2D8
100
AcDbEntity
  8
0
100
AcDbLine
 62
7
  6
CONTINUOUS
 10
-67.3288634397
 20
-42.8915766882
 11
-67.3295590681
 21
-42.9700063435
  0
LINE
  5
2D9
100
AcDbEntity
  8
RACCORDO
100
AcDbLine
 62
250
  6
CONTINUOUS
 10
-67.5137687002
 20
43.5653626982
 11
-67.5137054215
 21
43.5714493008
  0
LINE
  5
2DA
100
AcDbEntity
  8
RACCORDO
100
AcDbLine
 62
250
  6
CONTINUOUS
 10
-67.6893861358
 20
43.5484504213
 11
-67.6887645552
 21
43.6048936233
  0
LINE
  5
2DB
100
AcDbEntity
  8
RACCORDO
100
AcDbLine
 62
250
  6
CONTINUOUS
 10
-67.6865233232
 20
-42.6105859623
 11
-67.6851662624
 21
-42.4945403692
  0
LINE
  5
2DC
100
AcDbEntity
  8
RACCORDO
100
AcDbLine
 62
250
  6
CONTINUOUS
 10
-67.6887645552
 20
43.6048936233
 11
-67.6881767082
 21
43.6424502837
  0
LINE
  5
2DD
100
AcDbEntity
  8
0
100
AcDbLine
 62
7
  6
CONTINUOUS
 10
-67.3274895743
 20
-42.807206675
 11
-67.3288634397
 21
-42.8915766882
  0
LWPOLYLINE
  5
2DE
100
AcDbEntity
  8
RACCORDO
100
AcDbPolyline
 62
250
  6
CONTINUOUS
 90
13
 70
0
 10
-67.5137054215
 20
43.5714493008
 10
-67.5136231616
 20
43.5763541533
 10
-67.513574217
 20
43.5784114283
 10
-67.513519715
 20
43.5802475531
 10
-67.513459871
 20
43.5818603329
 10
-67.5133944696
 20
43.5832788449
 10
-67.5133223797
 20
43.5845586939
 10
-67.5132423209
 20
43.5856879534
 10
-67.5131555736
 20
43.5866657153
 10
-67.5130648483
 20
43.5875256546
 10
-67.5129710484
 20
43.5882512865
 10
-67.5128732705
 20
43.588798732
 10
-67.5127715146
 20
43.5891387329
  0
LINE
  5
2DF
100
AcDbEntity
  8
RACCORDO
100
AcDbLine
 62
250
  6
CONTINUOUS
 10
-67.6881767082
 20
43.6424502837
 11
-67.6878506543
 21
43.658601847
  0
LINE
  5
2E0
100
AcDbEntity
  8
0
100
AcDbLine
 62
7
  6
CONTINUOUS
 10
-67.3254403569
 20
-42.7170900759
 11
-67.3274895743
 21
-42.807206675
  0
LINE
  5
2E1
100
AcDbEntity
  8
RACCORDO
100
AcDbLine
 62
250
  6
CONTINUOUS
 10
-67.314871124
 20
0.0
 11
-67.6850882669
 21
0.0
  0
LWPOLYLINE
  5
2E2
100
AcDbEntity
  8
0
100
AcDbPolyline
 62
7
  6
CONTINUOUS
 90
6
 70
0
 10
-67.3161406601
 20
42.4630681291
 10
-67.3156905239
 20
42.4511188981
 10
-67.3153385023
 20
42.4392982651
 10
-67.3150845951
 20
42.4276062302
 10
-67.3149288024
 20
42.4160427934
 10
-67.3148711242
 20
42.4046079547
  0
LWPOLYLINE
  5
2E3
100
AcDbEntity
  8
0
100
AcDbPolyline
 62
7
  6
CONTINUOUS
 90
4
 70
0
 43
0.3500000006
 10
-65.2656321716
 20
53.2080871582
 10
-65.2656321716
 20
54.0652296295
 10
-64.83705867
 20
54.4937985992
 10
-64.1942052155
 20
54.4937985992
  0
LWPOLYLINE
  5
2E4
100
AcDbEntity
  8
0
100
AcDbPolyline
 62
7
  6
CONTINUOUS
 90
4
 70
0
 10
-67.3189129208
 20
-42.5246219694
 10
-67.3209007158
 20
-42.5737633826
 10
-67.322655201
 20
-42.6223599584
 10
-67.3254403569
 20
-42.7170900759
  0
LINE
  5
2E5
100
AcDbEntity
  8
RACCORDO
100
AcDbLine
 62
250
  6
CONTINUOUS
 10
-62.4185954839
 20
43.1207128842
 11
-62.4182585544
 21
43.0885352884
  0
LINE
  5
2E6
100
AcDbEntity
  8
RACCORDO
100
AcDbLine
 62
250
  6
CONTINUOUS
 10
-62.4182585544
 20
43.0885352884
 11
-62.4179318545
 21
43.012354425
  0
LINE
  5
2E7
100
AcDbEntity
  8
RACCORDO
100
AcDbLine
 62
250
  6
CONTINUOUS
 10
-62.4192846
 20
-42.389661448
 11
-62.4178412827
 21
-42.9331830834
  0
LINE
  5
2E8
100
AcDbEntity
  8
RACCORDO
100
AcDbLine
 62
250
  6
CONTINUOUS
 10
-62.4192846
 20
42.389661448
 11
-62.4192846
 21
-42.389661448
  0
LINE
  5
2E9
100
AcDbEntity
  8
RACCORDO
100
AcDbLine
 62
7
  6
CONTINUOUS
 10
-62.2227750813
 20
-42.9395776803
 11
-62.2227750813
 21
42.9395776803
  0
LINE
  5
2EA
100
AcDbEntity
  8
RACCORDO
100
AcDbLine
 62
250
  6
CONTINUOUS
 10
-62.4179318545
 20
43.012354425
 11
-62.4182207901
 21
42.6741326678
  0
LINE
  5
2EB
100
AcDbEntity
  8
RACCORDO
100
AcDbLine
 62
250
  6
CONTINUOUS
 10
-62.4178412827
 20
-42.9331830834
 11
-62.4180908962
 21
-43.0599751351
  0
LINE
  5
2EC
100
AcDbEntity
  8
RACCORDO
100
AcDbLine
 62
250
  6
CONTINUOUS
 10
-62.4182207901
 20
42.6741326678
 11
-62.4192845515
 21
42.3896614471
  0
LWPOLYLINE
  5
2ED
100
AcDbEntity
  8
RACCORDO
100
AcDbPolyline
 62
250
  6
CONTINUOUS
 90
6
 70
0
 10
-62.4180908962
 20
-43.0599751351
 10
-62.4183795173
 20
-43.1032062676
 10
-62.4185673954
 20
-43.1188670281
 10
-62.4187827937
 20
-43.1302528228
 10
-62.4190229451
 20
-43.137198397
 10
-62.4192845515
 20
-43.1395472185
  0
LWPOLYLINE
  5
2EE
100
AcDbEntity
  8
RACCORDO
100
AcDbPolyline
 62
250
  6
CONTINUOUS
 90
4
 70
0
 10
-62.4192846
 20
43.1395472194
 10
-62.4190345739
 20
43.1374116755
 10
-62.4188038737
 20
43.1310901325
 10
-62.4185954839
 20
43.1207128842
  0
LWPOLYLINE
  5
2EF
100
AcDbEntity
  8
RACCORDO
100
AcDbPolyline
 62
250
  6
CONTINUOUS
 90
10
 70
0
 10
-67.5128153257
 20
-43.589567868
 10
-67.5127913099
 20
-43.589519003
 10
-67.5127721841
 20
-43.5894700532
 10
-67.5127579482
 20
-43.5894212774
 10
-67.5127487396
 20
-43.5893731872
 10
-67.5127444208
 20
-43.5893257722
 10
-67.5127445802
 20
-43.5892784825
 10
-67.5127490802
 20
-43.5892312727
 10
-67.5127580584
 20
-43.5891846194
 10
-67.5127715146
 20
-43.5891387329
  0
LINE
  5
2F0
100
AcDbEntity
  8
RACCORDO
100
AcDbLine
 62
7
  6
CONTINUOUS
 10
-67.314871124
 20
-43.225
 11
-67.5128153257
 21
-43.5895678678
  0
LINE
  5
2F1
100
AcDbEntity
  8
RACCORDO
100
AcDbLine
 62
7
  6
CONTINUOUS
 10
-67.315298307
 20
43.2257867732
 11
-67.5128153257
 21
43.5895678678
  0
LWPOLYLINE
  5
2F2
100
AcDbEntity
  8
0
100
AcDbPolyline
 62
7
  6
CONTINUOUS
 90
10
 70
0
 43
0.3500000006
 10
-66.3370591278
 20
53.2795138092
 10
-66.2656324768
 20
53.1366559753
 10
-66.2656324768
 20
53.0652293243
 10
-66.4084903107
 20
52.9223714905
 10
-66.4799169617
 20
52.9223714905
 10
-66.5513481445
 20
52.9937981415
 10
-66.5513481445
 20
53.0652293243
 10
-66.4799169617
 20
53.2080871582
 10
-66.4084903107
 20
53.2795138092
 10
-66.3370591278
 20
53.2795138092
  0
LINE
  5
2F3
100
AcDbEntity
  8
RACCORDO
100
AcDbLine
 62
250
  6
CONTINUOUS
 10
-67.3148711217
 20
-42.4046079613
 11
-67.5128153254
 21
-42.4794002256
  0
LINE
  5
2F4
100
AcDbEntity
  8
RACCORDO
100
AcDbLine
 62
250
  6
CONTINUOUS
 10
-69.5489430594
 20
42.4220726233
 11
-68.0227750813
 21
42.5020556979
  0
LINE
  5
2F5
100
AcDbEntity
  8
RACCORDO
100
AcDbLine
 62
7
  6
CONTINUOUS
 10
-69.5489430594
 20
43.9200169255
 11
-68.0227750813
 21
44.0
  0
LINE
  5
2F6
100
AcDbEntity
  8
RACCORDO
100
AcDbLine
 62
250
  6
CONTINUOUS
 10
-67.6852596818
 20
42.5020556979
 11
-67.5127715146
 21
42.5046218944
  0
LINE
  5
2F7
100
AcDbEntity
  8
RACCORDO
100
AcDbLine
 62
250
  6
CONTINUOUS
 10
-62.2227750813
 20
42.389661448
 11
-62.4192846
 21
42.389661448
  0
LINE
  5
2F8
100
AcDbEntity
  8
RACCORDO
100
AcDbLine
 62
250
  6
CONTINUOUS
 10
-70.0227750813
 20
42.4220726233
 11
-69.5489430594
 21
42.4220726233
  0
LINE
  5
2F9
100
AcDbEntity
  8
RACCORDO
100
AcDbLine
 62
250
  6
CONTINUOUS
 10
-67.685088267
 20
42.4794002217
 11
-67.5128153254
 21
42.4794002256
  0
LINE
  5
2FA
100
AcDbEntity
  8
RACCORDO
100
AcDbLine
 62
250
  6
CONTINUOUS
 10
-67.6852596818
 20
42.5020556979
 11
-68.0227750813
 21
42.5020556979
  0
LINE
  5
2FB
100
AcDbEntity
  8
RACCORDO
100
AcDbLine
 62
250
  6
CONTINUOUS
 10
-67.3166889107
 20
42.4751459582
 11
-62.4192846
 21
42.389661448
  0
LINE
  5
2FC
100
AcDbEntity
  8
RACCORDO
100
AcDbLine
 62
7
  6
CONTINUOUS
 10
-67.316688924
 20
43.2250317298
 11
-62.4192846
 21
43.1395472194
  0
LINE
  5
2FD
100
AcDbEntity
  8
RACCORDO
100
AcDbLine
 62
7
  6
CONTINUOUS
 10
-67.6851593392
 20
43.6941068953
 11
-68.0227750813
 21
43.7
  0
LWPOLYLINE
  5
2FE
100
AcDbEntity
  8
RACCORDO
100
AcDbPolyline
 62
7
  6
CONTINUOUS
 90
3
 70
0
 10
-67.6852596845
 20
43.6941086468
 10
-67.6618244585
 20
43.6923180344
 10
-67.6387611678
 20
43.6877898999
  0
LINE
  5
2FF
100
AcDbEntity
  8
RACCORDO
100
AcDbLine
 62
7
  6
CONTINUOUS
 10
-67.6387611678
 20
43.6877898999
 11
-67.6322339299
 21
43.6859861887
  0
LWPOLYLINE
  5
300
100
AcDbEntity
  8
RACCORDO
100
AcDbPolyline
 62
250
  6
CONTINUOUS
 90
8
 70
0
 10
-67.6322339299
 20
43.6859861887
 10
-67.6163883946
 20
43.6805867923
 10
-67.5950151825
 20
43.6708082109
 10
-67.574936768
 20
43.658589231
 10
-67.556430502
 20
43.6440986383
 10
-67.5397520186
 20
43.6275365968
 10
-67.5251317041
 20
43.6091318846
 10
-67.5127715146
 20
43.5891387329
  0
LINE
  5
301
100
AcDbEntity
  8
RACCORDO
100
AcDbLine
 62
250
  6
CONTINUOUS
 10
-67.3148711217
 20
42.4046079613
 11
-67.5128153254
 21
42.4794002256
  0
LWPOLYLINE
  5
302
100
AcDbEntity
  8
0
100
AcDbPolyline
 62
7
  6
CONTINUOUS
 90
13
 70
0
 43
0.3500000006
 10
-64.83705867
 20
54.4937985992
 10
-65.1227743378
 20
54.7080830841
 10
-65.1227743378
 20
55.3509410706
 10
-64.83705867
 20
55.7795100403
 10
-64.1942052155
 20
55.7795100403
 10
-63.9084895477
 20
55.3509410706
 10
-63.9084895477
 20
54.7080830841
 10
-64.1942052155
 20
54.4937985992
 10
-63.7656317139
 20
54.0652296295
 10
-63.7656317139
 20
53.2080871582
 10
-64.1942052155
 20
52.7795136566
 10
-64.83705867
 20
52.7795136566
 10
-65.2656321716
 20
53.2080871582
  0
ARC
  5
303
100
AcDbEntity
  8
RACCORDO
100
AcDbCircle
 62
7
  6
CONTINUOUS
 10
-69.5227750813
 20
-43.4207021581
 40
0.5
100
AcDbArc
 50
180.0
 51
267.0
  0
ARC
  5
304
100
AcDbEntity
  8
RACCORDO
100
AcDbCircle
 62
7
  6
CONTINUOUS
 10
-69.5227750813
 20
43.4207021581
 40
0.5
100
AcDbArc
 50
93.0
 51
180.0
  0
ARC
  5
305
100
AcDbEntity
  8
RACCORDO
100
AcDbCircle
 62
7
  6
CONTINUOUS
 10
-62.4227750813
 20
42.9395776803
 40
0.2
100
AcDbArc
 50
0.0
 51
89.0
  0
ARC
  5
306
100
AcDbEntity
  8
RACCORDO
100
AcDbCircle
 62
7
  6
CONTINUOUS
 10
-62.4227750813
 20
-42.9395776803
 40
0.2
100
AcDbArc
 50
271.0
 51
360.0
  0
ARC
  5
307
100
AcDbEntity
  8
RACCORDO
100
AcDbCircle
 62
7
  6
CONTINUOUS
 10
-67.6885787481
 20
43.4941361157
 40
0.2
100
AcDbArc
 50
28.500117914
 51
89.0
  0
ARC
  5
308
100
AcDbEntity
  8
RACCORDO
100
AcDbCircle
 62
7
  6
CONTINUOUS
 10
-67.6885787481
 20
-43.4941361157
 40
0.2
100
AcDbArc
 50
271.0
 51
331.499882086
  0
ELLIPSE
  5
309
100
AcDbEntity
  8
RACCORDO
100
AcDbEllipse
 62
7
  6
CONTINUOUS
 10
-43.497941481
 20
-42.497941481
 30
0.0
 11
1.0635693652
 21
1.0635693652
 31
0.0
 40
0.9972646886
 41
-3.9256212891
 42
-2.3575640181
  0
ELLIPSE
  5
30A
100
AcDbEntity
  8
RACCORDO
100
AcDbEllipse
 62
7
  6
CONTINUOUS
 10
43.497941481
 20
-42.497941481
 30
0.0
 11
1.0635693652
 21
-1.0635693652
 31
0.0
 40
0.9972646886
 41
-0.7840286355
 42
0.7840286355
  0
ELLIPSE
  5
30B
100
AcDbEntity
  8
RACCORDO
100
AcDbEllipse
 62
7
  6
CONTINUOUS
 10
43.497941481
 20
42.497941481
 30
0.0
 11
1.0635693652
 21
1.0635693652
 31
0.0
 40
0.9972646886
 41
-0.7840286355
 42
0.7840286355
  0
ELLIPSE
  5
30C
100
AcDbEntity
  8
RACCORDO
100
AcDbEllipse
 62
7
  6
CONTINUOUS
 10
-43.497941481
 20
42.497941481
 30
0.0
 11
1.0635693652
 21
-1.0635693652
 31
0.0
 40
0.9972646886
 41
2.3575640181
 42
3.9256212891
  0
ELLIPSE
  5
30D
100
AcDbEntity
  8
RACCORDO
100
AcDbEllipse
 62
7
  6
CONTINUOUS
 10
-22.274923836
 20
26.324923836
 30
0.0
 11
0.3536610946
 21
-0.3536610946
 31
0.0
 40
0.9996954599
 41
2.3563467834
 42
3.9268385237
  0
ELLIPSE
  5
30E
100
AcDbEntity
  8
RACCORDO
100
AcDbEllipse
 62
7
  6
CONTINUOUS
 10
-22.274923836
 20
-26.324923836
 30
0.0
 11
0.3536610946
 21
0.3536610946
 31
0.0
 40
0.9996954599
 41
2.3563467834
 42
3.9268385237
  0
ELLIPSE
  5
30F
100
AcDbEntity
  8
RACCORDO
100
AcDbEllipse
 62
7
  6
CONTINUOUS
 10
22.274923836
 20
-26.324923836
 30
0.0
 11
-0.3536610946
 21
0.3536610946
 31
0.0
 40
0.9996954599
 41
2.3563467834
 42
3.9268385237
  0
ELLIPSE
  5
310
100
AcDbEntity
  8
RACCORDO
100
AcDbEllipse
 62
7
  6
CONTINUOUS
 10
22.274923836
 20
26.324923836
 30
0.0
 11
-0.3536610946
 21
-0.3536610946
 31
0.0
 40
0.9996954599
 41
2.3563467834
 42
3.9268385237
  0
ENDSEC
  0
SECTION
  2
OBJECTS
  0
DICTIONARY
  5
C
100
AcDbDictionary
280
0
281
1
  3
ACAD_GROUP
350
D
  3
ACAD_MLINESTYLE
350
17
  3
ACAD_LAYOUT
350
1A
  3
ACAD_PLOTSETTINGS
350
19
  3
ACAD_PLOTSTYLENAME
350
E
  0
DICTIONARY
  5
D
102
{ACAD_REACTORS
330
C
102
}
100
AcDbDictionary
280
0
281
1
  0
ACDBDICTIONARYWDFLT
  5
E
102
{ACAD_REACTORS
330
C
102
}
100
AcDbDictionary
281
1
  3
Normal
350
F
100
AcDbDictionaryWithDefault
340
F
  0
DICTIONARY
  5
17
102
{ACAD_REACTORS
330
C
102
}
100
AcDbDictionary
280
0
281
1
  3
Standard
350
18
  0
DICTIONARY
  5
19
102
{ACAD_REACTORS
330
C
102
}
100
AcDbDictionary
281
1
  0
DICTIONARY
  5
1A
102
{ACAD_REACTORS
330
C
102
}
100
AcDbDictionary
281
1
  3
Model
350
311
  3
Layout1
350
312
  0
ACDBPLACEHOLDER
  5
F
102
{ACAD_REACTORS
330
E
102
}
  0
MLINESTYLE
  5
18
102
{ACAD_REACTORS
330
17
102
}
100
AcDbMlineStyle
  2
STANDARD
 70
0
  3

 62
256
 51
90.0
 52
90.0
 71
2
 49
0.5
 62
256
  6
BYLAYER
 49
-0.5
 62
256
  6
BYLAYER
  0
LAYOUT
  5
311
102
{ACAD_REACTORS
330
1A
102
}
100
AcDbPlotSettings
  1

  2
none_device
  4
ISO_A4_(297.00_x_210.00_MM)
  6

 40
0.0
 41
0.0
 42
0.0
 43
0.0
 44
297.0
 45
210.0
 46
0.0
 47
0.0
 48
0.0
 49
0.0
140
0.0
141
0.0
142
1.0
143
1.0
 70
1024
 72
1
 73
0
 74
0
  7

 75
0
147
1.0
148
0.0
149
0.0
100
AcDbLayout
  1
Model
 70
0
 71
0
 10
0.0
 20
0.0
 11
297.0
 21
210.0
 12
0.0
 22
0.0
 32
0.0
 14
0.0
 24
0.0
 34
0.0
 15
0.0
 25
0.0
 35
0.0
146
0.0
 13
0.0
 23
0.0
 33
0.0
 16
1.0
 26
0.0
 36
0.0
 17
0.0
 27
1.0
 37
0.0
 76
0
330
212
345
0
346
0
  0
LAYOUT
  5
312
102
{ACAD_REACTORS
330
1A
102
}
100
AcDbPlotSettings
  1

  2
none_device
  4
ISO_A4_(297.00_x_210.00_MM)
  6

 40
0.0
 41
0.0
 42
0.0
 43
0.0
 44
297.0
 45
210.0
 46
0.0
 47
0.0
 48
0.0
 49
0.0
140
0.0
141
0.0
142
1.0
143
1.0
 70
0
 72
1
 73
0
 74
0
  7

 75
0
147
1.0
148
0.0
149
0.0
100
AcDbLayout
  1
Layout1
 70
0
 71
1
 10
0.0
 20
0.0
 11
297.0
 21
210.0
 12
0.0
 22
0.0
 32
0.0
 14
0.0
 24
0.0
 34
0.0
 15
0.0
 25
0.0
 35
0.0
146
0.0
 13
0.0
 23
0.0
 33
0.0
 16
1.0
 26
0.0
 36
0.0
 17
0.0
 27
1.0
 37
0.0
 76
0
330
213
345
0
346
0
  0
ENDSEC
  0
EOF
