  0
SECTION
  2
HEADER
  9
$ACADVER
  1
AC1024
  9
$DWGCODEPAGE
  3
ANSI_1252
  9
$EXTMAX
 10
420.0
 20
297.0
 30
0.0
  9
$EXTMIN
 10
0.0
 20
0.0
 30
0.0
  9
$LIMMIN
 10
0.0
 20
0.0
  9
$LIMMAX
 10
420.0
 20
297.0
  9
$VIEWCTR
 10
210.0
 20
148.5
  9
$VIEWSIZE
 40
297.0
  9
$CLAYER
  8
0
  9
$LTSCALE
 40
23.1
  9
$CELTYPE
  6
BYLAYER
  9
$DIMSCALE
 40
1.0
  9
$DIMASZ
 40
3.0
  9
$DIMEXO
 40
0.5
  9
$DIMDLI
 40
15.96
  9
$DIMEXE
 40
1.5
  9
$DIMCEN
 40
3.78
  9
$DIMLFAC
 40
1.0
  9
$DIMBLK
  1
_FILLED
  9
$DIMALT
 70
0
  9
$DIMALTF
 40
0.0393700787
  9
$DIMTXT
 40
3.0
  9
$DIMTOL
 70
1
  9
$DIMLIM
 70
0
  9
$DIMTFAC
 40
1.0
  9
$DIMTP
 40
0.01
  9
$DIMTM
 40
0.01
  9
$DIMGAP
 40
0.625
  9
$DIMDSEP
 70
44
  9
$AUNITS
 70
0
  9
$PDMODE
 70
3
  9
$PDSIZE
 40
3.0
  9
$HANDSEED
  5
440
  9
$TILEMODE
 70
1
  9
$MEASUREMENT
 70
1
  9
$INSUNITS
 70
4
  0
ENDSEC
  0
SECTION
  2
CLASSES
  0
CLASS
  1
ACDBDICTIONARYWDFLT
  2
AcDbDictionaryWithDefault
  3
AutoCAD 2000
 90
0
 91
1
280
0
281
0
  0
CLASS
  1
ACDBPLACEHOLDER
  2
AcDbPlaceHolder
  3
AutoCAD 2000
 90
0
 91
1
280
0
281
0
  0
CLASS
  1
LAYOUT
  2
AcDbLayout
  3
AutoCAD 2000
 90
0
 91
0
280
0
281
0
  0
ENDSEC
  0
SECTION
  2
TABLES
  0
TABLE
  2
VPORT
  5
8
100
AcDbSymbolTable
 70
2
  0
VPORT
  5
1F4
100
AcDbSymbolTableRecord
100
AcDbViewportTableRecord
  2
*ACTIVE
 70
0
 10
0.0
 20
0.0
 11
1.0
 21
1.0
 12
210.0
 22
148.5
 13
0.0
 23
0.0
 14
1.0
 24
1.0
 15
0.0
 25
0.0
 16
0.0
 26
0.0
 36
1.0
 17
0.0
 27
0.0
 37
0.0
 40
297.0
 41
1.4141414141
 42
50.0
 43
0.0
 44
0.0
 50
0.0
 51
0.0
 71
0
 72
100
 73
1
 74
1
 75
0
 76
0
 77
0
 78
0
  0
ENDTAB
  0
TABLE
  2
LTYPE
  5
5
100
AcDbSymbolTable
 70
6
  0
LTYPE
  5
14
100
AcDbSymbolTableRecord
100
AcDbLinetypeTableRecord
  2
BYBLOCK
 70
0
  3

 72
65
 73
0
 40
0.0
  0
LTYPE
  5
15
100
AcDbSymbolTableRecord
100
AcDbLinetypeTableRecord
  2
BYLAYER
 70
0
  3

 72
65
 73
0
 40
0.0
  0
LTYPE
  5
16
100
AcDbSymbolTableRecord
100
AcDbLinetypeTableRecord
  2
CONTINUOUS
 70
64
  3
Solid line
 72
65
 73
0
 40
0.0
  0
LTYPE
  5
1F5
100
AcDbSymbolTableRecord
100
AcDbLinetypeTableRecord
  2
CENTER
 70
64
  3
____ _ ____ _ ____ _ ____ _ ____ _ ____ _ ____
 72
65
 73
4
 40
0.6
 49
0.375
 74
0
 49
-0.075
 74
0
 49
0.075
 74
0
 49
-0.075
 74
0
  0
LTYPE
  5
1F6
100
AcDbSymbolTableRecord
100
AcDbLinetypeTableRecord
  2
HIDDEN
 70
64
  3
- - - - - - - - - - - - - - - - - - - -
 72
65
 73
2
 40
0.2
 49
0.1
 74
0
 49
-0.1
 74
0
  0
LTYPE
  5
1F7
100
AcDbSymbolTableRecord
100
AcDbLinetypeTableRecord
  2
PHANTOM
 70
64
  3
_____ _ _ _____ _ _ _____ _ _ _____
 72
65
 73
6
 40
0.8
 49
0.45
 74
0
 49
-0.05
 74
0
 49
0.1
 74
0
 49
-0.05
 74
0
 49
0.1
 74
0
 49
-0.05
 74
0
  0
LTYPE
  5
1F8
100
AcDbSymbolTableRecord
100
AcDbLinetypeTableRecord
  2
DOT
 70
64
  3
. . . . . . . . . . . . . . . . . . . .
 72
65
 73
2
 40
0.2
 49
0.1
 74
0
 49
-0.1
 74
0
  0
LTYPE
  5
1F9
100
AcDbSymbolTableRecord
100
AcDbLinetypeTableRecord
  2
DASHED
 70
64
  3
- - - - - - - - - - - - - - - - - - - -
 72
65
 73
2
 40
0.2
 49
0.1
 74
0
 49
-0.1
 74
0
  0
ENDTAB
  0
TABLE
  2
LAYER
  5
2
100
AcDbSymbolTable
 70
36
  0
LAYER
  5
10
100
AcDbSymbolTableRecord
100
AcDbLayerTableRecord
  2
0
 70
0
 62
7
  6
CONTINUOUS
370
-3
390
F
  0
LAYER
  5
1FA
100
AcDbSymbolTableRecord
100
AcDbLayerTableRecord
  2
DEFAULT_1
 70
0
 62
7
  6
CENTER
370
-3
390
F
  0
LAYER
  5
1FB
100
AcDbSymbolTableRecord
100
AcDbLayerTableRecord
  2
DEFAULT_2
 70
0
 62
7
  6
HIDDEN
370
-3
390
F
  0
LAYER
  5
1FC
100
AcDbSymbolTableRecord
100
AcDbLayerTableRecord
  2
DEFAULT_3
 70
0
 62
7
  6
PHANTOM
370
-3
390
F
  0
LAYER
  5
1FD
100
AcDbSymbolTableRecord
100
AcDbLayerTableRecord
  2
ASSI
 70
0
 62
7
  6
CONTINUOUS
370
-3
390
F
  0
LAYER
  5
1FE
100
AcDbSymbolTableRecord
100
AcDbLayerTableRecord
  2
COORDINATE
 70
0
 62
7
  6
CONTINUOUS
370
-3
390
F
  0
LAYER
  5
1FF
100
AcDbSymbolTableRecord
100
AcDbLayerTableRecord
  2
COPY_PUBLISH
 70
0
 62
7
  6
CONTINUOUS
370
-3
390
F
  0
LAYER
  5
200
100
AcDbSymbolTableRecord
100
AcDbLayerTableRecord
  2
COSMETICI
 70
0
 62
7
  6
CONTINUOUS
370
-3
390
F
  0
LAYER
  5
201
100
AcDbSymbolTableRecord
100
AcDbLayerTableRecord
  2
CURVE
 70
0
 62
7
  6
CONTINUOUS
370
-3
390
F
  0
LAYER
  5
202
100
AcDbSymbolTableRecord
100
AcDbLayerTableRecord
  2
DRAFT
 70
0
 62
7
  6
CONTINUOUS
370
-3
390
F
  0
LAYER
  5
203
100
AcDbSymbolTableRecord
100
AcDbLayerTableRecord
  2
IMPORT_IGES
 70
0
 62
7
  6
CONTINUOUS
370
-3
390
F
  0
LAYER
  5
204
100
AcDbSymbolTableRecord
100
AcDbLayerTableRecord
  2
INTF_1
 70
0
 62
7
  6
CONTINUOUS
370
-3
390
F
  0
LAYER
  5
205
100
AcDbSymbolTableRecord
100
AcDbLayerTableRecord
  2
INTF_11
 70
0
 62
7
  6
CONTINUOUS
370
-3
390
F
  0
LAYER
  5
206
100
AcDbSymbolTableRecord
100
AcDbLayerTableRecord
  2
INTF_13
 70
0
 62
7
  6
CONTINUOUS
370
-3
390
F
  0
LAYER
  5
207
100
AcDbSymbolTableRecord
100
AcDbLayerTableRecord
  2
INTF_2
 70
0
 62
7
  6
CONTINUOUS
370
-3
390
F
  0
LAYER
  5
208
100
AcDbSymbolTableRecord
100
AcDbLayerTableRecord
  2
INTF_4
 70
0
 62
7
  6
CONTINUOUS
370
-3
390
F
  0
LAYER
  5
209
100
AcDbSymbolTableRecord
100
AcDbLayerTableRecord
  2
NOTE
 70
0
 62
7
  6
CONTINUOUS
370
-3
390
F
  0
LAYER
  5
20A
100
AcDbSymbolTableRecord
100
AcDbLayerTableRecord
  2
PIANI
 70
0
 62
7
  6
CONTINUOUS
370
-3
390
F
  0
LAYER
  5
20B
100
AcDbSymbolTableRecord
100
AcDbLayerTableRecord
  2
PUNTI
 70
0
 62
7
  6
CONTINUOUS
370
-3
390
F
  0
LAYER
  5
20C
100
AcDbSymbolTableRecord
100
AcDbLayerTableRecord
  2
RACCORDO
 70
0
 62
7
  6
CONTINUOUS
370
-3
390
F
  0
LAYER
  5
20D
100
AcDbSymbolTableRecord
100
AcDbLayerTableRecord
  2
RGB____0____0____0__
 70
0
 62
7
  6
CONTINUOUS
370
-3
390
F
  0
LAYER
  5
20E
100
AcDbSymbolTableRecord
100
AcDbLayerTableRecord
  2
SCRITTE
 70
0
 62
7
  6
CONTINUOUS
370
-3
390
F
  0
LAYER
  5
20F
100
AcDbSymbolTableRecord
100
AcDbLayerTableRecord
  2
SIMBOLI
 70
0
 62
7
  6
CONTINUOUS
370
-3
390
F
  0
LAYER
  5
210
100
AcDbSymbolTableRecord
100
AcDbLayerTableRecord
  2
SMUSSO
 70
0
 62
7
  6
CONTINUOUS
370
-3
390
F
  0
LAYER
  5
211
100
AcDbSymbolTableRecord
100
AcDbLayerTableRecord
  2
SNAPLINE
 70
0
 62
7
  6
CONTINUOUS
370
-3
390
F
  0
LAYER
  5
212
100
AcDbSymbolTableRecord
100
AcDbLayerTableRecord
  2
SUPERFICI
 70
0
 62
7
  6
CONTINUOUS
370
-3
390
F
  0
LAYER
  5
213
100
AcDbSymbolTableRecord
100
AcDbLayerTableRecord
  2
TRASH
 70
0
 62
7
  6
CONTINUOUS
370
-3
390
F
  0
ENDTAB
  0
TABLE
  2
STYLE
  5
3
100
AcDbSymbolTable
 70
1
  0
STYLE
  5
11
100
AcDbSymbolTableRecord
100
AcDbTextStyleTableRecord
  2
STANDARD
 70
0
 40
0.0
 41
0.8
 50
0.0
 71
0
 42
0.2
  3
txt
  4

  0
STYLE
  5
214
100
AcDbSymbolTableRecord
100
AcDbTextStyleTableRecord
  2
TEXTSTYLE_1
 70
0
 40
0.0
 41
0.8
 50
0.0
 71
0
 42
0.2
  3
gdt
  4

  0
ENDTAB
  0
TABLE
  2
VIEW
  5
6
100
AcDbSymbolTable
 70
0
  0
ENDTAB
  0
TABLE
  2
UCS
  5
7
100
AcDbSymbolTable
 70
0
  0
ENDTAB
  0
TABLE
  2
APPID
  5
9
100
AcDbSymbolTable
 70
1
  0
APPID
  5
215
100
AcDbSymbolTableRecord
100
AcDbRegAppTableRecord
  2
ACAD
 70
0
  0
ENDTAB
  0
TABLE
  2
BLOCK_RECORD
  5
1
100
AcDbSymbolTable
 70
0
  0
BLOCK_RECORD
  5
216
100
AcDbSymbolTableRecord
100
AcDbBlockTableRecord
  2
*Model_Space
  0
BLOCK_RECORD
  5
217
100
AcDbSymbolTableRecord
100
AcDbBlockTableRecord
  2
*Paper_Space
  0
BLOCK_RECORD
  5
218
100
AcDbSymbolTableRecord
100
AcDbBlockTableRecord
  2
_FILLED
  0
BLOCK_RECORD
  5
219
100
AcDbSymbolTableRecord
100
AcDbBlockTableRecord
  2
*D0
  0
BLOCK_RECORD
  5
21A
100
AcDbSymbolTableRecord
100
AcDbBlockTableRecord
  2
*D1
  0
BLOCK_RECORD
  5
21B
100
AcDbSymbolTableRecord
100
AcDbBlockTableRecord
  2
*D2
  0
ENDTAB
  0
TABLE
  2
DIMSTYLE
  5
A
100
AcDbSymbolTable
 70
1
100
AcDbDimStyleTable
 71
0
  0
DIMSTYLE
105
21C
100
AcDbSymbolTableRecord
100
AcDbDimStyleTableRecord
  2
STANDARD
 70
0
  3

  4

 40
1.0
 41
3.0
 42
0.5
 43
0.38
 44
1.5
 45
0.0
 46
0.0
 47
0.01
 48
0.01
140
3.0
141
0.09
142
0.0
143
25.4
144
1.0
145
0.0
146
1.0
147
0.625
 71
1
 72
0
 73
0
 74
0
 75
0
 76
0
 77
1
 78
8
 79
2
170
0
171
1
172
0
173
0
174
0
175
0
176
0
177
0
178
0
270
2
179
2
271
2
272
2
273
2
274
2
275
0
280
0
281
0
282
0
283
1
284
8
285
0
286
0
287
3
288
0
340
11
278
44
341
218
342
218
343
218
344
218
  0
DIMSTYLE
105
21D
100
AcDbSymbolTableRecord
100
AcDbDimStyleTableRecord
  2
DIMSTYLE_1
 70
0
  3

  4

 40
1.0
 41
3.0
 42
0.5
 43
0.38
 44
1.5
 45
0.0
 46
0.0
 47
0.0
 48
0.0
140
3.0
141
0.09
142
0.0
143
25.4
144
1.0
145
0.0
146
1.0
147
0.75
 71
0
 72
0
 73
0
 74
0
 75
0
 76
0
 77
1
 78
8
 79
2
170
0
171
1
172
0
173
0
174
0
175
0
176
0
177
0
178
0
270
2
179
2
271
2
272
2
273
2
274
2
275
0
280
0
281
0
282
0
283
1
284
8
285
0
286
0
287
3
288
0
340
11
278
44
341
218
342
218
343
218
344
218
  0
ENDTAB
  0
ENDSEC
  0
SECTION
  2
BLOCKS
  0
BLOCK
  5
20
100
AcDbEntity
  8
0
100
AcDbBlockBegin
  2
*Model_Space
 70
0
 10
0.0
 20
0.0
 30
0.0
  3
*Model_Space
  1

  0
ENDBLK
  5
21
100
AcDbEntity
  8
0
100
AcDbBlockEnd
  0
BLOCK
  5
1C
100
AcDbEntity
  8
0
100
AcDbBlockBegin
  2
*Paper_Space
 70
0
 10
0.0
 20
0.0
 30
0.0
  3
*Paper_Space
  1

  0
ENDBLK
  5
1D
100
AcDbEntity
  8
0
100
AcDbBlockEnd
  0
BLOCK
  5
21E
100
AcDbEntity
  8
0
100
AcDbBlockBegin
  2
_FILLED
 70
64
 10
0.0
 20
0.0
  3
_FILLED
  1

  0
SOLID
  5
21F
100
AcDbEntity
  8
0
  6
BYBLOCK
 62
0
100
AcDbTrace
 10
0.0
 20
0.0
 11
-1.0
 21
0.3166666667
 12
-1.0
 22
-0.3166666667
 13
-1.0
 23
-0.3166666667
  0
ENDBLK
  5
220
100
AcDbEntity
  8
0
  6
BYBLOCK
 62
0
100
AcDbBlockEnd
  0
BLOCK
  5
221
100
AcDbEntity
  8
0
100
AcDbBlockBegin
 62
7
  6
CONTINUOUS
  2
*D0
 70
65
 10
0.0
 20
0.0
  3
*D0
  1

  0
MTEXT
  5
222
100
AcDbEntity
  8
0
100
AcDbMText
 62
7
  6
CONTINUOUS
  7
STANDARD
 71
2
 72
1
 10
146.5270887728
 20
237.5238250653
 30
0.0
 11
1.0
 21
0.0
 31
0.0
 73
2
 44
0.9
  1
{\ftxt;\W0.0001;\H0.0001;\~}{\ftxt;\W2.1428571429;\H3.0; }{\ftxt;\W0.0001;\H0.0001;\~}
 40
3.0
 41
9.6428571429
  0
LINE
  5
223
100
AcDbEntity
  8
0
100
AcDbLine
 62
7
  6
CONTINUOUS
 10
150.4770887728
 20
222.7717665463
 11
150.4770887728
 21
235.2738250653
  0
LINE
  5
224
100
AcDbEntity
  8
0
100
AcDbLine
 62
7
  6
CONTINUOUS
 10
142.5770887728
 20
222.5439151287
 11
142.5770887728
 21
235.2738250653
  0
LINE
  5
225
100
AcDbEntity
  8
0
100
AcDbLine
 62
7
  6
CONTINUOUS
 10
150.4770887728
 20
233.7738250653
 11
154.4770887728
 21
233.7738250653
  0
LINE
  5
226
100
AcDbEntity
  8
0
100
AcDbLine
 62
7
  6
CONTINUOUS
 10
154.4770887728
 20
233.7738250653
 11
146.5270887728
 21
233.7738250653
  0
LINE
  5
227
100
AcDbEntity
  8
0
100
AcDbLine
 62
7
  6
CONTINUOUS
 10
142.5770887728
 20
233.7738250653
 11
138.5770887728
 21
233.7738250653
  0
LINE
  5
228
100
AcDbEntity
  8
0
100
AcDbLine
 62
7
  6
CONTINUOUS
 10
138.5770887728
 20
233.7738250653
 11
146.5270887728
 21
233.7738250653
  0
INSERT
  5
229
100
AcDbEntity
  8
0
100
AcDbBlockReference
 62
7
  6
CONTINUOUS
  2
_FILLED
 10
150.4770887728
 20
233.7738250653
 41
3.0
 42
3.0
 43
3.0
 50
180.0
  0
INSERT
  5
22A
100
AcDbEntity
  8
0
100
AcDbBlockReference
 62
7
  6
CONTINUOUS
  2
_FILLED
 10
142.5770887728
 20
233.7738250653
 41
3.0
 42
3.0
 43
3.0
  0
ENDBLK
  5
22B
100
AcDbEntity
  8
0
  6
BYBLOCK
 62
0
100
AcDbBlockEnd
  0
BLOCK
  5
22C
100
AcDbEntity
  8
0
100
AcDbBlockBegin
 62
7
  6
CONTINUOUS
  2
*D1
 70
65
 10
0.0
 20
0.0
  3
*D1
  1

  0
MTEXT
  5
22D
100
AcDbEntity
  8
0
100
AcDbMText
 62
7
  6
CONTINUOUS
  7
STANDARD
 71
2
 72
1
 10
255.3377937337
 20
237.5238250653
 30
0.0
 11
1.0
 21
0.0
 31
0.0
 73
2
 44
0.9
  1
{\ftxt;\W0.0001;\H0.0001;\~}{\ftxt;\W1.9285714286;\H3.0; }{\ftxt;\W0.0001;\H0.0001;\~}
 40
3.0
 41
8.6785714286
  0
LINE
  5
22E
100
AcDbEntity
  8
0
100
AcDbLine
 62
7
  6
CONTINUOUS
 10
174.8377937337
 20
222.7758807631
 11
174.8377937337
 21
235.2738250653
  0
LINE
  5
22F
100
AcDbEntity
  8
0
100
AcDbLine
 62
7
  6
CONTINUOUS
 10
335.8377937337
 20
222.7758807631
 11
335.8377937337
 21
235.2738250653
  0
LINE
  5
230
100
AcDbEntity
  8
0
100
AcDbLine
 62
7
  6
CONTINUOUS
 10
174.8377937337
 20
233.7738250653
 11
255.3377937337
 21
233.7738250653
  0
LINE
  5
231
100
AcDbEntity
  8
0
100
AcDbLine
 62
7
  6
CONTINUOUS
 10
335.8377937337
 20
233.7738250653
 11
255.3377937337
 21
233.7738250653
  0
INSERT
  5
232
100
AcDbEntity
  8
0
100
AcDbBlockReference
 62
7
  6
CONTINUOUS
  2
_FILLED
 10
174.8377937337
 20
233.7738250653
 41
3.0
 42
3.0
 43
3.0
 50
180.0
  0
INSERT
  5
233
100
AcDbEntity
  8
0
100
AcDbBlockReference
 62
7
  6
CONTINUOUS
  2
_FILLED
 10
335.8377937337
 20
233.7738250653
 41
3.0
 42
3.0
 43
3.0
  0
ENDBLK
  5
234
100
AcDbEntity
  8
0
  6
BYBLOCK
 62
0
100
AcDbBlockEnd
  0
BLOCK
  5
235
100
AcDbEntity
  8
0
100
AcDbBlockBegin
 62
7
  6
CONTINUOUS
  2
*D2
 70
65
 10
0.0
 20
0.0
  3
*D2
  1

  0
MTEXT
  5
236
100
AcDbEntity
  8
0
100
AcDbMText
 62
7
  6
CONTINUOUS
  7
STANDARD
 71
2
 72
1
 10
342.0877937337
 20
179.7738250653
 30
0.0
 11
0.0
 21
1.0
 31
0.0
 73
2
 44
0.9
  1
{\ftxt;\W0.0001;\H0.0001;\~}{\ftxt;\W1.5714285714;\H3.0; }{\ftxt;\W0.0001;\H0.0001;\~}
 40
3.0
 41
7.0714285714
  0
LINE
  5
237
100
AcDbEntity
  8
0
100
AcDbLine
 62
7
  6
CONTINUOUS
 10
334.8398494315
 20
223.7738250653
 11
347.3377937337
 21
223.7738250653
  0
LINE
  5
238
100
AcDbEntity
  8
0
100
AcDbLine
 62
7
  6
CONTINUOUS
 10
334.8398494315
 20
135.7738250653
 11
347.3377937337
 21
135.7738250653
  0
LINE
  5
239
100
AcDbEntity
  8
0
100
AcDbLine
 62
7
  6
CONTINUOUS
 10
345.8377937337
 20
223.7738250653
 11
345.8377937337
 21
179.7738250653
  0
LINE
  5
23A
100
AcDbEntity
  8
0
100
AcDbLine
 62
7
  6
CONTINUOUS
 10
345.8377937337
 20
135.7738250653
 11
345.8377937337
 21
179.7738250653
  0
INSERT
  5
23B
100
AcDbEntity
  8
0
100
AcDbBlockReference
 62
7
  6
CONTINUOUS
  2
_FILLED
 10
345.8377937337
 20
223.7738250653
 41
3.0
 42
3.0
 43
3.0
 50
90.0
  0
INSERT
  5
23C
100
AcDbEntity
  8
0
100
AcDbBlockReference
 62
7
  6
CONTINUOUS
  2
_FILLED
 10
345.8377937337
 20
135.7738250653
 41
3.0
 42
3.0
 43
3.0
 50
270.0
  0
ENDBLK
  5
23D
100
AcDbEntity
  8
0
  6
BYBLOCK
 62
0
100
AcDbBlockEnd
  0
ENDSEC
  0
SECTION
  2
ENTITIES
  0
DIMENSION
  5
23E
100
AcDbEntity
  8
0
100
AcDbDimension
 62
7
  6
CONTINUOUS
  2
*D0
 10
142.5770887728
 20
233.7738250653
 11
146.0985150146
 21
233.7738250653
 70
160
 71
2
 72
2
 41
0.9
 42
7.9
  1
{\ftxt;\W0.0001;\H0.0001;\~}{\ftxt;\W2.1428571429;\H3.0; }{\ftxt;\W0.0001;\H0.0001;\~}
  3
DIMSTYLE_1
100
AcDbAlignedDimension
 13
150.4770887728
 23
222.2717665463
 14
142.5770887728
 24
222.0439151287
 50
180.0
100
AcDbRotatedDimension
  0
DIMENSION
  5
23F
100
AcDbEntity
  8
0
100
AcDbDimension
 62
7
  6
CONTINUOUS
  2
*D1
 10
335.8377937337
 20
233.7738250653
 11
254.9092254639
 21
233.7738250653
 70
160
 71
2
 72
2
 41
0.9
 42
161.0
  1
{\ftxt;\W0.0001;\H0.0001;\~}{\ftxt;\W1.9285714286;\H3.0; }{\ftxt;\W0.0001;\H0.0001;\~}
  3
DIMSTYLE_1
100
AcDbAlignedDimension
 13
174.8377937337
 23
222.2758807631
 14
335.8377937337
 24
222.2758807631
100
AcDbRotatedDimension
  0
DIMENSION
  5
240
100
AcDbEntity
  8
0
100
AcDbDimension
 62
7
  6
CONTINUOUS
  2
*D2
 10
345.8377937337
 20
135.7738250653
 11
345.8377937337
 21
179.3452623758
 70
160
 71
2
 72
2
 41
0.9
 42
88.0
  1
{\ftxt;\W0.0001;\H0.0001;\~}{\ftxt;\W1.5714285714;\H3.0; }{\ftxt;\W0.0001;\H0.0001;\~}
  3
DIMSTYLE_1
100
AcDbAlignedDimension
 13
334.3398494315
 23
223.7738250653
 14
334.3398494315
 24
135.7738250653
 50
270.0
100
AcDbRotatedDimension
  0
LWPOLYLINE
  5
241
100
AcDbEntity
  8
RACCORDO
100
AcDbPolyline
 62
250
  6
CONTINUOUS
 90
31
 70
0
 10
175.5690741355
 20
137.5037350019
 10
175.5706458987
 20
137.4504689797
 10
175.5747749462
 20
137.3981409507
 10
175.5814612779
 20
137.3467509148
 10
175.5907220099
 20
137.2963716908
 10
175.6025400261
 20
137.2469304598
 10
175.6168639784
 20
137.1982087658
 10
175.6337362164
 20
137.1499750803
 10
175.6531143904
 20
137.1024609318
 10
175.6748201039
 20
137.056142449
 10
175.6988588703
 20
137.0110728064
 10
175.725225176
 20
136.9671988296
 10
175.7537240843
 20
136.9248371238
 10
175.7843743118
 20
136.8839911028
 10
175.8171571418
 20
136.8446573528
 10
175.8518214871
 20
136.8071422384
 10
175.8884026271
 20
136.7714480827
 10
175.9268652826
 20
136.7375725626
 10
175.9668525283
 20
136.7058150726
 10
176.008159172
 20
136.676282478
 10
176.0509904061
 20
136.6488679135
 10
176.0956048823
 20
136.6235501787
 10
176.1421446331
 20
136.6001865499
 10
176.1904676261
 20
136.5789197509
 10
176.2404064156
 20
136.5601567524
 10
176.2921249018
 20
136.5438801392
 10
176.3454591846
 20
136.5301073266
 10
176.3997501175
 20
136.5192975314
 10
176.454777985
 20
136.5116038259
 10
176.5107625026
 20
136.5068731378
 10
176.5677036703
 20
136.5051054671
  0
LWPOLYLINE
  5
242
100
AcDbEntity
  8
ASSI
100
AcDbPolyline
 62
250
  6
CONTINUOUS
 90
31
 70
0
 10
175.5690741355
 20
137.5037350019
 10
175.5706458987
 20
137.4504689797
 10
175.5747749462
 20
137.3981409507
 10
175.5814612779
 20
137.3467509148
 10
175.5907220099
 20
137.2963716908
 10
175.6025400261
 20
137.2469304598
 10
175.6168639784
 20
137.1982087658
 10
175.6337362164
 20
137.1499750803
 10
175.6531143904
 20
137.1024609318
 10
175.6748201039
 20
137.056142449
 10
175.6988588703
 20
137.0110728064
 10
175.725225176
 20
136.9671988296
 10
175.7537240843
 20
136.9248371238
 10
175.7843743118
 20
136.8839911028
 10
175.8171571418
 20
136.8446573528
 10
175.8518214871
 20
136.8071422384
 10
175.8884026271
 20
136.7714480827
 10
175.9268652826
 20
136.7375725626
 10
175.9668525283
 20
136.7058150726
 10
176.008159172
 20
136.676282478
 10
176.0509904061
 20
136.6488679135
 10
176.0956048823
 20
136.6235501787
 10
176.1421446331
 20
136.6001865499
 10
176.1904676261
 20
136.5789197509
 10
176.2404064156
 20
136.5601567524
 10
176.2921249018
 20
136.5438801392
 10
176.3454591846
 20
136.5301073266
 10
176.3997501175
 20
136.5192975314
 10
176.454777985
 20
136.5116038259
 10
176.5107625026
 20
136.5068731378
 10
176.5677036703
 20
136.5051054671
  0
LWPOLYLINE
  5
243
100
AcDbEntity
  8
0
100
AcDbPolyline
 62
7
  6
CONTINUOUS
 90
28
 70
0
 10
174.8377937337
 20
137.2717693674
 10
174.8403172205
 20
137.1847218188
 10
174.8479015362
 20
137.0978258451
 10
174.8605475982
 20
137.0113762737
 10
174.8782708379
 20
136.9255321125
 10
174.901021327
 20
136.8407307792
 10
174.928604717
 20
136.7576658867
 10
174.9607908381
 20
136.676819427
 10
174.9974955062
 20
136.5982221955
 10
175.0386949773
 20
136.5218762348
 10
175.0842620196
 20
136.4480249662
 10
175.1340394232
 20
136.3769304096
 10
175.1880133522
 20
136.3086539676
 10
175.2462038608
 20
136.2432747293
 10
175.3082989957
 20
136.1812397935
 10
175.3737338942
 20
136.1231133476
 10
175.4420826747
 20
136.0691907624
 10
175.5132463303
 20
136.0194703192
 10
175.5870931535
 20
135.9740060363
 10
175.6633013474
 20
135.9329690009
 10
175.741671774
 20
135.8964405473
 10
175.8222892764
 20
135.8643973571
 10
175.9051427975
 20
135.8369197401
 10
175.9897374776
 20
135.8142460319
 10
176.0754264163
 20
135.7965645802
 10
176.1617906592
 20
135.7839333689
 10
176.2486590847
 20
135.7763504356
 10
176.3357380358
 20
135.7738250653
  0
LWPOLYLINE
  5
244
100
AcDbEntity
  8
ASSI
100
AcDbPolyline
 62
7
  6
CONTINUOUS
 90
28
 70
0
 10
174.8377937337
 20
137.2717693674
 10
174.8403172205
 20
137.1847218188
 10
174.8479015362
 20
137.0978258451
 10
174.8605475982
 20
137.0113762737
 10
174.8782708379
 20
136.9255321125
 10
174.901021327
 20
136.8407307792
 10
174.928604717
 20
136.7576658867
 10
174.9607908381
 20
136.676819427
 10
174.9974955062
 20
136.5982221955
 10
175.0386949773
 20
136.5218762348
 10
175.0842620196
 20
136.4480249662
 10
175.1340394232
 20
136.3769304096
 10
175.1880133522
 20
136.3086539676
 10
175.2462038608
 20
136.2432747293
 10
175.3082989957
 20
136.1812397935
 10
175.3737338942
 20
136.1231133476
 10
175.4420826747
 20
136.0691907624
 10
175.5132463303
 20
136.0194703192
 10
175.5870931535
 20
135.9740060363
 10
175.6633013474
 20
135.9329690009
 10
175.741671774
 20
135.8964405473
 10
175.8222892764
 20
135.8643973571
 10
175.9051427975
 20
135.8369197401
 10
175.9897374776
 20
135.8142460319
 10
176.0754264163
 20
135.7965645802
 10
176.1617906592
 20
135.7839333689
 10
176.2486590847
 20
135.7763504356
 10
176.3357380358
 20
135.7738250653
  0
LWPOLYLINE
  5
245
100
AcDbEntity
  8
RACCORDO
100
AcDbPolyline
 62
250
  6
CONTINUOUS
 90
31
 70
0
 10
175.0697593681
 20
137.5037350019
 10
175.0719395842
 20
137.4242269491
 10
175.0782459109
 20
137.3457320436
 10
175.0885375537
 20
137.2684563528
 10
175.1026014254
 20
137.1928909492
 10
175.1203146061
 20
137.118908188
 10
175.1417961521
 20
137.045797664
 10
175.1671371347
 20
136.9734158973
 10
175.1961972159
 20
136.9023070105
 10
175.2288452079
 20
136.8328130604
 10
175.2649566436
 20
136.7651739505
 10
175.3044600976
 20
136.6995003432
 10
175.3472727496
 20
136.635926643
 10
175.393291451
 20
136.5746098153
 10
175.4423902213
 20
136.5157210109
 10
175.4944456195
 20
136.4594110806
 10
175.5493491639
 20
136.4058045721
 10
175.6069351318
 20
136.355069767
 10
175.6669734651
 20
136.3074016159
 10
175.729004991
 20
136.2631129069
 10
175.7931343556
 20
136.2220797637
 10
175.8600385023
 20
136.1839407803
 10
175.9298413296
 20
136.1488031353
 10
176.0021938804
 20
136.1170182254
 10
176.077129621
 20
136.0887394632
 10
176.15468373
 20
136.0641527911
 10
176.2344986713
 20
136.04356943
 10
176.3159833386
 20
136.0272887831
 10
176.3987772698
 20
136.0154844078
 10
176.4827691151
 20
136.0082735015
 10
176.5677036703
 20
136.0057906997
  0
LWPOLYLINE
  5
246
100
AcDbEntity
  8
ASSI
100
AcDbPolyline
 62
250
  6
CONTINUOUS
 90
31
 70
0
 10
175.0697593681
 20
137.5037350019
 10
175.0719395842
 20
137.4242269491
 10
175.0782459109
 20
137.3457320436
 10
175.0885375537
 20
137.2684563528
 10
175.1026014254
 20
137.1928909492
 10
175.1203146061
 20
137.118908188
 10
175.1417961521
 20
137.045797664
 10
175.1671371347
 20
136.9734158973
 10
175.1961972159
 20
136.9023070105
 10
175.2288452079
 20
136.8328130604
 10
175.2649566436
 20
136.7651739505
 10
175.3044600976
 20
136.6995003432
 10
175.3472727496
 20
136.635926643
 10
175.393291451
 20
136.5746098153
 10
175.4423902213
 20
136.5157210109
 10
175.4944456195
 20
136.4594110806
 10
175.5493491639
 20
136.4058045721
 10
175.6069351318
 20
136.355069767
 10
175.6669734651
 20
136.3074016159
 10
175.729004991
 20
136.2631129069
 10
175.7931343556
 20
136.2220797637
 10
175.8600385023
 20
136.1839407803
 10
175.9298413296
 20
136.1488031353
 10
176.0021938804
 20
136.1170182254
 10
176.077129621
 20
136.0887394632
 10
176.15468373
 20
136.0641527911
 10
176.2344986713
 20
136.04356943
 10
176.3159833386
 20
136.0272887831
 10
176.3987772698
 20
136.0154844078
 10
176.4827691151
 20
136.0082735015
 10
176.5677036703
 20
136.0057906997
  0
LINE
  5
247
100
AcDbEntity
  8
0
100
AcDbLine
 62
7
  6
CONTINUOUS
 10
174.8377937337
 20
222.2758807631
 11
174.8377937337
 21
137.2717693674
  0
LINE
  5
248
100
AcDbEntity
  8
ASSI
100
AcDbLine
 62
7
  6
CONTINUOUS
 10
174.8377937337
 20
222.2758807631
 11
174.8377937337
 21
137.2717693674
  0
LINE
  5
249
100
AcDbEntity
  8
RACCORDO
100
AcDbLine
 62
250
  6
CONTINUOUS
 10
175.0697593681
 20
222.0439151287
 11
175.0697593681
 21
137.5037350019
  0
LINE
  5
24A
100
AcDbEntity
  8
ASSI
100
AcDbLine
 62
250
  6
CONTINUOUS
 10
175.0697593681
 20
222.0439151287
 11
175.0697593681
 21
137.5037350019
  0
LINE
  5
24B
100
AcDbEntity
  8
RACCORDO
100
AcDbLine
 62
250
  6
CONTINUOUS
 10
175.5690741355
 20
222.0439151287
 11
175.5690741355
 21
137.5037350019
  0
LINE
  5
24C
100
AcDbEntity
  8
ASSI
100
AcDbLine
 62
250
  6
CONTINUOUS
 10
175.5690741355
 20
222.0439151287
 11
175.5690741355
 21
137.5037350019
  0
LINE
  5
24D
100
AcDbEntity
  8
RACCORDO
100
AcDbLine
 62
250
  6
CONTINUOUS
 10
176.5677036703
 20
136.5051054671
 11
176.5677036703
 21
136.0057906997
  0
LINE
  5
24E
100
AcDbEntity
  8
ASSI
100
AcDbLine
 62
250
  6
CONTINUOUS
 10
176.5677036703
 20
136.5051054671
 11
176.5677036703
 21
136.0057906997
  0
LINE
  5
24F
100
AcDbEntity
  8
RACCORDO
100
AcDbLine
 62
250
  6
CONTINUOUS
 10
176.5677036703
 20
223.0425446634
 11
176.5677036703
 21
223.5418594308
  0
LINE
  5
250
100
AcDbEntity
  8
ASSI
100
AcDbLine
 62
250
  6
CONTINUOUS
 10
176.5677036703
 20
223.0425446634
 11
176.5677036703
 21
223.5418594308
  0
LINE
  5
251
100
AcDbEntity
  8
RACCORDO
100
AcDbLine
 62
250
  6
CONTINUOUS
 10
196.8040205028
 20
153.4899299905
 11
196.8040205028
 21
206.05772014
  0
LINE
  5
252
100
AcDbEntity
  8
ASSI
100
AcDbLine
 62
250
  6
CONTINUOUS
 10
196.8040205028
 20
153.4899299905
 11
196.8040205028
 21
206.05772014
  0
LINE
  5
253
100
AcDbEntity
  8
RACCORDO
100
AcDbLine
 62
250
  6
CONTINUOUS
 10
197.1039748114
 20
153.4899299905
 11
197.1039748114
 21
206.05772014
  0
LINE
  5
254
100
AcDbEntity
  8
ASSI
100
AcDbLine
 62
250
  6
CONTINUOUS
 10
197.1039748114
 20
153.4899299905
 11
197.1039748114
 21
206.05772014
  0
LINE
  5
255
100
AcDbEntity
  8
RACCORDO
100
AcDbLine
 62
7
  6
CONTINUOUS
 10
197.1127937337
 20
206.0489012177
 11
197.1127937337
 21
153.4987489129
  0
LINE
  5
256
100
AcDbEntity
  8
ASSI
100
AcDbLine
 62
7
  6
CONTINUOUS
 10
197.1127937337
 20
206.0489012177
 11
197.1127937337
 21
153.4987489129
  0
LINE
  5
257
100
AcDbEntity
  8
RACCORDO
100
AcDbLine
 62
250
  6
CONTINUOUS
 10
197.6038986589
 20
206.8575982962
 11
197.6038986589
 21
206.5576439876
  0
LINE
  5
258
100
AcDbEntity
  8
ASSI
100
AcDbLine
 62
250
  6
CONTINUOUS
 10
197.6038986589
 20
206.8575982962
 11
197.6038986589
 21
206.5576439876
  0
LINE
  5
259
100
AcDbEntity
  8
RACCORDO
100
AcDbLine
 62
250
  6
CONTINUOUS
 10
197.6038986589
 20
152.6900518344
 11
197.6038986589
 21
152.9900061429
  0
LINE
  5
25A
100
AcDbEntity
  8
ASSI
100
AcDbLine
 62
250
  6
CONTINUOUS
 10
197.6038986589
 20
152.6900518344
 11
197.6038986589
 21
152.9900061429
  0
LWPOLYLINE
  5
25B
100
AcDbEntity
  8
RACCORDO
100
AcDbPolyline
 62
250
  6
CONTINUOUS
 90
25
 70
0
 10
197.1039748139
 20
206.0577201375
 10
197.1049763456
 20
206.0894491362
 10
197.1079988092
 20
206.121127459
 10
197.1130448737
 20
206.1526254839
 10
197.1201178635
 20
206.1838476162
 10
197.1291989765
 20
206.2146268538
 10
197.1402250583
 20
206.2447318771
 10
197.1531347435
 20
206.2740184065
 10
197.1678777902
 20
206.3023924369
 10
197.1843709068
 20
206.3297125665
 10
197.2025225756
 20
206.3558546665
 10
197.2222610413
 20
206.3807402974
 10
197.2435235433
 20
206.4043036507
 10
197.2661095288
 20
206.4263509194
 10
197.2900233775
 20
206.4469128235
 10
197.3155679265
 20
206.4661943047
 10
197.3428261018
 20
206.4841269171
 10
197.3716098416
 20
206.5004596339
 10
197.4018574048
 20
206.5150485982
 10
197.4336150657
 20
206.5277904912
 10
197.466639232
 20
206.5384638657
 10
197.5003843743
 20
206.5468329405
 10
197.5345495658
 20
206.5528253981
 10
197.5691094805
 20
206.5564390578
 10
197.6038986623
 20
206.5576439842
  0
LWPOLYLINE
  5
25C
100
AcDbEntity
  8
ASSI
100
AcDbPolyline
 62
250
  6
CONTINUOUS
 90
25
 70
0
 10
197.1039748139
 20
206.0577201375
 10
197.1049763456
 20
206.0894491362
 10
197.1079988092
 20
206.121127459
 10
197.1130448737
 20
206.1526254839
 10
197.1201178635
 20
206.1838476162
 10
197.1291989765
 20
206.2146268538
 10
197.1402250583
 20
206.2447318771
 10
197.1531347435
 20
206.2740184065
 10
197.1678777902
 20
206.3023924369
 10
197.1843709068
 20
206.3297125665
 10
197.2025225756
 20
206.3558546665
 10
197.2222610413
 20
206.3807402974
 10
197.2435235433
 20
206.4043036507
 10
197.2661095288
 20
206.4263509194
 10
197.2900233775
 20
206.4469128235
 10
197.3155679265
 20
206.4661943047
 10
197.3428261018
 20
206.4841269171
 10
197.3716098416
 20
206.5004596339
 10
197.4018574048
 20
206.5150485982
 10
197.4336150657
 20
206.5277904912
 10
197.466639232
 20
206.5384638657
 10
197.5003843743
 20
206.5468329405
 10
197.5345495658
 20
206.5528253981
 10
197.5691094805
 20
206.5564390578
 10
197.6038986623
 20
206.5576439842
  0
LWPOLYLINE
  5
25D
100
AcDbEntity
  8
RACCORDO
100
AcDbPolyline
 62
250
  6
CONTINUOUS
 90
25
 70
0
 10
196.8040205028
 20
206.05772014
 10
196.8056473328
 20
206.1088248762
 10
196.8104930606
 20
206.1594326996
 10
196.818557686
 20
206.2095436104
 10
196.8299090629
 20
206.2594139741
 10
196.8444793375
 20
206.308787425
 10
196.8620649488
 20
206.3568948664
 10
196.8827141393
 20
206.4036733348
 10
196.9063786666
 20
206.4491857936
 10
196.9327102422
 20
206.4928520361
 10
196.9617181076
 20
206.5346155963
 10
196.9933930214
 20
206.5745329402
 10
197.0273589711
 20
206.6121932599
 10
197.06341044
 20
206.6474795064
 10
197.1017529447
 20
206.6805087286
 10
197.142627023
 20
206.7112212649
 10
197.1862318439
 20
206.7398362369
 10
197.2323682383
 20
206.7661345231
 10
197.2806792373
 20
206.7893990971
 10
197.3314754558
 20
206.8096222922
 10
197.3844462788
 20
206.8268117751
 10
197.4383028921
 20
206.8402735196
 10
197.4926156908
 20
206.8497761835
 10
197.5478142797
 20
206.8555511091
 10
197.6038986589
 20
206.8575982962
  0
LWPOLYLINE
  5
25E
100
AcDbEntity
  8
ASSI
100
AcDbPolyline
 62
250
  6
CONTINUOUS
 90
25
 70
0
 10
196.8040205028
 20
206.05772014
 10
196.8056473328
 20
206.1088248762
 10
196.8104930606
 20
206.1594326996
 10
196.818557686
 20
206.2095436104
 10
196.8299090629
 20
206.2594139741
 10
196.8444793375
 20
206.308787425
 10
196.8620649488
 20
206.3568948664
 10
196.8827141393
 20
206.4036733348
 10
196.9063786666
 20
206.4491857936
 10
196.9327102422
 20
206.4928520361
 10
196.9617181076
 20
206.5346155963
 10
196.9933930214
 20
206.5745329402
 10
197.0273589711
 20
206.6121932599
 10
197.06341044
 20
206.6474795064
 10
197.1017529447
 20
206.6805087286
 10
197.142627023
 20
206.7112212649
 10
197.1862318439
 20
206.7398362369
 10
197.2323682383
 20
206.7661345231
 10
197.2806792373
 20
206.7893990971
 10
197.3314754558
 20
206.8096222922
 10
197.3844462788
 20
206.8268117751
 10
197.4383028921
 20
206.8402735196
 10
197.4926156908
 20
206.8497761835
 10
197.5478142797
 20
206.8555511091
 10
197.6038986589
 20
206.8575982962
  0
LWPOLYLINE
  5
25F
100
AcDbEntity
  8
0
100
AcDbPolyline
 62
7
  6
CONTINUOUS
 90
3
 70
0
 43
0.3499999917
 10
252.444942627
 20
236.6666748047
 10
253.3020666504
 20
237.5238244629
 10
253.3020666504
 20
234.5238134766
  0
LWPOLYLINE
  5
260
100
AcDbEntity
  8
RACCORDO
100
AcDbPolyline
 62
250
  6
CONTINUOUS
 90
31
 70
0
 10
334.1078837971
 20
136.5051054671
 10
334.1611498192
 20
136.5066772303
 10
334.2134778482
 20
136.5108062778
 10
334.2648678841
 20
136.5174926095
 10
334.3152471082
 20
136.5267533415
 10
334.3646883391
 20
136.5385713577
 10
334.4134100332
 20
136.55289531
 10
334.4616437186
 20
136.5697675479
 10
334.5091578672
 20
136.589145722
 10
334.55547635
 20
136.6108514355
 10
334.6005459925
 20
136.6348902018
 10
334.6444199694
 20
136.6612565076
 10
334.6867816751
 20
136.6897554159
 10
334.7276276962
 20
136.7204056434
 10
334.7669614461
 20
136.7531884734
 10
334.8044765606
 20
136.7878528187
 10
334.8401707162
 20
136.8244339587
 10
334.8740462364
 20
136.8628966142
 10
334.9058037263
 20
136.9028838599
 10
334.935336321
 20
136.9441905036
 10
334.9627508855
 20
136.9870217377
 10
334.9880686202
 20
137.0316362139
 10
335.011432249
 20
137.0781759647
 10
335.0326990481
 20
137.1264989577
 10
335.0514620466
 20
137.1764377471
 10
335.0677386598
 20
137.2281562334
 10
335.0815114723
 20
137.2814905162
 10
335.0923212675
 20
137.3357814491
 10
335.100014973
 20
137.3908093166
 10
335.1047456611
 20
137.4467938342
 10
335.1065133318
 20
137.5037350019
  0
LWPOLYLINE
  5
261
100
AcDbEntity
  8
ASSI
100
AcDbPolyline
 62
250
  6
CONTINUOUS
 90
31
 70
0
 10
334.1078837971
 20
136.5051054671
 10
334.1611498192
 20
136.5066772303
 10
334.2134778482
 20
136.5108062778
 10
334.2648678841
 20
136.5174926095
 10
334.3152471082
 20
136.5267533415
 10
334.3646883391
 20
136.5385713577
 10
334.4134100332
 20
136.55289531
 10
334.4616437186
 20
136.5697675479
 10
334.5091578672
 20
136.589145722
 10
334.55547635
 20
136.6108514355
 10
334.6005459925
 20
136.6348902018
 10
334.6444199694
 20
136.6612565076
 10
334.6867816751
 20
136.6897554159
 10
334.7276276962
 20
136.7204056434
 10
334.7669614461
 20
136.7531884734
 10
334.8044765606
 20
136.7878528187
 10
334.8401707162
 20
136.8244339587
 10
334.8740462364
 20
136.8628966142
 10
334.9058037263
 20
136.9028838599
 10
334.935336321
 20
136.9441905036
 10
334.9627508855
 20
136.9870217377
 10
334.9880686202
 20
137.0316362139
 10
335.011432249
 20
137.0781759647
 10
335.0326990481
 20
137.1264989577
 10
335.0514620466
 20
137.1764377471
 10
335.0677386598
 20
137.2281562334
 10
335.0815114723
 20
137.2814905162
 10
335.0923212675
 20
137.3357814491
 10
335.100014973
 20
137.3908093166
 10
335.1047456611
 20
137.4467938342
 10
335.1065133318
 20
137.5037350019
  0
LWPOLYLINE
  5
262
100
AcDbEntity
  8
0
100
AcDbPolyline
 62
7
  6
CONTINUOUS
 90
28
 70
0
 10
334.3398494315
 20
135.7738250653
 10
334.4268969801
 20
135.7763485521
 10
334.5137929539
 20
135.7839328678
 10
334.6002425253
 20
135.7965789297
 10
334.6860866864
 20
135.8143021694
 10
334.7708880197
 20
135.8370526586
 10
334.8539529122
 20
135.8646360486
 10
334.9347993719
 20
135.8968221697
 10
335.0133966035
 20
135.9335268378
 10
335.0897425642
 20
135.9747263089
 10
335.1635938327
 20
136.0202933512
 10
335.2346883894
 20
136.0700707548
 10
335.3029648313
 20
136.1240446838
 10
335.3683440696
 20
136.1822351924
 10
335.4303790054
 20
136.2443303273
 10
335.4885054514
 20
136.3097652258
 10
335.5424280366
 20
136.3781140063
 10
335.5921484798
 20
136.4492776619
 10
335.6376127626
 20
136.5231244851
 10
335.6786497981
 20
136.599332679
 10
335.7151782517
 20
136.6777031056
 10
335.7472214419
 20
136.758320608
 10
335.7746990589
 20
136.8411741291
 10
335.7973727671
 20
136.9257688092
 10
335.8150542188
 20
137.0114577479
 10
335.8276854301
 20
137.0978219908
 10
335.8352683633
 20
137.1846904163
 10
335.8377937337
 20
137.2717693674
  0
LWPOLYLINE
  5
263
100
AcDbEntity
  8
ASSI
100
AcDbPolyline
 62
7
  6
CONTINUOUS
 90
28
 70
0
 10
334.3398494315
 20
135.7738250653
 10
334.4268969801
 20
135.7763485521
 10
334.5137929539
 20
135.7839328678
 10
334.6002425253
 20
135.7965789297
 10
334.6860866864
 20
135.8143021694
 10
334.7708880197
 20
135.8370526586
 10
334.8539529122
 20
135.8646360486
 10
334.9347993719
 20
135.8968221697
 10
335.0133966035
 20
135.9335268378
 10
335.0897425642
 20
135.9747263089
 10
335.1635938327
 20
136.0202933512
 10
335.2346883894
 20
136.0700707548
 10
335.3029648313
 20
136.1240446838
 10
335.3683440696
 20
136.1822351924
 10
335.4303790054
 20
136.2443303273
 10
335.4885054514
 20
136.3097652258
 10
335.5424280366
 20
136.3781140063
 10
335.5921484798
 20
136.4492776619
 10
335.6376127626
 20
136.5231244851
 10
335.6786497981
 20
136.599332679
 10
335.7151782517
 20
136.6777031056
 10
335.7472214419
 20
136.758320608
 10
335.7746990589
 20
136.8411741291
 10
335.7973727671
 20
136.9257688092
 10
335.8150542188
 20
137.0114577479
 10
335.8276854301
 20
137.0978219908
 10
335.8352683633
 20
137.1846904163
 10
335.8377937337
 20
137.2717693674
  0
LWPOLYLINE
  5
264
100
AcDbEntity
  8
RACCORDO
100
AcDbPolyline
 62
250
  6
CONTINUOUS
 90
31
 70
0
 10
334.1078837971
 20
136.0057906997
 10
334.1873918498
 20
136.0079709158
 10
334.2658867554
 20
136.0142772424
 10
334.3431624461
 20
136.0245688853
 10
334.4187278498
 20
136.038632757
 10
334.492710611
 20
136.0563459377
 10
334.565821135
 20
136.0778274837
 10
334.6382029017
 20
136.1031684663
 10
334.7093117884
 20
136.1322285475
 10
334.7788057386
 20
136.1648765395
 10
334.8464448485
 20
136.2009879752
 10
334.9121184558
 20
136.2404914292
 10
334.975692156
 20
136.2833040812
 10
335.0370089837
 20
136.3293227826
 10
335.0958977881
 20
136.3784215529
 10
335.1522077184
 20
136.4304769511
 10
335.2058142268
 20
136.4853804954
 10
335.256549032
 20
136.5429664634
 10
335.3042171831
 20
136.6030047967
 10
335.348505892
 20
136.6650363226
 10
335.3895390353
 20
136.7291656872
 10
335.4276780186
 20
136.7960698338
 10
335.4628156636
 20
136.8658726612
 10
335.4946005736
 20
136.938225212
 10
335.5228793358
 20
137.0131609525
 10
335.5474660079
 20
137.0907150616
 10
335.5680493689
 20
137.1705300029
 10
335.5843300158
 20
137.2520146701
 10
335.5961343912
 20
137.3348086014
 10
335.6033452975
 20
137.4188004467
 10
335.6058280992
 20
137.5037350019
  0
LWPOLYLINE
  5
265
100
AcDbEntity
  8
ASSI
100
AcDbPolyline
 62
250
  6
CONTINUOUS
 90
31
 70
0
 10
334.1078837971
 20
136.0057906997
 10
334.1873918498
 20
136.0079709158
 10
334.2658867554
 20
136.0142772424
 10
334.3431624461
 20
136.0245688853
 10
334.4187278498
 20
136.038632757
 10
334.492710611
 20
136.0563459377
 10
334.565821135
 20
136.0778274837
 10
334.6382029017
 20
136.1031684663
 10
334.7093117884
 20
136.1322285475
 10
334.7788057386
 20
136.1648765395
 10
334.8464448485
 20
136.2009879752
 10
334.9121184558
 20
136.2404914292
 10
334.975692156
 20
136.2833040812
 10
335.0370089837
 20
136.3293227826
 10
335.0958977881
 20
136.3784215529
 10
335.1522077184
 20
136.4304769511
 10
335.2058142268
 20
136.4853804954
 10
335.256549032
 20
136.5429664634
 10
335.3042171831
 20
136.6030047967
 10
335.348505892
 20
136.6650363226
 10
335.3895390353
 20
136.7291656872
 10
335.4276780186
 20
136.7960698338
 10
335.4628156636
 20
136.8658726612
 10
335.4946005736
 20
136.938225212
 10
335.5228793358
 20
137.0131609525
 10
335.5474660079
 20
137.0907150616
 10
335.5680493689
 20
137.1705300029
 10
335.5843300158
 20
137.2520146701
 10
335.5961343912
 20
137.3348086014
 10
335.6033452975
 20
137.4188004467
 10
335.6058280992
 20
137.5037350019
  0
LINE
  5
266
100
AcDbEntity
  8
0
100
AcDbLine
 62
7
  6
CONTINUOUS
 10
176.3357380358
 20
135.7738250653
 11
334.3398494315
 21
135.7738250653
  0
LINE
  5
267
100
AcDbEntity
  8
ASSI
100
AcDbLine
 62
7
  6
CONTINUOUS
 10
176.3357380358
 20
135.7738250653
 11
334.3398494315
 21
135.7738250653
  0
LINE
  5
268
100
AcDbEntity
  8
RACCORDO
100
AcDbLine
 62
250
  6
CONTINUOUS
 10
176.5677036703
 20
136.0057906997
 11
334.1078837971
 21
136.0057906997
  0
LINE
  5
269
100
AcDbEntity
  8
ASSI
100
AcDbLine
 62
250
  6
CONTINUOUS
 10
176.5677036703
 20
136.0057906997
 11
334.1078837971
 21
136.0057906997
  0
LINE
  5
26A
100
AcDbEntity
  8
RACCORDO
100
AcDbLine
 62
250
  6
CONTINUOUS
 10
176.5677036703
 20
136.5051054671
 11
334.1078837971
 21
136.5051054671
  0
LINE
  5
26B
100
AcDbEntity
  8
ASSI
100
AcDbLine
 62
250
  6
CONTINUOUS
 10
176.5677036703
 20
136.5051054671
 11
334.1078837971
 21
136.5051054671
  0
LINE
  5
26C
100
AcDbEntity
  8
RACCORDO
100
AcDbLine
 62
250
  6
CONTINUOUS
 10
175.5690741355
 20
137.5037350019
 11
175.0697593681
 21
137.5037350019
  0
LINE
  5
26D
100
AcDbEntity
  8
ASSI
100
AcDbLine
 62
250
  6
CONTINUOUS
 10
175.5690741355
 20
137.5037350019
 11
175.0697593681
 21
137.5037350019
  0
LINE
  5
26E
100
AcDbEntity
  8
RACCORDO
100
AcDbLine
 62
250
  6
CONTINUOUS
 10
335.1065133318
 20
137.5037350019
 11
335.6058280992
 21
137.5037350019
  0
LINE
  5
26F
100
AcDbEntity
  8
ASSI
100
AcDbLine
 62
250
  6
CONTINUOUS
 10
335.1065133318
 20
137.5037350019
 11
335.6058280992
 21
137.5037350019
  0
LWPOLYLINE
  5
270
100
AcDbEntity
  8
0
100
AcDbPolyline
 62
7
  6
CONTINUOUS
 90
10
 70
0
 43
0.3499999917
 10
255.2306469727
 20
237.5238244629
 10
254.5878039551
 20
236.8809558105
 10
254.1592163086
 20
236.0238317871
 10
254.1592163086
 20
234.952401123
 10
254.5878039551
 20
234.5238134766
 10
255.2306469727
 20
234.5238134766
 10
255.6592346191
 20
234.952401123
 10
255.6592346191
 20
235.8095507812
 10
255.2306469727
 20
236.238112793
 10
254.3020788574
 20
236.238112793
  0
LWPOLYLINE
  5
271
100
AcDbEntity
  8
0
100
AcDbPolyline
 62
7
  6
CONTINUOUS
 90
3
 70
0
 43
0.3499999917
 10
256.5163586426
 20
236.6666748047
 10
257.3735083008
 20
237.5238244629
 10
257.3735083008
 20
234.5238134766
  0
LINE
  5
272
100
AcDbEntity
  8
SCRITTE
100
AcDbLine
 62
250
  6
CONTINUOUS
 10
335.7726500779
 20
143.0738890653
 11
335.6678367205
 21
143.0738890653
  0
LINE
  5
273
100
AcDbEntity
  8
SCRITTE
100
AcDbLine
 62
250
  6
CONTINUOUS
 10
335.6678367205
 20
143.4913330653
 11
335.7726500779
 21
143.4913330653
  0
LINE
  5
274
100
AcDbEntity
  8
SCRITTE
100
AcDbLine
 62
250
  6
CONTINUOUS
 10
335.7726500918
 20
147.5770738969
 11
335.6690675391
 21
147.5770738969
  0
LINE
  5
275
100
AcDbEntity
  8
SCRITTE
100
AcDbLine
 62
250
  6
CONTINUOUS
 10
335.6856979637
 20
147.9789969499
 11
335.7144695415
 21
147.9789969499
  0
LINE
  5
276
100
AcDbEntity
  8
SCRITTE
100
AcDbLine
 62
250
  6
CONTINUOUS
 10
335.7316344032
 20
147.9928387834
 11
335.7726500918
 21
147.9928387834
  0
LINE
  5
277
100
AcDbEntity
  8
SCRITTE
100
AcDbLine
 62
250
  6
CONTINUOUS
 10
335.7231077739
 20
148.6503033768
 11
335.7237270921
 21
148.6503033768
  0
LINE
  5
278
100
AcDbEntity
  8
RACCORDO
100
AcDbLine
 62
250
  6
CONTINUOUS
 10
242.0716888084
 20
206.5576439876
 11
242.0628698861
 21
206.5488250653
  0
LINE
  5
279
100
AcDbEntity
  8
ASSI
100
AcDbLine
 62
250
  6
CONTINUOUS
 10
242.0716888084
 20
206.5576439876
 11
242.0628698861
 21
206.5488250653
  0
LINE
  5
27A
100
AcDbEntity
  8
RACCORDO
100
AcDbLine
 62
250
  6
CONTINUOUS
 10
242.571612656
 20
206.05772014
 11
242.5627937337
 21
206.0489012177
  0
LINE
  5
27B
100
AcDbEntity
  8
ASSI
100
AcDbLine
 62
250
  6
CONTINUOUS
 10
242.571612656
 20
206.05772014
 11
242.5627937337
 21
206.0489012177
  0
LINE
  5
27C
100
AcDbEntity
  8
RACCORDO
100
AcDbLine
 62
250
  6
CONTINUOUS
 10
175.0697593681
 20
137.5037350019
 11
174.8377937337
 21
137.2717693674
  0
LINE
  5
27D
100
AcDbEntity
  8
ASSI
100
AcDbLine
 62
250
  6
CONTINUOUS
 10
175.0697593681
 20
137.5037350019
 11
174.8377937337
 21
137.2717693674
  0
LINE
  5
27E
100
AcDbEntity
  8
RACCORDO
100
AcDbLine
 62
250
  6
CONTINUOUS
 10
176.5677036703
 20
136.0057906997
 11
176.3357380358
 21
135.7738250653
  0
LINE
  5
27F
100
AcDbEntity
  8
ASSI
100
AcDbLine
 62
250
  6
CONTINUOUS
 10
176.5677036703
 20
136.0057906997
 11
176.3357380358
 21
135.7738250653
  0
LINE
  5
280
100
AcDbEntity
  8
RACCORDO
100
AcDbLine
 62
250
  6
CONTINUOUS
 10
313.0716888084
 20
152.6900518344
 11
268.6038986589
 21
152.6900518344
  0
LINE
  5
281
100
AcDbEntity
  8
ASSI
100
AcDbLine
 62
250
  6
CONTINUOUS
 10
313.0716888084
 20
152.6900518344
 11
268.6038986589
 21
152.6900518344
  0
LINE
  5
282
100
AcDbEntity
  8
RACCORDO
100
AcDbLine
 62
250
  6
CONTINUOUS
 10
242.0716888084
 20
152.6900518344
 11
197.6038986589
 21
152.6900518344
  0
LINE
  5
283
100
AcDbEntity
  8
ASSI
100
AcDbLine
 62
250
  6
CONTINUOUS
 10
242.0716888084
 20
152.6900518344
 11
197.6038986589
 21
152.6900518344
  0
LINE
  5
284
100
AcDbEntity
  8
RACCORDO
100
AcDbLine
 62
250
  6
CONTINUOUS
 10
313.0716888084
 20
152.9900061429
 11
268.6038986589
 21
152.9900061429
  0
LINE
  5
285
100
AcDbEntity
  8
ASSI
100
AcDbLine
 62
250
  6
CONTINUOUS
 10
313.0716888084
 20
152.9900061429
 11
268.6038986589
 21
152.9900061429
  0
LINE
  5
286
100
AcDbEntity
  8
RACCORDO
100
AcDbLine
 62
250
  6
CONTINUOUS
 10
242.0716888084
 20
152.9900061429
 11
197.6038986589
 21
152.9900061429
  0
LINE
  5
287
100
AcDbEntity
  8
ASSI
100
AcDbLine
 62
250
  6
CONTINUOUS
 10
242.0716888084
 20
152.9900061429
 11
197.6038986589
 21
152.9900061429
  0
LINE
  5
288
100
AcDbEntity
  8
RACCORDO
100
AcDbLine
 62
7
  6
CONTINUOUS
 10
197.6127175813
 20
152.9988250653
 11
242.0628698861
 21
152.9988250653
  0
LINE
  5
289
100
AcDbEntity
  8
ASSI
100
AcDbLine
 62
7
  6
CONTINUOUS
 10
197.6127175813
 20
152.9988250653
 11
242.0628698861
 21
152.9988250653
  0
LINE
  5
28A
100
AcDbEntity
  8
RACCORDO
100
AcDbLine
 62
7
  6
CONTINUOUS
 10
268.6127175813
 20
152.9988250653
 11
313.0628698861
 21
152.9988250653
  0
LINE
  5
28B
100
AcDbEntity
  8
ASSI
100
AcDbLine
 62
7
  6
CONTINUOUS
 10
268.6127175813
 20
152.9988250653
 11
313.0628698861
 21
152.9988250653
  0
LINE
  5
28C
100
AcDbEntity
  8
RACCORDO
100
AcDbLine
 62
250
  6
CONTINUOUS
 10
313.8715669646
 20
153.4899299905
 11
313.571612656
 21
153.4899299905
  0
LINE
  5
28D
100
AcDbEntity
  8
ASSI
100
AcDbLine
 62
250
  6
CONTINUOUS
 10
313.8715669646
 20
153.4899299905
 11
313.571612656
 21
153.4899299905
  0
LINE
  5
28E
100
AcDbEntity
  8
RACCORDO
100
AcDbLine
 62
250
  6
CONTINUOUS
 10
242.8715669646
 20
153.4899299905
 11
242.571612656
 21
153.4899299905
  0
LINE
  5
28F
100
AcDbEntity
  8
ASSI
100
AcDbLine
 62
250
  6
CONTINUOUS
 10
242.8715669646
 20
153.4899299905
 11
242.571612656
 21
153.4899299905
  0
LINE
  5
290
100
AcDbEntity
  8
RACCORDO
100
AcDbLine
 62
250
  6
CONTINUOUS
 10
196.8040205028
 20
153.4899299905
 11
197.1039748114
 21
153.4899299905
  0
LINE
  5
291
100
AcDbEntity
  8
ASSI
100
AcDbLine
 62
250
  6
CONTINUOUS
 10
196.8040205028
 20
153.4899299905
 11
197.1039748114
 21
153.4899299905
  0
LINE
  5
292
100
AcDbEntity
  8
RACCORDO
100
AcDbLine
 62
250
  6
CONTINUOUS
 10
267.8040205028
 20
153.4899299905
 11
268.1039748114
 21
153.4899299905
  0
LINE
  5
293
100
AcDbEntity
  8
ASSI
100
AcDbLine
 62
250
  6
CONTINUOUS
 10
267.8040205028
 20
153.4899299905
 11
268.1039748114
 21
153.4899299905
  0
LWPOLYLINE
  5
294
100
AcDbEntity
  8
RACCORDO
100
AcDbPolyline
 62
250
  6
CONTINUOUS
 90
25
 70
0
 10
197.6038986615
 20
152.9900061455
 10
197.5721696627
 20
152.9910076772
 10
197.54049134
 20
152.9940301408
 10
197.508993315
 20
152.9990762053
 10
197.4777711828
 20
153.0061491951
 10
197.4469919452
 20
153.015230308
 10
197.4168869218
 20
153.0262563899
 10
197.3876003925
 20
153.0391660751
 10
197.3592263621
 20
153.0539091218
 10
197.3319062324
 20
153.0704022384
 10
197.3057641324
 20
153.0885539072
 10
197.2808785015
 20
153.1082923729
 10
197.2573151483
 20
153.1295548749
 10
197.2352678795
 20
153.1521408604
 10
197.2147059754
 20
153.1760547091
 10
197.1954244943
 20
153.2015992581
 10
197.1774918818
 20
153.2288574334
 10
197.161159165
 20
153.2576411732
 10
197.1465702008
 20
153.2878887364
 10
197.1338283078
 20
153.3196463973
 10
197.1231549332
 20
153.3526705636
 10
197.1147858585
 20
153.3864157059
 10
197.1087934009
 20
153.4205808974
 10
197.1051797411
 20
153.455140812
 10
197.1039748147
 20
153.4899299939
  0
LWPOLYLINE
  5
295
100
AcDbEntity
  8
ASSI
100
AcDbPolyline
 62
250
  6
CONTINUOUS
 90
25
 70
0
 10
197.6038986615
 20
152.9900061455
 10
197.5721696627
 20
152.9910076772
 10
197.54049134
 20
152.9940301408
 10
197.508993315
 20
152.9990762053
 10
197.4777711828
 20
153.0061491951
 10
197.4469919452
 20
153.015230308
 10
197.4168869218
 20
153.0262563899
 10
197.3876003925
 20
153.0391660751
 10
197.3592263621
 20
153.0539091218
 10
197.3319062324
 20
153.0704022384
 10
197.3057641324
 20
153.0885539072
 10
197.2808785015
 20
153.1082923729
 10
197.2573151483
 20
153.1295548749
 10
197.2352678795
 20
153.1521408604
 10
197.2147059754
 20
153.1760547091
 10
197.1954244943
 20
153.2015992581
 10
197.1774918818
 20
153.2288574334
 10
197.161159165
 20
153.2576411732
 10
197.1465702008
 20
153.2878887364
 10
197.1338283078
 20
153.3196463973
 10
197.1231549332
 20
153.3526705636
 10
197.1147858585
 20
153.3864157059
 10
197.1087934009
 20
153.4205808974
 10
197.1051797411
 20
153.455140812
 10
197.1039748147
 20
153.4899299939
  0
LWPOLYLINE
  5
296
100
AcDbEntity
  8
RACCORDO
100
AcDbPolyline
 62
250
  6
CONTINUOUS
 90
25
 70
0
 10
268.6038986615
 20
152.9900061455
 10
268.5721696627
 20
152.9910076772
 10
268.54049134
 20
152.9940301408
 10
268.508993315
 20
152.9990762053
 10
268.4777711828
 20
153.0061491951
 10
268.4469919452
 20
153.015230308
 10
268.4168869218
 20
153.0262563899
 10
268.3876003925
 20
153.0391660751
 10
268.3592263621
 20
153.0539091218
 10
268.3319062324
 20
153.0704022384
 10
268.3057641324
 20
153.0885539072
 10
268.2808785015
 20
153.1082923729
 10
268.2573151483
 20
153.1295548749
 10
268.2352678795
 20
153.1521408604
 10
268.2147059754
 20
153.1760547091
 10
268.1954244943
 20
153.2015992581
 10
268.1774918818
 20
153.2288574334
 10
268.161159165
 20
153.2576411732
 10
268.1465702008
 20
153.2878887364
 10
268.1338283078
 20
153.3196463973
 10
268.1231549332
 20
153.3526705636
 10
268.1147858585
 20
153.3864157059
 10
268.1087934009
 20
153.4205808974
 10
268.1051797411
 20
153.455140812
 10
268.1039748147
 20
153.4899299939
  0
LWPOLYLINE
  5
297
100
AcDbEntity
  8
ASSI
100
AcDbPolyline
 62
250
  6
CONTINUOUS
 90
25
 70
0
 10
268.6038986615
 20
152.9900061455
 10
268.5721696627
 20
152.9910076772
 10
268.54049134
 20
152.9940301408
 10
268.508993315
 20
152.9990762053
 10
268.4777711828
 20
153.0061491951
 10
268.4469919452
 20
153.015230308
 10
268.4168869218
 20
153.0262563899
 10
268.3876003925
 20
153.0391660751
 10
268.3592263621
 20
153.0539091218
 10
268.3319062324
 20
153.0704022384
 10
268.3057641324
 20
153.0885539072
 10
268.2808785015
 20
153.1082923729
 10
268.2573151483
 20
153.1295548749
 10
268.2352678795
 20
153.1521408604
 10
268.2147059754
 20
153.1760547091
 10
268.1954244943
 20
153.2015992581
 10
268.1774918818
 20
153.2288574334
 10
268.161159165
 20
153.2576411732
 10
268.1465702008
 20
153.2878887364
 10
268.1338283078
 20
153.3196463973
 10
268.1231549332
 20
153.3526705636
 10
268.1147858585
 20
153.3864157059
 10
268.1087934009
 20
153.4205808974
 10
268.1051797411
 20
153.455140812
 10
268.1039748147
 20
153.4899299939
  0
LWPOLYLINE
  5
298
100
AcDbEntity
  8
RACCORDO
100
AcDbPolyline
 62
250
  6
CONTINUOUS
 90
25
 70
0
 10
197.6038986589
 20
152.6900518344
 10
197.5527939228
 20
152.6916786644
 10
197.5021860993
 20
152.6965243922
 10
197.4520751886
 20
152.7045890176
 10
197.4022048249
 20
152.7159403945
 10
197.3528313739
 20
152.7305106691
 10
197.3047239326
 20
152.7480962804
 10
197.2579454642
 20
152.7687454709
 10
197.2124330054
 20
152.7924099982
 10
197.1687667628
 20
152.8187415738
 10
197.1270032027
 20
152.8477494392
 10
197.0870858587
 20
152.879424353
 10
197.0494255391
 20
152.9133903027
 10
197.0141392926
 20
152.9494417716
 10
196.9811100704
 20
152.9877842763
 10
196.9503975341
 20
153.0286583546
 10
196.921782562
 20
153.0722631755
 10
196.8954842758
 20
153.1183995699
 10
196.8722197018
 20
153.1667105689
 10
196.8519965067
 20
153.2175067874
 10
196.8348070238
 20
153.2704776104
 10
196.8213452794
 20
153.3243342237
 10
196.8118426154
 20
153.3786470224
 10
196.8060676899
 20
153.4338456113
 10
196.8040205028
 20
153.4899299905
  0
LWPOLYLINE
  5
299
100
AcDbEntity
  8
ASSI
100
AcDbPolyline
 62
250
  6
CONTINUOUS
 90
25
 70
0
 10
197.6038986589
 20
152.6900518344
 10
197.5527939228
 20
152.6916786644
 10
197.5021860993
 20
152.6965243922
 10
197.4520751886
 20
152.7045890176
 10
197.4022048249
 20
152.7159403945
 10
197.3528313739
 20
152.7305106691
 10
197.3047239326
 20
152.7480962804
 10
197.2579454642
 20
152.7687454709
 10
197.2124330054
 20
152.7924099982
 10
197.1687667628
 20
152.8187415738
 10
197.1270032027
 20
152.8477494392
 10
197.0870858587
 20
152.879424353
 10
197.0494255391
 20
152.9133903027
 10
197.0141392926
 20
152.9494417716
 10
196.9811100704
 20
152.9877842763
 10
196.9503975341
 20
153.0286583546
 10
196.921782562
 20
153.0722631755
 10
196.8954842758
 20
153.1183995699
 10
196.8722197018
 20
153.1667105689
 10
196.8519965067
 20
153.2175067874
 10
196.8348070238
 20
153.2704776104
 10
196.8213452794
 20
153.3243342237
 10
196.8118426154
 20
153.3786470224
 10
196.8060676899
 20
153.4338456113
 10
196.8040205028
 20
153.4899299905
  0
LWPOLYLINE
  5
29A
100
AcDbEntity
  8
RACCORDO
100
AcDbPolyline
 62
250
  6
CONTINUOUS
 90
25
 70
0
 10
268.6038986589
 20
152.6900518344
 10
268.5527939228
 20
152.6916786644
 10
268.5021860993
 20
152.6965243922
 10
268.4520751886
 20
152.7045890176
 10
268.4022048249
 20
152.7159403945
 10
268.3528313739
 20
152.7305106691
 10
268.3047239326
 20
152.7480962804
 10
268.2579454642
 20
152.7687454709
 10
268.2124330054
 20
152.7924099982
 10
268.1687667628
 20
152.8187415738
 10
268.1270032027
 20
152.8477494392
 10
268.0870858587
 20
152.879424353
 10
268.0494255391
 20
152.9133903027
 10
268.0141392926
 20
152.9494417716
 10
267.9811100704
 20
152.9877842763
 10
267.9503975341
 20
153.0286583546
 10
267.921782562
 20
153.0722631755
 10
267.8954842758
 20
153.1183995699
 10
267.8722197018
 20
153.1667105689
 10
267.8519965067
 20
153.2175067874
 10
267.8348070238
 20
153.2704776104
 10
267.8213452794
 20
153.3243342237
 10
267.8118426154
 20
153.3786470224
 10
267.8060676899
 20
153.4338456113
 10
267.8040205028
 20
153.4899299905
  0
LWPOLYLINE
  5
29B
100
AcDbEntity
  8
ASSI
100
AcDbPolyline
 62
250
  6
CONTINUOUS
 90
25
 70
0
 10
268.6038986589
 20
152.6900518344
 10
268.5527939228
 20
152.6916786644
 10
268.5021860993
 20
152.6965243922
 10
268.4520751886
 20
152.7045890176
 10
268.4022048249
 20
152.7159403945
 10
268.3528313739
 20
152.7305106691
 10
268.3047239326
 20
152.7480962804
 10
268.2579454642
 20
152.7687454709
 10
268.2124330054
 20
152.7924099982
 10
268.1687667628
 20
152.8187415738
 10
268.1270032027
 20
152.8477494392
 10
268.0870858587
 20
152.879424353
 10
268.0494255391
 20
152.9133903027
 10
268.0141392926
 20
152.9494417716
 10
267.9811100704
 20
152.9877842763
 10
267.9503975341
 20
153.0286583546
 10
267.921782562
 20
153.0722631755
 10
267.8954842758
 20
153.1183995699
 10
267.8722197018
 20
153.1667105689
 10
267.8519965067
 20
153.2175067874
 10
267.8348070238
 20
153.2704776104
 10
267.8213452794
 20
153.3243342237
 10
267.8118426154
 20
153.3786470224
 10
267.8060676899
 20
153.4338456113
 10
267.8040205028
 20
153.4899299905
  0
LINE
  5
29C
100
AcDbEntity
  8
RACCORDO
100
AcDbLine
 62
250
  6
CONTINUOUS
 10
242.0716888084
 20
152.9900061429
 11
242.0628698861
 21
152.9988250653
  0
LINE
  5
29D
100
AcDbEntity
  8
ASSI
100
AcDbLine
 62
250
  6
CONTINUOUS
 10
242.0716888084
 20
152.9900061429
 11
242.0628698861
 21
152.9988250653
  0
LINE
  5
29E
100
AcDbEntity
  8
RACCORDO
100
AcDbLine
 62
250
  6
CONTINUOUS
 10
242.571612656
 20
153.4899299905
 11
242.5627937337
 21
153.4987489129
  0
LINE
  5
29F
100
AcDbEntity
  8
ASSI
100
AcDbLine
 62
250
  6
CONTINUOUS
 10
242.571612656
 20
153.4899299905
 11
242.5627937337
 21
153.4987489129
  0
LINE
  5
2A0
100
AcDbEntity
  8
RACCORDO
100
AcDbLine
 62
250
  6
CONTINUOUS
 10
175.0697593681
 20
222.0439151287
 11
174.8377937337
 21
222.2758807631
  0
LINE
  5
2A1
100
AcDbEntity
  8
ASSI
100
AcDbLine
 62
250
  6
CONTINUOUS
 10
175.0697593681
 20
222.0439151287
 11
174.8377937337
 21
222.2758807631
  0
LINE
  5
2A2
100
AcDbEntity
  8
RACCORDO
100
AcDbLine
 62
250
  6
CONTINUOUS
 10
176.5677036703
 20
223.5418594308
 11
176.3357380358
 21
223.7738250653
  0
LINE
  5
2A3
100
AcDbEntity
  8
ASSI
100
AcDbLine
 62
250
  6
CONTINUOUS
 10
176.5677036703
 20
223.5418594308
 11
176.3357380358
 21
223.7738250653
  0
LINE
  5
2A4
100
AcDbEntity
  8
RACCORDO
100
AcDbLine
 62
250
  6
CONTINUOUS
 10
197.1039748114
 20
153.4899299905
 11
197.1127937337
 21
153.4987489129
  0
LINE
  5
2A5
100
AcDbEntity
  8
ASSI
100
AcDbLine
 62
250
  6
CONTINUOUS
 10
197.1039748114
 20
153.4899299905
 11
197.1127937337
 21
153.4987489129
  0
LINE
  5
2A6
100
AcDbEntity
  8
RACCORDO
100
AcDbLine
 62
250
  6
CONTINUOUS
 10
197.6038986589
 20
152.9900061429
 11
197.6127175813
 21
152.9988250653
  0
LINE
  5
2A7
100
AcDbEntity
  8
ASSI
100
AcDbLine
 62
250
  6
CONTINUOUS
 10
197.6038986589
 20
152.9900061429
 11
197.6127175813
 21
152.9988250653
  0
LINE
  5
2A8
100
AcDbEntity
  8
RACCORDO
100
AcDbLine
 62
250
  6
CONTINUOUS
 10
197.1039748114
 20
206.05772014
 11
197.1127937337
 21
206.0489012177
  0
LINE
  5
2A9
100
AcDbEntity
  8
ASSI
100
AcDbLine
 62
250
  6
CONTINUOUS
 10
197.1039748114
 20
206.05772014
 11
197.1127937337
 21
206.0489012177
  0
LINE
  5
2AA
100
AcDbEntity
  8
RACCORDO
100
AcDbLine
 62
250
  6
CONTINUOUS
 10
197.6038986589
 20
206.5576439876
 11
197.6127175813
 21
206.5488250653
  0
LINE
  5
2AB
100
AcDbEntity
  8
ASSI
100
AcDbLine
 62
250
  6
CONTINUOUS
 10
197.6038986589
 20
206.5576439876
 11
197.6127175813
 21
206.5488250653
  0
LINE
  5
2AC
100
AcDbEntity
  8
RACCORDO
100
AcDbLine
 62
250
  6
CONTINUOUS
 10
242.0716888084
 20
206.8575982962
 11
242.0716888084
 21
206.5576439876
  0
LINE
  5
2AD
100
AcDbEntity
  8
ASSI
100
AcDbLine
 62
250
  6
CONTINUOUS
 10
242.0716888084
 20
206.8575982962
 11
242.0716888084
 21
206.5576439876
  0
LINE
  5
2AE
100
AcDbEntity
  8
RACCORDO
100
AcDbLine
 62
250
  6
CONTINUOUS
 10
242.0716888084
 20
152.6900518344
 11
242.0716888084
 21
152.9900061429
  0
LINE
  5
2AF
100
AcDbEntity
  8
ASSI
100
AcDbLine
 62
250
  6
CONTINUOUS
 10
242.0716888084
 20
152.6900518344
 11
242.0716888084
 21
152.9900061429
  0
LINE
  5
2B0
100
AcDbEntity
  8
RACCORDO
100
AcDbLine
 62
7
  6
CONTINUOUS
 10
242.5627937337
 20
153.4987489129
 11
242.5627937337
 21
206.0489012177
  0
LINE
  5
2B1
100
AcDbEntity
  8
ASSI
100
AcDbLine
 62
7
  6
CONTINUOUS
 10
242.5627937337
 20
153.4987489129
 11
242.5627937337
 21
206.0489012177
  0
LINE
  5
2B2
100
AcDbEntity
  8
RACCORDO
100
AcDbLine
 62
250
  6
CONTINUOUS
 10
242.571612656
 20
206.05772014
 11
242.571612656
 21
153.4899299905
  0
LINE
  5
2B3
100
AcDbEntity
  8
ASSI
100
AcDbLine
 62
250
  6
CONTINUOUS
 10
242.571612656
 20
206.05772014
 11
242.571612656
 21
153.4899299905
  0
LINE
  5
2B4
100
AcDbEntity
  8
RACCORDO
100
AcDbLine
 62
250
  6
CONTINUOUS
 10
242.8715669646
 20
206.05772014
 11
242.8715669646
 21
153.4899299905
  0
LINE
  5
2B5
100
AcDbEntity
  8
ASSI
100
AcDbLine
 62
250
  6
CONTINUOUS
 10
242.8715669646
 20
206.05772014
 11
242.8715669646
 21
153.4899299905
  0
LWPOLYLINE
  5
2B6
100
AcDbEntity
  8
RACCORDO
100
AcDbPolyline
 62
250
  6
CONTINUOUS
 90
25
 70
0
 10
242.5716126535
 20
153.4899299931
 10
242.5706111218
 20
153.4582009943
 10
242.5675886581
 20
153.4265226716
 10
242.5625425936
 20
153.3950246466
 10
242.5554696038
 20
153.3638025144
 10
242.5463884909
 20
153.3330232768
 10
242.5353624091
 20
153.3029182534
 10
242.5224527239
 20
153.2736317241
 10
242.5077096772
 20
153.2452576937
 10
242.4912165605
 20
153.217937564
 10
242.4730648917
 20
153.191795464
 10
242.4533264261
 20
153.1669098331
 10
242.432063924
 20
153.1433464799
 10
242.4094779385
 20
153.1212992111
 10
242.3855640898
 20
153.100737307
 10
242.3600195408
 20
153.0814558259
 10
242.3327613655
 20
153.0635232134
 10
242.3039776258
 20
153.0471904966
 10
242.2737300626
 20
153.0326015324
 10
242.2419724017
 20
153.0198596394
 10
242.2089482353
 20
153.0091862648
 10
242.1752030931
 20
153.0008171901
 10
242.1410379015
 20
152.9948247325
 10
242.1064779869
 20
152.9912110727
 10
242.071688805
 20
152.9900061463
  0
LWPOLYLINE
  5
2B7
100
AcDbEntity
  8
ASSI
100
AcDbPolyline
 62
250
  6
CONTINUOUS
 90
25
 70
0
 10
242.5716126535
 20
153.4899299931
 10
242.5706111218
 20
153.4582009943
 10
242.5675886581
 20
153.4265226716
 10
242.5625425936
 20
153.3950246466
 10
242.5554696038
 20
153.3638025144
 10
242.5463884909
 20
153.3330232768
 10
242.5353624091
 20
153.3029182534
 10
242.5224527239
 20
153.2736317241
 10
242.5077096772
 20
153.2452576937
 10
242.4912165605
 20
153.217937564
 10
242.4730648917
 20
153.191795464
 10
242.4533264261
 20
153.1669098331
 10
242.432063924
 20
153.1433464799
 10
242.4094779385
 20
153.1212992111
 10
242.3855640898
 20
153.100737307
 10
242.3600195408
 20
153.0814558259
 10
242.3327613655
 20
153.0635232134
 10
242.3039776258
 20
153.0471904966
 10
242.2737300626
 20
153.0326015324
 10
242.2419724017
 20
153.0198596394
 10
242.2089482353
 20
153.0091862648
 10
242.1752030931
 20
153.0008171901
 10
242.1410379015
 20
152.9948247325
 10
242.1064779869
 20
152.9912110727
 10
242.071688805
 20
152.9900061463
  0
LWPOLYLINE
  5
2B8
100
AcDbEntity
  8
RACCORDO
100
AcDbPolyline
 62
250
  6
CONTINUOUS
 90
25
 70
0
 10
242.8715669646
 20
153.4899299905
 10
242.8699401345
 20
153.4388252544
 10
242.8650944068
 20
153.3882174309
 10
242.8570297813
 20
153.3381065202
 10
242.8456784045
 20
153.2882361565
 10
242.8311081299
 20
153.2388627055
 10
242.8135225186
 20
153.1907552642
 10
242.792873328
 20
153.1439767958
 10
242.7692088008
 20
153.098464337
 10
242.7428772251
 20
153.0547980944
 10
242.7138693597
 20
153.0130345343
 10
242.6821944459
 20
152.9731171903
 10
242.6482284962
 20
152.9354568707
 10
242.6121770274
 20
152.9001706242
 10
242.5738345226
 20
152.867141402
 10
242.5329604443
 20
152.8364288657
 10
242.4893556235
 20
152.8078138936
 10
242.443219229
 20
152.7815156074
 10
242.3949082301
 20
152.7582510334
 10
242.3441120116
 20
152.7380278383
 10
242.2911411885
 20
152.7208383554
 10
242.2372845753
 20
152.707376611
 10
242.1829717766
 20
152.697873947
 10
242.1277731876
 20
152.6920990215
 10
242.0716888084
 20
152.6900518344
  0
LWPOLYLINE
  5
2B9
100
AcDbEntity
  8
ASSI
100
AcDbPolyline
 62
250
  6
CONTINUOUS
 90
25
 70
0
 10
242.8715669646
 20
153.4899299905
 10
242.8699401345
 20
153.4388252544
 10
242.8650944068
 20
153.3882174309
 10
242.8570297813
 20
153.3381065202
 10
242.8456784045
 20
153.2882361565
 10
242.8311081299
 20
153.2388627055
 10
242.8135225186
 20
153.1907552642
 10
242.792873328
 20
153.1439767958
 10
242.7692088008
 20
153.098464337
 10
242.7428772251
 20
153.0547980944
 10
242.7138693597
 20
153.0130345343
 10
242.6821944459
 20
152.9731171903
 10
242.6482284962
 20
152.9354568707
 10
242.6121770274
 20
152.9001706242
 10
242.5738345226
 20
152.867141402
 10
242.5329604443
 20
152.8364288657
 10
242.4893556235
 20
152.8078138936
 10
242.443219229
 20
152.7815156074
 10
242.3949082301
 20
152.7582510334
 10
242.3441120116
 20
152.7380278383
 10
242.2911411885
 20
152.7208383554
 10
242.2372845753
 20
152.707376611
 10
242.1829717766
 20
152.697873947
 10
242.1277731876
 20
152.6920990215
 10
242.0716888084
 20
152.6900518344
  0
LWPOLYLINE
  5
2BA
100
AcDbEntity
  8
0
100
AcDbPolyline
 62
7
  6
CONTINUOUS
 90
4
 70
0
 43
0.3499999917
 10
344.65921875
 20
177.4166821289
 10
343.8020690918
 20
177.4166821289
 10
343.3735070801
 20
177.845256958
 10
343.3735070801
 20
178.488112793
  0
LWPOLYLINE
  5
2BB
100
AcDbEntity
  8
0
100
AcDbPolyline
 62
7
  6
CONTINUOUS
 90
4
 70
0
 43
0.3499999917
 10
344.65921875
 20
179.7738244629
 10
343.8020690918
 20
179.7738244629
 10
343.3735070801
 20
180.202399292
 10
343.3735070801
 20
180.845255127
  0
LINE
  5
2BC
100
AcDbEntity
  8
RACCORDO
100
AcDbLine
 62
250
  6
CONTINUOUS
 10
267.8040205028
 20
153.4899299905
 11
267.8040205028
 21
206.05772014
  0
LINE
  5
2BD
100
AcDbEntity
  8
ASSI
100
AcDbLine
 62
250
  6
CONTINUOUS
 10
267.8040205028
 20
153.4899299905
 11
267.8040205028
 21
206.05772014
  0
LINE
  5
2BE
100
AcDbEntity
  8
RACCORDO
100
AcDbLine
 62
250
  6
CONTINUOUS
 10
268.1039748114
 20
153.4899299905
 11
268.1039748114
 21
206.05772014
  0
LINE
  5
2BF
100
AcDbEntity
  8
ASSI
100
AcDbLine
 62
250
  6
CONTINUOUS
 10
268.1039748114
 20
153.4899299905
 11
268.1039748114
 21
206.05772014
  0
LINE
  5
2C0
100
AcDbEntity
  8
RACCORDO
100
AcDbLine
 62
7
  6
CONTINUOUS
 10
268.1127937337
 20
206.0489012177
 11
268.1127937337
 21
153.4987489129
  0
LINE
  5
2C1
100
AcDbEntity
  8
ASSI
100
AcDbLine
 62
7
  6
CONTINUOUS
 10
268.1127937337
 20
206.0489012177
 11
268.1127937337
 21
153.4987489129
  0
LWPOLYLINE
  5
2C2
100
AcDbEntity
  8
RACCORDO
100
AcDbPolyline
 62
250
  6
CONTINUOUS
 90
25
 70
0
 10
268.1039748139
 20
206.0577201375
 10
268.1049763456
 20
206.0894491362
 10
268.1079988092
 20
206.121127459
 10
268.1130448737
 20
206.1526254839
 10
268.1201178635
 20
206.1838476162
 10
268.1291989765
 20
206.2146268538
 10
268.1402250583
 20
206.2447318771
 10
268.1531347435
 20
206.2740184065
 10
268.1678777902
 20
206.3023924369
 10
268.1843709068
 20
206.3297125665
 10
268.2025225756
 20
206.3558546665
 10
268.2222610413
 20
206.3807402974
 10
268.2435235433
 20
206.4043036507
 10
268.2661095288
 20
206.4263509194
 10
268.2900233775
 20
206.4469128235
 10
268.3155679265
 20
206.4661943047
 10
268.3428261018
 20
206.4841269171
 10
268.3716098416
 20
206.5004596339
 10
268.4018574048
 20
206.5150485982
 10
268.4336150657
 20
206.5277904912
 10
268.466639232
 20
206.5384638657
 10
268.5003843743
 20
206.5468329405
 10
268.5345495658
 20
206.5528253981
 10
268.5691094805
 20
206.5564390578
 10
268.6038986623
 20
206.5576439842
  0
LWPOLYLINE
  5
2C3
100
AcDbEntity
  8
ASSI
100
AcDbPolyline
 62
250
  6
CONTINUOUS
 90
25
 70
0
 10
268.1039748139
 20
206.0577201375
 10
268.1049763456
 20
206.0894491362
 10
268.1079988092
 20
206.121127459
 10
268.1130448737
 20
206.1526254839
 10
268.1201178635
 20
206.1838476162
 10
268.1291989765
 20
206.2146268538
 10
268.1402250583
 20
206.2447318771
 10
268.1531347435
 20
206.2740184065
 10
268.1678777902
 20
206.3023924369
 10
268.1843709068
 20
206.3297125665
 10
268.2025225756
 20
206.3558546665
 10
268.2222610413
 20
206.3807402974
 10
268.2435235433
 20
206.4043036507
 10
268.2661095288
 20
206.4263509194
 10
268.2900233775
 20
206.4469128235
 10
268.3155679265
 20
206.4661943047
 10
268.3428261018
 20
206.4841269171
 10
268.3716098416
 20
206.5004596339
 10
268.4018574048
 20
206.5150485982
 10
268.4336150657
 20
206.5277904912
 10
268.466639232
 20
206.5384638657
 10
268.5003843743
 20
206.5468329405
 10
268.5345495658
 20
206.5528253981
 10
268.5691094805
 20
206.5564390578
 10
268.6038986623
 20
206.5576439842
  0
LWPOLYLINE
  5
2C4
100
AcDbEntity
  8
RACCORDO
100
AcDbPolyline
 62
250
  6
CONTINUOUS
 90
25
 70
0
 10
267.8040205028
 20
206.05772014
 10
267.8056473328
 20
206.1088248762
 10
267.8104930606
 20
206.1594326996
 10
267.818557686
 20
206.2095436104
 10
267.8299090629
 20
206.2594139741
 10
267.8444793375
 20
206.308787425
 10
267.8620649488
 20
206.3568948664
 10
267.8827141393
 20
206.4036733348
 10
267.9063786666
 20
206.4491857936
 10
267.9327102422
 20
206.4928520361
 10
267.9617181076
 20
206.5346155963
 10
267.9933930214
 20
206.5745329402
 10
268.0273589711
 20
206.6121932599
 10
268.06341044
 20
206.6474795064
 10
268.1017529447
 20
206.6805087286
 10
268.142627023
 20
206.7112212649
 10
268.1862318439
 20
206.7398362369
 10
268.2323682383
 20
206.7661345231
 10
268.2806792373
 20
206.7893990971
 10
268.3314754558
 20
206.8096222922
 10
268.3844462788
 20
206.8268117751
 10
268.4383028921
 20
206.8402735196
 10
268.4926156908
 20
206.8497761835
 10
268.5478142797
 20
206.8555511091
 10
268.6038986589
 20
206.8575982962
  0
LWPOLYLINE
  5
2C5
100
AcDbEntity
  8
ASSI
100
AcDbPolyline
 62
250
  6
CONTINUOUS
 90
25
 70
0
 10
267.8040205028
 20
206.05772014
 10
267.8056473328
 20
206.1088248762
 10
267.8104930606
 20
206.1594326996
 10
267.818557686
 20
206.2095436104
 10
267.8299090629
 20
206.2594139741
 10
267.8444793375
 20
206.308787425
 10
267.8620649488
 20
206.3568948664
 10
267.8827141393
 20
206.4036733348
 10
267.9063786666
 20
206.4491857936
 10
267.9327102422
 20
206.4928520361
 10
267.9617181076
 20
206.5346155963
 10
267.9933930214
 20
206.5745329402
 10
268.0273589711
 20
206.6121932599
 10
268.06341044
 20
206.6474795064
 10
268.1017529447
 20
206.6805087286
 10
268.142627023
 20
206.7112212649
 10
268.1862318439
 20
206.7398362369
 10
268.2323682383
 20
206.7661345231
 10
268.2806792373
 20
206.7893990971
 10
268.3314754558
 20
206.8096222922
 10
268.3844462788
 20
206.8268117751
 10
268.4383028921
 20
206.8402735196
 10
268.4926156908
 20
206.8497761835
 10
268.5478142797
 20
206.8555511091
 10
268.6038986589
 20
206.8575982962
  0
LINE
  5
2C6
100
AcDbEntity
  8
RACCORDO
100
AcDbLine
 62
250
  6
CONTINUOUS
 10
268.6038986589
 20
206.8575982962
 11
268.6038986589
 21
206.5576439876
  0
LINE
  5
2C7
100
AcDbEntity
  8
ASSI
100
AcDbLine
 62
250
  6
CONTINUOUS
 10
268.6038986589
 20
206.8575982962
 11
268.6038986589
 21
206.5576439876
  0
LINE
  5
2C8
100
AcDbEntity
  8
RACCORDO
100
AcDbLine
 62
250
  6
CONTINUOUS
 10
268.6038986589
 20
152.6900518344
 11
268.6038986589
 21
152.9900061429
  0
LINE
  5
2C9
100
AcDbEntity
  8
ASSI
100
AcDbLine
 62
250
  6
CONTINUOUS
 10
268.6038986589
 20
152.6900518344
 11
268.6038986589
 21
152.9900061429
  0
LINE
  5
2CA
100
AcDbEntity
  8
RACCORDO
100
AcDbLine
 62
250
  6
CONTINUOUS
 10
313.0716888084
 20
206.5576439876
 11
313.0628698861
 21
206.5488250653
  0
LINE
  5
2CB
100
AcDbEntity
  8
ASSI
100
AcDbLine
 62
250
  6
CONTINUOUS
 10
313.0716888084
 20
206.5576439876
 11
313.0628698861
 21
206.5488250653
  0
LINE
  5
2CC
100
AcDbEntity
  8
RACCORDO
100
AcDbLine
 62
250
  6
CONTINUOUS
 10
313.571612656
 20
206.05772014
 11
313.5627937337
 21
206.0489012177
  0
LINE
  5
2CD
100
AcDbEntity
  8
ASSI
100
AcDbLine
 62
250
  6
CONTINUOUS
 10
313.571612656
 20
206.05772014
 11
313.5627937337
 21
206.0489012177
  0
LINE
  5
2CE
100
AcDbEntity
  8
RACCORDO
100
AcDbLine
 62
250
  6
CONTINUOUS
 10
334.1078837971
 20
223.5418594308
 11
334.3398494315
 21
223.7738250653
  0
LINE
  5
2CF
100
AcDbEntity
  8
ASSI
100
AcDbLine
 62
250
  6
CONTINUOUS
 10
334.1078837971
 20
223.5418594308
 11
334.3398494315
 21
223.7738250653
  0
LINE
  5
2D0
100
AcDbEntity
  8
RACCORDO
100
AcDbLine
 62
250
  6
CONTINUOUS
 10
313.0716888084
 20
152.9900061429
 11
313.0628698861
 21
152.9988250653
  0
LINE
  5
2D1
100
AcDbEntity
  8
ASSI
100
AcDbLine
 62
250
  6
CONTINUOUS
 10
313.0716888084
 20
152.9900061429
 11
313.0628698861
 21
152.9988250653
  0
LINE
  5
2D2
100
AcDbEntity
  8
RACCORDO
100
AcDbLine
 62
250
  6
CONTINUOUS
 10
313.571612656
 20
153.4899299905
 11
313.5627937337
 21
153.4987489129
  0
LINE
  5
2D3
100
AcDbEntity
  8
ASSI
100
AcDbLine
 62
250
  6
CONTINUOUS
 10
313.571612656
 20
153.4899299905
 11
313.5627937337
 21
153.4987489129
  0
LINE
  5
2D4
100
AcDbEntity
  8
RACCORDO
100
AcDbLine
 62
250
  6
CONTINUOUS
 10
334.1078837971
 20
136.0057906997
 11
334.3398494315
 21
135.7738250653
  0
LINE
  5
2D5
100
AcDbEntity
  8
ASSI
100
AcDbLine
 62
250
  6
CONTINUOUS
 10
334.1078837971
 20
136.0057906997
 11
334.3398494315
 21
135.7738250653
  0
LINE
  5
2D6
100
AcDbEntity
  8
RACCORDO
100
AcDbLine
 62
250
  6
CONTINUOUS
 10
335.6058280992
 20
222.0439151287
 11
335.8377937337
 21
222.2758807631
  0
LINE
  5
2D7
100
AcDbEntity
  8
ASSI
100
AcDbLine
 62
250
  6
CONTINUOUS
 10
335.6058280992
 20
222.0439151287
 11
335.8377937337
 21
222.2758807631
  0
LINE
  5
2D8
100
AcDbEntity
  8
RACCORDO
100
AcDbLine
 62
250
  6
CONTINUOUS
 10
268.1039748114
 20
153.4899299905
 11
268.1127937337
 21
153.4987489129
  0
LINE
  5
2D9
100
AcDbEntity
  8
ASSI
100
AcDbLine
 62
250
  6
CONTINUOUS
 10
268.1039748114
 20
153.4899299905
 11
268.1127937337
 21
153.4987489129
  0
LINE
  5
2DA
100
AcDbEntity
  8
RACCORDO
100
AcDbLine
 62
250
  6
CONTINUOUS
 10
268.6038986589
 20
152.9900061429
 11
268.6127175813
 21
152.9988250653
  0
LINE
  5
2DB
100
AcDbEntity
  8
ASSI
100
AcDbLine
 62
250
  6
CONTINUOUS
 10
268.6038986589
 20
152.9900061429
 11
268.6127175813
 21
152.9988250653
  0
LINE
  5
2DC
100
AcDbEntity
  8
RACCORDO
100
AcDbLine
 62
250
  6
CONTINUOUS
 10
313.8715669646
 20
206.05772014
 11
313.571612656
 21
206.05772014
  0
LINE
  5
2DD
100
AcDbEntity
  8
ASSI
100
AcDbLine
 62
250
  6
CONTINUOUS
 10
313.8715669646
 20
206.05772014
 11
313.571612656
 21
206.05772014
  0
LINE
  5
2DE
100
AcDbEntity
  8
RACCORDO
100
AcDbLine
 62
250
  6
CONTINUOUS
 10
242.8715669646
 20
206.05772014
 11
242.571612656
 21
206.05772014
  0
LINE
  5
2DF
100
AcDbEntity
  8
ASSI
100
AcDbLine
 62
250
  6
CONTINUOUS
 10
242.8715669646
 20
206.05772014
 11
242.571612656
 21
206.05772014
  0
LINE
  5
2E0
100
AcDbEntity
  8
RACCORDO
100
AcDbLine
 62
250
  6
CONTINUOUS
 10
196.8040205028
 20
206.05772014
 11
197.1039748114
 21
206.05772014
  0
LINE
  5
2E1
100
AcDbEntity
  8
ASSI
100
AcDbLine
 62
250
  6
CONTINUOUS
 10
196.8040205028
 20
206.05772014
 11
197.1039748114
 21
206.05772014
  0
LINE
  5
2E2
100
AcDbEntity
  8
RACCORDO
100
AcDbLine
 62
250
  6
CONTINUOUS
 10
267.8040205028
 20
206.05772014
 11
268.1039748114
 21
206.05772014
  0
LINE
  5
2E3
100
AcDbEntity
  8
ASSI
100
AcDbLine
 62
250
  6
CONTINUOUS
 10
267.8040205028
 20
206.05772014
 11
268.1039748114
 21
206.05772014
  0
LINE
  5
2E4
100
AcDbEntity
  8
RACCORDO
100
AcDbLine
 62
7
  6
CONTINUOUS
 10
313.0628698861
 20
206.5488250653
 11
268.6127175813
 21
206.5488250653
  0
LINE
  5
2E5
100
AcDbEntity
  8
ASSI
100
AcDbLine
 62
7
  6
CONTINUOUS
 10
313.0628698861
 20
206.5488250653
 11
268.6127175813
 21
206.5488250653
  0
LINE
  5
2E6
100
AcDbEntity
  8
RACCORDO
100
AcDbLine
 62
7
  6
CONTINUOUS
 10
242.0628698861
 20
206.5488250653
 11
197.6127175813
 21
206.5488250653
  0
LINE
  5
2E7
100
AcDbEntity
  8
ASSI
100
AcDbLine
 62
7
  6
CONTINUOUS
 10
242.0628698861
 20
206.5488250653
 11
197.6127175813
 21
206.5488250653
  0
LINE
  5
2E8
100
AcDbEntity
  8
RACCORDO
100
AcDbLine
 62
250
  6
CONTINUOUS
 10
197.6038986589
 20
206.5576439876
 11
242.0716888084
 21
206.5576439876
  0
LINE
  5
2E9
100
AcDbEntity
  8
ASSI
100
AcDbLine
 62
250
  6
CONTINUOUS
 10
197.6038986589
 20
206.5576439876
 11
242.0716888084
 21
206.5576439876
  0
LINE
  5
2EA
100
AcDbEntity
  8
RACCORDO
100
AcDbLine
 62
250
  6
CONTINUOUS
 10
268.6038986589
 20
206.5576439876
 11
313.0716888084
 21
206.5576439876
  0
LINE
  5
2EB
100
AcDbEntity
  8
ASSI
100
AcDbLine
 62
250
  6
CONTINUOUS
 10
268.6038986589
 20
206.5576439876
 11
313.0716888084
 21
206.5576439876
  0
LINE
  5
2EC
100
AcDbEntity
  8
RACCORDO
100
AcDbLine
 62
250
  6
CONTINUOUS
 10
197.6038986589
 20
206.8575982962
 11
242.0716888084
 21
206.8575982962
  0
LINE
  5
2ED
100
AcDbEntity
  8
ASSI
100
AcDbLine
 62
250
  6
CONTINUOUS
 10
197.6038986589
 20
206.8575982962
 11
242.0716888084
 21
206.8575982962
  0
LINE
  5
2EE
100
AcDbEntity
  8
RACCORDO
100
AcDbLine
 62
250
  6
CONTINUOUS
 10
268.6038986589
 20
206.8575982962
 11
313.0716888084
 21
206.8575982962
  0
LINE
  5
2EF
100
AcDbEntity
  8
ASSI
100
AcDbLine
 62
250
  6
CONTINUOUS
 10
268.6038986589
 20
206.8575982962
 11
313.0716888084
 21
206.8575982962
  0
LWPOLYLINE
  5
2F0
100
AcDbEntity
  8
RACCORDO
100
AcDbPolyline
 62
250
  6
CONTINUOUS
 90
25
 70
0
 10
242.0716888059
 20
206.5576439851
 10
242.1034178046
 20
206.5566424534
 10
242.1350961274
 20
206.5536199897
 10
242.1665941523
 20
206.5485739252
 10
242.1978162846
 20
206.5415009354
 10
242.2285955222
 20
206.5324198225
 10
242.2587005455
 20
206.5213937407
 10
242.2879870749
 20
206.5084840555
 10
242.3163611053
 20
206.4937410088
 10
242.3436812349
 20
206.4772478921
 10
242.369823335
 20
206.4590962233
 10
242.3947089658
 20
206.4393577577
 10
242.4182723191
 20
206.4180952556
 10
242.4403195878
 20
206.3955092701
 10
242.4608814919
 20
206.3715954214
 10
242.4801629731
 20
206.3460508724
 10
242.4980955855
 20
206.3187926971
 10
242.5144283023
 20
206.2900089574
 10
242.5290172666
 20
206.2597613942
 10
242.5417591596
 20
206.2280037333
 10
242.5524325341
 20
206.1949795669
 10
242.5608016089
 20
206.1612344246
 10
242.5667940665
 20
206.1270692331
 10
242.5704077262
 20
206.0925093185
 10
242.5716126526
 20
206.0577201366
  0
LWPOLYLINE
  5
2F1
100
AcDbEntity
  8
ASSI
100
AcDbPolyline
 62
250
  6
CONTINUOUS
 90
25
 70
0
 10
242.0716888059
 20
206.5576439851
 10
242.1034178046
 20
206.5566424534
 10
242.1350961274
 20
206.5536199897
 10
242.1665941523
 20
206.5485739252
 10
242.1978162846
 20
206.5415009354
 10
242.2285955222
 20
206.5324198225
 10
242.2587005455
 20
206.5213937407
 10
242.2879870749
 20
206.5084840555
 10
242.3163611053
 20
206.4937410088
 10
242.3436812349
 20
206.4772478921
 10
242.369823335
 20
206.4590962233
 10
242.3947089658
 20
206.4393577577
 10
242.4182723191
 20
206.4180952556
 10
242.4403195878
 20
206.3955092701
 10
242.4608814919
 20
206.3715954214
 10
242.4801629731
 20
206.3460508724
 10
242.4980955855
 20
206.3187926971
 10
242.5144283023
 20
206.2900089574
 10
242.5290172666
 20
206.2597613942
 10
242.5417591596
 20
206.2280037333
 10
242.5524325341
 20
206.1949795669
 10
242.5608016089
 20
206.1612344246
 10
242.5667940665
 20
206.1270692331
 10
242.5704077262
 20
206.0925093185
 10
242.5716126526
 20
206.0577201366
  0
LWPOLYLINE
  5
2F2
100
AcDbEntity
  8
RACCORDO
100
AcDbPolyline
 62
250
  6
CONTINUOUS
 90
25
 70
0
 10
313.0716888059
 20
206.5576439851
 10
313.1034178046
 20
206.5566424534
 10
313.1350961274
 20
206.5536199897
 10
313.1665941523
 20
206.5485739252
 10
313.1978162846
 20
206.5415009354
 10
313.2285955222
 20
206.5324198225
 10
313.2587005455
 20
206.5213937407
 10
313.2879870749
 20
206.5084840555
 10
313.3163611053
 20
206.4937410088
 10
313.3436812349
 20
206.4772478921
 10
313.369823335
 20
206.4590962233
 10
313.3947089658
 20
206.4393577577
 10
313.4182723191
 20
206.4180952556
 10
313.4403195878
 20
206.3955092701
 10
313.4608814919
 20
206.3715954214
 10
313.4801629731
 20
206.3460508724
 10
313.4980955855
 20
206.3187926971
 10
313.5144283023
 20
206.2900089574
 10
313.5290172666
 20
206.2597613942
 10
313.5417591596
 20
206.2280037333
 10
313.5524325341
 20
206.1949795669
 10
313.5608016089
 20
206.1612344246
 10
313.5667940665
 20
206.1270692331
 10
313.5704077262
 20
206.0925093185
 10
313.5716126526
 20
206.0577201366
  0
LWPOLYLINE
  5
2F3
100
AcDbEntity
  8
ASSI
100
AcDbPolyline
 62
250
  6
CONTINUOUS
 90
25
 70
0
 10
313.0716888059
 20
206.5576439851
 10
313.1034178046
 20
206.5566424534
 10
313.1350961274
 20
206.5536199897
 10
313.1665941523
 20
206.5485739252
 10
313.1978162846
 20
206.5415009354
 10
313.2285955222
 20
206.5324198225
 10
313.2587005455
 20
206.5213937407
 10
313.2879870749
 20
206.5084840555
 10
313.3163611053
 20
206.4937410088
 10
313.3436812349
 20
206.4772478921
 10
313.369823335
 20
206.4590962233
 10
313.3947089658
 20
206.4393577577
 10
313.4182723191
 20
206.4180952556
 10
313.4403195878
 20
206.3955092701
 10
313.4608814919
 20
206.3715954214
 10
313.4801629731
 20
206.3460508724
 10
313.4980955855
 20
206.3187926971
 10
313.5144283023
 20
206.2900089574
 10
313.5290172666
 20
206.2597613942
 10
313.5417591596
 20
206.2280037333
 10
313.5524325341
 20
206.1949795669
 10
313.5608016089
 20
206.1612344246
 10
313.5667940665
 20
206.1270692331
 10
313.5704077262
 20
206.0925093185
 10
313.5716126526
 20
206.0577201366
  0
LWPOLYLINE
  5
2F4
100
AcDbEntity
  8
RACCORDO
100
AcDbPolyline
 62
250
  6
CONTINUOUS
 90
25
 70
0
 10
242.0716888084
 20
206.8575982962
 10
242.1227935446
 20
206.8559714661
 10
242.1734013681
 20
206.8511257384
 10
242.2235122788
 20
206.8430611129
 10
242.2733826425
 20
206.8317097361
 10
242.3227560934
 20
206.8171394615
 10
242.3708635348
 20
206.7995538501
 10
242.4176420032
 20
206.7789046596
 10
242.463154462
 20
206.7552401324
 10
242.5068207045
 20
206.7289085567
 10
242.5485842647
 20
206.6999006913
 10
242.5885016086
 20
206.6682257775
 10
242.6261619283
 20
206.6342598278
 10
242.6614481748
 20
206.598208359
 10
242.694477397
 20
206.5598658542
 10
242.7251899333
 20
206.5189917759
 10
242.7538049053
 20
206.4753869551
 10
242.7801031915
 20
206.4292505606
 10
242.8033677655
 20
206.3809395617
 10
242.8235909606
 20
206.3301433431
 10
242.8407804435
 20
206.2771725201
 10
242.854242188
 20
206.2233159069
 10
242.8637448519
 20
206.1690031082
 10
242.8695197775
 20
206.1138045192
 10
242.8715669646
 20
206.05772014
  0
LWPOLYLINE
  5
2F5
100
AcDbEntity
  8
ASSI
100
AcDbPolyline
 62
250
  6
CONTINUOUS
 90
25
 70
0
 10
242.0716888084
 20
206.8575982962
 10
242.1227935446
 20
206.8559714661
 10
242.1734013681
 20
206.8511257384
 10
242.2235122788
 20
206.8430611129
 10
242.2733826425
 20
206.8317097361
 10
242.3227560934
 20
206.8171394615
 10
242.3708635348
 20
206.7995538501
 10
242.4176420032
 20
206.7789046596
 10
242.463154462
 20
206.7552401324
 10
242.5068207045
 20
206.7289085567
 10
242.5485842647
 20
206.6999006913
 10
242.5885016086
 20
206.6682257775
 10
242.6261619283
 20
206.6342598278
 10
242.6614481748
 20
206.598208359
 10
242.694477397
 20
206.5598658542
 10
242.7251899333
 20
206.5189917759
 10
242.7538049053
 20
206.4753869551
 10
242.7801031915
 20
206.4292505606
 10
242.8033677655
 20
206.3809395617
 10
242.8235909606
 20
206.3301433431
 10
242.8407804435
 20
206.2771725201
 10
242.854242188
 20
206.2233159069
 10
242.8637448519
 20
206.1690031082
 10
242.8695197775
 20
206.1138045192
 10
242.8715669646
 20
206.05772014
  0
LWPOLYLINE
  5
2F6
100
AcDbEntity
  8
RACCORDO
100
AcDbPolyline
 62
250
  6
CONTINUOUS
 90
25
 70
0
 10
313.0716888084
 20
206.8575982962
 10
313.1227935446
 20
206.8559714661
 10
313.1734013681
 20
206.8511257384
 10
313.2235122788
 20
206.8430611129
 10
313.2733826425
 20
206.8317097361
 10
313.3227560934
 20
206.8171394615
 10
313.3708635348
 20
206.7995538501
 10
313.4176420032
 20
206.7789046596
 10
313.463154462
 20
206.7552401324
 10
313.5068207045
 20
206.7289085567
 10
313.5485842647
 20
206.6999006913
 10
313.5885016086
 20
206.6682257775
 10
313.6261619283
 20
206.6342598278
 10
313.6614481748
 20
206.598208359
 10
313.694477397
 20
206.5598658542
 10
313.7251899333
 20
206.5189917759
 10
313.7538049053
 20
206.4753869551
 10
313.7801031915
 20
206.4292505606
 10
313.8033677655
 20
206.3809395617
 10
313.8235909606
 20
206.3301433431
 10
313.8407804435
 20
206.2771725201
 10
313.854242188
 20
206.2233159069
 10
313.8637448519
 20
206.1690031082
 10
313.8695197775
 20
206.1138045192
 10
313.8715669646
 20
206.05772014
  0
LWPOLYLINE
  5
2F7
100
AcDbEntity
  8
ASSI
100
AcDbPolyline
 62
250
  6
CONTINUOUS
 90
25
 70
0
 10
313.0716888084
 20
206.8575982962
 10
313.1227935446
 20
206.8559714661
 10
313.1734013681
 20
206.8511257384
 10
313.2235122788
 20
206.8430611129
 10
313.2733826425
 20
206.8317097361
 10
313.3227560934
 20
206.8171394615
 10
313.3708635348
 20
206.7995538501
 10
313.4176420032
 20
206.7789046596
 10
313.463154462
 20
206.7552401324
 10
313.5068207045
 20
206.7289085567
 10
313.5485842647
 20
206.6999006913
 10
313.5885016086
 20
206.6682257775
 10
313.6261619283
 20
206.6342598278
 10
313.6614481748
 20
206.598208359
 10
313.694477397
 20
206.5598658542
 10
313.7251899333
 20
206.5189917759
 10
313.7538049053
 20
206.4753869551
 10
313.7801031915
 20
206.4292505606
 10
313.8033677655
 20
206.3809395617
 10
313.8235909606
 20
206.3301433431
 10
313.8407804435
 20
206.2771725201
 10
313.854242188
 20
206.2233159069
 10
313.8637448519
 20
206.1690031082
 10
313.8695197775
 20
206.1138045192
 10
313.8715669646
 20
206.05772014
  0
LINE
  5
2F8
100
AcDbEntity
  8
RACCORDO
100
AcDbLine
 62
250
  6
CONTINUOUS
 10
335.6058280992
 20
137.5037350019
 11
335.8377937337
 21
137.2717693674
  0
LINE
  5
2F9
100
AcDbEntity
  8
ASSI
100
AcDbLine
 62
250
  6
CONTINUOUS
 10
335.6058280992
 20
137.5037350019
 11
335.8377937337
 21
137.2717693674
  0
LINE
  5
2FA
100
AcDbEntity
  8
RACCORDO
100
AcDbLine
 62
250
  6
CONTINUOUS
 10
268.1039748114
 20
206.05772014
 11
268.1127937337
 21
206.0489012177
  0
LINE
  5
2FB
100
AcDbEntity
  8
ASSI
100
AcDbLine
 62
250
  6
CONTINUOUS
 10
268.1039748114
 20
206.05772014
 11
268.1127937337
 21
206.0489012177
  0
LINE
  5
2FC
100
AcDbEntity
  8
RACCORDO
100
AcDbLine
 62
250
  6
CONTINUOUS
 10
268.6038986589
 20
206.5576439876
 11
268.6127175813
 21
206.5488250653
  0
LINE
  5
2FD
100
AcDbEntity
  8
ASSI
100
AcDbLine
 62
250
  6
CONTINUOUS
 10
268.6038986589
 20
206.5576439876
 11
268.6127175813
 21
206.5488250653
  0
LINE
  5
2FE
100
AcDbEntity
  8
RACCORDO
100
AcDbLine
 62
250
  6
CONTINUOUS
 10
175.5690741355
 20
222.0439151287
 11
175.0697593681
 21
222.0439151287
  0
LINE
  5
2FF
100
AcDbEntity
  8
ASSI
100
AcDbLine
 62
250
  6
CONTINUOUS
 10
175.5690741355
 20
222.0439151287
 11
175.0697593681
 21
222.0439151287
  0
LINE
  5
300
100
AcDbEntity
  8
RACCORDO
100
AcDbLine
 62
250
  6
CONTINUOUS
 10
335.1065133318
 20
222.0439151287
 11
335.6058280992
 21
222.0439151287
  0
LINE
  5
301
100
AcDbEntity
  8
ASSI
100
AcDbLine
 62
250
  6
CONTINUOUS
 10
335.1065133318
 20
222.0439151287
 11
335.6058280992
 21
222.0439151287
  0
LINE
  5
302
100
AcDbEntity
  8
RACCORDO
100
AcDbLine
 62
250
  6
CONTINUOUS
 10
334.1078837971
 20
223.0425446634
 11
176.5677036703
 21
223.0425446634
  0
LINE
  5
303
100
AcDbEntity
  8
ASSI
100
AcDbLine
 62
250
  6
CONTINUOUS
 10
334.1078837971
 20
223.0425446634
 11
176.5677036703
 21
223.0425446634
  0
LINE
  5
304
100
AcDbEntity
  8
SCRITTE
100
AcDbLine
 62
250
  6
CONTINUOUS
 10
335.7726500779
 20
144.1154150653
 11
335.7042130125
 21
144.2054990653
  0
LWPOLYLINE
  5
305
100
AcDbEntity
  8
RACCORDO
100
AcDbPolyline
 62
250
  6
CONTINUOUS
 90
31
 70
0
 10
176.5677036703
 20
223.0425446634
 10
176.5144376482
 20
223.0409729002
 10
176.4621096191
 20
223.0368438528
 10
176.4107195832
 20
223.0301575211
 10
176.3603403592
 20
223.0208967891
 10
176.3108991282
 20
223.0090787729
 10
176.2621774342
 20
222.9947548205
 10
176.2139437487
 20
222.9778825826
 10
176.1664296002
 20
222.9585044085
 10
176.1201111174
 20
222.9367986951
 10
176.0750414748
 20
222.9127599287
 10
176.031167498
 20
222.8863936229
 10
175.9888057922
 20
222.8578947146
 10
175.9479597712
 20
222.8272444872
 10
175.9086260212
 20
222.7944616572
 10
175.8711109068
 20
222.7597973119
 10
175.8354167511
 20
222.7232161718
 10
175.801541231
 20
222.6847535164
 10
175.769783741
 20
222.6447662707
 10
175.7402511464
 20
222.6034596269
 10
175.7128365819
 20
222.5606283928
 10
175.6875188471
 20
222.5160139166
 10
175.6641552183
 20
222.4694741658
 10
175.6428884193
 20
222.4211511729
 10
175.6241254208
 20
222.3712123834
 10
175.6078488076
 20
222.3194938971
 10
175.594075995
 20
222.2661596143
 10
175.5832661998
 20
222.2118686815
 10
175.5755724943
 20
222.156840814
 10
175.5708418062
 20
222.1008562964
 10
175.5690741355
 20
222.0439151287
  0
LWPOLYLINE
  5
306
100
AcDbEntity
  8
ASSI
100
AcDbPolyline
 62
250
  6
CONTINUOUS
 90
31
 70
0
 10
176.5677036703
 20
223.0425446634
 10
176.5144376482
 20
223.0409729002
 10
176.4621096191
 20
223.0368438528
 10
176.4107195832
 20
223.0301575211
 10
176.3603403592
 20
223.0208967891
 10
176.3108991282
 20
223.0090787729
 10
176.2621774342
 20
222.9947548205
 10
176.2139437487
 20
222.9778825826
 10
176.1664296002
 20
222.9585044085
 10
176.1201111174
 20
222.9367986951
 10
176.0750414748
 20
222.9127599287
 10
176.031167498
 20
222.8863936229
 10
175.9888057922
 20
222.8578947146
 10
175.9479597712
 20
222.8272444872
 10
175.9086260212
 20
222.7944616572
 10
175.8711109068
 20
222.7597973119
 10
175.8354167511
 20
222.7232161718
 10
175.801541231
 20
222.6847535164
 10
175.769783741
 20
222.6447662707
 10
175.7402511464
 20
222.6034596269
 10
175.7128365819
 20
222.5606283928
 10
175.6875188471
 20
222.5160139166
 10
175.6641552183
 20
222.4694741658
 10
175.6428884193
 20
222.4211511729
 10
175.6241254208
 20
222.3712123834
 10
175.6078488076
 20
222.3194938971
 10
175.594075995
 20
222.2661596143
 10
175.5832661998
 20
222.2118686815
 10
175.5755724943
 20
222.156840814
 10
175.5708418062
 20
222.1008562964
 10
175.5690741355
 20
222.0439151287
  0
LWPOLYLINE
  5
307
100
AcDbEntity
  8
0
100
AcDbPolyline
 62
7
  6
CONTINUOUS
 90
28
 70
0
 10
176.3357380358
 20
223.7738250653
 10
176.2486904872
 20
223.7713015784
 10
176.1617945135
 20
223.7637172628
 10
176.0753449421
 20
223.7510712008
 10
175.9895007809
 20
223.7333479611
 10
175.9046994476
 20
223.710597472
 10
175.8216345551
 20
223.6830140819
 10
175.7407880955
 20
223.6508279609
 10
175.6621908639
 20
223.6141232928
 10
175.5858449032
 20
223.5729238217
 10
175.5119936346
 20
223.5273567793
 10
175.440899078
 20
223.4775793758
 10
175.372622636
 20
223.4236054468
 10
175.3072433977
 20
223.3654149381
 10
175.2452084619
 20
223.3033198033
 10
175.187082016
 20
223.2378849048
 10
175.1331594308
 20
223.1695361242
 10
175.0834389876
 20
223.0983724687
 10
175.0379747048
 20
223.0245256454
 10
174.9969376693
 20
222.9483174515
 10
174.9604092157
 20
222.869947025
 10
174.9283660255
 20
222.7893295225
 10
174.9008884085
 20
222.7064760015
 10
174.8782147003
 20
222.6218813213
 10
174.8605332486
 20
222.5361923826
 10
174.8479020373
 20
222.4498281397
 10
174.840319104
 20
222.3629597142
 10
174.8377937337
 20
222.2758807631
  0
LWPOLYLINE
  5
308
100
AcDbEntity
  8
ASSI
100
AcDbPolyline
 62
7
  6
CONTINUOUS
 90
28
 70
0
 10
176.3357380358
 20
223.7738250653
 10
176.2486904872
 20
223.7713015784
 10
176.1617945135
 20
223.7637172628
 10
176.0753449421
 20
223.7510712008
 10
175.9895007809
 20
223.7333479611
 10
175.9046994476
 20
223.710597472
 10
175.8216345551
 20
223.6830140819
 10
175.7407880955
 20
223.6508279609
 10
175.6621908639
 20
223.6141232928
 10
175.5858449032
 20
223.5729238217
 10
175.5119936346
 20
223.5273567793
 10
175.440899078
 20
223.4775793758
 10
175.372622636
 20
223.4236054468
 10
175.3072433977
 20
223.3654149381
 10
175.2452084619
 20
223.3033198033
 10
175.187082016
 20
223.2378849048
 10
175.1331594308
 20
223.1695361242
 10
175.0834389876
 20
223.0983724687
 10
175.0379747048
 20
223.0245256454
 10
174.9969376693
 20
222.9483174515
 10
174.9604092157
 20
222.869947025
 10
174.9283660255
 20
222.7893295225
 10
174.9008884085
 20
222.7064760015
 10
174.8782147003
 20
222.6218813213
 10
174.8605332486
 20
222.5361923826
 10
174.8479020373
 20
222.4498281397
 10
174.840319104
 20
222.3629597142
 10
174.8377937337
 20
222.2758807631
  0
LWPOLYLINE
  5
309
100
AcDbEntity
  8
RACCORDO
100
AcDbPolyline
 62
250
  6
CONTINUOUS
 90
31
 70
0
 10
176.5677036703
 20
223.5418594308
 10
176.4881956175
 20
223.5396792147
 10
176.409700712
 20
223.5333728881
 10
176.3324250213
 20
223.5230812453
 10
176.2568596176
 20
223.5090173735
 10
176.1828768564
 20
223.4913041928
 10
176.1097663324
 20
223.4698226469
 10
176.0373845657
 20
223.4444816643
 10
175.966275679
 20
223.415421583
 10
175.8967817288
 20
223.3827735911
 10
175.8291426189
 20
223.3466621553
 10
175.7634690116
 20
223.3071587013
 10
175.6998953114
 20
223.2643460493
 10
175.6385784837
 20
223.2183273479
 10
175.5796896793
 20
223.1692285777
 10
175.523379749
 20
223.1171731795
 10
175.4697732405
 20
223.0622696351
 10
175.4190384354
 20
223.0046836672
 10
175.3713702843
 20
222.9446453339
 10
175.3270815753
 20
222.882613808
 10
175.2860484321
 20
222.8184844434
 10
175.2479094487
 20
222.7515802967
 10
175.2127718038
 20
222.6817774694
 10
175.1809868938
 20
222.6094249185
 10
175.1527081316
 20
222.534489178
 10
175.1281214595
 20
222.456935069
 10
175.1075380984
 20
222.3771201276
 10
175.0912574515
 20
222.2956354604
 10
175.0794530762
 20
222.2128415291
 10
175.0722421699
 20
222.1288496838
 10
175.0697593681
 20
222.0439151287
  0
LWPOLYLINE
  5
30A
100
AcDbEntity
  8
ASSI
100
AcDbPolyline
 62
250
  6
CONTINUOUS
 90
31
 70
0
 10
176.5677036703
 20
223.5418594308
 10
176.4881956175
 20
223.5396792147
 10
176.409700712
 20
223.5333728881
 10
176.3324250213
 20
223.5230812453
 10
176.2568596176
 20
223.5090173735
 10
176.1828768564
 20
223.4913041928
 10
176.1097663324
 20
223.4698226469
 10
176.0373845657
 20
223.4444816643
 10
175.966275679
 20
223.415421583
 10
175.8967817288
 20
223.3827735911
 10
175.8291426189
 20
223.3466621553
 10
175.7634690116
 20
223.3071587013
 10
175.6998953114
 20
223.2643460493
 10
175.6385784837
 20
223.2183273479
 10
175.5796896793
 20
223.1692285777
 10
175.523379749
 20
223.1171731795
 10
175.4697732405
 20
223.0622696351
 10
175.4190384354
 20
223.0046836672
 10
175.3713702843
 20
222.9446453339
 10
175.3270815753
 20
222.882613808
 10
175.2860484321
 20
222.8184844434
 10
175.2479094487
 20
222.7515802967
 10
175.2127718038
 20
222.6817774694
 10
175.1809868938
 20
222.6094249185
 10
175.1527081316
 20
222.534489178
 10
175.1281214595
 20
222.456935069
 10
175.1075380984
 20
222.3771201276
 10
175.0912574515
 20
222.2956354604
 10
175.0794530762
 20
222.2128415291
 10
175.0722421699
 20
222.1288496838
 10
175.0697593681
 20
222.0439151287
  0
LINE
  5
30B
100
AcDbEntity
  8
RACCORDO
100
AcDbLine
 62
250
  6
CONTINUOUS
 10
334.1078837971
 20
223.5418594308
 11
176.5677036703
 21
223.5418594308
  0
LINE
  5
30C
100
AcDbEntity
  8
ASSI
100
AcDbLine
 62
250
  6
CONTINUOUS
 10
334.1078837971
 20
223.5418594308
 11
176.5677036703
 21
223.5418594308
  0
LINE
  5
30D
100
AcDbEntity
  8
0
100
AcDbLine
 62
7
  6
CONTINUOUS
 10
334.3398494315
 20
223.7738250653
 11
176.3357380358
 21
223.7738250653
  0
LINE
  5
30E
100
AcDbEntity
  8
ASSI
100
AcDbLine
 62
7
  6
CONTINUOUS
 10
334.3398494315
 20
223.7738250653
 11
176.3357380358
 21
223.7738250653
  0
LINE
  5
30F
100
AcDbEntity
  8
SCRITTE
100
AcDbLine
 62
250
  6
CONTINUOUS
 10
335.6678430094
 20
143.8966310653
 11
335.7726500779
 21
143.7160570653
  0
LINE
  5
310
100
AcDbEntity
  8
RACCORDO
100
AcDbLine
 62
250
  6
CONTINUOUS
 10
313.0716888084
 20
206.8575982962
 11
313.0716888084
 21
206.5576439876
  0
LINE
  5
311
100
AcDbEntity
  8
ASSI
100
AcDbLine
 62
250
  6
CONTINUOUS
 10
313.0716888084
 20
206.8575982962
 11
313.0716888084
 21
206.5576439876
  0
LINE
  5
312
100
AcDbEntity
  8
RACCORDO
100
AcDbLine
 62
250
  6
CONTINUOUS
 10
313.0716888084
 20
152.6900518344
 11
313.0716888084
 21
152.9900061429
  0
LINE
  5
313
100
AcDbEntity
  8
ASSI
100
AcDbLine
 62
250
  6
CONTINUOUS
 10
313.0716888084
 20
152.6900518344
 11
313.0716888084
 21
152.9900061429
  0
LINE
  5
314
100
AcDbEntity
  8
RACCORDO
100
AcDbLine
 62
7
  6
CONTINUOUS
 10
313.5627937337
 20
153.4987489129
 11
313.5627937337
 21
206.0489012177
  0
LINE
  5
315
100
AcDbEntity
  8
ASSI
100
AcDbLine
 62
7
  6
CONTINUOUS
 10
313.5627937337
 20
153.4987489129
 11
313.5627937337
 21
206.0489012177
  0
LINE
  5
316
100
AcDbEntity
  8
RACCORDO
100
AcDbLine
 62
250
  6
CONTINUOUS
 10
313.571612656
 20
206.05772014
 11
313.571612656
 21
153.4899299905
  0
LINE
  5
317
100
AcDbEntity
  8
ASSI
100
AcDbLine
 62
250
  6
CONTINUOUS
 10
313.571612656
 20
206.05772014
 11
313.571612656
 21
153.4899299905
  0
LINE
  5
318
100
AcDbEntity
  8
RACCORDO
100
AcDbLine
 62
250
  6
CONTINUOUS
 10
313.8715669646
 20
206.05772014
 11
313.8715669646
 21
153.4899299905
  0
LINE
  5
319
100
AcDbEntity
  8
ASSI
100
AcDbLine
 62
250
  6
CONTINUOUS
 10
313.8715669646
 20
206.05772014
 11
313.8715669646
 21
153.4899299905
  0
LWPOLYLINE
  5
31A
100
AcDbEntity
  8
RACCORDO
100
AcDbPolyline
 62
250
  6
CONTINUOUS
 90
25
 70
0
 10
313.5716126535
 20
153.4899299931
 10
313.5706111218
 20
153.4582009943
 10
313.5675886581
 20
153.4265226716
 10
313.5625425936
 20
153.3950246466
 10
313.5554696038
 20
153.3638025144
 10
313.5463884909
 20
153.3330232768
 10
313.5353624091
 20
153.3029182534
 10
313.5224527239
 20
153.2736317241
 10
313.5077096772
 20
153.2452576937
 10
313.4912165605
 20
153.217937564
 10
313.4730648917
 20
153.191795464
 10
313.4533264261
 20
153.1669098331
 10
313.432063924
 20
153.1433464799
 10
313.4094779385
 20
153.1212992111
 10
313.3855640898
 20
153.100737307
 10
313.3600195408
 20
153.0814558259
 10
313.3327613655
 20
153.0635232134
 10
313.3039776258
 20
153.0471904966
 10
313.2737300626
 20
153.0326015324
 10
313.2419724017
 20
153.0198596394
 10
313.2089482353
 20
153.0091862648
 10
313.1752030931
 20
153.0008171901
 10
313.1410379015
 20
152.9948247325
 10
313.1064779869
 20
152.9912110727
 10
313.071688805
 20
152.9900061463
  0
LWPOLYLINE
  5
31B
100
AcDbEntity
  8
ASSI
100
AcDbPolyline
 62
250
  6
CONTINUOUS
 90
25
 70
0
 10
313.5716126535
 20
153.4899299931
 10
313.5706111218
 20
153.4582009943
 10
313.5675886581
 20
153.4265226716
 10
313.5625425936
 20
153.3950246466
 10
313.5554696038
 20
153.3638025144
 10
313.5463884909
 20
153.3330232768
 10
313.5353624091
 20
153.3029182534
 10
313.5224527239
 20
153.2736317241
 10
313.5077096772
 20
153.2452576937
 10
313.4912165605
 20
153.217937564
 10
313.4730648917
 20
153.191795464
 10
313.4533264261
 20
153.1669098331
 10
313.432063924
 20
153.1433464799
 10
313.4094779385
 20
153.1212992111
 10
313.3855640898
 20
153.100737307
 10
313.3600195408
 20
153.0814558259
 10
313.3327613655
 20
153.0635232134
 10
313.3039776258
 20
153.0471904966
 10
313.2737300626
 20
153.0326015324
 10
313.2419724017
 20
153.0198596394
 10
313.2089482353
 20
153.0091862648
 10
313.1752030931
 20
153.0008171901
 10
313.1410379015
 20
152.9948247325
 10
313.1064779869
 20
152.9912110727
 10
313.071688805
 20
152.9900061463
  0
LWPOLYLINE
  5
31C
100
AcDbEntity
  8
RACCORDO
100
AcDbPolyline
 62
250
  6
CONTINUOUS
 90
25
 70
0
 10
313.8715669646
 20
153.4899299905
 10
313.8699401345
 20
153.4388252544
 10
313.8650944068
 20
153.3882174309
 10
313.8570297813
 20
153.3381065202
 10
313.8456784045
 20
153.2882361565
 10
313.8311081299
 20
153.2388627055
 10
313.8135225186
 20
153.1907552642
 10
313.792873328
 20
153.1439767958
 10
313.7692088008
 20
153.098464337
 10
313.7428772251
 20
153.0547980944
 10
313.7138693597
 20
153.0130345343
 10
313.6821944459
 20
152.9731171903
 10
313.6482284962
 20
152.9354568707
 10
313.6121770274
 20
152.9001706242
 10
313.5738345226
 20
152.867141402
 10
313.5329604443
 20
152.8364288657
 10
313.4893556235
 20
152.8078138936
 10
313.443219229
 20
152.7815156074
 10
313.3949082301
 20
152.7582510334
 10
313.3441120116
 20
152.7380278383
 10
313.2911411885
 20
152.7208383554
 10
313.2372845753
 20
152.707376611
 10
313.1829717766
 20
152.697873947
 10
313.1277731876
 20
152.6920990215
 10
313.0716888084
 20
152.6900518344
  0
LWPOLYLINE
  5
31D
100
AcDbEntity
  8
ASSI
100
AcDbPolyline
 62
250
  6
CONTINUOUS
 90
25
 70
0
 10
313.8715669646
 20
153.4899299905
 10
313.8699401345
 20
153.4388252544
 10
313.8650944068
 20
153.3882174309
 10
313.8570297813
 20
153.3381065202
 10
313.8456784045
 20
153.2882361565
 10
313.8311081299
 20
153.2388627055
 10
313.8135225186
 20
153.1907552642
 10
313.792873328
 20
153.1439767958
 10
313.7692088008
 20
153.098464337
 10
313.7428772251
 20
153.0547980944
 10
313.7138693597
 20
153.0130345343
 10
313.6821944459
 20
152.9731171903
 10
313.6482284962
 20
152.9354568707
 10
313.6121770274
 20
152.9001706242
 10
313.5738345226
 20
152.867141402
 10
313.5329604443
 20
152.8364288657
 10
313.4893556235
 20
152.8078138936
 10
313.443219229
 20
152.7815156074
 10
313.3949082301
 20
152.7582510334
 10
313.3441120116
 20
152.7380278383
 10
313.2911411885
 20
152.7208383554
 10
313.2372845753
 20
152.707376611
 10
313.1829717766
 20
152.697873947
 10
313.1277731876
 20
152.6920990215
 10
313.0716888084
 20
152.6900518344
  0
LWPOLYLINE
  5
31E
100
AcDbEntity
  8
SCRITTE
100
AcDbPolyline
 62
250
  6
CONTINUOUS
 90
24
 70
0
 10
335.6981912019
 20
148.5418357094
 10
335.6977999885
 20
148.541610207
 10
335.697410842
 20
148.541158649
 10
335.6970236
 20
148.5404829322
 10
335.6966381002
 20
148.5395849534
 10
335.69625418
 20
148.5384666095
 10
335.695871677
 20
148.5371297973
 10
335.6954904287
 20
148.5355764137
 10
335.6951102727
 20
148.5338083555
 10
335.694731154
 20
148.531827223
 10
335.6943534473
 20
148.5296334305
 10
335.6939776348
 20
148.5272270959
 10
335.6936041988
 20
148.5246083369
 10
335.6932336213
 20
148.5217772712
 10
335.6928663846
 20
148.5187340168
 10
335.6925029709
 20
148.5154786914
 10
335.6921438624
 20
148.5120114127
 10
335.6917895349
 20
148.5083324415
 10
335.691440439
 20
148.5044426102
 10
335.6910970189
 20
148.5003428941
 10
335.6907597188
 20
148.4960342685
 10
335.6904289824
 20
148.491517022
 10
335.6901052515
 20
148.486788696
 10
335.6894805704
 20
148.476686224
  0
LWPOLYLINE
  5
31F
100
AcDbEntity
  8
0
100
AcDbPolyline
 62
7
  6
CONTINUOUS
 90
13
 70
0
 43
0.3499999917
 10
343.3735070801
 20
180.202399292
 10
343.1592260742
 20
179.9166870117
 10
342.5163574219
 20
179.9166870117
 10
342.0877954102
 20
180.202399292
 10
342.0877954102
 20
180.845255127
 10
342.5163574219
 20
181.1309674072
 10
343.1592260742
 20
181.1309674072
 10
343.3735070801
 20
180.845255127
 10
343.8020690918
 20
181.2738299561
 10
344.65921875
 20
181.2738299561
 10
345.0878063965
 20
180.845255127
 10
345.0878063965
 20
180.202399292
 10
344.65921875
 20
179.7738244629
  0
LWPOLYLINE
  5
320
100
AcDbEntity
  8
0
100
AcDbPolyline
 62
7
  6
CONTINUOUS
 90
13
 70
0
 43
0.3499999917
 10
343.3735070801
 20
177.845256958
 10
343.1592260742
 20
177.5595446777
 10
342.5163574219
 20
177.5595446777
 10
342.0877954102
 20
177.845256958
 10
342.0877954102
 20
178.488112793
 10
342.5163574219
 20
178.7738250732
 10
343.1592260742
 20
178.7738250732
 10
343.3735070801
 20
178.488112793
 10
343.8020690918
 20
178.9166876221
 10
344.65921875
 20
178.9166876221
 10
345.0878063965
 20
178.488112793
 10
345.0878063965
 20
177.845256958
 10
344.65921875
 20
177.4166821289
  0
LINE
  5
321
100
AcDbEntity
  8
SCRITTE
100
AcDbLine
 62
250
  6
CONTINUOUS
 10
335.7355365657
 20
146.4232830653
 11
335.6966413462
 21
146.6311350653
  0
LINE
  5
322
100
AcDbEntity
  8
SCRITTE
100
AcDbLine
 62
250
  6
CONTINUOUS
 10
335.6678430094
 20
142.5018140653
 11
335.7399849904
 21
142.1089650653
  0
LINE
  5
323
100
AcDbEntity
  8
SCRITTE
100
AcDbLine
 62
250
  6
CONTINUOUS
 10
335.7726500779
 20
146.2227040653
 11
335.7517268485
 21
146.3378920653
  0
LINE
  5
324
100
AcDbEntity
  8
SCRITTE
100
AcDbLine
 62
250
  6
CONTINUOUS
 10
335.6678430094
 20
146.4370650653
 11
335.7726500779
 21
145.8097880653
  0
LINE
  5
325
100
AcDbEntity
  8
SCRITTE
100
AcDbLine
 62
250
  6
CONTINUOUS
 10
335.7726500779
 20
142.2761460653
 11
335.6678430094
 21
142.9189740653
  0
LWPOLYLINE
  5
326
100
AcDbEntity
  8
SCRITTE
100
AcDbPolyline
 62
250
  6
CONTINUOUS
 90
26
 70
0
 10
335.7093718496
 20
148.472793589
 10
335.7090243143
 20
148.4780488279
 10
335.7086648651
 20
148.4831151923
 10
335.7082936984
 20
148.4879922387
 10
335.7079110108
 20
148.4926795238
 10
335.7075170457
 20
148.4971762503
 10
335.7071122333
 20
148.5014802048
 10
335.7066970507
 20
148.5055888204
 10
335.7062719747
 20
148.50949953
 10
335.7058374035
 20
148.5132097411
 10
335.7053934198
 20
148.516716761
 10
335.7049400272
 20
148.5200178715
 10
335.7044772295
 20
148.5231103547
 10
335.7040050304
 20
148.5259914925
 10
335.7035234336
 20
148.5286585669
 10
335.7030324429
 20
148.5311088598
 10
335.7025320621
 20
148.5333396531
 10
335.7020793987
 20
148.5351345727
 10
335.7016193197
 20
148.5367427681
 10
335.7011518259
 20
148.5381530945
 10
335.7006769182
 20
148.539354407
 10
335.7001945976
 20
148.5403355608
 10
335.6997048648
 20
148.5410854111
 10
335.6992077206
 20
148.5415928129
 10
335.6987031661
 20
148.5418466216
 10
335.698191202
 20
148.5418356921
  0
LINE
  5
327
100
AcDbEntity
  8
SCRITTE
100
AcDbLine
 62
250
  6
CONTINUOUS
 10
335.7154364819
 20
148.8239917687
 11
335.7166617376
 21
148.8053327664
  0
LINE
  5
328
100
AcDbEntity
  8
SCRITTE
100
AcDbLine
 62
250
  6
CONTINUOUS
 10
335.7100301017
 20
148.4617141427
 11
335.7093718496
 21
148.472793589
  0
LINE
  5
329
100
AcDbEntity
  8
SCRITTE
100
AcDbLine
 62
250
  6
CONTINUOUS
 10
335.7166617376
 20
148.8053327664
 11
335.7177548873
 21
148.7865394222
  0
LINE
  5
32A
100
AcDbEntity
  8
SCRITTE
100
AcDbLine
 62
250
  6
CONTINUOUS
 10
335.7177548873
 20
148.7865394222
 11
335.71918795
 21
148.7588219061
  0
LINE
  5
32B
100
AcDbEntity
  8
SCRITTE
100
AcDbLine
 62
250
  6
CONTINUOUS
 10
335.7106365989
 20
148.4498598093
 11
335.7100301017
 21
148.4617141427
  0
LINE
  5
32C
100
AcDbEntity
  8
SCRITTE
100
AcDbLine
 62
250
  6
CONTINUOUS
 10
335.71918795
 20
148.7588219061
 11
335.7210735755
 21
148.7177066347
  0
LINE
  5
32D
100
AcDbEntity
  8
SCRITTE
100
AcDbLine
 62
250
  6
CONTINUOUS
 10
335.7111885762
 20
148.437239903
 11
335.7106365989
 21
148.4498598093
  0
LINE
  5
32E
100
AcDbEntity
  8
SCRITTE
100
AcDbLine
 62
250
  6
CONTINUOUS
 10
335.7210735755
 20
148.7177066347
 11
335.72208201
 21
148.6935661753
  0
LINE
  5
32F
100
AcDbEntity
  8
SCRITTE
100
AcDbLine
 62
250
  6
CONTINUOUS
 10
335.7116854596
 20
148.4239856455
 11
335.7111885762
 21
148.437239903
  0
LWPOLYLINE
  5
330
100
AcDbEntity
  8
SCRITTE
100
AcDbPolyline
 62
250
  6
CONTINUOUS
 90
7
 70
0
 10
335.72208201
 20
148.6935661753
 10
335.7225067267
 20
148.6813482866
 10
335.7226844127
 20
148.675211862
 10
335.7228351044
 20
148.6690567899
 10
335.722956978
 20
148.6628612883
 10
335.7230484235
 20
148.6566063641
 10
335.7231077739
 20
148.6503033768
  0
LINE
  5
331
100
AcDbEntity
  8
SCRITTE
100
AcDbLine
 62
250
  6
CONTINUOUS
 10
335.7121284437
 20
148.4102191474
 11
335.7116854596
 21
148.4239856455
  0
LINE
  5
332
100
AcDbEntity
  8
SCRITTE
100
AcDbLine
 62
250
  6
CONTINUOUS
 10
335.7127054152
 20
148.3885203534
 11
335.7121284437
 21
148.4102191474
  0
LINE
  5
333
100
AcDbEntity
  8
SCRITTE
100
AcDbLine
 62
250
  6
CONTINUOUS
 10
335.7131919743
 20
148.3655206425
 11
335.7127054152
 21
148.3885203534
  0
LINE
  5
334
100
AcDbEntity
  8
SCRITTE
100
AcDbLine
 62
250
  6
CONTINUOUS
 10
335.713645268
 20
148.3377793536
 11
335.7131919743
 21
148.3655206425
  0
LINE
  5
335
100
AcDbEntity
  8
SCRITTE
100
AcDbLine
 62
250
  6
CONTINUOUS
 10
335.7140930316
 20
148.2977596978
 11
335.713645268
 21
148.3377793536
  0
LINE
  5
336
100
AcDbEntity
  8
SCRITTE
100
AcDbLine
 62
250
  6
CONTINUOUS
 10
335.6849209679
 20
148.0895725141
 11
335.6856979637
 21
147.9789969499
  0
LINE
  5
337
100
AcDbEntity
  8
SCRITTE
100
AcDbLine
 62
250
  6
CONTINUOUS
 10
335.7143740716
 20
148.2534917635
 11
335.7140930316
 21
148.2977596978
  0
LINE
  5
338
100
AcDbEntity
  8
SCRITTE
100
AcDbLine
 62
250
  6
CONTINUOUS
 10
335.6690675391
 20
147.5770738969
 11
335.6668583277
 21
147.9644954951
  0
LINE
  5
339
100
AcDbEntity
  8
SCRITTE
100
AcDbLine
 62
250
  6
CONTINUOUS
 10
335.7144695415
 20
148.2175623739
 11
335.7143740716
 21
148.2534917635
  0
LINE
  5
33A
100
AcDbEntity
  8
SCRITTE
100
AcDbLine
 62
250
  6
CONTINUOUS
 10
335.6847121831
 20
148.1711037485
 11
335.6849209679
 21
148.0895725141
  0
LINE
  5
33B
100
AcDbEntity
  8
SCRITTE
100
AcDbLine
 62
250
  6
CONTINUOUS
 10
335.6668583277
 20
147.9644954951
 11
335.6666133566
 21
148.1219175411
  0
LINE
  5
33C
100
AcDbEntity
  8
RACCORDO
100
AcDbLine
 62
250
  6
CONTINUOUS
 10
334.1078837971
 20
136.5051054671
 11
334.1078837971
 21
136.0057906997
  0
LINE
  5
33D
100
AcDbEntity
  8
ASSI
100
AcDbLine
 62
250
  6
CONTINUOUS
 10
334.1078837971
 20
136.5051054671
 11
334.1078837971
 21
136.0057906997
  0
LINE
  5
33E
100
AcDbEntity
  8
RACCORDO
100
AcDbLine
 62
250
  6
CONTINUOUS
 10
334.1078837971
 20
223.0425446634
 11
334.1078837971
 21
223.5418594308
  0
LINE
  5
33F
100
AcDbEntity
  8
ASSI
100
AcDbLine
 62
250
  6
CONTINUOUS
 10
334.1078837971
 20
223.0425446634
 11
334.1078837971
 21
223.5418594308
  0
LINE
  5
340
100
AcDbEntity
  8
RACCORDO
100
AcDbLine
 62
250
  6
CONTINUOUS
 10
335.1065133318
 20
137.5037350019
 11
335.1065133318
 21
222.0439151287
  0
LINE
  5
341
100
AcDbEntity
  8
ASSI
100
AcDbLine
 62
250
  6
CONTINUOUS
 10
335.1065133318
 20
137.5037350019
 11
335.1065133318
 21
222.0439151287
  0
LINE
  5
342
100
AcDbEntity
  8
RACCORDO
100
AcDbLine
 62
250
  6
CONTINUOUS
 10
335.6058280992
 20
137.5037350019
 11
335.6058280992
 21
222.0439151287
  0
LINE
  5
343
100
AcDbEntity
  8
ASSI
100
AcDbLine
 62
250
  6
CONTINUOUS
 10
335.6058280992
 20
137.5037350019
 11
335.6058280992
 21
222.0439151287
  0
LINE
  5
344
100
AcDbEntity
  8
SCRITTE
100
AcDbLine
 62
250
  6
CONTINUOUS
 10
335.6678430094
 20
145.1442100653
 11
335.7260322053
 21
144.7267660653
  0
LINE
  5
345
100
AcDbEntity
  8
SCRITTE
100
AcDbLine
 62
250
  6
CONTINUOUS
 10
335.7726500779
 20
144.7537590653
 11
335.7044983728
 21
145.2501000653
  0
LWPOLYLINE
  5
346
100
AcDbEntity
  8
RACCORDO
100
AcDbPolyline
 62
250
  6
CONTINUOUS
 90
31
 70
0
 10
335.1065133318
 20
222.0439151287
 10
335.1049415686
 20
222.0971811508
 10
335.1008125212
 20
222.1495091798
 10
335.0941261895
 20
222.2008992157
 10
335.0848654575
 20
222.2512784398
 10
335.0730474413
 20
222.3007196707
 10
335.058723489
 20
222.3494413648
 10
335.041851251
 20
222.3976750502
 10
335.022473077
 20
222.4451891988
 10
335.0007673635
 20
222.4915076816
 10
334.9767285971
 20
222.5365773241
 10
334.9503622913
 20
222.580451301
 10
334.921863383
 20
222.6228130067
 10
334.8912131556
 20
222.6636590278
 10
334.8584303256
 20
222.7029927777
 10
334.8237659803
 20
222.7405078922
 10
334.7871848402
 20
222.7762020478
 10
334.7487221848
 20
222.810077568
 10
334.7087349391
 20
222.8418350579
 10
334.6674282953
 20
222.8713676526
 10
334.6245970613
 20
222.8987822171
 10
334.5799825851
 20
222.9240999518
 10
334.5334428342
 20
222.9474635806
 10
334.4851198413
 20
222.9687303797
 10
334.4351810518
 20
222.9874933782
 10
334.3834625655
 20
223.0037699913
 10
334.3301282827
 20
223.0175428039
 10
334.2758373499
 20
223.0283525991
 10
334.2208094824
 20
223.0360463046
 10
334.1648249648
 20
223.0407769927
 10
334.1078837971
 20
223.0425446634
  0
LWPOLYLINE
  5
347
100
AcDbEntity
  8
ASSI
100
AcDbPolyline
 62
250
  6
CONTINUOUS
 90
31
 70
0
 10
335.1065133318
 20
222.0439151287
 10
335.1049415686
 20
222.0971811508
 10
335.1008125212
 20
222.1495091798
 10
335.0941261895
 20
222.2008992157
 10
335.0848654575
 20
222.2512784398
 10
335.0730474413
 20
222.3007196707
 10
335.058723489
 20
222.3494413648
 10
335.041851251
 20
222.3976750502
 10
335.022473077
 20
222.4451891988
 10
335.0007673635
 20
222.4915076816
 10
334.9767285971
 20
222.5365773241
 10
334.9503622913
 20
222.580451301
 10
334.921863383
 20
222.6228130067
 10
334.8912131556
 20
222.6636590278
 10
334.8584303256
 20
222.7029927777
 10
334.8237659803
 20
222.7405078922
 10
334.7871848402
 20
222.7762020478
 10
334.7487221848
 20
222.810077568
 10
334.7087349391
 20
222.8418350579
 10
334.6674282953
 20
222.8713676526
 10
334.6245970613
 20
222.8987822171
 10
334.5799825851
 20
222.9240999518
 10
334.5334428342
 20
222.9474635806
 10
334.4851198413
 20
222.9687303797
 10
334.4351810518
 20
222.9874933782
 10
334.3834625655
 20
223.0037699913
 10
334.3301282827
 20
223.0175428039
 10
334.2758373499
 20
223.0283525991
 10
334.2208094824
 20
223.0360463046
 10
334.1648249648
 20
223.0407769927
 10
334.1078837971
 20
223.0425446634
  0
LWPOLYLINE
  5
348
100
AcDbEntity
  8
0
100
AcDbPolyline
 62
7
  6
CONTINUOUS
 90
28
 70
0
 10
335.8377937337
 20
222.2758807631
 10
335.8352702468
 20
222.3629283117
 10
335.8276859312
 20
222.4498242855
 10
335.8150398692
 20
222.5362738569
 10
335.7973166295
 20
222.622118018
 10
335.7745661404
 20
222.7069193513
 10
335.7469827503
 20
222.7899842438
 10
335.7147966293
 20
222.8708307035
 10
335.6780919612
 20
222.9494279351
 10
335.6368924901
 20
223.0257738958
 10
335.5913254477
 20
223.0996251643
 10
335.5415480442
 20
223.170719721
 10
335.4875741152
 20
223.2389961629
 10
335.4293836066
 20
223.3043754012
 10
335.3672884717
 20
223.366410337
 10
335.3018535732
 20
223.424536783
 10
335.2335047926
 20
223.4784593681
 10
335.1623411371
 20
223.5281798114
 10
335.0884943139
 20
223.5736440942
 10
335.0122861199
 20
223.6146811297
 10
334.9339156934
 20
223.6512095833
 10
334.8532981909
 20
223.6832527735
 10
334.7704446699
 20
223.7107303905
 10
334.6858499897
 20
223.7334040986
 10
334.600161051
 20
223.7510855504
 10
334.5137968081
 20
223.7637167617
 10
334.4269283826
 20
223.7712996949
 10
334.3398494315
 20
223.7738250653
  0
LWPOLYLINE
  5
349
100
AcDbEntity
  8
ASSI
100
AcDbPolyline
 62
7
  6
CONTINUOUS
 90
28
 70
0
 10
335.8377937337
 20
222.2758807631
 10
335.8352702468
 20
222.3629283117
 10
335.8276859312
 20
222.4498242855
 10
335.8150398692
 20
222.5362738569
 10
335.7973166295
 20
222.622118018
 10
335.7745661404
 20
222.7069193513
 10
335.7469827503
 20
222.7899842438
 10
335.7147966293
 20
222.8708307035
 10
335.6780919612
 20
222.9494279351
 10
335.6368924901
 20
223.0257738958
 10
335.5913254477
 20
223.0996251643
 10
335.5415480442
 20
223.170719721
 10
335.4875741152
 20
223.2389961629
 10
335.4293836066
 20
223.3043754012
 10
335.3672884717
 20
223.366410337
 10
335.3018535732
 20
223.424536783
 10
335.2335047926
 20
223.4784593681
 10
335.1623411371
 20
223.5281798114
 10
335.0884943139
 20
223.5736440942
 10
335.0122861199
 20
223.6146811297
 10
334.9339156934
 20
223.6512095833
 10
334.8532981909
 20
223.6832527735
 10
334.7704446699
 20
223.7107303905
 10
334.6858499897
 20
223.7334040986
 10
334.600161051
 20
223.7510855504
 10
334.5137968081
 20
223.7637167617
 10
334.4269283826
 20
223.7712996949
 10
334.3398494315
 20
223.7738250653
  0
LWPOLYLINE
  5
34A
100
AcDbEntity
  8
RACCORDO
100
AcDbPolyline
 62
250
  6
CONTINUOUS
 90
31
 70
0
 10
335.6058280992
 20
222.0439151287
 10
335.6036478831
 20
222.1234231814
 10
335.5973415565
 20
222.201918087
 10
335.5870499137
 20
222.2791937777
 10
335.572986042
 20
222.3547591814
 10
335.5552728612
 20
222.4287419425
 10
335.5337913153
 20
222.5018524666
 10
335.5084503327
 20
222.5742342333
 10
335.4793902514
 20
222.64534312
 10
335.4467422595
 20
222.7148370702
 10
335.4106308237
 20
222.7824761801
 10
335.3711273697
 20
222.8481497873
 10
335.3283147177
 20
222.9117234876
 10
335.2822960163
 20
222.9730403153
 10
335.2331972461
 20
223.0319291197
 10
335.1811418479
 20
223.08823905
 10
335.1262383035
 20
223.1418455584
 10
335.0686523356
 20
223.1925803636
 10
335.0086140023
 20
223.2402485147
 10
334.9465824764
 20
223.2845372236
 10
334.8824531118
 20
223.3255703669
 10
334.8155489651
 20
223.3637093502
 10
334.7457461378
 20
223.3988469952
 10
334.6733935869
 20
223.4306319052
 10
334.5984578464
 20
223.4589106674
 10
334.5209037374
 20
223.4834973395
 10
334.441088796
 20
223.5040807005
 10
334.3596041288
 20
223.5203613474
 10
334.2768101975
 20
223.5321657228
 10
334.1928183522
 20
223.5393766291
 10
334.1078837971
 20
223.5418594308
  0
LWPOLYLINE
  5
34B
100
AcDbEntity
  8
ASSI
100
AcDbPolyline
 62
250
  6
CONTINUOUS
 90
31
 70
0
 10
335.6058280992
 20
222.0439151287
 10
335.6036478831
 20
222.1234231814
 10
335.5973415565
 20
222.201918087
 10
335.5870499137
 20
222.2791937777
 10
335.572986042
 20
222.3547591814
 10
335.5552728612
 20
222.4287419425
 10
335.5337913153
 20
222.5018524666
 10
335.5084503327
 20
222.5742342333
 10
335.4793902514
 20
222.64534312
 10
335.4467422595
 20
222.7148370702
 10
335.4106308237
 20
222.7824761801
 10
335.3711273697
 20
222.8481497873
 10
335.3283147177
 20
222.9117234876
 10
335.2822960163
 20
222.9730403153
 10
335.2331972461
 20
223.0319291197
 10
335.1811418479
 20
223.08823905
 10
335.1262383035
 20
223.1418455584
 10
335.0686523356
 20
223.1925803636
 10
335.0086140023
 20
223.2402485147
 10
334.9465824764
 20
223.2845372236
 10
334.8824531118
 20
223.3255703669
 10
334.8155489651
 20
223.3637093502
 10
334.7457461378
 20
223.3988469952
 10
334.6733935869
 20
223.4306319052
 10
334.5984578464
 20
223.4589106674
 10
334.5209037374
 20
223.4834973395
 10
334.441088796
 20
223.5040807005
 10
334.3596041288
 20
223.5203613474
 10
334.2768101975
 20
223.5321657228
 10
334.1928183522
 20
223.5393766291
 10
334.1078837971
 20
223.5418594308
  0
LINE
  5
34C
100
AcDbEntity
  8
SCRITTE
100
AcDbLine
 62
250
  6
CONTINUOUS
 10
335.6678367205
 20
143.0738890653
 11
335.6678367205
 21
143.4913330653
  0
LINE
  5
34D
100
AcDbEntity
  8
SCRITTE
100
AcDbLine
 62
250
  6
CONTINUOUS
 10
335.6678430094
 20
146.8408920653
 11
335.6678430094
 21
146.4370650653
  0
LINE
  5
34E
100
AcDbEntity
  8
SCRITTE
100
AcDbLine
 62
250
  6
CONTINUOUS
 10
335.6678430094
 20
145.5572310653
 11
335.6678430094
 21
145.1442100653
  0
LINE
  5
34F
100
AcDbEntity
  8
SCRITTE
100
AcDbLine
 62
250
  6
CONTINUOUS
 10
335.6678430094
 20
144.3137300653
 11
335.6678430094
 21
143.8966310653
  0
LINE
  5
350
100
AcDbEntity
  8
SCRITTE
100
AcDbLine
 62
250
  6
CONTINUOUS
 10
335.6678430094
 20
142.9189740653
 11
335.6678430094
 21
142.5018140653
  0
LINE
  5
351
100
AcDbEntity
  8
SCRITTE
100
AcDbLine
 62
250
  6
CONTINUOUS
 10
335.6678430094
 20
141.7277590653
 11
335.6678430094
 21
141.2742860653
  0
LINE
  5
352
100
AcDbEntity
  8
SCRITTE
100
AcDbLine
 62
250
  6
CONTINUOUS
 10
335.7144695415
 20
147.9789969499
 11
335.7144695415
 21
148.2175623739
  0
LINE
  5
353
100
AcDbEntity
  8
SCRITTE
100
AcDbLine
 62
250
  6
CONTINUOUS
 10
335.7355365657
 20
146.8229560653
 11
335.7355365657
 21
146.4232830653
  0
LINE
  5
354
100
AcDbEntity
  8
SCRITTE
100
AcDbLine
 62
250
  6
CONTINUOUS
 10
335.7517268485
 20
146.3378920653
 11
335.7517268485
 21
146.9063820653
  0
LINE
  5
355
100
AcDbEntity
  8
SCRITTE
100
AcDbLine
 62
250
  6
CONTINUOUS
 10
335.7726500918
 20
149.0336306839
 11
335.7726500918
 21
148.6320975417
  0
LINE
  5
356
100
AcDbEntity
  8
SCRITTE
100
AcDbLine
 62
250
  6
CONTINUOUS
 10
335.7726500918
 20
147.9928387834
 11
335.7726500918
 21
147.5770738969
  0
LINE
  5
357
100
AcDbEntity
  8
SCRITTE
100
AcDbLine
 62
250
  6
CONTINUOUS
 10
335.7726500779
 20
143.4913330653
 11
335.7726500779
 21
143.0738890653
  0
LINE
  5
358
100
AcDbEntity
  8
SCRITTE
100
AcDbLine
 62
250
  6
CONTINUOUS
 10
335.7726500779
 20
141.9082730653
 11
335.7726500779
 21
142.2761460653
  0
LINE
  5
359
100
AcDbEntity
  8
SCRITTE
100
AcDbLine
 62
250
  6
CONTINUOUS
 10
335.7726500779
 20
143.7160570653
 11
335.7726500779
 21
144.1154150653
  0
LINE
  5
35A
100
AcDbEntity
  8
SCRITTE
100
AcDbLine
 62
250
  6
CONTINUOUS
 10
335.7726500779
 20
144.6952130653
 11
335.7726500779
 21
144.7537590653
  0
LINE
  5
35B
100
AcDbEntity
  8
SCRITTE
100
AcDbLine
 62
250
  6
CONTINUOUS
 10
335.7726500779
 20
145.3358670653
 11
335.7726500779
 21
145.7442380653
  0
LINE
  5
35C
100
AcDbEntity
  8
SCRITTE
100
AcDbLine
 62
250
  6
CONTINUOUS
 10
335.7726500779
 20
145.8097880653
 11
335.7726500779
 21
146.2227040653
  0
LINE
  5
35D
100
AcDbEntity
  8
SCRITTE
100
AcDbLine
 62
250
  6
CONTINUOUS
 10
335.7726500779
 20
147.0145230653
 11
335.7726500779
 21
147.4544920653
  0
LINE
  5
35E
100
AcDbEntity
  8
0
100
AcDbLine
 62
7
  6
CONTINUOUS
 10
335.8377937337
 20
137.2717693674
 11
335.8377937337
 21
222.2758807631
  0
LINE
  5
35F
100
AcDbEntity
  8
ASSI
100
AcDbLine
 62
7
  6
CONTINUOUS
 10
335.8377937337
 20
137.2717693674
 11
335.8377937337
 21
222.2758807631
  0
LINE
  5
360
100
AcDbEntity
  8
SCRITTE
100
AcDbLine
 62
250
  6
CONTINUOUS
 10
335.6848536292
 20
148.2598583679
 11
335.6847121831
 21
148.1711037485
  0
LINE
  5
361
100
AcDbEntity
  8
SCRITTE
100
AcDbLine
 62
250
  6
CONTINUOUS
 10
335.731683699
 20
148.2384750419
 11
335.7316344032
 21
147.9928387834
  0
LINE
  5
362
100
AcDbEntity
  8
SCRITTE
100
AcDbLine
 62
250
  6
CONTINUOUS
 10
335.6666133566
 20
148.1219175411
 11
335.6670124359
 21
148.306498378
  0
LINE
  5
363
100
AcDbEntity
  8
SCRITTE
100
AcDbLine
 62
250
  6
CONTINUOUS
 10
335.6852074381
 20
148.3226846567
 11
335.6848536292
 21
148.2598583679
  0
LINE
  5
364
100
AcDbEntity
  8
SCRITTE
100
AcDbLine
 62
250
  6
CONTINUOUS
 10
335.6670124359
 20
148.306498378
 11
335.6679032359
 21
148.4405368826
  0
LINE
  5
365
100
AcDbEntity
  8
SCRITTE
100
AcDbLine
 62
250
  6
CONTINUOUS
 10
335.7318613667
 20
148.2630915661
 11
335.731683699
 21
148.2384750419
  0
LINE
  5
366
100
AcDbEntity
  8
SCRITTE
100
AcDbLine
 62
250
  6
CONTINUOUS
 10
335.685484529
 20
148.3469221857
 11
335.6852074381
 21
148.3226846567
  0
LINE
  5
367
100
AcDbEntity
  8
SCRITTE
100
AcDbLine
 62
250
  6
CONTINUOUS
 10
335.6679032359
 20
148.4405368826
 11
335.6690090069
 21
148.5366015775
  0
LINE
  5
368
100
AcDbEntity
  8
SCRITTE
100
AcDbLine
 62
250
  6
CONTINUOUS
 10
335.7321574372
 20
148.2863567612
 11
335.7318613667
 21
148.2630915661
  0
LINE
  5
369
100
AcDbEntity
  8
SCRITTE
100
AcDbLine
 62
250
  6
CONTINUOUS
 10
335.6858626457
 20
148.3703099571
 11
335.685484529
 21
148.3469221857
  0
LINE
  5
36A
100
AcDbEntity
  8
SCRITTE
100
AcDbLine
 62
250
  6
CONTINUOUS
 10
335.6690090069
 20
148.5366015775
 11
335.6701709945
 21
148.607263223
  0
LINE
  5
36B
100
AcDbEntity
  8
SCRITTE
100
AcDbLine
 62
250
  6
CONTINUOUS
 10
335.7324684142
 20
148.3036380645
 11
335.7321574372
 21
148.2863567612
  0
LINE
  5
36C
100
AcDbEntity
  8
SCRITTE
100
AcDbLine
 62
250
  6
CONTINUOUS
 10
335.6701709945
 20
148.607263223
 11
335.6707038277
 21
148.6321827892
  0
LINE
  5
36D
100
AcDbEntity
  8
SCRITTE
100
AcDbLine
 62
250
  6
CONTINUOUS
 10
335.6863380788
 20
148.3928786273
 11
335.6858626457
 21
148.3703099571
  0
LINE
  5
36E
100
AcDbEntity
  8
SCRITTE
100
AcDbLine
 62
250
  6
CONTINUOUS
 10
335.7237270921
 20
148.6503033768
 11
335.7240861619
 21
148.6657794949
  0
LINE
  5
36F
100
AcDbEntity
  8
SCRITTE
100
AcDbLine
 62
250
  6
CONTINUOUS
 10
335.7328579737
 20
148.3204487332
 11
335.7324684142
 21
148.3036380645
  0
LINE
  5
370
100
AcDbEntity
  8
SCRITTE
100
AcDbLine
 62
250
  6
CONTINUOUS
 10
335.6707038277
 20
148.6321827892
 11
335.6713704629
 21
148.6575344134
  0
LINE
  5
371
100
AcDbEntity
  8
SCRITTE
100
AcDbLine
 62
250
  6
CONTINUOUS
 10
335.6869093106
 20
148.4144762705
 11
335.6863380788
 21
148.3928786273
  0
LINE
  5
372
100
AcDbEntity
  8
SCRITTE
100
AcDbLine
 62
250
  6
CONTINUOUS
 10
335.7240861619
 20
148.6657794949
 11
335.7245019322
 21
148.6806298892
  0
LINE
  5
373
100
AcDbEntity
  8
SCRITTE
100
AcDbLine
 62
250
  6
CONTINUOUS
 10
335.7333230339
 20
148.3365369432
 11
335.7328579737
 21
148.3204487332
  0
LINE
  5
374
100
AcDbEntity
  8
SCRITTE
100
AcDbLine
 62
250
  6
CONTINUOUS
 10
335.6713704629
 20
148.6575344134
 11
335.6721778889
 21
148.6835099943
  0
LINE
  5
375
100
AcDbEntity
  8
SCRITTE
100
AcDbLine
 62
250
  6
CONTINUOUS
 10
335.6873428743
 20
148.4282376739
 11
335.6869093106
 21
148.4144762705
  0
LINE
  5
376
100
AcDbEntity
  8
SCRITTE
100
AcDbLine
 62
250
  6
CONTINUOUS
 10
335.7245019322
 20
148.6806298892
 11
335.724973177
 21
148.6949061046
  0
LINE
  5
377
100
AcDbEntity
  8
SCRITTE
100
AcDbLine
 62
250
  6
CONTINUOUS
 10
335.6721778889
 20
148.6835099943
 11
335.6731303173
 21
148.7101606378
  0
LINE
  5
378
100
AcDbEntity
  8
SCRITTE
100
AcDbLine
 62
250
  6
CONTINUOUS
 10
335.6878181439
 20
148.4414172891
 11
335.6873428743
 21
148.4282376739
  0
LINE
  5
379
100
AcDbEntity
  8
SCRITTE
100
AcDbLine
 62
250
  6
CONTINUOUS
 10
335.7338595466
 20
148.351790706
 11
335.7333230339
 21
148.3365369432
  0
LINE
  5
37A
100
AcDbEntity
  8
SCRITTE
100
AcDbLine
 62
250
  6
CONTINUOUS
 10
335.724973177
 20
148.6949061046
 11
335.7254976128
 21
148.7086398405
  0
LINE
  5
37B
100
AcDbEntity
  8
SCRITTE
100
AcDbLine
 62
250
  6
CONTINUOUS
 10
335.7342551339
 20
148.3615371326
 11
335.7338595466
 21
148.351790706
  0
LINE
  5
37C
100
AcDbEntity
  8
SCRITTE
100
AcDbLine
 62
250
  6
CONTINUOUS
 10
335.6731303173
 20
148.7101606378
 11
335.6742208534
 21
148.7369742788
  0
LINE
  5
37D
100
AcDbEntity
  8
SCRITTE
100
AcDbLine
 62
250
  6
CONTINUOUS
 10
335.6883340668
 20
148.4539372176
 11
335.6878181439
 21
148.4414172891
  0
LINE
  5
37E
100
AcDbEntity
  8
SCRITTE
100
AcDbLine
 62
250
  6
CONTINUOUS
 10
335.7254976128
 20
148.7086398405
 11
335.7260687251
 21
148.7217834146
  0
LINE
  5
37F
100
AcDbEntity
  8
SCRITTE
100
AcDbLine
 62
250
  6
CONTINUOUS
 10
335.7346798182
 20
148.3709611282
 11
335.7342551339
 21
148.3615371326
  0
LINE
  5
380
100
AcDbEntity
  8
SCRITTE
100
AcDbLine
 62
250
  6
CONTINUOUS
 10
335.6742208534
 20
148.7369742788
 11
335.6754398253
 21
148.7632980593
  0
LINE
  5
381
100
AcDbEntity
  8
SCRITTE
100
AcDbLine
 62
250
  6
CONTINUOUS
 10
335.6888891277
 20
148.4657176006
 11
335.6883340668
 21
148.4539372176
  0
LINE
  5
382
100
AcDbEntity
  8
SCRITTE
100
AcDbLine
 62
250
  6
CONTINUOUS
 10
335.7260687251
 20
148.7217834146
 11
335.7266789421
 21
148.7342692991
  0
LINE
  5
383
100
AcDbEntity
  8
SCRITTE
100
AcDbLine
 62
250
  6
CONTINUOUS
 10
335.7351325442
 20
148.3800544704
 11
335.7346798182
 21
148.3709611282
  0
LINE
  5
384
100
AcDbEntity
  8
SCRITTE
100
AcDbLine
 62
250
  6
CONTINUOUS
 10
335.6754398253
 20
148.7632980593
 11
335.6767777319
 21
148.7885402045
  0
LINE
  5
385
100
AcDbEntity
  8
SCRITTE
100
AcDbLine
 62
250
  6
CONTINUOUS
 10
335.6894805704
 20
148.476686224
 11
335.6888891277
 21
148.4657176006
  0
LINE
  5
386
100
AcDbEntity
  8
SCRITTE
100
AcDbLine
 62
250
  6
CONTINUOUS
 10
335.7356121445
 20
148.3888067922
 11
335.7351325442
 21
148.3800544704
  0
LINE
  5
387
100
AcDbEntity
  8
SCRITTE
100
AcDbLine
 62
250
  6
CONTINUOUS
 10
335.7266789421
 20
148.7342692991
 11
335.7274533963
 21
148.7483234082
  0
LINE
  5
388
100
AcDbEntity
  8
SCRITTE
100
AcDbLine
 62
250
  6
CONTINUOUS
 10
335.7361170031
 20
148.3972024593
 11
335.7356121445
 21
148.3888067922
  0
LWPOLYLINE
  5
389
100
AcDbEntity
  8
SCRITTE
100
AcDbPolyline
 62
250
  6
CONTINUOUS
 90
47
 70
0
 10
335.6767777319
 20
148.7885402045
 10
335.678225753
 20
148.8123532724
 10
335.6789883536
 20
148.8236344153
 10
335.6797752392
 20
148.8344509043
 10
335.6805849078
 20
148.8447682245
 10
335.6814141741
 20
148.8545569796
 10
335.6822594319
 20
148.8637890532
 10
335.683117075
 20
148.872436329
 10
335.6839834972
 20
148.8804706906
 10
335.6848550924
 20
148.8878640215
 10
335.6857286309
 20
148.8945972242
 10
335.6866023886
 20
148.900687276
 10
335.6874750182
 20
148.9061601729
 10
335.6883451722
 20
148.911041911
 10
335.6892115031
 20
148.9153584865
 10
335.6900726635
 20
148.9191358953
 10
335.6910972617
 20
148.922994272
 10
335.6921097142
 20
148.9261621056
 10
335.6931072612
 20
148.9286878184
 10
335.6940871427
 20
148.930619833
 10
335.695046599
 20
148.9320065717
 10
335.6959833996
 20
148.9328926424
 10
335.6968974311
 20
148.9333073946
 10
335.6977891093
 20
148.9332763631
 10
335.6986588502
 20
148.932825083
 10
335.6995070697
 20
148.9319790892
 10
335.7003341677
 20
148.930762823
 10
335.7011404797
 20
148.9291963523
 10
335.7019263255
 20
148.9272986516
 10
335.7026920245
 20
148.925088695
 10
335.7034378963
 20
148.9225854571
 10
335.7043429526
 20
148.9190710447
 10
335.7052188215
 20
148.915154022
 10
335.7060667963
 20
148.9108603832
 10
335.7068881703
 20
148.9062161226
 10
335.7076839647
 20
148.9012483828
 10
335.7084541123
 20
148.8959888988
 10
335.7091982741
 20
148.8904705538
 10
335.709916111
 20
148.8847262312
 10
335.7106074898
 20
148.8787861452
 10
335.7112731004
 20
148.8726698342
 10
335.711913839
 20
148.8663941677
 10
335.7125306015
 20
148.8599760153
 10
335.713316957
 20
148.8512253309
 10
335.7140629237
 20
148.8422873546
 10
335.7147691439
 20
148.8331981126
 10
335.7154364819
 20
148.8239917687
  0
LINE
  5
38A
100
AcDbEntity
  8
SCRITTE
100
AcDbLine
 62
250
  6
CONTINUOUS
 10
335.7274533963
 20
148.7483234082
 11
335.728267596
 21
148.7614221774
  0
LINE
  5
38B
100
AcDbEntity
  8
SCRITTE
100
AcDbLine
 62
250
  6
CONTINUOUS
 10
335.7367130001
 20
148.4062000526
 11
335.7361170031
 21
148.3972024593
  0
LINE
  5
38C
100
AcDbEntity
  8
SCRITTE
100
AcDbLine
 62
250
  6
CONTINUOUS
 10
335.728267596
 20
148.7614221774
 11
335.7291158349
 21
148.7736531989
  0
LINE
  5
38D
100
AcDbEntity
  8
SCRITTE
100
AcDbLine
 62
250
  6
CONTINUOUS
 10
335.7291158349
 20
148.7736531989
 11
335.729991382
 21
148.7850722957
  0
LWPOLYLINE
  5
38E
100
AcDbEntity
  8
SCRITTE
100
AcDbPolyline
 62
250
  6
CONTINUOUS
 90
19
 70
0
 10
335.729991382
 20
148.7850722957
 10
335.7308864815
 20
148.7957035224
 10
335.7314528504
 20
148.8019618079
 10
335.7320247191
 20
148.8079494328
 10
335.7326029969
 20
148.8136946414
 10
335.733188593
 20
148.8192256781
 10
335.7337823874
 20
148.8245681882
 10
335.7343851429
 20
148.8297374202
 10
335.7349975932
 20
148.8347460237
 10
335.7356204717
 20
148.8396066482
 10
335.7362545747
 20
148.8443309872
 10
335.7369009477
 20
148.8489269114
 10
335.7375606989
 20
148.8534013354
 10
335.7382349365
 20
148.8577611742
 10
335.7387855315
 20
148.8611726041
 10
335.7393468548
 20
148.8645271475
 10
335.7399196539
 20
148.8678368271
 10
335.7405046768
 20
148.8711136655
 10
335.741102671
 20
148.8743696853
  0
LWPOLYLINE
  5
38F
100
AcDbEntity
  8
SCRITTE
100
AcDbPolyline
 62
250
  6
CONTINUOUS
 90
12
 70
0
 10
335.7408625657
 20
148.449512037
 10
335.7405322908
 20
148.4470686994
 10
335.7402079061
 20
148.4445186574
 10
335.739888762
 20
148.4418594939
 10
335.7395742088
 20
148.4390887921
 10
335.7392635969
 20
148.4362041352
 10
335.7388801715
 20
148.4324357247
 10
335.7385023404
 20
148.4284888147
 10
335.7381305545
 20
148.4243667369
 10
335.737765265
 20
148.4200728233
 10
335.7374069271
 20
148.4156106526
 10
335.7367130001
 20
148.4062000526
  0
LINE
  5
390
100
AcDbEntity
  8
SCRITTE
100
AcDbLine
 62
250
  6
CONTINUOUS
 10
335.7042130125
 20
144.2054990653
 11
335.7726500779
 21
144.6952130653
  0
LINE
  5
391
100
AcDbEntity
  8
SCRITTE
100
AcDbLine
 62
250
  6
CONTINUOUS
 10
335.7260322053
 20
144.7267660653
 11
335.6678430094
 21
144.3137300653
  0
LINE
  5
392
100
AcDbEntity
  8
SCRITTE
100
AcDbLine
 62
250
  6
CONTINUOUS
 10
335.6678430094
 20
141.2742860653
 11
335.7726500779
 21
141.9082730653
  0
LINE
  5
393
100
AcDbEntity
  8
SCRITTE
100
AcDbLine
 62
250
  6
CONTINUOUS
 10
335.7726500779
 20
147.4544920653
 11
335.6678430094
 21
146.8408920653
  0
LWPOLYLINE
  5
394
100
AcDbEntity
  8
SCRITTE
100
AcDbPolyline
 62
250
  6
CONTINUOUS
 90
7
 70
0
 10
335.749288442
 20
148.502972421
 10
335.7478401414
 20
148.4945609079
 10
335.7464085433
 20
148.4859921906
 10
335.744994317
 20
148.477234606
 10
335.7435981324
 20
148.4682564907
 10
335.7422206589
 20
148.4590261814
 10
335.7408625662
 20
148.449512015
  0
LINE
  5
395
100
AcDbEntity
  8
SCRITTE
100
AcDbLine
 62
250
  6
CONTINUOUS
 10
335.7524805071
 20
148.5208146008
 11
335.749288442
 21
148.502972421
  0
LINE
  5
396
100
AcDbEntity
  8
SCRITTE
100
AcDbLine
 62
250
  6
CONTINUOUS
 10
335.7726500918
 20
148.6320975417
 11
335.7595770456
 21
148.5593689385
  0
LINE
  5
397
100
AcDbEntity
  8
SCRITTE
100
AcDbLine
 62
250
  6
CONTINUOUS
 10
335.7595770456
 20
148.5593689385
 11
335.7524805071
 21
148.5208146008
  0
LINE
  5
398
100
AcDbEntity
  8
SCRITTE
100
AcDbLine
 62
250
  6
CONTINUOUS
 10
335.7399849904
 20
142.1089650653
 11
335.6678430094
 21
141.7277590653
  0
LINE
  5
399
100
AcDbEntity
  8
SCRITTE
100
AcDbLine
 62
250
  6
CONTINUOUS
 10
335.741102671
 20
148.8743696853
 11
335.7423387808
 21
148.880878668
  0
LINE
  5
39A
100
AcDbEntity
  8
SCRITTE
100
AcDbLine
 62
250
  6
CONTINUOUS
 10
335.7517268485
 20
146.9063820653
 11
335.7726500779
 21
147.0145230653
  0
LINE
  5
39B
100
AcDbEntity
  8
SCRITTE
100
AcDbLine
 62
250
  6
CONTINUOUS
 10
335.7423387808
 20
148.880878668
 11
335.751569055
 21
148.9281668572
  0
LINE
  5
39C
100
AcDbEntity
  8
SCRITTE
100
AcDbLine
 62
250
  6
CONTINUOUS
 10
335.76807132
 20
149.0103529067
 11
335.7726500918
 21
149.0336306839
  0
LINE
  5
39D
100
AcDbEntity
  8
SCRITTE
100
AcDbLine
 62
250
  6
CONTINUOUS
 10
335.751569055
 20
148.9281668572
 11
335.76807132
 21
149.0103529067
  0
LINE
  5
39E
100
AcDbEntity
  8
SCRITTE
100
AcDbLine
 62
250
  6
CONTINUOUS
 10
335.6966413462
 20
146.6311350653
 11
335.7355365657
 21
146.8229560653
  0
LINE
  5
39F
100
AcDbEntity
  8
SCRITTE
100
AcDbLine
 62
250
  6
CONTINUOUS
 10
335.7726500779
 20
145.7442380653
 11
335.6678430094
 21
145.5572310653
  0
LINE
  5
3A0
100
AcDbEntity
  8
SCRITTE
100
AcDbLine
 62
250
  6
CONTINUOUS
 10
335.7044983728
 20
145.2501000653
 11
335.7726500779
 21
145.3358670653
  0
LINE
  5
3A1
100
AcDbEntity
  8
RACCORDO
100
AcDbLine
 62
7
  6
CONTINUOUS
 10
143.0509207947
 20
136.0057906997
 11
147.4770887728
 21
135.7738250653
  0
LINE
  5
3A2
100
AcDbEntity
  8
ASSI
100
AcDbLine
 62
7
  6
CONTINUOUS
 10
143.0509207947
 20
136.0057906997
 11
147.4770887728
 21
135.7738250653
  0
LINE
  5
3A3
100
AcDbEntity
  8
RACCORDO
100
AcDbLine
 62
7
  6
CONTINUOUS
 10
150.2875559641
 20
136.6084024872
 11
147.8754306232
 21
136.4819883548
  0
LINE
  5
3A4
100
AcDbEntity
  8
ASSI
100
AcDbLine
 62
7
  6
CONTINUOUS
 10
150.2875559641
 20
136.6084024872
 11
147.8754306232
 21
136.4819883548
  0
LINE
  5
3A5
100
AcDbEntity
  8
0
100
AcDbLine
 62
250
  6
CONTINUOUS
 10
147.4770887728
 20
137.2717693674
 11
147.8754306232
 21
137.2754112891
  0
LINE
  5
3A6
100
AcDbEntity
  8
ASSI
100
AcDbLine
 62
250
  6
CONTINUOUS
 10
147.4770887728
 20
137.2717693674
 11
147.8754306232
 21
137.2754112891
  0
LINE
  5
3A7
100
AcDbEntity
  8
RACCORDO
100
AcDbLine
 62
250
  6
CONTINUOUS
 10
150.4770887728
 20
137.2758835843
 11
147.8754306232
 21
137.2758835843
  0
LINE
  5
3A8
100
AcDbEntity
  8
ASSI
100
AcDbLine
 62
250
  6
CONTINUOUS
 10
150.4770887728
 20
137.2758835843
 11
147.8754306232
 21
137.2758835843
  0
LINE
  5
3A9
100
AcDbEntity
  8
RACCORDO
100
AcDbLine
 62
250
  6
CONTINUOUS
 10
142.5770887728
 20
137.5037350019
 11
143.0509207947
 21
137.5037350019
  0
LINE
  5
3AA
100
AcDbEntity
  8
ASSI
100
AcDbLine
 62
250
  6
CONTINUOUS
 10
142.5770887728
 20
137.5037350019
 11
143.0509207947
 21
137.5037350019
  0
LINE
  5
3AB
100
AcDbEntity
  8
RACCORDO
100
AcDbLine
 62
250
  6
CONTINUOUS
 10
143.0509207947
 20
137.5037350019
 11
147.4770887728
 21
137.2717693674
  0
LINE
  5
3AC
100
AcDbEntity
  8
ASSI
100
AcDbLine
 62
250
  6
CONTINUOUS
 10
143.0509207947
 20
137.5037350019
 11
147.4770887728
 21
137.2717693674
  0
LWPOLYLINE
  5
3AD
100
AcDbEntity
  8
0
100
AcDbPolyline
 62
7
  6
CONTINUOUS
 90
10
 70
0
 43
0.3499999917
 10
147.8128015137
 20
234.5238134766
 10
148.6699511719
 20
235.3809631348
 10
148.8842321777
 20
236.238112793
 10
148.8842321777
 20
237.0952624512
 10
148.4556573486
 20
237.5238244629
 10
147.8128015137
 20
237.5238244629
 10
147.3842266846
 20
237.0952624512
 10
147.3842266846
 20
236.238112793
 10
147.8128015137
 20
235.8095507812
 10
148.7413696289
 20
235.8095507812
  0
LINE
  5
3AE
100
AcDbEntity
  8
SCRITTE
100
AcDbLine
 62
250
  6
CONTINUOUS
 10
145.6107867728
 20
142.1089650653
 11
144.2342357728
 21
141.7277590653
  0
LINE
  5
3AF
100
AcDbEntity
  8
SCRITTE
100
AcDbLine
 62
250
  6
CONTINUOUS
 10
146.2340737728
 20
143.0738890653
 11
144.2341157728
 21
143.0738890653
  0
LINE
  5
3B0
100
AcDbEntity
  8
SCRITTE
100
AcDbLine
 62
250
  6
CONTINUOUS
 10
144.2341157728
 20
143.4913330653
 11
146.2340737728
 21
143.4913330653
  0
LINE
  5
3B1
100
AcDbEntity
  8
SCRITTE
100
AcDbLine
 62
250
  6
CONTINUOUS
 10
146.2340737728
 20
144.1154150653
 11
144.9282167728
 21
144.2054990653
  0
LINE
  5
3B2
100
AcDbEntity
  8
SCRITTE
100
AcDbLine
 62
250
  6
CONTINUOUS
 10
144.2342357728
 20
143.8966310653
 11
146.2340737728
 21
143.7160570653
  0
LINE
  5
3B3
100
AcDbEntity
  8
SCRITTE
100
AcDbLine
 62
250
  6
CONTINUOUS
 10
144.2342357728
 20
142.5018140653
 11
145.6107867728
 21
142.1089650653
  0
LINE
  5
3B4
100
AcDbEntity
  8
SCRITTE
100
AcDbLine
 62
250
  6
CONTINUOUS
 10
146.2340737728
 20
142.2761460653
 11
144.2342357728
 21
142.9189740653
  0
LINE
  5
3B5
100
AcDbEntity
  8
SCRITTE
100
AcDbLine
 62
250
  6
CONTINUOUS
 10
146.2340737728
 20
145.7442380653
 11
144.2342357728
 21
145.5572310653
  0
LINE
  5
3B6
100
AcDbEntity
  8
SCRITTE
100
AcDbLine
 62
250
  6
CONTINUOUS
 10
144.9336617728
 20
145.2501000653
 11
146.2340737728
 21
145.3358670653
  0
LINE
  5
3B7
100
AcDbEntity
  8
SCRITTE
100
AcDbLine
 62
250
  6
CONTINUOUS
 10
146.2340740381
 20
147.5770738969
 11
144.257601191
 21
147.5770738969
  0
LINE
  5
3B8
100
AcDbEntity
  8
SCRITTE
100
AcDbLine
 62
250
  6
CONTINUOUS
 10
145.5259057728
 20
146.4232830653
 11
144.7837407728
 21
146.6311350653
  0
LINE
  5
3B9
100
AcDbEntity
  8
SCRITTE
100
AcDbLine
 62
250
  6
CONTINUOUS
 10
146.2340737728
 20
146.2227040653
 11
145.8348347728
 21
146.3378920653
  0
LINE
  5
3BA
100
AcDbEntity
  8
SCRITTE
100
AcDbLine
 62
250
  6
CONTINUOUS
 10
144.2342357728
 20
146.4370650653
 11
146.2340737728
 21
145.8097880653
  0
LINE
  5
3BB
100
AcDbEntity
  8
SCRITTE
100
AcDbLine
 62
250
  6
CONTINUOUS
 10
144.2342357728
 20
145.1442100653
 11
145.3445517728
 21
144.7267660653
  0
LINE
  5
3BC
100
AcDbEntity
  8
SCRITTE
100
AcDbLine
 62
250
  6
CONTINUOUS
 10
146.2340737728
 20
144.7537590653
 11
144.9336617728
 21
145.2501000653
  0
LWPOLYLINE
  5
3BD
100
AcDbEntity
  8
SCRITTE
100
AcDbPolyline
 62
250
  6
CONTINUOUS
 90
11
 70
0
 10
145.9502792025
 20
148.5495496051
 10
145.8825581299
 20
148.5303273156
 10
145.8492154347
 20
148.5208146008
 10
145.8162483467
 20
148.5112583933
 10
145.7883072041
 20
148.502972421
 10
145.7606719839
 20
148.4945609079
 10
145.7333554632
 20
148.4859921906
 10
145.706370419
 20
148.477234606
 10
145.6797296285
 20
148.4682564907
 10
145.6534458686
 20
148.4590261814
 10
145.6275319165
 20
148.449512015
  0
LINE
  5
3BE
100
AcDbEntity
  8
SCRITTE
100
AcDbLine
 62
250
  6
CONTINUOUS
 10
145.8348347728
 20
146.9063820653
 11
146.2340737728
 21
147.0145230653
  0
LINE
  5
3BF
100
AcDbEntity
  8
SCRITTE
100
AcDbLine
 62
250
  6
CONTINUOUS
 10
145.6437813207
 20
148.8776183227
 11
145.7394242288
 21
148.9035455666
  0
LINE
  5
3C0
100
AcDbEntity
  8
SCRITTE
100
AcDbLine
 62
250
  6
CONTINUOUS
 10
146.1467058668
 20
149.0103529067
 11
146.2340740381
 21
149.0336306839
  0
LINE
  5
3C1
100
AcDbEntity
  8
SCRITTE
100
AcDbLine
 62
250
  6
CONTINUOUS
 10
145.7394242288
 20
148.9035455666
 11
145.8776277337
 21
148.9402279694
  0
LINE
  5
3C2
100
AcDbEntity
  8
SCRITTE
100
AcDbLine
 62
250
  6
CONTINUOUS
 10
145.8776277337
 20
148.9402279694
 11
146.1467058668
 21
149.0103529067
  0
LINE
  5
3C3
100
AcDbEntity
  8
SCRITTE
100
AcDbLine
 62
250
  6
CONTINUOUS
 10
144.7837407728
 20
146.6311350653
 11
145.5259057728
 21
146.8229560653
  0
LWPOLYLINE
  5
3C4
100
AcDbEntity
  8
SCRITTE
100
AcDbPolyline
 62
250
  6
CONTINUOUS
 90
49
 70
0
 10
144.8133137827
 20
148.5418357094
 10
144.8058489848
 20
148.541610207
 10
144.7984236274
 20
148.541158649
 10
144.791034611
 20
148.5404829322
 10
144.7836788357
 20
148.5395849534
 10
144.7763532017
 20
148.5384666095
 10
144.7690546094
 20
148.5371297973
 10
144.7617799589
 20
148.5355764137
 10
144.7545261505
 20
148.5338083555
 10
144.7472921346
 20
148.531827223
 10
144.7400850617
 20
148.5296334305
 10
144.7329141326
 20
148.5272270959
 10
144.7257885481
 20
148.5246083369
 10
144.7187175089
 20
148.5217772712
 10
144.7117102158
 20
148.5187340168
 10
144.7047758695
 20
148.5154786914
 10
144.6979236708
 20
148.5120114127
 10
144.6911626996
 20
148.5083324415
 10
144.6845015529
 20
148.5044426102
 10
144.6779487068
 20
148.5003428941
 10
144.6715126376
 20
148.4960342685
 10
144.6652018116
 20
148.491517022
 10
144.6590246566
 20
148.486788696
 10
144.6529895905
 20
148.4818461451
 10
144.6471050313
 20
148.476686224
 10
144.6413792128
 20
148.4713077762
 10
144.6358196326
 20
148.4657176006
 10
144.630433604
 20
148.4599244851
 10
144.6252284405
 20
148.4539372176
 10
144.6202107156
 20
148.4477648248
 10
144.6153840441
 20
148.4414172891
 10
144.6107513009
 20
148.4349048317
 10
144.6063153611
 20
148.4282376739
 10
144.6020787348
 20
148.4214255531
 10
144.5980424721
 20
148.4144762705
 10
144.5942072586
 20
148.4073971437
 10
144.5905737796
 20
148.4001954902
 10
144.5871427204
 20
148.3928786273
 10
144.5839147665
 20
148.3854538725
 10
144.5808906033
 20
148.3779285433
 10
144.5780709161
 20
148.3703099571
 10
144.5754567775
 20
148.3626037408
 10
144.5730508091
 20
148.354808759
 10
144.5708560195
 20
148.3469221857
 10
144.5688754175
 20
148.3389411949
 10
144.5671120118
 20
148.3308629606
 10
144.5655688111
 20
148.3226846567
 10
144.5642488241
 20
148.3144034574
 10
144.5631550595
 20
148.3060165365
  0
LINE
  5
3C5
100
AcDbEntity
  8
SCRITTE
100
AcDbLine
 62
250
  6
CONTINUOUS
 10
144.5749285968
 20
147.9789969499
 11
145.1239230047
 21
147.9789969499
  0
LINE
  5
3C6
100
AcDbEntity
  8
SCRITTE
100
AcDbLine
 62
250
  6
CONTINUOUS
 10
145.4514480775
 20
147.9928387834
 11
146.2340740381
 21
147.9928387834
  0
LINE
  5
3C7
100
AcDbEntity
  8
SCRITTE
100
AcDbLine
 62
250
  6
CONTINUOUS
 10
145.2887502975
 20
148.6503033768
 11
145.3005675941
 21
148.6503033768
  0
LWPOLYLINE
  5
3C8
100
AcDbEntity
  8
RACCORDO
100
AcDbPolyline
 62
250
  6
CONTINUOUS
 90
10
 70
0
 10
143.0509207947
 20
136.0057906997
 10
143.0495775695
 20
136.0079709158
 10
143.0483204242
 20
136.0142772424
 10
143.0471527797
 20
136.0245688853
 10
143.0460844446
 20
136.038632757
 10
143.0451070474
 20
136.0563459377
 10
143.044203876
 20
136.0778274837
 10
143.0433821726
 20
136.1031684663
 10
143.0426531099
 20
136.1322285475
 10
143.0420120527
 20
136.1648765395
  0
LWPOLYLINE
  5
3C9
100
AcDbEntity
  8
ASSI
100
AcDbPolyline
 62
250
  6
CONTINUOUS
 90
10
 70
0
 10
143.0509207947
 20
136.0057906997
 10
143.0495775695
 20
136.0079709158
 10
143.0483204242
 20
136.0142772424
 10
143.0471527797
 20
136.0245688853
 10
143.0460844446
 20
136.038632757
 10
143.0451070474
 20
136.0563459377
 10
143.044203876
 20
136.0778274837
 10
143.0433821726
 20
136.1031684663
 10
143.0426531099
 20
136.1322285475
 10
143.0420120527
 20
136.1648765395
  0
LWPOLYLINE
  5
3CA
100
AcDbEntity
  8
0
100
AcDbPolyline
 62
7
  6
CONTINUOUS
 90
3
 70
0
 43
0.3499999917
 10
146.3842272949
 20
234.8095385742
 10
146.3128088379
 20
234.5952575684
 10
146.1699462891
 20
234.3095324707
  0
LWPOLYLINE
  5
3CB
100
AcDbEntity
  8
SCRITTE
100
AcDbPolyline
 62
250
  6
CONTINUOUS
 90
36
 70
0
 10
144.257601191
 20
147.5770738969
 10
144.2531077464
 20
147.6080732979
 10
144.2488199639
 20
147.6386138159
 10
144.2447454893
 20
147.6686838761
 10
144.2408919689
 20
147.6982719036
 10
144.2372670486
 20
147.7273663234
 10
144.2338768138
 20
147.7559638014
 10
144.230721107
 20
147.7840939675
 10
144.2277982097
 20
147.811794692
 10
144.2251064037
 20
147.8391038455
 10
144.2226439706
 20
147.8660592986
 10
144.2198867399
 20
147.8993086183
 10
144.2174870988
 20
147.9321066263
 10
144.2154469265
 20
147.9644954951
 10
144.2137681024
 20
147.9965173973
 10
144.2124535794
 20
148.0282166733
 10
144.2115106064
 20
148.0596463356
 10
144.2109475056
 20
148.0908615647
 10
144.2107725997
 20
148.1219175411
 10
144.2111577151
 20
148.163156909
 10
144.2122679587
 20
148.204244571
 10
144.2141235388
 20
148.2452138383
 10
144.2160213658
 20
148.2758806012
 10
144.2183874869
 20
148.306498378
 10
144.2212595769
 20
148.3370660418
 10
144.2246753109
 20
148.3675824659
 10
144.2278271717
 20
148.3919553924
 10
144.2313855607
 20
148.4162788496
 10
144.235384962
 20
148.4405368826
 10
144.2398598598
 20
148.4647135366
 10
144.2448447381
 20
148.488792857
 10
144.2503743259
 20
148.5127596264
 10
144.2564843308
 20
148.5366015775
 10
144.2632107055
 20
148.5603071805
 10
144.2705894025
 20
148.5838649056
 10
144.2786563743
 20
148.607263223
  0
LINE
  5
3CC
100
AcDbEntity
  8
RACCORDO
100
AcDbLine
 62
250
  6
CONTINUOUS
 10
143.0509207947
 20
222.0439151287
 11
143.0451070474
 21
222.4287419425
  0
LINE
  5
3CD
100
AcDbEntity
  8
ASSI
100
AcDbLine
 62
250
  6
CONTINUOUS
 10
143.0509207947
 20
222.0439151287
 11
143.0451070474
 21
222.4287419425
  0
LINE
  5
3CE
100
AcDbEntity
  8
RACCORDO
100
AcDbLine
 62
250
  6
CONTINUOUS
 10
143.0420120527
 20
136.1648765395
 11
143.0410079372
 21
136.2404914292
  0
LINE
  5
3CF
100
AcDbEntity
  8
ASSI
100
AcDbLine
 62
250
  6
CONTINUOUS
 10
143.0420120527
 20
136.1648765395
 11
143.0410079372
 21
136.2404914292
  0
LINE
  5
3D0
100
AcDbEntity
  8
RACCORDO
100
AcDbLine
 62
250
  6
CONTINUOUS
 10
143.0451070474
 20
222.4287419425
 11
143.0414619392
 21
222.7824761801
  0
LINE
  5
3D1
100
AcDbEntity
  8
ASSI
100
AcDbLine
 62
250
  6
CONTINUOUS
 10
143.0451070474
 20
222.4287419425
 11
143.0414619392
 21
222.7824761801
  0
LINE
  5
3D2
100
AcDbEntity
  8
RACCORDO
100
AcDbLine
 62
250
  6
CONTINUOUS
 10
143.0410079372
 20
136.2404914292
 11
143.0403789964
 21
136.3293227826
  0
LINE
  5
3D3
100
AcDbEntity
  8
ASSI
100
AcDbLine
 62
250
  6
CONTINUOUS
 10
143.0410079372
 20
136.2404914292
 11
143.0403789964
 21
136.3293227826
  0
LINE
  5
3D4
100
AcDbEntity
  8
RACCORDO
100
AcDbLine
 62
250
  6
CONTINUOUS
 10
143.0414619392
 20
222.7824761801
 11
143.0402092453
 21
223.0319291197
  0
LINE
  5
3D5
100
AcDbEntity
  8
ASSI
100
AcDbLine
 62
250
  6
CONTINUOUS
 10
143.0414619392
 20
222.7824761801
 11
143.0402092453
 21
223.0319291197
  0
LINE
  5
3D6
100
AcDbEntity
  8
RACCORDO
100
AcDbLine
 62
7
  6
CONTINUOUS
 10
142.5770887728
 20
136.5051054671
 11
142.5770887728
 21
223.0425446634
  0
LINE
  5
3D7
100
AcDbEntity
  8
ASSI
100
AcDbLine
 62
7
  6
CONTINUOUS
 10
142.5770887728
 20
136.5051054671
 11
142.5770887728
 21
223.0425446634
  0
LINE
  5
3D8
100
AcDbEntity
  8
RACCORDO
100
AcDbLine
 62
250
  6
CONTINUOUS
 10
143.0509207947
 20
137.5037350019
 11
143.0509207947
 21
222.0439151287
  0
LINE
  5
3D9
100
AcDbEntity
  8
ASSI
100
AcDbLine
 62
250
  6
CONTINUOUS
 10
143.0509207947
 20
137.5037350019
 11
143.0509207947
 21
222.0439151287
  0
LWPOLYLINE
  5
3DA
100
AcDbEntity
  8
0
100
AcDbPolyline
 62
7
  6
CONTINUOUS
 90
4
 70
0
 43
0.3499999917
 10
143.3127978516
 20
236.8809558105
 10
143.3127978516
 20
237.5238244629
 10
144.8128033447
 20
237.5238244629
 10
143.9556665039
 20
234.5238134766
  0
LINE
  5
3DB
100
AcDbEntity
  8
RACCORDO
100
AcDbLine
 62
250
  6
CONTINUOUS
 10
143.0403789964
 20
136.3293227826
 11
143.0401571653
 21
136.4853804954
  0
LINE
  5
3DC
100
AcDbEntity
  8
ASSI
100
AcDbLine
 62
250
  6
CONTINUOUS
 10
143.0403789964
 20
136.3293227826
 11
143.0401571653
 21
136.4853804954
  0
LINE
  5
3DD
100
AcDbEntity
  8
RACCORDO
100
AcDbLine
 62
250
  6
CONTINUOUS
 10
143.0402092453
 20
223.0319291197
 11
143.0402758125
 21
223.1925803636
  0
LINE
  5
3DE
100
AcDbEntity
  8
ASSI
100
AcDbLine
 62
250
  6
CONTINUOUS
 10
143.0402092453
 20
223.0319291197
 11
143.0402758125
 21
223.1925803636
  0
LINE
  5
3DF
100
AcDbEntity
  8
RACCORDO
100
AcDbLine
 62
250
  6
CONTINUOUS
 10
143.0401571653
 20
136.4853804954
 11
143.0412081264
 21
136.7291656872
  0
LINE
  5
3E0
100
AcDbEntity
  8
ASSI
100
AcDbLine
 62
250
  6
CONTINUOUS
 10
143.0401571653
 20
136.4853804954
 11
143.0412081264
 21
136.7291656872
  0
LINE
  5
3E1
100
AcDbEntity
  8
RACCORDO
100
AcDbLine
 62
250
  6
CONTINUOUS
 10
143.0402758125
 20
223.1925803636
 11
143.0408056328
 21
223.2845372236
  0
LINE
  5
3E2
100
AcDbEntity
  8
ASSI
100
AcDbLine
 62
250
  6
CONTINUOUS
 10
143.0402758125
 20
223.1925803636
 11
143.0408056328
 21
223.2845372236
  0
LINE
  5
3E3
100
AcDbEntity
  8
RACCORDO
100
AcDbLine
 62
250
  6
CONTINUOUS
 10
143.0412081264
 20
136.7291656872
 11
143.0438257634
 21
137.0131609525
  0
LINE
  5
3E4
100
AcDbEntity
  8
ASSI
100
AcDbLine
 62
250
  6
CONTINUOUS
 10
143.0412081264
 20
136.7291656872
 11
143.0438257634
 21
137.0131609525
  0
LWPOLYLINE
  5
3E5
100
AcDbEntity
  8
RACCORDO
100
AcDbPolyline
 62
250
  6
CONTINUOUS
 90
11
 70
0
 10
143.0408056328
 20
223.2845372236
 10
143.0417043495
 20
223.3637093502
 10
143.0423064116
 20
223.3988469952
 10
143.0430144413
 20
223.4306319052
 10
143.0438257634
 20
223.4589106674
 10
143.0447443657
 20
223.4834973395
 10
143.0457754216
 20
223.5040807005
 10
143.0469139763
 20
223.5203613474
 10
143.0481536787
 20
223.5321657228
 10
143.0494913911
 20
223.5393766291
 10
143.0509207947
 20
223.5418594308
  0
LWPOLYLINE
  5
3E6
100
AcDbEntity
  8
ASSI
100
AcDbPolyline
 62
250
  6
CONTINUOUS
 90
11
 70
0
 10
143.0408056328
 20
223.2845372236
 10
143.0417043495
 20
223.3637093502
 10
143.0423064116
 20
223.3988469952
 10
143.0430144413
 20
223.4306319052
 10
143.0438257634
 20
223.4589106674
 10
143.0447443657
 20
223.4834973395
 10
143.0457754216
 20
223.5040807005
 10
143.0469139763
 20
223.5203613474
 10
143.0481536787
 20
223.5321657228
 10
143.0494913911
 20
223.5393766291
 10
143.0509207947
 20
223.5418594308
  0
LWPOLYLINE
  5
3E7
100
AcDbEntity
  8
RACCORDO
100
AcDbPolyline
 62
250
  6
CONTINUOUS
 90
3
 70
0
 10
143.0438257634
 20
137.0131609525
 10
143.0494913911
 20
137.4188004467
 10
143.0509207947
 20
137.5037350019
  0
LWPOLYLINE
  5
3E8
100
AcDbEntity
  8
ASSI
100
AcDbPolyline
 62
250
  6
CONTINUOUS
 90
3
 70
0
 10
143.0438257634
 20
137.0131609525
 10
143.0494913911
 20
137.4188004467
 10
143.0509207947
 20
137.5037350019
  0
LWPOLYLINE
  5
3E9
100
AcDbEntity
  8
SCRITTE
100
AcDbPolyline
 62
250
  6
CONTINUOUS
 90
56
 70
0
 10
145.1239230047
 20
148.2175623739
 10
145.1235351266
 20
148.2297870787
 10
145.122926269
 20
148.2417654768
 10
145.1221013313
 20
148.2534917635
 10
145.121065213
 20
148.2649601337
 10
145.1198228132
 20
148.2761647828
 10
145.1183790316
 20
148.2870999058
 10
145.1167387673
 20
148.2977596978
 10
145.1149051083
 20
148.3081422588
 10
145.1128738959
 20
148.3182613066
 10
145.1106391597
 20
148.328134464
 10
145.1081949294
 20
148.3377793536
 10
145.1055352348
 20
148.3472135981
 10
145.1026541056
 20
148.3564548202
 10
145.0995455714
 20
148.3655206425
 10
145.0966344246
 20
148.3733197705
 10
145.0935409431
 20
148.3809892807
 10
145.0902614699
 20
148.3885203534
 10
145.0867923483
 20
148.395904169
 10
145.0831276295
 20
148.4031349574
 10
145.079252197
 20
148.4102191474
 10
145.0751486425
 20
148.4171662173
 10
145.0707995575
 20
148.4239856455
 10
145.0661904454
 20
148.430681962
 10
145.0613184572
 20
148.437239903
 10
145.0561836555
 20
148.4436392562
 10
145.0507861029
 20
148.4498598093
 10
145.0451271686
 20
148.4558851595
 10
145.0392134473
 20
148.4617141427
 10
145.0330528401
 20
148.4673494041
 10
145.0266532481
 20
148.472793589
 10
145.0200218807
 20
148.4780488279
 10
145.0131631805
 20
148.4831151923
 10
145.0060808982
 20
148.4879922387
 10
144.9987787848
 20
148.4926795238
 10
144.9912614829
 20
148.4971762503
 10
144.9835372023
 20
148.5014802048
 10
144.9756150447
 20
148.5055888204
 10
144.9675041117
 20
148.50949953
 10
144.9592119998
 20
148.5132097411
 10
144.9507402853
 20
148.516716761
 10
144.9420890393
 20
148.5200178715
 10
144.9332583331
 20
148.5231103547
 10
144.9242482377
 20
148.5259914925
 10
144.9150588243
 20
148.5286585669
 10
144.9056901641
 20
148.5311088598
 10
144.8961423282
 20
148.5333396531
 10
144.8875049959
 20
148.5351345727
 10
144.8787261654
 20
148.5367427681
 10
144.869805853
 20
148.5381530945
 10
144.8607440754
 20
148.539354407
 10
144.8515408489
 20
148.5403355608
 10
144.8421961899
 20
148.5410854111
 10
144.832710115
 20
148.5415928129
 10
144.8230826405
 20
148.5418466216
 10
144.813313783
 20
148.5418356921
  0
LINE
  5
3EA
100
AcDbEntity
  8
SCRITTE
100
AcDbLine
 62
250
  6
CONTINUOUS
 10
144.2341157728
 20
143.0738890653
 11
144.2341157728
 21
143.4913330653
  0
LINE
  5
3EB
100
AcDbEntity
  8
SCRITTE
100
AcDbLine
 62
250
  6
CONTINUOUS
 10
144.2342357728
 20
146.8408920653
 11
144.2342357728
 21
146.4370650653
  0
LINE
  5
3EC
100
AcDbEntity
  8
SCRITTE
100
AcDbLine
 62
250
  6
CONTINUOUS
 10
144.2342357728
 20
145.5572310653
 11
144.2342357728
 21
145.1442100653
  0
LINE
  5
3ED
100
AcDbEntity
  8
SCRITTE
100
AcDbLine
 62
250
  6
CONTINUOUS
 10
144.2342357728
 20
144.3137300653
 11
144.2342357728
 21
143.8966310653
  0
LINE
  5
3EE
100
AcDbEntity
  8
SCRITTE
100
AcDbLine
 62
250
  6
CONTINUOUS
 10
144.2342357728
 20
142.9189740653
 11
144.2342357728
 21
142.5018140653
  0
LINE
  5
3EF
100
AcDbEntity
  8
SCRITTE
100
AcDbLine
 62
250
  6
CONTINUOUS
 10
144.2342357728
 20
141.7277590653
 11
144.2342357728
 21
141.2742860653
  0
LINE
  5
3F0
100
AcDbEntity
  8
SCRITTE
100
AcDbLine
 62
250
  6
CONTINUOUS
 10
145.1239230047
 20
147.9789969499
 11
145.1239230047
 21
148.2175623739
  0
LINE
  5
3F1
100
AcDbEntity
  8
SCRITTE
100
AcDbLine
 62
250
  6
CONTINUOUS
 10
145.4514480775
 20
148.2166625798
 11
145.4514480775
 21
147.9928387834
  0
LINE
  5
3F2
100
AcDbEntity
  8
SCRITTE
100
AcDbLine
 62
250
  6
CONTINUOUS
 10
145.5259057728
 20
146.8229560653
 11
145.5259057728
 21
146.4232830653
  0
LINE
  5
3F3
100
AcDbEntity
  8
SCRITTE
100
AcDbLine
 62
250
  6
CONTINUOUS
 10
145.8348347728
 20
146.3378920653
 11
145.8348347728
 21
146.9063820653
  0
LINE
  5
3F4
100
AcDbEntity
  8
SCRITTE
100
AcDbLine
 62
250
  6
CONTINUOUS
 10
146.2340737728
 20
143.4913330653
 11
146.2340737728
 21
143.0738890653
  0
LINE
  5
3F5
100
AcDbEntity
  8
SCRITTE
100
AcDbLine
 62
250
  6
CONTINUOUS
 10
146.2340737728
 20
141.9082730653
 11
146.2340737728
 21
142.2761460653
  0
LINE
  5
3F6
100
AcDbEntity
  8
SCRITTE
100
AcDbLine
 62
250
  6
CONTINUOUS
 10
146.2340737728
 20
143.7160570653
 11
146.2340737728
 21
144.1154150653
  0
LINE
  5
3F7
100
AcDbEntity
  8
SCRITTE
100
AcDbLine
 62
250
  6
CONTINUOUS
 10
146.2340737728
 20
144.6952130653
 11
146.2340737728
 21
144.7537590653
  0
LINE
  5
3F8
100
AcDbEntity
  8
SCRITTE
100
AcDbLine
 62
250
  6
CONTINUOUS
 10
146.2340737728
 20
145.3358670653
 11
146.2340737728
 21
145.7442380653
  0
LINE
  5
3F9
100
AcDbEntity
  8
SCRITTE
100
AcDbLine
 62
250
  6
CONTINUOUS
 10
146.2340737728
 20
145.8097880653
 11
146.2340737728
 21
146.2227040653
  0
LINE
  5
3FA
100
AcDbEntity
  8
SCRITTE
100
AcDbLine
 62
250
  6
CONTINUOUS
 10
146.2340737728
 20
147.0145230653
 11
146.2340737728
 21
147.4544920653
  0
LINE
  5
3FB
100
AcDbEntity
  8
SCRITTE
100
AcDbLine
 62
250
  6
CONTINUOUS
 10
146.2340740381
 20
149.0336306839
 11
146.2340740381
 21
148.6320975417
  0
LINE
  5
3FC
100
AcDbEntity
  8
SCRITTE
100
AcDbLine
 62
250
  6
CONTINUOUS
 10
146.2340740381
 20
147.9928387834
 11
146.2340740381
 21
147.5770738969
  0
LINE
  5
3FD
100
AcDbEntity
  8
0
100
AcDbLine
 62
7
  6
CONTINUOUS
 10
147.8754305418
 20
223.0656617801
 11
147.875448904
 21
223.0639570874
  0
LINE
  5
3FE
100
AcDbEntity
  8
ASSI
100
AcDbLine
 62
7
  6
CONTINUOUS
 10
147.8754305418
 20
223.0656617801
 11
147.875448904
 21
223.0639570874
  0
LINE
  5
3FF
100
AcDbEntity
  8
0
100
AcDbLine
 62
7
  6
CONTINUOUS
 10
147.4770887728
 20
135.7738250653
 11
147.4770887728
 21
223.7738250653
  0
LINE
  5
400
100
AcDbEntity
  8
ASSI
100
AcDbLine
 62
7
  6
CONTINUOUS
 10
147.4770887728
 20
135.7738250653
 11
147.4770887728
 21
223.7738250653
  0
LINE
  5
401
100
AcDbEntity
  8
0
100
AcDbLine
 62
7
  6
CONTINUOUS
 10
147.875448904
 20
223.0639570874
 11
147.8755657766
 21
136.67848609
  0
LINE
  5
402
100
AcDbEntity
  8
ASSI
100
AcDbLine
 62
7
  6
CONTINUOUS
 10
147.875448904
 20
223.0639570874
 11
147.8755657766
 21
136.67848609
  0
LINE
  5
403
100
AcDbEntity
  8
0
100
AcDbLine
 62
7
  6
CONTINUOUS
 10
147.8755657766
 20
136.67848609
 11
147.8755387808
 21
136.563804135
  0
LINE
  5
404
100
AcDbEntity
  8
ASSI
100
AcDbLine
 62
7
  6
CONTINUOUS
 10
147.8755657766
 20
136.67848609
 11
147.8755387808
 21
136.563804135
  0
LWPOLYLINE
  5
405
100
AcDbEntity
  8
0
100
AcDbPolyline
 62
7
  6
CONTINUOUS
 90
3
 70
0
 10
147.8755387808
 20
136.563804135
 10
147.8754488869
 20
136.4836908229
 10
147.8754305418
 20
136.4819883505
  0
LWPOLYLINE
  5
406
100
AcDbEntity
  8
ASSI
100
AcDbPolyline
 62
7
  6
CONTINUOUS
 90
3
 70
0
 10
147.8755387808
 20
136.563804135
 10
147.8754488869
 20
136.4836908229
 10
147.8754305418
 20
136.4819883505
  0
LWPOLYLINE
  5
407
100
AcDbEntity
  8
SCRITTE
100
AcDbPolyline
 62
250
  6
CONTINUOUS
 90
24
 70
0
 10
144.5631550596
 20
148.3060165365
 10
144.561484791
 20
148.290646845
 10
144.5600391882
 20
148.2752601036
 10
144.5588177337
 20
148.2598583679
 10
144.5578199101
 20
148.2444436932
 10
144.5570452001
 20
148.2290181349
 10
144.5564930861
 20
148.2135837484
 10
144.5561630508
 20
148.1981425891
 10
144.556056096
 20
148.1846267976
 10
144.5561187818
 20
148.1711037485
 10
144.5563511159
 20
148.1575697959
 10
144.5567531061
 20
148.1440212938
 10
144.5573254608
 20
148.1304540283
 10
144.558071692
 20
148.1168615129
 10
144.5589960122
 20
148.103236693
 10
144.560102634
 20
148.0895725141
 10
144.5613937919
 20
148.0758642206
 10
144.5628638069
 20
148.0621162524
 10
144.5645050221
 20
148.0483353484
 10
144.5663097802
 20
148.0345282475
 10
144.5682691351
 20
148.0206989433
 10
144.570368984
 20
148.0068404479
 10
144.5725939352
 20
147.9929430279
 10
144.5749285968
 20
147.9789969499
  0
LINE
  5
408
100
AcDbEntity
  8
RACCORDO
100
AcDbLine
 62
250
  6
CONTINUOUS
 10
150.2875559641
 20
222.9392476433
 11
150.2875559641
 21
136.6084024872
  0
LINE
  5
409
100
AcDbEntity
  8
ASSI
100
AcDbLine
 62
250
  6
CONTINUOUS
 10
150.2875559641
 20
222.9392476433
 11
150.2875559641
 21
136.6084024872
  0
LINE
  5
40A
100
AcDbEntity
  8
RACCORDO
100
AcDbLine
 62
7
  6
CONTINUOUS
 10
150.4770887728
 20
222.7395217364
 11
150.4770887728
 21
136.8094446629
  0
LINE
  5
40B
100
AcDbEntity
  8
ASSI
100
AcDbLine
 62
7
  6
CONTINUOUS
 10
150.4770887728
 20
222.7395217364
 11
150.4770887728
 21
136.8094446629
  0
LWPOLYLINE
  5
40C
100
AcDbEntity
  8
SCRITTE
100
AcDbPolyline
 62
250
  6
CONTINUOUS
 90
85
 70
0
 10
144.2786563743
 20
148.607263223
 10
144.2834291029
 20
148.6196809925
 10
144.2888234368
 20
148.6321827892
 10
144.2948560448
 20
148.6447926004
 10
144.3015435956
 20
148.6575344134
 10
144.3089027579
 20
148.6704322156
 10
144.3169502004
 20
148.6835099943
 10
144.325695969
 20
148.6967741378
 10
144.3351236183
 20
148.7101606378
 10
144.3452100799
 20
148.7235878873
 10
144.3559322856
 20
148.7369742788
 10
144.3672671671
 20
148.7502382053
 10
144.379191656
 20
148.7632980593
 10
144.3916830904
 20
148.7760798691
 10
144.4047204334
 20
148.7885402045
 10
144.4182830545
 20
148.8006432705
 10
144.432350323
 20
148.8123532724
 10
144.4469016085
 20
148.8236344153
 10
144.4619162803
 20
148.8344509043
 10
144.477365678
 20
148.8447682245
 10
144.4931890216
 20
148.8545569796
 10
144.509317501
 20
148.8637890532
 10
144.5256823062
 20
148.872436329
 10
144.5422146274
 20
148.8804706906
 10
144.5588456544
 20
148.8878640215
 10
144.5755137606
 20
148.8945972242
 10
144.5921860515
 20
148.900687276
 10
144.6088368161
 20
148.9061601729
 10
144.6254403434
 20
148.911041911
 10
144.6419709221
 20
148.9153584865
 10
144.6584028411
 20
148.9191358953
 10
144.6779533401
 20
148.922994272
 10
144.6972720846
 20
148.9261621056
 10
144.7163064139
 20
148.9286878184
 10
144.7350036676
 20
148.930619833
 10
144.753311185
 20
148.9320065717
 10
144.7711864049
 20
148.9328926424
 10
144.7886271639
 20
148.9333073946
 10
144.805641398
 20
148.9332763631
 10
144.8222370433
 20
148.932825083
 10
144.8384220358
 20
148.9319790892
 10
144.8542040051
 20
148.930762823
 10
144.8695893558
 20
148.9291963523
 10
144.8845841856
 20
148.9272986516
 10
144.8991945929
 20
148.925088695
 10
144.9134266755
 20
148.9225854571
 10
144.9306961774
 20
148.9190710447
 10
144.9474087519
 20
148.915154022
 10
144.9635890755
 20
148.9108603832
 10
144.979261825
 20
148.9062161226
 10
144.9944464857
 20
148.9012483828
 10
145.0091417781
 20
148.8959888988
 10
145.0233412318
 20
148.8904705538
 10
145.037038376
 20
148.8847262312
 10
145.050230668
 20
148.8787861452
 10
145.0629312762
 20
148.8726698342
 10
145.0751572967
 20
148.8663941677
 10
145.0869258259
 20
148.8599760153
 10
145.1019303831
 20
148.8512253309
 10
145.1161642746
 20
148.8422873546
 10
145.1296397594
 20
148.8331981126
 10
145.1423733274
 20
148.8239917687
 10
145.1543983921
 20
148.8146950363
 10
145.165752598
 20
148.8053327664
 10
145.1764751053
 20
148.7959333604
 10
145.1866111379
 20
148.7865394222
 10
145.1962074356
 20
148.7771971064
 10
145.2053092153
 20
148.7679488106
 10
145.2139556029
 20
148.7588219061
 10
145.2221842016
 20
148.7498400075
 10
145.228104412
 20
148.7432112985
 10
145.2338285204
 20
148.7366774957
 10
145.2393717078
 20
148.7302410528
 10
145.2447388693
 20
148.7239140094
 10
145.2499354801
 20
148.7177066347
 10
145.2549796204
 20
148.7116125296
 10
145.2646307847
 20
148.6996158044
 10
145.269177557
 20
148.6935661753
 10
145.2734282909
 20
148.6874686511
 10
145.2772816344
 20
148.6813482866
 10
145.2806720858
 20
148.675211862
 10
145.283547454
 20
148.6690567899
 10
145.2858729407
 20
148.6628612883
 10
145.2876178245
 20
148.6566063641
 10
145.2887502975
 20
148.6503033768
  0
LWPOLYLINE
  5
40D
100
AcDbEntity
  8
SCRITTE
100
AcDbPolyline
 62
250
  6
CONTINUOUS
 90
41
 70
0
 10
145.3005675941
 20
148.6503033768
 10
145.3038566231
 20
148.6581228729
 10
145.3074190536
 20
148.6657794949
 10
145.3112519616
 20
148.673279686
 10
145.315352423
 20
148.6806298892
 10
145.3197175138
 20
148.6878365477
 10
145.3243443099
 20
148.6949061046
 10
145.3292273644
 20
148.7018425222
 10
145.3343511399
 20
148.7086398405
 10
145.3396975761
 20
148.7152896182
 10
145.3452486127
 20
148.7217834146
 10
145.3509861895
 20
148.7281127885
 10
145.3568922462
 20
148.7342692991
 10
145.3641794297
 20
148.7414213319
 10
145.3716697138
 20
148.7483234082
 10
145.3793495947
 20
148.7549866494
 10
145.3872055689
 20
148.7614221774
 10
145.3952241325
 20
148.7676411138
 10
145.4033909315
 20
148.7736531989
 10
145.4116882111
 20
148.7794626482
 10
145.4200973659
 20
148.7850722957
 10
145.4285997907
 20
148.7904849758
 10
145.4371768802
 20
148.7957035224
 10
145.4479838433
 20
148.8019618079
 10
145.4588957489
 20
148.8079494328
 10
145.4699299465
 20
148.8136946414
 10
145.4811037856
 20
148.8192256781
 10
145.4924340572
 20
148.8245681882
 10
145.5039353176
 20
148.8297374202
 10
145.5156215645
 20
148.8347460237
 10
145.5275067959
 20
148.8396066482
 10
145.5396062005
 20
148.8443309872
 10
145.5519397321
 20
148.8489269114
 10
145.5645285355
 20
148.8534013354
 10
145.5773937555
 20
148.8577611742
 10
145.5878997343
 20
148.8611726041
 10
145.5986104198
 20
148.8645271475
 10
145.6095400793
 20
148.8678368271
 10
145.6207029801
 20
148.8711136655
 10
145.6321133895
 20
148.8743696853
 10
145.6437813207
 20
148.8776183227
  0
LINE
  5
40E
100
AcDbEntity
  8
0
100
AcDbLine
 62
7
  6
CONTINUOUS
 10
147.4770887728
 20
135.7738250653
 11
147.8754306232
 21
136.4819883548
  0
LINE
  5
40F
100
AcDbEntity
  8
ASSI
100
AcDbLine
 62
7
  6
CONTINUOUS
 10
147.4770887728
 20
135.7738250653
 11
147.8754306232
 21
136.4819883548
  0
LINE
  5
410
100
AcDbEntity
  8
0
100
AcDbLine
 62
7
  6
CONTINUOUS
 10
147.4770887728
 20
223.7738250653
 11
147.8754306232
 21
223.0656617758
  0
LINE
  5
411
100
AcDbEntity
  8
ASSI
100
AcDbLine
 62
7
  6
CONTINUOUS
 10
147.4770887728
 20
223.7738250653
 11
147.8754306232
 21
223.0656617758
  0
LWPOLYLINE
  5
412
100
AcDbEntity
  8
0
100
AcDbPolyline
 62
7
  6
CONTINUOUS
 90
10
 70
0
 43
0.3499999917
 10
146.3128088379
 20
235.0238195801
 10
146.3842272949
 20
234.8809570312
 10
146.3842272949
 20
234.8095385742
 10
146.2413775635
 20
234.6666760254
 10
146.1699462891
 20
234.6666760254
 10
146.0985150146
 20
234.7381201172
 10
146.0985150146
 20
234.8095385742
 10
146.1699462891
 20
234.952401123
 10
146.2413775635
 20
235.0238195801
 10
146.3128088379
 20
235.0238195801
  0
LWPOLYLINE
  5
413
100
AcDbEntity
  8
SCRITTE
100
AcDbPolyline
 62
250
  6
CONTINUOUS
 90
48
 70
0
 10
145.6275319082
 20
148.449512037
 10
145.6212298875
 20
148.4470686994
 10
145.6150402586
 20
148.4445186574
 10
145.6089506259
 20
148.4418594939
 10
145.6029485936
 20
148.4390887921
 10
145.5970217659
 20
148.4362041352
 10
145.5897055732
 20
148.4324357247
 10
145.5824961256
 20
148.4284888147
 10
145.5754020291
 20
148.4243667369
 10
145.5684318899
 20
148.4200728233
 10
145.5615943956
 20
148.4156106526
 10
145.5548985602
 20
148.4109847912
 10
145.5483534794
 20
148.4062000526
 10
145.5419682487
 20
148.4012612501
 10
145.5369811792
 20
148.3972024593
 10
145.5321063564
 20
148.393050267
 10
145.527347902
 20
148.3888067922
 10
145.5227099373
 20
148.3844741537
 10
145.5181965839
 20
148.3800544704
 10
145.5138116959
 20
148.3755496967
 10
145.5095580577
 20
148.3709611282
 10
145.5054381862
 20
148.3662898964
 10
145.5014545985
 20
148.3615371326
 10
145.4976098115
 20
148.356703968
 10
145.4939063432
 20
148.351790706
 10
145.4903467151
 20
148.3467943386
 10
145.48693345
 20
148.3417110296
 10
145.4836690702
 20
148.3365369432
 10
145.4805560985
 20
148.3312682434
 10
145.4775971478
 20
148.3259032283
 10
145.474795193
 20
148.3204487332
 10
145.4721532993
 20
148.3149137279
 10
145.4696745319
 20
148.3093071818
 10
145.467361956
 20
148.3036380645
 10
145.465217753
 20
148.2979157818
 10
145.4632405677
 20
148.292151485
 10
145.4614281611
 20
148.2863567612
 10
145.4597782942
 20
148.2805431981
 10
145.458288728
 20
148.2747223828
 10
145.4569568806
 20
148.2689041805
 10
145.4557787985
 20
148.2630915661
 10
145.4547501856
 20
148.2572857923
 10
145.4538667457
 20
148.2514881118
 10
145.4531241824
 20
148.2456997772
 10
145.4523886962
 20
148.2384750419
 10
145.4518651568
 20
148.231243105
 10
145.451552104
 20
148.2239802049
 10
145.4514480775
 20
148.2166625798
  0
LWPOLYLINE
  5
414
100
AcDbEntity
  8
SCRITTE
100
AcDbPolyline
 62
250
  6
CONTINUOUS
 90
4
 70
0
 10
146.1974060249
 20
148.6214970957
 10
146.0192830702
 20
148.5693642966
 10
145.9846254563
 20
148.5593689385
 10
145.9502792025
 20
148.5495496051
  0
LINE
  5
415
100
AcDbEntity
  8
SCRITTE
100
AcDbLine
 62
250
  6
CONTINUOUS
 10
146.2340740381
 20
148.6320975417
 11
146.1974060249
 21
148.6214970957
  0
LINE
  5
416
100
AcDbEntity
  8
SCRITTE
100
AcDbLine
 62
250
  6
CONTINUOUS
 10
144.9282167728
 20
144.2054990653
 11
146.2340737728
 21
144.6952130653
  0
LINE
  5
417
100
AcDbEntity
  8
SCRITTE
100
AcDbLine
 62
250
  6
CONTINUOUS
 10
145.3445517728
 20
144.7267660653
 11
144.2342357728
 21
144.3137300653
  0
LINE
  5
418
100
AcDbEntity
  8
SCRITTE
100
AcDbLine
 62
250
  6
CONTINUOUS
 10
146.2340737728
 20
147.4544920653
 11
144.2342357728
 21
146.8408920653
  0
LINE
  5
419
100
AcDbEntity
  8
SCRITTE
100
AcDbLine
 62
250
  6
CONTINUOUS
 10
144.2342357728
 20
141.2742860653
 11
146.2340737728
 21
141.9082730653
  0
LINE
  5
41A
100
AcDbEntity
  8
RACCORDO
100
AcDbLine
 62
250
  6
CONTINUOUS
 10
143.0509207947
 20
222.0439151287
 11
147.4770887728
 21
222.2758807631
  0
LINE
  5
41B
100
AcDbEntity
  8
ASSI
100
AcDbLine
 62
250
  6
CONTINUOUS
 10
143.0509207947
 20
222.0439151287
 11
147.4770887728
 21
222.2758807631
  0
LINE
  5
41C
100
AcDbEntity
  8
RACCORDO
100
AcDbLine
 62
7
  6
CONTINUOUS
 10
143.0509207947
 20
223.5418594308
 11
147.4770887728
 21
223.7738250653
  0
LINE
  5
41D
100
AcDbEntity
  8
ASSI
100
AcDbLine
 62
7
  6
CONTINUOUS
 10
143.0509207947
 20
223.5418594308
 11
147.4770887728
 21
223.7738250653
  0
LINE
  5
41E
100
AcDbEntity
  8
RACCORDO
100
AcDbLine
 62
250
  6
CONTINUOUS
 10
142.5770887728
 20
222.0439151287
 11
143.0509207947
 21
222.0439151287
  0
LINE
  5
41F
100
AcDbEntity
  8
ASSI
100
AcDbLine
 62
250
  6
CONTINUOUS
 10
142.5770887728
 20
222.0439151287
 11
143.0509207947
 21
222.0439151287
  0
LINE
  5
420
100
AcDbEntity
  8
RACCORDO
100
AcDbLine
 62
250
  6
CONTINUOUS
 10
150.4770887728
 20
222.2717665463
 11
147.8754306232
 21
222.2717665463
  0
LINE
  5
421
100
AcDbEntity
  8
ASSI
100
AcDbLine
 62
250
  6
CONTINUOUS
 10
150.4770887728
 20
222.2717665463
 11
147.8754306232
 21
222.2717665463
  0
LINE
  5
422
100
AcDbEntity
  8
0
100
AcDbLine
 62
250
  6
CONTINUOUS
 10
147.4770887728
 20
222.2758807631
 11
147.8754306232
 21
222.2722388415
  0
LINE
  5
423
100
AcDbEntity
  8
ASSI
100
AcDbLine
 62
250
  6
CONTINUOUS
 10
147.4770887728
 20
222.2758807631
 11
147.8754306232
 21
222.2722388415
  0
LINE
  5
424
100
AcDbEntity
  8
RACCORDO
100
AcDbLine
 62
7
  6
CONTINUOUS
 10
150.2875559641
 20
222.9392476433
 11
147.8754306232
 21
223.0656617758
  0
LINE
  5
425
100
AcDbEntity
  8
ASSI
100
AcDbLine
 62
7
  6
CONTINUOUS
 10
150.2875559641
 20
222.9392476433
 11
147.8754306232
 21
223.0656617758
  0
ARC
  5
426
100
AcDbEntity
  8
RACCORDO
100
AcDbCircle
 62
7
  6
CONTINUOUS
 10
143.0770887728
 20
223.0425446634
 40
0.5
100
AcDbArc
 50
93.0
 51
180.0
  0
ARC
  5
427
100
AcDbEntity
  8
RACCORDO
100
AcDbCircle
 62
7
  6
CONTINUOUS
 10
143.0770887728
 20
136.5051054671
 40
0.5
100
AcDbArc
 50
180.0
 51
267.0
  0
ARC
  5
428
100
AcDbEntity
  8
ASSI
100
AcDbCircle
 62
7
  6
CONTINUOUS
 10
143.0770887728
 20
223.0425446634
 40
0.5
100
AcDbArc
 50
93.0
 51
180.0
  0
ARC
  5
429
100
AcDbEntity
  8
ASSI
100
AcDbCircle
 62
7
  6
CONTINUOUS
 10
143.0770887728
 20
136.5051054671
 40
0.5
100
AcDbArc
 50
180.0
 51
267.0
  0
ARC
  5
42A
100
AcDbEntity
  8
RACCORDO
100
AcDbCircle
 62
7
  6
CONTINUOUS
 10
150.2770887728
 20
136.8081283942
 40
0.2
100
AcDbArc
 50
273.0
 51
360.0
  0
ARC
  5
42B
100
AcDbEntity
  8
RACCORDO
100
AcDbCircle
 62
7
  6
CONTINUOUS
 10
150.2770887728
 20
222.7395217364
 40
0.2
100
AcDbArc
 50
0.0
 51
87.0
  0
ARC
  5
42C
100
AcDbEntity
  8
ASSI
100
AcDbCircle
 62
7
  6
CONTINUOUS
 10
150.2770887728
 20
136.8081283942
 40
0.2
100
AcDbArc
 50
273.0
 51
360.0
  0
ARC
  5
42D
100
AcDbEntity
  8
ASSI
100
AcDbCircle
 62
7
  6
CONTINUOUS
 10
150.2770887728
 20
222.7395217364
 40
0.2
100
AcDbArc
 50
0.0
 51
87.0
  0
ELLIPSE
  5
42E
100
AcDbEntity
  8
RACCORDO
100
AcDbEllipse
 62
7
  6
CONTINUOUS
 10
313.0627175697
 20
153.4989012293
 30
0.0
 11
-0.3536610946
 21
0.3536610946
 31
0.0
 40
0.9996954599
 41
2.3563467834
 42
3.9268385237
  0
ELLIPSE
  5
42F
100
AcDbEntity
  8
RACCORDO
100
AcDbEllipse
 62
7
  6
CONTINUOUS
 10
268.6128698977
 20
153.4989012293
 30
0.0
 11
0.3536610946
 21
0.3536610946
 31
0.0
 40
0.9996954599
 41
2.3563467834
 42
3.9268385237
  0
ELLIPSE
  5
430
100
AcDbEntity
  8
RACCORDO
100
AcDbEllipse
 62
7
  6
CONTINUOUS
 10
268.6128698977
 20
206.0487489013
 30
0.0
 11
0.3536610946
 21
-0.3536610946
 31
0.0
 40
0.9996954599
 41
2.3563467834
 42
3.9268385237
  0
ELLIPSE
  5
431
100
AcDbEntity
  8
RACCORDO
100
AcDbEllipse
 62
7
  6
CONTINUOUS
 10
313.0627175697
 20
206.0487489013
 30
0.0
 11
-0.3536610946
 21
-0.3536610946
 31
0.0
 40
0.9996954599
 41
2.3563467834
 42
3.9268385237
  0
ELLIPSE
  5
432
100
AcDbEntity
  8
RACCORDO
100
AcDbEllipse
 62
7
  6
CONTINUOUS
 10
197.6128698977
 20
206.0487489013
 30
0.0
 11
0.3536610946
 21
-0.3536610946
 31
0.0
 40
0.9996954599
 41
2.3563467834
 42
3.9268385237
  0
ELLIPSE
  5
433
100
AcDbEntity
  8
RACCORDO
100
AcDbEllipse
 62
7
  6
CONTINUOUS
 10
242.0627175697
 20
206.0487489013
 30
0.0
 11
-0.3536610946
 21
-0.3536610946
 31
0.0
 40
0.9996954599
 41
2.3563467834
 42
3.9268385237
  0
ELLIPSE
  5
434
100
AcDbEntity
  8
RACCORDO
100
AcDbEllipse
 62
7
  6
CONTINUOUS
 10
242.0627175697
 20
153.4989012293
 30
0.0
 11
-0.3536610946
 21
0.3536610946
 31
0.0
 40
0.9996954599
 41
2.3563467834
 42
3.9268385237
  0
ELLIPSE
  5
435
100
AcDbEntity
  8
RACCORDO
100
AcDbEllipse
 62
7
  6
CONTINUOUS
 10
197.6128698977
 20
153.4989012293
 30
0.0
 11
0.3536610946
 21
0.3536610946
 31
0.0
 40
0.9996954599
 41
2.3563467834
 42
3.9268385237
  0
ELLIPSE
  5
436
100
AcDbEntity
  8
ASSI
100
AcDbEllipse
 62
7
  6
CONTINUOUS
 10
313.0627175697
 20
153.4989012293
 30
0.0
 11
-0.3536610946
 21
0.3536610946
 31
0.0
 40
0.9996954599
 41
2.3563467834
 42
3.9268385237
  0
ELLIPSE
  5
437
100
AcDbEntity
  8
ASSI
100
AcDbEllipse
 62
7
  6
CONTINUOUS
 10
268.6128698977
 20
153.4989012293
 30
0.0
 11
0.3536610946
 21
0.3536610946
 31
0.0
 40
0.9996954599
 41
2.3563467834
 42
3.9268385237
  0
ELLIPSE
  5
438
100
AcDbEntity
  8
ASSI
100
AcDbEllipse
 62
7
  6
CONTINUOUS
 10
268.6128698977
 20
206.0487489013
 30
0.0
 11
0.3536610946
 21
-0.3536610946
 31
0.0
 40
0.9996954599
 41
2.3563467834
 42
3.9268385237
  0
ELLIPSE
  5
439
100
AcDbEntity
  8
ASSI
100
AcDbEllipse
 62
7
  6
CONTINUOUS
 10
313.0627175697
 20
206.0487489013
 30
0.0
 11
-0.3536610946
 21
-0.3536610946
 31
0.0
 40
0.9996954599
 41
2.3563467834
 42
3.9268385237
  0
ELLIPSE
  5
43A
100
AcDbEntity
  8
ASSI
100
AcDbEllipse
 62
7
  6
CONTINUOUS
 10
197.6128698977
 20
206.0487489013
 30
0.0
 11
0.3536610946
 21
-0.3536610946
 31
0.0
 40
0.9996954599
 41
2.3563467834
 42
3.9268385237
  0
ELLIPSE
  5
43B
100
AcDbEntity
  8
ASSI
100
AcDbEllipse
 62
7
  6
CONTINUOUS
 10
242.0627175697
 20
206.0487489013
 30
0.0
 11
-0.3536610946
 21
-0.3536610946
 31
0.0
 40
0.9996954599
 41
2.3563467834
 42
3.9268385237
  0
ELLIPSE
  5
43C
100
AcDbEntity
  8
ASSI
100
AcDbEllipse
 62
7
  6
CONTINUOUS
 10
242.0627175697
 20
153.4989012293
 30
0.0
 11
-0.3536610946
 21
0.3536610946
 31
0.0
 40
0.9996954599
 41
2.3563467834
 42
3.9268385237
  0
ELLIPSE
  5
43D
100
AcDbEntity
  8
ASSI
100
AcDbEllipse
 62
7
  6
CONTINUOUS
 10
197.6128698977
 20
153.4989012293
 30
0.0
 11
0.3536610946
 21
0.3536610946
 31
0.0
 40
0.9996954599
 41
2.3563467834
 42
3.9268385237
  0
ENDSEC
  0
SECTION
  2
OBJECTS
  0
DICTIONARY
  5
C
100
AcDbDictionary
280
0
281
1
  3
ACAD_GROUP
350
D
  3
ACAD_MLINESTYLE
350
17
  3
ACAD_LAYOUT
350
1A
  3
ACAD_PLOTSETTINGS
350
19
  3
ACAD_PLOTSTYLENAME
350
E
  0
DICTIONARY
  5
D
102
{ACAD_REACTORS
330
C
102
}
100
AcDbDictionary
280
0
281
1
  0
ACDBDICTIONARYWDFLT
  5
E
102
{ACAD_REACTORS
330
C
102
}
100
AcDbDictionary
281
1
  3
Normal
350
F
100
AcDbDictionaryWithDefault
340
F
  0
DICTIONARY
  5
17
102
{ACAD_REACTORS
330
C
102
}
100
AcDbDictionary
280
0
281
1
  3
Standard
350
18
  0
DICTIONARY
  5
19
102
{ACAD_REACTORS
330
C
102
}
100
AcDbDictionary
281
1
  0
DICTIONARY
  5
1A
102
{ACAD_REACTORS
330
C
102
}
100
AcDbDictionary
281
1
  3
Model
350
43E
  3
Layout1
350
43F
  0
ACDBPLACEHOLDER
  5
F
102
{ACAD_REACTORS
330
E
102
}
  0
MLINESTYLE
  5
18
102
{ACAD_REACTORS
330
17
102
}
100
AcDbMlineStyle
  2
STANDARD
 70
0
  3

 62
256
 51
90.0
 52
90.0
 71
2
 49
0.5
 62
256
  6
BYLAYER
 49
-0.5
 62
256
  6
BYLAYER
  0
LAYOUT
  5
43E
102
{ACAD_REACTORS
330
1A
102
}
100
AcDbPlotSettings
  1

  2
none_device
  4
ISO_A3_(420.00_x_297.00_MM)
  6

 40
0.0
 41
0.0
 42
0.0
 43
0.0
 44
420.0
 45
297.0
 46
0.0
 47
0.0
 48
0.0
 49
0.0
140
0.0
141
0.0
142
1.0
143
1.0
 70
1024
 72
1
 73
0
 74
0
  7

 75
0
147
1.0
148
0.0
149
0.0
100
AcDbLayout
  1
Model
 70
0
 71
0
 10
0.0
 20
0.0
 11
420.0
 21
297.0
 12
0.0
 22
0.0
 32
0.0
 14
0.0
 24
0.0
 34
0.0
 15
0.0
 25
0.0
 35
0.0
146
0.0
 13
0.0
 23
0.0
 33
0.0
 16
1.0
 26
0.0
 36
0.0
 17
0.0
 27
1.0
 37
0.0
 76
0
330
216
345
0
346
0
  0
LAYOUT
  5
43F
102
{ACAD_REACTORS
330
1A
102
}
100
AcDbPlotSettings
  1

  2
none_device
  4
ISO_A3_(420.00_x_297.00_MM)
  6

 40
0.0
 41
0.0
 42
0.0
 43
0.0
 44
420.0
 45
297.0
 46
0.0
 47
0.0
 48
0.0
 49
0.0
140
0.0
141
0.0
142
1.0
143
1.0
 70
0
 72
1
 73
0
 74
0
  7

 75
0
147
1.0
148
0.0
149
0.0
100
AcDbLayout
  1
Layout1
 70
0
 71
1
 10
0.0
 20
0.0
 11
420.0
 21
297.0
 12
0.0
 22
0.0
 32
0.0
 14
0.0
 24
0.0
 34
0.0
 15
0.0
 25
0.0
 35
0.0
146
0.0
 13
0.0
 23
0.0
 33
0.0
 16
1.0
 26
0.0
 36
0.0
 17
0.0
 27
1.0
 37
0.0
 76
0
330
217
345
0
346
0
  0
ENDSEC
  0
EOF
