  0
SECTION
  2
HEADER
  9
$ACADVER
  1
AC1024
  9
$DWGCODEPAGE
  3
ANSI_1252
  9
$EXTMAX
 10
420.0
 20
297.0
 30
0.0
  9
$EXTMIN
 10
0.0
 20
0.0
 30
0.0
  9
$LIMMIN
 10
0.0
 20
0.0
  9
$LIMMAX
 10
420.0
 20
297.0
  9
$VIEWCTR
 10
210.0
 20
148.5
  9
$VIEWSIZE
 40
297.0
  9
$CLAYER
  8
0
  9
$LTSCALE
 40
23.1
  9
$CELTYPE
  6
BYLAYER
  9
$DIMSCALE
 40
1.0
  9
$DIMASZ
 40
3.0
  9
$DIMEXO
 40
0.5
  9
$DIMDLI
 40
15.96
  9
$DIMEXE
 40
1.5
  9
$DIMCEN
 40
3.78
  9
$DIMLFAC
 40
1.0
  9
$DIMBLK
  1
_FILLED
  9
$DIMALT
 70
0
  9
$DIMALTF
 40
0.0393700787
  9
$DIMTXT
 40
3.0
  9
$DIMTOL
 70
1
  9
$DIMLIM
 70
0
  9
$DIMTFAC
 40
1.0
  9
$DIMTP
 40
0.01
  9
$DIMTM
 40
0.01
  9
$DIMGAP
 40
0.625
  9
$DIMDSEP
 70
44
  9
$AUNITS
 70
0
  9
$PDMODE
 70
3
  9
$PDSIZE
 40
3.0
  9
$HANDSEED
  5
337
  9
$TILEMODE
 70
1
  9
$MEASUREMENT
 70
1
  9
$INSUNITS
 70
4
  0
ENDSEC
  0
SECTION
  2
CLASSES
  0
CLASS
  1
ACDBDICTIONARYWDFLT
  2
AcDbDictionaryWithDefault
  3
AutoCAD 2000
 90
0
 91
1
280
0
281
0
  0
CLASS
  1
ACDBPLACEHOLDER
  2
AcDbPlaceHolder
  3
AutoCAD 2000
 90
0
 91
1
280
0
281
0
  0
CLASS
  1
LAYOUT
  2
AcDbLayout
  3
AutoCAD 2000
 90
0
 91
0
280
0
281
0
  0
ENDSEC
  0
SECTION
  2
TABLES
  0
TABLE
  2
VPORT
  5
8
100
AcDbSymbolTable
 70
2
  0
VPORT
  5
1F4
100
AcDbSymbolTableRecord
100
AcDbViewportTableRecord
  2
*ACTIVE
 70
0
 10
0.0
 20
0.0
 11
1.0
 21
1.0
 12
210.0
 22
148.5
 13
0.0
 23
0.0
 14
1.0
 24
1.0
 15
0.0
 25
0.0
 16
0.0
 26
0.0
 36
1.0
 17
0.0
 27
0.0
 37
0.0
 40
297.0
 41
1.4141414141
 42
50.0
 43
0.0
 44
0.0
 50
0.0
 51
0.0
 71
0
 72
100
 73
1
 74
1
 75
0
 76
0
 77
0
 78
0
  0
ENDTAB
  0
TABLE
  2
LTYPE
  5
5
100
AcDbSymbolTable
 70
6
  0
LTYPE
  5
14
100
AcDbSymbolTableRecord
100
AcDbLinetypeTableRecord
  2
BYBLOCK
 70
0
  3

 72
65
 73
0
 40
0.0
  0
LTYPE
  5
15
100
AcDbSymbolTableRecord
100
AcDbLinetypeTableRecord
  2
BYLAYER
 70
0
  3

 72
65
 73
0
 40
0.0
  0
LTYPE
  5
16
100
AcDbSymbolTableRecord
100
AcDbLinetypeTableRecord
  2
CONTINUOUS
 70
64
  3
Solid line
 72
65
 73
0
 40
0.0
  0
LTYPE
  5
1F5
100
AcDbSymbolTableRecord
100
AcDbLinetypeTableRecord
  2
CENTER
 70
64
  3
____ _ ____ _ ____ _ ____ _ ____ _ ____ _ ____
 72
65
 73
4
 40
0.6
 49
0.375
 74
0
 49
-0.075
 74
0
 49
0.075
 74
0
 49
-0.075
 74
0
  0
LTYPE
  5
1F6
100
AcDbSymbolTableRecord
100
AcDbLinetypeTableRecord
  2
HIDDEN
 70
64
  3
- - - - - - - - - - - - - - - - - - - -
 72
65
 73
2
 40
0.2
 49
0.1
 74
0
 49
-0.1
 74
0
  0
LTYPE
  5
1F7
100
AcDbSymbolTableRecord
100
AcDbLinetypeTableRecord
  2
PHANTOM
 70
64
  3
_____ _ _ _____ _ _ _____ _ _ _____
 72
65
 73
6
 40
0.8
 49
0.45
 74
0
 49
-0.05
 74
0
 49
0.1
 74
0
 49
-0.05
 74
0
 49
0.1
 74
0
 49
-0.05
 74
0
  0
LTYPE
  5
1F8
100
AcDbSymbolTableRecord
100
AcDbLinetypeTableRecord
  2
DOT
 70
64
  3
. . . . . . . . . . . . . . . . . . . .
 72
65
 73
2
 40
0.2
 49
0.1
 74
0
 49
-0.1
 74
0
  0
LTYPE
  5
1F9
100
AcDbSymbolTableRecord
100
AcDbLinetypeTableRecord
  2
DASHED
 70
64
  3
- - - - - - - - - - - - - - - - - - - -
 72
65
 73
2
 40
0.2
 49
0.1
 74
0
 49
-0.1
 74
0
  0
ENDTAB
  0
TABLE
  2
LAYER
  5
2
100
AcDbSymbolTable
 70
36
  0
LAYER
  5
10
100
AcDbSymbolTableRecord
100
AcDbLayerTableRecord
  2
0
 70
0
 62
7
  6
CONTINUOUS
370
-3
390
F
  0
LAYER
  5
1FA
100
AcDbSymbolTableRecord
100
AcDbLayerTableRecord
  2
DEFAULT_1
 70
0
 62
7
  6
CENTER
370
-3
390
F
  0
LAYER
  5
1FB
100
AcDbSymbolTableRecord
100
AcDbLayerTableRecord
  2
DEFAULT_2
 70
0
 62
7
  6
HIDDEN
370
-3
390
F
  0
LAYER
  5
1FC
100
AcDbSymbolTableRecord
100
AcDbLayerTableRecord
  2
DEFAULT_3
 70
0
 62
7
  6
PHANTOM
370
-3
390
F
  0
LAYER
  5
1FD
100
AcDbSymbolTableRecord
100
AcDbLayerTableRecord
  2
ASSI
 70
0
 62
7
  6
CONTINUOUS
370
-3
390
F
  0
LAYER
  5
1FE
100
AcDbSymbolTableRecord
100
AcDbLayerTableRecord
  2
COORDINATE
 70
0
 62
7
  6
CONTINUOUS
370
-3
390
F
  0
LAYER
  5
1FF
100
AcDbSymbolTableRecord
100
AcDbLayerTableRecord
  2
COPY_PUBLISH
 70
0
 62
7
  6
CONTINUOUS
370
-3
390
F
  0
LAYER
  5
200
100
AcDbSymbolTableRecord
100
AcDbLayerTableRecord
  2
COSMETICI
 70
0
 62
7
  6
CONTINUOUS
370
-3
390
F
  0
LAYER
  5
201
100
AcDbSymbolTableRecord
100
AcDbLayerTableRecord
  2
CURVE
 70
0
 62
7
  6
CONTINUOUS
370
-3
390
F
  0
LAYER
  5
202
100
AcDbSymbolTableRecord
100
AcDbLayerTableRecord
  2
DRAFT
 70
0
 62
7
  6
CONTINUOUS
370
-3
390
F
  0
LAYER
  5
203
100
AcDbSymbolTableRecord
100
AcDbLayerTableRecord
  2
IMPORT_IGES
 70
0
 62
7
  6
CONTINUOUS
370
-3
390
F
  0
LAYER
  5
204
100
AcDbSymbolTableRecord
100
AcDbLayerTableRecord
  2
INTF_1
 70
0
 62
7
  6
CONTINUOUS
370
-3
390
F
  0
LAYER
  5
205
100
AcDbSymbolTableRecord
100
AcDbLayerTableRecord
  2
INTF_11
 70
0
 62
7
  6
CONTINUOUS
370
-3
390
F
  0
LAYER
  5
206
100
AcDbSymbolTableRecord
100
AcDbLayerTableRecord
  2
INTF_13
 70
0
 62
7
  6
CONTINUOUS
370
-3
390
F
  0
LAYER
  5
207
100
AcDbSymbolTableRecord
100
AcDbLayerTableRecord
  2
INTF_2
 70
0
 62
7
  6
CONTINUOUS
370
-3
390
F
  0
LAYER
  5
208
100
AcDbSymbolTableRecord
100
AcDbLayerTableRecord
  2
INTF_8
 70
0
 62
7
  6
CONTINUOUS
370
-3
390
F
  0
LAYER
  5
209
100
AcDbSymbolTableRecord
100
AcDbLayerTableRecord
  2
NOTE
 70
0
 62
7
  6
CONTINUOUS
370
-3
390
F
  0
LAYER
  5
20A
100
AcDbSymbolTableRecord
100
AcDbLayerTableRecord
  2
PIANI
 70
0
 62
7
  6
CONTINUOUS
370
-3
390
F
  0
LAYER
  5
20B
100
AcDbSymbolTableRecord
100
AcDbLayerTableRecord
  2
PUNTI
 70
0
 62
7
  6
CONTINUOUS
370
-3
390
F
  0
LAYER
  5
20C
100
AcDbSymbolTableRecord
100
AcDbLayerTableRecord
  2
RACCORDO
 70
0
 62
7
  6
CONTINUOUS
370
-3
390
F
  0
LAYER
  5
20D
100
AcDbSymbolTableRecord
100
AcDbLayerTableRecord
  2
RGB____0____0____0__
 70
0
 62
7
  6
CONTINUOUS
370
-3
390
F
  0
LAYER
  5
20E
100
AcDbSymbolTableRecord
100
AcDbLayerTableRecord
  2
SIMBOLI
 70
0
 62
7
  6
CONTINUOUS
370
-3
390
F
  0
LAYER
  5
20F
100
AcDbSymbolTableRecord
100
AcDbLayerTableRecord
  2
SMUSSO
 70
0
 62
7
  6
CONTINUOUS
370
-3
390
F
  0
LAYER
  5
210
100
AcDbSymbolTableRecord
100
AcDbLayerTableRecord
  2
SUPERFICI
 70
0
 62
7
  6
CONTINUOUS
370
-3
390
F
  0
LAYER
  5
211
100
AcDbSymbolTableRecord
100
AcDbLayerTableRecord
  2
TRASH
 70
0
 62
7
  6
CONTINUOUS
370
-3
390
F
  0
ENDTAB
  0
TABLE
  2
STYLE
  5
3
100
AcDbSymbolTable
 70
1
  0
STYLE
  5
11
100
AcDbSymbolTableRecord
100
AcDbTextStyleTableRecord
  2
STANDARD
 70
0
 40
0.0
 41
0.8
 50
0.0
 71
0
 42
0.2
  3
txt
  4

  0
STYLE
  5
212
100
AcDbSymbolTableRecord
100
AcDbTextStyleTableRecord
  2
TEXTSTYLE_1
 70
0
 40
0.0
 41
0.8
 50
0.0
 71
0
 42
0.2
  3
gdt
  4

  0
ENDTAB
  0
TABLE
  2
VIEW
  5
6
100
AcDbSymbolTable
 70
0
  0
ENDTAB
  0
TABLE
  2
UCS
  5
7
100
AcDbSymbolTable
 70
0
  0
ENDTAB
  0
TABLE
  2
APPID
  5
9
100
AcDbSymbolTable
 70
1
  0
APPID
  5
213
100
AcDbSymbolTableRecord
100
AcDbRegAppTableRecord
  2
ACAD
 70
0
  0
ENDTAB
  0
TABLE
  2
BLOCK_RECORD
  5
1
100
AcDbSymbolTable
 70
0
  0
BLOCK_RECORD
  5
214
100
AcDbSymbolTableRecord
100
AcDbBlockTableRecord
  2
*Model_Space
  0
BLOCK_RECORD
  5
215
100
AcDbSymbolTableRecord
100
AcDbBlockTableRecord
  2
*Paper_Space
  0
BLOCK_RECORD
  5
216
100
AcDbSymbolTableRecord
100
AcDbBlockTableRecord
  2
_FILLED
  0
BLOCK_RECORD
  5
217
100
AcDbSymbolTableRecord
100
AcDbBlockTableRecord
  2
*D0
  0
BLOCK_RECORD
  5
218
100
AcDbSymbolTableRecord
100
AcDbBlockTableRecord
  2
*D1
  0
BLOCK_RECORD
  5
219
100
AcDbSymbolTableRecord
100
AcDbBlockTableRecord
  2
*D2
  0
ENDTAB
  0
TABLE
  2
DIMSTYLE
  5
A
100
AcDbSymbolTable
 70
1
100
AcDbDimStyleTable
 71
0
  0
DIMSTYLE
105
21A
100
AcDbSymbolTableRecord
100
AcDbDimStyleTableRecord
  2
STANDARD
 70
0
  3

  4

 40
1.0
 41
3.0
 42
0.5
 43
0.38
 44
1.5
 45
0.0
 46
0.0
 47
0.01
 48
0.01
140
3.0
141
0.09
142
0.0
143
25.4
144
1.0
145
0.0
146
1.0
147
0.625
 71
1
 72
0
 73
0
 74
0
 75
0
 76
0
 77
1
 78
8
 79
2
170
0
171
1
172
0
173
0
174
0
175
0
176
0
177
0
178
0
270
2
179
2
271
2
272
2
273
2
274
2
275
0
280
0
281
0
282
0
283
1
284
8
285
0
286
0
287
3
288
0
340
11
278
44
341
216
342
216
343
216
344
216
  0
DIMSTYLE
105
21B
100
AcDbSymbolTableRecord
100
AcDbDimStyleTableRecord
  2
DIMSTYLE_1
 70
0
  3

  4

 40
1.0
 41
3.0
 42
0.5
 43
0.38
 44
1.5
 45
0.0
 46
0.0
 47
0.0
 48
0.0
140
3.0
141
0.09
142
0.0
143
25.4
144
1.0
145
0.0
146
1.0
147
0.75
 71
0
 72
0
 73
0
 74
0
 75
0
 76
0
 77
1
 78
8
 79
2
170
0
171
1
172
0
173
0
174
0
175
0
176
0
177
0
178
0
270
2
179
2
271
2
272
2
273
2
274
2
275
0
280
0
281
0
282
0
283
1
284
8
285
0
286
0
287
3
288
0
340
11
278
44
341
216
342
216
343
216
344
216
  0
ENDTAB
  0
ENDSEC
  0
SECTION
  2
BLOCKS
  0
BLOCK
  5
20
100
AcDbEntity
  8
0
100
AcDbBlockBegin
  2
*Model_Space
 70
0
 10
0.0
 20
0.0
 30
0.0
  3
*Model_Space
  1

  0
ENDBLK
  5
21
100
AcDbEntity
  8
0
100
AcDbBlockEnd
  0
BLOCK
  5
1C
100
AcDbEntity
  8
0
100
AcDbBlockBegin
  2
*Paper_Space
 70
0
 10
0.0
 20
0.0
 30
0.0
  3
*Paper_Space
  1

  0
ENDBLK
  5
1D
100
AcDbEntity
  8
0
100
AcDbBlockEnd
  0
BLOCK
  5
21C
100
AcDbEntity
  8
0
100
AcDbBlockBegin
  2
_FILLED
 70
64
 10
0.0
 20
0.0
  3
_FILLED
  1

  0
SOLID
  5
21D
100
AcDbEntity
  8
0
  6
BYBLOCK
 62
0
100
AcDbTrace
 10
0.0
 20
0.0
 11
-1.0
 21
0.3166666667
 12
-1.0
 22
-0.3166666667
 13
-1.0
 23
-0.3166666667
  0
ENDBLK
  5
21E
100
AcDbEntity
  8
0
  6
BYBLOCK
 62
0
100
AcDbBlockEnd
  0
BLOCK
  5
21F
100
AcDbEntity
  8
0
100
AcDbBlockBegin
 62
7
  6
CONTINUOUS
  2
*D0
 70
65
 10
0.0
 20
0.0
  3
*D0
  1

  0
MTEXT
  5
220
100
AcDbEntity
  8
0
100
AcDbMText
 62
7
  6
CONTINUOUS
  7
STANDARD
 71
2
 72
1
 10
259.0388381201
 20
222.9885766777
 30
0.0
 11
1.0
 21
0.0
 31
0.0
 73
2
 44
0.9
  1
{\ftxt;\W0.0001;\H0.0001;\~}{\ftxt;\W1.9285714286;\H3.0; }{\ftxt;\W0.0001;\H0.0001;\~}
 40
3.0
 41
8.6785714286
  0
LINE
  5
221
100
AcDbEntity
  8
0
100
AcDbLine
 62
7
  6
CONTINUOUS
 10
339.5388381201
 20
213.3557441253
 11
339.5388381201
 21
220.7385766777
  0
LINE
  5
222
100
AcDbEntity
  8
0
100
AcDbLine
 62
7
  6
CONTINUOUS
 10
178.5388381201
 20
213.3557441253
 11
178.5388381201
 21
220.7385766777
  0
LINE
  5
223
100
AcDbEntity
  8
0
100
AcDbLine
 62
7
  6
CONTINUOUS
 10
339.5388381201
 20
219.2385766777
 11
259.0388381201
 21
219.2385766777
  0
LINE
  5
224
100
AcDbEntity
  8
0
100
AcDbLine
 62
7
  6
CONTINUOUS
 10
178.5388381201
 20
219.2385766777
 11
259.0388381201
 21
219.2385766777
  0
INSERT
  5
225
100
AcDbEntity
  8
0
100
AcDbBlockReference
 62
7
  6
CONTINUOUS
  2
_FILLED
 10
339.5388381201
 20
219.2385766777
 41
3.0
 42
3.0
 43
3.0
  0
INSERT
  5
226
100
AcDbEntity
  8
0
100
AcDbBlockReference
 62
7
  6
CONTINUOUS
  2
_FILLED
 10
178.5388381201
 20
219.2385766777
 41
3.0
 42
3.0
 43
3.0
 50
180.0
  0
ENDBLK
  5
227
100
AcDbEntity
  8
0
  6
BYBLOCK
 62
0
100
AcDbBlockEnd
  0
BLOCK
  5
228
100
AcDbEntity
  8
0
100
AcDbBlockBegin
 62
7
  6
CONTINUOUS
  2
*D1
 70
65
 10
0.0
 20
0.0
  3
*D1
  1

  0
MTEXT
  5
229
100
AcDbEntity
  8
0
100
AcDbMText
 62
7
  6
CONTINUOUS
  7
STANDARD
 71
2
 72
1
 10
346.0117612115
 20
168.8557441253
 30
0.0
 11
0.0
 21
1.0
 31
0.0
 73
2
 44
0.9
  1
{\ftxt;\W0.0001;\H0.0001;\~}{\ftxt;\W1.5714285714;\H3.0; }{\ftxt;\W0.0001;\H0.0001;\~}
 40
3.0
 41
7.0714285714
  0
LINE
  5
22A
100
AcDbEntity
  8
0
100
AcDbLine
 62
7
  6
CONTINUOUS
 10
340.0388381201
 20
212.8557441253
 11
351.2617612115
 21
212.8557441253
  0
LINE
  5
22B
100
AcDbEntity
  8
0
100
AcDbLine
 62
7
  6
CONTINUOUS
 10
340.0388381201
 20
124.8557441253
 11
351.2617612115
 21
124.8557441253
  0
LINE
  5
22C
100
AcDbEntity
  8
0
100
AcDbLine
 62
7
  6
CONTINUOUS
 10
349.7617612115
 20
212.8557441253
 11
349.7617612115
 21
168.8557441253
  0
LINE
  5
22D
100
AcDbEntity
  8
0
100
AcDbLine
 62
7
  6
CONTINUOUS
 10
349.7617612115
 20
124.8557441253
 11
349.7617612115
 21
168.8557441253
  0
INSERT
  5
22E
100
AcDbEntity
  8
0
100
AcDbBlockReference
 62
7
  6
CONTINUOUS
  2
_FILLED
 10
349.7617612115
 20
212.8557441253
 41
3.0
 42
3.0
 43
3.0
 50
90.0
  0
INSERT
  5
22F
100
AcDbEntity
  8
0
100
AcDbBlockReference
 62
7
  6
CONTINUOUS
  2
_FILLED
 10
349.7617612115
 20
124.8557441253
 41
3.0
 42
3.0
 43
3.0
 50
270.0
  0
ENDBLK
  5
230
100
AcDbEntity
  8
0
  6
BYBLOCK
 62
0
100
AcDbBlockEnd
  0
BLOCK
  5
231
100
AcDbEntity
  8
0
100
AcDbBlockBegin
 62
7
  6
CONTINUOUS
  2
*D2
 70
65
 10
0.0
 20
0.0
  3
*D2
  1

  0
MTEXT
  5
232
100
AcDbEntity
  8
0
100
AcDbMText
 62
7
  6
CONTINUOUS
  7
STANDARD
 71
3
 72
1
 10
126.8651569227
 20
223.7437847478
 30
0.0
 11
1.0
 21
0.0
 31
0.0
 73
2
 44
0.9
  1
{\ftxt;\W0.0001;\H0.0001;\~}{\ftxt;\W2.1428571429;\H3.0; }{\ftxt;\W0.0001;\H0.0001;\~}
 40
3.0
 41
9.6428571429
  0
LINE
  5
233
100
AcDbEntity
  8
0
100
AcDbLine
 62
7
  6
CONTINUOUS
 10
139.4164817232
 20
211.0772891396
 11
139.4164817232
 21
221.4937847478
  0
LINE
  5
234
100
AcDbEntity
  8
0
100
AcDbLine
 62
7
  6
CONTINUOUS
 10
131.6164817232
 20
212.8557441253
 11
131.6164817232
 21
221.4937847478
  0
LINE
  5
235
100
AcDbEntity
  8
0
100
AcDbLine
 62
7
  6
CONTINUOUS
 10
139.4164817232
 20
219.9937847478
 11
135.5164817232
 21
219.9937847478
  0
LINE
  5
236
100
AcDbEntity
  8
0
100
AcDbLine
 62
7
  6
CONTINUOUS
 10
131.6164817232
 20
219.9937847478
 11
135.5164817232
 21
219.9937847478
  0
LINE
  5
237
100
AcDbEntity
  8
0
100
AcDbLine
 62
7
  6
CONTINUOUS
 10
135.5164817232
 20
219.9937847478
 11
120.4365854941
 21
219.9937847478
  0
INSERT
  5
238
100
AcDbEntity
  8
0
100
AcDbBlockReference
 62
7
  6
CONTINUOUS
  2
_FILLED
 10
139.4164817232
 20
219.9937847478
 41
3.0
 42
3.0
 43
3.0
  0
INSERT
  5
239
100
AcDbEntity
  8
0
100
AcDbBlockReference
 62
7
  6
CONTINUOUS
  2
_FILLED
 10
131.6164817232
 20
219.9937847478
 41
3.0
 42
3.0
 43
3.0
 50
180.0
  0
ENDBLK
  5
23A
100
AcDbEntity
  8
0
  6
BYBLOCK
 62
0
100
AcDbBlockEnd
  0
ENDSEC
  0
SECTION
  2
ENTITIES
  0
DIMENSION
  5
23B
100
AcDbEntity
  8
0
100
AcDbDimension
 62
7
  6
CONTINUOUS
  2
*D0
 10
178.5388381201
 20
219.2385766777
 11
258.6102703857
 21
219.2385766777
 70
160
 71
2
 72
2
 41
0.9
 42
161.0
  1
{\ftxt;\W0.0001;\H0.0001;\~}{\ftxt;\W1.9285714286;\H3.0; }{\ftxt;\W0.0001;\H0.0001;\~}
  3
DIMSTYLE_1
100
AcDbAlignedDimension
 13
339.5388381201
 23
212.8557441253
 14
178.5388381201
 24
212.8557441253
 50
180.0
100
AcDbRotatedDimension
  0
DIMENSION
  5
23C
100
AcDbEntity
  8
0
100
AcDbDimension
 62
7
  6
CONTINUOUS
  2
*D1
 10
349.7617612115
 20
124.8557441253
 11
349.7617612115
 21
168.4271788018
 70
160
 71
2
 72
2
 41
0.9
 42
88.0
  1
{\ftxt;\W0.0001;\H0.0001;\~}{\ftxt;\W1.5714285714;\H3.0; }{\ftxt;\W0.0001;\H0.0001;\~}
  3
DIMSTYLE_1
100
AcDbAlignedDimension
 13
339.5388381201
 23
212.8557441253
 14
339.5388381201
 24
124.8557441253
 50
270.0
100
AcDbRotatedDimension
  0
DIMENSION
  5
23D
100
AcDbEntity
  8
0
100
AcDbDimension
 62
7
  6
CONTINUOUS
  2
*D2
 10
131.6164817232
 20
219.9937847478
 11
123.2223001099
 21
219.9937847478
 70
160
 71
3
 72
2
 41
0.9
 42
7.8
  1
{\ftxt;\W0.0001;\H0.0001;\~}{\ftxt;\W2.1428571429;\H3.0; }{\ftxt;\W0.0001;\H0.0001;\~}
  3
DIMSTYLE_1
100
AcDbAlignedDimension
 13
139.4164817232
 23
210.5772891396
 14
131.6164817232
 24
212.3557441253
 50
180.0
100
AcDbRotatedDimension
  0
LINE
  5
23E
100
AcDbEntity
  8
RACCORDO
100
AcDbLine
 62
7
  6
CONTINUOUS
 10
178.5388381201
 20
212.8557441253
 11
178.5388381201
 21
124.8557441253
  0
LINE
  5
23F
100
AcDbEntity
  8
ASSI
100
AcDbLine
 62
7
  6
CONTINUOUS
 10
178.5388381201
 20
212.8557441253
 11
178.5388381201
 21
124.8557441253
  0
LINE
  5
240
100
AcDbEntity
  8
RACCORDO
100
AcDbLine
 62
250
  6
CONTINUOUS
 10
179.0388381201
 20
212.3557441253
 11
179.0388381201
 21
125.3557441253
  0
LINE
  5
241
100
AcDbEntity
  8
ASSI
100
AcDbLine
 62
250
  6
CONTINUOUS
 10
179.0388381201
 20
212.3557441253
 11
179.0388381201
 21
125.3557441253
  0
LINE
  5
242
100
AcDbEntity
  8
RACCORDO
100
AcDbLine
 62
250
  6
CONTINUOUS
 10
200.4638381201
 20
142.6307441253
 11
200.4638381201
 21
195.0807441253
  0
LINE
  5
243
100
AcDbEntity
  8
ASSI
100
AcDbLine
 62
250
  6
CONTINUOUS
 10
200.4638381201
 20
142.6307441253
 11
200.4638381201
 21
195.0807441253
  0
LINE
  5
244
100
AcDbEntity
  8
RACCORDO
100
AcDbLine
 62
7
  6
CONTINUOUS
 10
200.7638381201
 20
142.6307441253
 11
200.7638381201
 21
195.0807441253
  0
LINE
  5
245
100
AcDbEntity
  8
ASSI
100
AcDbLine
 62
7
  6
CONTINUOUS
 10
200.7638381201
 20
142.6307441253
 11
200.7638381201
 21
195.0807441253
  0
LINE
  5
246
100
AcDbEntity
  8
RACCORDO
100
AcDbLine
 62
250
  6
CONTINUOUS
 10
201.3638381201
 20
195.9807441253
 11
201.3638381201
 21
195.6807441253
  0
LINE
  5
247
100
AcDbEntity
  8
ASSI
100
AcDbLine
 62
250
  6
CONTINUOUS
 10
201.3638381201
 20
195.9807441253
 11
201.3638381201
 21
195.6807441253
  0
LINE
  5
248
100
AcDbEntity
  8
RACCORDO
100
AcDbLine
 62
250
  6
CONTINUOUS
 10
201.3638381201
 20
141.7307441253
 11
201.3638381201
 21
142.0307441253
  0
LINE
  5
249
100
AcDbEntity
  8
ASSI
100
AcDbLine
 62
250
  6
CONTINUOUS
 10
201.3638381201
 20
141.7307441253
 11
201.3638381201
 21
142.0307441253
  0
LINE
  5
24A
100
AcDbEntity
  8
RACCORDO
100
AcDbLine
 62
7
  6
CONTINUOUS
 10
178.5388381201
 20
124.8557441253
 11
339.5388381201
 21
124.8557441253
  0
LINE
  5
24B
100
AcDbEntity
  8
ASSI
100
AcDbLine
 62
7
  6
CONTINUOUS
 10
178.5388381201
 20
124.8557441253
 11
339.5388381201
 21
124.8557441253
  0
LINE
  5
24C
100
AcDbEntity
  8
RACCORDO
100
AcDbLine
 62
250
  6
CONTINUOUS
 10
179.0388381201
 20
125.3557441253
 11
339.0388381201
 21
125.3557441253
  0
LINE
  5
24D
100
AcDbEntity
  8
ASSI
100
AcDbLine
 62
250
  6
CONTINUOUS
 10
179.0388381201
 20
125.3557441253
 11
339.0388381201
 21
125.3557441253
  0
LWPOLYLINE
  5
24E
100
AcDbEntity
  8
0
100
AcDbPolyline
 62
7
  6
CONTINUOUS
 90
3
 70
0
 43
0.3499999917
 10
256.1459875488
 20
222.1314294434
 10
257.0031115723
 20
222.9885791016
 10
257.0031115723
 20
219.9885681152
  0
LWPOLYLINE
  5
24F
100
AcDbEntity
  8
0
100
AcDbPolyline
 62
7
  6
CONTINUOUS
 90
10
 70
0
 43
0.3499999917
 10
258.9316918945
 20
222.9885791016
 10
258.288848877
 20
222.3457104492
 10
257.8602612305
 20
221.4885864258
 10
257.8602612305
 20
220.4171557617
 10
258.288848877
 20
219.9885681152
 10
258.9316918945
 20
219.9885681152
 10
259.3602539062
 20
220.4171557617
 10
259.3602539062
 20
221.2742797852
 10
258.9316918945
 20
221.7028674316
 10
258.0031237793
 20
221.7028674316
  0
LWPOLYLINE
  5
250
100
AcDbEntity
  8
0
100
AcDbPolyline
 62
7
  6
CONTINUOUS
 90
3
 70
0
 43
0.3499999917
 10
260.2174035645
 20
222.1314294434
 10
261.0745532227
 20
222.9885791016
 10
261.0745532227
 20
219.9885681152
  0
LINE
  5
251
100
AcDbEntity
  8
RACCORDO
100
AcDbLine
 62
7
  6
CONTINUOUS
 10
178.862853697
 20
125.1796424188
 11
178.5548610188
 21
124.8717066604
  0
LINE
  5
252
100
AcDbEntity
  8
ASSI
100
AcDbLine
 62
7
  6
CONTINUOUS
 10
178.862853697
 20
125.1796424188
 11
178.5548610188
 21
124.8717066604
  0
LWPOLYLINE
  5
253
100
AcDbEntity
  8
RACCORDO
100
AcDbPolyline
 62
7
  6
CONTINUOUS
 90
5
 70
0
 10
178.5548610188
 20
124.8717066604
 10
178.5476535242
 20
124.8645595294
 10
178.5425557565
 20
124.8595900772
 10
178.5396172885
 20
124.8566870925
 10
178.5388381201
 20
124.8557441253
  0
LWPOLYLINE
  5
254
100
AcDbEntity
  8
ASSI
100
AcDbPolyline
 62
7
  6
CONTINUOUS
 90
5
 70
0
 10
178.5548610188
 20
124.8717066604
 10
178.5476535242
 20
124.8645595294
 10
178.5425557565
 20
124.8595900772
 10
178.5396172885
 20
124.8566870925
 10
178.5388381201
 20
124.8557441253
  0
LWPOLYLINE
  5
255
100
AcDbEntity
  8
RACCORDO
100
AcDbPolyline
 62
7
  6
CONTINUOUS
 90
3
 70
0
 10
179.0388381201
 20
125.3557441253
 10
178.9914332081
 20
125.3087727212
 10
178.862853697
 20
125.1796424188
  0
LWPOLYLINE
  5
256
100
AcDbEntity
  8
ASSI
100
AcDbPolyline
 62
7
  6
CONTINUOUS
 90
3
 70
0
 10
179.0388381201
 20
125.3557441253
 10
178.9914332081
 20
125.3087727212
 10
178.862853697
 20
125.1796424188
  0
LINE
  5
257
100
AcDbEntity
  8
RACCORDO
100
AcDbLine
 62
250
  6
CONTINUOUS
 10
316.7138381201
 20
141.7307441253
 11
272.3638381201
 21
141.7307441253
  0
LINE
  5
258
100
AcDbEntity
  8
ASSI
100
AcDbLine
 62
250
  6
CONTINUOUS
 10
316.7138381201
 20
141.7307441253
 11
272.3638381201
 21
141.7307441253
  0
LINE
  5
259
100
AcDbEntity
  8
RACCORDO
100
AcDbLine
 62
250
  6
CONTINUOUS
 10
245.7138381201
 20
141.7307441253
 11
201.3638381201
 21
141.7307441253
  0
LINE
  5
25A
100
AcDbEntity
  8
ASSI
100
AcDbLine
 62
250
  6
CONTINUOUS
 10
245.7138381201
 20
141.7307441253
 11
201.3638381201
 21
141.7307441253
  0
LINE
  5
25B
100
AcDbEntity
  8
RACCORDO
100
AcDbLine
 62
7
  6
CONTINUOUS
 10
316.7138381201
 20
142.0307441253
 11
272.3638381201
 21
142.0307441253
  0
LINE
  5
25C
100
AcDbEntity
  8
ASSI
100
AcDbLine
 62
7
  6
CONTINUOUS
 10
316.7138381201
 20
142.0307441253
 11
272.3638381201
 21
142.0307441253
  0
LINE
  5
25D
100
AcDbEntity
  8
RACCORDO
100
AcDbLine
 62
7
  6
CONTINUOUS
 10
245.7138381201
 20
142.0307441253
 11
201.3638381201
 21
142.0307441253
  0
LINE
  5
25E
100
AcDbEntity
  8
ASSI
100
AcDbLine
 62
7
  6
CONTINUOUS
 10
245.7138381201
 20
142.0307441253
 11
201.3638381201
 21
142.0307441253
  0
LINE
  5
25F
100
AcDbEntity
  8
RACCORDO
100
AcDbLine
 62
250
  6
CONTINUOUS
 10
317.6138381201
 20
142.6307441253
 11
317.3138381201
 21
142.6307441253
  0
LINE
  5
260
100
AcDbEntity
  8
ASSI
100
AcDbLine
 62
250
  6
CONTINUOUS
 10
317.6138381201
 20
142.6307441253
 11
317.3138381201
 21
142.6307441253
  0
LINE
  5
261
100
AcDbEntity
  8
RACCORDO
100
AcDbLine
 62
250
  6
CONTINUOUS
 10
246.6138381201
 20
142.6307441253
 11
246.3138381201
 21
142.6307441253
  0
LINE
  5
262
100
AcDbEntity
  8
ASSI
100
AcDbLine
 62
250
  6
CONTINUOUS
 10
246.6138381201
 20
142.6307441253
 11
246.3138381201
 21
142.6307441253
  0
LINE
  5
263
100
AcDbEntity
  8
RACCORDO
100
AcDbLine
 62
250
  6
CONTINUOUS
 10
200.4638381201
 20
142.6307441253
 11
200.7638381201
 21
142.6307441253
  0
LINE
  5
264
100
AcDbEntity
  8
ASSI
100
AcDbLine
 62
250
  6
CONTINUOUS
 10
200.4638381201
 20
142.6307441253
 11
200.7638381201
 21
142.6307441253
  0
LINE
  5
265
100
AcDbEntity
  8
RACCORDO
100
AcDbLine
 62
250
  6
CONTINUOUS
 10
271.4638381201
 20
142.6307441253
 11
271.7638381201
 21
142.6307441253
  0
LINE
  5
266
100
AcDbEntity
  8
ASSI
100
AcDbLine
 62
250
  6
CONTINUOUS
 10
271.4638381201
 20
142.6307441253
 11
271.7638381201
 21
142.6307441253
  0
LINE
  5
267
100
AcDbEntity
  8
RACCORDO
100
AcDbLine
 62
7
  6
CONTINUOUS
 10
178.8627364136
 20
212.5317285484
 11
178.5548006552
 21
212.8397212266
  0
LINE
  5
268
100
AcDbEntity
  8
ASSI
100
AcDbLine
 62
7
  6
CONTINUOUS
 10
178.8627364136
 20
212.5317285484
 11
178.5548006552
 21
212.8397212266
  0
LWPOLYLINE
  5
269
100
AcDbEntity
  8
RACCORDO
100
AcDbPolyline
 62
7
  6
CONTINUOUS
 90
5
 70
0
 10
178.5548006552
 20
212.8397212266
 10
178.5476535242
 20
212.8469287212
 10
178.5426840719
 20
212.8520264889
 10
178.5397810873
 20
212.854964957
 10
178.5388381201
 20
212.8557441253
  0
LWPOLYLINE
  5
26A
100
AcDbEntity
  8
ASSI
100
AcDbPolyline
 62
7
  6
CONTINUOUS
 90
5
 70
0
 10
178.5548006552
 20
212.8397212266
 10
178.5476535242
 20
212.8469287212
 10
178.5426840719
 20
212.8520264889
 10
178.5397810873
 20
212.854964957
 10
178.5388381201
 20
212.8557441253
  0
LWPOLYLINE
  5
26B
100
AcDbEntity
  8
RACCORDO
100
AcDbPolyline
 62
7
  6
CONTINUOUS
 90
3
 70
0
 10
179.0388381201
 20
212.3557441253
 10
178.9918667159
 20
212.4031490374
 10
178.8627364136
 20
212.5317285484
  0
LWPOLYLINE
  5
26C
100
AcDbEntity
  8
ASSI
100
AcDbPolyline
 62
7
  6
CONTINUOUS
 90
3
 70
0
 10
179.0388381201
 20
212.3557441253
 10
178.9918667159
 20
212.4031490374
 10
178.8627364136
 20
212.5317285484
  0
LINE
  5
26D
100
AcDbEntity
  8
RACCORDO
100
AcDbLine
 62
250
  6
CONTINUOUS
 10
245.7138381201
 20
195.9807441253
 11
245.7138381201
 21
195.6807441253
  0
LINE
  5
26E
100
AcDbEntity
  8
ASSI
100
AcDbLine
 62
250
  6
CONTINUOUS
 10
245.7138381201
 20
195.9807441253
 11
245.7138381201
 21
195.6807441253
  0
LINE
  5
26F
100
AcDbEntity
  8
RACCORDO
100
AcDbLine
 62
250
  6
CONTINUOUS
 10
245.7138381201
 20
141.7307441253
 11
245.7138381201
 21
142.0307441253
  0
LINE
  5
270
100
AcDbEntity
  8
ASSI
100
AcDbLine
 62
250
  6
CONTINUOUS
 10
245.7138381201
 20
141.7307441253
 11
245.7138381201
 21
142.0307441253
  0
LINE
  5
271
100
AcDbEntity
  8
RACCORDO
100
AcDbLine
 62
7
  6
CONTINUOUS
 10
246.3138381201
 20
195.0807441253
 11
246.3138381201
 21
142.6307441253
  0
LINE
  5
272
100
AcDbEntity
  8
ASSI
100
AcDbLine
 62
7
  6
CONTINUOUS
 10
246.3138381201
 20
195.0807441253
 11
246.3138381201
 21
142.6307441253
  0
LINE
  5
273
100
AcDbEntity
  8
RACCORDO
100
AcDbLine
 62
250
  6
CONTINUOUS
 10
246.6138381201
 20
195.0807441253
 11
246.6138381201
 21
142.6307441253
  0
LINE
  5
274
100
AcDbEntity
  8
ASSI
100
AcDbLine
 62
250
  6
CONTINUOUS
 10
246.6138381201
 20
195.0807441253
 11
246.6138381201
 21
142.6307441253
  0
LWPOLYLINE
  5
275
100
AcDbEntity
  8
0
100
AcDbPolyline
 62
7
  6
CONTINUOUS
 90
4
 70
0
 43
0.3499999917
 10
348.5831835937
 20
166.4986047363
 10
347.7260595703
 20
166.4986047363
 10
347.2974719238
 20
166.927166748
 10
347.2974719238
 20
167.5700354004
  0
LWPOLYLINE
  5
276
100
AcDbEntity
  8
0
100
AcDbPolyline
 62
7
  6
CONTINUOUS
 90
4
 70
0
 43
0.3499999917
 10
348.5831835937
 20
168.8557470703
 10
347.7260595703
 20
168.8557470703
 10
347.2974719238
 20
169.2843218994
 10
347.2974719238
 20
169.9271777344
  0
LINE
  5
277
100
AcDbEntity
  8
RACCORDO
100
AcDbLine
 62
250
  6
CONTINUOUS
 10
271.4638381201
 20
142.6307441253
 11
271.4638381201
 21
195.0807441253
  0
LINE
  5
278
100
AcDbEntity
  8
ASSI
100
AcDbLine
 62
250
  6
CONTINUOUS
 10
271.4638381201
 20
142.6307441253
 11
271.4638381201
 21
195.0807441253
  0
LINE
  5
279
100
AcDbEntity
  8
RACCORDO
100
AcDbLine
 62
7
  6
CONTINUOUS
 10
271.7638381201
 20
142.6307441253
 11
271.7638381201
 21
195.0807441253
  0
LINE
  5
27A
100
AcDbEntity
  8
ASSI
100
AcDbLine
 62
7
  6
CONTINUOUS
 10
271.7638381201
 20
142.6307441253
 11
271.7638381201
 21
195.0807441253
  0
LINE
  5
27B
100
AcDbEntity
  8
RACCORDO
100
AcDbLine
 62
250
  6
CONTINUOUS
 10
272.3638381201
 20
195.9807441253
 11
272.3638381201
 21
195.6807441253
  0
LINE
  5
27C
100
AcDbEntity
  8
ASSI
100
AcDbLine
 62
250
  6
CONTINUOUS
 10
272.3638381201
 20
195.9807441253
 11
272.3638381201
 21
195.6807441253
  0
LINE
  5
27D
100
AcDbEntity
  8
RACCORDO
100
AcDbLine
 62
250
  6
CONTINUOUS
 10
272.3638381201
 20
141.7307441253
 11
272.3638381201
 21
142.0307441253
  0
LINE
  5
27E
100
AcDbEntity
  8
ASSI
100
AcDbLine
 62
250
  6
CONTINUOUS
 10
272.3638381201
 20
141.7307441253
 11
272.3638381201
 21
142.0307441253
  0
LINE
  5
27F
100
AcDbEntity
  8
RACCORDO
100
AcDbLine
 62
7
  6
CONTINUOUS
 10
339.2148225432
 20
212.5318458318
 11
339.5228152214
 21
212.8397815902
  0
LINE
  5
280
100
AcDbEntity
  8
ASSI
100
AcDbLine
 62
7
  6
CONTINUOUS
 10
339.2148225432
 20
212.5318458318
 11
339.5228152214
 21
212.8397815902
  0
LWPOLYLINE
  5
281
100
AcDbEntity
  8
RACCORDO
100
AcDbPolyline
 62
7
  6
CONTINUOUS
 90
5
 70
0
 10
339.5228152214
 20
212.8397815902
 10
339.530022716
 20
212.8469287212
 10
339.5351204837
 20
212.8518981735
 10
339.5380589517
 20
212.8548011581
 10
339.5388381201
 20
212.8557441253
  0
LWPOLYLINE
  5
282
100
AcDbEntity
  8
ASSI
100
AcDbPolyline
 62
7
  6
CONTINUOUS
 90
5
 70
0
 10
339.5228152214
 20
212.8397815902
 10
339.530022716
 20
212.8469287212
 10
339.5351204837
 20
212.8518981735
 10
339.5380589517
 20
212.8548011581
 10
339.5388381201
 20
212.8557441253
  0
LWPOLYLINE
  5
283
100
AcDbEntity
  8
RACCORDO
100
AcDbPolyline
 62
7
  6
CONTINUOUS
 90
3
 70
0
 10
339.0388381201
 20
212.3557441253
 10
339.0862430322
 20
212.4027155295
 10
339.2148225432
 20
212.5318458318
  0
LWPOLYLINE
  5
284
100
AcDbEntity
  8
ASSI
100
AcDbPolyline
 62
7
  6
CONTINUOUS
 90
3
 70
0
 10
339.0388381201
 20
212.3557441253
 10
339.0862430322
 20
212.4027155295
 10
339.2148225432
 20
212.5318458318
  0
LINE
  5
285
100
AcDbEntity
  8
RACCORDO
100
AcDbLine
 62
250
  6
CONTINUOUS
 10
317.6138381201
 20
195.0807441253
 11
317.3138381201
 21
195.0807441253
  0
LINE
  5
286
100
AcDbEntity
  8
ASSI
100
AcDbLine
 62
250
  6
CONTINUOUS
 10
317.6138381201
 20
195.0807441253
 11
317.3138381201
 21
195.0807441253
  0
LINE
  5
287
100
AcDbEntity
  8
RACCORDO
100
AcDbLine
 62
250
  6
CONTINUOUS
 10
246.6138381201
 20
195.0807441253
 11
246.3138381201
 21
195.0807441253
  0
LINE
  5
288
100
AcDbEntity
  8
ASSI
100
AcDbLine
 62
250
  6
CONTINUOUS
 10
246.6138381201
 20
195.0807441253
 11
246.3138381201
 21
195.0807441253
  0
LINE
  5
289
100
AcDbEntity
  8
RACCORDO
100
AcDbLine
 62
250
  6
CONTINUOUS
 10
200.4638381201
 20
195.0807441253
 11
200.7638381201
 21
195.0807441253
  0
LINE
  5
28A
100
AcDbEntity
  8
ASSI
100
AcDbLine
 62
250
  6
CONTINUOUS
 10
200.4638381201
 20
195.0807441253
 11
200.7638381201
 21
195.0807441253
  0
LINE
  5
28B
100
AcDbEntity
  8
RACCORDO
100
AcDbLine
 62
250
  6
CONTINUOUS
 10
271.4638381201
 20
195.0807441253
 11
271.7638381201
 21
195.0807441253
  0
LINE
  5
28C
100
AcDbEntity
  8
ASSI
100
AcDbLine
 62
250
  6
CONTINUOUS
 10
271.4638381201
 20
195.0807441253
 11
271.7638381201
 21
195.0807441253
  0
LINE
  5
28D
100
AcDbEntity
  8
RACCORDO
100
AcDbLine
 62
7
  6
CONTINUOUS
 10
201.3638381201
 20
195.6807441253
 11
245.7138381201
 21
195.6807441253
  0
LINE
  5
28E
100
AcDbEntity
  8
ASSI
100
AcDbLine
 62
7
  6
CONTINUOUS
 10
201.3638381201
 20
195.6807441253
 11
245.7138381201
 21
195.6807441253
  0
LINE
  5
28F
100
AcDbEntity
  8
RACCORDO
100
AcDbLine
 62
7
  6
CONTINUOUS
 10
272.3638381201
 20
195.6807441253
 11
316.7138381201
 21
195.6807441253
  0
LINE
  5
290
100
AcDbEntity
  8
ASSI
100
AcDbLine
 62
7
  6
CONTINUOUS
 10
272.3638381201
 20
195.6807441253
 11
316.7138381201
 21
195.6807441253
  0
LINE
  5
291
100
AcDbEntity
  8
RACCORDO
100
AcDbLine
 62
250
  6
CONTINUOUS
 10
201.3638381201
 20
195.9807441253
 11
245.7138381201
 21
195.9807441253
  0
LINE
  5
292
100
AcDbEntity
  8
ASSI
100
AcDbLine
 62
250
  6
CONTINUOUS
 10
201.3638381201
 20
195.9807441253
 11
245.7138381201
 21
195.9807441253
  0
LINE
  5
293
100
AcDbEntity
  8
RACCORDO
100
AcDbLine
 62
250
  6
CONTINUOUS
 10
272.3638381201
 20
195.9807441253
 11
316.7138381201
 21
195.9807441253
  0
LINE
  5
294
100
AcDbEntity
  8
ASSI
100
AcDbLine
 62
250
  6
CONTINUOUS
 10
272.3638381201
 20
195.9807441253
 11
316.7138381201
 21
195.9807441253
  0
LINE
  5
295
100
AcDbEntity
  8
RACCORDO
100
AcDbLine
 62
7
  6
CONTINUOUS
 10
339.2149398266
 20
125.1797597022
 11
339.522875585
 21
124.871767024
  0
LINE
  5
296
100
AcDbEntity
  8
ASSI
100
AcDbLine
 62
7
  6
CONTINUOUS
 10
339.2149398266
 20
125.1797597022
 11
339.522875585
 21
124.871767024
  0
LWPOLYLINE
  5
297
100
AcDbEntity
  8
RACCORDO
100
AcDbPolyline
 62
7
  6
CONTINUOUS
 90
5
 70
0
 10
339.522875585
 20
124.871767024
 10
339.530022716
 20
124.8645595294
 10
339.5349921683
 20
124.8594617617
 10
339.5378951529
 20
124.8565232937
 10
339.5388381201
 20
124.8557441253
  0
LWPOLYLINE
  5
298
100
AcDbEntity
  8
ASSI
100
AcDbPolyline
 62
7
  6
CONTINUOUS
 90
5
 70
0
 10
339.522875585
 20
124.871767024
 10
339.530022716
 20
124.8645595294
 10
339.5349921683
 20
124.8594617617
 10
339.5378951529
 20
124.8565232937
 10
339.5388381201
 20
124.8557441253
  0
LWPOLYLINE
  5
299
100
AcDbEntity
  8
RACCORDO
100
AcDbPolyline
 62
7
  6
CONTINUOUS
 90
3
 70
0
 10
339.0388381201
 20
125.3557441253
 10
339.0858095243
 20
125.3083392133
 10
339.2149398266
 20
125.1797597022
  0
LWPOLYLINE
  5
29A
100
AcDbEntity
  8
ASSI
100
AcDbPolyline
 62
7
  6
CONTINUOUS
 90
3
 70
0
 10
339.0388381201
 20
125.3557441253
 10
339.0858095243
 20
125.3083392133
 10
339.2149398266
 20
125.1797597022
  0
LINE
  5
29B
100
AcDbEntity
  8
RACCORDO
100
AcDbLine
 62
250
  6
CONTINUOUS
 10
339.0388381201
 20
212.3557441253
 11
179.0388381201
 21
212.3557441253
  0
LINE
  5
29C
100
AcDbEntity
  8
ASSI
100
AcDbLine
 62
250
  6
CONTINUOUS
 10
339.0388381201
 20
212.3557441253
 11
179.0388381201
 21
212.3557441253
  0
LINE
  5
29D
100
AcDbEntity
  8
RACCORDO
100
AcDbLine
 62
7
  6
CONTINUOUS
 10
339.5388381201
 20
212.8557441253
 11
178.5388381201
 21
212.8557441253
  0
LINE
  5
29E
100
AcDbEntity
  8
ASSI
100
AcDbLine
 62
7
  6
CONTINUOUS
 10
339.5388381201
 20
212.8557441253
 11
178.5388381201
 21
212.8557441253
  0
LINE
  5
29F
100
AcDbEntity
  8
RACCORDO
100
AcDbLine
 62
250
  6
CONTINUOUS
 10
316.7138381201
 20
195.9807441253
 11
316.7138381201
 21
195.6807441253
  0
LINE
  5
2A0
100
AcDbEntity
  8
ASSI
100
AcDbLine
 62
250
  6
CONTINUOUS
 10
316.7138381201
 20
195.9807441253
 11
316.7138381201
 21
195.6807441253
  0
LINE
  5
2A1
100
AcDbEntity
  8
RACCORDO
100
AcDbLine
 62
250
  6
CONTINUOUS
 10
316.7138381201
 20
141.7307441253
 11
316.7138381201
 21
142.0307441253
  0
LINE
  5
2A2
100
AcDbEntity
  8
ASSI
100
AcDbLine
 62
250
  6
CONTINUOUS
 10
316.7138381201
 20
141.7307441253
 11
316.7138381201
 21
142.0307441253
  0
LINE
  5
2A3
100
AcDbEntity
  8
RACCORDO
100
AcDbLine
 62
7
  6
CONTINUOUS
 10
317.3138381201
 20
195.0807441253
 11
317.3138381201
 21
142.6307441253
  0
LINE
  5
2A4
100
AcDbEntity
  8
ASSI
100
AcDbLine
 62
7
  6
CONTINUOUS
 10
317.3138381201
 20
195.0807441253
 11
317.3138381201
 21
142.6307441253
  0
LINE
  5
2A5
100
AcDbEntity
  8
RACCORDO
100
AcDbLine
 62
250
  6
CONTINUOUS
 10
317.6138381201
 20
195.0807441253
 11
317.6138381201
 21
142.6307441253
  0
LINE
  5
2A6
100
AcDbEntity
  8
ASSI
100
AcDbLine
 62
250
  6
CONTINUOUS
 10
317.6138381201
 20
195.0807441253
 11
317.6138381201
 21
142.6307441253
  0
LWPOLYLINE
  5
2A7
100
AcDbEntity
  8
0
100
AcDbPolyline
 62
7
  6
CONTINUOUS
 90
13
 70
0
 43
0.3499999917
 10
347.2974719238
 20
169.2843218994
 10
347.083190918
 20
168.9985968018
 10
346.4403222656
 20
168.9985968018
 10
346.0117602539
 20
169.2843218994
 10
346.0117602539
 20
169.9271777344
 10
346.4403222656
 20
170.2128900146
 10
347.083190918
 20
170.2128900146
 10
347.2974719238
 20
169.9271777344
 10
347.7260595703
 20
170.3557397461
 10
348.5831835937
 20
170.3557397461
 10
349.0117712402
 20
169.9271777344
 10
349.0117712402
 20
169.2843218994
 10
348.5831835937
 20
168.8557470703
  0
LWPOLYLINE
  5
2A8
100
AcDbEntity
  8
0
100
AcDbPolyline
 62
7
  6
CONTINUOUS
 90
13
 70
0
 43
0.3499999917
 10
347.2974719238
 20
166.927166748
 10
347.083190918
 20
166.6414544678
 10
346.4403222656
 20
166.6414544678
 10
346.0117602539
 20
166.927166748
 10
346.0117602539
 20
167.5700354004
 10
346.4403222656
 20
167.8557476807
 10
347.083190918
 20
167.8557476807
 10
347.2974719238
 20
167.5700354004
 10
347.7260595703
 20
167.9985974121
 10
348.5831835937
 20
167.9985974121
 10
349.0117712402
 20
167.5700354004
 10
349.0117712402
 20
166.927166748
 10
348.5831835937
 20
166.4986047363
  0
LINE
  5
2A9
100
AcDbEntity
  8
RACCORDO
100
AcDbLine
 62
250
  6
CONTINUOUS
 10
339.0388381201
 20
125.3557441253
 11
339.0388381201
 21
212.3557441253
  0
LINE
  5
2AA
100
AcDbEntity
  8
ASSI
100
AcDbLine
 62
250
  6
CONTINUOUS
 10
339.0388381201
 20
125.3557441253
 11
339.0388381201
 21
212.3557441253
  0
LINE
  5
2AB
100
AcDbEntity
  8
RACCORDO
100
AcDbLine
 62
7
  6
CONTINUOUS
 10
339.5388381201
 20
124.8557441253
 11
339.5388381201
 21
212.8557441253
  0
LINE
  5
2AC
100
AcDbEntity
  8
ASSI
100
AcDbLine
 62
7
  6
CONTINUOUS
 10
339.5388381201
 20
124.8557441253
 11
339.5388381201
 21
212.8557441253
  0
LINE
  5
2AD
100
AcDbEntity
  8
RACCORDO
100
AcDbLine
 62
7
  6
CONTINUOUS
 10
136.5164817232
 20
124.8557441253
 11
132.1164817232
 21
124.8557441253
  0
LINE
  5
2AE
100
AcDbEntity
  8
ASSI
100
AcDbLine
 62
7
  6
CONTINUOUS
 10
136.5164817232
 20
124.8557441253
 11
132.1164817232
 21
124.8557441253
  0
LINE
  5
2AF
100
AcDbEntity
  8
RACCORDO
100
AcDbLine
 62
7
  6
CONTINUOUS
 10
139.2217171129
 20
126.4344389835
 11
136.5164817232
 21
126.3635999018
  0
LINE
  5
2B0
100
AcDbEntity
  8
RACCORDO
100
AcDbLine
 62
250
  6
CONTINUOUS
 10
139.2217171129
 20
127.134199111
 11
136.5164817232
 21
127.0633600293
  0
LINE
  5
2B1
100
AcDbEntity
  8
RACCORDO
100
AcDbLine
 62
250
  6
CONTINUOUS
 10
139.4164817232
 20
127.134199111
 11
139.2217171129
 21
127.134199111
  0
LINE
  5
2B2
100
AcDbEntity
  8
CURVE
100
AcDbLine
 62
250
  6
CONTINUOUS
 10
134.4401797232
 20
131.1908841253
 11
133.0636287232
 21
130.8096781253
  0
LINE
  5
2B3
100
AcDbEntity
  8
CURVE
100
AcDbLine
 62
250
  6
CONTINUOUS
 10
135.0634667232
 20
132.1558081253
 11
133.0635087232
 21
132.1558081253
  0
LINE
  5
2B4
100
AcDbEntity
  8
CURVE
100
AcDbLine
 62
250
  6
CONTINUOUS
 10
133.0635087232
 20
132.5732521253
 11
135.0634667232
 21
132.5732521253
  0
LINE
  5
2B5
100
AcDbEntity
  8
CURVE
100
AcDbLine
 62
250
  6
CONTINUOUS
 10
135.0634667232
 20
133.1973341253
 11
133.7576097232
 21
133.2874181253
  0
LINE
  5
2B6
100
AcDbEntity
  8
CURVE
100
AcDbLine
 62
250
  6
CONTINUOUS
 10
133.0636287232
 20
132.9785501253
 11
135.0634667232
 21
132.7979761253
  0
LINE
  5
2B7
100
AcDbEntity
  8
CURVE
100
AcDbLine
 62
250
  6
CONTINUOUS
 10
133.0636287232
 20
131.5837331253
 11
134.4401797232
 21
131.1908841253
  0
LINE
  5
2B8
100
AcDbEntity
  8
CURVE
100
AcDbLine
 62
250
  6
CONTINUOUS
 10
135.0634667232
 20
131.3580651253
 11
133.0636287232
 21
132.0008931253
  0
LINE
  5
2B9
100
AcDbEntity
  8
CURVE
100
AcDbLine
 62
250
  6
CONTINUOUS
 10
135.0634667232
 20
134.8261571253
 11
133.0636287232
 21
134.6391501253
  0
LINE
  5
2BA
100
AcDbEntity
  8
CURVE
100
AcDbLine
 62
250
  6
CONTINUOUS
 10
133.7630547232
 20
134.3320191253
 11
135.0634667232
 21
134.4177861253
  0
LINE
  5
2BB
100
AcDbEntity
  8
CURVE
100
AcDbLine
 62
250
  6
CONTINUOUS
 10
135.0634669885
 20
136.658992957
 11
133.0869941414
 21
136.658992957
  0
LINE
  5
2BC
100
AcDbEntity
  8
CURVE
100
AcDbLine
 62
250
  6
CONTINUOUS
 10
134.3552987232
 20
135.5052021253
 11
133.6131337232
 21
135.7130541253
  0
LINE
  5
2BD
100
AcDbEntity
  8
CURVE
100
AcDbLine
 62
250
  6
CONTINUOUS
 10
135.0634667232
 20
135.3046231253
 11
134.6642277232
 21
135.4198111253
  0
LINE
  5
2BE
100
AcDbEntity
  8
CURVE
100
AcDbLine
 62
250
  6
CONTINUOUS
 10
133.0636287232
 20
135.5189841253
 11
135.0634667232
 21
134.8917071253
  0
LINE
  5
2BF
100
AcDbEntity
  8
CURVE
100
AcDbLine
 62
250
  6
CONTINUOUS
 10
133.0636287232
 20
134.2261291253
 11
134.1739447232
 21
133.8086851253
  0
LINE
  5
2C0
100
AcDbEntity
  8
CURVE
100
AcDbLine
 62
250
  6
CONTINUOUS
 10
135.0634667232
 20
133.8356781253
 11
133.7630547232
 21
134.3320191253
  0
LINE
  5
2C1
100
AcDbEntity
  8
CURVE
100
AcDbLine
 62
250
  6
CONTINUOUS
 10
134.795092134
 20
137.6358338624
 11
134.7099335958
 21
137.6116858633
  0
LINE
  5
2C2
100
AcDbEntity
  8
CURVE
100
AcDbLine
 62
250
  6
CONTINUOUS
 10
134.6642277232
 20
135.9883011253
 11
135.0634667232
 21
136.0964421253
  0
LINE
  5
2C3
100
AcDbEntity
  8
CURVE
100
AcDbLine
 62
250
  6
CONTINUOUS
 10
134.4757540427
 20
137.9602492016
 11
134.5944669475
 21
137.9923488607
  0
LINE
  5
2C4
100
AcDbEntity
  8
CURVE
100
AcDbLine
 62
250
  6
CONTINUOUS
 10
134.9920691607
 20
138.0965040945
 11
135.0634669885
 21
138.115549744
  0
LINE
  5
2C5
100
AcDbEntity
  8
CURVE
100
AcDbLine
 62
250
  6
CONTINUOUS
 10
134.5944669475
 20
137.9923488607
 11
134.7391325975
 21
138.0305577724
  0
LINE
  5
2C6
100
AcDbEntity
  8
CURVE
100
AcDbLine
 62
250
  6
CONTINUOUS
 10
134.7391325975
 20
138.0305577724
 11
134.9920691607
 21
138.0965040945
  0
LINE
  5
2C7
100
AcDbEntity
  8
CURVE
100
AcDbLine
 62
250
  6
CONTINUOUS
 10
133.6131337232
 20
135.7130541253
 11
134.3552987232
 21
135.9048751253
  0
LWPOLYLINE
  5
2C8
100
AcDbEntity
  8
CURVE
100
AcDbPolyline
 62
250
  6
CONTINUOUS
 90
49
 70
0
 10
133.64254205
 20
137.6237522513
 10
133.6348741786
 20
137.6235082417
 10
133.6271897875
 20
137.6230173326
 10
133.6194979147
 20
137.622281945
 10
133.6118075982
 20
137.6213044999
 10
133.604127876
 20
137.6200874183
 10
133.5964677862
 20
137.6186331211
 10
133.5888363667
 20
137.6169440292
 10
133.5812426556
 20
137.6150225638
 10
133.5736956909
 20
137.6128711456
 10
133.5662045106
 20
137.6104921958
 10
133.5587781526
 20
137.6078881352
 10
133.5514256551
 20
137.6050613848
 10
133.544156056
 20
137.6020143656
 10
133.5369783933
 20
137.5987494986
 10
133.5299017051
 20
137.5952692047
 10
133.5229350293
 20
137.5915759049
 10
133.5160874041
 20
137.5876720201
 10
133.5093678672
 20
137.5835599713
 10
133.5027854569
 20
137.5792421795
 10
133.4963492111
 20
137.5747210657
 10
133.4900681678
 20
137.5699990508
 10
133.483951365
 20
137.5650785558
 10
133.4780078408
 20
137.5599620016
 10
133.4722466331
 20
137.5546518093
 10
133.4666453839
 20
137.5491207417
 10
133.4612381725
 20
137.543404785
 10
133.4560255805
 20
137.5375123673
 10
133.4510081892
 20
137.531451917
 10
133.4461865802
 20
137.5252318623
 10
133.4415613349
 20
137.5188606315
 10
133.4371330349
 20
137.5123466528
 10
133.4329022616
 20
137.5056983546
 10
133.4288695964
 20
137.4989241651
 10
133.425035621
 20
137.4920325125
 10
133.4214009167
 20
137.4850318253
 10
133.417966065
 20
137.4779305316
 10
133.4147316475
 20
137.4707370597
 10
133.4116982456
 20
137.463459838
 10
133.4088664407
 20
137.4561072946
 10
133.4062368144
 20
137.4486878578
 10
133.4038099481
 20
137.441209956
 10
133.4015864234
 20
137.4336820174
 10
133.3995668217
 20
137.4261124703
 10
133.3977517244
 20
137.4185097429
 10
133.3961417131
 20
137.4108822636
 10
133.3947373693
 20
137.4032384606
 10
133.3935392744
 20
137.3955867621
 10
133.3925480099
 20
137.3879355966
  0
LINE
  5
2C9
100
AcDbEntity
  8
CURVE
100
AcDbLine
 62
250
  6
CONTINUOUS
 10
133.4043215472
 20
137.06091601
 11
133.9533159551
 21
137.06091601
  0
LINE
  5
2CA
100
AcDbEntity
  8
CURVE
100
AcDbLine
 62
250
  6
CONTINUOUS
 10
134.2808410279
 20
137.0747578434
 11
135.0634669885
 21
137.0747578434
  0
LINE
  5
2CB
100
AcDbEntity
  8
CURVE
100
AcDbLine
 62
250
  6
CONTINUOUS
 10
134.1181432479
 20
137.7322224369
 11
134.1299605445
 21
137.7322224369
  0
LWPOLYLINE
  5
2CC
100
AcDbEntity
  8
0
100
AcDbPolyline
 62
7
  6
CONTINUOUS
 90
3
 70
0
 43
0.3499999917
 10
123.5080187988
 20
221.0294934082
 10
123.4365875244
 20
220.8152124023
 10
123.2937249756
 20
220.5294873047
  0
LWPOLYLINE
  5
2CD
100
AcDbEntity
  8
0
100
AcDbPolyline
 62
7
  6
CONTINUOUS
 90
4
 70
0
 43
0.3499999917
 10
120.4365893555
 20
223.1009362793
 10
120.4365893555
 20
223.7437792969
 10
121.9365820312
 20
223.7437792969
 10
121.0794451904
 20
220.7437939453
  0
LWPOLYLINE
  5
2CE
100
AcDbEntity
  8
0
100
AcDbPolyline
 62
7
  6
CONTINUOUS
 90
4
 70
0
 43
0.3499999917
 10
124.5080181885
 20
221.172355957
 10
124.5080181885
 20
222.0295056152
 10
124.9365802002
 20
222.458067627
 10
125.5794488525
 20
222.458067627
  0
LWPOLYLINE
  5
2CF
100
AcDbEntity
  8
CURVE
100
AcDbPolyline
 62
250
  6
CONTINUOUS
 90
32
 70
0
 10
133.0869941414
 20
136.658992957
 10
133.0814937845
 20
136.6970601207
 10
133.0762043749
 20
136.735186541
 10
133.0711561027
 20
136.7733680955
 10
133.0663791583
 20
136.8116006616
 10
133.061903732
 20
136.8498801172
 10
133.0577600141
 20
136.8882023397
 10
133.0539781949
 20
136.9265632068
 10
133.0505884646
 20
136.964958596
 10
133.0476210136
 20
137.0033843851
 10
133.0451060322
 20
137.0418364517
 10
133.0430737107
 20
137.0803106732
 10
133.0415542393
 20
137.1188029274
 10
133.0405778084
 20
137.1573090919
 10
133.0401746083
 20
137.1958250442
 10
133.0403748293
 20
137.2343466621
 10
133.0412086616
 20
137.272869823
 10
133.0427062955
 20
137.3113904047
 10
133.0448979214
 20
137.3499042847
 10
133.0478137296
 20
137.3884073406
 10
133.0501724097
 20
137.4139966022
 10
133.0528992744
 20
137.4395587664
 10
133.0560290112
 20
137.4650733433
 10
133.0595963077
 20
137.490519843
 10
133.0636358512
 20
137.5158777758
 10
133.0681823294
 20
137.5411266518
 10
133.0732704297
 20
137.566245981
 10
133.0789348395
 20
137.5912152738
 10
133.0852102464
 20
137.6160140403
 10
133.0921313379
 20
137.6406217905
 10
133.0997328015
 20
137.6650180347
 10
133.1080493247
 20
137.689182283
  0
LINE
  5
2D0
100
AcDbEntity
  8
RACCORDO
100
AcDbLine
 62
7
  6
CONTINUOUS
 10
131.6164817232
 20
125.3557441253
 11
131.6164817232
 21
212.3557441253
  0
LINE
  5
2D1
100
AcDbEntity
  8
ASSI
100
AcDbLine
 62
7
  6
CONTINUOUS
 10
131.6164817232
 20
125.3557441253
 11
131.6164817232
 21
212.3557441253
  0
LINE
  5
2D2
100
AcDbEntity
  8
RACCORDO
100
AcDbLine
 62
250
  6
CONTINUOUS
 10
132.1164817232
 20
124.8557441253
 11
132.1164817232
 21
212.8557441253
  0
LINE
  5
2D3
100
AcDbEntity
  8
ASSI
100
AcDbLine
 62
250
  6
CONTINUOUS
 10
132.1164817232
 20
124.8557441253
 11
132.1164817232
 21
212.8557441253
  0
LWPOLYLINE
  5
2D4
100
AcDbEntity
  8
CURVE
100
AcDbPolyline
 62
250
  6
CONTINUOUS
 90
59
 70
0
 10
133.9533159551
 20
137.299481434
 10
133.9530695197
 20
137.3080424394
 10
133.9527072946
 20
137.3166625135
 10
133.9522234606
 20
137.3253314007
 10
133.9516121988
 20
137.3340388455
 10
133.9508676898
 20
137.3427745923
 10
133.9499841146
 20
137.3515283857
 10
133.948955654
 20
137.3602899701
 10
133.947776489
 20
137.3690490899
 10
133.9464408004
 20
137.3777954896
 10
133.944942769
 20
137.3865189138
 10
133.9432765757
 20
137.3952091069
 10
133.9414364014
 20
137.4038558133
 10
133.9394164269
 20
137.4124487776
 10
133.9372108332
 20
137.4209777442
 10
133.934813801
 20
137.4294324576
 10
133.9322195114
 20
137.4378026622
 10
133.929422145
 20
137.4460781026
 10
133.9264158828
 20
137.4542485232
 10
133.9231949057
 20
137.4623036685
 10
133.9197533945
 20
137.4702332829
 10
133.9160855301
 20
137.4780271109
 10
133.9121854934
 20
137.485674897
 10
133.9080474652
 20
137.4931663858
 10
133.9036656264
 20
137.5004913215
 10
133.8990341579
 20
137.5076394488
 10
133.8941472405
 20
137.5146005121
 10
133.8889990551
 20
137.5213642558
 10
133.8835837825
 20
137.5279204245
 10
133.8778191721
 20
137.534345395
 10
133.8717861498
 20
137.5405466544
 10
133.8654966998
 20
137.5465243005
 10
133.8589628062
 20
137.5522784311
 10
133.8521964532
 20
137.557809144
 10
133.8452096249
 20
137.563116537
 10
133.8380143057
 20
137.5682007078
 10
133.8306224796
 20
137.5730617543
 10
133.8230461309
 20
137.5776997743
 10
133.8152972436
 20
137.5821148655
 10
133.8073878021
 20
137.5863071257
 10
133.7993297904
 20
137.5902766528
 10
133.7911351927
 20
137.5940235445
 10
133.7828159933
 20
137.5975478986
 10
133.7743841763
 20
137.6008498129
 10
133.7658517258
 20
137.6039293852
 10
133.7572306261
 20
137.6067867133
 10
133.7485328614
 20
137.609421895
 10
133.7397704157
 20
137.6118350281
 10
133.7309552733
 20
137.6140262103
 10
133.7220994185
 20
137.6159955395
 10
133.7132148352
 20
137.6177431135
 10
133.7043135078
 20
137.61926903
 10
133.6954074204
 20
137.6205733868
 10
133.6865085572
 20
137.6216562818
 10
133.6776289023
 20
137.6225178127
 10
133.66878044
 20
137.6231580773
 10
133.6599751544
 20
137.6235771734
 10
133.6512250297
 20
137.6237751988
 10
133.64254205
 20
137.6237522513
  0
LINE
  5
2D5
100
AcDbEntity
  8
CURVE
100
AcDbLine
 62
250
  6
CONTINUOUS
 10
133.0635087232
 20
132.1558081253
 11
133.0635087232
 21
132.5732521253
  0
LINE
  5
2D6
100
AcDbEntity
  8
CURVE
100
AcDbLine
 62
250
  6
CONTINUOUS
 10
133.0636287232
 20
135.9228111253
 11
133.0636287232
 21
135.5189841253
  0
LINE
  5
2D7
100
AcDbEntity
  8
CURVE
100
AcDbLine
 62
250
  6
CONTINUOUS
 10
133.0636287232
 20
134.6391501253
 11
133.0636287232
 21
134.2261291253
  0
LINE
  5
2D8
100
AcDbEntity
  8
CURVE
100
AcDbLine
 62
250
  6
CONTINUOUS
 10
133.0636287232
 20
133.3956491253
 11
133.0636287232
 21
132.9785501253
  0
LINE
  5
2D9
100
AcDbEntity
  8
CURVE
100
AcDbLine
 62
250
  6
CONTINUOUS
 10
133.0636287232
 20
132.0008931253
 11
133.0636287232
 21
131.5837331253
  0
LINE
  5
2DA
100
AcDbEntity
  8
CURVE
100
AcDbLine
 62
250
  6
CONTINUOUS
 10
133.0636287232
 20
130.8096781253
 11
133.0636287232
 21
130.3562051253
  0
LINE
  5
2DB
100
AcDbEntity
  8
CURVE
100
AcDbLine
 62
250
  6
CONTINUOUS
 10
133.9533159551
 20
137.06091601
 11
133.9533159551
 21
137.299481434
  0
LINE
  5
2DC
100
AcDbEntity
  8
CURVE
100
AcDbLine
 62
250
  6
CONTINUOUS
 10
134.2808410279
 20
137.2985816398
 11
134.2808410279
 21
137.0747578434
  0
LINE
  5
2DD
100
AcDbEntity
  8
CURVE
100
AcDbLine
 62
250
  6
CONTINUOUS
 10
134.3552987232
 20
135.9048751253
 11
134.3552987232
 21
135.5052021253
  0
LINE
  5
2DE
100
AcDbEntity
  8
CURVE
100
AcDbLine
 62
250
  6
CONTINUOUS
 10
134.6642277232
 20
135.4198111253
 11
134.6642277232
 21
135.9883011253
  0
LINE
  5
2DF
100
AcDbEntity
  8
CURVE
100
AcDbLine
 62
250
  6
CONTINUOUS
 10
135.0634667232
 20
132.5732521253
 11
135.0634667232
 21
132.1558081253
  0
LINE
  5
2E0
100
AcDbEntity
  8
CURVE
100
AcDbLine
 62
250
  6
CONTINUOUS
 10
135.0634667232
 20
130.9901921253
 11
135.0634667232
 21
131.3580651253
  0
LINE
  5
2E1
100
AcDbEntity
  8
CURVE
100
AcDbLine
 62
250
  6
CONTINUOUS
 10
135.0634667232
 20
132.7979761253
 11
135.0634667232
 21
133.1973341253
  0
LINE
  5
2E2
100
AcDbEntity
  8
CURVE
100
AcDbLine
 62
250
  6
CONTINUOUS
 10
135.0634667232
 20
133.7771321253
 11
135.0634667232
 21
133.8356781253
  0
LINE
  5
2E3
100
AcDbEntity
  8
CURVE
100
AcDbLine
 62
250
  6
CONTINUOUS
 10
135.0634667232
 20
134.4177861253
 11
135.0634667232
 21
134.8261571253
  0
LINE
  5
2E4
100
AcDbEntity
  8
CURVE
100
AcDbLine
 62
250
  6
CONTINUOUS
 10
135.0634667232
 20
134.8917071253
 11
135.0634667232
 21
135.3046231253
  0
LINE
  5
2E5
100
AcDbEntity
  8
CURVE
100
AcDbLine
 62
250
  6
CONTINUOUS
 10
135.0634667232
 20
136.0964421253
 11
135.0634667232
 21
136.5364111253
  0
LINE
  5
2E6
100
AcDbEntity
  8
CURVE
100
AcDbLine
 62
250
  6
CONTINUOUS
 10
135.0634669885
 20
138.115549744
 11
135.0634669885
 21
137.7140166018
  0
LINE
  5
2E7
100
AcDbEntity
  8
CURVE
100
AcDbLine
 62
250
  6
CONTINUOUS
 10
135.0634669885
 20
137.0747578434
 11
135.0634669885
 21
136.658992957
  0
LINE
  5
2E8
100
AcDbEntity
  8
SUPERFICI
100
AcDbLine
 62
7
  6
CONTINUOUS
 10
136.5164817232
 20
124.8557441253
 11
136.5164817232
 21
212.8557441253
  0
LINE
  5
2E9
100
AcDbEntity
  8
ASSI
100
AcDbLine
 62
7
  6
CONTINUOUS
 10
136.5164817232
 20
124.8557441253
 11
136.5164817232
 21
212.8557441253
  0
LWPOLYLINE
  5
2EA
100
AcDbEntity
  8
CURVE
100
AcDbPolyline
 62
250
  6
CONTINUOUS
 90
22
 70
0
 10
133.39254801
 20
137.3879355965
 10
133.390828296
 20
137.3720733738
 10
133.3893467886
 20
137.3561771596
 10
133.3881034106
 20
137.3402519101
 10
133.3870980848
 20
137.3243025811
 10
133.3863307341
 20
137.3083341287
 10
133.3858012813
 20
137.2923515086
 10
133.3855096493
 20
137.2763596769
 10
133.3854557609
 20
137.2603635896
 10
133.3856395389
 20
137.2443682025
 10
133.3860609061
 20
137.2283784716
 10
133.3867197855
 20
137.2123993528
 10
133.3876160999
 20
137.1964358022
 10
133.388749772
 20
137.1804927755
 10
133.3901207248
 20
137.1645752288
 10
133.3917288811
 20
137.1486881181
 10
133.3934274727
 20
137.1339982424
 10
133.3953109956
 20
137.119336219
 10
133.397360807
 20
137.1046995159
 10
133.3995582645
 20
137.0900856012
 10
133.4018847254
 20
137.0754919432
 10
133.4043215472
 20
137.06091601
  0
LINE
  5
2EB
100
AcDbEntity
  8
RACCORDO
100
AcDbLine
 62
250
  6
CONTINUOUS
 10
139.2231028947
 20
211.2409939479
 11
139.2234722981
 21
211.2073676666
  0
LINE
  5
2EC
100
AcDbEntity
  8
RACCORDO
100
AcDbLine
 62
250
  6
CONTINUOUS
 10
139.2234722981
 20
211.2073676666
 11
139.2238082373
 21
211.1376040715
  0
LINE
  5
2ED
100
AcDbEntity
  8
RACCORDO
100
AcDbLine
 62
250
  6
CONTINUOUS
 10
139.2217171129
 20
127.134199111
 11
139.2237208715
 21
126.75335514
  0
LINE
  5
2EE
100
AcDbEntity
  8
RACCORDO
100
AcDbLine
 62
250
  6
CONTINUOUS
 10
139.2217171129
 20
210.5772891396
 11
139.2217171129
 21
127.134199111
  0
LINE
  5
2EF
100
AcDbEntity
  8
RACCORDO
100
AcDbLine
 62
7
  6
CONTINUOUS
 10
139.4164817232
 20
211.0771178021
 11
139.4164817232
 21
126.6343704485
  0
LINE
  5
2F0
100
AcDbEntity
  8
RACCORDO
100
AcDbLine
 62
250
  6
CONTINUOUS
 10
139.2237208715
 20
126.75335514
 11
139.2238382622
 21
126.5885027211
  0
LINE
  5
2F1
100
AcDbEntity
  8
RACCORDO
100
AcDbLine
 62
250
  6
CONTINUOUS
 10
139.2238082373
 20
211.1376040715
 11
139.2237682902
 21
210.9775236697
  0
LINE
  5
2F2
100
AcDbEntity
  8
RACCORDO
100
AcDbLine
 62
250
  6
CONTINUOUS
 10
139.2238382622
 20
126.5885027211
 11
139.2235468966
 21
126.5146302123
  0
LWPOLYLINE
  5
2F3
100
AcDbEntity
  8
RACCORDO
100
AcDbPolyline
 62
250
  6
CONTINUOUS
 90
3
 70
0
 10
139.2237682902
 20
210.9775236697
 10
139.2220775981
 20
210.6274399111
 10
139.2217171129
 20
210.5772891396
  0
LWPOLYLINE
  5
2F4
100
AcDbEntity
  8
RACCORDO
100
AcDbPolyline
 62
250
  6
CONTINUOUS
 90
7
 70
0
 10
139.2235468966
 20
126.5146302123
 10
139.2231954248
 20
126.4769302083
 10
139.2229660891
 20
126.4620522862
 10
139.2227021373
 20
126.4501964181
 10
139.2224054397
 20
126.4415456658
 10
139.2220763599
 20
126.4362435242
 10
139.2217171129
 20
126.4344389835
  0
LWPOLYLINE
  5
2F5
100
AcDbEntity
  8
CURVE
100
AcDbPolyline
 62
250
  6
CONTINUOUS
 90
73
 70
0
 10
133.1080493247
 20
137.689182283
 10
133.1131748216
 20
137.7024578427
 10
133.1188634957
 20
137.7155101611
 10
133.1250722805
 20
137.7283399049
 10
133.1317581094
 20
137.7409477406
 10
133.1388779156
 20
137.753334335
 10
133.1463886325
 20
137.7655003546
 10
133.1542471936
 20
137.7774464661
 10
133.1655323648
 20
137.7934756488
 10
133.1773798071
 20
137.8090736959
 10
133.1897781489
 20
137.8242221215
 10
133.2027160183
 20
137.8389024398
 10
133.2161820435
 20
137.8530961648
 10
133.2301648527
 20
137.8667848107
 10
133.2446530741
 20
137.8799498916
 10
133.2605283141
 20
137.8932984099
 10
133.2769259959
 20
137.9060210971
 10
133.2938147226
 20
137.9180997826
 10
133.3111630973
 20
137.9295162953
 10
133.3289397231
 20
137.9402524646
 10
133.3471132031
 20
137.9502901196
 10
133.3656521406
 20
137.9596110895
 10
133.3845251385
 20
137.9681972035
 10
133.4021296116
 20
137.9754243526
 10
133.4199671149
 20
137.9820206453
 10
133.4380152846
 20
137.9879906449
 10
133.456251757
 20
137.9933389147
 10
133.4746541683
 20
137.998070018
 10
133.4952947588
 20
138.0026164661
 10
133.5160874137
 20
138.0064283823
 10
133.5370065124
 20
138.0095293773
 10
133.5580264343
 20
138.0119430615
 10
133.5791215586
 20
138.0136930455
 10
133.6008075926
 20
138.0148167377
 10
133.6225184312
 20
138.0152542131
 10
133.6442267281
 20
138.0149925086
 10
133.6659051371
 20
138.0140186614
 10
133.6875263119
 20
138.0123197084
 10
133.7090629065
 20
138.0098826867
 10
133.7278123141
 20
138.0071356684
 10
133.7464655979
 20
138.0038059893
 10
133.7650122773
 20
137.9998856571
 10
133.7834418713
 20
137.9953666793
 10
133.8017438994
 20
137.9902410636
 10
133.8199078807
 20
137.9845008175
 10
133.8379344986
 20
137.9781347325
 10
133.8557715482
 20
137.9711537874
 10
133.8733782571
 20
137.9635668707
 10
133.8907138531
 20
137.9553828707
 10
133.9077375637
 20
137.9466106759
 10
133.9244086168
 20
137.9372591746
 10
133.9406862399
 20
137.9273372553
 10
133.9565296607
 20
137.9168538063
 10
133.9718981069
 20
137.9058177161
 10
133.9867508062
 20
137.894237873
 10
134.0000228409
 20
137.8830408724
 10
134.0128769
 20
137.8714033386
 10
134.0253721043
 20
137.8593432702
 10
134.0375675746
 20
137.8468786659
 10
134.0495224316
 20
137.8340275243
 10
134.061295796
 20
137.8208078441
 10
134.0729467887
 20
137.807237624
 10
134.0845345303
 20
137.7933348626
 10
134.0891185511
 20
137.7877229503
 10
134.0936279681
 20
137.7820447044
 10
134.0979888285
 20
137.7762833891
 10
134.1021271798
 20
137.7704222688
 10
134.1059690693
 20
137.7644446075
 10
134.1094405444
 20
137.7583336697
 10
134.1124676524
 20
137.7520727195
 10
134.1149764407
 20
137.7456450211
 10
134.1168929568
 20
137.7390338388
 10
134.1181432479
 20
137.7322224369
  0
LWPOLYLINE
  5
2F6
100
AcDbEntity
  8
CURVE
100
AcDbPolyline
 62
250
  6
CONTINUOUS
 90
45
 70
0
 10
134.1299605445
 20
137.7322224369
 10
134.1333781347
 20
137.7403262621
 10
134.1370940773
 20
137.7482601842
 10
134.1410996826
 20
137.7560260286
 10
134.1453862609
 20
137.7636256207
 10
134.1499451223
 20
137.7710607859
 10
134.1547675771
 20
137.7783333498
 10
134.1598449357
 20
137.7854451378
 10
134.1651685082
 20
137.7923979753
 10
134.1707296049
 20
137.7991936878
 10
134.176519536
 20
137.8058341007
 10
134.1825296118
 20
137.8123210395
 10
134.1887511426
 20
137.8186563297
 10
134.1951754387
 20
137.8248417966
 10
134.2017938101
 20
137.8308792658
 10
134.2085975673
 20
137.8367705626
 10
134.2155780205
 20
137.8425175126
 10
134.2227264799
 20
137.8481219411
 10
134.2300342558
 20
137.8535856737
 10
134.2374926583
 20
137.8589105358
 10
134.2450929979
 20
137.8640983529
 10
134.2528265847
 20
137.8691509503
 10
134.2606847291
 20
137.8740701536
 10
134.2686587411
 20
137.8788577882
 10
134.2767399312
 20
137.8835156795
 10
134.2849196095
 20
137.888045653
 10
134.2931890863
 20
137.8924495341
 10
134.3015396718
 20
137.8967291484
 10
134.3099626764
 20
137.9008863212
 10
134.3184494102
 20
137.904922878
 10
134.3269911836
 20
137.9088406442
 10
134.3355793067
 20
137.9126414454
 10
134.3442050898
 20
137.9163271069
 10
134.3528598432
 20
137.9198994542
 10
134.3615348772
 20
137.9233603127
 10
134.3702215019
 20
137.926711508
 10
134.3789110277
 20
137.9299548654
 10
134.3875947647
 20
137.9330922104
 10
134.3962640233
 20
137.9361253685
 10
134.4049101137
 20
137.9390561651
 10
134.4135243462
 20
137.9418864257
 10
134.4292052578
 20
137.9468238624
 10
134.4447823619
 20
137.9514901385
 10
134.4602878823
 20
137.9559452521
 10
134.4757540427
 20
137.9602492016
  0
LWPOLYLINE
  5
2F7
100
AcDbEntity
  8
0
100
AcDbPolyline
 62
7
  6
CONTINUOUS
 90
10
 70
0
 43
0.3499999917
 10
123.4365875244
 20
221.2437744141
 10
123.5080187988
 20
221.1009375
 10
123.5080187988
 20
221.0294934082
 10
123.36515625
 20
220.8866308594
 10
123.2937249756
 20
220.8866308594
 10
123.2222937012
 20
220.9580749512
 10
123.2222937012
 20
221.0294934082
 10
123.2937249756
 20
221.172355957
 10
123.36515625
 20
221.2437744141
 10
123.4365875244
 20
221.2437744141
  0
LWPOLYLINE
  5
2F8
100
AcDbEntity
  8
RACCORDO
100
AcDbPolyline
 62
250
  6
CONTINUOUS
 90
6
 70
0
 10
139.2217171129
 20
211.2770492671
 10
139.2220442764
 20
211.2755491976
 10
139.2223496104
 20
211.2711088276
 10
139.2226301563
 20
211.2638001285
 10
139.2228808801
 20
211.2537361109
 10
139.2231028947
 20
211.2409939479
  0
LWPOLYLINE
  5
2F9
100
AcDbEntity
  8
CURVE
100
AcDbPolyline
 62
250
  6
CONTINUOUS
 90
48
 70
0
 10
134.4570507169
 20
137.5314783606
 10
134.450895132
 20
137.5290950813
 10
134.4447590926
 20
137.5265722232
 10
134.4386486501
 20
137.523911175
 10
134.4325698558
 20
137.5211133256
 10
134.4265287611
 20
137.5181800636
 10
134.4205314175
 20
137.515112778
 10
134.4145838764
 20
137.5119128575
 10
134.4086921892
 20
137.5085816909
 10
134.4028624073
 20
137.505120667
 10
134.3971005821
 20
137.5015311746
 10
134.3914127649
 20
137.4978146025
 10
134.3858050073
 20
137.4939723396
 10
134.3802833606
 20
137.4900057745
 10
134.3748538761
 20
137.4859162961
 10
134.3695226055
 20
137.4817052933
 10
134.3642955999
 20
137.4773741547
 10
134.3591789108
 20
137.4729242692
 10
134.3541785897
 20
137.4683570256
 10
134.349300688
 20
137.4636738127
 10
134.344551257
 20
137.4588760193
 10
134.3399363481
 20
137.4539650341
 10
134.3354620128
 20
137.4489422461
 10
134.3311343025
 20
137.4438090439
 10
134.3269592685
 20
137.4385668164
 10
134.3229429623
 20
137.4332169524
 10
134.3190914353
 20
137.4277608406
 10
134.3154107389
 20
137.4221998699
 10
134.3119069245
 20
137.4165354291
 10
134.3085860435
 20
137.4107689069
 10
134.3054541473
 20
137.4049016922
 10
134.3025866836
 20
137.399085489
 10
134.2999033501
 20
137.3931814702
 10
134.2974028116
 20
137.387196251
 10
134.2950837329
 20
137.3811364466
 10
134.2929447787
 20
137.3750086722
 10
134.290984614
 20
137.3688195429
 10
134.2892019033
 20
137.3625756739
 10
134.2875953116
 20
137.3562836804
 10
134.2861635036
 20
137.3499501776
 10
134.2849051441
 20
137.3435817807
 10
134.283818898
 20
137.3371851047
 10
134.2829034298
 20
137.3307667649
 10
134.2821574046
 20
137.3243333765
 10
134.281579487
 20
137.3178915546
 10
134.2811683418
 20
137.3114479144
 10
134.2809226339
 20
137.3050090711
 10
134.2808410279
 20
137.2985816398
  0
LWPOLYLINE
  5
2FA
100
AcDbEntity
  8
CURVE
100
AcDbPolyline
 62
250
  6
CONTINUOUS
 90
8
 70
0
 10
134.6532175384
 20
137.5953930135
 10
134.6249236543
 20
137.5870534212
 10
134.5966935354
 20
137.5785250893
 10
134.5685429329
 20
137.5697630473
 10
134.5404875984
 20
137.5607223242
 10
134.5125432833
 20
137.5513579493
 10
134.484725739
 20
137.5416249517
 10
134.4570507169
 20
137.5314783606
  0
LINE
  5
2FB
100
AcDbEntity
  8
CURVE
100
AcDbLine
 62
250
  6
CONTINUOUS
 10
135.0634669885
 20
137.7140166018
 11
134.795092134
 21
137.6358338624
  0
LINE
  5
2FC
100
AcDbEntity
  8
CURVE
100
AcDbLine
 62
250
  6
CONTINUOUS
 10
134.7099335958
 20
137.6116858633
 11
134.6532175384
 21
137.5953930135
  0
LINE
  5
2FD
100
AcDbEntity
  8
CURVE
100
AcDbLine
 62
250
  6
CONTINUOUS
 10
133.7576097232
 20
133.2874181253
 11
135.0634667232
 21
133.7771321253
  0
LINE
  5
2FE
100
AcDbEntity
  8
CURVE
100
AcDbLine
 62
250
  6
CONTINUOUS
 10
134.1739447232
 20
133.8086851253
 11
133.0636287232
 21
133.3956491253
  0
LINE
  5
2FF
100
AcDbEntity
  8
CURVE
100
AcDbLine
 62
250
  6
CONTINUOUS
 10
135.0634667232
 20
136.5364111253
 11
133.0636287232
 21
135.9228111253
  0
LINE
  5
300
100
AcDbEntity
  8
CURVE
100
AcDbLine
 62
250
  6
CONTINUOUS
 10
133.0636287232
 20
130.3562051253
 11
135.0634667232
 21
130.9901921253
  0
LWPOLYLINE
  5
301
100
AcDbEntity
  8
0
100
AcDbPolyline
 62
7
  6
CONTINUOUS
 90
13
 70
0
 43
0.3499999917
 10
124.9365802002
 20
222.458067627
 10
124.6508679199
 20
222.6723486328
 10
124.6508679199
 20
223.3152172852
 10
124.9365802002
 20
223.7437792969
 10
125.5794488525
 20
223.7437792969
 10
125.8651611328
 20
223.3152172852
 10
125.8651611328
 20
222.6723486328
 10
125.5794488525
 20
222.458067627
 10
126.0080108643
 20
222.0295056152
 10
126.0080108643
 20
221.172355957
 10
125.5794488525
 20
220.7437939453
 10
124.9365802002
 20
220.7437939453
 10
124.5080181885
 20
221.172355957
  0
LINE
  5
302
100
AcDbEntity
  8
RACCORDO
100
AcDbLine
 62
250
  6
CONTINUOUS
 10
139.4164817232
 20
210.5772891396
 11
139.2217171129
 21
210.5772891396
  0
LINE
  5
303
100
AcDbEntity
  8
RACCORDO
100
AcDbLine
 62
7
  6
CONTINUOUS
 10
136.5164817232
 20
212.8557441253
 11
132.1164817232
 21
212.8557441253
  0
LINE
  5
304
100
AcDbEntity
  8
ASSI
100
AcDbLine
 62
7
  6
CONTINUOUS
 10
136.5164817232
 20
212.8557441253
 11
132.1164817232
 21
212.8557441253
  0
LINE
  5
305
100
AcDbEntity
  8
RACCORDO
100
AcDbLine
 62
250
  6
CONTINUOUS
 10
136.5164817232
 20
210.6481282214
 11
139.2217171129
 21
210.5772891396
  0
LINE
  5
306
100
AcDbEntity
  8
RACCORDO
100
AcDbLine
 62
7
  6
CONTINUOUS
 10
136.5164817232
 20
211.3478883489
 11
139.2217171129
 21
211.2770492671
  0
ARC
  5
307
100
AcDbEntity
  8
RACCORDO
100
AcDbCircle
 62
250
  6
CONTINUOUS
 10
201.3638381201
 20
142.6307441253
 40
0.9
100
AcDbArc
 50
180.0
 51
270.0
  0
ARC
  5
308
100
AcDbEntity
  8
RACCORDO
100
AcDbCircle
 62
250
  6
CONTINUOUS
 10
245.7138381201
 20
142.6307441253
 40
0.9
100
AcDbArc
 50
270.0
 51
360.0
  0
ARC
  5
309
100
AcDbEntity
  8
ASSI
100
AcDbCircle
 62
250
  6
CONTINUOUS
 10
201.3638381201
 20
142.6307441253
 40
0.9
100
AcDbArc
 50
180.0
 51
270.0
  0
ARC
  5
30A
100
AcDbEntity
  8
ASSI
100
AcDbCircle
 62
250
  6
CONTINUOUS
 10
245.7138381201
 20
142.6307441253
 40
0.9
100
AcDbArc
 50
270.0
 51
360.0
  0
ARC
  5
30B
100
AcDbEntity
  8
RACCORDO
100
AcDbCircle
 62
7
  6
CONTINUOUS
 10
246.8838381201
 20
150.5557441253
 40
0.6
100
AcDbArc
 50
161.9082716381
 51
198.1091663228
  0
ARC
  5
30C
100
AcDbEntity
  8
RACCORDO
100
AcDbCircle
 62
7
  6
CONTINUOUS
 10
200.1938381201
 20
150.5557441253
 40
0.6
100
AcDbArc
 50
341.9082715807
 51
18.1091668688
  0
ARC
  5
30D
100
AcDbEntity
  8
RACCORDO
100
AcDbCircle
 62
7
  6
CONTINUOUS
 10
201.3638381201
 20
142.6307441253
 40
0.6
100
AcDbArc
 50
180.0
 51
270.0
  0
ARC
  5
30E
100
AcDbEntity
  8
RACCORDO
100
AcDbCircle
 62
7
  6
CONTINUOUS
 10
245.7138381201
 20
142.6307441253
 40
0.6
100
AcDbArc
 50
270.0
 51
360.0
  0
ARC
  5
30F
100
AcDbEntity
  8
ASSI
100
AcDbCircle
 62
7
  6
CONTINUOUS
 10
201.3638381201
 20
142.6307441253
 40
0.6
100
AcDbArc
 50
180.0
 51
270.0
  0
ARC
  5
310
100
AcDbEntity
  8
ASSI
100
AcDbCircle
 62
7
  6
CONTINUOUS
 10
245.7138381201
 20
142.6307441253
 40
0.6
100
AcDbArc
 50
270.0
 51
360.0
  0
ARC
  5
311
100
AcDbEntity
  8
RACCORDO
100
AcDbCircle
 62
250
  6
CONTINUOUS
 10
201.3638381201
 20
195.0807441253
 40
0.9
100
AcDbArc
 50
90.0
 51
180.0
  0
ARC
  5
312
100
AcDbEntity
  8
RACCORDO
100
AcDbCircle
 62
250
  6
CONTINUOUS
 10
245.7138381201
 20
195.0807441253
 40
0.9
100
AcDbArc
 50
0.0
 51
90.0
  0
ARC
  5
313
100
AcDbEntity
  8
ASSI
100
AcDbCircle
 62
250
  6
CONTINUOUS
 10
201.3638381201
 20
195.0807441253
 40
0.9
100
AcDbArc
 50
90.0
 51
180.0
  0
ARC
  5
314
100
AcDbEntity
  8
ASSI
100
AcDbCircle
 62
250
  6
CONTINUOUS
 10
245.7138381201
 20
195.0807441253
 40
0.9
100
AcDbArc
 50
0.0
 51
90.0
  0
ARC
  5
315
100
AcDbEntity
  8
RACCORDO
100
AcDbCircle
 62
7
  6
CONTINUOUS
 10
246.8838381201
 20
187.1557441253
 40
0.6
100
AcDbArc
 50
161.9082716381
 51
198.1091663228
  0
ARC
  5
316
100
AcDbEntity
  8
RACCORDO
100
AcDbCircle
 62
7
  6
CONTINUOUS
 10
200.1938381201
 20
187.1557441253
 40
0.6
100
AcDbArc
 50
341.9082715807
 51
18.1091668688
  0
ARC
  5
317
100
AcDbEntity
  8
RACCORDO
100
AcDbCircle
 62
7
  6
CONTINUOUS
 10
201.3638381201
 20
195.0807441253
 40
0.6
100
AcDbArc
 50
90.0
 51
180.0
  0
ARC
  5
318
100
AcDbEntity
  8
RACCORDO
100
AcDbCircle
 62
7
  6
CONTINUOUS
 10
245.7138381201
 20
195.0807441253
 40
0.6
100
AcDbArc
 50
0.0
 51
90.0
  0
ARC
  5
319
100
AcDbEntity
  8
ASSI
100
AcDbCircle
 62
7
  6
CONTINUOUS
 10
201.3638381201
 20
195.0807441253
 40
0.6
100
AcDbArc
 50
90.0
 51
180.0
  0
ARC
  5
31A
100
AcDbEntity
  8
ASSI
100
AcDbCircle
 62
7
  6
CONTINUOUS
 10
245.7138381201
 20
195.0807441253
 40
0.6
100
AcDbArc
 50
0.0
 51
90.0
  0
ARC
  5
31B
100
AcDbEntity
  8
RACCORDO
100
AcDbCircle
 62
250
  6
CONTINUOUS
 10
272.3638381201
 20
142.6307441253
 40
0.9
100
AcDbArc
 50
180.0
 51
270.0
  0
ARC
  5
31C
100
AcDbEntity
  8
RACCORDO
100
AcDbCircle
 62
250
  6
CONTINUOUS
 10
316.7138381201
 20
142.6307441253
 40
0.9
100
AcDbArc
 50
270.0
 51
360.0
  0
ARC
  5
31D
100
AcDbEntity
  8
ASSI
100
AcDbCircle
 62
250
  6
CONTINUOUS
 10
272.3638381201
 20
142.6307441253
 40
0.9
100
AcDbArc
 50
180.0
 51
270.0
  0
ARC
  5
31E
100
AcDbEntity
  8
ASSI
100
AcDbCircle
 62
250
  6
CONTINUOUS
 10
316.7138381201
 20
142.6307441253
 40
0.9
100
AcDbArc
 50
270.0
 51
360.0
  0
ARC
  5
31F
100
AcDbEntity
  8
RACCORDO
100
AcDbCircle
 62
7
  6
CONTINUOUS
 10
271.1938381201
 20
150.5557441253
 40
0.6
100
AcDbArc
 50
341.9082716381
 51
18.1091663228
  0
ARC
  5
320
100
AcDbEntity
  8
RACCORDO
100
AcDbCircle
 62
7
  6
CONTINUOUS
 10
317.8838381201
 20
150.5557441253
 40
0.6
100
AcDbArc
 50
161.9082715807
 51
198.1091668688
  0
ARC
  5
321
100
AcDbEntity
  8
RACCORDO
100
AcDbCircle
 62
7
  6
CONTINUOUS
 10
316.7138381201
 20
142.6307441253
 40
0.6
100
AcDbArc
 50
270.0
 51
360.0
  0
ARC
  5
322
100
AcDbEntity
  8
RACCORDO
100
AcDbCircle
 62
7
  6
CONTINUOUS
 10
272.3638381201
 20
142.6307441253
 40
0.6
100
AcDbArc
 50
180.0
 51
270.0
  0
ARC
  5
323
100
AcDbEntity
  8
ASSI
100
AcDbCircle
 62
7
  6
CONTINUOUS
 10
316.7138381201
 20
142.6307441253
 40
0.6
100
AcDbArc
 50
270.0
 51
360.0
  0
ARC
  5
324
100
AcDbEntity
  8
ASSI
100
AcDbCircle
 62
7
  6
CONTINUOUS
 10
272.3638381201
 20
142.6307441253
 40
0.6
100
AcDbArc
 50
180.0
 51
270.0
  0
ARC
  5
325
100
AcDbEntity
  8
RACCORDO
100
AcDbCircle
 62
250
  6
CONTINUOUS
 10
316.7138381201
 20
195.0807441253
 40
0.9
100
AcDbArc
 50
0.0
 51
90.0
  0
ARC
  5
326
100
AcDbEntity
  8
RACCORDO
100
AcDbCircle
 62
250
  6
CONTINUOUS
 10
272.3638381201
 20
195.0807441253
 40
0.9
100
AcDbArc
 50
90.0
 51
180.0
  0
ARC
  5
327
100
AcDbEntity
  8
ASSI
100
AcDbCircle
 62
250
  6
CONTINUOUS
 10
316.7138381201
 20
195.0807441253
 40
0.9
100
AcDbArc
 50
0.0
 51
90.0
  0
ARC
  5
328
100
AcDbEntity
  8
ASSI
100
AcDbCircle
 62
250
  6
CONTINUOUS
 10
272.3638381201
 20
195.0807441253
 40
0.9
100
AcDbArc
 50
90.0
 51
180.0
  0
ARC
  5
329
100
AcDbEntity
  8
RACCORDO
100
AcDbCircle
 62
7
  6
CONTINUOUS
 10
271.1938381201
 20
187.1557441253
 40
0.6
100
AcDbArc
 50
341.9082716381
 51
18.1091663228
  0
ARC
  5
32A
100
AcDbEntity
  8
RACCORDO
100
AcDbCircle
 62
7
  6
CONTINUOUS
 10
317.8838381201
 20
187.1557441253
 40
0.6
100
AcDbArc
 50
161.9082715807
 51
198.1091668688
  0
ARC
  5
32B
100
AcDbEntity
  8
RACCORDO
100
AcDbCircle
 62
7
  6
CONTINUOUS
 10
316.7138381201
 20
195.0807441253
 40
0.6
100
AcDbArc
 50
0.0
 51
90.0
  0
ARC
  5
32C
100
AcDbEntity
  8
RACCORDO
100
AcDbCircle
 62
7
  6
CONTINUOUS
 10
272.3638381201
 20
195.0807441253
 40
0.6
100
AcDbArc
 50
90.0
 51
180.0
  0
ARC
  5
32D
100
AcDbEntity
  8
ASSI
100
AcDbCircle
 62
7
  6
CONTINUOUS
 10
316.7138381201
 20
195.0807441253
 40
0.6
100
AcDbArc
 50
0.0
 51
90.0
  0
ARC
  5
32E
100
AcDbEntity
  8
ASSI
100
AcDbCircle
 62
7
  6
CONTINUOUS
 10
272.3638381201
 20
195.0807441253
 40
0.6
100
AcDbArc
 50
90.0
 51
180.0
  0
ARC
  5
32F
100
AcDbEntity
  8
RACCORDO
100
AcDbCircle
 62
7
  6
CONTINUOUS
 10
132.1164817232
 20
212.3557441253
 40
0.5
100
AcDbArc
 50
90.0
 51
180.0
  0
ARC
  5
330
100
AcDbEntity
  8
RACCORDO
100
AcDbCircle
 62
7
  6
CONTINUOUS
 10
132.1164817232
 20
125.3557441253
 40
0.5
100
AcDbArc
 50
180.0
 51
270.0
  0
ARC
  5
331
100
AcDbEntity
  8
ASSI
100
AcDbCircle
 62
7
  6
CONTINUOUS
 10
132.1164817232
 20
212.3557441253
 40
0.5
100
AcDbArc
 50
90.0
 51
180.0
  0
ARC
  5
332
100
AcDbEntity
  8
ASSI
100
AcDbCircle
 62
7
  6
CONTINUOUS
 10
132.1164817232
 20
125.3557441253
 40
0.5
100
AcDbArc
 50
180.0
 51
270.0
  0
ARC
  5
333
100
AcDbEntity
  8
RACCORDO
100
AcDbCircle
 62
7
  6
CONTINUOUS
 10
139.2164817232
 20
211.0771178021
 40
0.2
100
AcDbArc
 50
0.0
 51
88.5
  0
ARC
  5
334
100
AcDbEntity
  8
RACCORDO
100
AcDbCircle
 62
7
  6
CONTINUOUS
 10
139.2164817232
 20
126.6343704485
 40
0.2
100
AcDbArc
 50
271.5
 51
360.0
  0
ENDSEC
  0
SECTION
  2
OBJECTS
  0
DICTIONARY
  5
C
100
AcDbDictionary
280
0
281
1
  3
ACAD_GROUP
350
D
  3
ACAD_MLINESTYLE
350
17
  3
ACAD_LAYOUT
350
1A
  3
ACAD_PLOTSETTINGS
350
19
  3
ACAD_PLOTSTYLENAME
350
E
  0
DICTIONARY
  5
D
102
{ACAD_REACTORS
330
C
102
}
100
AcDbDictionary
280
0
281
1
  0
ACDBDICTIONARYWDFLT
  5
E
102
{ACAD_REACTORS
330
C
102
}
100
AcDbDictionary
281
1
  3
Normal
350
F
100
AcDbDictionaryWithDefault
340
F
  0
DICTIONARY
  5
17
102
{ACAD_REACTORS
330
C
102
}
100
AcDbDictionary
280
0
281
1
  3
Standard
350
18
  0
DICTIONARY
  5
19
102
{ACAD_REACTORS
330
C
102
}
100
AcDbDictionary
281
1
  0
DICTIONARY
  5
1A
102
{ACAD_REACTORS
330
C
102
}
100
AcDbDictionary
281
1
  3
Model
350
335
  3
Layout1
350
336
  0
ACDBPLACEHOLDER
  5
F
102
{ACAD_REACTORS
330
E
102
}
  0
MLINESTYLE
  5
18
102
{ACAD_REACTORS
330
17
102
}
100
AcDbMlineStyle
  2
STANDARD
 70
0
  3

 62
256
 51
90.0
 52
90.0
 71
2
 49
0.5
 62
256
  6
BYLAYER
 49
-0.5
 62
256
  6
BYLAYER
  0
LAYOUT
  5
335
102
{ACAD_REACTORS
330
1A
102
}
100
AcDbPlotSettings
  1

  2
none_device
  4
ISO_A3_(420.00_x_297.00_MM)
  6

 40
0.0
 41
0.0
 42
0.0
 43
0.0
 44
420.0
 45
297.0
 46
0.0
 47
0.0
 48
0.0
 49
0.0
140
0.0
141
0.0
142
1.0
143
1.0
 70
1024
 72
1
 73
0
 74
0
  7

 75
0
147
1.0
148
0.0
149
0.0
100
AcDbLayout
  1
Model
 70
0
 71
0
 10
0.0
 20
0.0
 11
420.0
 21
297.0
 12
0.0
 22
0.0
 32
0.0
 14
0.0
 24
0.0
 34
0.0
 15
0.0
 25
0.0
 35
0.0
146
0.0
 13
0.0
 23
0.0
 33
0.0
 16
1.0
 26
0.0
 36
0.0
 17
0.0
 27
1.0
 37
0.0
 76
0
330
214
345
0
346
0
  0
LAYOUT
  5
336
102
{ACAD_REACTORS
330
1A
102
}
100
AcDbPlotSettings
  1

  2
none_device
  4
ISO_A3_(420.00_x_297.00_MM)
  6

 40
0.0
 41
0.0
 42
0.0
 43
0.0
 44
420.0
 45
297.0
 46
0.0
 47
0.0
 48
0.0
 49
0.0
140
0.0
141
0.0
142
1.0
143
1.0
 70
0
 72
1
 73
0
 74
0
  7

 75
0
147
1.0
148
0.0
149
0.0
100
AcDbLayout
  1
Layout1
 70
0
 71
1
 10
0.0
 20
0.0
 11
420.0
 21
297.0
 12
0.0
 22
0.0
 32
0.0
 14
0.0
 24
0.0
 34
0.0
 15
0.0
 25
0.0
 35
0.0
146
0.0
 13
0.0
 23
0.0
 33
0.0
 16
1.0
 26
0.0
 36
0.0
 17
0.0
 27
1.0
 37
0.0
 76
0
330
215
345
0
346
0
  0
ENDSEC
  0
EOF
