  0
SECTION
  2
HEADER
  9
$ACADVER
  1
AC1024
  9
$DWGCODEPAGE
  3
ANSI_1252
  9
$EXTMAX
 10
420.0
 20
297.0
 30
0.0
  9
$EXTMIN
 10
0.0
 20
0.0
 30
0.0
  9
$LIMMIN
 10
0.0
 20
0.0
  9
$LIMMAX
 10
420.0
 20
297.0
  9
$VIEWCTR
 10
210.0
 20
148.5
  9
$VIEWSIZE
 40
297.0
  9
$CLAYER
  8
0
  9
$LTSCALE
 40
23.1
  9
$CELTYPE
  6
BYLAYER
  9
$DIMSCALE
 40
1.0
  9
$DIMASZ
 40
3.0
  9
$DIMEXO
 40
0.5
  9
$DIMDLI
 40
15.96
  9
$DIMEXE
 40
1.5
  9
$DIMCEN
 40
3.78
  9
$DIMLFAC
 40
1.0
  9
$DIMBLK
  1
_FILLED
  9
$DIMALT
 70
0
  9
$DIMALTF
 40
0.0393700787
  9
$DIMTXT
 40
3.0
  9
$DIMTOL
 70
1
  9
$DIMLIM
 70
0
  9
$DIMTFAC
 40
1.0
  9
$DIMTP
 40
0.01
  9
$DIMTM
 40
0.01
  9
$DIMGAP
 40
0.625
  9
$DIMDSEP
 70
44
  9
$AUNITS
 70
0
  9
$PDMODE
 70
3
  9
$PDSIZE
 40
3.0
  9
$HANDSEED
  5
491
  9
$TILEMODE
 70
1
  9
$MEASUREMENT
 70
1
  9
$INSUNITS
 70
4
  0
ENDSEC
  0
SECTION
  2
CLASSES
  0
CLASS
  1
ACDBDICTIONARYWDFLT
  2
AcDbDictionaryWithDefault
  3
AutoCAD 2000
 90
0
 91
1
280
0
281
0
  0
CLASS
  1
ACDBPLACEHOLDER
  2
AcDbPlaceHolder
  3
AutoCAD 2000
 90
0
 91
1
280
0
281
0
  0
CLASS
  1
LAYOUT
  2
AcDbLayout
  3
AutoCAD 2000
 90
0
 91
0
280
0
281
0
  0
ENDSEC
  0
SECTION
  2
TABLES
  0
TABLE
  2
VPORT
  5
8
100
AcDbSymbolTable
 70
2
  0
VPORT
  5
1F4
100
AcDbSymbolTableRecord
100
AcDbViewportTableRecord
  2
*ACTIVE
 70
0
 10
0.0
 20
0.0
 11
1.0
 21
1.0
 12
210.0
 22
148.5
 13
0.0
 23
0.0
 14
1.0
 24
1.0
 15
0.0
 25
0.0
 16
0.0
 26
0.0
 36
1.0
 17
0.0
 27
0.0
 37
0.0
 40
297.0
 41
1.4141414141
 42
50.0
 43
0.0
 44
0.0
 50
0.0
 51
0.0
 71
0
 72
100
 73
1
 74
1
 75
0
 76
0
 77
0
 78
0
  0
ENDTAB
  0
TABLE
  2
LTYPE
  5
5
100
AcDbSymbolTable
 70
6
  0
LTYPE
  5
14
100
AcDbSymbolTableRecord
100
AcDbLinetypeTableRecord
  2
BYBLOCK
 70
0
  3

 72
65
 73
0
 40
0.0
  0
LTYPE
  5
15
100
AcDbSymbolTableRecord
100
AcDbLinetypeTableRecord
  2
BYLAYER
 70
0
  3

 72
65
 73
0
 40
0.0
  0
LTYPE
  5
16
100
AcDbSymbolTableRecord
100
AcDbLinetypeTableRecord
  2
CONTINUOUS
 70
64
  3
Solid line
 72
65
 73
0
 40
0.0
  0
LTYPE
  5
1F5
100
AcDbSymbolTableRecord
100
AcDbLinetypeTableRecord
  2
CENTER
 70
64
  3
____ _ ____ _ ____ _ ____ _ ____ _ ____ _ ____
 72
65
 73
4
 40
0.6
 49
0.375
 74
0
 49
-0.075
 74
0
 49
0.075
 74
0
 49
-0.075
 74
0
  0
LTYPE
  5
1F6
100
AcDbSymbolTableRecord
100
AcDbLinetypeTableRecord
  2
HIDDEN
 70
64
  3
- - - - - - - - - - - - - - - - - - - -
 72
65
 73
2
 40
0.2
 49
0.1
 74
0
 49
-0.1
 74
0
  0
LTYPE
  5
1F7
100
AcDbSymbolTableRecord
100
AcDbLinetypeTableRecord
  2
PHANTOM
 70
64
  3
_____ _ _ _____ _ _ _____ _ _ _____
 72
65
 73
6
 40
0.8
 49
0.45
 74
0
 49
-0.05
 74
0
 49
0.1
 74
0
 49
-0.05
 74
0
 49
0.1
 74
0
 49
-0.05
 74
0
  0
LTYPE
  5
1F8
100
AcDbSymbolTableRecord
100
AcDbLinetypeTableRecord
  2
DOT
 70
64
  3
. . . . . . . . . . . . . . . . . . . .
 72
65
 73
2
 40
0.2
 49
0.1
 74
0
 49
-0.1
 74
0
  0
LTYPE
  5
1F9
100
AcDbSymbolTableRecord
100
AcDbLinetypeTableRecord
  2
DASHED
 70
64
  3
- - - - - - - - - - - - - - - - - - - -
 72
65
 73
2
 40
0.2
 49
0.1
 74
0
 49
-0.1
 74
0
  0
ENDTAB
  0
TABLE
  2
LAYER
  5
2
100
AcDbSymbolTable
 70
36
  0
LAYER
  5
10
100
AcDbSymbolTableRecord
100
AcDbLayerTableRecord
  2
0
 70
0
 62
7
  6
CONTINUOUS
370
-3
390
F
  0
LAYER
  5
1FA
100
AcDbSymbolTableRecord
100
AcDbLayerTableRecord
  2
DEFAULT_1
 70
0
 62
7
  6
CENTER
370
-3
390
F
  0
LAYER
  5
1FB
100
AcDbSymbolTableRecord
100
AcDbLayerTableRecord
  2
DEFAULT_2
 70
0
 62
7
  6
HIDDEN
370
-3
390
F
  0
LAYER
  5
1FC
100
AcDbSymbolTableRecord
100
AcDbLayerTableRecord
  2
DEFAULT_3
 70
0
 62
7
  6
PHANTOM
370
-3
390
F
  0
LAYER
  5
1FD
100
AcDbSymbolTableRecord
100
AcDbLayerTableRecord
  2
ASSI
 70
0
 62
7
  6
CONTINUOUS
370
-3
390
F
  0
LAYER
  5
1FE
100
AcDbSymbolTableRecord
100
AcDbLayerTableRecord
  2
COORDINATE
 70
0
 62
7
  6
CONTINUOUS
370
-3
390
F
  0
LAYER
  5
1FF
100
AcDbSymbolTableRecord
100
AcDbLayerTableRecord
  2
COPY_PUBLISH
 70
0
 62
7
  6
CONTINUOUS
370
-3
390
F
  0
LAYER
  5
200
100
AcDbSymbolTableRecord
100
AcDbLayerTableRecord
  2
COSMETICI
 70
0
 62
7
  6
CONTINUOUS
370
-3
390
F
  0
LAYER
  5
201
100
AcDbSymbolTableRecord
100
AcDbLayerTableRecord
  2
CURVE
 70
0
 62
7
  6
CONTINUOUS
370
-3
390
F
  0
LAYER
  5
202
100
AcDbSymbolTableRecord
100
AcDbLayerTableRecord
  2
DRAFT
 70
0
 62
7
  6
CONTINUOUS
370
-3
390
F
  0
LAYER
  5
203
100
AcDbSymbolTableRecord
100
AcDbLayerTableRecord
  2
IMPORT_IGES
 70
0
 62
7
  6
CONTINUOUS
370
-3
390
F
  0
LAYER
  5
204
100
AcDbSymbolTableRecord
100
AcDbLayerTableRecord
  2
INTF_1
 70
0
 62
7
  6
CONTINUOUS
370
-3
390
F
  0
LAYER
  5
205
100
AcDbSymbolTableRecord
100
AcDbLayerTableRecord
  2
INTF_11
 70
0
 62
7
  6
CONTINUOUS
370
-3
390
F
  0
LAYER
  5
206
100
AcDbSymbolTableRecord
100
AcDbLayerTableRecord
  2
INTF_13
 70
0
 62
7
  6
CONTINUOUS
370
-3
390
F
  0
LAYER
  5
207
100
AcDbSymbolTableRecord
100
AcDbLayerTableRecord
  2
INTF_2
 70
0
 62
7
  6
CONTINUOUS
370
-3
390
F
  0
LAYER
  5
208
100
AcDbSymbolTableRecord
100
AcDbLayerTableRecord
  2
INTF_4
 70
0
 62
7
  6
CONTINUOUS
370
-3
390
F
  0
LAYER
  5
209
100
AcDbSymbolTableRecord
100
AcDbLayerTableRecord
  2
NOTE
 70
0
 62
7
  6
CONTINUOUS
370
-3
390
F
  0
LAYER
  5
20A
100
AcDbSymbolTableRecord
100
AcDbLayerTableRecord
  2
PIANI
 70
0
 62
7
  6
CONTINUOUS
370
-3
390
F
  0
LAYER
  5
20B
100
AcDbSymbolTableRecord
100
AcDbLayerTableRecord
  2
PUNTI
 70
0
 62
7
  6
CONTINUOUS
370
-3
390
F
  0
LAYER
  5
20C
100
AcDbSymbolTableRecord
100
AcDbLayerTableRecord
  2
RACCORDO
 70
0
 62
7
  6
CONTINUOUS
370
-3
390
F
  0
LAYER
  5
20D
100
AcDbSymbolTableRecord
100
AcDbLayerTableRecord
  2
RGB____0____0____0__
 70
0
 62
7
  6
CONTINUOUS
370
-3
390
F
  0
LAYER
  5
20E
100
AcDbSymbolTableRecord
100
AcDbLayerTableRecord
  2
SCRITTE
 70
0
 62
7
  6
CONTINUOUS
370
-3
390
F
  0
LAYER
  5
20F
100
AcDbSymbolTableRecord
100
AcDbLayerTableRecord
  2
SIMBOLI
 70
0
 62
7
  6
CONTINUOUS
370
-3
390
F
  0
LAYER
  5
210
100
AcDbSymbolTableRecord
100
AcDbLayerTableRecord
  2
SMUSSO
 70
0
 62
7
  6
CONTINUOUS
370
-3
390
F
  0
LAYER
  5
211
100
AcDbSymbolTableRecord
100
AcDbLayerTableRecord
  2
SNAPLINE
 70
0
 62
7
  6
CONTINUOUS
370
-3
390
F
  0
LAYER
  5
212
100
AcDbSymbolTableRecord
100
AcDbLayerTableRecord
  2
SUPERFICI
 70
0
 62
7
  6
CONTINUOUS
370
-3
390
F
  0
LAYER
  5
213
100
AcDbSymbolTableRecord
100
AcDbLayerTableRecord
  2
TRASH
 70
0
 62
7
  6
CONTINUOUS
370
-3
390
F
  0
ENDTAB
  0
TABLE
  2
STYLE
  5
3
100
AcDbSymbolTable
 70
1
  0
STYLE
  5
11
100
AcDbSymbolTableRecord
100
AcDbTextStyleTableRecord
  2
STANDARD
 70
0
 40
0.0
 41
0.8
 50
0.0
 71
0
 42
0.2
  3
txt
  4

  0
STYLE
  5
214
100
AcDbSymbolTableRecord
100
AcDbTextStyleTableRecord
  2
TEXTSTYLE_1
 70
0
 40
0.0
 41
0.8
 50
0.0
 71
0
 42
0.2
  3
gdt
  4

  0
ENDTAB
  0
TABLE
  2
VIEW
  5
6
100
AcDbSymbolTable
 70
0
  0
ENDTAB
  0
TABLE
  2
UCS
  5
7
100
AcDbSymbolTable
 70
0
  0
ENDTAB
  0
TABLE
  2
APPID
  5
9
100
AcDbSymbolTable
 70
1
  0
APPID
  5
215
100
AcDbSymbolTableRecord
100
AcDbRegAppTableRecord
  2
ACAD
 70
0
  0
ENDTAB
  0
TABLE
  2
BLOCK_RECORD
  5
1
100
AcDbSymbolTable
 70
0
  0
BLOCK_RECORD
  5
216
100
AcDbSymbolTableRecord
100
AcDbBlockTableRecord
  2
*Model_Space
  0
BLOCK_RECORD
  5
217
100
AcDbSymbolTableRecord
100
AcDbBlockTableRecord
  2
*Paper_Space
  0
BLOCK_RECORD
  5
218
100
AcDbSymbolTableRecord
100
AcDbBlockTableRecord
  2
_FILLED
  0
BLOCK_RECORD
  5
219
100
AcDbSymbolTableRecord
100
AcDbBlockTableRecord
  2
*D0
  0
BLOCK_RECORD
  5
21A
100
AcDbSymbolTableRecord
100
AcDbBlockTableRecord
  2
*D1
  0
BLOCK_RECORD
  5
21B
100
AcDbSymbolTableRecord
100
AcDbBlockTableRecord
  2
*D2
  0
ENDTAB
  0
TABLE
  2
DIMSTYLE
  5
A
100
AcDbSymbolTable
 70
1
100
AcDbDimStyleTable
 71
0
  0
DIMSTYLE
105
21C
100
AcDbSymbolTableRecord
100
AcDbDimStyleTableRecord
  2
STANDARD
 70
0
  3

  4

 40
1.0
 41
3.0
 42
0.5
 43
0.38
 44
1.5
 45
0.0
 46
0.0
 47
0.01
 48
0.01
140
3.0
141
0.09
142
0.0
143
25.4
144
1.0
145
0.0
146
1.0
147
0.625
 71
1
 72
0
 73
0
 74
0
 75
0
 76
0
 77
1
 78
8
 79
2
170
0
171
1
172
0
173
0
174
0
175
0
176
0
177
0
178
0
270
2
179
2
271
2
272
2
273
2
274
2
275
0
280
0
281
0
282
0
283
1
284
8
285
0
286
0
287
3
288
0
340
11
278
44
341
218
342
218
343
218
344
218
  0
DIMSTYLE
105
21D
100
AcDbSymbolTableRecord
100
AcDbDimStyleTableRecord
  2
DIMSTYLE_1
 70
0
  3

  4

 40
1.0
 41
3.0
 42
0.5
 43
0.38
 44
1.5
 45
0.0
 46
0.0
 47
0.0
 48
0.0
140
3.0
141
0.09
142
0.0
143
25.4
144
1.0
145
0.0
146
1.0
147
0.75
 71
0
 72
0
 73
0
 74
0
 75
0
 76
0
 77
1
 78
8
 79
2
170
0
171
1
172
0
173
0
174
0
175
0
176
0
177
0
178
0
270
2
179
2
271
2
272
2
273
2
274
2
275
0
280
0
281
0
282
0
283
1
284
8
285
0
286
0
287
3
288
0
340
11
278
44
341
218
342
218
343
218
344
218
  0
ENDTAB
  0
ENDSEC
  0
SECTION
  2
BLOCKS
  0
BLOCK
  5
20
100
AcDbEntity
  8
0
100
AcDbBlockBegin
  2
*Model_Space
 70
0
 10
0.0
 20
0.0
 30
0.0
  3
*Model_Space
  1

  0
ENDBLK
  5
21
100
AcDbEntity
  8
0
100
AcDbBlockEnd
  0
BLOCK
  5
1C
100
AcDbEntity
  8
0
100
AcDbBlockBegin
  2
*Paper_Space
 70
0
 10
0.0
 20
0.0
 30
0.0
  3
*Paper_Space
  1

  0
ENDBLK
  5
1D
100
AcDbEntity
  8
0
100
AcDbBlockEnd
  0
BLOCK
  5
21E
100
AcDbEntity
  8
0
100
AcDbBlockBegin
  2
_FILLED
 70
64
 10
0.0
 20
0.0
  3
_FILLED
  1

  0
SOLID
  5
21F
100
AcDbEntity
  8
0
  6
BYBLOCK
 62
0
100
AcDbTrace
 10
0.0
 20
0.0
 11
-1.0
 21
0.3166666667
 12
-1.0
 22
-0.3166666667
 13
-1.0
 23
-0.3166666667
  0
ENDBLK
  5
220
100
AcDbEntity
  8
0
  6
BYBLOCK
 62
0
100
AcDbBlockEnd
  0
BLOCK
  5
221
100
AcDbEntity
  8
0
100
AcDbBlockBegin
 62
7
  6
CONTINUOUS
  2
*D0
 70
65
 10
0.0
 20
0.0
  3
*D0
  1

  0
MTEXT
  5
222
100
AcDbEntity
  8
0
100
AcDbMText
 62
7
  6
CONTINUOUS
  7
STANDARD
 71
2
 72
1
 10
242.3841383812
 20
215.5026109661
 30
0.0
 11
1.0
 21
0.0
 31
0.0
 73
2
 44
0.9
  1
{\ftxt;\W0.0001;\H0.0001;\~}{\ftxt;\W2.2857142857;\H3.0; }{\ftxt;\W0.0001;\H0.0001;\~}
 40
3.0
 41
10.2857142857
  0
LINE
  5
223
100
AcDbEntity
  8
0
100
AcDbLine
 62
7
  6
CONTINUOUS
 10
126.3841383812
 20
200.7546666639
 11
126.3841383812
 21
213.2526109661
  0
LINE
  5
224
100
AcDbEntity
  8
0
100
AcDbLine
 62
7
  6
CONTINUOUS
 10
358.3841383812
 20
200.7546666639
 11
358.3841383812
 21
213.2526109661
  0
LINE
  5
225
100
AcDbEntity
  8
0
100
AcDbLine
 62
7
  6
CONTINUOUS
 10
126.3841383812
 20
211.7526109661
 11
242.3841383812
 21
211.7526109661
  0
LINE
  5
226
100
AcDbEntity
  8
0
100
AcDbLine
 62
7
  6
CONTINUOUS
 10
358.3841383812
 20
211.7526109661
 11
242.3841383812
 21
211.7526109661
  0
INSERT
  5
227
100
AcDbEntity
  8
0
100
AcDbBlockReference
 62
7
  6
CONTINUOUS
  2
_FILLED
 10
126.3841383812
 20
211.7526109661
 41
3.0
 42
3.0
 43
3.0
 50
180.0
  0
INSERT
  5
228
100
AcDbEntity
  8
0
100
AcDbBlockReference
 62
7
  6
CONTINUOUS
  2
_FILLED
 10
358.3841383812
 20
211.7526109661
 41
3.0
 42
3.0
 43
3.0
  0
ENDBLK
  5
229
100
AcDbEntity
  8
0
  6
BYBLOCK
 62
0
100
AcDbBlockEnd
  0
BLOCK
  5
22A
100
AcDbEntity
  8
0
100
AcDbBlockBegin
 62
7
  6
CONTINUOUS
  2
*D1
 70
65
 10
0.0
 20
0.0
  3
*D1
  1

  0
MTEXT
  5
22B
100
AcDbEntity
  8
0
100
AcDbMText
 62
7
  6
CONTINUOUS
  7
STANDARD
 71
2
 72
1
 10
364.6341383812
 20
157.7526109661
 30
0.0
 11
0.0
 21
1.0
 31
0.0
 73
2
 44
0.9
  1
{\ftxt;\W0.0001;\H0.0001;\~}{\ftxt;\W1.5714285714;\H3.0; }{\ftxt;\W0.0001;\H0.0001;\~}
 40
3.0
 41
7.0714285714
  0
LINE
  5
22C
100
AcDbEntity
  8
0
100
AcDbLine
 62
7
  6
CONTINUOUS
 10
357.3861940791
 20
201.7526109661
 11
369.8841383812
 21
201.7526109661
  0
LINE
  5
22D
100
AcDbEntity
  8
0
100
AcDbLine
 62
7
  6
CONTINUOUS
 10
357.3861940791
 20
113.7526109661
 11
369.8841383812
 21
113.7526109661
  0
LINE
  5
22E
100
AcDbEntity
  8
0
100
AcDbLine
 62
7
  6
CONTINUOUS
 10
368.3841383812
 20
201.7526109661
 11
368.3841383812
 21
157.7526109661
  0
LINE
  5
22F
100
AcDbEntity
  8
0
100
AcDbLine
 62
7
  6
CONTINUOUS
 10
368.3841383812
 20
113.7526109661
 11
368.3841383812
 21
157.7526109661
  0
INSERT
  5
230
100
AcDbEntity
  8
0
100
AcDbBlockReference
 62
7
  6
CONTINUOUS
  2
_FILLED
 10
368.3841383812
 20
201.7526109661
 41
3.0
 42
3.0
 43
3.0
 50
90.0
  0
INSERT
  5
231
100
AcDbEntity
  8
0
100
AcDbBlockReference
 62
7
  6
CONTINUOUS
  2
_FILLED
 10
368.3841383812
 20
113.7526109661
 41
3.0
 42
3.0
 43
3.0
 50
270.0
  0
ENDBLK
  5
232
100
AcDbEntity
  8
0
  6
BYBLOCK
 62
0
100
AcDbBlockEnd
  0
BLOCK
  5
233
100
AcDbEntity
  8
0
100
AcDbBlockBegin
 62
7
  6
CONTINUOUS
  2
*D2
 70
65
 10
0.0
 20
0.0
  3
*D2
  1

  0
MTEXT
  5
234
100
AcDbEntity
  8
0
100
AcDbMText
 62
7
  6
CONTINUOUS
  7
STANDARD
 71
2
 72
1
 10
99.4312989556
 20
215.5026109661
 30
0.0
 11
1.0
 21
0.0
 31
0.0
 73
2
 44
0.9
  1
{\ftxt;\W0.0001;\H0.0001;\~}{\ftxt;\W2.1428571429;\H3.0; }{\ftxt;\W0.0001;\H0.0001;\~}
 40
3.0
 41
9.6428571429
  0
LINE
  5
235
100
AcDbEntity
  8
0
100
AcDbLine
 62
7
  6
CONTINUOUS
 10
103.3812989556
 20
200.7505524471
 11
103.3812989556
 21
213.2526109661
  0
LINE
  5
236
100
AcDbEntity
  8
0
100
AcDbLine
 62
7
  6
CONTINUOUS
 10
95.4812989556
 20
200.5227010295
 11
95.4812989556
 21
213.2526109661
  0
LINE
  5
237
100
AcDbEntity
  8
0
100
AcDbLine
 62
7
  6
CONTINUOUS
 10
103.3812989556
 20
211.7526109661
 11
107.3812989556
 21
211.7526109661
  0
LINE
  5
238
100
AcDbEntity
  8
0
100
AcDbLine
 62
7
  6
CONTINUOUS
 10
107.3812989556
 20
211.7526109661
 11
99.4312989556
 21
211.7526109661
  0
LINE
  5
239
100
AcDbEntity
  8
0
100
AcDbLine
 62
7
  6
CONTINUOUS
 10
95.4812989556
 20
211.7526109661
 11
91.4812989556
 21
211.7526109661
  0
LINE
  5
23A
100
AcDbEntity
  8
0
100
AcDbLine
 62
7
  6
CONTINUOUS
 10
91.4812989556
 20
211.7526109661
 11
99.4312989556
 21
211.7526109661
  0
INSERT
  5
23B
100
AcDbEntity
  8
0
100
AcDbBlockReference
 62
7
  6
CONTINUOUS
  2
_FILLED
 10
103.3812989556
 20
211.7526109661
 41
3.0
 42
3.0
 43
3.0
 50
180.0
  0
INSERT
  5
23C
100
AcDbEntity
  8
0
100
AcDbBlockReference
 62
7
  6
CONTINUOUS
  2
_FILLED
 10
95.4812989556
 20
211.7526109661
 41
3.0
 42
3.0
 43
3.0
  0
ENDBLK
  5
23D
100
AcDbEntity
  8
0
  6
BYBLOCK
 62
0
100
AcDbBlockEnd
  0
ENDSEC
  0
SECTION
  2
ENTITIES
  0
DIMENSION
  5
23E
100
AcDbEntity
  8
0
100
AcDbDimension
 62
7
  6
CONTINUOUS
  2
*D0
 10
358.3841383812
 20
211.7526109661
 11
241.9555682373
 21
211.7526109661
 70
160
 71
2
 72
2
 41
0.9
 42
232.0
  1
{\ftxt;\W0.0001;\H0.0001;\~}{\ftxt;\W2.2857142857;\H3.0; }{\ftxt;\W0.0001;\H0.0001;\~}
  3
DIMSTYLE_1
100
AcDbAlignedDimension
 13
126.3841383812
 23
200.2546666639
 14
358.3841383812
 24
200.2546666639
100
AcDbRotatedDimension
  0
DIMENSION
  5
23F
100
AcDbEntity
  8
0
100
AcDbDimension
 62
7
  6
CONTINUOUS
  2
*D1
 10
368.3841383812
 20
113.7526109661
 11
368.3841383812
 21
157.3240439611
 70
160
 71
2
 72
2
 41
0.9
 42
88.0
  1
{\ftxt;\W0.0001;\H0.0001;\~}{\ftxt;\W1.5714285714;\H3.0; }{\ftxt;\W0.0001;\H0.0001;\~}
  3
DIMSTYLE_1
100
AcDbAlignedDimension
 13
356.8861940791
 23
201.7526109661
 14
356.8861940791
 24
113.7526109661
 50
270.0
100
AcDbRotatedDimension
  0
DIMENSION
  5
240
100
AcDbEntity
  8
0
100
AcDbDimension
 62
7
  6
CONTINUOUS
  2
*D2
 10
95.4812989556
 20
211.7526109661
 11
99.002727356
 21
211.7526109661
 70
160
 71
2
 72
2
 41
0.9
 42
7.9
  1
{\ftxt;\W0.0001;\H0.0001;\~}{\ftxt;\W2.1428571429;\H3.0; }{\ftxt;\W0.0001;\H0.0001;\~}
  3
DIMSTYLE_1
100
AcDbAlignedDimension
 13
103.3812989556
 23
200.2505524471
 14
95.4812989556
 24
200.0227010295
 50
180.0
100
AcDbRotatedDimension
  0
LWPOLYLINE
  5
241
100
AcDbEntity
  8
RACCORDO
100
AcDbPolyline
 62
250
  6
CONTINUOUS
 90
31
 70
0
 10
126.6161040157
 20
115.4825209027
 10
126.6182352703
 20
115.4039179921
 10
126.6244689013
 20
115.3256579516
 10
126.634768827
 20
115.2479531685
 10
126.6490783904
 20
115.1710568276
 10
126.667345107
 20
115.0951295408
 10
126.6895437554
 20
115.0202442871
 10
126.7156351318
 20
114.9465555078
 10
126.745536848
 20
114.8743144992
 10
126.7791604583
 20
114.8037384159
 10
126.8164085656
 20
114.7350273455
 10
126.8571831799
 20
114.6683577092
 10
126.9013783366
 20
114.6039029715
 10
126.9488767042
 20
114.5418355105
 10
126.999547577
 20
114.4823269831
 10
127.0532524846
 20
114.4255406822
 10
127.1098459349
 20
114.3716308496
 10
127.1691741881
 20
114.3207440341
 10
127.2310742177
 20
114.2730198743
 10
127.295341816
 20
114.2286115064
 10
127.3618360993
 20
114.1876120058
 10
127.4304894621
 20
114.1500741377
 10
127.5011636828
 20
114.1160999414
 10
127.5736373482
 20
114.0858215374
 10
127.647718076
 20
114.0593401293
 10
127.7232270046
 20
114.03674241
 10
127.799944163
 20
114.0181163949
 10
127.877605144
 20
114.0035412615
 10
127.9559777428
 20
113.9930700063
 10
128.0348648721
 20
113.9867389069
 10
128.1140483178
 20
113.9845766005
  0
LWPOLYLINE
  5
242
100
AcDbEntity
  8
ASSI
100
AcDbPolyline
 62
250
  6
CONTINUOUS
 90
31
 70
0
 10
126.6161040157
 20
115.4825209027
 10
126.6182352703
 20
115.4039179921
 10
126.6244689013
 20
115.3256579516
 10
126.634768827
 20
115.2479531685
 10
126.6490783904
 20
115.1710568276
 10
126.667345107
 20
115.0951295408
 10
126.6895437554
 20
115.0202442871
 10
126.7156351318
 20
114.9465555078
 10
126.745536848
 20
114.8743144992
 10
126.7791604583
 20
114.8037384159
 10
126.8164085656
 20
114.7350273455
 10
126.8571831799
 20
114.6683577092
 10
126.9013783366
 20
114.6039029715
 10
126.9488767042
 20
114.5418355105
 10
126.999547577
 20
114.4823269831
 10
127.0532524846
 20
114.4255406822
 10
127.1098459349
 20
114.3716308496
 10
127.1691741881
 20
114.3207440341
 10
127.2310742177
 20
114.2730198743
 10
127.295341816
 20
114.2286115064
 10
127.3618360993
 20
114.1876120058
 10
127.4304894621
 20
114.1500741377
 10
127.5011636828
 20
114.1160999414
 10
127.5736373482
 20
114.0858215374
 10
127.647718076
 20
114.0593401293
 10
127.7232270046
 20
114.03674241
 10
127.799944163
 20
114.0181163949
 10
127.877605144
 20
114.0035412615
 10
127.9559777428
 20
113.9930700063
 10
128.0348648721
 20
113.9867389069
 10
128.1140483178
 20
113.9845766005
  0
LWPOLYLINE
  5
243
100
AcDbEntity
  8
RACCORDO
100
AcDbPolyline
 62
250
  6
CONTINUOUS
 90
31
 70
0
 10
127.115418783
 20
115.4825209027
 10
127.1168450327
 20
115.4298400103
 10
127.1209490066
 20
115.3776700833
 10
127.1277307048
 20
115.3260111217
 10
127.1372213735
 20
115.2747557924
 10
127.1493897664
 20
115.2240114285
 10
127.1641421448
 20
115.1741000295
 10
127.1815025142
 20
115.1249938582
 10
127.201446869
 20
115.0767206518
 10
127.2238094542
 20
115.0296856206
 10
127.2486076898
 20
114.9839052069
 10
127.2758241559
 20
114.9393629686
 10
127.3052408376
 20
114.8964147891
 10
127.336876621
 20
114.8550714219
 10
127.37071262
 20
114.8153221135
 10
127.4064741617
 20
114.7774904884
 10
127.4441772103
 20
114.7415922475
 10
127.4838058016
 20
114.7076116898
 10
127.5250373697
 20
114.6758253357
 10
127.5678577556
 20
114.6462602821
 10
127.6122811183
 20
114.618889432
 10
127.6580273697
 20
114.5939080154
 10
127.705130483
 20
114.5713139179
 10
127.753556485
 20
114.5511092537
 10
127.8029233671
 20
114.5334955957
 10
127.8532545638
 20
114.5184933405
 10
127.9045266406
 20
114.5060820914
 10
127.9562872857
 20
114.4964022313
 10
128.0083857282
 20
114.4895005545
 10
128.0609727389
 20
114.4853302667
 10
128.1140483178
 20
114.4838913679
  0
LWPOLYLINE
  5
244
100
AcDbEntity
  8
ASSI
100
AcDbPolyline
 62
250
  6
CONTINUOUS
 90
31
 70
0
 10
127.115418783
 20
115.4825209027
 10
127.1168450327
 20
115.4298400103
 10
127.1209490066
 20
115.3776700833
 10
127.1277307048
 20
115.3260111217
 10
127.1372213735
 20
115.2747557924
 10
127.1493897664
 20
115.2240114285
 10
127.1641421448
 20
115.1741000295
 10
127.1815025142
 20
115.1249938582
 10
127.201446869
 20
115.0767206518
 10
127.2238094542
 20
115.0296856206
 10
127.2486076898
 20
114.9839052069
 10
127.2758241559
 20
114.9393629686
 10
127.3052408376
 20
114.8964147891
 10
127.336876621
 20
114.8550714219
 10
127.37071262
 20
114.8153221135
 10
127.4064741617
 20
114.7774904884
 10
127.4441772103
 20
114.7415922475
 10
127.4838058016
 20
114.7076116898
 10
127.5250373697
 20
114.6758253357
 10
127.5678577556
 20
114.6462602821
 10
127.6122811183
 20
114.618889432
 10
127.6580273697
 20
114.5939080154
 10
127.705130483
 20
114.5713139179
 10
127.753556485
 20
114.5511092537
 10
127.8029233671
 20
114.5334955957
 10
127.8532545638
 20
114.5184933405
 10
127.9045266406
 20
114.5060820914
 10
127.9562872857
 20
114.4964022313
 10
128.0083857282
 20
114.4895005545
 10
128.0609727389
 20
114.4853302667
 10
128.1140483178
 20
114.4838913679
  0
LWPOLYLINE
  5
245
100
AcDbEntity
  8
0
100
AcDbPolyline
 62
7
  6
CONTINUOUS
 90
31
 70
0
 10
126.3841383812
 20
115.2505552682
 10
126.3861801477
 20
115.1722501528
 10
126.3923199422
 20
115.0940088845
 10
126.4025657489
 20
115.0160466051
 10
126.4169361443
 20
114.938474106
 10
126.4354051984
 20
114.8616173571
 10
126.4578473711
 20
114.7860036814
 10
126.4841413233
 20
114.7119255146
 10
126.5142158634
 20
114.6394829262
 10
126.5479519524
 20
114.5688919747
 10
126.5851432989
 20
114.5004825159
 10
126.6257345974
 20
114.4342650762
 10
126.6698815181
 20
114.3700032308
 10
126.7176695596
 20
114.307691366
 10
126.7688609518
 20
114.2477505007
 10
126.8231381512
 20
114.1905897501
 10
126.8803576051
 20
114.1363620648
 10
126.9403556479
 20
114.0852228371
 10
127.0027035755
 20
114.0375033759
 10
127.0669810546
 20
113.993436264
 10
127.1331892437
 20
113.9529351638
 10
127.2015324938
 20
113.915856969
 10
127.2719612077
 20
113.8822645125
 10
127.3441767585
 20
113.8523355684
 10
127.4180397959
 20
113.8261543879
 10
127.4934720335
 20
113.8037899906
 10
127.5701655876
 20
113.7853738415
 10
127.6476193391
 20
113.7710311665
 10
127.7255177536
 20
113.7607945089
 10
127.8037436731
 20
113.7546545465
 10
127.8820826833
 20
113.7526109661
  0
LWPOLYLINE
  5
246
100
AcDbEntity
  8
ASSI
100
AcDbPolyline
 62
7
  6
CONTINUOUS
 90
31
 70
0
 10
126.3841383812
 20
115.2505552682
 10
126.3861801477
 20
115.1722501528
 10
126.3923199422
 20
115.0940088845
 10
126.4025657489
 20
115.0160466051
 10
126.4169361443
 20
114.938474106
 10
126.4354051984
 20
114.8616173571
 10
126.4578473711
 20
114.7860036814
 10
126.4841413233
 20
114.7119255146
 10
126.5142158634
 20
114.6394829262
 10
126.5479519524
 20
114.5688919747
 10
126.5851432989
 20
114.5004825159
 10
126.6257345974
 20
114.4342650762
 10
126.6698815181
 20
114.3700032308
 10
126.7176695596
 20
114.307691366
 10
126.7688609518
 20
114.2477505007
 10
126.8231381512
 20
114.1905897501
 10
126.8803576051
 20
114.1363620648
 10
126.9403556479
 20
114.0852228371
 10
127.0027035755
 20
114.0375033759
 10
127.0669810546
 20
113.993436264
 10
127.1331892437
 20
113.9529351638
 10
127.2015324938
 20
113.915856969
 10
127.2719612077
 20
113.8822645125
 10
127.3441767585
 20
113.8523355684
 10
127.4180397959
 20
113.8261543879
 10
127.4934720335
 20
113.8037899906
 10
127.5701655876
 20
113.7853738415
 10
127.6476193391
 20
113.7710311665
 10
127.7255177536
 20
113.7607945089
 10
127.8037436731
 20
113.7546545465
 10
127.8820826833
 20
113.7526109661
  0
LINE
  5
247
100
AcDbEntity
  8
0
100
AcDbLine
 62
7
  6
CONTINUOUS
 10
126.3841383812
 20
200.2546666639
 11
126.3841383812
 21
115.2505552682
  0
LINE
  5
248
100
AcDbEntity
  8
ASSI
100
AcDbLine
 62
7
  6
CONTINUOUS
 10
126.3841383812
 20
200.2546666639
 11
126.3841383812
 21
115.2505552682
  0
LINE
  5
249
100
AcDbEntity
  8
RACCORDO
100
AcDbLine
 62
250
  6
CONTINUOUS
 10
126.6161040157
 20
200.0227010295
 11
126.6161040157
 21
115.4825209027
  0
LINE
  5
24A
100
AcDbEntity
  8
ASSI
100
AcDbLine
 62
250
  6
CONTINUOUS
 10
126.6161040157
 20
200.0227010295
 11
126.6161040157
 21
115.4825209027
  0
LINE
  5
24B
100
AcDbEntity
  8
RACCORDO
100
AcDbLine
 62
250
  6
CONTINUOUS
 10
127.115418783
 20
200.0227010295
 11
127.115418783
 21
115.4825209027
  0
LINE
  5
24C
100
AcDbEntity
  8
ASSI
100
AcDbLine
 62
250
  6
CONTINUOUS
 10
127.115418783
 20
200.0227010295
 11
127.115418783
 21
115.4825209027
  0
LINE
  5
24D
100
AcDbEntity
  8
RACCORDO
100
AcDbLine
 62
250
  6
CONTINUOUS
 10
128.1140483178
 20
114.4838913679
 11
128.1140483178
 21
113.9845766005
  0
LINE
  5
24E
100
AcDbEntity
  8
ASSI
100
AcDbLine
 62
250
  6
CONTINUOUS
 10
128.1140483178
 20
114.4838913679
 11
128.1140483178
 21
113.9845766005
  0
LINE
  5
24F
100
AcDbEntity
  8
RACCORDO
100
AcDbLine
 62
250
  6
CONTINUOUS
 10
128.1140483178
 20
201.0213305642
 11
128.1140483178
 21
201.5206453316
  0
LINE
  5
250
100
AcDbEntity
  8
ASSI
100
AcDbLine
 62
250
  6
CONTINUOUS
 10
128.1140483178
 20
201.0213305642
 11
128.1140483178
 21
201.5206453316
  0
LINE
  5
251
100
AcDbEntity
  8
RACCORDO
100
AcDbLine
 62
250
  6
CONTINUOUS
 10
148.3503651503
 20
131.4687158913
 11
148.3503651503
 21
184.0365060408
  0
LINE
  5
252
100
AcDbEntity
  8
ASSI
100
AcDbLine
 62
250
  6
CONTINUOUS
 10
148.3503651503
 20
131.4687158913
 11
148.3503651503
 21
184.0365060408
  0
LINE
  5
253
100
AcDbEntity
  8
RACCORDO
100
AcDbLine
 62
250
  6
CONTINUOUS
 10
148.6503194589
 20
131.4687158913
 11
148.6503194589
 21
184.0365060408
  0
LINE
  5
254
100
AcDbEntity
  8
ASSI
100
AcDbLine
 62
250
  6
CONTINUOUS
 10
148.6503194589
 20
131.4687158913
 11
148.6503194589
 21
184.0365060408
  0
LINE
  5
255
100
AcDbEntity
  8
RACCORDO
100
AcDbLine
 62
7
  6
CONTINUOUS
 10
148.6591383812
 20
184.0276871185
 11
148.6591383812
 21
131.4775348136
  0
LINE
  5
256
100
AcDbEntity
  8
ASSI
100
AcDbLine
 62
7
  6
CONTINUOUS
 10
148.6591383812
 20
184.0276871185
 11
148.6591383812
 21
131.4775348136
  0
LINE
  5
257
100
AcDbEntity
  8
RACCORDO
100
AcDbLine
 62
250
  6
CONTINUOUS
 10
149.1502433064
 20
184.8363841969
 11
149.1502433064
 21
184.5364298884
  0
LINE
  5
258
100
AcDbEntity
  8
ASSI
100
AcDbLine
 62
250
  6
CONTINUOUS
 10
149.1502433064
 20
184.8363841969
 11
149.1502433064
 21
184.5364298884
  0
LINE
  5
259
100
AcDbEntity
  8
RACCORDO
100
AcDbLine
 62
250
  6
CONTINUOUS
 10
149.1502433064
 20
130.6688377352
 11
149.1502433064
 21
130.9687920437
  0
LINE
  5
25A
100
AcDbEntity
  8
ASSI
100
AcDbLine
 62
250
  6
CONTINUOUS
 10
149.1502433064
 20
130.6688377352
 11
149.1502433064
 21
130.9687920437
  0
LWPOLYLINE
  5
25B
100
AcDbEntity
  8
RACCORDO
100
AcDbPolyline
 62
250
  6
CONTINUOUS
 90
25
 70
0
 10
148.6503194616
 20
184.0365060381
 10
148.6513648917
 20
184.068920258
 10
148.6545193934
 20
184.1012769359
 10
148.659785187
 20
184.1334378881
 10
148.6671651759
 20
184.1653010951
 10
148.6766382078
 20
184.1966887519
 10
148.6881349865
 20
184.2273551312
 10
148.7015885994
 20
184.2571480834
 10
148.7169435727
 20
184.2859673614
 10
148.734107479
 20
184.3136615349
 10
148.7529668394
 20
184.3400830112
 10
148.7734542056
 20
184.365169454
 10
148.7955455852
 20
184.3888977837
 10
148.8191426192
 20
184.4111553922
 10
148.8441588185
 20
184.4318541488
 10
148.870611064
 20
184.4509820533
 10
148.8984824381
 20
184.4684741808
 10
148.9276010386
 20
184.48417197
 10
148.9577445868
 20
184.497930024
 10
148.9888229658
 20
184.5096910459
 10
149.0206670022
 20
184.5193753838
 10
149.0529030912
 20
184.5268833757
 10
149.0853022633
 20
184.5322077518
 10
149.1177963261
 20
184.5353823554
 10
149.1502433093
 20
184.5364298856
  0
LWPOLYLINE
  5
25C
100
AcDbEntity
  8
ASSI
100
AcDbPolyline
 62
250
  6
CONTINUOUS
 90
25
 70
0
 10
148.6503194616
 20
184.0365060381
 10
148.6513648917
 20
184.068920258
 10
148.6545193934
 20
184.1012769359
 10
148.659785187
 20
184.1334378881
 10
148.6671651759
 20
184.1653010951
 10
148.6766382078
 20
184.1966887519
 10
148.6881349865
 20
184.2273551312
 10
148.7015885994
 20
184.2571480834
 10
148.7169435727
 20
184.2859673614
 10
148.734107479
 20
184.3136615349
 10
148.7529668394
 20
184.3400830112
 10
148.7734542056
 20
184.365169454
 10
148.7955455852
 20
184.3888977837
 10
148.8191426192
 20
184.4111553922
 10
148.8441588185
 20
184.4318541488
 10
148.870611064
 20
184.4509820533
 10
148.8984824381
 20
184.4684741808
 10
148.9276010386
 20
184.48417197
 10
148.9577445868
 20
184.497930024
 10
148.9888229658
 20
184.5096910459
 10
149.0206670022
 20
184.5193753838
 10
149.0529030912
 20
184.5268833757
 10
149.0853022633
 20
184.5322077518
 10
149.1177963261
 20
184.5353823554
 10
149.1502433093
 20
184.5364298856
  0
LWPOLYLINE
  5
25D
100
AcDbEntity
  8
RACCORDO
100
AcDbPolyline
 62
250
  6
CONTINUOUS
 90
25
 70
0
 10
148.3503651503
 20
184.0365060408
 10
148.3520656021
 20
184.0887297262
 10
148.3571225105
 20
184.1404181927
 10
148.3655358753
 20
184.1915714402
 10
148.3773804806
 20
184.2424618019
 10
148.3925815424
 20
184.2928169447
 10
148.4109147091
 20
184.3418198686
 10
148.4324330383
 20
184.3894032227
 10
148.4570834726
 20
184.4356343578
 10
148.4844824871
 20
184.4798983273
 10
148.5146111755
 20
184.5221135136
 10
148.5474884442
 20
184.5623615342
 10
148.5827874877
 20
184.6002722942
 10
148.6204917806
 20
184.635840013
 10
148.6606178483
 20
184.6690704713
 10
148.7028884623
 20
184.6996109162
 10
148.747450789
 20
184.7275131587
 10
148.794157662
 20
184.7527253879
 10
148.8422903536
 20
184.7747394179
 10
148.8919555079
 20
184.7934695885
 10
148.9430464808
 20
184.80900156
 10
148.994524613
 20
184.8210841272
 10
149.0460436848
 20
184.8296335548
 10
149.097949916
 20
184.8347335781
 10
149.1502433064
 20
184.8363841969
  0
LWPOLYLINE
  5
25E
100
AcDbEntity
  8
ASSI
100
AcDbPolyline
 62
250
  6
CONTINUOUS
 90
25
 70
0
 10
148.3503651503
 20
184.0365060408
 10
148.3520656021
 20
184.0887297262
 10
148.3571225105
 20
184.1404181927
 10
148.3655358753
 20
184.1915714402
 10
148.3773804806
 20
184.2424618019
 10
148.3925815424
 20
184.2928169447
 10
148.4109147091
 20
184.3418198686
 10
148.4324330383
 20
184.3894032227
 10
148.4570834726
 20
184.4356343578
 10
148.4844824871
 20
184.4798983273
 10
148.5146111755
 20
184.5221135136
 10
148.5474884442
 20
184.5623615342
 10
148.5827874877
 20
184.6002722942
 10
148.6204917806
 20
184.635840013
 10
148.6606178483
 20
184.6690704713
 10
148.7028884623
 20
184.6996109162
 10
148.747450789
 20
184.7275131587
 10
148.794157662
 20
184.7527253879
 10
148.8422903536
 20
184.7747394179
 10
148.8919555079
 20
184.7934695885
 10
148.9430464808
 20
184.80900156
 10
148.994524613
 20
184.8210841272
 10
149.0460436848
 20
184.8296335548
 10
149.097949916
 20
184.8347335781
 10
149.1502433064
 20
184.8363841969
  0
LINE
  5
25F
100
AcDbEntity
  8
RACCORDO
100
AcDbLine
 62
250
  6
CONTINUOUS
 10
193.618033456
 20
184.8363841969
 11
193.618033456
 21
184.5364298884
  0
LINE
  5
260
100
AcDbEntity
  8
ASSI
100
AcDbLine
 62
250
  6
CONTINUOUS
 10
193.618033456
 20
184.8363841969
 11
193.618033456
 21
184.5364298884
  0
LINE
  5
261
100
AcDbEntity
  8
RACCORDO
100
AcDbLine
 62
250
  6
CONTINUOUS
 10
193.618033456
 20
130.6688377352
 11
193.618033456
 21
130.9687920437
  0
LINE
  5
262
100
AcDbEntity
  8
ASSI
100
AcDbLine
 62
250
  6
CONTINUOUS
 10
193.618033456
 20
130.6688377352
 11
193.618033456
 21
130.9687920437
  0
LINE
  5
263
100
AcDbEntity
  8
RACCORDO
100
AcDbLine
 62
250
  6
CONTINUOUS
 10
193.618033456
 20
184.5364298884
 11
193.6092145336
 21
184.5276109661
  0
LINE
  5
264
100
AcDbEntity
  8
ASSI
100
AcDbLine
 62
250
  6
CONTINUOUS
 10
193.618033456
 20
184.5364298884
 11
193.6092145336
 21
184.5276109661
  0
LINE
  5
265
100
AcDbEntity
  8
RACCORDO
100
AcDbLine
 62
250
  6
CONTINUOUS
 10
194.1179573035
 20
184.0365060408
 11
194.1091383812
 21
184.0276871185
  0
LINE
  5
266
100
AcDbEntity
  8
ASSI
100
AcDbLine
 62
250
  6
CONTINUOUS
 10
194.1179573035
 20
184.0365060408
 11
194.1091383812
 21
184.0276871185
  0
LINE
  5
267
100
AcDbEntity
  8
RACCORDO
100
AcDbLine
 62
250
  6
CONTINUOUS
 10
126.6161040157
 20
115.4825209027
 11
126.3841383812
 21
115.2505552682
  0
LINE
  5
268
100
AcDbEntity
  8
ASSI
100
AcDbLine
 62
250
  6
CONTINUOUS
 10
126.6161040157
 20
115.4825209027
 11
126.3841383812
 21
115.2505552682
  0
LINE
  5
269
100
AcDbEntity
  8
RACCORDO
100
AcDbLine
 62
250
  6
CONTINUOUS
 10
128.1140483178
 20
113.9845766005
 11
127.8820826833
 21
113.7526109661
  0
LINE
  5
26A
100
AcDbEntity
  8
ASSI
100
AcDbLine
 62
250
  6
CONTINUOUS
 10
128.1140483178
 20
113.9845766005
 11
127.8820826833
 21
113.7526109661
  0
LWPOLYLINE
  5
26B
100
AcDbEntity
  8
0
100
AcDbPolyline
 62
7
  6
CONTINUOUS
 90
5
 70
0
 43
0.3499999917
 10
242.1698620605
 20
214.2169006348
 10
242.5270056152
 20
214.4311816406
 10
242.5270056152
 20
215.074050293
 10
242.1698620605
 20
215.5026123047
 10
241.3127124023
 20
215.5026123047
  0
LINE
  5
26C
100
AcDbEntity
  8
RACCORDO
100
AcDbLine
 62
250
  6
CONTINUOUS
 10
193.618033456
 20
130.9687920437
 11
193.6092145336
 21
130.9776109661
  0
LINE
  5
26D
100
AcDbEntity
  8
ASSI
100
AcDbLine
 62
250
  6
CONTINUOUS
 10
193.618033456
 20
130.9687920437
 11
193.6092145336
 21
130.9776109661
  0
LINE
  5
26E
100
AcDbEntity
  8
RACCORDO
100
AcDbLine
 62
250
  6
CONTINUOUS
 10
194.1179573035
 20
131.4687158913
 11
194.1091383812
 21
131.4775348136
  0
LINE
  5
26F
100
AcDbEntity
  8
ASSI
100
AcDbLine
 62
250
  6
CONTINUOUS
 10
194.1179573035
 20
131.4687158913
 11
194.1091383812
 21
131.4775348136
  0
LINE
  5
270
100
AcDbEntity
  8
RACCORDO
100
AcDbLine
 62
250
  6
CONTINUOUS
 10
126.6161040157
 20
200.0227010295
 11
126.3841383812
 21
200.2546666639
  0
LINE
  5
271
100
AcDbEntity
  8
ASSI
100
AcDbLine
 62
250
  6
CONTINUOUS
 10
126.6161040157
 20
200.0227010295
 11
126.3841383812
 21
200.2546666639
  0
LINE
  5
272
100
AcDbEntity
  8
RACCORDO
100
AcDbLine
 62
250
  6
CONTINUOUS
 10
128.1140483178
 20
201.5206453316
 11
127.8820826833
 21
201.7526109661
  0
LINE
  5
273
100
AcDbEntity
  8
ASSI
100
AcDbLine
 62
250
  6
CONTINUOUS
 10
128.1140483178
 20
201.5206453316
 11
127.8820826833
 21
201.7526109661
  0
LINE
  5
274
100
AcDbEntity
  8
RACCORDO
100
AcDbLine
 62
7
  6
CONTINUOUS
 10
194.1091383812
 20
131.4775348136
 11
194.1091383812
 21
184.0276871185
  0
LINE
  5
275
100
AcDbEntity
  8
ASSI
100
AcDbLine
 62
7
  6
CONTINUOUS
 10
194.1091383812
 20
131.4775348136
 11
194.1091383812
 21
184.0276871185
  0
LINE
  5
276
100
AcDbEntity
  8
RACCORDO
100
AcDbLine
 62
250
  6
CONTINUOUS
 10
194.1179573035
 20
184.0365060408
 11
194.1179573035
 21
131.4687158913
  0
LINE
  5
277
100
AcDbEntity
  8
ASSI
100
AcDbLine
 62
250
  6
CONTINUOUS
 10
194.1179573035
 20
184.0365060408
 11
194.1179573035
 21
131.4687158913
  0
LINE
  5
278
100
AcDbEntity
  8
RACCORDO
100
AcDbLine
 62
250
  6
CONTINUOUS
 10
194.4179116121
 20
184.0365060408
 11
194.4179116121
 21
131.4687158913
  0
LINE
  5
279
100
AcDbEntity
  8
ASSI
100
AcDbLine
 62
250
  6
CONTINUOUS
 10
194.4179116121
 20
184.0365060408
 11
194.4179116121
 21
131.4687158913
  0
LWPOLYLINE
  5
27A
100
AcDbEntity
  8
RACCORDO
100
AcDbPolyline
 62
250
  6
CONTINUOUS
 90
25
 70
0
 10
194.1179573008
 20
131.468715894
 10
194.1169118707
 20
131.4363016741
 10
194.113757369
 20
131.4039449962
 10
194.1084915754
 20
131.371784044
 10
194.1011115865
 20
131.339920837
 10
194.0916385546
 20
131.3085331802
 10
194.0801417759
 20
131.2778668009
 10
194.066688163
 20
131.2480738487
 10
194.0513331897
 20
131.2192545707
 10
194.0341692834
 20
131.1915603972
 10
194.015309923
 20
131.1651389209
 10
193.9948225568
 20
131.1400524781
 10
193.9727311772
 20
131.1163241484
 10
193.9491341432
 20
131.0940665399
 10
193.9241179439
 20
131.0733677833
 10
193.8976656984
 20
131.0542398788
 10
193.8697943243
 20
131.0367477513
 10
193.8406757238
 20
131.0210499621
 10
193.8105321756
 20
131.0072919081
 10
193.7794537966
 20
130.9955308862
 10
193.7476097602
 20
130.9858465483
 10
193.7153736712
 20
130.9783385564
 10
193.6829744991
 20
130.9730141803
 10
193.6504804363
 20
130.9698395767
 10
193.6180334531
 20
130.9687920466
  0
LWPOLYLINE
  5
27B
100
AcDbEntity
  8
ASSI
100
AcDbPolyline
 62
250
  6
CONTINUOUS
 90
25
 70
0
 10
194.1179573008
 20
131.468715894
 10
194.1169118707
 20
131.4363016741
 10
194.113757369
 20
131.4039449962
 10
194.1084915754
 20
131.371784044
 10
194.1011115865
 20
131.339920837
 10
194.0916385546
 20
131.3085331802
 10
194.0801417759
 20
131.2778668009
 10
194.066688163
 20
131.2480738487
 10
194.0513331897
 20
131.2192545707
 10
194.0341692834
 20
131.1915603972
 10
194.015309923
 20
131.1651389209
 10
193.9948225568
 20
131.1400524781
 10
193.9727311772
 20
131.1163241484
 10
193.9491341432
 20
131.0940665399
 10
193.9241179439
 20
131.0733677833
 10
193.8976656984
 20
131.0542398788
 10
193.8697943243
 20
131.0367477513
 10
193.8406757238
 20
131.0210499621
 10
193.8105321756
 20
131.0072919081
 10
193.7794537966
 20
130.9955308862
 10
193.7476097602
 20
130.9858465483
 10
193.7153736712
 20
130.9783385564
 10
193.6829744991
 20
130.9730141803
 10
193.6504804363
 20
130.9698395767
 10
193.6180334531
 20
130.9687920466
  0
LWPOLYLINE
  5
27C
100
AcDbEntity
  8
RACCORDO
100
AcDbPolyline
 62
250
  6
CONTINUOUS
 90
25
 70
0
 10
194.4179116121
 20
131.4687158913
 10
194.4162111603
 20
131.4164922059
 10
194.4111542519
 20
131.3648037394
 10
194.4027408871
 20
131.313650492
 10
194.3908962818
 20
131.2627601302
 10
194.37569522
 20
131.2124049874
 10
194.3573620533
 20
131.1634020635
 10
194.3358437241
 20
131.1158187095
 10
194.3111932899
 20
131.0695875743
 10
194.2837942753
 20
131.0253236049
 10
194.2536655869
 20
130.9831084185
 10
194.2207883182
 20
130.9428603979
 10
194.1854892747
 20
130.9049496379
 10
194.1477849818
 20
130.8693819191
 10
194.1076589141
 20
130.8361514608
 10
194.0653883001
 20
130.8056110159
 10
194.0208259734
 20
130.7777087734
 10
193.9741191004
 20
130.7524965442
 10
193.9259864088
 20
130.7304825142
 10
193.8763212545
 20
130.7117523436
 10
193.8252302816
 20
130.6962203721
 10
193.7737521494
 20
130.684137805
 10
193.7222330776
 20
130.6755883773
 10
193.6703268464
 20
130.6704883541
 10
193.618033456
 20
130.6688377352
  0
LWPOLYLINE
  5
27D
100
AcDbEntity
  8
ASSI
100
AcDbPolyline
 62
250
  6
CONTINUOUS
 90
25
 70
0
 10
194.4179116121
 20
131.4687158913
 10
194.4162111603
 20
131.4164922059
 10
194.4111542519
 20
131.3648037394
 10
194.4027408871
 20
131.313650492
 10
194.3908962818
 20
131.2627601302
 10
194.37569522
 20
131.2124049874
 10
194.3573620533
 20
131.1634020635
 10
194.3358437241
 20
131.1158187095
 10
194.3111932899
 20
131.0695875743
 10
194.2837942753
 20
131.0253236049
 10
194.2536655869
 20
130.9831084185
 10
194.2207883182
 20
130.9428603979
 10
194.1854892747
 20
130.9049496379
 10
194.1477849818
 20
130.8693819191
 10
194.1076589141
 20
130.8361514608
 10
194.0653883001
 20
130.8056110159
 10
194.0208259734
 20
130.7777087734
 10
193.9741191004
 20
130.7524965442
 10
193.9259864088
 20
130.7304825142
 10
193.8763212545
 20
130.7117523436
 10
193.8252302816
 20
130.6962203721
 10
193.7737521494
 20
130.684137805
 10
193.7222330776
 20
130.6755883773
 10
193.6703268464
 20
130.6704883541
 10
193.618033456
 20
130.6688377352
  0
LINE
  5
27E
100
AcDbEntity
  8
RACCORDO
100
AcDbLine
 62
250
  6
CONTINUOUS
 10
148.6503194589
 20
131.4687158913
 11
148.6591383812
 21
131.4775348136
  0
LINE
  5
27F
100
AcDbEntity
  8
ASSI
100
AcDbLine
 62
250
  6
CONTINUOUS
 10
148.6503194589
 20
131.4687158913
 11
148.6591383812
 21
131.4775348136
  0
LINE
  5
280
100
AcDbEntity
  8
RACCORDO
100
AcDbLine
 62
250
  6
CONTINUOUS
 10
149.1502433064
 20
130.9687920437
 11
149.1590622288
 21
130.9776109661
  0
LINE
  5
281
100
AcDbEntity
  8
ASSI
100
AcDbLine
 62
250
  6
CONTINUOUS
 10
149.1502433064
 20
130.9687920437
 11
149.1590622288
 21
130.9776109661
  0
LWPOLYLINE
  5
282
100
AcDbEntity
  8
RACCORDO
100
AcDbPolyline
 62
250
  6
CONTINUOUS
 90
31
 70
0
 10
356.6542284446
 20
113.9845766005
 10
356.7328313552
 20
113.9867078552
 10
356.8110913957
 20
113.9929414862
 10
356.8887961788
 20
114.0032414119
 10
356.9656925197
 20
114.0175509753
 10
357.0416198065
 20
114.0358176919
 10
357.1165050602
 20
114.0580163403
 10
357.1901938394
 20
114.0841077166
 10
357.2624348481
 20
114.1140094329
 10
357.3330109313
 20
114.1476330431
 10
357.4017220017
 20
114.1848811504
 10
357.468391638
 20
114.2256557647
 10
357.5328463758
 20
114.2698509215
 10
357.5949138367
 20
114.3173492891
 10
357.6544223642
 20
114.3680201619
 10
357.7112086651
 20
114.4217250695
 10
357.7651184976
 20
114.4783185198
 10
357.8160053132
 20
114.537646773
 10
357.8637294729
 20
114.5995468026
 10
357.9081378408
 20
114.6638144008
 10
357.9491373414
 20
114.7303086842
 10
357.9866752095
 20
114.798962047
 10
358.0206494059
 20
114.8696362676
 10
358.0509278099
 20
114.9421099331
 10
358.077409218
 20
115.0161906608
 10
358.1000069373
 20
115.0916995895
 10
358.1186329524
 20
115.1684167479
 10
358.1332080858
 20
115.2460777289
 10
358.143679341
 20
115.3244503276
 10
358.1500104404
 20
115.4033374569
 10
358.1521727467
 20
115.4825209027
  0
LWPOLYLINE
  5
283
100
AcDbEntity
  8
ASSI
100
AcDbPolyline
 62
250
  6
CONTINUOUS
 90
31
 70
0
 10
356.6542284446
 20
113.9845766005
 10
356.7328313552
 20
113.9867078552
 10
356.8110913957
 20
113.9929414862
 10
356.8887961788
 20
114.0032414119
 10
356.9656925197
 20
114.0175509753
 10
357.0416198065
 20
114.0358176919
 10
357.1165050602
 20
114.0580163403
 10
357.1901938394
 20
114.0841077166
 10
357.2624348481
 20
114.1140094329
 10
357.3330109313
 20
114.1476330431
 10
357.4017220017
 20
114.1848811504
 10
357.468391638
 20
114.2256557647
 10
357.5328463758
 20
114.2698509215
 10
357.5949138367
 20
114.3173492891
 10
357.6544223642
 20
114.3680201619
 10
357.7112086651
 20
114.4217250695
 10
357.7651184976
 20
114.4783185198
 10
357.8160053132
 20
114.537646773
 10
357.8637294729
 20
114.5995468026
 10
357.9081378408
 20
114.6638144008
 10
357.9491373414
 20
114.7303086842
 10
357.9866752095
 20
114.798962047
 10
358.0206494059
 20
114.8696362676
 10
358.0509278099
 20
114.9421099331
 10
358.077409218
 20
115.0161906608
 10
358.1000069373
 20
115.0916995895
 10
358.1186329524
 20
115.1684167479
 10
358.1332080858
 20
115.2460777289
 10
358.143679341
 20
115.3244503276
 10
358.1500104404
 20
115.4033374569
 10
358.1521727467
 20
115.4825209027
  0
LWPOLYLINE
  5
284
100
AcDbEntity
  8
RACCORDO
100
AcDbPolyline
 62
250
  6
CONTINUOUS
 90
31
 70
0
 10
356.6542284446
 20
114.4838913679
 10
356.706909337
 20
114.4853176176
 10
356.759079264
 20
114.4894215915
 10
356.8107382256
 20
114.4962032896
 10
356.8619935548
 20
114.5056939583
 10
356.9127379187
 20
114.5178623513
 10
356.9626493178
 20
114.5326147297
 10
357.011755489
 20
114.549975099
 10
357.0600286955
 20
114.5699194538
 10
357.1070637267
 20
114.5922820391
 10
357.1528441403
 20
114.6170802747
 10
357.1973863787
 20
114.6442967407
 10
357.2403345581
 20
114.6737134224
 10
357.2816779254
 20
114.7053492058
 10
357.3214272337
 20
114.7391852049
 10
357.3592588589
 20
114.7749467466
 10
357.3951570997
 20
114.8126497952
 10
357.4291376575
 20
114.8522783864
 10
357.4609240116
 20
114.8935099546
 10
357.4904890652
 20
114.9363303404
 10
357.5178599152
 20
114.9807537032
 10
357.5428413318
 20
115.0264999545
 10
357.5654354294
 20
115.0736030679
 10
357.5856400936
 20
115.1220290698
 10
357.6032537516
 20
115.1713959519
 10
357.6182560068
 20
115.2217271486
 10
357.6306672559
 20
115.2729992255
 10
357.640347116
 20
115.3247598705
 10
357.6472487928
 20
115.3768583131
 10
357.6514190806
 20
115.4294453238
 10
357.6528579794
 20
115.4825209027
  0
LWPOLYLINE
  5
285
100
AcDbEntity
  8
ASSI
100
AcDbPolyline
 62
250
  6
CONTINUOUS
 90
31
 70
0
 10
356.6542284446
 20
114.4838913679
 10
356.706909337
 20
114.4853176176
 10
356.759079264
 20
114.4894215915
 10
356.8107382256
 20
114.4962032896
 10
356.8619935548
 20
114.5056939583
 10
356.9127379187
 20
114.5178623513
 10
356.9626493178
 20
114.5326147297
 10
357.011755489
 20
114.549975099
 10
357.0600286955
 20
114.5699194538
 10
357.1070637267
 20
114.5922820391
 10
357.1528441403
 20
114.6170802747
 10
357.1973863787
 20
114.6442967407
 10
357.2403345581
 20
114.6737134224
 10
357.2816779254
 20
114.7053492058
 10
357.3214272337
 20
114.7391852049
 10
357.3592588589
 20
114.7749467466
 10
357.3951570997
 20
114.8126497952
 10
357.4291376575
 20
114.8522783864
 10
357.4609240116
 20
114.8935099546
 10
357.4904890652
 20
114.9363303404
 10
357.5178599152
 20
114.9807537032
 10
357.5428413318
 20
115.0264999545
 10
357.5654354294
 20
115.0736030679
 10
357.5856400936
 20
115.1220290698
 10
357.6032537516
 20
115.1713959519
 10
357.6182560068
 20
115.2217271486
 10
357.6306672559
 20
115.2729992255
 10
357.640347116
 20
115.3247598705
 10
357.6472487928
 20
115.3768583131
 10
357.6514190806
 20
115.4294453238
 10
357.6528579794
 20
115.4825209027
  0
LWPOLYLINE
  5
286
100
AcDbEntity
  8
0
100
AcDbPolyline
 62
7
  6
CONTINUOUS
 90
31
 70
0
 10
356.8861940791
 20
113.7526109661
 10
356.9644991944
 20
113.7546527326
 10
357.0427404628
 20
113.760792527
 10
357.1207027422
 20
113.7710383337
 10
357.1982752412
 20
113.7854087291
 10
357.2751319902
 20
113.8038777832
 10
357.3507456659
 20
113.826319956
 10
357.4248238326
 20
113.8526139082
 10
357.4972664211
 20
113.8826884482
 10
357.5678573726
 20
113.9164245372
 10
357.6362668313
 20
113.9536158837
 10
357.7024842711
 20
113.9942071823
 10
357.7667461164
 20
114.038354103
 10
357.8290579812
 20
114.0861421444
 10
357.8889988466
 20
114.1373335367
 10
357.9461595972
 20
114.1916107361
 10
358.0003872825
 20
114.2488301899
 10
358.0515265101
 20
114.3088282328
 10
358.0992459714
 20
114.3711761604
 10
358.1433130832
 20
114.4354536395
 10
358.1838141835
 20
114.5016618286
 10
358.2208923783
 20
114.5700050786
 10
358.2544848348
 20
114.6404337926
 10
358.2844137789
 20
114.7126493434
 10
358.3105949593
 20
114.7865123808
 10
358.3329593566
 20
114.8619446184
 10
358.3513755057
 20
114.9386381724
 10
358.3657181808
 20
115.016091924
 10
358.3759548383
 20
115.0939903385
 10
358.3820948007
 20
115.1722162579
 10
358.3841383812
 20
115.2505552682
  0
LWPOLYLINE
  5
287
100
AcDbEntity
  8
ASSI
100
AcDbPolyline
 62
7
  6
CONTINUOUS
 90
31
 70
0
 10
356.8861940791
 20
113.7526109661
 10
356.9644991944
 20
113.7546527326
 10
357.0427404628
 20
113.760792527
 10
357.1207027422
 20
113.7710383337
 10
357.1982752412
 20
113.7854087291
 10
357.2751319902
 20
113.8038777832
 10
357.3507456659
 20
113.826319956
 10
357.4248238326
 20
113.8526139082
 10
357.4972664211
 20
113.8826884482
 10
357.5678573726
 20
113.9164245372
 10
357.6362668313
 20
113.9536158837
 10
357.7024842711
 20
113.9942071823
 10
357.7667461164
 20
114.038354103
 10
357.8290579812
 20
114.0861421444
 10
357.8889988466
 20
114.1373335367
 10
357.9461595972
 20
114.1916107361
 10
358.0003872825
 20
114.2488301899
 10
358.0515265101
 20
114.3088282328
 10
358.0992459714
 20
114.3711761604
 10
358.1433130832
 20
114.4354536395
 10
358.1838141835
 20
114.5016618286
 10
358.2208923783
 20
114.5700050786
 10
358.2544848348
 20
114.6404337926
 10
358.2844137789
 20
114.7126493434
 10
358.3105949593
 20
114.7865123808
 10
358.3329593566
 20
114.8619446184
 10
358.3513755057
 20
114.9386381724
 10
358.3657181808
 20
115.016091924
 10
358.3759548383
 20
115.0939903385
 10
358.3820948007
 20
115.1722162579
 10
358.3841383812
 20
115.2505552682
  0
LINE
  5
288
100
AcDbEntity
  8
0
100
AcDbLine
 62
7
  6
CONTINUOUS
 10
127.8820826833
 20
113.7526109661
 11
356.8861940791
 21
113.7526109661
  0
LINE
  5
289
100
AcDbEntity
  8
ASSI
100
AcDbLine
 62
7
  6
CONTINUOUS
 10
127.8820826833
 20
113.7526109661
 11
356.8861940791
 21
113.7526109661
  0
LINE
  5
28A
100
AcDbEntity
  8
RACCORDO
100
AcDbLine
 62
250
  6
CONTINUOUS
 10
128.1140483178
 20
113.9845766005
 11
356.6542284446
 21
113.9845766005
  0
LINE
  5
28B
100
AcDbEntity
  8
ASSI
100
AcDbLine
 62
250
  6
CONTINUOUS
 10
128.1140483178
 20
113.9845766005
 11
356.6542284446
 21
113.9845766005
  0
LINE
  5
28C
100
AcDbEntity
  8
RACCORDO
100
AcDbLine
 62
250
  6
CONTINUOUS
 10
128.1140483178
 20
114.4838913679
 11
356.6542284446
 21
114.4838913679
  0
LINE
  5
28D
100
AcDbEntity
  8
ASSI
100
AcDbLine
 62
250
  6
CONTINUOUS
 10
128.1140483178
 20
114.4838913679
 11
356.6542284446
 21
114.4838913679
  0
LINE
  5
28E
100
AcDbEntity
  8
RACCORDO
100
AcDbLine
 62
250
  6
CONTINUOUS
 10
127.115418783
 20
115.4825209027
 11
126.6161040157
 21
115.4825209027
  0
LINE
  5
28F
100
AcDbEntity
  8
ASSI
100
AcDbLine
 62
250
  6
CONTINUOUS
 10
127.115418783
 20
115.4825209027
 11
126.6161040157
 21
115.4825209027
  0
LINE
  5
290
100
AcDbEntity
  8
RACCORDO
100
AcDbLine
 62
250
  6
CONTINUOUS
 10
357.6528579794
 20
115.4825209027
 11
358.1521727467
 21
115.4825209027
  0
LINE
  5
291
100
AcDbEntity
  8
ASSI
100
AcDbLine
 62
250
  6
CONTINUOUS
 10
357.6528579794
 20
115.4825209027
 11
358.1521727467
 21
115.4825209027
  0
LINE
  5
292
100
AcDbEntity
  8
RACCORDO
100
AcDbLine
 62
250
  6
CONTINUOUS
 10
148.6503194589
 20
184.0365060408
 11
148.6591383812
 21
184.0276871185
  0
LINE
  5
293
100
AcDbEntity
  8
ASSI
100
AcDbLine
 62
250
  6
CONTINUOUS
 10
148.6503194589
 20
184.0365060408
 11
148.6591383812
 21
184.0276871185
  0
LINE
  5
294
100
AcDbEntity
  8
RACCORDO
100
AcDbLine
 62
250
  6
CONTINUOUS
 10
149.1502433064
 20
184.5364298884
 11
149.1590622288
 21
184.5276109661
  0
LINE
  5
295
100
AcDbEntity
  8
ASSI
100
AcDbLine
 62
250
  6
CONTINUOUS
 10
149.1502433064
 20
184.5364298884
 11
149.1590622288
 21
184.5276109661
  0
LINE
  5
296
100
AcDbEntity
  8
SCRITTE
100
AcDbLine
 62
250
  6
CONTINUOUS
 10
358.3189947254
 20
121.0526749661
 11
358.214181368
 21
121.0526749661
  0
LINE
  5
297
100
AcDbEntity
  8
SCRITTE
100
AcDbLine
 62
250
  6
CONTINUOUS
 10
358.214181368
 20
121.4701189661
 11
358.3189947254
 21
121.4701189661
  0
LINE
  5
298
100
AcDbEntity
  8
SCRITTE
100
AcDbLine
 62
250
  6
CONTINUOUS
 10
358.3189947393
 20
125.5558597977
 11
358.2154121866
 21
125.5558597977
  0
LWPOLYLINE
  5
299
100
AcDbEntity
  8
RACCORDO
100
AcDbPolyline
 62
250
  6
CONTINUOUS
 90
25
 70
0
 10
219.3503651503
 20
184.0365060408
 10
219.3520656021
 20
184.0887297262
 10
219.3571225105
 20
184.1404181927
 10
219.3655358753
 20
184.1915714402
 10
219.3773804806
 20
184.2424618019
 10
219.3925815424
 20
184.2928169447
 10
219.4109147091
 20
184.3418198686
 10
219.4324330383
 20
184.3894032227
 10
219.4570834726
 20
184.4356343578
 10
219.4844824871
 20
184.4798983273
 10
219.5146111755
 20
184.5221135136
 10
219.5474884442
 20
184.5623615342
 10
219.5827874877
 20
184.6002722942
 10
219.6204917806
 20
184.635840013
 10
219.6606178483
 20
184.6690704713
 10
219.7028884623
 20
184.6996109162
 10
219.747450789
 20
184.7275131587
 10
219.794157662
 20
184.7527253879
 10
219.8422903536
 20
184.7747394179
 10
219.8919555079
 20
184.7934695885
 10
219.9430464808
 20
184.80900156
 10
219.994524613
 20
184.8210841272
 10
220.0460436848
 20
184.8296335548
 10
220.097949916
 20
184.8347335781
 10
220.1502433064
 20
184.8363841969
  0
LWPOLYLINE
  5
29A
100
AcDbEntity
  8
ASSI
100
AcDbPolyline
 62
250
  6
CONTINUOUS
 90
25
 70
0
 10
219.3503651503
 20
184.0365060408
 10
219.3520656021
 20
184.0887297262
 10
219.3571225105
 20
184.1404181927
 10
219.3655358753
 20
184.1915714402
 10
219.3773804806
 20
184.2424618019
 10
219.3925815424
 20
184.2928169447
 10
219.4109147091
 20
184.3418198686
 10
219.4324330383
 20
184.3894032227
 10
219.4570834726
 20
184.4356343578
 10
219.4844824871
 20
184.4798983273
 10
219.5146111755
 20
184.5221135136
 10
219.5474884442
 20
184.5623615342
 10
219.5827874877
 20
184.6002722942
 10
219.6204917806
 20
184.635840013
 10
219.6606178483
 20
184.6690704713
 10
219.7028884623
 20
184.6996109162
 10
219.747450789
 20
184.7275131587
 10
219.794157662
 20
184.7527253879
 10
219.8422903536
 20
184.7747394179
 10
219.8919555079
 20
184.7934695885
 10
219.9430464808
 20
184.80900156
 10
219.994524613
 20
184.8210841272
 10
220.0460436848
 20
184.8296335548
 10
220.097949916
 20
184.8347335781
 10
220.1502433064
 20
184.8363841969
  0
LINE
  5
29B
100
AcDbEntity
  8
SCRITTE
100
AcDbLine
 62
250
  6
CONTINUOUS
 10
358.2320426112
 20
125.9577828507
 11
358.260814189
 21
125.9577828507
  0
LINE
  5
29C
100
AcDbEntity
  8
SCRITTE
100
AcDbLine
 62
250
  6
CONTINUOUS
 10
358.2779790507
 20
125.9716246842
 11
358.3189947393
 21
125.9716246842
  0
LINE
  5
29D
100
AcDbEntity
  8
SCRITTE
100
AcDbLine
 62
250
  6
CONTINUOUS
 10
358.2694524214
 20
126.6290892776
 11
358.2700717397
 21
126.6290892776
  0
LINE
  5
29E
100
AcDbEntity
  8
RACCORDO
100
AcDbLine
 62
250
  6
CONTINUOUS
 10
335.618033456
 20
130.6688377352
 11
291.1502433064
 21
130.6688377352
  0
LINE
  5
29F
100
AcDbEntity
  8
ASSI
100
AcDbLine
 62
250
  6
CONTINUOUS
 10
335.618033456
 20
130.6688377352
 11
291.1502433064
 21
130.6688377352
  0
LINE
  5
2A0
100
AcDbEntity
  8
RACCORDO
100
AcDbLine
 62
250
  6
CONTINUOUS
 10
264.618033456
 20
130.6688377352
 11
220.1502433064
 21
130.6688377352
  0
LINE
  5
2A1
100
AcDbEntity
  8
ASSI
100
AcDbLine
 62
250
  6
CONTINUOUS
 10
264.618033456
 20
130.6688377352
 11
220.1502433064
 21
130.6688377352
  0
LINE
  5
2A2
100
AcDbEntity
  8
RACCORDO
100
AcDbLine
 62
250
  6
CONTINUOUS
 10
193.618033456
 20
130.6688377352
 11
149.1502433064
 21
130.6688377352
  0
LINE
  5
2A3
100
AcDbEntity
  8
ASSI
100
AcDbLine
 62
250
  6
CONTINUOUS
 10
193.618033456
 20
130.6688377352
 11
149.1502433064
 21
130.6688377352
  0
LINE
  5
2A4
100
AcDbEntity
  8
RACCORDO
100
AcDbLine
 62
250
  6
CONTINUOUS
 10
335.618033456
 20
130.9687920437
 11
291.1502433064
 21
130.9687920437
  0
LINE
  5
2A5
100
AcDbEntity
  8
ASSI
100
AcDbLine
 62
250
  6
CONTINUOUS
 10
335.618033456
 20
130.9687920437
 11
291.1502433064
 21
130.9687920437
  0
LINE
  5
2A6
100
AcDbEntity
  8
RACCORDO
100
AcDbLine
 62
250
  6
CONTINUOUS
 10
264.618033456
 20
130.9687920437
 11
220.1502433064
 21
130.9687920437
  0
LINE
  5
2A7
100
AcDbEntity
  8
ASSI
100
AcDbLine
 62
250
  6
CONTINUOUS
 10
264.618033456
 20
130.9687920437
 11
220.1502433064
 21
130.9687920437
  0
LINE
  5
2A8
100
AcDbEntity
  8
RACCORDO
100
AcDbLine
 62
250
  6
CONTINUOUS
 10
193.618033456
 20
130.9687920437
 11
149.1502433064
 21
130.9687920437
  0
LINE
  5
2A9
100
AcDbEntity
  8
ASSI
100
AcDbLine
 62
250
  6
CONTINUOUS
 10
193.618033456
 20
130.9687920437
 11
149.1502433064
 21
130.9687920437
  0
LINE
  5
2AA
100
AcDbEntity
  8
RACCORDO
100
AcDbLine
 62
7
  6
CONTINUOUS
 10
149.1590622288
 20
130.9776109661
 11
193.6092145336
 21
130.9776109661
  0
LINE
  5
2AB
100
AcDbEntity
  8
ASSI
100
AcDbLine
 62
7
  6
CONTINUOUS
 10
149.1590622288
 20
130.9776109661
 11
193.6092145336
 21
130.9776109661
  0
LINE
  5
2AC
100
AcDbEntity
  8
RACCORDO
100
AcDbLine
 62
7
  6
CONTINUOUS
 10
220.1590622288
 20
130.9776109661
 11
264.6092145336
 21
130.9776109661
  0
LINE
  5
2AD
100
AcDbEntity
  8
ASSI
100
AcDbLine
 62
7
  6
CONTINUOUS
 10
220.1590622288
 20
130.9776109661
 11
264.6092145336
 21
130.9776109661
  0
LINE
  5
2AE
100
AcDbEntity
  8
RACCORDO
100
AcDbLine
 62
7
  6
CONTINUOUS
 10
291.1590622288
 20
130.9776109661
 11
335.6092145336
 21
130.9776109661
  0
LINE
  5
2AF
100
AcDbEntity
  8
ASSI
100
AcDbLine
 62
7
  6
CONTINUOUS
 10
291.1590622288
 20
130.9776109661
 11
335.6092145336
 21
130.9776109661
  0
LINE
  5
2B0
100
AcDbEntity
  8
RACCORDO
100
AcDbLine
 62
250
  6
CONTINUOUS
 10
336.4179116121
 20
131.4687158913
 11
336.1179573035
 21
131.4687158913
  0
LINE
  5
2B1
100
AcDbEntity
  8
ASSI
100
AcDbLine
 62
250
  6
CONTINUOUS
 10
336.4179116121
 20
131.4687158913
 11
336.1179573035
 21
131.4687158913
  0
LINE
  5
2B2
100
AcDbEntity
  8
RACCORDO
100
AcDbLine
 62
250
  6
CONTINUOUS
 10
265.4179116121
 20
131.4687158913
 11
265.1179573035
 21
131.4687158913
  0
LINE
  5
2B3
100
AcDbEntity
  8
ASSI
100
AcDbLine
 62
250
  6
CONTINUOUS
 10
265.4179116121
 20
131.4687158913
 11
265.1179573035
 21
131.4687158913
  0
LINE
  5
2B4
100
AcDbEntity
  8
RACCORDO
100
AcDbLine
 62
250
  6
CONTINUOUS
 10
194.4179116121
 20
131.4687158913
 11
194.1179573035
 21
131.4687158913
  0
LINE
  5
2B5
100
AcDbEntity
  8
ASSI
100
AcDbLine
 62
250
  6
CONTINUOUS
 10
194.4179116121
 20
131.4687158913
 11
194.1179573035
 21
131.4687158913
  0
LINE
  5
2B6
100
AcDbEntity
  8
RACCORDO
100
AcDbLine
 62
250
  6
CONTINUOUS
 10
148.3503651503
 20
131.4687158913
 11
148.6503194589
 21
131.4687158913
  0
LINE
  5
2B7
100
AcDbEntity
  8
ASSI
100
AcDbLine
 62
250
  6
CONTINUOUS
 10
148.3503651503
 20
131.4687158913
 11
148.6503194589
 21
131.4687158913
  0
LINE
  5
2B8
100
AcDbEntity
  8
RACCORDO
100
AcDbLine
 62
250
  6
CONTINUOUS
 10
219.3503651503
 20
131.4687158913
 11
219.6503194589
 21
131.4687158913
  0
LINE
  5
2B9
100
AcDbEntity
  8
ASSI
100
AcDbLine
 62
250
  6
CONTINUOUS
 10
219.3503651503
 20
131.4687158913
 11
219.6503194589
 21
131.4687158913
  0
LINE
  5
2BA
100
AcDbEntity
  8
RACCORDO
100
AcDbLine
 62
250
  6
CONTINUOUS
 10
290.3503651503
 20
131.4687158913
 11
290.6503194589
 21
131.4687158913
  0
LINE
  5
2BB
100
AcDbEntity
  8
ASSI
100
AcDbLine
 62
250
  6
CONTINUOUS
 10
290.3503651503
 20
131.4687158913
 11
290.6503194589
 21
131.4687158913
  0
LWPOLYLINE
  5
2BC
100
AcDbEntity
  8
RACCORDO
100
AcDbPolyline
 62
250
  6
CONTINUOUS
 90
25
 70
0
 10
149.1502433091
 20
130.9687920464
 10
149.1178290893
 20
130.9698374765
 10
149.0854724113
 20
130.9729919783
 10
149.0533114592
 20
130.9782577718
 10
149.0214482521
 20
130.9856377608
 10
148.9900605954
 20
130.9951107927
 10
148.9593942161
 20
131.0066075714
 10
148.9296012639
 20
131.0200611843
 10
148.9007819859
 20
131.0354161576
 10
148.8730878124
 20
131.0525800639
 10
148.8466663361
 20
131.0714394243
 10
148.8215798933
 20
131.0919267905
 10
148.7978515635
 20
131.1140181701
 10
148.7755939551
 20
131.137615204
 10
148.7548951985
 20
131.1626314033
 10
148.7357672939
 20
131.1890836489
 10
148.7182751664
 20
131.216955023
 10
148.7025773772
 20
131.2460736235
 10
148.6888193232
 20
131.2762171716
 10
148.6770583013
 20
131.3072955507
 10
148.6673739634
 20
131.3391395871
 10
148.6598659715
 20
131.3713756761
 10
148.6545415954
 20
131.4037748481
 10
148.6513669919
 20
131.436268911
 10
148.6503194617
 20
131.4687158941
  0
LWPOLYLINE
  5
2BD
100
AcDbEntity
  8
ASSI
100
AcDbPolyline
 62
250
  6
CONTINUOUS
 90
25
 70
0
 10
149.1502433091
 20
130.9687920464
 10
149.1178290893
 20
130.9698374765
 10
149.0854724113
 20
130.9729919783
 10
149.0533114592
 20
130.9782577718
 10
149.0214482521
 20
130.9856377608
 10
148.9900605954
 20
130.9951107927
 10
148.9593942161
 20
131.0066075714
 10
148.9296012639
 20
131.0200611843
 10
148.9007819859
 20
131.0354161576
 10
148.8730878124
 20
131.0525800639
 10
148.8466663361
 20
131.0714394243
 10
148.8215798933
 20
131.0919267905
 10
148.7978515635
 20
131.1140181701
 10
148.7755939551
 20
131.137615204
 10
148.7548951985
 20
131.1626314033
 10
148.7357672939
 20
131.1890836489
 10
148.7182751664
 20
131.216955023
 10
148.7025773772
 20
131.2460736235
 10
148.6888193232
 20
131.2762171716
 10
148.6770583013
 20
131.3072955507
 10
148.6673739634
 20
131.3391395871
 10
148.6598659715
 20
131.3713756761
 10
148.6545415954
 20
131.4037748481
 10
148.6513669919
 20
131.436268911
 10
148.6503194617
 20
131.4687158941
  0
LWPOLYLINE
  5
2BE
100
AcDbEntity
  8
RACCORDO
100
AcDbPolyline
 62
250
  6
CONTINUOUS
 90
25
 70
0
 10
220.1502433091
 20
130.9687920464
 10
220.1178290893
 20
130.9698374765
 10
220.0854724113
 20
130.9729919783
 10
220.0533114592
 20
130.9782577718
 10
220.0214482521
 20
130.9856377608
 10
219.9900605954
 20
130.9951107927
 10
219.9593942161
 20
131.0066075714
 10
219.9296012639
 20
131.0200611843
 10
219.9007819859
 20
131.0354161576
 10
219.8730878124
 20
131.0525800639
 10
219.8466663361
 20
131.0714394243
 10
219.8215798933
 20
131.0919267905
 10
219.7978515635
 20
131.1140181701
 10
219.7755939551
 20
131.137615204
 10
219.7548951985
 20
131.1626314033
 10
219.7357672939
 20
131.1890836489
 10
219.7182751664
 20
131.216955023
 10
219.7025773772
 20
131.2460736235
 10
219.6888193232
 20
131.2762171716
 10
219.6770583013
 20
131.3072955507
 10
219.6673739634
 20
131.3391395871
 10
219.6598659715
 20
131.3713756761
 10
219.6545415954
 20
131.4037748481
 10
219.6513669919
 20
131.436268911
 10
219.6503194617
 20
131.4687158941
  0
LWPOLYLINE
  5
2BF
100
AcDbEntity
  8
ASSI
100
AcDbPolyline
 62
250
  6
CONTINUOUS
 90
25
 70
0
 10
220.1502433091
 20
130.9687920464
 10
220.1178290893
 20
130.9698374765
 10
220.0854724113
 20
130.9729919783
 10
220.0533114592
 20
130.9782577718
 10
220.0214482521
 20
130.9856377608
 10
219.9900605954
 20
130.9951107927
 10
219.9593942161
 20
131.0066075714
 10
219.9296012639
 20
131.0200611843
 10
219.9007819859
 20
131.0354161576
 10
219.8730878124
 20
131.0525800639
 10
219.8466663361
 20
131.0714394243
 10
219.8215798933
 20
131.0919267905
 10
219.7978515635
 20
131.1140181701
 10
219.7755939551
 20
131.137615204
 10
219.7548951985
 20
131.1626314033
 10
219.7357672939
 20
131.1890836489
 10
219.7182751664
 20
131.216955023
 10
219.7025773772
 20
131.2460736235
 10
219.6888193232
 20
131.2762171716
 10
219.6770583013
 20
131.3072955507
 10
219.6673739634
 20
131.3391395871
 10
219.6598659715
 20
131.3713756761
 10
219.6545415954
 20
131.4037748481
 10
219.6513669919
 20
131.436268911
 10
219.6503194617
 20
131.4687158941
  0
LWPOLYLINE
  5
2C0
100
AcDbEntity
  8
RACCORDO
100
AcDbPolyline
 62
250
  6
CONTINUOUS
 90
25
 70
0
 10
291.1502433091
 20
130.9687920464
 10
291.1178290893
 20
130.9698374765
 10
291.0854724113
 20
130.9729919783
 10
291.0533114592
 20
130.9782577718
 10
291.0214482521
 20
130.9856377608
 10
290.9900605954
 20
130.9951107927
 10
290.9593942161
 20
131.0066075714
 10
290.9296012639
 20
131.0200611843
 10
290.9007819859
 20
131.0354161576
 10
290.8730878124
 20
131.0525800639
 10
290.8466663361
 20
131.0714394243
 10
290.8215798933
 20
131.0919267905
 10
290.7978515635
 20
131.1140181701
 10
290.7755939551
 20
131.137615204
 10
290.7548951985
 20
131.1626314033
 10
290.7357672939
 20
131.1890836489
 10
290.7182751664
 20
131.216955023
 10
290.7025773772
 20
131.2460736235
 10
290.6888193232
 20
131.2762171716
 10
290.6770583013
 20
131.3072955507
 10
290.6673739634
 20
131.3391395871
 10
290.6598659715
 20
131.3713756761
 10
290.6545415954
 20
131.4037748481
 10
290.6513669919
 20
131.436268911
 10
290.6503194617
 20
131.4687158941
  0
LWPOLYLINE
  5
2C1
100
AcDbEntity
  8
ASSI
100
AcDbPolyline
 62
250
  6
CONTINUOUS
 90
25
 70
0
 10
291.1502433091
 20
130.9687920464
 10
291.1178290893
 20
130.9698374765
 10
291.0854724113
 20
130.9729919783
 10
291.0533114592
 20
130.9782577718
 10
291.0214482521
 20
130.9856377608
 10
290.9900605954
 20
130.9951107927
 10
290.9593942161
 20
131.0066075714
 10
290.9296012639
 20
131.0200611843
 10
290.9007819859
 20
131.0354161576
 10
290.8730878124
 20
131.0525800639
 10
290.8466663361
 20
131.0714394243
 10
290.8215798933
 20
131.0919267905
 10
290.7978515635
 20
131.1140181701
 10
290.7755939551
 20
131.137615204
 10
290.7548951985
 20
131.1626314033
 10
290.7357672939
 20
131.1890836489
 10
290.7182751664
 20
131.216955023
 10
290.7025773772
 20
131.2460736235
 10
290.6888193232
 20
131.2762171716
 10
290.6770583013
 20
131.3072955507
 10
290.6673739634
 20
131.3391395871
 10
290.6598659715
 20
131.3713756761
 10
290.6545415954
 20
131.4037748481
 10
290.6513669919
 20
131.436268911
 10
290.6503194617
 20
131.4687158941
  0
LWPOLYLINE
  5
2C2
100
AcDbEntity
  8
RACCORDO
100
AcDbPolyline
 62
250
  6
CONTINUOUS
 90
25
 70
0
 10
149.1502433064
 20
130.6688377352
 10
149.098019621
 20
130.670538187
 10
149.0463311546
 20
130.6755950953
 10
148.9951779071
 20
130.6840084602
 10
148.9442875453
 20
130.6958530654
 10
148.8939324025
 20
130.7110541272
 10
148.8449294786
 20
130.7293872939
 10
148.7973461246
 20
130.7509056232
 10
148.7511149894
 20
130.7755560574
 10
148.70685102
 20
130.8029550719
 10
148.6646358337
 20
130.8330837603
 10
148.6243878131
 20
130.865961029
 10
148.586477053
 20
130.9012600726
 10
148.5509093342
 20
130.9389643654
 10
148.517678876
 20
130.9790904331
 10
148.4871384311
 20
131.0213610471
 10
148.4592361885
 20
131.0659233738
 10
148.4340239594
 20
131.1126302468
 10
148.4120099294
 20
131.1607629385
 10
148.3932797587
 20
131.2104280927
 10
148.3777477872
 20
131.2615190656
 10
148.3656652201
 20
131.3129971979
 10
148.3571157925
 20
131.3645162697
 10
148.3520157692
 20
131.4164225008
 10
148.3503651503
 20
131.4687158913
  0
LWPOLYLINE
  5
2C3
100
AcDbEntity
  8
ASSI
100
AcDbPolyline
 62
250
  6
CONTINUOUS
 90
25
 70
0
 10
149.1502433064
 20
130.6688377352
 10
149.098019621
 20
130.670538187
 10
149.0463311546
 20
130.6755950953
 10
148.9951779071
 20
130.6840084602
 10
148.9442875453
 20
130.6958530654
 10
148.8939324025
 20
130.7110541272
 10
148.8449294786
 20
130.7293872939
 10
148.7973461246
 20
130.7509056232
 10
148.7511149894
 20
130.7755560574
 10
148.70685102
 20
130.8029550719
 10
148.6646358337
 20
130.8330837603
 10
148.6243878131
 20
130.865961029
 10
148.586477053
 20
130.9012600726
 10
148.5509093342
 20
130.9389643654
 10
148.517678876
 20
130.9790904331
 10
148.4871384311
 20
131.0213610471
 10
148.4592361885
 20
131.0659233738
 10
148.4340239594
 20
131.1126302468
 10
148.4120099294
 20
131.1607629385
 10
148.3932797587
 20
131.2104280927
 10
148.3777477872
 20
131.2615190656
 10
148.3656652201
 20
131.3129971979
 10
148.3571157925
 20
131.3645162697
 10
148.3520157692
 20
131.4164225008
 10
148.3503651503
 20
131.4687158913
  0
LWPOLYLINE
  5
2C4
100
AcDbEntity
  8
RACCORDO
100
AcDbPolyline
 62
250
  6
CONTINUOUS
 90
25
 70
0
 10
220.1502433064
 20
130.6688377352
 10
220.098019621
 20
130.670538187
 10
220.0463311546
 20
130.6755950953
 10
219.9951779071
 20
130.6840084602
 10
219.9442875453
 20
130.6958530654
 10
219.8939324025
 20
130.7110541272
 10
219.8449294786
 20
130.7293872939
 10
219.7973461246
 20
130.7509056232
 10
219.7511149894
 20
130.7755560574
 10
219.70685102
 20
130.8029550719
 10
219.6646358337
 20
130.8330837603
 10
219.6243878131
 20
130.865961029
 10
219.586477053
 20
130.9012600726
 10
219.5509093342
 20
130.9389643654
 10
219.517678876
 20
130.9790904331
 10
219.4871384311
 20
131.0213610471
 10
219.4592361885
 20
131.0659233738
 10
219.4340239594
 20
131.1126302468
 10
219.4120099294
 20
131.1607629385
 10
219.3932797587
 20
131.2104280927
 10
219.3777477872
 20
131.2615190656
 10
219.3656652201
 20
131.3129971979
 10
219.3571157925
 20
131.3645162697
 10
219.3520157692
 20
131.4164225008
 10
219.3503651503
 20
131.4687158913
  0
LWPOLYLINE
  5
2C5
100
AcDbEntity
  8
ASSI
100
AcDbPolyline
 62
250
  6
CONTINUOUS
 90
25
 70
0
 10
220.1502433064
 20
130.6688377352
 10
220.098019621
 20
130.670538187
 10
220.0463311546
 20
130.6755950953
 10
219.9951779071
 20
130.6840084602
 10
219.9442875453
 20
130.6958530654
 10
219.8939324025
 20
130.7110541272
 10
219.8449294786
 20
130.7293872939
 10
219.7973461246
 20
130.7509056232
 10
219.7511149894
 20
130.7755560574
 10
219.70685102
 20
130.8029550719
 10
219.6646358337
 20
130.8330837603
 10
219.6243878131
 20
130.865961029
 10
219.586477053
 20
130.9012600726
 10
219.5509093342
 20
130.9389643654
 10
219.517678876
 20
130.9790904331
 10
219.4871384311
 20
131.0213610471
 10
219.4592361885
 20
131.0659233738
 10
219.4340239594
 20
131.1126302468
 10
219.4120099294
 20
131.1607629385
 10
219.3932797587
 20
131.2104280927
 10
219.3777477872
 20
131.2615190656
 10
219.3656652201
 20
131.3129971979
 10
219.3571157925
 20
131.3645162697
 10
219.3520157692
 20
131.4164225008
 10
219.3503651503
 20
131.4687158913
  0
LWPOLYLINE
  5
2C6
100
AcDbEntity
  8
RACCORDO
100
AcDbPolyline
 62
250
  6
CONTINUOUS
 90
25
 70
0
 10
291.1502433064
 20
130.6688377352
 10
291.098019621
 20
130.670538187
 10
291.0463311546
 20
130.6755950953
 10
290.9951779071
 20
130.6840084602
 10
290.9442875453
 20
130.6958530654
 10
290.8939324025
 20
130.7110541272
 10
290.8449294786
 20
130.7293872939
 10
290.7973461246
 20
130.7509056232
 10
290.7511149894
 20
130.7755560574
 10
290.70685102
 20
130.8029550719
 10
290.6646358337
 20
130.8330837603
 10
290.6243878131
 20
130.865961029
 10
290.586477053
 20
130.9012600726
 10
290.5509093342
 20
130.9389643654
 10
290.517678876
 20
130.9790904331
 10
290.4871384311
 20
131.0213610471
 10
290.4592361885
 20
131.0659233738
 10
290.4340239594
 20
131.1126302468
 10
290.4120099294
 20
131.1607629385
 10
290.3932797587
 20
131.2104280927
 10
290.3777477872
 20
131.2615190656
 10
290.3656652201
 20
131.3129971979
 10
290.3571157925
 20
131.3645162697
 10
290.3520157692
 20
131.4164225008
 10
290.3503651503
 20
131.4687158913
  0
LWPOLYLINE
  5
2C7
100
AcDbEntity
  8
ASSI
100
AcDbPolyline
 62
250
  6
CONTINUOUS
 90
25
 70
0
 10
291.1502433064
 20
130.6688377352
 10
291.098019621
 20
130.670538187
 10
291.0463311546
 20
130.6755950953
 10
290.9951779071
 20
130.6840084602
 10
290.9442875453
 20
130.6958530654
 10
290.8939324025
 20
130.7110541272
 10
290.8449294786
 20
130.7293872939
 10
290.7973461246
 20
130.7509056232
 10
290.7511149894
 20
130.7755560574
 10
290.70685102
 20
130.8029550719
 10
290.6646358337
 20
130.8330837603
 10
290.6243878131
 20
130.865961029
 10
290.586477053
 20
130.9012600726
 10
290.5509093342
 20
130.9389643654
 10
290.517678876
 20
130.9790904331
 10
290.4871384311
 20
131.0213610471
 10
290.4592361885
 20
131.0659233738
 10
290.4340239594
 20
131.1126302468
 10
290.4120099294
 20
131.1607629385
 10
290.3932797587
 20
131.2104280927
 10
290.3777477872
 20
131.2615190656
 10
290.3656652201
 20
131.3129971979
 10
290.3571157925
 20
131.3645162697
 10
290.3520157692
 20
131.4164225008
 10
290.3503651503
 20
131.4687158913
  0
LINE
  5
2C8
100
AcDbEntity
  8
RACCORDO
100
AcDbLine
 62
250
  6
CONTINUOUS
 10
219.3503651503
 20
131.4687158913
 11
219.3503651503
 21
184.0365060408
  0
LINE
  5
2C9
100
AcDbEntity
  8
ASSI
100
AcDbLine
 62
250
  6
CONTINUOUS
 10
219.3503651503
 20
131.4687158913
 11
219.3503651503
 21
184.0365060408
  0
LINE
  5
2CA
100
AcDbEntity
  8
RACCORDO
100
AcDbLine
 62
250
  6
CONTINUOUS
 10
219.6503194589
 20
131.4687158913
 11
219.6503194589
 21
184.0365060408
  0
LINE
  5
2CB
100
AcDbEntity
  8
ASSI
100
AcDbLine
 62
250
  6
CONTINUOUS
 10
219.6503194589
 20
131.4687158913
 11
219.6503194589
 21
184.0365060408
  0
LINE
  5
2CC
100
AcDbEntity
  8
RACCORDO
100
AcDbLine
 62
7
  6
CONTINUOUS
 10
219.6591383812
 20
184.0276871185
 11
219.6591383812
 21
131.4775348136
  0
LINE
  5
2CD
100
AcDbEntity
  8
ASSI
100
AcDbLine
 62
7
  6
CONTINUOUS
 10
219.6591383812
 20
184.0276871185
 11
219.6591383812
 21
131.4775348136
  0
LINE
  5
2CE
100
AcDbEntity
  8
RACCORDO
100
AcDbLine
 62
250
  6
CONTINUOUS
 10
220.1502433064
 20
184.8363841969
 11
220.1502433064
 21
184.5364298884
  0
LINE
  5
2CF
100
AcDbEntity
  8
ASSI
100
AcDbLine
 62
250
  6
CONTINUOUS
 10
220.1502433064
 20
184.8363841969
 11
220.1502433064
 21
184.5364298884
  0
LINE
  5
2D0
100
AcDbEntity
  8
RACCORDO
100
AcDbLine
 62
250
  6
CONTINUOUS
 10
220.1502433064
 20
130.6688377352
 11
220.1502433064
 21
130.9687920437
  0
LINE
  5
2D1
100
AcDbEntity
  8
ASSI
100
AcDbLine
 62
250
  6
CONTINUOUS
 10
220.1502433064
 20
130.6688377352
 11
220.1502433064
 21
130.9687920437
  0
LWPOLYLINE
  5
2D2
100
AcDbEntity
  8
RACCORDO
100
AcDbPolyline
 62
250
  6
CONTINUOUS
 90
25
 70
0
 10
219.6503194616
 20
184.0365060381
 10
219.6513648917
 20
184.068920258
 10
219.6545193934
 20
184.1012769359
 10
219.659785187
 20
184.1334378881
 10
219.6671651759
 20
184.1653010951
 10
219.6766382078
 20
184.1966887519
 10
219.6881349865
 20
184.2273551312
 10
219.7015885994
 20
184.2571480834
 10
219.7169435727
 20
184.2859673614
 10
219.734107479
 20
184.3136615349
 10
219.7529668394
 20
184.3400830112
 10
219.7734542056
 20
184.365169454
 10
219.7955455852
 20
184.3888977837
 10
219.8191426192
 20
184.4111553922
 10
219.8441588185
 20
184.4318541488
 10
219.870611064
 20
184.4509820533
 10
219.8984824381
 20
184.4684741808
 10
219.9276010386
 20
184.48417197
 10
219.9577445868
 20
184.497930024
 10
219.9888229658
 20
184.5096910459
 10
220.0206670022
 20
184.5193753838
 10
220.0529030912
 20
184.5268833757
 10
220.0853022633
 20
184.5322077518
 10
220.1177963261
 20
184.5353823554
 10
220.1502433093
 20
184.5364298856
  0
LWPOLYLINE
  5
2D3
100
AcDbEntity
  8
ASSI
100
AcDbPolyline
 62
250
  6
CONTINUOUS
 90
25
 70
0
 10
219.6503194616
 20
184.0365060381
 10
219.6513648917
 20
184.068920258
 10
219.6545193934
 20
184.1012769359
 10
219.659785187
 20
184.1334378881
 10
219.6671651759
 20
184.1653010951
 10
219.6766382078
 20
184.1966887519
 10
219.6881349865
 20
184.2273551312
 10
219.7015885994
 20
184.2571480834
 10
219.7169435727
 20
184.2859673614
 10
219.734107479
 20
184.3136615349
 10
219.7529668394
 20
184.3400830112
 10
219.7734542056
 20
184.365169454
 10
219.7955455852
 20
184.3888977837
 10
219.8191426192
 20
184.4111553922
 10
219.8441588185
 20
184.4318541488
 10
219.870611064
 20
184.4509820533
 10
219.8984824381
 20
184.4684741808
 10
219.9276010386
 20
184.48417197
 10
219.9577445868
 20
184.497930024
 10
219.9888229658
 20
184.5096910459
 10
220.0206670022
 20
184.5193753838
 10
220.0529030912
 20
184.5268833757
 10
220.0853022633
 20
184.5322077518
 10
220.1177963261
 20
184.5353823554
 10
220.1502433093
 20
184.5364298856
  0
LINE
  5
2D4
100
AcDbEntity
  8
RACCORDO
100
AcDbLine
 62
250
  6
CONTINUOUS
 10
264.618033456
 20
184.5364298884
 11
264.6092145336
 21
184.5276109661
  0
LINE
  5
2D5
100
AcDbEntity
  8
ASSI
100
AcDbLine
 62
250
  6
CONTINUOUS
 10
264.618033456
 20
184.5364298884
 11
264.6092145336
 21
184.5276109661
  0
LINE
  5
2D6
100
AcDbEntity
  8
RACCORDO
100
AcDbLine
 62
250
  6
CONTINUOUS
 10
265.1179573035
 20
184.0365060408
 11
265.1091383812
 21
184.0276871185
  0
LINE
  5
2D7
100
AcDbEntity
  8
ASSI
100
AcDbLine
 62
250
  6
CONTINUOUS
 10
265.1179573035
 20
184.0365060408
 11
265.1091383812
 21
184.0276871185
  0
LWPOLYLINE
  5
2D8
100
AcDbEntity
  8
0
100
AcDbPolyline
 62
7
  6
CONTINUOUS
 90
4
 70
0
 43
0.3499999917
 10
367.205559082
 20
155.3954699707
 10
366.3484350586
 20
155.3954699707
 10
365.9198474121
 20
155.8240447998
 10
365.9198474121
 20
156.4669006348
  0
LWPOLYLINE
  5
2D9
100
AcDbEntity
  8
0
100
AcDbPolyline
 62
7
  6
CONTINUOUS
 90
4
 70
0
 43
0.3499999917
 10
367.205559082
 20
157.7526123047
 10
366.3484350586
 20
157.7526123047
 10
365.9198474121
 20
158.1811871338
 10
365.9198474121
 20
158.8240429688
  0
LINE
  5
2DA
100
AcDbEntity
  8
RACCORDO
100
AcDbLine
 62
250
  6
CONTINUOUS
 10
264.618033456
 20
130.9687920437
 11
264.6092145336
 21
130.9776109661
  0
LINE
  5
2DB
100
AcDbEntity
  8
ASSI
100
AcDbLine
 62
250
  6
CONTINUOUS
 10
264.618033456
 20
130.9687920437
 11
264.6092145336
 21
130.9776109661
  0
LINE
  5
2DC
100
AcDbEntity
  8
RACCORDO
100
AcDbLine
 62
250
  6
CONTINUOUS
 10
265.1179573035
 20
131.4687158913
 11
265.1091383812
 21
131.4775348136
  0
LINE
  5
2DD
100
AcDbEntity
  8
ASSI
100
AcDbLine
 62
250
  6
CONTINUOUS
 10
265.1179573035
 20
131.4687158913
 11
265.1091383812
 21
131.4775348136
  0
LINE
  5
2DE
100
AcDbEntity
  8
RACCORDO
100
AcDbLine
 62
250
  6
CONTINUOUS
 10
219.6503194589
 20
131.4687158913
 11
219.6591383812
 21
131.4775348136
  0
LINE
  5
2DF
100
AcDbEntity
  8
ASSI
100
AcDbLine
 62
250
  6
CONTINUOUS
 10
219.6503194589
 20
131.4687158913
 11
219.6591383812
 21
131.4775348136
  0
LINE
  5
2E0
100
AcDbEntity
  8
RACCORDO
100
AcDbLine
 62
250
  6
CONTINUOUS
 10
220.1502433064
 20
130.9687920437
 11
220.1590622288
 21
130.9776109661
  0
LINE
  5
2E1
100
AcDbEntity
  8
ASSI
100
AcDbLine
 62
250
  6
CONTINUOUS
 10
220.1502433064
 20
130.9687920437
 11
220.1590622288
 21
130.9776109661
  0
LINE
  5
2E2
100
AcDbEntity
  8
RACCORDO
100
AcDbLine
 62
250
  6
CONTINUOUS
 10
219.6503194589
 20
184.0365060408
 11
219.6591383812
 21
184.0276871185
  0
LINE
  5
2E3
100
AcDbEntity
  8
ASSI
100
AcDbLine
 62
250
  6
CONTINUOUS
 10
219.6503194589
 20
184.0365060408
 11
219.6591383812
 21
184.0276871185
  0
LINE
  5
2E4
100
AcDbEntity
  8
RACCORDO
100
AcDbLine
 62
250
  6
CONTINUOUS
 10
220.1502433064
 20
184.5364298884
 11
220.1590622288
 21
184.5276109661
  0
LINE
  5
2E5
100
AcDbEntity
  8
ASSI
100
AcDbLine
 62
250
  6
CONTINUOUS
 10
220.1502433064
 20
184.5364298884
 11
220.1590622288
 21
184.5276109661
  0
LINE
  5
2E6
100
AcDbEntity
  8
RACCORDO
100
AcDbLine
 62
250
  6
CONTINUOUS
 10
264.618033456
 20
184.8363841969
 11
264.618033456
 21
184.5364298884
  0
LINE
  5
2E7
100
AcDbEntity
  8
ASSI
100
AcDbLine
 62
250
  6
CONTINUOUS
 10
264.618033456
 20
184.8363841969
 11
264.618033456
 21
184.5364298884
  0
LINE
  5
2E8
100
AcDbEntity
  8
RACCORDO
100
AcDbLine
 62
250
  6
CONTINUOUS
 10
264.618033456
 20
130.6688377352
 11
264.618033456
 21
130.9687920437
  0
LINE
  5
2E9
100
AcDbEntity
  8
ASSI
100
AcDbLine
 62
250
  6
CONTINUOUS
 10
264.618033456
 20
130.6688377352
 11
264.618033456
 21
130.9687920437
  0
LINE
  5
2EA
100
AcDbEntity
  8
RACCORDO
100
AcDbLine
 62
7
  6
CONTINUOUS
 10
265.1091383812
 20
131.4775348136
 11
265.1091383812
 21
184.0276871185
  0
LINE
  5
2EB
100
AcDbEntity
  8
ASSI
100
AcDbLine
 62
7
  6
CONTINUOUS
 10
265.1091383812
 20
131.4775348136
 11
265.1091383812
 21
184.0276871185
  0
LINE
  5
2EC
100
AcDbEntity
  8
RACCORDO
100
AcDbLine
 62
250
  6
CONTINUOUS
 10
265.1179573035
 20
184.0365060408
 11
265.1179573035
 21
131.4687158913
  0
LINE
  5
2ED
100
AcDbEntity
  8
ASSI
100
AcDbLine
 62
250
  6
CONTINUOUS
 10
265.1179573035
 20
184.0365060408
 11
265.1179573035
 21
131.4687158913
  0
LINE
  5
2EE
100
AcDbEntity
  8
RACCORDO
100
AcDbLine
 62
250
  6
CONTINUOUS
 10
265.4179116121
 20
184.0365060408
 11
265.4179116121
 21
131.4687158913
  0
LINE
  5
2EF
100
AcDbEntity
  8
ASSI
100
AcDbLine
 62
250
  6
CONTINUOUS
 10
265.4179116121
 20
184.0365060408
 11
265.4179116121
 21
131.4687158913
  0
LWPOLYLINE
  5
2F0
100
AcDbEntity
  8
RACCORDO
100
AcDbPolyline
 62
250
  6
CONTINUOUS
 90
25
 70
0
 10
265.1179573008
 20
131.468715894
 10
265.1169118707
 20
131.4363016741
 10
265.113757369
 20
131.4039449962
 10
265.1084915754
 20
131.371784044
 10
265.1011115865
 20
131.339920837
 10
265.0916385546
 20
131.3085331802
 10
265.0801417759
 20
131.2778668009
 10
265.066688163
 20
131.2480738487
 10
265.0513331897
 20
131.2192545707
 10
265.0341692834
 20
131.1915603972
 10
265.015309923
 20
131.1651389209
 10
264.9948225568
 20
131.1400524781
 10
264.9727311772
 20
131.1163241484
 10
264.9491341432
 20
131.0940665399
 10
264.9241179439
 20
131.0733677833
 10
264.8976656984
 20
131.0542398788
 10
264.8697943243
 20
131.0367477513
 10
264.8406757238
 20
131.0210499621
 10
264.8105321756
 20
131.0072919081
 10
264.7794537966
 20
130.9955308862
 10
264.7476097602
 20
130.9858465483
 10
264.7153736712
 20
130.9783385564
 10
264.6829744991
 20
130.9730141803
 10
264.6504804363
 20
130.9698395767
 10
264.6180334531
 20
130.9687920466
  0
LWPOLYLINE
  5
2F1
100
AcDbEntity
  8
ASSI
100
AcDbPolyline
 62
250
  6
CONTINUOUS
 90
25
 70
0
 10
265.1179573008
 20
131.468715894
 10
265.1169118707
 20
131.4363016741
 10
265.113757369
 20
131.4039449962
 10
265.1084915754
 20
131.371784044
 10
265.1011115865
 20
131.339920837
 10
265.0916385546
 20
131.3085331802
 10
265.0801417759
 20
131.2778668009
 10
265.066688163
 20
131.2480738487
 10
265.0513331897
 20
131.2192545707
 10
265.0341692834
 20
131.1915603972
 10
265.015309923
 20
131.1651389209
 10
264.9948225568
 20
131.1400524781
 10
264.9727311772
 20
131.1163241484
 10
264.9491341432
 20
131.0940665399
 10
264.9241179439
 20
131.0733677833
 10
264.8976656984
 20
131.0542398788
 10
264.8697943243
 20
131.0367477513
 10
264.8406757238
 20
131.0210499621
 10
264.8105321756
 20
131.0072919081
 10
264.7794537966
 20
130.9955308862
 10
264.7476097602
 20
130.9858465483
 10
264.7153736712
 20
130.9783385564
 10
264.6829744991
 20
130.9730141803
 10
264.6504804363
 20
130.9698395767
 10
264.6180334531
 20
130.9687920466
  0
LWPOLYLINE
  5
2F2
100
AcDbEntity
  8
RACCORDO
100
AcDbPolyline
 62
250
  6
CONTINUOUS
 90
25
 70
0
 10
265.4179116121
 20
131.4687158913
 10
265.4162111603
 20
131.4164922059
 10
265.4111542519
 20
131.3648037394
 10
265.4027408871
 20
131.313650492
 10
265.3908962818
 20
131.2627601302
 10
265.37569522
 20
131.2124049874
 10
265.3573620533
 20
131.1634020635
 10
265.3358437241
 20
131.1158187095
 10
265.3111932899
 20
131.0695875743
 10
265.2837942753
 20
131.0253236049
 10
265.2536655869
 20
130.9831084185
 10
265.2207883182
 20
130.9428603979
 10
265.1854892747
 20
130.9049496379
 10
265.1477849818
 20
130.8693819191
 10
265.1076589141
 20
130.8361514608
 10
265.0653883001
 20
130.8056110159
 10
265.0208259734
 20
130.7777087734
 10
264.9741191004
 20
130.7524965442
 10
264.9259864088
 20
130.7304825142
 10
264.8763212545
 20
130.7117523436
 10
264.8252302816
 20
130.6962203721
 10
264.7737521494
 20
130.684137805
 10
264.7222330776
 20
130.6755883773
 10
264.6703268464
 20
130.6704883541
 10
264.618033456
 20
130.6688377352
  0
LWPOLYLINE
  5
2F3
100
AcDbEntity
  8
ASSI
100
AcDbPolyline
 62
250
  6
CONTINUOUS
 90
25
 70
0
 10
265.4179116121
 20
131.4687158913
 10
265.4162111603
 20
131.4164922059
 10
265.4111542519
 20
131.3648037394
 10
265.4027408871
 20
131.313650492
 10
265.3908962818
 20
131.2627601302
 10
265.37569522
 20
131.2124049874
 10
265.3573620533
 20
131.1634020635
 10
265.3358437241
 20
131.1158187095
 10
265.3111932899
 20
131.0695875743
 10
265.2837942753
 20
131.0253236049
 10
265.2536655869
 20
130.9831084185
 10
265.2207883182
 20
130.9428603979
 10
265.1854892747
 20
130.9049496379
 10
265.1477849818
 20
130.8693819191
 10
265.1076589141
 20
130.8361514608
 10
265.0653883001
 20
130.8056110159
 10
265.0208259734
 20
130.7777087734
 10
264.9741191004
 20
130.7524965442
 10
264.9259864088
 20
130.7304825142
 10
264.8763212545
 20
130.7117523436
 10
264.8252302816
 20
130.6962203721
 10
264.7737521494
 20
130.684137805
 10
264.7222330776
 20
130.6755883773
 10
264.6703268464
 20
130.6704883541
 10
264.618033456
 20
130.6688377352
  0
LWPOLYLINE
  5
2F4
100
AcDbEntity
  8
RACCORDO
100
AcDbPolyline
 62
250
  6
CONTINUOUS
 90
25
 70
0
 10
193.6180334533
 20
184.5364298857
 10
193.6504476731
 20
184.5353844556
 10
193.6828043511
 20
184.5322299538
 10
193.7149653032
 20
184.5269641603
 10
193.7468285103
 20
184.5195841713
 10
193.778216167
 20
184.5101111394
 10
193.8088825463
 20
184.4986143607
 10
193.8386754985
 20
184.4851607478
 10
193.8674947765
 20
184.4698057746
 10
193.89518895
 20
184.4526418683
 10
193.9216104263
 20
184.4337825078
 10
193.9466968691
 20
184.4132951416
 10
193.9704251989
 20
184.391203762
 10
193.9926828073
 20
184.3676067281
 10
194.0133815639
 20
184.3425905288
 10
194.0325094685
 20
184.3161382832
 10
194.050001596
 20
184.2882669092
 10
194.0656993852
 20
184.2591483086
 10
194.0794574392
 20
184.2290047605
 10
194.0912184611
 20
184.1979263814
 10
194.100902799
 20
184.166082345
 10
194.1084107909
 20
184.133846256
 10
194.113735167
 20
184.101447084
 10
194.1169097705
 20
184.0689530211
 10
194.1179573007
 20
184.036506038
  0
LWPOLYLINE
  5
2F5
100
AcDbEntity
  8
ASSI
100
AcDbPolyline
 62
250
  6
CONTINUOUS
 90
25
 70
0
 10
193.6180334533
 20
184.5364298857
 10
193.6504476731
 20
184.5353844556
 10
193.6828043511
 20
184.5322299538
 10
193.7149653032
 20
184.5269641603
 10
193.7468285103
 20
184.5195841713
 10
193.778216167
 20
184.5101111394
 10
193.8088825463
 20
184.4986143607
 10
193.8386754985
 20
184.4851607478
 10
193.8674947765
 20
184.4698057746
 10
193.89518895
 20
184.4526418683
 10
193.9216104263
 20
184.4337825078
 10
193.9466968691
 20
184.4132951416
 10
193.9704251989
 20
184.391203762
 10
193.9926828073
 20
184.3676067281
 10
194.0133815639
 20
184.3425905288
 10
194.0325094685
 20
184.3161382832
 10
194.050001596
 20
184.2882669092
 10
194.0656993852
 20
184.2591483086
 10
194.0794574392
 20
184.2290047605
 10
194.0912184611
 20
184.1979263814
 10
194.100902799
 20
184.166082345
 10
194.1084107909
 20
184.133846256
 10
194.113735167
 20
184.101447084
 10
194.1169097705
 20
184.0689530211
 10
194.1179573007
 20
184.036506038
  0
LWPOLYLINE
  5
2F6
100
AcDbEntity
  8
RACCORDO
100
AcDbPolyline
 62
250
  6
CONTINUOUS
 90
25
 70
0
 10
193.618033456
 20
184.8363841969
 10
193.6702571414
 20
184.8346837451
 10
193.7219456078
 20
184.8296268368
 10
193.7730988553
 20
184.8212134719
 10
193.8239892171
 20
184.8093688667
 10
193.8743443599
 20
184.7941678049
 10
193.9233472838
 20
184.7758346382
 10
193.9709306378
 20
184.7543163089
 10
194.017161773
 20
184.7296658747
 10
194.0614257424
 20
184.7022668602
 10
194.1036409287
 20
184.6721381718
 10
194.1438889493
 20
184.6392609031
 10
194.1817997094
 20
184.6039618595
 10
194.2173674282
 20
184.5662575667
 10
194.2505978864
 20
184.526131499
 10
194.2811383313
 20
184.483860885
 10
194.3090405739
 20
184.4392985583
 10
194.334252803
 20
184.3925916853
 10
194.356266833
 20
184.3444589936
 10
194.3749970037
 20
184.2947938394
 10
194.3905289752
 20
184.2437028665
 10
194.4026115423
 20
184.1922247343
 10
194.4111609699
 20
184.1407056625
 10
194.4162609932
 20
184.0887994313
 10
194.4179116121
 20
184.0365060408
  0
LWPOLYLINE
  5
2F7
100
AcDbEntity
  8
ASSI
100
AcDbPolyline
 62
250
  6
CONTINUOUS
 90
25
 70
0
 10
193.618033456
 20
184.8363841969
 10
193.6702571414
 20
184.8346837451
 10
193.7219456078
 20
184.8296268368
 10
193.7730988553
 20
184.8212134719
 10
193.8239892171
 20
184.8093688667
 10
193.8743443599
 20
184.7941678049
 10
193.9233472838
 20
184.7758346382
 10
193.9709306378
 20
184.7543163089
 10
194.017161773
 20
184.7296658747
 10
194.0614257424
 20
184.7022668602
 10
194.1036409287
 20
184.6721381718
 10
194.1438889493
 20
184.6392609031
 10
194.1817997094
 20
184.6039618595
 10
194.2173674282
 20
184.5662575667
 10
194.2505978864
 20
184.526131499
 10
194.2811383313
 20
184.483860885
 10
194.3090405739
 20
184.4392985583
 10
194.334252803
 20
184.3925916853
 10
194.356266833
 20
184.3444589936
 10
194.3749970037
 20
184.2947938394
 10
194.3905289752
 20
184.2437028665
 10
194.4026115423
 20
184.1922247343
 10
194.4111609699
 20
184.1407056625
 10
194.4162609932
 20
184.0887994313
 10
194.4179116121
 20
184.0365060408
  0
LINE
  5
2F8
100
AcDbEntity
  8
RACCORDO
100
AcDbLine
 62
250
  6
CONTINUOUS
 10
336.4179116121
 20
184.0365060408
 11
336.1179573035
 21
184.0365060408
  0
LINE
  5
2F9
100
AcDbEntity
  8
ASSI
100
AcDbLine
 62
250
  6
CONTINUOUS
 10
336.4179116121
 20
184.0365060408
 11
336.1179573035
 21
184.0365060408
  0
LINE
  5
2FA
100
AcDbEntity
  8
RACCORDO
100
AcDbLine
 62
250
  6
CONTINUOUS
 10
265.4179116121
 20
184.0365060408
 11
265.1179573035
 21
184.0365060408
  0
LINE
  5
2FB
100
AcDbEntity
  8
ASSI
100
AcDbLine
 62
250
  6
CONTINUOUS
 10
265.4179116121
 20
184.0365060408
 11
265.1179573035
 21
184.0365060408
  0
LINE
  5
2FC
100
AcDbEntity
  8
RACCORDO
100
AcDbLine
 62
250
  6
CONTINUOUS
 10
194.4179116121
 20
184.0365060408
 11
194.1179573035
 21
184.0365060408
  0
LINE
  5
2FD
100
AcDbEntity
  8
ASSI
100
AcDbLine
 62
250
  6
CONTINUOUS
 10
194.4179116121
 20
184.0365060408
 11
194.1179573035
 21
184.0365060408
  0
LINE
  5
2FE
100
AcDbEntity
  8
RACCORDO
100
AcDbLine
 62
250
  6
CONTINUOUS
 10
148.3503651503
 20
184.0365060408
 11
148.6503194589
 21
184.0365060408
  0
LINE
  5
2FF
100
AcDbEntity
  8
ASSI
100
AcDbLine
 62
250
  6
CONTINUOUS
 10
148.3503651503
 20
184.0365060408
 11
148.6503194589
 21
184.0365060408
  0
LINE
  5
300
100
AcDbEntity
  8
RACCORDO
100
AcDbLine
 62
250
  6
CONTINUOUS
 10
219.3503651503
 20
184.0365060408
 11
219.6503194589
 21
184.0365060408
  0
LINE
  5
301
100
AcDbEntity
  8
ASSI
100
AcDbLine
 62
250
  6
CONTINUOUS
 10
219.3503651503
 20
184.0365060408
 11
219.6503194589
 21
184.0365060408
  0
LINE
  5
302
100
AcDbEntity
  8
RACCORDO
100
AcDbLine
 62
250
  6
CONTINUOUS
 10
290.3503651503
 20
184.0365060408
 11
290.6503194589
 21
184.0365060408
  0
LINE
  5
303
100
AcDbEntity
  8
ASSI
100
AcDbLine
 62
250
  6
CONTINUOUS
 10
290.3503651503
 20
184.0365060408
 11
290.6503194589
 21
184.0365060408
  0
LINE
  5
304
100
AcDbEntity
  8
RACCORDO
100
AcDbLine
 62
7
  6
CONTINUOUS
 10
335.6092145336
 20
184.5276109661
 11
291.1590622288
 21
184.5276109661
  0
LINE
  5
305
100
AcDbEntity
  8
ASSI
100
AcDbLine
 62
7
  6
CONTINUOUS
 10
335.6092145336
 20
184.5276109661
 11
291.1590622288
 21
184.5276109661
  0
LINE
  5
306
100
AcDbEntity
  8
RACCORDO
100
AcDbLine
 62
7
  6
CONTINUOUS
 10
264.6092145336
 20
184.5276109661
 11
220.1590622288
 21
184.5276109661
  0
LINE
  5
307
100
AcDbEntity
  8
ASSI
100
AcDbLine
 62
7
  6
CONTINUOUS
 10
264.6092145336
 20
184.5276109661
 11
220.1590622288
 21
184.5276109661
  0
LINE
  5
308
100
AcDbEntity
  8
RACCORDO
100
AcDbLine
 62
7
  6
CONTINUOUS
 10
193.6092145336
 20
184.5276109661
 11
149.1590622288
 21
184.5276109661
  0
LINE
  5
309
100
AcDbEntity
  8
ASSI
100
AcDbLine
 62
7
  6
CONTINUOUS
 10
193.6092145336
 20
184.5276109661
 11
149.1590622288
 21
184.5276109661
  0
LINE
  5
30A
100
AcDbEntity
  8
RACCORDO
100
AcDbLine
 62
250
  6
CONTINUOUS
 10
149.1502433064
 20
184.5364298884
 11
193.618033456
 21
184.5364298884
  0
LINE
  5
30B
100
AcDbEntity
  8
ASSI
100
AcDbLine
 62
250
  6
CONTINUOUS
 10
149.1502433064
 20
184.5364298884
 11
193.618033456
 21
184.5364298884
  0
LINE
  5
30C
100
AcDbEntity
  8
RACCORDO
100
AcDbLine
 62
250
  6
CONTINUOUS
 10
220.1502433064
 20
184.5364298884
 11
264.618033456
 21
184.5364298884
  0
LINE
  5
30D
100
AcDbEntity
  8
ASSI
100
AcDbLine
 62
250
  6
CONTINUOUS
 10
220.1502433064
 20
184.5364298884
 11
264.618033456
 21
184.5364298884
  0
LINE
  5
30E
100
AcDbEntity
  8
RACCORDO
100
AcDbLine
 62
250
  6
CONTINUOUS
 10
291.1502433064
 20
184.5364298884
 11
335.618033456
 21
184.5364298884
  0
LINE
  5
30F
100
AcDbEntity
  8
ASSI
100
AcDbLine
 62
250
  6
CONTINUOUS
 10
291.1502433064
 20
184.5364298884
 11
335.618033456
 21
184.5364298884
  0
LINE
  5
310
100
AcDbEntity
  8
RACCORDO
100
AcDbLine
 62
250
  6
CONTINUOUS
 10
149.1502433064
 20
184.8363841969
 11
193.618033456
 21
184.8363841969
  0
LINE
  5
311
100
AcDbEntity
  8
ASSI
100
AcDbLine
 62
250
  6
CONTINUOUS
 10
149.1502433064
 20
184.8363841969
 11
193.618033456
 21
184.8363841969
  0
LINE
  5
312
100
AcDbEntity
  8
RACCORDO
100
AcDbLine
 62
250
  6
CONTINUOUS
 10
220.1502433064
 20
184.8363841969
 11
264.618033456
 21
184.8363841969
  0
LINE
  5
313
100
AcDbEntity
  8
ASSI
100
AcDbLine
 62
250
  6
CONTINUOUS
 10
220.1502433064
 20
184.8363841969
 11
264.618033456
 21
184.8363841969
  0
LINE
  5
314
100
AcDbEntity
  8
RACCORDO
100
AcDbLine
 62
250
  6
CONTINUOUS
 10
291.1502433064
 20
184.8363841969
 11
335.618033456
 21
184.8363841969
  0
LINE
  5
315
100
AcDbEntity
  8
ASSI
100
AcDbLine
 62
250
  6
CONTINUOUS
 10
291.1502433064
 20
184.8363841969
 11
335.618033456
 21
184.8363841969
  0
LWPOLYLINE
  5
316
100
AcDbEntity
  8
RACCORDO
100
AcDbPolyline
 62
250
  6
CONTINUOUS
 90
25
 70
0
 10
264.6180334533
 20
184.5364298857
 10
264.6504476731
 20
184.5353844556
 10
264.6828043511
 20
184.5322299538
 10
264.7149653032
 20
184.5269641603
 10
264.7468285103
 20
184.5195841713
 10
264.778216167
 20
184.5101111394
 10
264.8088825463
 20
184.4986143607
 10
264.8386754985
 20
184.4851607478
 10
264.8674947765
 20
184.4698057746
 10
264.89518895
 20
184.4526418683
 10
264.9216104263
 20
184.4337825078
 10
264.9466968691
 20
184.4132951416
 10
264.9704251989
 20
184.391203762
 10
264.9926828073
 20
184.3676067281
 10
265.0133815639
 20
184.3425905288
 10
265.0325094685
 20
184.3161382832
 10
265.050001596
 20
184.2882669092
 10
265.0656993852
 20
184.2591483086
 10
265.0794574392
 20
184.2290047605
 10
265.0912184611
 20
184.1979263814
 10
265.100902799
 20
184.166082345
 10
265.1084107909
 20
184.133846256
 10
265.113735167
 20
184.101447084
 10
265.1169097705
 20
184.0689530211
 10
265.1179573007
 20
184.036506038
  0
LWPOLYLINE
  5
317
100
AcDbEntity
  8
ASSI
100
AcDbPolyline
 62
250
  6
CONTINUOUS
 90
25
 70
0
 10
264.6180334533
 20
184.5364298857
 10
264.6504476731
 20
184.5353844556
 10
264.6828043511
 20
184.5322299538
 10
264.7149653032
 20
184.5269641603
 10
264.7468285103
 20
184.5195841713
 10
264.778216167
 20
184.5101111394
 10
264.8088825463
 20
184.4986143607
 10
264.8386754985
 20
184.4851607478
 10
264.8674947765
 20
184.4698057746
 10
264.89518895
 20
184.4526418683
 10
264.9216104263
 20
184.4337825078
 10
264.9466968691
 20
184.4132951416
 10
264.9704251989
 20
184.391203762
 10
264.9926828073
 20
184.3676067281
 10
265.0133815639
 20
184.3425905288
 10
265.0325094685
 20
184.3161382832
 10
265.050001596
 20
184.2882669092
 10
265.0656993852
 20
184.2591483086
 10
265.0794574392
 20
184.2290047605
 10
265.0912184611
 20
184.1979263814
 10
265.100902799
 20
184.166082345
 10
265.1084107909
 20
184.133846256
 10
265.113735167
 20
184.101447084
 10
265.1169097705
 20
184.0689530211
 10
265.1179573007
 20
184.036506038
  0
LWPOLYLINE
  5
318
100
AcDbEntity
  8
RACCORDO
100
AcDbPolyline
 62
250
  6
CONTINUOUS
 90
25
 70
0
 10
335.6180334533
 20
184.5364298857
 10
335.6504476731
 20
184.5353844556
 10
335.6828043511
 20
184.5322299538
 10
335.7149653032
 20
184.5269641603
 10
335.7468285103
 20
184.5195841713
 10
335.778216167
 20
184.5101111394
 10
335.8088825463
 20
184.4986143607
 10
335.8386754985
 20
184.4851607478
 10
335.8674947765
 20
184.4698057746
 10
335.89518895
 20
184.4526418683
 10
335.9216104263
 20
184.4337825078
 10
335.9466968691
 20
184.4132951416
 10
335.9704251989
 20
184.391203762
 10
335.9926828073
 20
184.3676067281
 10
336.0133815639
 20
184.3425905288
 10
336.0325094685
 20
184.3161382832
 10
336.050001596
 20
184.2882669092
 10
336.0656993852
 20
184.2591483086
 10
336.0794574392
 20
184.2290047605
 10
336.0912184611
 20
184.1979263814
 10
336.100902799
 20
184.166082345
 10
336.1084107909
 20
184.133846256
 10
336.113735167
 20
184.101447084
 10
336.1169097705
 20
184.0689530211
 10
336.1179573007
 20
184.036506038
  0
LWPOLYLINE
  5
319
100
AcDbEntity
  8
ASSI
100
AcDbPolyline
 62
250
  6
CONTINUOUS
 90
25
 70
0
 10
335.6180334533
 20
184.5364298857
 10
335.6504476731
 20
184.5353844556
 10
335.6828043511
 20
184.5322299538
 10
335.7149653032
 20
184.5269641603
 10
335.7468285103
 20
184.5195841713
 10
335.778216167
 20
184.5101111394
 10
335.8088825463
 20
184.4986143607
 10
335.8386754985
 20
184.4851607478
 10
335.8674947765
 20
184.4698057746
 10
335.89518895
 20
184.4526418683
 10
335.9216104263
 20
184.4337825078
 10
335.9466968691
 20
184.4132951416
 10
335.9704251989
 20
184.391203762
 10
335.9926828073
 20
184.3676067281
 10
336.0133815639
 20
184.3425905288
 10
336.0325094685
 20
184.3161382832
 10
336.050001596
 20
184.2882669092
 10
336.0656993852
 20
184.2591483086
 10
336.0794574392
 20
184.2290047605
 10
336.0912184611
 20
184.1979263814
 10
336.100902799
 20
184.166082345
 10
336.1084107909
 20
184.133846256
 10
336.113735167
 20
184.101447084
 10
336.1169097705
 20
184.0689530211
 10
336.1179573007
 20
184.036506038
  0
LWPOLYLINE
  5
31A
100
AcDbEntity
  8
RACCORDO
100
AcDbPolyline
 62
250
  6
CONTINUOUS
 90
25
 70
0
 10
264.618033456
 20
184.8363841969
 10
264.6702571414
 20
184.8346837451
 10
264.7219456078
 20
184.8296268368
 10
264.7730988553
 20
184.8212134719
 10
264.8239892171
 20
184.8093688667
 10
264.8743443599
 20
184.7941678049
 10
264.9233472838
 20
184.7758346382
 10
264.9709306378
 20
184.7543163089
 10
265.017161773
 20
184.7296658747
 10
265.0614257424
 20
184.7022668602
 10
265.1036409287
 20
184.6721381718
 10
265.1438889493
 20
184.6392609031
 10
265.1817997094
 20
184.6039618595
 10
265.2173674282
 20
184.5662575667
 10
265.2505978864
 20
184.526131499
 10
265.2811383313
 20
184.483860885
 10
265.3090405739
 20
184.4392985583
 10
265.334252803
 20
184.3925916853
 10
265.356266833
 20
184.3444589936
 10
265.3749970037
 20
184.2947938394
 10
265.3905289752
 20
184.2437028665
 10
265.4026115423
 20
184.1922247343
 10
265.4111609699
 20
184.1407056625
 10
265.4162609932
 20
184.0887994313
 10
265.4179116121
 20
184.0365060408
  0
LWPOLYLINE
  5
31B
100
AcDbEntity
  8
ASSI
100
AcDbPolyline
 62
250
  6
CONTINUOUS
 90
25
 70
0
 10
264.618033456
 20
184.8363841969
 10
264.6702571414
 20
184.8346837451
 10
264.7219456078
 20
184.8296268368
 10
264.7730988553
 20
184.8212134719
 10
264.8239892171
 20
184.8093688667
 10
264.8743443599
 20
184.7941678049
 10
264.9233472838
 20
184.7758346382
 10
264.9709306378
 20
184.7543163089
 10
265.017161773
 20
184.7296658747
 10
265.0614257424
 20
184.7022668602
 10
265.1036409287
 20
184.6721381718
 10
265.1438889493
 20
184.6392609031
 10
265.1817997094
 20
184.6039618595
 10
265.2173674282
 20
184.5662575667
 10
265.2505978864
 20
184.526131499
 10
265.2811383313
 20
184.483860885
 10
265.3090405739
 20
184.4392985583
 10
265.334252803
 20
184.3925916853
 10
265.356266833
 20
184.3444589936
 10
265.3749970037
 20
184.2947938394
 10
265.3905289752
 20
184.2437028665
 10
265.4026115423
 20
184.1922247343
 10
265.4111609699
 20
184.1407056625
 10
265.4162609932
 20
184.0887994313
 10
265.4179116121
 20
184.0365060408
  0
LWPOLYLINE
  5
31C
100
AcDbEntity
  8
RACCORDO
100
AcDbPolyline
 62
250
  6
CONTINUOUS
 90
25
 70
0
 10
335.618033456
 20
184.8363841969
 10
335.6702571414
 20
184.8346837451
 10
335.7219456078
 20
184.8296268368
 10
335.7730988553
 20
184.8212134719
 10
335.8239892171
 20
184.8093688667
 10
335.8743443599
 20
184.7941678049
 10
335.9233472838
 20
184.7758346382
 10
335.9709306378
 20
184.7543163089
 10
336.017161773
 20
184.7296658747
 10
336.0614257424
 20
184.7022668602
 10
336.1036409287
 20
184.6721381718
 10
336.1438889493
 20
184.6392609031
 10
336.1817997094
 20
184.6039618595
 10
336.2173674282
 20
184.5662575667
 10
336.2505978864
 20
184.526131499
 10
336.2811383313
 20
184.483860885
 10
336.3090405739
 20
184.4392985583
 10
336.334252803
 20
184.3925916853
 10
336.356266833
 20
184.3444589936
 10
336.3749970037
 20
184.2947938394
 10
336.3905289752
 20
184.2437028665
 10
336.4026115423
 20
184.1922247343
 10
336.4111609699
 20
184.1407056625
 10
336.4162609932
 20
184.0887994313
 10
336.4179116121
 20
184.0365060408
  0
LWPOLYLINE
  5
31D
100
AcDbEntity
  8
ASSI
100
AcDbPolyline
 62
250
  6
CONTINUOUS
 90
25
 70
0
 10
335.618033456
 20
184.8363841969
 10
335.6702571414
 20
184.8346837451
 10
335.7219456078
 20
184.8296268368
 10
335.7730988553
 20
184.8212134719
 10
335.8239892171
 20
184.8093688667
 10
335.8743443599
 20
184.7941678049
 10
335.9233472838
 20
184.7758346382
 10
335.9709306378
 20
184.7543163089
 10
336.017161773
 20
184.7296658747
 10
336.0614257424
 20
184.7022668602
 10
336.1036409287
 20
184.6721381718
 10
336.1438889493
 20
184.6392609031
 10
336.1817997094
 20
184.6039618595
 10
336.2173674282
 20
184.5662575667
 10
336.2505978864
 20
184.526131499
 10
336.2811383313
 20
184.483860885
 10
336.3090405739
 20
184.4392985583
 10
336.334252803
 20
184.3925916853
 10
336.356266833
 20
184.3444589936
 10
336.3749970037
 20
184.2947938394
 10
336.3905289752
 20
184.2437028665
 10
336.4026115423
 20
184.1922247343
 10
336.4111609699
 20
184.1407056625
 10
336.4162609932
 20
184.0887994313
 10
336.4179116121
 20
184.0365060408
  0
LINE
  5
31E
100
AcDbEntity
  8
RACCORDO
100
AcDbLine
 62
250
  6
CONTINUOUS
 10
127.115418783
 20
200.0227010295
 11
126.6161040157
 21
200.0227010295
  0
LINE
  5
31F
100
AcDbEntity
  8
ASSI
100
AcDbLine
 62
250
  6
CONTINUOUS
 10
127.115418783
 20
200.0227010295
 11
126.6161040157
 21
200.0227010295
  0
LINE
  5
320
100
AcDbEntity
  8
RACCORDO
100
AcDbLine
 62
250
  6
CONTINUOUS
 10
357.6528579794
 20
200.0227010295
 11
358.1521727467
 21
200.0227010295
  0
LINE
  5
321
100
AcDbEntity
  8
ASSI
100
AcDbLine
 62
250
  6
CONTINUOUS
 10
357.6528579794
 20
200.0227010295
 11
358.1521727467
 21
200.0227010295
  0
LINE
  5
322
100
AcDbEntity
  8
RACCORDO
100
AcDbLine
 62
250
  6
CONTINUOUS
 10
290.3503651503
 20
131.4687158913
 11
290.3503651503
 21
184.0365060408
  0
LINE
  5
323
100
AcDbEntity
  8
ASSI
100
AcDbLine
 62
250
  6
CONTINUOUS
 10
290.3503651503
 20
131.4687158913
 11
290.3503651503
 21
184.0365060408
  0
LINE
  5
324
100
AcDbEntity
  8
RACCORDO
100
AcDbLine
 62
250
  6
CONTINUOUS
 10
290.6503194589
 20
131.4687158913
 11
290.6503194589
 21
184.0365060408
  0
LINE
  5
325
100
AcDbEntity
  8
ASSI
100
AcDbLine
 62
250
  6
CONTINUOUS
 10
290.6503194589
 20
131.4687158913
 11
290.6503194589
 21
184.0365060408
  0
LINE
  5
326
100
AcDbEntity
  8
RACCORDO
100
AcDbLine
 62
7
  6
CONTINUOUS
 10
290.6591383812
 20
184.0276871185
 11
290.6591383812
 21
131.4775348136
  0
LINE
  5
327
100
AcDbEntity
  8
ASSI
100
AcDbLine
 62
7
  6
CONTINUOUS
 10
290.6591383812
 20
184.0276871185
 11
290.6591383812
 21
131.4775348136
  0
LINE
  5
328
100
AcDbEntity
  8
RACCORDO
100
AcDbLine
 62
250
  6
CONTINUOUS
 10
291.1502433064
 20
184.8363841969
 11
291.1502433064
 21
184.5364298884
  0
LINE
  5
329
100
AcDbEntity
  8
ASSI
100
AcDbLine
 62
250
  6
CONTINUOUS
 10
291.1502433064
 20
184.8363841969
 11
291.1502433064
 21
184.5364298884
  0
LINE
  5
32A
100
AcDbEntity
  8
RACCORDO
100
AcDbLine
 62
250
  6
CONTINUOUS
 10
291.1502433064
 20
130.6688377352
 11
291.1502433064
 21
130.9687920437
  0
LINE
  5
32B
100
AcDbEntity
  8
ASSI
100
AcDbLine
 62
250
  6
CONTINUOUS
 10
291.1502433064
 20
130.6688377352
 11
291.1502433064
 21
130.9687920437
  0
LWPOLYLINE
  5
32C
100
AcDbEntity
  8
RACCORDO
100
AcDbPolyline
 62
250
  6
CONTINUOUS
 90
25
 70
0
 10
290.6503194616
 20
184.0365060381
 10
290.6513648917
 20
184.068920258
 10
290.6545193934
 20
184.1012769359
 10
290.659785187
 20
184.1334378881
 10
290.6671651759
 20
184.1653010951
 10
290.6766382078
 20
184.1966887519
 10
290.6881349865
 20
184.2273551312
 10
290.7015885994
 20
184.2571480834
 10
290.7169435727
 20
184.2859673614
 10
290.734107479
 20
184.3136615349
 10
290.7529668394
 20
184.3400830112
 10
290.7734542056
 20
184.365169454
 10
290.7955455852
 20
184.3888977837
 10
290.8191426192
 20
184.4111553922
 10
290.8441588185
 20
184.4318541488
 10
290.870611064
 20
184.4509820533
 10
290.8984824381
 20
184.4684741808
 10
290.9276010386
 20
184.48417197
 10
290.9577445868
 20
184.497930024
 10
290.9888229658
 20
184.5096910459
 10
291.0206670022
 20
184.5193753838
 10
291.0529030912
 20
184.5268833757
 10
291.0853022633
 20
184.5322077518
 10
291.1177963261
 20
184.5353823554
 10
291.1502433093
 20
184.5364298856
  0
LWPOLYLINE
  5
32D
100
AcDbEntity
  8
ASSI
100
AcDbPolyline
 62
250
  6
CONTINUOUS
 90
25
 70
0
 10
290.6503194616
 20
184.0365060381
 10
290.6513648917
 20
184.068920258
 10
290.6545193934
 20
184.1012769359
 10
290.659785187
 20
184.1334378881
 10
290.6671651759
 20
184.1653010951
 10
290.6766382078
 20
184.1966887519
 10
290.6881349865
 20
184.2273551312
 10
290.7015885994
 20
184.2571480834
 10
290.7169435727
 20
184.2859673614
 10
290.734107479
 20
184.3136615349
 10
290.7529668394
 20
184.3400830112
 10
290.7734542056
 20
184.365169454
 10
290.7955455852
 20
184.3888977837
 10
290.8191426192
 20
184.4111553922
 10
290.8441588185
 20
184.4318541488
 10
290.870611064
 20
184.4509820533
 10
290.8984824381
 20
184.4684741808
 10
290.9276010386
 20
184.48417197
 10
290.9577445868
 20
184.497930024
 10
290.9888229658
 20
184.5096910459
 10
291.0206670022
 20
184.5193753838
 10
291.0529030912
 20
184.5268833757
 10
291.0853022633
 20
184.5322077518
 10
291.1177963261
 20
184.5353823554
 10
291.1502433093
 20
184.5364298856
  0
LWPOLYLINE
  5
32E
100
AcDbEntity
  8
RACCORDO
100
AcDbPolyline
 62
250
  6
CONTINUOUS
 90
25
 70
0
 10
290.3503651503
 20
184.0365060408
 10
290.3520656021
 20
184.0887297262
 10
290.3571225105
 20
184.1404181927
 10
290.3655358753
 20
184.1915714402
 10
290.3773804806
 20
184.2424618019
 10
290.3925815424
 20
184.2928169447
 10
290.4109147091
 20
184.3418198686
 10
290.4324330383
 20
184.3894032227
 10
290.4570834726
 20
184.4356343578
 10
290.4844824871
 20
184.4798983273
 10
290.5146111755
 20
184.5221135136
 10
290.5474884442
 20
184.5623615342
 10
290.5827874877
 20
184.6002722942
 10
290.6204917806
 20
184.635840013
 10
290.6606178483
 20
184.6690704713
 10
290.7028884623
 20
184.6996109162
 10
290.747450789
 20
184.7275131587
 10
290.794157662
 20
184.7527253879
 10
290.8422903536
 20
184.7747394179
 10
290.8919555079
 20
184.7934695885
 10
290.9430464808
 20
184.80900156
 10
290.994524613
 20
184.8210841272
 10
291.0460436848
 20
184.8296335548
 10
291.097949916
 20
184.8347335781
 10
291.1502433064
 20
184.8363841969
  0
LWPOLYLINE
  5
32F
100
AcDbEntity
  8
ASSI
100
AcDbPolyline
 62
250
  6
CONTINUOUS
 90
25
 70
0
 10
290.3503651503
 20
184.0365060408
 10
290.3520656021
 20
184.0887297262
 10
290.3571225105
 20
184.1404181927
 10
290.3655358753
 20
184.1915714402
 10
290.3773804806
 20
184.2424618019
 10
290.3925815424
 20
184.2928169447
 10
290.4109147091
 20
184.3418198686
 10
290.4324330383
 20
184.3894032227
 10
290.4570834726
 20
184.4356343578
 10
290.4844824871
 20
184.4798983273
 10
290.5146111755
 20
184.5221135136
 10
290.5474884442
 20
184.5623615342
 10
290.5827874877
 20
184.6002722942
 10
290.6204917806
 20
184.635840013
 10
290.6606178483
 20
184.6690704713
 10
290.7028884623
 20
184.6996109162
 10
290.747450789
 20
184.7275131587
 10
290.794157662
 20
184.7527253879
 10
290.8422903536
 20
184.7747394179
 10
290.8919555079
 20
184.7934695885
 10
290.9430464808
 20
184.80900156
 10
290.994524613
 20
184.8210841272
 10
291.0460436848
 20
184.8296335548
 10
291.097949916
 20
184.8347335781
 10
291.1502433064
 20
184.8363841969
  0
LINE
  5
330
100
AcDbEntity
  8
RACCORDO
100
AcDbLine
 62
250
  6
CONTINUOUS
 10
335.618033456
 20
184.5364298884
 11
335.6092145336
 21
184.5276109661
  0
LINE
  5
331
100
AcDbEntity
  8
ASSI
100
AcDbLine
 62
250
  6
CONTINUOUS
 10
335.618033456
 20
184.5364298884
 11
335.6092145336
 21
184.5276109661
  0
LINE
  5
332
100
AcDbEntity
  8
RACCORDO
100
AcDbLine
 62
250
  6
CONTINUOUS
 10
336.1179573035
 20
184.0365060408
 11
336.1091383812
 21
184.0276871185
  0
LINE
  5
333
100
AcDbEntity
  8
ASSI
100
AcDbLine
 62
250
  6
CONTINUOUS
 10
336.1179573035
 20
184.0365060408
 11
336.1091383812
 21
184.0276871185
  0
LINE
  5
334
100
AcDbEntity
  8
RACCORDO
100
AcDbLine
 62
250
  6
CONTINUOUS
 10
356.6542284446
 20
201.5206453316
 11
356.8861940791
 21
201.7526109661
  0
LINE
  5
335
100
AcDbEntity
  8
ASSI
100
AcDbLine
 62
250
  6
CONTINUOUS
 10
356.6542284446
 20
201.5206453316
 11
356.8861940791
 21
201.7526109661
  0
LWPOLYLINE
  5
336
100
AcDbEntity
  8
RACCORDO
100
AcDbPolyline
 62
250
  6
CONTINUOUS
 90
31
 70
0
 10
128.1140483178
 20
201.0213305642
 10
128.0613674254
 20
201.0199043146
 10
128.0091974984
 20
201.0158003406
 10
127.9575385369
 20
201.0090186425
 10
127.9062832076
 20
200.9995279738
 10
127.8555388437
 20
200.9873595808
 10
127.8056274446
 20
200.9726072024
 10
127.7565212734
 20
200.9552468331
 10
127.7082480669
 20
200.9353024783
 10
127.6612130357
 20
200.912939893
 10
127.6154326221
 20
200.8881416574
 10
127.5708903837
 20
200.8609251914
 10
127.5279422043
 20
200.8315085097
 10
127.486598837
 20
200.7998727263
 10
127.4468495287
 20
200.7660367272
 10
127.4090179035
 20
200.7302751856
 10
127.3731196627
 20
200.692572137
 10
127.3391391049
 20
200.6529435457
 10
127.3073527508
 20
200.6117119776
 10
127.2777876972
 20
200.5688915917
 10
127.2504168472
 20
200.5244682289
 10
127.2254354306
 20
200.4787219776
 10
127.202841333
 20
200.4316188642
 10
127.1826366688
 20
200.3831928623
 10
127.1650230108
 20
200.3338259802
 10
127.1500207556
 20
200.2834947835
 10
127.1376095065
 20
200.2322227066
 10
127.1279296464
 20
200.1804620616
 10
127.1210279696
 20
200.1283636191
 10
127.1168576818
 20
200.0757766083
 10
127.115418783
 20
200.0227010295
  0
LWPOLYLINE
  5
337
100
AcDbEntity
  8
ASSI
100
AcDbPolyline
 62
250
  6
CONTINUOUS
 90
31
 70
0
 10
128.1140483178
 20
201.0213305642
 10
128.0613674254
 20
201.0199043146
 10
128.0091974984
 20
201.0158003406
 10
127.9575385369
 20
201.0090186425
 10
127.9062832076
 20
200.9995279738
 10
127.8555388437
 20
200.9873595808
 10
127.8056274446
 20
200.9726072024
 10
127.7565212734
 20
200.9552468331
 10
127.7082480669
 20
200.9353024783
 10
127.6612130357
 20
200.912939893
 10
127.6154326221
 20
200.8881416574
 10
127.5708903837
 20
200.8609251914
 10
127.5279422043
 20
200.8315085097
 10
127.486598837
 20
200.7998727263
 10
127.4468495287
 20
200.7660367272
 10
127.4090179035
 20
200.7302751856
 10
127.3731196627
 20
200.692572137
 10
127.3391391049
 20
200.6529435457
 10
127.3073527508
 20
200.6117119776
 10
127.2777876972
 20
200.5688915917
 10
127.2504168472
 20
200.5244682289
 10
127.2254354306
 20
200.4787219776
 10
127.202841333
 20
200.4316188642
 10
127.1826366688
 20
200.3831928623
 10
127.1650230108
 20
200.3338259802
 10
127.1500207556
 20
200.2834947835
 10
127.1376095065
 20
200.2322227066
 10
127.1279296464
 20
200.1804620616
 10
127.1210279696
 20
200.1283636191
 10
127.1168576818
 20
200.0757766083
 10
127.115418783
 20
200.0227010295
  0
LWPOLYLINE
  5
338
100
AcDbEntity
  8
RACCORDO
100
AcDbPolyline
 62
250
  6
CONTINUOUS
 90
31
 70
0
 10
128.1140483178
 20
201.5206453316
 10
128.0354454072
 20
201.5185140769
 10
127.9571853667
 20
201.5122804459
 10
127.8794805836
 20
201.5019805202
 10
127.8025842427
 20
201.4876709568
 10
127.7266569559
 20
201.4694042402
 10
127.6517717022
 20
201.4472055918
 10
127.578082923
 20
201.4211142155
 10
127.5058419143
 20
201.3912124993
 10
127.4352658311
 20
201.357588889
 10
127.3665547607
 20
201.3203407817
 10
127.2998851244
 20
201.2795661674
 10
127.2354303866
 20
201.2353710106
 10
127.1733629257
 20
201.187872643
 10
127.1138543982
 20
201.1372017703
 10
127.0570680973
 20
201.0834968626
 10
127.0031582648
 20
201.0269034123
 10
126.9522714492
 20
200.9675751591
 10
126.9045472895
 20
200.9056751295
 10
126.8601389216
 20
200.8414075313
 10
126.819139421
 20
200.7749132479
 10
126.7816015529
 20
200.7062598851
 10
126.7476273565
 20
200.6355856645
 10
126.7173489525
 20
200.563111999
 10
126.6908675444
 20
200.4890312713
 10
126.6682698251
 20
200.4135223426
 10
126.64964381
 20
200.3368051842
 10
126.6350686766
 20
200.2591442032
 10
126.6245974214
 20
200.1807716045
 10
126.618266322
 20
200.1018844752
 10
126.6161040157
 20
200.0227010295
  0
LWPOLYLINE
  5
339
100
AcDbEntity
  8
ASSI
100
AcDbPolyline
 62
250
  6
CONTINUOUS
 90
31
 70
0
 10
128.1140483178
 20
201.5206453316
 10
128.0354454072
 20
201.5185140769
 10
127.9571853667
 20
201.5122804459
 10
127.8794805836
 20
201.5019805202
 10
127.8025842427
 20
201.4876709568
 10
127.7266569559
 20
201.4694042402
 10
127.6517717022
 20
201.4472055918
 10
127.578082923
 20
201.4211142155
 10
127.5058419143
 20
201.3912124993
 10
127.4352658311
 20
201.357588889
 10
127.3665547607
 20
201.3203407817
 10
127.2998851244
 20
201.2795661674
 10
127.2354303866
 20
201.2353710106
 10
127.1733629257
 20
201.187872643
 10
127.1138543982
 20
201.1372017703
 10
127.0570680973
 20
201.0834968626
 10
127.0031582648
 20
201.0269034123
 10
126.9522714492
 20
200.9675751591
 10
126.9045472895
 20
200.9056751295
 10
126.8601389216
 20
200.8414075313
 10
126.819139421
 20
200.7749132479
 10
126.7816015529
 20
200.7062598851
 10
126.7476273565
 20
200.6355856645
 10
126.7173489525
 20
200.563111999
 10
126.6908675444
 20
200.4890312713
 10
126.6682698251
 20
200.4135223426
 10
126.64964381
 20
200.3368051842
 10
126.6350686766
 20
200.2591442032
 10
126.6245974214
 20
200.1807716045
 10
126.618266322
 20
200.1018844752
 10
126.6161040157
 20
200.0227010295
  0
LWPOLYLINE
  5
33A
100
AcDbEntity
  8
0
100
AcDbPolyline
 62
7
  6
CONTINUOUS
 90
31
 70
0
 10
127.8820826833
 20
201.7526109661
 10
127.803777568
 20
201.7505691995
 10
127.7255362996
 20
201.7444294051
 10
127.6475740202
 20
201.7341835984
 10
127.5700015212
 20
201.719813203
 10
127.4931447722
 20
201.7013441489
 10
127.4175310965
 20
201.6789019761
 10
127.3434529298
 20
201.6526080239
 10
127.2710103413
 20
201.6225334839
 10
127.2004193899
 20
201.5887973949
 10
127.1320099311
 20
201.5516060484
 10
127.0657924913
 20
201.5110147498
 10
127.001530646
 20
201.4668678291
 10
126.9392187812
 20
201.4190797877
 10
126.8792779158
 20
201.3678883954
 10
126.8221171652
 20
201.313611196
 10
126.7678894799
 20
201.2563917422
 10
126.7167502523
 20
201.1963936993
 10
126.669030791
 20
201.1340457717
 10
126.6249636792
 20
201.0697682927
 10
126.5844625789
 20
201.0035601035
 10
126.5473843841
 20
200.9352168535
 10
126.5137919276
 20
200.8647881395
 10
126.4838629835
 20
200.7925725887
 10
126.4576818031
 20
200.7187095513
 10
126.4353174058
 20
200.6432773137
 10
126.4169012567
 20
200.5665837597
 10
126.4025585816
 20
200.4891300081
 10
126.3923219241
 20
200.4112315936
 10
126.3861819617
 20
200.3330056742
 10
126.3841383812
 20
200.2546666639
  0
LWPOLYLINE
  5
33B
100
AcDbEntity
  8
ASSI
100
AcDbPolyline
 62
7
  6
CONTINUOUS
 90
31
 70
0
 10
127.8820826833
 20
201.7526109661
 10
127.803777568
 20
201.7505691995
 10
127.7255362996
 20
201.7444294051
 10
127.6475740202
 20
201.7341835984
 10
127.5700015212
 20
201.719813203
 10
127.4931447722
 20
201.7013441489
 10
127.4175310965
 20
201.6789019761
 10
127.3434529298
 20
201.6526080239
 10
127.2710103413
 20
201.6225334839
 10
127.2004193899
 20
201.5887973949
 10
127.1320099311
 20
201.5516060484
 10
127.0657924913
 20
201.5110147498
 10
127.001530646
 20
201.4668678291
 10
126.9392187812
 20
201.4190797877
 10
126.8792779158
 20
201.3678883954
 10
126.8221171652
 20
201.313611196
 10
126.7678894799
 20
201.2563917422
 10
126.7167502523
 20
201.1963936993
 10
126.669030791
 20
201.1340457717
 10
126.6249636792
 20
201.0697682927
 10
126.5844625789
 20
201.0035601035
 10
126.5473843841
 20
200.9352168535
 10
126.5137919276
 20
200.8647881395
 10
126.4838629835
 20
200.7925725887
 10
126.4576818031
 20
200.7187095513
 10
126.4353174058
 20
200.6432773137
 10
126.4169012567
 20
200.5665837597
 10
126.4025585816
 20
200.4891300081
 10
126.3923219241
 20
200.4112315936
 10
126.3861819617
 20
200.3330056742
 10
126.3841383812
 20
200.2546666639
  0
LINE
  5
33C
100
AcDbEntity
  8
RACCORDO
100
AcDbLine
 62
250
  6
CONTINUOUS
 10
356.6542284446
 20
201.0213305642
 11
128.1140483178
 21
201.0213305642
  0
LINE
  5
33D
100
AcDbEntity
  8
ASSI
100
AcDbLine
 62
250
  6
CONTINUOUS
 10
356.6542284446
 20
201.0213305642
 11
128.1140483178
 21
201.0213305642
  0
LINE
  5
33E
100
AcDbEntity
  8
RACCORDO
100
AcDbLine
 62
250
  6
CONTINUOUS
 10
356.6542284446
 20
201.5206453316
 11
128.1140483178
 21
201.5206453316
  0
LINE
  5
33F
100
AcDbEntity
  8
ASSI
100
AcDbLine
 62
250
  6
CONTINUOUS
 10
356.6542284446
 20
201.5206453316
 11
128.1140483178
 21
201.5206453316
  0
LINE
  5
340
100
AcDbEntity
  8
0
100
AcDbLine
 62
7
  6
CONTINUOUS
 10
356.8861940791
 20
201.7526109661
 11
127.8820826833
 21
201.7526109661
  0
LINE
  5
341
100
AcDbEntity
  8
ASSI
100
AcDbLine
 62
7
  6
CONTINUOUS
 10
356.8861940791
 20
201.7526109661
 11
127.8820826833
 21
201.7526109661
  0
LINE
  5
342
100
AcDbEntity
  8
RACCORDO
100
AcDbLine
 62
250
  6
CONTINUOUS
 10
335.618033456
 20
130.9687920437
 11
335.6092145336
 21
130.9776109661
  0
LINE
  5
343
100
AcDbEntity
  8
ASSI
100
AcDbLine
 62
250
  6
CONTINUOUS
 10
335.618033456
 20
130.9687920437
 11
335.6092145336
 21
130.9776109661
  0
LINE
  5
344
100
AcDbEntity
  8
RACCORDO
100
AcDbLine
 62
250
  6
CONTINUOUS
 10
336.1179573035
 20
131.4687158913
 11
336.1091383812
 21
131.4775348136
  0
LINE
  5
345
100
AcDbEntity
  8
ASSI
100
AcDbLine
 62
250
  6
CONTINUOUS
 10
336.1179573035
 20
131.4687158913
 11
336.1091383812
 21
131.4775348136
  0
LINE
  5
346
100
AcDbEntity
  8
RACCORDO
100
AcDbLine
 62
250
  6
CONTINUOUS
 10
356.6542284446
 20
113.9845766005
 11
356.8861940791
 21
113.7526109661
  0
LINE
  5
347
100
AcDbEntity
  8
ASSI
100
AcDbLine
 62
250
  6
CONTINUOUS
 10
356.6542284446
 20
113.9845766005
 11
356.8861940791
 21
113.7526109661
  0
LINE
  5
348
100
AcDbEntity
  8
RACCORDO
100
AcDbLine
 62
250
  6
CONTINUOUS
 10
358.1521727467
 20
200.0227010295
 11
358.3841383812
 21
200.2546666639
  0
LINE
  5
349
100
AcDbEntity
  8
ASSI
100
AcDbLine
 62
250
  6
CONTINUOUS
 10
358.1521727467
 20
200.0227010295
 11
358.3841383812
 21
200.2546666639
  0
LINE
  5
34A
100
AcDbEntity
  8
RACCORDO
100
AcDbLine
 62
250
  6
CONTINUOUS
 10
290.6503194589
 20
131.4687158913
 11
290.6591383812
 21
131.4775348136
  0
LINE
  5
34B
100
AcDbEntity
  8
ASSI
100
AcDbLine
 62
250
  6
CONTINUOUS
 10
290.6503194589
 20
131.4687158913
 11
290.6591383812
 21
131.4775348136
  0
LINE
  5
34C
100
AcDbEntity
  8
RACCORDO
100
AcDbLine
 62
250
  6
CONTINUOUS
 10
291.1502433064
 20
130.9687920437
 11
291.1590622288
 21
130.9776109661
  0
LINE
  5
34D
100
AcDbEntity
  8
ASSI
100
AcDbLine
 62
250
  6
CONTINUOUS
 10
291.1502433064
 20
130.9687920437
 11
291.1590622288
 21
130.9776109661
  0
LWPOLYLINE
  5
34E
100
AcDbEntity
  8
0
100
AcDbPolyline
 62
7
  6
CONTINUOUS
 90
7
 70
0
 43
0.3499999917
 10
244.9555664062
 20
212.5026013184
 10
243.4555737305
 20
212.5026013184
 10
244.9555664062
 20
214.6454626465
 10
244.9555664062
 20
215.074050293
 10
244.5270043945
 20
215.5026123047
 10
243.8841357422
 20
215.5026123047
 10
243.4555737305
 20
214.8597436523
  0
LWPOLYLINE
  5
34F
100
AcDbEntity
  8
0
100
AcDbPolyline
 62
7
  6
CONTINUOUS
 90
7
 70
0
 43
0.3499999917
 10
240.4555627441
 20
212.5026013184
 10
238.9555700684
 20
212.5026013184
 10
240.4555627441
 20
214.6454626465
 10
240.4555627441
 20
215.074050293
 10
240.0270007324
 20
215.5026123047
 10
239.3841320801
 20
215.5026123047
 10
238.9555700684
 20
214.8597436523
  0
LWPOLYLINE
  5
350
100
AcDbEntity
  8
0
100
AcDbPolyline
 62
7
  6
CONTINUOUS
 90
6
 70
0
 43
0.3499999917
 10
241.3127124023
 20
212.5026013184
 10
242.3841430664
 20
212.5026013184
 10
242.5984240723
 20
212.716907959
 10
242.5984240723
 20
213.7883129883
 10
242.1698620605
 20
214.2169006348
 10
241.7412744141
 20
214.2169006348
  0
LINE
  5
351
100
AcDbEntity
  8
RACCORDO
100
AcDbLine
 62
250
  6
CONTINUOUS
 10
358.1521727467
 20
115.4825209027
 11
358.3841383812
 21
115.2505552682
  0
LINE
  5
352
100
AcDbEntity
  8
ASSI
100
AcDbLine
 62
250
  6
CONTINUOUS
 10
358.1521727467
 20
115.4825209027
 11
358.3841383812
 21
115.2505552682
  0
LINE
  5
353
100
AcDbEntity
  8
RACCORDO
100
AcDbLine
 62
250
  6
CONTINUOUS
 10
290.6503194589
 20
184.0365060408
 11
290.6591383812
 21
184.0276871185
  0
LINE
  5
354
100
AcDbEntity
  8
ASSI
100
AcDbLine
 62
250
  6
CONTINUOUS
 10
290.6503194589
 20
184.0365060408
 11
290.6591383812
 21
184.0276871185
  0
LINE
  5
355
100
AcDbEntity
  8
RACCORDO
100
AcDbLine
 62
250
  6
CONTINUOUS
 10
291.1502433064
 20
184.5364298884
 11
291.1590622288
 21
184.5276109661
  0
LINE
  5
356
100
AcDbEntity
  8
ASSI
100
AcDbLine
 62
250
  6
CONTINUOUS
 10
291.1502433064
 20
184.5364298884
 11
291.1590622288
 21
184.5276109661
  0
LINE
  5
357
100
AcDbEntity
  8
SCRITTE
100
AcDbLine
 62
250
  6
CONTINUOUS
 10
358.3189947254
 20
122.0942009661
 11
358.25055766
 21
122.1842849661
  0
LINE
  5
358
100
AcDbEntity
  8
SCRITTE
100
AcDbLine
 62
250
  6
CONTINUOUS
 10
358.2141876569
 20
121.8754169661
 11
358.3189947254
 21
121.6948429661
  0
LWPOLYLINE
  5
359
100
AcDbEntity
  8
SCRITTE
100
AcDbPolyline
 62
250
  6
CONTINUOUS
 90
24
 70
0
 10
358.2445272188
 20
126.520619092
 10
358.2441346722
 20
126.5203871323
 10
358.2437442825
 20
126.5199276924
 10
358.2433559071
 20
126.5192429704
 10
358.2429694037
 20
126.5183351643
 10
358.2425846298
 20
126.5172064721
 10
358.2422014428
 20
126.515859092
 10
358.2418197005
 20
126.5142952218
 10
358.2414392602
 20
126.5125170598
 10
358.2410600734
 20
126.5105264269
 10
358.2406824676
 20
126.5083236354
 10
358.2403068639
 20
126.5059086207
 10
358.2399336836
 20
126.5032813181
 10
358.2395633479
 20
126.5004416631
 10
358.2391962782
 20
126.4973895908
 10
358.2388328956
 20
126.4941250367
 10
358.2384736215
 20
126.4906479361
 10
358.2381188962
 20
126.4869582191
 10
358.2377692373
 20
126.4830557949
 10
358.2374251814
 20
126.4789405673
 10
358.2370872652
 20
126.4746124405
 10
358.2367560253
 20
126.4700713182
 10
358.2364319983
 20
126.4653171044
 10
358.23580773
 20
126.4551690182
  0
LINE
  5
35A
100
AcDbEntity
  8
RACCORDO
100
AcDbLine
 62
250
  6
CONTINUOUS
 10
335.618033456
 20
184.8363841969
 11
335.618033456
 21
184.5364298884
  0
LINE
  5
35B
100
AcDbEntity
  8
ASSI
100
AcDbLine
 62
250
  6
CONTINUOUS
 10
335.618033456
 20
184.8363841969
 11
335.618033456
 21
184.5364298884
  0
LINE
  5
35C
100
AcDbEntity
  8
RACCORDO
100
AcDbLine
 62
250
  6
CONTINUOUS
 10
335.618033456
 20
130.6688377352
 11
335.618033456
 21
130.9687920437
  0
LINE
  5
35D
100
AcDbEntity
  8
ASSI
100
AcDbLine
 62
250
  6
CONTINUOUS
 10
335.618033456
 20
130.6688377352
 11
335.618033456
 21
130.9687920437
  0
LINE
  5
35E
100
AcDbEntity
  8
RACCORDO
100
AcDbLine
 62
7
  6
CONTINUOUS
 10
336.1091383812
 20
131.4775348136
 11
336.1091383812
 21
184.0276871185
  0
LINE
  5
35F
100
AcDbEntity
  8
ASSI
100
AcDbLine
 62
7
  6
CONTINUOUS
 10
336.1091383812
 20
131.4775348136
 11
336.1091383812
 21
184.0276871185
  0
LINE
  5
360
100
AcDbEntity
  8
RACCORDO
100
AcDbLine
 62
250
  6
CONTINUOUS
 10
336.1179573035
 20
184.0365060408
 11
336.1179573035
 21
131.4687158913
  0
LINE
  5
361
100
AcDbEntity
  8
ASSI
100
AcDbLine
 62
250
  6
CONTINUOUS
 10
336.1179573035
 20
184.0365060408
 11
336.1179573035
 21
131.4687158913
  0
LINE
  5
362
100
AcDbEntity
  8
RACCORDO
100
AcDbLine
 62
250
  6
CONTINUOUS
 10
336.4179116121
 20
184.0365060408
 11
336.4179116121
 21
131.4687158913
  0
LINE
  5
363
100
AcDbEntity
  8
ASSI
100
AcDbLine
 62
250
  6
CONTINUOUS
 10
336.4179116121
 20
184.0365060408
 11
336.4179116121
 21
131.4687158913
  0
LWPOLYLINE
  5
364
100
AcDbEntity
  8
RACCORDO
100
AcDbPolyline
 62
250
  6
CONTINUOUS
 90
25
 70
0
 10
336.1179573008
 20
131.468715894
 10
336.1169118707
 20
131.4363016741
 10
336.113757369
 20
131.4039449962
 10
336.1084915754
 20
131.371784044
 10
336.1011115865
 20
131.339920837
 10
336.0916385546
 20
131.3085331802
 10
336.0801417759
 20
131.2778668009
 10
336.066688163
 20
131.2480738487
 10
336.0513331897
 20
131.2192545707
 10
336.0341692834
 20
131.1915603972
 10
336.015309923
 20
131.1651389209
 10
335.9948225568
 20
131.1400524781
 10
335.9727311772
 20
131.1163241484
 10
335.9491341432
 20
131.0940665399
 10
335.9241179439
 20
131.0733677833
 10
335.8976656984
 20
131.0542398788
 10
335.8697943243
 20
131.0367477513
 10
335.8406757238
 20
131.0210499621
 10
335.8105321756
 20
131.0072919081
 10
335.7794537966
 20
130.9955308862
 10
335.7476097602
 20
130.9858465483
 10
335.7153736712
 20
130.9783385564
 10
335.6829744991
 20
130.9730141803
 10
335.6504804363
 20
130.9698395767
 10
335.6180334531
 20
130.9687920466
  0
LWPOLYLINE
  5
365
100
AcDbEntity
  8
ASSI
100
AcDbPolyline
 62
250
  6
CONTINUOUS
 90
25
 70
0
 10
336.1179573008
 20
131.468715894
 10
336.1169118707
 20
131.4363016741
 10
336.113757369
 20
131.4039449962
 10
336.1084915754
 20
131.371784044
 10
336.1011115865
 20
131.339920837
 10
336.0916385546
 20
131.3085331802
 10
336.0801417759
 20
131.2778668009
 10
336.066688163
 20
131.2480738487
 10
336.0513331897
 20
131.2192545707
 10
336.0341692834
 20
131.1915603972
 10
336.015309923
 20
131.1651389209
 10
335.9948225568
 20
131.1400524781
 10
335.9727311772
 20
131.1163241484
 10
335.9491341432
 20
131.0940665399
 10
335.9241179439
 20
131.0733677833
 10
335.8976656984
 20
131.0542398788
 10
335.8697943243
 20
131.0367477513
 10
335.8406757238
 20
131.0210499621
 10
335.8105321756
 20
131.0072919081
 10
335.7794537966
 20
130.9955308862
 10
335.7476097602
 20
130.9858465483
 10
335.7153736712
 20
130.9783385564
 10
335.6829744991
 20
130.9730141803
 10
335.6504804363
 20
130.9698395767
 10
335.6180334531
 20
130.9687920466
  0
LWPOLYLINE
  5
366
100
AcDbEntity
  8
RACCORDO
100
AcDbPolyline
 62
250
  6
CONTINUOUS
 90
25
 70
0
 10
336.4179116121
 20
131.4687158913
 10
336.4162111603
 20
131.4164922059
 10
336.4111542519
 20
131.3648037394
 10
336.4027408871
 20
131.313650492
 10
336.3908962818
 20
131.2627601302
 10
336.37569522
 20
131.2124049874
 10
336.3573620533
 20
131.1634020635
 10
336.3358437241
 20
131.1158187095
 10
336.3111932899
 20
131.0695875743
 10
336.2837942753
 20
131.0253236049
 10
336.2536655869
 20
130.9831084185
 10
336.2207883182
 20
130.9428603979
 10
336.1854892747
 20
130.9049496379
 10
336.1477849818
 20
130.8693819191
 10
336.1076589141
 20
130.8361514608
 10
336.0653883001
 20
130.8056110159
 10
336.0208259734
 20
130.7777087734
 10
335.9741191004
 20
130.7524965442
 10
335.9259864088
 20
130.7304825142
 10
335.8763212545
 20
130.7117523436
 10
335.8252302816
 20
130.6962203721
 10
335.7737521494
 20
130.684137805
 10
335.7222330776
 20
130.6755883773
 10
335.6703268464
 20
130.6704883541
 10
335.618033456
 20
130.6688377352
  0
LWPOLYLINE
  5
367
100
AcDbEntity
  8
ASSI
100
AcDbPolyline
 62
250
  6
CONTINUOUS
 90
25
 70
0
 10
336.4179116121
 20
131.4687158913
 10
336.4162111603
 20
131.4164922059
 10
336.4111542519
 20
131.3648037394
 10
336.4027408871
 20
131.313650492
 10
336.3908962818
 20
131.2627601302
 10
336.37569522
 20
131.2124049874
 10
336.3573620533
 20
131.1634020635
 10
336.3358437241
 20
131.1158187095
 10
336.3111932899
 20
131.0695875743
 10
336.2837942753
 20
131.0253236049
 10
336.2536655869
 20
130.9831084185
 10
336.2207883182
 20
130.9428603979
 10
336.1854892747
 20
130.9049496379
 10
336.1477849818
 20
130.8693819191
 10
336.1076589141
 20
130.8361514608
 10
336.0653883001
 20
130.8056110159
 10
336.0208259734
 20
130.7777087734
 10
335.9741191004
 20
130.7524965442
 10
335.9259864088
 20
130.7304825142
 10
335.8763212545
 20
130.7117523436
 10
335.8252302816
 20
130.6962203721
 10
335.7737521494
 20
130.684137805
 10
335.7222330776
 20
130.6755883773
 10
335.6703268464
 20
130.6704883541
 10
335.618033456
 20
130.6688377352
  0
LWPOLYLINE
  5
368
100
AcDbEntity
  8
0
100
AcDbPolyline
 62
7
  6
CONTINUOUS
 90
13
 70
0
 43
0.3499999917
 10
365.9198474121
 20
158.1811871338
 10
365.7055664062
 20
157.8954620361
 10
365.0626977539
 20
157.8954620361
 10
364.6341357422
 20
158.1811871338
 10
364.6341357422
 20
158.8240429688
 10
365.0626977539
 20
159.109755249
 10
365.7055664062
 20
159.109755249
 10
365.9198474121
 20
158.8240429688
 10
366.3484350586
 20
159.2526049805
 10
367.205559082
 20
159.2526049805
 10
367.6341467285
 20
158.8240429688
 10
367.6341467285
 20
158.1811871338
 10
367.205559082
 20
157.7526123047
  0
LWPOLYLINE
  5
369
100
AcDbEntity
  8
0
100
AcDbPolyline
 62
7
  6
CONTINUOUS
 90
13
 70
0
 43
0.3499999917
 10
365.9198474121
 20
155.8240447998
 10
365.7055664062
 20
155.5383197021
 10
365.0626977539
 20
155.5383197021
 10
364.6341357422
 20
155.8240447998
 10
364.6341357422
 20
156.4669006348
 10
365.0626977539
 20
156.752612915
 10
365.7055664062
 20
156.752612915
 10
365.9198474121
 20
156.4669006348
 10
366.3484350586
 20
156.8954626465
 10
367.205559082
 20
156.8954626465
 10
367.6341467285
 20
156.4669006348
 10
367.6341467285
 20
155.8240447998
 10
367.205559082
 20
155.3954699707
  0
LINE
  5
36A
100
AcDbEntity
  8
SCRITTE
100
AcDbLine
 62
250
  6
CONTINUOUS
 10
358.2818812132
 20
124.4020689661
 11
358.2429859937
 21
124.6099209661
  0
LINE
  5
36B
100
AcDbEntity
  8
SCRITTE
100
AcDbLine
 62
250
  6
CONTINUOUS
 10
358.2141876569
 20
120.4805999661
 11
358.2863296379
 21
120.0877509661
  0
LINE
  5
36C
100
AcDbEntity
  8
SCRITTE
100
AcDbLine
 62
250
  6
CONTINUOUS
 10
358.3189947254
 20
124.2014899661
 11
358.298071496
 21
124.3166779661
  0
LINE
  5
36D
100
AcDbEntity
  8
SCRITTE
100
AcDbLine
 62
250
  6
CONTINUOUS
 10
358.3189947254
 20
120.2549319661
 11
358.2141876569
 21
120.8977599661
  0
LWPOLYLINE
  5
36E
100
AcDbEntity
  8
SCRITTE
100
AcDbPolyline
 62
250
  6
CONTINUOUS
 90
26
 70
0
 10
358.2556858775
 20
126.4520577799
 10
358.2553383557
 20
126.4572799997
 10
358.2549790528
 20
126.4623141788
 10
358.2546081537
 20
126.467159984
 10
358.2542258435
 20
126.4718170822
 10
358.2538323523
 20
126.4762847798
 10
358.2534280921
 20
126.4805609414
 10
358.2530135201
 20
126.4846430711
 10
358.2525890933
 20
126.488528673
 10
358.2521551951
 20
126.4922151989
 10
358.2517119135
 20
126.4956998917
 10
358.2512592624
 20
126.498979942
 10
358.2507972559
 20
126.5020525404
 10
358.250325908
 20
126.5049148774
 10
358.2498452328
 20
126.5075641436
 10
358.2493552443
 20
126.5099975295
 10
358.2488559566
 20
126.5122122258
 10
358.248404348
 20
126.5139934723
 10
358.2479454017
 20
126.5155886744
 10
358.2474791165
 20
126.5169867994
 10
358.2470054911
 20
126.5181768143
 10
358.2465245244
 20
126.5191476865
 10
358.246036215
 20
126.5198883832
 10
358.2455405618
 20
126.5203878715
 10
358.2450375634
 20
126.5206351187
 10
358.2445272188
 20
126.520619092
  0
LINE
  5
36F
100
AcDbEntity
  8
SCRITTE
100
AcDbLine
 62
250
  6
CONTINUOUS
 10
358.2620063708
 20
126.7995321954
 11
358.2631505923
 21
126.7817504708
  0
LINE
  5
370
100
AcDbEntity
  8
SCRITTE
100
AcDbLine
 62
250
  6
CONTINUOUS
 10
358.2563445254
 20
126.441046313
 11
358.2556858775
 21
126.4520577799
  0
LINE
  5
371
100
AcDbEntity
  8
SCRITTE
100
AcDbLine
 62
250
  6
CONTINUOUS
 10
358.2631505923
 20
126.7817504708
 11
358.2641748284
 21
126.7639542468
  0
LINE
  5
372
100
AcDbEntity
  8
SCRITTE
100
AcDbLine
 62
250
  6
CONTINUOUS
 10
358.2569519543
 20
126.4292612551
 11
358.2563445254
 21
126.441046313
  0
LINE
  5
373
100
AcDbEntity
  8
SCRITTE
100
AcDbLine
 62
250
  6
CONTINUOUS
 10
358.2641748284
 20
126.7639542468
 11
358.2655237423
 21
126.7377884545
  0
LINE
  5
374
100
AcDbEntity
  8
SCRITTE
100
AcDbLine
 62
250
  6
CONTINUOUS
 10
358.2655237423
 20
126.7377884545
 11
358.2673914972
 21
126.6971051897
  0
LINE
  5
375
100
AcDbEntity
  8
SCRITTE
100
AcDbLine
 62
250
  6
CONTINUOUS
 10
358.2575053018
 20
126.4167113138
 11
358.2569519543
 21
126.4292612551
  0
LINE
  5
376
100
AcDbEntity
  8
SCRITTE
100
AcDbLine
 62
250
  6
CONTINUOUS
 10
358.2673914972
 20
126.6971051897
 11
358.2683374713
 21
126.6746633793
  0
LINE
  5
377
100
AcDbEntity
  8
SCRITTE
100
AcDbLine
 62
250
  6
CONTINUOUS
 10
358.2580036746
 20
126.403531068
 11
358.2575053018
 21
126.4167113138
  0
LINE
  5
378
100
AcDbEntity
  8
SCRITTE
100
AcDbLine
 62
250
  6
CONTINUOUS
 10
358.2683374713
 20
126.6746633793
 11
358.2687473582
 21
126.6633751156
  0
LINE
  5
379
100
AcDbEntity
  8
SCRITTE
100
AcDbLine
 62
250
  6
CONTINUOUS
 10
358.2584480183
 20
126.3898444035
 11
358.2580036746
 21
126.403531068
  0
LWPOLYLINE
  5
37A
100
AcDbEntity
  8
SCRITTE
100
AcDbPolyline
 62
250
  6
CONTINUOUS
 90
6
 70
0
 10
358.2687473582
 20
126.6633751156
 10
358.2690812161
 20
126.6519947422
 10
358.2692128754
 20
126.6463038867
 10
358.2693192368
 20
126.640596758
 10
358.2693994233
 20
126.6348560873
 10
358.2694524214
 20
126.6290892776
  0
LWPOLYLINE
  5
37B
100
AcDbEntity
  8
RACCORDO
100
AcDbPolyline
 62
250
  6
CONTINUOUS
 90
31
 70
0
 10
357.6528579794
 20
200.0227010295
 10
357.6514317297
 20
200.0753819219
 10
357.6473277558
 20
200.1275518488
 10
357.6405460576
 20
200.1792108104
 10
357.6310553889
 20
200.2304661397
 10
357.618886996
 20
200.2812105036
 10
357.6041346176
 20
200.3311219026
 10
357.5867742482
 20
200.3802280739
 10
357.5668298934
 20
200.4285012803
 10
357.5444673082
 20
200.4755363115
 10
357.5196690726
 20
200.5213167252
 10
357.4924526065
 20
200.5658589636
 10
357.4630359248
 20
200.608807143
 10
357.4314001414
 20
200.6501505103
 10
357.3975641424
 20
200.6898998186
 10
357.3618026007
 20
200.7277314438
 10
357.3240995521
 20
200.7636296846
 10
357.2844709608
 20
200.7976102423
 10
357.2432393927
 20
200.8293965964
 10
357.2004190068
 20
200.85896165
 10
357.1559956441
 20
200.8863325001
 10
357.1102493927
 20
200.9113139167
 10
357.0631462794
 20
200.9339080143
 10
357.0147202774
 20
200.9541126784
 10
356.9653533953
 20
200.9717263364
 10
356.9150221986
 20
200.9867285917
 10
356.8637501218
 20
200.9991398407
 10
356.8119894767
 20
201.0088197008
 10
356.7598910342
 20
201.0157213776
 10
356.7073040235
 20
201.0198916654
 10
356.6542284446
 20
201.0213305642
  0
LWPOLYLINE
  5
37C
100
AcDbEntity
  8
ASSI
100
AcDbPolyline
 62
250
  6
CONTINUOUS
 90
31
 70
0
 10
357.6528579794
 20
200.0227010295
 10
357.6514317297
 20
200.0753819219
 10
357.6473277558
 20
200.1275518488
 10
357.6405460576
 20
200.1792108104
 10
357.6310553889
 20
200.2304661397
 10
357.618886996
 20
200.2812105036
 10
357.6041346176
 20
200.3311219026
 10
357.5867742482
 20
200.3802280739
 10
357.5668298934
 20
200.4285012803
 10
357.5444673082
 20
200.4755363115
 10
357.5196690726
 20
200.5213167252
 10
357.4924526065
 20
200.5658589636
 10
357.4630359248
 20
200.608807143
 10
357.4314001414
 20
200.6501505103
 10
357.3975641424
 20
200.6898998186
 10
357.3618026007
 20
200.7277314438
 10
357.3240995521
 20
200.7636296846
 10
357.2844709608
 20
200.7976102423
 10
357.2432393927
 20
200.8293965964
 10
357.2004190068
 20
200.85896165
 10
357.1559956441
 20
200.8863325001
 10
357.1102493927
 20
200.9113139167
 10
357.0631462794
 20
200.9339080143
 10
357.0147202774
 20
200.9541126784
 10
356.9653533953
 20
200.9717263364
 10
356.9150221986
 20
200.9867285917
 10
356.8637501218
 20
200.9991398407
 10
356.8119894767
 20
201.0088197008
 10
356.7598910342
 20
201.0157213776
 10
356.7073040235
 20
201.0198916654
 10
356.6542284446
 20
201.0213305642
  0
LWPOLYLINE
  5
37D
100
AcDbEntity
  8
RACCORDO
100
AcDbPolyline
 62
250
  6
CONTINUOUS
 90
31
 70
0
 10
358.1521727467
 20
200.0227010295
 10
358.1500414921
 20
200.10130394
 10
358.1438078611
 20
200.1795639806
 10
358.1335079354
 20
200.2572687636
 10
358.119198372
 20
200.3341651045
 10
358.1009316554
 20
200.4100923914
 10
358.078733007
 20
200.484977645
 10
358.0526416306
 20
200.5586664243
 10
358.0227399144
 20
200.6309074329
 10
357.9891163041
 20
200.7014835162
 10
357.9518681968
 20
200.7701945866
 10
357.9110935825
 20
200.8368642229
 10
357.8668984258
 20
200.9013189606
 10
357.8194000582
 20
200.9633864216
 10
357.7687291854
 20
201.022894949
 10
357.7150242778
 20
201.0796812499
 10
357.6584308275
 20
201.1335910825
 10
357.5991025743
 20
201.184477898
 10
357.5372025447
 20
201.2322020578
 10
357.4729349464
 20
201.2766104257
 10
357.4064406631
 20
201.3176099263
 10
357.3377873003
 20
201.3551477944
 10
357.2671130796
 20
201.3891219908
 10
357.1946394142
 20
201.4194003947
 10
357.1205586864
 20
201.4458818028
 10
357.0450497578
 20
201.4684795222
 10
356.9683325994
 20
201.4871055373
 10
356.8906716184
 20
201.5016806706
 10
356.8122990196
 20
201.5121519258
 10
356.7334118903
 20
201.5184830252
 10
356.6542284446
 20
201.5206453316
  0
LWPOLYLINE
  5
37E
100
AcDbEntity
  8
ASSI
100
AcDbPolyline
 62
250
  6
CONTINUOUS
 90
31
 70
0
 10
358.1521727467
 20
200.0227010295
 10
358.1500414921
 20
200.10130394
 10
358.1438078611
 20
200.1795639806
 10
358.1335079354
 20
200.2572687636
 10
358.119198372
 20
200.3341651045
 10
358.1009316554
 20
200.4100923914
 10
358.078733007
 20
200.484977645
 10
358.0526416306
 20
200.5586664243
 10
358.0227399144
 20
200.6309074329
 10
357.9891163041
 20
200.7014835162
 10
357.9518681968
 20
200.7701945866
 10
357.9110935825
 20
200.8368642229
 10
357.8668984258
 20
200.9013189606
 10
357.8194000582
 20
200.9633864216
 10
357.7687291854
 20
201.022894949
 10
357.7150242778
 20
201.0796812499
 10
357.6584308275
 20
201.1335910825
 10
357.5991025743
 20
201.184477898
 10
357.5372025447
 20
201.2322020578
 10
357.4729349464
 20
201.2766104257
 10
357.4064406631
 20
201.3176099263
 10
357.3377873003
 20
201.3551477944
 10
357.2671130796
 20
201.3891219908
 10
357.1946394142
 20
201.4194003947
 10
357.1205586864
 20
201.4458818028
 10
357.0450497578
 20
201.4684795222
 10
356.9683325994
 20
201.4871055373
 10
356.8906716184
 20
201.5016806706
 10
356.8122990196
 20
201.5121519258
 10
356.7334118903
 20
201.5184830252
 10
356.6542284446
 20
201.5206453316
  0
LWPOLYLINE
  5
37F
100
AcDbEntity
  8
0
100
AcDbPolyline
 62
7
  6
CONTINUOUS
 90
31
 70
0
 10
358.3841383812
 20
200.2546666639
 10
358.3820966147
 20
200.3329717793
 10
358.3759568202
 20
200.4112130476
 10
358.3657110135
 20
200.4891753271
 10
358.3513406181
 20
200.5667478261
 10
358.332871564
 20
200.643604575
 10
358.3104293913
 20
200.7192182507
 10
358.2841354391
 20
200.7932964175
 10
358.254060899
 20
200.8657390059
 10
358.22032481
 20
200.9363299574
 10
358.1831334635
 20
201.0047394162
 10
358.142542165
 20
201.0709568559
 10
358.0983952443
 20
201.1352187013
 10
358.0506072028
 20
201.1975305661
 10
357.9994158106
 20
201.2574714315
 10
357.9451386112
 20
201.314632182
 10
357.8879191573
 20
201.3688598673
 10
357.8279211145
 20
201.419999095
 10
357.7655731869
 20
201.4677185562
 10
357.7012957078
 20
201.5117856681
 10
357.6350875187
 20
201.5522867684
 10
357.5667442686
 20
201.5893649631
 10
357.4963155547
 20
201.6229574196
 10
357.4241000039
 20
201.6528863638
 10
357.3502369665
 20
201.6790675442
 10
357.2748047289
 20
201.7014319415
 10
357.1981111748
 20
201.7198480906
 10
357.1206574233
 20
201.7341907657
 10
357.0427590088
 20
201.7444274232
 10
356.9645330893
 20
201.7505673856
 10
356.8861940791
 20
201.7526109661
  0
LWPOLYLINE
  5
380
100
AcDbEntity
  8
ASSI
100
AcDbPolyline
 62
7
  6
CONTINUOUS
 90
31
 70
0
 10
358.3841383812
 20
200.2546666639
 10
358.3820966147
 20
200.3329717793
 10
358.3759568202
 20
200.4112130476
 10
358.3657110135
 20
200.4891753271
 10
358.3513406181
 20
200.5667478261
 10
358.332871564
 20
200.643604575
 10
358.3104293913
 20
200.7192182507
 10
358.2841354391
 20
200.7932964175
 10
358.254060899
 20
200.8657390059
 10
358.22032481
 20
200.9363299574
 10
358.1831334635
 20
201.0047394162
 10
358.142542165
 20
201.0709568559
 10
358.0983952443
 20
201.1352187013
 10
358.0506072028
 20
201.1975305661
 10
357.9994158106
 20
201.2574714315
 10
357.9451386112
 20
201.314632182
 10
357.8879191573
 20
201.3688598673
 10
357.8279211145
 20
201.419999095
 10
357.7655731869
 20
201.4677185562
 10
357.7012957078
 20
201.5117856681
 10
357.6350875187
 20
201.5522867684
 10
357.5667442686
 20
201.5893649631
 10
357.4963155547
 20
201.6229574196
 10
357.4241000039
 20
201.6528863638
 10
357.3502369665
 20
201.6790675442
 10
357.2748047289
 20
201.7014319415
 10
357.1981111748
 20
201.7198480906
 10
357.1206574233
 20
201.7341907657
 10
357.0427590088
 20
201.7444274232
 10
356.9645330893
 20
201.7505673856
 10
356.8861940791
 20
201.7526109661
  0
LINE
  5
381
100
AcDbEntity
  8
SCRITTE
100
AcDbLine
 62
250
  6
CONTINUOUS
 10
358.2590273664
 20
126.3682569847
 11
358.2584480183
 21
126.3898444035
  0
LINE
  5
382
100
AcDbEntity
  8
SCRITTE
100
AcDbLine
 62
250
  6
CONTINUOUS
 10
358.259517254
 20
126.3453342941
 11
358.2590273664
 21
126.3682569847
  0
LINE
  5
383
100
AcDbEntity
  8
SCRITTE
100
AcDbLine
 62
250
  6
CONTINUOUS
 10
358.2599752218
 20
126.3176162012
 11
358.259517254
 21
126.3453342941
  0
LINE
  5
384
100
AcDbEntity
  8
SCRITTE
100
AcDbLine
 62
250
  6
CONTINUOUS
 10
358.260429739
 20
126.2774518218
 11
358.2599752218
 21
126.3176162012
  0
LINE
  5
385
100
AcDbEntity
  8
SCRITTE
100
AcDbLine
 62
250
  6
CONTINUOUS
 10
358.2312648697
 20
126.068521927
 11
358.2320426112
 21
125.9577828507
  0
LINE
  5
386
100
AcDbEntity
  8
SCRITTE
100
AcDbLine
 62
250
  6
CONTINUOUS
 10
358.2607166033
 20
126.2327657873
 11
358.260429739
 21
126.2774518218
  0
LINE
  5
387
100
AcDbEntity
  8
SCRITTE
100
AcDbLine
 62
250
  6
CONTINUOUS
 10
358.2154121866
 20
125.5558597977
 11
358.2132697887
 21
125.9224205066
  0
LINE
  5
388
100
AcDbEntity
  8
SCRITTE
100
AcDbLine
 62
250
  6
CONTINUOUS
 10
358.2310535509
 20
126.163509051
 11
358.2312648697
 21
126.068521927
  0
LINE
  5
389
100
AcDbEntity
  8
RACCORDO
100
AcDbLine
 62
250
  6
CONTINUOUS
 10
356.6542284446
 20
114.4838913679
 11
356.6542284446
 21
113.9845766005
  0
LINE
  5
38A
100
AcDbEntity
  8
ASSI
100
AcDbLine
 62
250
  6
CONTINUOUS
 10
356.6542284446
 20
114.4838913679
 11
356.6542284446
 21
113.9845766005
  0
LINE
  5
38B
100
AcDbEntity
  8
RACCORDO
100
AcDbLine
 62
250
  6
CONTINUOUS
 10
356.6542284446
 20
201.0213305642
 11
356.6542284446
 21
201.5206453316
  0
LINE
  5
38C
100
AcDbEntity
  8
ASSI
100
AcDbLine
 62
250
  6
CONTINUOUS
 10
356.6542284446
 20
201.0213305642
 11
356.6542284446
 21
201.5206453316
  0
LINE
  5
38D
100
AcDbEntity
  8
RACCORDO
100
AcDbLine
 62
250
  6
CONTINUOUS
 10
357.6528579794
 20
115.4825209027
 11
357.6528579794
 21
200.0227010295
  0
LINE
  5
38E
100
AcDbEntity
  8
ASSI
100
AcDbLine
 62
250
  6
CONTINUOUS
 10
357.6528579794
 20
115.4825209027
 11
357.6528579794
 21
200.0227010295
  0
LINE
  5
38F
100
AcDbEntity
  8
RACCORDO
100
AcDbLine
 62
250
  6
CONTINUOUS
 10
358.1521727467
 20
115.4825209027
 11
358.1521727467
 21
200.0227010295
  0
LINE
  5
390
100
AcDbEntity
  8
ASSI
100
AcDbLine
 62
250
  6
CONTINUOUS
 10
358.1521727467
 20
115.4825209027
 11
358.1521727467
 21
200.0227010295
  0
LINE
  5
391
100
AcDbEntity
  8
SCRITTE
100
AcDbLine
 62
250
  6
CONTINUOUS
 10
358.2141876569
 20
124.8196779661
 11
358.2141876569
 21
124.4158509661
  0
LINE
  5
392
100
AcDbEntity
  8
SCRITTE
100
AcDbLine
 62
250
  6
CONTINUOUS
 10
358.2141876569
 20
123.5360169661
 11
358.2141876569
 21
123.1229959661
  0
LINE
  5
393
100
AcDbEntity
  8
SCRITTE
100
AcDbLine
 62
250
  6
CONTINUOUS
 10
358.2141876569
 20
122.2925159661
 11
358.2141876569
 21
121.8754169661
  0
LINE
  5
394
100
AcDbEntity
  8
SCRITTE
100
AcDbLine
 62
250
  6
CONTINUOUS
 10
358.2141876569
 20
120.8977599661
 11
358.2141876569
 21
120.4805999661
  0
LINE
  5
395
100
AcDbEntity
  8
SCRITTE
100
AcDbLine
 62
250
  6
CONTINUOUS
 10
358.2141876569
 20
119.7065449661
 11
358.2141876569
 21
119.2530719661
  0
LINE
  5
396
100
AcDbEntity
  8
SCRITTE
100
AcDbLine
 62
250
  6
CONTINUOUS
 10
358.214181368
 20
121.0526749661
 11
358.214181368
 21
121.4701189661
  0
LINE
  5
397
100
AcDbEntity
  8
SCRITTE
100
AcDbLine
 62
250
  6
CONTINUOUS
 10
358.260814189
 20
125.9577828507
 11
358.2607166033
 21
126.2327657873
  0
LINE
  5
398
100
AcDbEntity
  8
SCRITTE
100
AcDbLine
 62
250
  6
CONTINUOUS
 10
358.2818812132
 20
124.8017419661
 11
358.2818812132
 21
124.4020689661
  0
LINE
  5
399
100
AcDbEntity
  8
SCRITTE
100
AcDbLine
 62
250
  6
CONTINUOUS
 10
358.298071496
 20
124.3166779661
 11
358.298071496
 21
124.8851679661
  0
LINE
  5
39A
100
AcDbEntity
  8
SCRITTE
100
AcDbLine
 62
250
  6
CONTINUOUS
 10
358.3189947393
 20
127.0124165847
 11
358.3189947393
 21
126.6108834425
  0
LINE
  5
39B
100
AcDbEntity
  8
SCRITTE
100
AcDbLine
 62
250
  6
CONTINUOUS
 10
358.3189947393
 20
125.9716246842
 11
358.3189947393
 21
125.5558597977
  0
LINE
  5
39C
100
AcDbEntity
  8
SCRITTE
100
AcDbLine
 62
250
  6
CONTINUOUS
 10
358.3189947254
 20
121.4701189661
 11
358.3189947254
 21
121.0526749661
  0
LINE
  5
39D
100
AcDbEntity
  8
SCRITTE
100
AcDbLine
 62
250
  6
CONTINUOUS
 10
358.3189947254
 20
119.8870589661
 11
358.3189947254
 21
120.2549319661
  0
LINE
  5
39E
100
AcDbEntity
  8
SCRITTE
100
AcDbLine
 62
250
  6
CONTINUOUS
 10
358.3189947254
 20
121.6948429661
 11
358.3189947254
 21
122.0942009661
  0
LINE
  5
39F
100
AcDbEntity
  8
SCRITTE
100
AcDbLine
 62
250
  6
CONTINUOUS
 10
358.3189947254
 20
122.6739989661
 11
358.3189947254
 21
122.7325449661
  0
LINE
  5
3A0
100
AcDbEntity
  8
SCRITTE
100
AcDbLine
 62
250
  6
CONTINUOUS
 10
358.3189947254
 20
123.3146529661
 11
358.3189947254
 21
123.7230239661
  0
LINE
  5
3A1
100
AcDbEntity
  8
SCRITTE
100
AcDbLine
 62
250
  6
CONTINUOUS
 10
358.3189947254
 20
123.7885739661
 11
358.3189947254
 21
124.2014899661
  0
LINE
  5
3A2
100
AcDbEntity
  8
SCRITTE
100
AcDbLine
 62
250
  6
CONTINUOUS
 10
358.3189947254
 20
124.9933089661
 11
358.3189947254
 21
125.4332779661
  0
LINE
  5
3A3
100
AcDbEntity
  8
0
100
AcDbLine
 62
7
  6
CONTINUOUS
 10
358.3841383812
 20
115.2505552682
 11
358.3841383812
 21
200.2546666639
  0
LINE
  5
3A4
100
AcDbEntity
  8
ASSI
100
AcDbLine
 62
7
  6
CONTINUOUS
 10
358.3841383812
 20
115.2505552682
 11
358.3841383812
 21
200.2546666639
  0
LINE
  5
3A5
100
AcDbEntity
  8
SCRITTE
100
AcDbLine
 62
250
  6
CONTINUOUS
 10
358.2132697887
 20
125.9224205066
 11
358.2130212393
 21
126.173985314
  0
LINE
  5
3A6
100
AcDbEntity
  8
SCRITTE
100
AcDbLine
 62
250
  6
CONTINUOUS
 10
358.2780283466
 20
126.2172609648
 11
358.2779790507
 21
125.9716246842
  0
LINE
  5
3A7
100
AcDbEntity
  8
SCRITTE
100
AcDbLine
 62
250
  6
CONTINUOUS
 10
358.2312623992
 20
126.2540683133
 11
358.2310535509
 21
126.163509051
  0
LINE
  5
3A8
100
AcDbEntity
  8
SCRITTE
100
AcDbLine
 62
250
  6
CONTINUOUS
 10
358.2130212393
 20
126.173985314
 11
358.2137023528
 21
126.3490981761
  0
LINE
  5
3A9
100
AcDbEntity
  8
SCRITTE
100
AcDbLine
 62
250
  6
CONTINUOUS
 10
358.2315513952
 20
126.3013949329
 11
358.2312623992
 21
126.2540683133
  0
LINE
  5
3AA
100
AcDbEntity
  8
SCRITTE
100
AcDbLine
 62
250
  6
CONTINUOUS
 10
358.2782060144
 20
126.2418774854
 11
358.2780283466
 21
126.2172609648
  0
LINE
  5
3AB
100
AcDbEntity
  8
SCRITTE
100
AcDbLine
 62
250
  6
CONTINUOUS
 10
358.2137023528
 20
126.3490981761
 11
358.2148189677
 21
126.4739815865
  0
LINE
  5
3AC
100
AcDbEntity
  8
SCRITTE
100
AcDbLine
 62
250
  6
CONTINUOUS
 10
358.2318268783
 20
126.3255399313
 11
358.2315513952
 21
126.3013949329
  0
LINE
  5
3AD
100
AcDbEntity
  8
SCRITTE
100
AcDbLine
 62
250
  6
CONTINUOUS
 10
358.2785020843
 20
126.2651426307
 11
358.2782060144
 21
126.2418774854
  0
LINE
  5
3AE
100
AcDbEntity
  8
SCRITTE
100
AcDbLine
 62
250
  6
CONTINUOUS
 10
358.2148189677
 20
126.4739815865
 11
358.2161278999
 21
126.5646614233
  0
LINE
  5
3AF
100
AcDbEntity
  8
SCRITTE
100
AcDbLine
 62
250
  6
CONTINUOUS
 10
358.2322030592
 20
126.3488671358
 11
358.2318268783
 21
126.3255399313
  0
LINE
  5
3B0
100
AcDbEntity
  8
SCRITTE
100
AcDbLine
 62
250
  6
CONTINUOUS
 10
358.2788130599
 20
126.2824238728
 11
358.2785020843
 21
126.2651426307
  0
LINE
  5
3B1
100
AcDbEntity
  8
SCRITTE
100
AcDbLine
 62
250
  6
CONTINUOUS
 10
358.2161278999
 20
126.5646614233
 11
358.2169861262
 21
126.6083162388
  0
LINE
  5
3B2
100
AcDbEntity
  8
SCRITTE
100
AcDbLine
 62
250
  6
CONTINUOUS
 10
358.2326765506
 20
126.3714093435
 11
358.2322030592
 21
126.3488671358
  0
LINE
  5
3B3
100
AcDbEntity
  8
SCRITTE
100
AcDbLine
 62
250
  6
CONTINUOUS
 10
358.2792026173
 20
126.2992344843
 11
358.2788130599
 21
126.2824238728
  0
LINE
  5
3B4
100
AcDbEntity
  8
SCRITTE
100
AcDbLine
 62
250
  6
CONTINUOUS
 10
358.2700717397
 20
126.6290892776
 11
358.2705440854
 21
126.6488606622
  0
LINE
  5
3B5
100
AcDbEntity
  8
SCRITTE
100
AcDbLine
 62
250
  6
CONTINUOUS
 10
358.2169861262
 20
126.6083162388
 11
358.217572981
 21
126.6312730309
  0
LINE
  5
3B6
100
AcDbEntity
  8
SCRITTE
100
AcDbLine
 62
250
  6
CONTINUOUS
 10
358.2332458326
 20
126.3929943893
 11
358.2326765506
 21
126.3714093435
  0
LINE
  5
3B7
100
AcDbEntity
  8
SCRITTE
100
AcDbLine
 62
250
  6
CONTINUOUS
 10
358.2705440854
 20
126.6488606622
 11
358.2709234031
 21
126.661884935
  0
LINE
  5
3B8
100
AcDbEntity
  8
SCRITTE
100
AcDbLine
 62
250
  6
CONTINUOUS
 10
358.2796676755
 20
126.3153226578
 11
358.2792026173
 21
126.2992344843
  0
LINE
  5
3B9
100
AcDbEntity
  8
SCRITTE
100
AcDbLine
 62
250
  6
CONTINUOUS
 10
358.233678051
 20
126.4067423394
 11
358.2332458326
 21
126.3929943893
  0
LINE
  5
3BA
100
AcDbEntity
  8
SCRITTE
100
AcDbLine
 62
250
  6
CONTINUOUS
 10
358.217572981
 20
126.6312730309
 11
358.2186913014
 21
126.6673022057
  0
LINE
  5
3BB
100
AcDbEntity
  8
SCRITTE
100
AcDbLine
 62
250
  6
CONTINUOUS
 10
358.2709234031
 20
126.661884935
 11
358.271357684
 21
126.6748098819
  0
LINE
  5
3BC
100
AcDbEntity
  8
SCRITTE
100
AcDbLine
 62
250
  6
CONTINUOUS
 10
358.234151844
 20
126.4198994879
 11
358.233678051
 21
126.4067423394
  0
LINE
  5
3BD
100
AcDbEntity
  8
SCRITTE
100
AcDbLine
 62
250
  6
CONTINUOUS
 10
358.2802041866
 20
126.3305764094
 11
358.2796676755
 21
126.3153226578
  0
LINE
  5
3BE
100
AcDbEntity
  8
SCRITTE
100
AcDbLine
 62
250
  6
CONTINUOUS
 10
358.2186913014
 20
126.6673022057
 11
358.2196000264
 21
126.6922304671
  0
LINE
  5
3BF
100
AcDbEntity
  8
SCRITTE
100
AcDbLine
 62
250
  6
CONTINUOUS
 10
358.271357684
 20
126.6748098819
 11
358.2718503273
 21
126.6876451304
  0
LINE
  5
3C0
100
AcDbEntity
  8
SCRITTE
100
AcDbLine
 62
250
  6
CONTINUOUS
 10
358.280599773
 20
126.3403228364
 11
358.2802041866
 21
126.3305764094
  0
LINE
  5
3C1
100
AcDbEntity
  8
SCRITTE
100
AcDbLine
 62
250
  6
CONTINUOUS
 10
358.2196000264
 20
126.6922304671
 11
358.2206312252
 21
126.7172901575
  0
LINE
  5
3C2
100
AcDbEntity
  8
SCRITTE
100
AcDbLine
 62
250
  6
CONTINUOUS
 10
358.2346658051
 20
126.4324000885
 11
358.234151844
 21
126.4198994879
  0
LINE
  5
3C3
100
AcDbEntity
  8
SCRITTE
100
AcDbLine
 62
250
  6
CONTINUOUS
 10
358.2718503273
 20
126.6876451304
 11
358.2724018767
 21
126.7003411078
  0
LINE
  5
3C4
100
AcDbEntity
  8
SCRITTE
100
AcDbLine
 62
250
  6
CONTINUOUS
 10
358.2810244566
 20
126.3497468378
 11
358.280599773
 21
126.3403228364
  0
LINE
  5
3C5
100
AcDbEntity
  8
SCRITTE
100
AcDbLine
 62
250
  6
CONTINUOUS
 10
358.2206312252
 20
126.7172901575
 11
358.2217767668
 21
126.7419229289
  0
LINE
  5
3C6
100
AcDbEntity
  8
SCRITTE
100
AcDbLine
 62
250
  6
CONTINUOUS
 10
358.2352183089
 20
126.4441784842
 11
358.2346658051
 21
126.4324000885
  0
LINE
  5
3C7
100
AcDbEntity
  8
SCRITTE
100
AcDbLine
 62
250
  6
CONTINUOUS
 10
358.2724018767
 20
126.7003411078
 11
358.2730099442
 21
126.7127902579
  0
LINE
  5
3C8
100
AcDbEntity
  8
SCRITTE
100
AcDbLine
 62
250
  6
CONTINUOUS
 10
358.2814771825
 20
126.3588401945
 11
358.2810244566
 21
126.3497468378
  0
LINE
  5
3C9
100
AcDbEntity
  8
SCRITTE
100
AcDbLine
 62
250
  6
CONTINUOUS
 10
358.2217767668
 20
126.7419229289
 11
358.2230312195
 21
126.7657127768
  0
LINE
  5
3CA
100
AcDbEntity
  8
SCRITTE
100
AcDbLine
 62
250
  6
CONTINUOUS
 10
358.23580773
 20
126.4551690182
 11
358.2352183089
 21
126.4441784842
  0
LINE
  5
3CB
100
AcDbEntity
  8
SCRITTE
100
AcDbLine
 62
250
  6
CONTINUOUS
 10
358.2730099442
 20
126.7127902579
 11
358.2736707697
 21
126.7249016001
  0
LINE
  5
3CC
100
AcDbEntity
  8
SCRITTE
100
AcDbLine
 62
250
  6
CONTINUOUS
 10
358.2819567833
 20
126.3675925416
 11
358.2814771825
 21
126.3588401945
  0
LINE
  5
3CD
100
AcDbEntity
  8
SCRITTE
100
AcDbLine
 62
250
  6
CONTINUOUS
 10
358.2824616431
 20
126.3759882405
 11
358.2819567833
 21
126.3675925416
  0
LWPOLYLINE
  5
3CE
100
AcDbEntity
  8
SCRITTE
100
AcDbPolyline
 62
250
  6
CONTINUOUS
 90
48
 70
0
 10
358.2230312195
 20
126.7657127768
 10
358.2243918515
 20
126.7883860395
 10
358.2251111675
 20
126.7992203662
 10
358.2258555933
 20
126.8096747854
 10
358.2266225297
 20
126.8197135672
 10
358.2274089227
 20
126.8293005232
 10
358.2282117186
 20
126.8383994645
 10
358.2290278637
 20
126.8469742025
 10
358.2298543042
 20
126.8549885484
 10
358.2306882476
 20
126.862414217
 10
358.2315279465
 20
126.8692545362
 10
358.232371915
 20
126.8755207374
 10
358.233218667
 20
126.8812240521
 10
358.2340667165
 20
126.8863757115
 10
358.2349145774
 20
126.8909869472
 10
358.2359295287
 20
126.8958267727
 10
358.2369386576
 20
126.8999472994
 10
358.2379385527
 20
126.9033912655
 10
358.2389258029
 20
126.906201409
 10
358.2398969972
 20
126.9084204683
 10
358.2408491682
 20
126.9100895564
 10
358.2417811245
 20
126.9112432863
 10
358.2426921187
 20
126.9119146456
 10
358.2435814033
 20
126.912136622
 10
358.2444482307
 20
126.9119422035
 10
358.2452920763
 20
126.9113622258
 10
358.2461133072
 20
126.9104189178
 10
358.2469125131
 20
126.9091323565
 10
358.2476902838
 20
126.9075226188
 10
358.2484472093
 20
126.9056097816
 10
358.2493650365
 20
126.9028209319
 10
358.2502528792
 20
126.8996161374
 10
358.251112402
 20
126.8960216764
 10
358.2519452694
 20
126.8920638266
 10
358.2527528869
 20
126.8877689936
 10
358.253535623
 20
126.8831640929
 10
358.2542935869
 20
126.8782761676
 10
358.2550268879
 20
126.8731322608
 10
358.2557356468
 20
126.8677590004
 10
358.256420031
 20
126.8621813546
 10
358.2570802192
 20
126.8564238766
 10
358.2577163903
 20
126.8505111197
 10
358.2585277909
 20
126.8424236248
 10
358.2592985766
 20
126.8341336609
 10
358.2600305118
 20
126.8256711603
 10
358.2607251945
 20
126.8170654789
 10
358.2613835583
 20
126.8083436663
 10
358.2620063708
 20
126.7995321954
  0
LINE
  5
3CF
100
AcDbEntity
  8
SCRITTE
100
AcDbLine
 62
250
  6
CONTINUOUS
 10
358.2736707697
 20
126.7249016001
 11
358.2743794819
 21
126.7366056498
  0
LINE
  5
3D0
100
AcDbEntity
  8
SCRITTE
100
AcDbLine
 62
250
  6
CONTINUOUS
 10
358.2830576418
 20
126.38498587
 11
358.2824616431
 21
126.3759882405
  0
LINE
  5
3D1
100
AcDbEntity
  8
SCRITTE
100
AcDbLine
 62
250
  6
CONTINUOUS
 10
358.2743794819
 20
126.7366056498
 11
358.2751342675
 21
126.7478880915
  0
LINE
  5
3D2
100
AcDbEntity
  8
SCRITTE
100
AcDbLine
 62
250
  6
CONTINUOUS
 10
358.2751342675
 20
126.7478880915
 11
358.2759363416
 21
126.7587876459
  0
LINE
  5
3D3
100
AcDbEntity
  8
SCRITTE
100
AcDbLine
 62
250
  6
CONTINUOUS
 10
358.2759363416
 20
126.7587876459
 11
358.2767851274
 21
126.769315462
  0
LWPOLYLINE
  5
3D4
100
AcDbEntity
  8
SCRITTE
100
AcDbPolyline
 62
250
  6
CONTINUOUS
 90
16
 70
0
 10
358.2767851274
 20
126.769315462
 10
358.2777435725
 20
126.7801620997
 10
358.2782746725
 20
126.7857598357
 10
358.2788193352
 20
126.791228
 10
358.2793773353
 20
126.7965672056
 10
358.279948448
 20
126.8017780652
 10
358.280532448
 20
126.8068611917
 10
358.2811291103
 20
126.8118171978
 10
358.2818408853
 20
126.8174392685
 10
358.2825690234
 20
126.8228895936
 10
358.2833129591
 20
126.8281686182
 10
358.284072127
 20
126.8332767874
 10
358.2848459618
 20
126.8382145463
 10
358.2856338979
 20
126.8429823402
 10
358.2864353893
 20
126.847588374
 10
358.2872499673
 20
126.8520718919
  0
LWPOLYLINE
  5
3D5
100
AcDbEntity
  8
SCRITTE
100
AcDbPolyline
 62
250
  6
CONTINUOUS
 90
12
 70
0
 10
358.2872072133
 20
126.4282979378
 10
358.2868769382
 20
126.4258545994
 10
358.2865525534
 20
126.423304556
 10
358.2862334091
 20
126.4206453908
 10
358.2859188557
 20
126.4178746868
 10
358.2856082435
 20
126.4149900272
 10
358.2852248178
 20
126.4112216126
 10
358.2848469862
 20
126.4072746971
 10
358.2844751998
 20
126.4031526119
 10
358.2841099096
 20
126.3988586881
 10
358.2837515708
 20
126.3943965041
 10
358.2830576418
 20
126.38498587
  0
LINE
  5
3D6
100
AcDbEntity
  8
SCRITTE
100
AcDbLine
 62
250
  6
CONTINUOUS
 10
358.25055766
 20
122.1842849661
 11
358.3189947254
 21
122.6739989661
  0
LINE
  5
3D7
100
AcDbEntity
  8
SCRITTE
100
AcDbLine
 62
250
  6
CONTINUOUS
 10
358.2723768528
 20
122.7055519661
 11
358.2141876569
 21
122.2925159661
  0
LINE
  5
3D8
100
AcDbEntity
  8
SCRITTE
100
AcDbLine
 62
250
  6
CONTINUOUS
 10
358.2141876569
 20
119.2530719661
 11
358.3189947254
 21
119.8870589661
  0
LINE
  5
3D9
100
AcDbEntity
  8
SCRITTE
100
AcDbLine
 62
250
  6
CONTINUOUS
 10
358.3189947254
 20
125.4332779661
 11
358.2141876569
 21
124.8196779661
  0
LWPOLYLINE
  5
3DA
100
AcDbEntity
  8
SCRITTE
100
AcDbPolyline
 62
250
  6
CONTINUOUS
 90
7
 70
0
 10
358.2955916756
 20
126.4815206788
 10
358.2941481359
 20
126.4731300134
 10
358.2927221755
 20
126.4645882475
 10
358.2913144488
 20
126.455864768
 10
358.28992561
 20
126.4469289617
 10
358.2885563135
 20
126.4377502153
 10
358.2872072137
 20
126.4282979158
  0
LINE
  5
3DB
100
AcDbEntity
  8
SCRITTE
100
AcDbLine
 62
250
  6
CONTINUOUS
 10
358.2987765068
 20
126.4993338378
 11
358.2955916756
 21
126.4815206788
  0
LINE
  5
3DC
100
AcDbEntity
  8
SCRITTE
100
AcDbLine
 62
250
  6
CONTINUOUS
 10
358.3189947393
 20
126.6108834425
 11
358.3058724132
 21
126.5378846049
  0
LINE
  5
3DD
100
AcDbEntity
  8
SCRITTE
100
AcDbLine
 62
250
  6
CONTINUOUS
 10
358.3058724132
 20
126.5378846049
 11
358.2987765068
 21
126.4993338378
  0
LINE
  5
3DE
100
AcDbEntity
  8
SCRITTE
100
AcDbLine
 62
250
  6
CONTINUOUS
 10
358.2863296379
 20
120.0877509661
 11
358.2141876569
 21
119.7065449661
  0
LINE
  5
3DF
100
AcDbEntity
  8
SCRITTE
100
AcDbLine
 62
250
  6
CONTINUOUS
 10
358.2872499673
 20
126.8520718919
 11
358.2889165865
 21
126.8608593971
  0
LINE
  5
3E0
100
AcDbEntity
  8
SCRITTE
100
AcDbLine
 62
250
  6
CONTINUOUS
 10
358.298071496
 20
124.8851679661
 11
358.3189947254
 21
124.9933089661
  0
LINE
  5
3E1
100
AcDbEntity
  8
SCRITTE
100
AcDbLine
 62
250
  6
CONTINUOUS
 10
358.2889165865
 20
126.8608593971
 11
358.2979289342
 21
126.9070295859
  0
LINE
  5
3E2
100
AcDbEntity
  8
SCRITTE
100
AcDbLine
 62
250
  6
CONTINUOUS
 10
358.3144268342
 20
126.9891936336
 11
358.3189947393
 21
127.0124165847
  0
LINE
  5
3E3
100
AcDbEntity
  8
SCRITTE
100
AcDbLine
 62
250
  6
CONTINUOUS
 10
358.2979289342
 20
126.9070295859
 11
358.3144268342
 21
126.9891936336
  0
LINE
  5
3E4
100
AcDbEntity
  8
SCRITTE
100
AcDbLine
 62
250
  6
CONTINUOUS
 10
358.2429859937
 20
124.6099209661
 11
358.2818812132
 21
124.8017419661
  0
LINE
  5
3E5
100
AcDbEntity
  8
SCRITTE
100
AcDbLine
 62
250
  6
CONTINUOUS
 10
358.3189947254
 20
123.7230239661
 11
358.2141876569
 21
123.5360169661
  0
LINE
  5
3E6
100
AcDbEntity
  8
SCRITTE
100
AcDbLine
 62
250
  6
CONTINUOUS
 10
358.2508430204
 20
123.2288859661
 11
358.3189947254
 21
123.3146529661
  0
LINE
  5
3E7
100
AcDbEntity
  8
SCRITTE
100
AcDbLine
 62
250
  6
CONTINUOUS
 10
358.2141876569
 20
124.4158509661
 11
358.3189947254
 21
123.7885739661
  0
LINE
  5
3E8
100
AcDbEntity
  8
SCRITTE
100
AcDbLine
 62
250
  6
CONTINUOUS
 10
358.2141876569
 20
123.1229959661
 11
358.2723768528
 21
122.7055519661
  0
LINE
  5
3E9
100
AcDbEntity
  8
SCRITTE
100
AcDbLine
 62
250
  6
CONTINUOUS
 10
358.3189947254
 20
122.7325449661
 11
358.2508430204
 21
123.2288859661
  0
LINE
  5
3EA
100
AcDbEntity
  8
RACCORDO
100
AcDbLine
 62
7
  6
CONTINUOUS
 10
95.9551309775
 20
113.9845766005
 11
100.3812989556
 21
113.7526109661
  0
LINE
  5
3EB
100
AcDbEntity
  8
ASSI
100
AcDbLine
 62
7
  6
CONTINUOUS
 10
95.9551309775
 20
113.9845766005
 11
100.3812989556
 21
113.7526109661
  0
LINE
  5
3EC
100
AcDbEntity
  8
RACCORDO
100
AcDbLine
 62
7
  6
CONTINUOUS
 10
103.1917661469
 20
114.587188388
 11
100.779640806
 21
114.4607742555
  0
LINE
  5
3ED
100
AcDbEntity
  8
ASSI
100
AcDbLine
 62
7
  6
CONTINUOUS
 10
103.1917661469
 20
114.587188388
 11
100.779640806
 21
114.4607742555
  0
LINE
  5
3EE
100
AcDbEntity
  8
0
100
AcDbLine
 62
250
  6
CONTINUOUS
 10
100.3812989556
 20
115.2505552682
 11
100.779640806
 21
115.2541971899
  0
LINE
  5
3EF
100
AcDbEntity
  8
ASSI
100
AcDbLine
 62
250
  6
CONTINUOUS
 10
100.3812989556
 20
115.2505552682
 11
100.779640806
 21
115.2541971899
  0
LINE
  5
3F0
100
AcDbEntity
  8
RACCORDO
100
AcDbLine
 62
250
  6
CONTINUOUS
 10
103.3812989556
 20
115.2546694851
 11
100.779640806
 21
115.2546694851
  0
LINE
  5
3F1
100
AcDbEntity
  8
ASSI
100
AcDbLine
 62
250
  6
CONTINUOUS
 10
103.3812989556
 20
115.2546694851
 11
100.779640806
 21
115.2546694851
  0
LINE
  5
3F2
100
AcDbEntity
  8
RACCORDO
100
AcDbLine
 62
250
  6
CONTINUOUS
 10
95.4812989556
 20
115.4825209027
 11
95.9551309775
 21
115.4825209027
  0
LINE
  5
3F3
100
AcDbEntity
  8
ASSI
100
AcDbLine
 62
250
  6
CONTINUOUS
 10
95.4812989556
 20
115.4825209027
 11
95.9551309775
 21
115.4825209027
  0
LINE
  5
3F4
100
AcDbEntity
  8
RACCORDO
100
AcDbLine
 62
250
  6
CONTINUOUS
 10
95.9551309775
 20
115.4825209027
 11
100.3812989556
 21
115.2505552682
  0
LINE
  5
3F5
100
AcDbEntity
  8
ASSI
100
AcDbLine
 62
250
  6
CONTINUOUS
 10
95.9551309775
 20
115.4825209027
 11
100.3812989556
 21
115.2505552682
  0
LWPOLYLINE
  5
3F6
100
AcDbEntity
  8
0
100
AcDbPolyline
 62
7
  6
CONTINUOUS
 90
10
 70
0
 43
0.3499999917
 10
100.717013855
 20
212.5026013184
 10
101.5741571045
 20
213.3597509766
 10
101.788444519
 20
214.2169006348
 10
101.788444519
 20
215.074050293
 10
101.3598696899
 20
215.5026123047
 10
100.717013855
 20
215.5026123047
 10
100.2884390259
 20
215.074050293
 10
100.2884390259
 20
214.2169006348
 10
100.717013855
 20
213.7883129883
 10
101.6455819702
 20
213.7883129883
  0
LINE
  5
3F7
100
AcDbEntity
  8
SCRITTE
100
AcDbLine
 62
250
  6
CONTINUOUS
 10
98.5149969556
 20
120.0877509661
 11
97.1384459556
 21
119.7065449661
  0
LINE
  5
3F8
100
AcDbEntity
  8
SCRITTE
100
AcDbLine
 62
250
  6
CONTINUOUS
 10
99.1382839556
 20
121.0526749661
 11
97.1383259556
 21
121.0526749661
  0
LINE
  5
3F9
100
AcDbEntity
  8
SCRITTE
100
AcDbLine
 62
250
  6
CONTINUOUS
 10
97.1383259556
 20
121.4701189661
 11
99.1382839556
 21
121.4701189661
  0
LINE
  5
3FA
100
AcDbEntity
  8
SCRITTE
100
AcDbLine
 62
250
  6
CONTINUOUS
 10
99.1382839556
 20
122.0942009661
 11
97.8324269556
 21
122.1842849661
  0
LINE
  5
3FB
100
AcDbEntity
  8
SCRITTE
100
AcDbLine
 62
250
  6
CONTINUOUS
 10
97.1384459556
 20
121.8754169661
 11
99.1382839556
 21
121.6948429661
  0
LINE
  5
3FC
100
AcDbEntity
  8
SCRITTE
100
AcDbLine
 62
250
  6
CONTINUOUS
 10
97.1384459556
 20
120.4805999661
 11
98.5149969556
 21
120.0877509661
  0
LINE
  5
3FD
100
AcDbEntity
  8
SCRITTE
100
AcDbLine
 62
250
  6
CONTINUOUS
 10
99.1382839556
 20
120.2549319661
 11
97.1384459556
 21
120.8977599661
  0
LINE
  5
3FE
100
AcDbEntity
  8
SCRITTE
100
AcDbLine
 62
250
  6
CONTINUOUS
 10
99.1382839556
 20
123.7230239661
 11
97.1384459556
 21
123.5360169661
  0
LINE
  5
3FF
100
AcDbEntity
  8
SCRITTE
100
AcDbLine
 62
250
  6
CONTINUOUS
 10
97.8378719556
 20
123.2288859661
 11
99.1382839556
 21
123.3146529661
  0
LINE
  5
400
100
AcDbEntity
  8
SCRITTE
100
AcDbLine
 62
250
  6
CONTINUOUS
 10
99.1382842209
 20
125.5558597977
 11
97.1618113738
 21
125.5558597977
  0
LINE
  5
401
100
AcDbEntity
  8
SCRITTE
100
AcDbLine
 62
250
  6
CONTINUOUS
 10
98.4301159556
 20
124.4020689661
 11
97.6879509556
 21
124.6099209661
  0
LINE
  5
402
100
AcDbEntity
  8
SCRITTE
100
AcDbLine
 62
250
  6
CONTINUOUS
 10
99.1382839556
 20
124.2014899661
 11
98.7390449556
 21
124.3166779661
  0
LINE
  5
403
100
AcDbEntity
  8
SCRITTE
100
AcDbLine
 62
250
  6
CONTINUOUS
 10
97.1384459556
 20
124.4158509661
 11
99.1382839556
 21
123.7885739661
  0
LINE
  5
404
100
AcDbEntity
  8
SCRITTE
100
AcDbLine
 62
250
  6
CONTINUOUS
 10
97.1384459556
 20
123.1229959661
 11
98.2487619556
 21
122.7055519661
  0
LINE
  5
405
100
AcDbEntity
  8
SCRITTE
100
AcDbLine
 62
250
  6
CONTINUOUS
 10
99.1382839556
 20
122.7325449661
 11
97.8378719556
 21
123.2288859661
  0
LWPOLYLINE
  5
406
100
AcDbEntity
  8
SCRITTE
100
AcDbPolyline
 62
250
  6
CONTINUOUS
 90
11
 70
0
 10
98.853514665
 20
126.5280583152
 10
98.7857998957
 20
126.5088383888
 10
98.7524973617
 20
126.4993338378
 10
98.7195944866
 20
126.4897908569
 10
98.6917271626
 20
126.4815206788
 10
98.6641827851
 20
126.4731300134
 10
98.63697384
 20
126.4645882475
 10
98.610112813
 20
126.455864768
 10
98.58361219
 20
126.4469289617
 10
98.5574844568
 20
126.4377502153
 10
98.5317420992
 20
126.4282979158
  0
LINE
  5
407
100
AcDbEntity
  8
SCRITTE
100
AcDbLine
 62
250
  6
CONTINUOUS
 10
98.7390449556
 20
124.8851679661
 11
99.1382839556
 21
124.9933089661
  0
LINE
  5
408
100
AcDbEntity
  8
SCRITTE
100
AcDbLine
 62
250
  6
CONTINUOUS
 10
98.5483420995
 20
126.8564798983
 11
98.6901790762
 21
126.8947912277
  0
LINE
  5
409
100
AcDbEntity
  8
SCRITTE
100
AcDbLine
 62
250
  6
CONTINUOUS
 10
99.0511233992
 20
126.9891936336
 11
99.1382842209
 21
127.0124165847
  0
LINE
  5
40A
100
AcDbEntity
  8
SCRITTE
100
AcDbLine
 62
250
  6
CONTINUOUS
 10
98.6901790762
 20
126.8947912277
 11
98.8730054547
 21
126.9428473212
  0
LINE
  5
40B
100
AcDbEntity
  8
SCRITTE
100
AcDbLine
 62
250
  6
CONTINUOUS
 10
98.8730054547
 20
126.9428473212
 11
99.0511233992
 21
126.9891936336
  0
LINE
  5
40C
100
AcDbEntity
  8
SCRITTE
100
AcDbLine
 62
250
  6
CONTINUOUS
 10
97.6879509556
 20
124.6099209661
 11
98.4301159556
 21
124.8017419661
  0
LWPOLYLINE
  5
40D
100
AcDbEntity
  8
SCRITTE
100
AcDbPolyline
 62
250
  6
CONTINUOUS
 90
49
 70
0
 10
97.7173592824
 20
126.520619092
 10
97.7098690472
 20
126.5203871323
 10
97.7024199672
 20
126.5199276924
 10
97.6950093242
 20
126.5192429704
 10
97.6876343998
 20
126.5183351643
 10
97.6802924757
 20
126.5172064721
 10
97.6729808335
 20
126.515859092
 10
97.665696755
 20
126.5142952218
 10
97.6584375217
 20
126.5125170598
 10
97.6512022081
 20
126.5105264269
 10
97.6439970595
 20
126.5083236354
 10
97.636830114
 20
126.5059086207
 10
97.6297094096
 20
126.5032813181
 10
97.6226429844
 20
126.5004416631
 10
97.6156388765
 20
126.4973895908
 10
97.6087051239
 20
126.4941250367
 10
97.6018497647
 20
126.4906479361
 10
97.5950812039
 20
126.4869582191
 10
97.5884093147
 20
126.4830557949
 10
97.5818443371
 20
126.4789405673
 10
97.5753965112
 20
126.4746124405
 10
97.5690760771
 20
126.4700713182
 10
97.5628932748
 20
126.4653171044
 10
97.5568583444
 20
126.4603497031
 10
97.550981526
 20
126.4551690182
 10
97.5452719992
 20
126.4497763375
 10
97.5397347013
 20
126.4441784842
 10
97.5343735092
 20
126.4383836655
 10
97.5291923
 20
126.4324000885
 10
97.5241949503
 20
126.4262359603
 10
97.5193853372
 20
126.4198994879
 10
97.5147673375
 20
126.4133988786
 10
97.5103448281
 20
126.4067423394
 10
97.5061211638
 20
126.3999380886
 10
97.5020976109
 20
126.3929943893
 10
97.4982749136
 20
126.3859195159
 10
97.4946538161
 20
126.3787217425
 10
97.4912350627
 20
126.3714093435
 10
97.4880193975
 20
126.3639905932
 10
97.4850075647
 20
126.3564737659
 10
97.4822003086
 20
126.3488671358
 10
97.4795987032
 20
126.3411770794
 10
97.4772051424
 20
126.3334023821
 10
97.4750223499
 20
126.3255399313
 10
97.4730530494
 20
126.3175866145
 10
97.4712999647
 20
126.3095393192
 10
97.4697658195
 20
126.3013949329
 10
97.4684533374
 20
126.2931503431
 10
97.4673652423
 20
126.2848024373
  0
LINE
  5
40E
100
AcDbEntity
  8
SCRITTE
100
AcDbLine
 62
250
  6
CONTINUOUS
 10
97.4791387796
 20
125.9577828507
 11
98.0281331874
 21
125.9577828507
  0
LINE
  5
40F
100
AcDbEntity
  8
SCRITTE
100
AcDbLine
 62
250
  6
CONTINUOUS
 10
98.3556582603
 20
125.9716246842
 11
99.1382842209
 21
125.9716246842
  0
LINE
  5
410
100
AcDbEntity
  8
SCRITTE
100
AcDbLine
 62
250
  6
CONTINUOUS
 10
98.1929604803
 20
126.6290892776
 11
98.2047777769
 21
126.6290892776
  0
LWPOLYLINE
  5
411
100
AcDbEntity
  8
RACCORDO
100
AcDbPolyline
 62
250
  6
CONTINUOUS
 90
10
 70
0
 10
95.9551309775
 20
113.9845766005
 10
95.9538095636
 20
113.9867078552
 10
95.9525539348
 20
113.9929414862
 10
95.9513733307
 20
114.0032414119
 10
95.9502819976
 20
114.0175509753
 10
95.9492816556
 20
114.0358176919
 10
95.9483629675
 20
114.0580163403
 10
95.9475322328
 20
114.0841077166
 10
95.9467980435
 20
114.1140094329
 10
95.9461545236
 20
114.1476330431
  0
LWPOLYLINE
  5
412
100
AcDbEntity
  8
ASSI
100
AcDbPolyline
 62
250
  6
CONTINUOUS
 90
10
 70
0
 10
95.9551309775
 20
113.9845766005
 10
95.9538095636
 20
113.9867078552
 10
95.9525539348
 20
113.9929414862
 10
95.9513733307
 20
114.0032414119
 10
95.9502819976
 20
114.0175509753
 10
95.9492816556
 20
114.0358176919
 10
95.9483629675
 20
114.0580163403
 10
95.9475322328
 20
114.0841077166
 10
95.9467980435
 20
114.1140094329
 10
95.9461545236
 20
114.1476330431
  0
LWPOLYLINE
  5
413
100
AcDbEntity
  8
0
100
AcDbPolyline
 62
7
  6
CONTINUOUS
 90
3
 70
0
 43
0.3499999917
 10
99.2884396362
 20
212.788326416
 10
99.2170147705
 20
212.5740454102
 10
99.0741586304
 20
212.2883203125
  0
LWPOLYLINE
  5
414
100
AcDbEntity
  8
SCRITTE
100
AcDbPolyline
 62
250
  6
CONTINUOUS
 90
33
 70
0
 10
97.1618113738
 20
125.5558597977
 10
97.1555958248
 20
125.599012269
 10
97.1497509782
 20
125.6415504283
 10
97.1442980101
 20
125.6834781552
 10
97.1392580968
 20
125.7247993291
 10
97.1346524144
 20
125.7655178295
 10
97.130502139
 20
125.8056375358
 10
97.1268260939
 20
125.845161506
 10
97.1236336904
 20
125.8840895127
 10
97.1209319867
 20
125.9224205066
 10
97.1187280412
 20
125.9601534388
 10
97.1170289122
 20
125.9972872603
 10
97.115841658
 20
126.033820922
 10
97.1151707873
 20
126.0697541924
 10
97.1150106104
 20
126.1050901103
 10
97.1153528882
 20
126.1398325321
 10
97.1161893812
 20
126.173985314
 10
97.1175118504
 20
126.2075523124
 10
97.1193120563
 20
126.2405373837
 10
97.1212320198
 20
126.2683474654
 10
97.1235093472
 20
126.2957197116
 10
97.1261564651
 20
126.322640992
 10
97.1291858004
 20
126.3490981761
 10
97.13260978
 20
126.3750781335
 10
97.1364408306
 20
126.4005677339
 10
97.1406913791
 20
126.4255538468
 10
97.1453727781
 20
126.4500256541
 10
97.1504920832
 20
126.4739815865
 10
97.1560552762
 20
126.4974223867
 10
97.1620683385
 20
126.5203487977
 10
97.1685372517
 20
126.5427615623
 10
97.1754679973
 20
126.5646614233
 10
97.182866557
 20
126.5860491237
  0
LINE
  5
415
100
AcDbEntity
  8
RACCORDO
100
AcDbLine
 62
250
  6
CONTINUOUS
 10
95.9551309775
 20
200.0227010295
 11
95.9492816556
 21
200.4100923914
  0
LINE
  5
416
100
AcDbEntity
  8
ASSI
100
AcDbLine
 62
250
  6
CONTINUOUS
 10
95.9551309775
 20
200.0227010295
 11
95.9492816556
 21
200.4100923914
  0
LINE
  5
417
100
AcDbEntity
  8
RACCORDO
100
AcDbLine
 62
250
  6
CONTINUOUS
 10
95.9461545236
 20
114.1476330431
 11
95.9451561368
 21
114.2256557647
  0
LINE
  5
418
100
AcDbEntity
  8
ASSI
100
AcDbLine
 62
250
  6
CONTINUOUS
 10
95.9461545236
 20
114.1476330431
 11
95.9451561368
 21
114.2256557647
  0
LINE
  5
419
100
AcDbEntity
  8
RACCORDO
100
AcDbLine
 62
250
  6
CONTINUOUS
 10
95.9492816556
 20
200.4100923914
 11
95.9456052494
 21
200.7701945866
  0
LINE
  5
41A
100
AcDbEntity
  8
ASSI
100
AcDbLine
 62
250
  6
CONTINUOUS
 10
95.9492816556
 20
200.4100923914
 11
95.9456052494
 21
200.7701945866
  0
LINE
  5
41B
100
AcDbEntity
  8
RACCORDO
100
AcDbLine
 62
250
  6
CONTINUOUS
 10
95.9451561368
 20
114.2256557647
 11
95.9445487379
 21
114.3173492891
  0
LINE
  5
41C
100
AcDbEntity
  8
ASSI
100
AcDbLine
 62
250
  6
CONTINUOUS
 10
95.9451561368
 20
114.2256557647
 11
95.9445487379
 21
114.3173492891
  0
LINE
  5
41D
100
AcDbEntity
  8
RACCORDO
100
AcDbLine
 62
250
  6
CONTINUOUS
 10
95.9456052494
 20
200.7701945866
 11
95.9443954826
 21
201.022894949
  0
LINE
  5
41E
100
AcDbEntity
  8
ASSI
100
AcDbLine
 62
250
  6
CONTINUOUS
 10
95.9456052494
 20
200.7701945866
 11
95.9443954826
 21
201.022894949
  0
LINE
  5
41F
100
AcDbEntity
  8
RACCORDO
100
AcDbLine
 62
7
  6
CONTINUOUS
 10
95.4812989556
 20
114.4838913679
 11
95.4812989556
 21
201.0213305642
  0
LINE
  5
420
100
AcDbEntity
  8
ASSI
100
AcDbLine
 62
7
  6
CONTINUOUS
 10
95.4812989556
 20
114.4838913679
 11
95.4812989556
 21
201.0213305642
  0
LINE
  5
421
100
AcDbEntity
  8
RACCORDO
100
AcDbLine
 62
250
  6
CONTINUOUS
 10
95.9551309775
 20
115.4825209027
 11
95.9551309775
 21
200.0227010295
  0
LINE
  5
422
100
AcDbEntity
  8
ASSI
100
AcDbLine
 62
250
  6
CONTINUOUS
 10
95.9551309775
 20
115.4825209027
 11
95.9551309775
 21
200.0227010295
  0
LWPOLYLINE
  5
423
100
AcDbEntity
  8
0
100
AcDbPolyline
 62
7
  6
CONTINUOUS
 90
4
 70
0
 43
0.3499999917
 10
96.2170101929
 20
214.8597436523
 10
96.2170101929
 20
215.5026123047
 10
97.717015686
 20
215.5026123047
 10
96.8598724365
 20
212.5026013184
  0
LINE
  5
424
100
AcDbEntity
  8
RACCORDO
100
AcDbLine
 62
250
  6
CONTINUOUS
 10
95.9445487379
 20
114.3173492891
 11
95.9443885383
 21
114.4783185198
  0
LINE
  5
425
100
AcDbEntity
  8
ASSI
100
AcDbLine
 62
250
  6
CONTINUOUS
 10
95.9445487379
 20
114.3173492891
 11
95.9443885383
 21
114.4783185198
  0
LINE
  5
426
100
AcDbEntity
  8
RACCORDO
100
AcDbLine
 62
250
  6
CONTINUOUS
 10
95.9443954826
 20
201.022894949
 11
95.9445349311
 21
201.184477898
  0
LINE
  5
427
100
AcDbEntity
  8
ASSI
100
AcDbLine
 62
250
  6
CONTINUOUS
 10
95.9443954826
 20
201.022894949
 11
95.9445349311
 21
201.184477898
  0
LINE
  5
428
100
AcDbEntity
  8
RACCORDO
100
AcDbLine
 62
250
  6
CONTINUOUS
 10
95.9443885383
 20
114.4783185198
 11
95.945571423
 21
114.7303086842
  0
LINE
  5
429
100
AcDbEntity
  8
ASSI
100
AcDbLine
 62
250
  6
CONTINUOUS
 10
95.9443885383
 20
114.4783185198
 11
95.945571423
 21
114.7303086842
  0
LINE
  5
42A
100
AcDbEntity
  8
RACCORDO
100
AcDbLine
 62
250
  6
CONTINUOUS
 10
95.9445349311
 20
201.184477898
 11
95.9451289645
 21
201.2766104257
  0
LINE
  5
42B
100
AcDbEntity
  8
ASSI
100
AcDbLine
 62
250
  6
CONTINUOUS
 10
95.9445349311
 20
201.184477898
 11
95.9451289645
 21
201.2766104257
  0
LINE
  5
42C
100
AcDbEntity
  8
RACCORDO
100
AcDbLine
 62
250
  6
CONTINUOUS
 10
95.945571423
 20
114.7303086842
 11
95.9492370095
 21
115.0916995895
  0
LINE
  5
42D
100
AcDbEntity
  8
ASSI
100
AcDbLine
 62
250
  6
CONTINUOUS
 10
95.945571423
 20
114.7303086842
 11
95.9492370095
 21
115.0916995895
  0
LWPOLYLINE
  5
42E
100
AcDbEntity
  8
RACCORDO
100
AcDbPolyline
 62
250
  6
CONTINUOUS
 90
11
 70
0
 10
95.9451289645
 20
201.2766104257
 10
95.9461138783
 20
201.3551477944
 10
95.9467527334
 20
201.3891219908
 10
95.9474850094
 20
201.4194003947
 10
95.9483154557
 20
201.4458818028
 10
95.9492370095
 20
201.4684795222
 10
95.9502449878
 20
201.4871055373
 10
95.9513459081
 20
201.5016806706
 10
95.9525357871
 20
201.5121519258
 10
95.9538007887
 20
201.5184830252
 10
95.9551309775
 20
201.5206453316
  0
LWPOLYLINE
  5
42F
100
AcDbEntity
  8
ASSI
100
AcDbPolyline
 62
250
  6
CONTINUOUS
 90
11
 70
0
 10
95.9451289645
 20
201.2766104257
 10
95.9461138783
 20
201.3551477944
 10
95.9467527334
 20
201.3891219908
 10
95.9474850094
 20
201.4194003947
 10
95.9483154557
 20
201.4458818028
 10
95.9492370095
 20
201.4684795222
 10
95.9502449878
 20
201.4871055373
 10
95.9513459081
 20
201.5016806706
 10
95.9525357871
 20
201.5121519258
 10
95.9538007887
 20
201.5184830252
 10
95.9551309775
 20
201.5206453316
  0
LINE
  5
430
100
AcDbEntity
  8
RACCORDO
100
AcDbLine
 62
250
  6
CONTINUOUS
 10
95.9492370095
 20
115.0916995895
 11
95.9551309775
 21
115.4825209027
  0
LINE
  5
431
100
AcDbEntity
  8
ASSI
100
AcDbLine
 62
250
  6
CONTINUOUS
 10
95.9492370095
 20
115.0916995895
 11
95.9551309775
 21
115.4825209027
  0
LWPOLYLINE
  5
432
100
AcDbEntity
  8
SCRITTE
100
AcDbPolyline
 62
250
  6
CONTINUOUS
 90
56
 70
0
 10
98.0281331874
 20
126.1963482747
 10
98.0277377547
 20
126.208751279
 10
98.027115138
 20
126.2208925568
 10
98.0262711417
 20
126.2327657873
 10
98.0252115699
 20
126.2443646497
 10
98.0239422269
 20
126.2556828234
 10
98.0224689169
 20
126.2667139877
 10
98.0207974443
 20
126.2774518218
 10
98.0189317183
 20
126.2878942668
 10
98.0168680688
 20
126.2980563114
 10
98.0146009308
 20
126.3079572061
 10
98.0121247393
 20
126.3176162012
 10
98.0094339292
 20
126.3270525473
 10
98.0065229356
 20
126.3362854948
 10
98.0033861933
 20
126.3453342941
 10
98.00045203
 20
126.3531125322
 10
97.9973373113
 20
126.3607562019
 10
97.9940385812
 20
126.3682569847
 10
97.9905523838
 20
126.375606562
 10
97.9868727878
 20
126.3827998123
 10
97.9829839603
 20
126.3898444035
 10
97.9788675932
 20
126.3967512004
 10
97.9745053783
 20
126.403531068
 10
97.969882218
 20
126.410189601
 10
97.9649958575
 20
126.4167113138
 10
97.9598472528
 20
126.4230754504
 10
97.9544373596
 20
126.4292612551
 10
97.9487683083
 20
126.4352519054
 10
97.942846926
 20
126.441046313
 10
97.9366812144
 20
126.4466473228
 10
97.930279175
 20
126.4520577799
 10
97.9236480641
 20
126.4572799997
 10
97.9167921561
 20
126.4623141788
 10
97.9097149803
 20
126.467159984
 10
97.9024200659
 20
126.4718170822
 10
97.8949118077
 20
126.4762847798
 10
97.8871980637
 20
126.4805609414
 10
97.8792875572
 20
126.4846430711
 10
97.8711890117
 20
126.488528673
 10
97.8629097414
 20
126.4922151989
 10
97.8544514236
 20
126.4956998917
 10
97.8458143261
 20
126.498979942
 10
97.8369987168
 20
126.5020525404
 10
97.8280048636
 20
126.5049148774
 10
97.8188330345
 20
126.5075641436
 10
97.8094834972
 20
126.5099975295
 10
97.7999565198
 20
126.5122122258
 10
97.7913393145
 20
126.5139934723
 10
97.7825820978
 20
126.5155886744
 10
97.773684846
 20
126.5169867994
 10
97.7646475357
 20
126.5181768143
 10
97.7554701433
 20
126.5191476865
 10
97.7461526453
 20
126.5198883832
 10
97.7366950181
 20
126.5203878715
 10
97.7270972384
 20
126.5206351187
 10
97.7173592824
 20
126.520619092
  0
LINE
  5
433
100
AcDbEntity
  8
SCRITTE
100
AcDbLine
 62
250
  6
CONTINUOUS
 10
97.1383259556
 20
121.0526749661
 11
97.1383259556
 21
121.4701189661
  0
LINE
  5
434
100
AcDbEntity
  8
SCRITTE
100
AcDbLine
 62
250
  6
CONTINUOUS
 10
97.1384459556
 20
124.8196779661
 11
97.1384459556
 21
124.4158509661
  0
LINE
  5
435
100
AcDbEntity
  8
SCRITTE
100
AcDbLine
 62
250
  6
CONTINUOUS
 10
97.1384459556
 20
123.5360169661
 11
97.1384459556
 21
123.1229959661
  0
LINE
  5
436
100
AcDbEntity
  8
SCRITTE
100
AcDbLine
 62
250
  6
CONTINUOUS
 10
97.1384459556
 20
122.2925159661
 11
97.1384459556
 21
121.8754169661
  0
LINE
  5
437
100
AcDbEntity
  8
SCRITTE
100
AcDbLine
 62
250
  6
CONTINUOUS
 10
97.1384459556
 20
120.8977599661
 11
97.1384459556
 21
120.4805999661
  0
LINE
  5
438
100
AcDbEntity
  8
SCRITTE
100
AcDbLine
 62
250
  6
CONTINUOUS
 10
97.1384459556
 20
119.7065449661
 11
97.1384459556
 21
119.2530719661
  0
LINE
  5
439
100
AcDbEntity
  8
SCRITTE
100
AcDbLine
 62
250
  6
CONTINUOUS
 10
98.0281331874
 20
125.9577828507
 11
98.0281331874
 21
126.1963482747
  0
LINE
  5
43A
100
AcDbEntity
  8
SCRITTE
100
AcDbLine
 62
250
  6
CONTINUOUS
 10
98.3556582603
 20
126.1954484805
 11
98.3556582603
 21
125.9716246842
  0
LINE
  5
43B
100
AcDbEntity
  8
SCRITTE
100
AcDbLine
 62
250
  6
CONTINUOUS
 10
98.4301159556
 20
124.8017419661
 11
98.4301159556
 21
124.4020689661
  0
LINE
  5
43C
100
AcDbEntity
  8
SCRITTE
100
AcDbLine
 62
250
  6
CONTINUOUS
 10
98.7390449556
 20
124.3166779661
 11
98.7390449556
 21
124.8851679661
  0
LINE
  5
43D
100
AcDbEntity
  8
SCRITTE
100
AcDbLine
 62
250
  6
CONTINUOUS
 10
99.1382839556
 20
121.4701189661
 11
99.1382839556
 21
121.0526749661
  0
LINE
  5
43E
100
AcDbEntity
  8
SCRITTE
100
AcDbLine
 62
250
  6
CONTINUOUS
 10
99.1382839556
 20
119.8870589661
 11
99.1382839556
 21
120.2549319661
  0
LINE
  5
43F
100
AcDbEntity
  8
SCRITTE
100
AcDbLine
 62
250
  6
CONTINUOUS
 10
99.1382839556
 20
121.6948429661
 11
99.1382839556
 21
122.0942009661
  0
LINE
  5
440
100
AcDbEntity
  8
SCRITTE
100
AcDbLine
 62
250
  6
CONTINUOUS
 10
99.1382839556
 20
122.6739989661
 11
99.1382839556
 21
122.7325449661
  0
LINE
  5
441
100
AcDbEntity
  8
SCRITTE
100
AcDbLine
 62
250
  6
CONTINUOUS
 10
99.1382839556
 20
123.3146529661
 11
99.1382839556
 21
123.7230239661
  0
LINE
  5
442
100
AcDbEntity
  8
SCRITTE
100
AcDbLine
 62
250
  6
CONTINUOUS
 10
99.1382839556
 20
123.7885739661
 11
99.1382839556
 21
124.2014899661
  0
LINE
  5
443
100
AcDbEntity
  8
SCRITTE
100
AcDbLine
 62
250
  6
CONTINUOUS
 10
99.1382839556
 20
124.9933089661
 11
99.1382839556
 21
125.4332779661
  0
LINE
  5
444
100
AcDbEntity
  8
SCRITTE
100
AcDbLine
 62
250
  6
CONTINUOUS
 10
99.1382842209
 20
127.0124165847
 11
99.1382842209
 21
126.6108834425
  0
LINE
  5
445
100
AcDbEntity
  8
SCRITTE
100
AcDbLine
 62
250
  6
CONTINUOUS
 10
99.1382842209
 20
125.9716246842
 11
99.1382842209
 21
125.5558597977
  0
LINE
  5
446
100
AcDbEntity
  8
0
100
AcDbLine
 62
7
  6
CONTINUOUS
 10
100.7796407245
 20
201.0444476808
 11
100.7796569693
 21
201.0431010451
  0
LINE
  5
447
100
AcDbEntity
  8
ASSI
100
AcDbLine
 62
7
  6
CONTINUOUS
 10
100.7796407245
 20
201.0444476808
 11
100.7796569693
 21
201.0431010451
  0
LINE
  5
448
100
AcDbEntity
  8
0
100
AcDbLine
 62
7
  6
CONTINUOUS
 10
100.3812989556
 20
113.7526109661
 11
100.3812989556
 21
201.7526109661
  0
LINE
  5
449
100
AcDbEntity
  8
ASSI
100
AcDbLine
 62
7
  6
CONTINUOUS
 10
100.3812989556
 20
113.7526109661
 11
100.3812989556
 21
201.7526109661
  0
LINE
  5
44A
100
AcDbEntity
  8
0
100
AcDbLine
 62
7
  6
CONTINUOUS
 10
100.7796569693
 20
201.0431010451
 11
100.7797769095
 21
114.6767174075
  0
LINE
  5
44B
100
AcDbEntity
  8
ASSI
100
AcDbLine
 62
7
  6
CONTINUOUS
 10
100.7796569693
 20
201.0431010451
 11
100.7797769095
 21
114.6767174075
  0
LINE
  5
44C
100
AcDbEntity
  8
0
100
AcDbLine
 62
7
  6
CONTINUOUS
 10
100.7797769095
 20
114.6767174075
 11
100.7797502302
 21
114.5450885817
  0
LINE
  5
44D
100
AcDbEntity
  8
ASSI
100
AcDbLine
 62
7
  6
CONTINUOUS
 10
100.7797769095
 20
114.6767174075
 11
100.7797502302
 21
114.5450885817
  0
LWPOLYLINE
  5
44E
100
AcDbEntity
  8
0
100
AcDbPolyline
 62
7
  6
CONTINUOUS
 90
3
 70
0
 10
100.7797502302
 20
114.5450885817
 10
100.7796569595
 20
114.4621198792
 10
100.7796407245
 20
114.4607742513
  0
LWPOLYLINE
  5
44F
100
AcDbEntity
  8
ASSI
100
AcDbPolyline
 62
7
  6
CONTINUOUS
 90
3
 70
0
 10
100.7797502302
 20
114.5450885817
 10
100.7796569595
 20
114.4621198792
 10
100.7796407245
 20
114.4607742513
  0
LWPOLYLINE
  5
450
100
AcDbEntity
  8
SCRITTE
100
AcDbPolyline
 62
250
  6
CONTINUOUS
 90
24
 70
0
 10
97.4673652424
 20
126.2848024373
 10
97.4656961832
 20
126.269444197
 10
97.4642514472
 20
126.2540683133
 10
97.4630305143
 20
126.2386772648
 10
97.4620328643
 20
126.2232735298
 10
97.4612579773
 20
126.2078595867
 10
97.4607053331
 20
126.1924379141
 10
97.4603744116
 20
126.1770109902
 10
97.460266384
 20
126.163509051
 10
97.4603276995
 20
126.1500005194
 10
97.4605583431
 20
126.1364809258
 10
97.4609582997
 20
126.1229458008
 10
97.4615282984
 20
126.1093900707
 10
97.4622720454
 20
126.0958062449
 10
97.4631939911
 20
126.0821862286
 10
97.4642985859
 20
126.068521927
 10
97.4655882838
 20
126.0548078361
 10
97.4670575541
 20
126.0410488159
 10
97.4686988696
 20
126.027252317
 10
97.4705047034
 20
126.0134257902
 10
97.4724662175
 20
125.9995737868
 10
97.47456933
 20
125.9856892599
 10
97.4767986482
 20
125.9717622633
 10
97.4791387796
 20
125.9577828507
  0
LINE
  5
451
100
AcDbEntity
  8
RACCORDO
100
AcDbLine
 62
250
  6
CONTINUOUS
 10
103.1917661469
 20
200.9180335441
 11
103.1917661469
 21
114.587188388
  0
LINE
  5
452
100
AcDbEntity
  8
ASSI
100
AcDbLine
 62
250
  6
CONTINUOUS
 10
103.1917661469
 20
200.9180335441
 11
103.1917661469
 21
114.587188388
  0
LINE
  5
453
100
AcDbEntity
  8
RACCORDO
100
AcDbLine
 62
7
  6
CONTINUOUS
 10
103.3812989556
 20
200.7183076371
 11
103.3812989556
 21
114.7882305637
  0
LINE
  5
454
100
AcDbEntity
  8
ASSI
100
AcDbLine
 62
7
  6
CONTINUOUS
 10
103.3812989556
 20
200.7183076371
 11
103.3812989556
 21
114.7882305637
  0
LWPOLYLINE
  5
455
100
AcDbEntity
  8
SCRITTE
100
AcDbPolyline
 62
250
  6
CONTINUOUS
 90
86
 70
0
 10
97.182866557
 20
126.5860491237
 10
97.1870887002
 20
126.597105489
 10
97.1918439305
 20
126.6083162388
 10
97.1971542814
 20
126.6196994078
 10
97.2030417864
 20
126.6312730309
 10
97.2095284793
 20
126.6430551429
 10
97.2166363934
 20
126.6550637785
 10
97.2243806113
 20
126.6673022057
 10
97.2327484106
 20
126.6797146242
 10
97.241720118
 20
126.6922304671
 10
97.2512760598
 20
126.7047791672
 10
97.2613965627
 20
126.7172901575
 10
97.2720619533
 20
126.7296928708
 10
97.2832547975
 20
126.7419229289
 10
97.2949666194
 20
126.753940709
 10
97.3071911826
 20
126.7657127768
 10
97.3199222504
 20
126.7772056983
 10
97.3331535865
 20
126.7883860395
 10
97.3468789543
 20
126.7992203662
 10
97.3610834452
 20
126.8096747854
 10
97.3757174617
 20
126.8197135672
 10
97.3907227345
 20
126.8293005232
 10
97.4060409937
 20
126.8383994645
 10
97.42161397
 20
126.8469742025
 10
97.4373833938
 20
126.8549885484
 10
97.4532959812
 20
126.862414217
 10
97.4693183914
 20
126.8692545362
 10
97.4854222693
 20
126.8755207374
 10
97.5015792597
 20
126.8812240521
 10
97.5177610077
 20
126.8863757115
 10
97.533939158
 20
126.8909869472
 10
97.5533055836
 20
126.8958267727
 10
97.5725609085
 20
126.8999472994
 10
97.5916400439
 20
126.9033912655
 10
97.610477901
 20
126.906201409
 10
97.6290093911
 20
126.9084204683
 10
97.6471778964
 20
126.9100895564
 10
97.6649606828
 20
126.9112432863
 10
97.6823434874
 20
126.9119146456
 10
97.6993120472
 20
126.912136622
 10
97.7158520992
 20
126.9119422035
 10
97.7319536335
 20
126.9113622258
 10
97.7476236517
 20
126.9104189178
 10
97.7628734087
 20
126.9091323565
 10
97.7777141592
 20
126.9075226188
 10
97.792157158
 20
126.9056097816
 10
97.8096703442
 20
126.9028209319
 10
97.8266113916
 20
126.8996161374
 10
97.8430120627
 20
126.8960216764
 10
97.8589041201
 20
126.8920638266
 10
97.8743143802
 20
126.8877689936
 10
97.8892498742
 20
126.8831640929
 10
97.903712687
 20
126.8782761676
 10
97.9177049036
 20
126.8731322608
 10
97.9312288303
 20
126.8677590004
 10
97.9442876581
 20
126.8621813546
 10
97.9568847994
 20
126.8564238766
 10
97.9690236666
 20
126.8505111197
 10
97.9845061127
 20
126.8424236248
 10
97.9992135806
 20
126.8341336609
 10
98.0131797349
 20
126.8256711603
 10
98.0264350704
 20
126.8170654789
 10
98.0389974012
 20
126.8083436663
 10
98.0508813712
 20
126.7995321954
 10
98.0621068261
 20
126.7906580766
 10
98.072714419
 20
126.7817504708
 10
98.0827500045
 20
126.7728390761
 10
98.0922580063
 20
126.7639542468
 10
98.101277123
 20
126.7551289611
 10
98.1098446219
 20
126.7463968531
 10
98.1179968172
 20
126.7377884545
 10
98.1257662102
 20
126.7293218878
 10
98.1331843491
 20
126.721012173
 10
98.1437212294
 20
126.7088637134
 10
98.153635705
 20
126.6971051897
 10
98.1629797446
 20
126.6857696763
 10
98.1674213651
 20
126.6802180094
 10
98.1716859644
 20
126.6746633793
 10
98.1757406044
 20
126.6690440594
 10
98.1795070732
 20
126.6633751156
 10
98.182903351
 20
126.657686978
 10
98.1858774616
 20
126.6519947422
 10
98.1883896705
 20
126.6463038867
 10
98.1904191662
 20
126.640596758
 10
98.1919492162
 20
126.6348560873
 10
98.1929604803
 20
126.6290892776
  0
LWPOLYLINE
  5
456
100
AcDbEntity
  8
SCRITTE
100
AcDbPolyline
 62
250
  6
CONTINUOUS
 90
41
 70
0
 10
98.2047777769
 20
126.6290892776
 10
98.2075441829
 20
126.6357160351
 10
98.2105465139
 20
126.6423052359
 10
98.2137906698
 20
126.6488606622
 10
98.2172825505
 20
126.6553860961
 10
98.2210284824
 20
126.661884935
 10
98.2250364981
 20
126.6683590386
 10
98.2293150565
 20
126.6748098819
 10
98.2338726168
 20
126.6812389399
 10
98.2387152506
 20
126.6876451304
 10
98.2438394803
 20
126.6940171424
 10
98.2492394407
 20
126.7003411078
 10
98.2549092668
 20
126.7066031584
 10
98.2608420591
 20
126.7127902579
 10
98.267026781
 20
126.7188926974
 10
98.2734513615
 20
126.7249016001
 10
98.2801037295
 20
126.730808089
 10
98.2869743961
 20
126.7366056498
 10
98.2940642001
 20
126.7422972179
 10
98.3013765626
 20
126.7478880915
 10
98.3089149045
 20
126.7533835687
 10
98.3166810479
 20
126.7587876459
 10
98.3246704194
 20
126.764099114
 10
98.3328768465
 20
126.769315462
 10
98.3412941571
 20
126.7744341792
 10
98.351165067
 20
126.7801620997
 10
98.3612990604
 20
126.7857598357
 10
98.3716918428
 20
126.791228
 10
98.3823391201
 20
126.7965672056
 10
98.3932365978
 20
126.8017780652
 10
98.4043799819
 20
126.8068611917
 10
98.4157649779
 20
126.8118171978
 10
98.4293464533
 20
126.8174392685
 10
98.4432401553
 20
126.8228895936
 10
98.4574352947
 20
126.8281686182
 10
98.4719210823
 20
126.8332767874
 10
98.4866867289
 20
126.8382145463
 10
98.5017214454
 20
126.8429823402
 10
98.5170148121
 20
126.847588374
 10
98.5325578875
 20
126.8520718919
 10
98.5483420995
 20
126.8564798983
  0
LINE
  5
457
100
AcDbEntity
  8
0
100
AcDbLine
 62
7
  6
CONTINUOUS
 10
100.3812989556
 20
113.7526109661
 11
100.779640806
 21
114.4607742555
  0
LINE
  5
458
100
AcDbEntity
  8
ASSI
100
AcDbLine
 62
7
  6
CONTINUOUS
 10
100.3812989556
 20
113.7526109661
 11
100.779640806
 21
114.4607742555
  0
LINE
  5
459
100
AcDbEntity
  8
0
100
AcDbLine
 62
7
  6
CONTINUOUS
 10
100.3812989556
 20
201.7526109661
 11
100.779640806
 21
201.0444476766
  0
LINE
  5
45A
100
AcDbEntity
  8
ASSI
100
AcDbLine
 62
7
  6
CONTINUOUS
 10
100.3812989556
 20
201.7526109661
 11
100.779640806
 21
201.0444476766
  0
LWPOLYLINE
  5
45B
100
AcDbEntity
  8
0
100
AcDbPolyline
 62
7
  6
CONTINUOUS
 90
10
 70
0
 43
0.3499999917
 10
99.2170147705
 20
213.0026074219
 10
99.2884396362
 20
212.859744873
 10
99.2884396362
 20
212.788326416
 10
99.1455834961
 20
212.6454638672
 10
99.0741586304
 20
212.6454638672
 10
99.002727356
 20
212.716907959
 10
99.002727356
 20
212.788326416
 10
99.0741586304
 20
212.9311889648
 10
99.1455834961
 20
213.0026074219
 10
99.2170147705
 20
213.0026074219
  0
LWPOLYLINE
  5
45C
100
AcDbEntity
  8
SCRITTE
100
AcDbPolyline
 62
250
  6
CONTINUOUS
 90
48
 70
0
 10
98.531742091
 20
126.4282979378
 10
98.5254400682
 20
126.4258545994
 10
98.5192504364
 20
126.423304556
 10
98.5131608001
 20
126.4206453908
 10
98.5071587635
 20
126.4178746868
 10
98.5012319311
 20
126.4149900272
 10
98.4939157314
 20
126.4112216126
 10
98.4867062754
 20
126.4072746971
 10
98.4796121684
 20
126.4031526119
 10
98.4726420159
 20
126.3988586881
 10
98.4658045053
 20
126.3943965041
 10
98.4591086514
 20
126.3897706268
 10
98.4525635514
 20
126.38498587
 10
98.4461783019
 20
126.3800470478
 10
98.4411912186
 20
126.3759882405
 10
98.4363163838
 20
126.3718360319
 10
98.4315579195
 20
126.3675925416
 10
98.4269199477
 20
126.3632598893
 10
98.4224065904
 20
126.3588401945
 10
98.4180217021
 20
126.3543354121
 10
98.4137680668
 20
126.3497468378
 10
98.4096482007
 20
126.3450756022
 10
98.4056646201
 20
126.3403228364
 10
98.4018198413
 20
126.3354896711
 10
98.3981163818
 20
126.3305764094
 10
98.3945567632
 20
126.3255800436
 10
98.3911435082
 20
126.3204967382
 10
98.3878791395
 20
126.3153226578
 10
98.3847661798
 20
126.3100539669
 10
98.3818072421
 20
126.3046889641
 10
98.3790053009
 20
126.2992344843
 10
98.3763634208
 20
126.2936994965
 10
98.3738846665
 20
126.2880929696
 10
98.3715721027
 20
126.2824238728
 10
98.3694279101
 20
126.2767016111
 10
98.3674507336
 20
126.2709373349
 10
98.3656383343
 20
126.2651426307
 10
98.3639884731
 20
126.2593290849
 10
98.3624989109
 20
126.2535082841
 10
98.3611670659
 20
126.2476900924
 10
98.3599889851
 20
126.2418774854
 10
98.3589603724
 20
126.236071716
 10
98.3580769321
 20
126.2302740373
 10
98.357334368
 20
126.2244857026
 10
98.3565988808
 20
126.2172609648
 10
98.3560753405
 20
126.2100290231
 10
98.355762287
 20
126.2027661156
 10
98.3556582603
 20
126.1954484805
  0
LWPOLYLINE
  5
45D
100
AcDbEntity
  8
SCRITTE
100
AcDbPolyline
 62
250
  6
CONTINUOUS
 90
4
 70
0
 10
99.1014071751
 20
126.600222297
 10
98.9226124807
 20
126.5478942932
 10
98.8878953218
 20
126.5378846049
 10
98.853514665
 20
126.5280583152
  0
LINE
  5
45E
100
AcDbEntity
  8
SCRITTE
100
AcDbLine
 62
250
  6
CONTINUOUS
 10
99.1382842209
 20
126.6108834425
 11
99.1014071751
 21
126.600222297
  0
LINE
  5
45F
100
AcDbEntity
  8
SCRITTE
100
AcDbLine
 62
250
  6
CONTINUOUS
 10
97.8324269556
 20
122.1842849661
 11
99.1382839556
 21
122.6739989661
  0
LINE
  5
460
100
AcDbEntity
  8
SCRITTE
100
AcDbLine
 62
250
  6
CONTINUOUS
 10
98.2487619556
 20
122.7055519661
 11
97.1384459556
 21
122.2925159661
  0
LINE
  5
461
100
AcDbEntity
  8
SCRITTE
100
AcDbLine
 62
250
  6
CONTINUOUS
 10
99.1382839556
 20
125.4332779661
 11
97.1384459556
 21
124.8196779661
  0
LINE
  5
462
100
AcDbEntity
  8
SCRITTE
100
AcDbLine
 62
250
  6
CONTINUOUS
 10
97.1384459556
 20
119.2530719661
 11
99.1382839556
 21
119.8870589661
  0
LINE
  5
463
100
AcDbEntity
  8
RACCORDO
100
AcDbLine
 62
250
  6
CONTINUOUS
 10
95.9551309775
 20
200.0227010295
 11
100.3812989556
 21
200.2546666639
  0
LINE
  5
464
100
AcDbEntity
  8
ASSI
100
AcDbLine
 62
250
  6
CONTINUOUS
 10
95.9551309775
 20
200.0227010295
 11
100.3812989556
 21
200.2546666639
  0
LINE
  5
465
100
AcDbEntity
  8
RACCORDO
100
AcDbLine
 62
7
  6
CONTINUOUS
 10
95.9551309775
 20
201.5206453316
 11
100.3812989556
 21
201.7526109661
  0
LINE
  5
466
100
AcDbEntity
  8
ASSI
100
AcDbLine
 62
7
  6
CONTINUOUS
 10
95.9551309775
 20
201.5206453316
 11
100.3812989556
 21
201.7526109661
  0
LINE
  5
467
100
AcDbEntity
  8
RACCORDO
100
AcDbLine
 62
250
  6
CONTINUOUS
 10
95.4812989556
 20
200.0227010295
 11
95.9551309775
 21
200.0227010295
  0
LINE
  5
468
100
AcDbEntity
  8
ASSI
100
AcDbLine
 62
250
  6
CONTINUOUS
 10
95.4812989556
 20
200.0227010295
 11
95.9551309775
 21
200.0227010295
  0
LINE
  5
469
100
AcDbEntity
  8
RACCORDO
100
AcDbLine
 62
250
  6
CONTINUOUS
 10
103.3812989556
 20
200.2505524471
 11
100.779640806
 21
200.2505524471
  0
LINE
  5
46A
100
AcDbEntity
  8
ASSI
100
AcDbLine
 62
250
  6
CONTINUOUS
 10
103.3812989556
 20
200.2505524471
 11
100.779640806
 21
200.2505524471
  0
LINE
  5
46B
100
AcDbEntity
  8
0
100
AcDbLine
 62
250
  6
CONTINUOUS
 10
100.3812989556
 20
200.2546666639
 11
100.779640806
 21
200.2510247422
  0
LINE
  5
46C
100
AcDbEntity
  8
ASSI
100
AcDbLine
 62
250
  6
CONTINUOUS
 10
100.3812989556
 20
200.2546666639
 11
100.779640806
 21
200.2510247422
  0
LINE
  5
46D
100
AcDbEntity
  8
RACCORDO
100
AcDbLine
 62
7
  6
CONTINUOUS
 10
103.1917661469
 20
200.9180335441
 11
100.779640806
 21
201.0444476766
  0
LINE
  5
46E
100
AcDbEntity
  8
ASSI
100
AcDbLine
 62
7
  6
CONTINUOUS
 10
103.1917661469
 20
200.9180335441
 11
100.779640806
 21
201.0444476766
  0
ARC
  5
46F
100
AcDbEntity
  8
RACCORDO
100
AcDbCircle
 62
7
  6
CONTINUOUS
 10
95.9812989556
 20
201.0213305642
 40
0.5
100
AcDbArc
 50
93.0
 51
180.0
  0
ARC
  5
470
100
AcDbEntity
  8
RACCORDO
100
AcDbCircle
 62
7
  6
CONTINUOUS
 10
95.9812989556
 20
114.4838913679
 40
0.5
100
AcDbArc
 50
180.0
 51
267.0
  0
ARC
  5
471
100
AcDbEntity
  8
ASSI
100
AcDbCircle
 62
7
  6
CONTINUOUS
 10
95.9812989556
 20
201.0213305642
 40
0.5
100
AcDbArc
 50
93.0
 51
180.0
  0
ARC
  5
472
100
AcDbEntity
  8
ASSI
100
AcDbCircle
 62
7
  6
CONTINUOUS
 10
95.9812989556
 20
114.4838913679
 40
0.5
100
AcDbArc
 50
180.0
 51
267.0
  0
ARC
  5
473
100
AcDbEntity
  8
RACCORDO
100
AcDbCircle
 62
7
  6
CONTINUOUS
 10
103.1812989556
 20
114.786914295
 40
0.2
100
AcDbArc
 50
273.0
 51
360.0
  0
ARC
  5
474
100
AcDbEntity
  8
RACCORDO
100
AcDbCircle
 62
7
  6
CONTINUOUS
 10
103.1812989556
 20
200.7183076371
 40
0.2
100
AcDbArc
 50
0.0
 51
87.0
  0
ARC
  5
475
100
AcDbEntity
  8
ASSI
100
AcDbCircle
 62
7
  6
CONTINUOUS
 10
103.1812989556
 20
114.786914295
 40
0.2
100
AcDbArc
 50
273.0
 51
360.0
  0
ARC
  5
476
100
AcDbEntity
  8
ASSI
100
AcDbCircle
 62
7
  6
CONTINUOUS
 10
103.1812989556
 20
200.7183076371
 40
0.2
100
AcDbArc
 50
0.0
 51
87.0
  0
ELLIPSE
  5
477
100
AcDbEntity
  8
RACCORDO
100
AcDbEllipse
 62
7
  6
CONTINUOUS
 10
149.1592145452
 20
131.4776871301
 30
0.0
 11
0.3536610946
 21
0.3536610946
 31
0.0
 40
0.9996954599
 41
2.3563467834
 42
3.9268385237
  0
ELLIPSE
  5
478
100
AcDbEntity
  8
RACCORDO
100
AcDbEllipse
 62
7
  6
CONTINUOUS
 10
193.6090622172
 20
131.4776871301
 30
0.0
 11
-0.3536610946
 21
0.3536610946
 31
0.0
 40
0.9996954599
 41
2.3563467834
 42
3.9268385237
  0
ELLIPSE
  5
479
100
AcDbEntity
  8
RACCORDO
100
AcDbEllipse
 62
7
  6
CONTINUOUS
 10
193.6090622172
 20
184.027534802
 30
0.0
 11
-0.3536610946
 21
-0.3536610946
 31
0.0
 40
0.9996954599
 41
2.3563467834
 42
3.9268385237
  0
ELLIPSE
  5
47A
100
AcDbEntity
  8
RACCORDO
100
AcDbEllipse
 62
7
  6
CONTINUOUS
 10
149.1592145452
 20
184.027534802
 30
0.0
 11
0.3536610946
 21
-0.3536610946
 31
0.0
 40
0.9996954599
 41
2.3563467834
 42
3.9268385237
  0
ELLIPSE
  5
47B
100
AcDbEntity
  8
RACCORDO
100
AcDbEllipse
 62
7
  6
CONTINUOUS
 10
335.6090622172
 20
184.027534802
 30
0.0
 11
-0.3536610946
 21
-0.3536610946
 31
0.0
 40
0.9996954599
 41
2.3563467834
 42
3.9268385237
  0
ELLIPSE
  5
47C
100
AcDbEntity
  8
RACCORDO
100
AcDbEllipse
 62
7
  6
CONTINUOUS
 10
291.1592145452
 20
184.027534802
 30
0.0
 11
0.3536610946
 21
-0.3536610946
 31
0.0
 40
0.9996954599
 41
2.3563467834
 42
3.9268385237
  0
ELLIPSE
  5
47D
100
AcDbEntity
  8
RACCORDO
100
AcDbEllipse
 62
7
  6
CONTINUOUS
 10
291.1592145452
 20
131.4776871301
 30
0.0
 11
0.3536610946
 21
0.3536610946
 31
0.0
 40
0.9996954599
 41
2.3563467834
 42
3.9268385237
  0
ELLIPSE
  5
47E
100
AcDbEntity
  8
RACCORDO
100
AcDbEllipse
 62
7
  6
CONTINUOUS
 10
335.6090622172
 20
131.4776871301
 30
0.0
 11
-0.3536610946
 21
0.3536610946
 31
0.0
 40
0.9996954599
 41
2.3563467834
 42
3.9268385237
  0
ELLIPSE
  5
47F
100
AcDbEntity
  8
RACCORDO
100
AcDbEllipse
 62
7
  6
CONTINUOUS
 10
264.6090622172
 20
184.027534802
 30
0.0
 11
-0.3536610946
 21
-0.3536610946
 31
0.0
 40
0.9996954599
 41
2.3563467834
 42
3.9268385237
  0
ELLIPSE
  5
480
100
AcDbEntity
  8
RACCORDO
100
AcDbEllipse
 62
7
  6
CONTINUOUS
 10
220.1592145452
 20
184.027534802
 30
0.0
 11
0.3536610946
 21
-0.3536610946
 31
0.0
 40
0.9996954599
 41
2.3563467834
 42
3.9268385237
  0
ELLIPSE
  5
481
100
AcDbEntity
  8
RACCORDO
100
AcDbEllipse
 62
7
  6
CONTINUOUS
 10
220.1592145452
 20
131.4776871301
 30
0.0
 11
0.3536610946
 21
0.3536610946
 31
0.0
 40
0.9996954599
 41
2.3563467834
 42
3.9268385237
  0
ELLIPSE
  5
482
100
AcDbEntity
  8
RACCORDO
100
AcDbEllipse
 62
7
  6
CONTINUOUS
 10
264.6090622172
 20
131.4776871301
 30
0.0
 11
-0.3536610946
 21
0.3536610946
 31
0.0
 40
0.9996954599
 41
2.3563467834
 42
3.9268385237
  0
ELLIPSE
  5
483
100
AcDbEntity
  8
ASSI
100
AcDbEllipse
 62
7
  6
CONTINUOUS
 10
149.1592145452
 20
131.4776871301
 30
0.0
 11
0.3536610946
 21
0.3536610946
 31
0.0
 40
0.9996954599
 41
2.3563467834
 42
3.9268385237
  0
ELLIPSE
  5
484
100
AcDbEntity
  8
ASSI
100
AcDbEllipse
 62
7
  6
CONTINUOUS
 10
193.6090622172
 20
131.4776871301
 30
0.0
 11
-0.3536610946
 21
0.3536610946
 31
0.0
 40
0.9996954599
 41
2.3563467834
 42
3.9268385237
  0
ELLIPSE
  5
485
100
AcDbEntity
  8
ASSI
100
AcDbEllipse
 62
7
  6
CONTINUOUS
 10
193.6090622172
 20
184.027534802
 30
0.0
 11
-0.3536610946
 21
-0.3536610946
 31
0.0
 40
0.9996954599
 41
2.3563467834
 42
3.9268385237
  0
ELLIPSE
  5
486
100
AcDbEntity
  8
ASSI
100
AcDbEllipse
 62
7
  6
CONTINUOUS
 10
149.1592145452
 20
184.027534802
 30
0.0
 11
0.3536610946
 21
-0.3536610946
 31
0.0
 40
0.9996954599
 41
2.3563467834
 42
3.9268385237
  0
ELLIPSE
  5
487
100
AcDbEntity
  8
ASSI
100
AcDbEllipse
 62
7
  6
CONTINUOUS
 10
335.6090622172
 20
184.027534802
 30
0.0
 11
-0.3536610946
 21
-0.3536610946
 31
0.0
 40
0.9996954599
 41
2.3563467834
 42
3.9268385237
  0
ELLIPSE
  5
488
100
AcDbEntity
  8
ASSI
100
AcDbEllipse
 62
7
  6
CONTINUOUS
 10
291.1592145452
 20
184.027534802
 30
0.0
 11
0.3536610946
 21
-0.3536610946
 31
0.0
 40
0.9996954599
 41
2.3563467834
 42
3.9268385237
  0
ELLIPSE
  5
489
100
AcDbEntity
  8
ASSI
100
AcDbEllipse
 62
7
  6
CONTINUOUS
 10
291.1592145452
 20
131.4776871301
 30
0.0
 11
0.3536610946
 21
0.3536610946
 31
0.0
 40
0.9996954599
 41
2.3563467834
 42
3.9268385237
  0
ELLIPSE
  5
48A
100
AcDbEntity
  8
ASSI
100
AcDbEllipse
 62
7
  6
CONTINUOUS
 10
335.6090622172
 20
131.4776871301
 30
0.0
 11
-0.3536610946
 21
0.3536610946
 31
0.0
 40
0.9996954599
 41
2.3563467834
 42
3.9268385237
  0
ELLIPSE
  5
48B
100
AcDbEntity
  8
ASSI
100
AcDbEllipse
 62
7
  6
CONTINUOUS
 10
264.6090622172
 20
184.027534802
 30
0.0
 11
-0.3536610946
 21
-0.3536610946
 31
0.0
 40
0.9996954599
 41
2.3563467834
 42
3.9268385237
  0
ELLIPSE
  5
48C
100
AcDbEntity
  8
ASSI
100
AcDbEllipse
 62
7
  6
CONTINUOUS
 10
220.1592145452
 20
184.027534802
 30
0.0
 11
0.3536610946
 21
-0.3536610946
 31
0.0
 40
0.9996954599
 41
2.3563467834
 42
3.9268385237
  0
ELLIPSE
  5
48D
100
AcDbEntity
  8
ASSI
100
AcDbEllipse
 62
7
  6
CONTINUOUS
 10
220.1592145452
 20
131.4776871301
 30
0.0
 11
0.3536610946
 21
0.3536610946
 31
0.0
 40
0.9996954599
 41
2.3563467834
 42
3.9268385237
  0
ELLIPSE
  5
48E
100
AcDbEntity
  8
ASSI
100
AcDbEllipse
 62
7
  6
CONTINUOUS
 10
264.6090622172
 20
131.4776871301
 30
0.0
 11
-0.3536610946
 21
0.3536610946
 31
0.0
 40
0.9996954599
 41
2.3563467834
 42
3.9268385237
  0
ENDSEC
  0
SECTION
  2
OBJECTS
  0
DICTIONARY
  5
C
100
AcDbDictionary
280
0
281
1
  3
ACAD_GROUP
350
D
  3
ACAD_MLINESTYLE
350
17
  3
ACAD_LAYOUT
350
1A
  3
ACAD_PLOTSETTINGS
350
19
  3
ACAD_PLOTSTYLENAME
350
E
  0
DICTIONARY
  5
D
102
{ACAD_REACTORS
330
C
102
}
100
AcDbDictionary
280
0
281
1
  0
ACDBDICTIONARYWDFLT
  5
E
102
{ACAD_REACTORS
330
C
102
}
100
AcDbDictionary
281
1
  3
Normal
350
F
100
AcDbDictionaryWithDefault
340
F
  0
DICTIONARY
  5
17
102
{ACAD_REACTORS
330
C
102
}
100
AcDbDictionary
280
0
281
1
  3
Standard
350
18
  0
DICTIONARY
  5
19
102
{ACAD_REACTORS
330
C
102
}
100
AcDbDictionary
281
1
  0
DICTIONARY
  5
1A
102
{ACAD_REACTORS
330
C
102
}
100
AcDbDictionary
281
1
  3
Model
350
48F
  3
Layout1
350
490
  0
ACDBPLACEHOLDER
  5
F
102
{ACAD_REACTORS
330
E
102
}
  0
MLINESTYLE
  5
18
102
{ACAD_REACTORS
330
17
102
}
100
AcDbMlineStyle
  2
STANDARD
 70
0
  3

 62
256
 51
90.0
 52
90.0
 71
2
 49
0.5
 62
256
  6
BYLAYER
 49
-0.5
 62
256
  6
BYLAYER
  0
LAYOUT
  5
48F
102
{ACAD_REACTORS
330
1A
102
}
100
AcDbPlotSettings
  1

  2
none_device
  4
ISO_A3_(420.00_x_297.00_MM)
  6

 40
0.0
 41
0.0
 42
0.0
 43
0.0
 44
420.0
 45
297.0
 46
0.0
 47
0.0
 48
0.0
 49
0.0
140
0.0
141
0.0
142
1.0
143
1.0
 70
1024
 72
1
 73
0
 74
0
  7

 75
0
147
1.0
148
0.0
149
0.0
100
AcDbLayout
  1
Model
 70
0
 71
0
 10
0.0
 20
0.0
 11
420.0
 21
297.0
 12
0.0
 22
0.0
 32
0.0
 14
0.0
 24
0.0
 34
0.0
 15
0.0
 25
0.0
 35
0.0
146
0.0
 13
0.0
 23
0.0
 33
0.0
 16
1.0
 26
0.0
 36
0.0
 17
0.0
 27
1.0
 37
0.0
 76
0
330
216
345
0
346
0
  0
LAYOUT
  5
490
102
{ACAD_REACTORS
330
1A
102
}
100
AcDbPlotSettings
  1

  2
none_device
  4
ISO_A3_(420.00_x_297.00_MM)
  6

 40
0.0
 41
0.0
 42
0.0
 43
0.0
 44
420.0
 45
297.0
 46
0.0
 47
0.0
 48
0.0
 49
0.0
140
0.0
141
0.0
142
1.0
143
1.0
 70
0
 72
1
 73
0
 74
0
  7

 75
0
147
1.0
148
0.0
149
0.0
100
AcDbLayout
  1
Layout1
 70
0
 71
1
 10
0.0
 20
0.0
 11
420.0
 21
297.0
 12
0.0
 22
0.0
 32
0.0
 14
0.0
 24
0.0
 34
0.0
 15
0.0
 25
0.0
 35
0.0
146
0.0
 13
0.0
 23
0.0
 33
0.0
 16
1.0
 26
0.0
 36
0.0
 17
0.0
 27
1.0
 37
0.0
 76
0
330
217
345
0
346
0
  0
ENDSEC
  0
EOF
