  0
SECTION
  2
HEADER
  9
$ACADVER
  1
AC1024
  9
$DWGCODEPAGE
  3
ANSI_1252
  9
$EXTMAX
 10
420.0
 20
297.0
 30
0.0
  9
$EXTMIN
 10
0.0
 20
0.0
 30
0.0
  9
$LIMMIN
 10
0.0
 20
0.0
  9
$LIMMAX
 10
420.0
 20
297.0
  9
$VIEWCTR
 10
210.0
 20
148.5
  9
$VIEWSIZE
 40
297.0
  9
$CLAYER
  8
0
  9
$LTSCALE
 40
23.1
  9
$CELTYPE
  6
BYLAYER
  9
$DIMSCALE
 40
1.0
  9
$DIMASZ
 40
3.0
  9
$DIMEXO
 40
0.5
  9
$DIMDLI
 40
15.96
  9
$DIMEXE
 40
1.5
  9
$DIMCEN
 40
3.78
  9
$DIMLFAC
 40
1.0
  9
$DIMBLK
  1
_FILLED
  9
$DIMALT
 70
0
  9
$DIMALTF
 40
0.0393700787
  9
$DIMTXT
 40
3.0
  9
$DIMTOL
 70
1
  9
$DIMLIM
 70
0
  9
$DIMTFAC
 40
1.0
  9
$DIMTP
 40
0.01
  9
$DIMTM
 40
0.01
  9
$DIMGAP
 40
0.625
  9
$DIMDSEP
 70
44
  9
$AUNITS
 70
0
  9
$PDMODE
 70
3
  9
$PDSIZE
 40
3.0
  9
$HANDSEED
  5
36F
  9
$TILEMODE
 70
1
  9
$MEASUREMENT
 70
1
  9
$INSUNITS
 70
4
  0
ENDSEC
  0
SECTION
  2
CLASSES
  0
CLASS
  1
ACDBDICTIONARYWDFLT
  2
AcDbDictionaryWithDefault
  3
AutoCAD 2000
 90
0
 91
1
280
0
281
0
  0
CLASS
  1
ACDBPLACEHOLDER
  2
AcDbPlaceHolder
  3
AutoCAD 2000
 90
0
 91
1
280
0
281
0
  0
CLASS
  1
LAYOUT
  2
AcDbLayout
  3
AutoCAD 2000
 90
0
 91
0
280
0
281
0
  0
ENDSEC
  0
SECTION
  2
TABLES
  0
TABLE
  2
VPORT
  5
8
100
AcDbSymbolTable
 70
2
  0
VPORT
  5
1F4
100
AcDbSymbolTableRecord
100
AcDbViewportTableRecord
  2
*ACTIVE
 70
0
 10
0.0
 20
0.0
 11
1.0
 21
1.0
 12
210.0
 22
148.5
 13
0.0
 23
0.0
 14
1.0
 24
1.0
 15
0.0
 25
0.0
 16
0.0
 26
0.0
 36
1.0
 17
0.0
 27
0.0
 37
0.0
 40
297.0
 41
1.4141414141
 42
50.0
 43
0.0
 44
0.0
 50
0.0
 51
0.0
 71
0
 72
100
 73
1
 74
1
 75
0
 76
0
 77
0
 78
0
  0
ENDTAB
  0
TABLE
  2
LTYPE
  5
5
100
AcDbSymbolTable
 70
6
  0
LTYPE
  5
14
100
AcDbSymbolTableRecord
100
AcDbLinetypeTableRecord
  2
BYBLOCK
 70
0
  3

 72
65
 73
0
 40
0.0
  0
LTYPE
  5
15
100
AcDbSymbolTableRecord
100
AcDbLinetypeTableRecord
  2
BYLAYER
 70
0
  3

 72
65
 73
0
 40
0.0
  0
LTYPE
  5
16
100
AcDbSymbolTableRecord
100
AcDbLinetypeTableRecord
  2
CONTINUOUS
 70
64
  3
Solid line
 72
65
 73
0
 40
0.0
  0
LTYPE
  5
1F5
100
AcDbSymbolTableRecord
100
AcDbLinetypeTableRecord
  2
CENTER
 70
64
  3
____ _ ____ _ ____ _ ____ _ ____ _ ____ _ ____
 72
65
 73
4
 40
0.6
 49
0.375
 74
0
 49
-0.075
 74
0
 49
0.075
 74
0
 49
-0.075
 74
0
  0
LTYPE
  5
1F6
100
AcDbSymbolTableRecord
100
AcDbLinetypeTableRecord
  2
HIDDEN
 70
64
  3
- - - - - - - - - - - - - - - - - - - -
 72
65
 73
2
 40
0.2
 49
0.1
 74
0
 49
-0.1
 74
0
  0
LTYPE
  5
1F7
100
AcDbSymbolTableRecord
100
AcDbLinetypeTableRecord
  2
PHANTOM
 70
64
  3
_____ _ _ _____ _ _ _____ _ _ _____
 72
65
 73
6
 40
0.8
 49
0.45
 74
0
 49
-0.05
 74
0
 49
0.1
 74
0
 49
-0.05
 74
0
 49
0.1
 74
0
 49
-0.05
 74
0
  0
LTYPE
  5
1F8
100
AcDbSymbolTableRecord
100
AcDbLinetypeTableRecord
  2
DOT
 70
64
  3
. . . . . . . . . . . . . . . . . . . .
 72
65
 73
2
 40
0.2
 49
0.1
 74
0
 49
-0.1
 74
0
  0
LTYPE
  5
1F9
100
AcDbSymbolTableRecord
100
AcDbLinetypeTableRecord
  2
DASHED
 70
64
  3
- - - - - - - - - - - - - - - - - - - -
 72
65
 73
2
 40
0.2
 49
0.1
 74
0
 49
-0.1
 74
0
  0
ENDTAB
  0
TABLE
  2
LAYER
  5
2
100
AcDbSymbolTable
 70
36
  0
LAYER
  5
10
100
AcDbSymbolTableRecord
100
AcDbLayerTableRecord
  2
0
 70
0
 62
7
  6
CONTINUOUS
370
-3
390
F
  0
LAYER
  5
1FA
100
AcDbSymbolTableRecord
100
AcDbLayerTableRecord
  2
DEFAULT_1
 70
0
 62
7
  6
CENTER
370
-3
390
F
  0
LAYER
  5
1FB
100
AcDbSymbolTableRecord
100
AcDbLayerTableRecord
  2
DEFAULT_2
 70
0
 62
7
  6
HIDDEN
370
-3
390
F
  0
LAYER
  5
1FC
100
AcDbSymbolTableRecord
100
AcDbLayerTableRecord
  2
DEFAULT_3
 70
0
 62
7
  6
PHANTOM
370
-3
390
F
  0
LAYER
  5
1FD
100
AcDbSymbolTableRecord
100
AcDbLayerTableRecord
  2
ASSI
 70
0
 62
7
  6
CONTINUOUS
370
-3
390
F
  0
LAYER
  5
1FE
100
AcDbSymbolTableRecord
100
AcDbLayerTableRecord
  2
COORDINATE
 70
0
 62
7
  6
CONTINUOUS
370
-3
390
F
  0
LAYER
  5
1FF
100
AcDbSymbolTableRecord
100
AcDbLayerTableRecord
  2
COPY_PUBLISH
 70
0
 62
7
  6
CONTINUOUS
370
-3
390
F
  0
LAYER
  5
200
100
AcDbSymbolTableRecord
100
AcDbLayerTableRecord
  2
COSMETICI
 70
0
 62
7
  6
CONTINUOUS
370
-3
390
F
  0
LAYER
  5
201
100
AcDbSymbolTableRecord
100
AcDbLayerTableRecord
  2
CURVE
 70
0
 62
7
  6
CONTINUOUS
370
-3
390
F
  0
LAYER
  5
202
100
AcDbSymbolTableRecord
100
AcDbLayerTableRecord
  2
DRAFT
 70
0
 62
7
  6
CONTINUOUS
370
-3
390
F
  0
LAYER
  5
203
100
AcDbSymbolTableRecord
100
AcDbLayerTableRecord
  2
IMPORT_IGES
 70
0
 62
7
  6
CONTINUOUS
370
-3
390
F
  0
LAYER
  5
204
100
AcDbSymbolTableRecord
100
AcDbLayerTableRecord
  2
INTF_1
 70
0
 62
7
  6
CONTINUOUS
370
-3
390
F
  0
LAYER
  5
205
100
AcDbSymbolTableRecord
100
AcDbLayerTableRecord
  2
INTF_11
 70
0
 62
7
  6
CONTINUOUS
370
-3
390
F
  0
LAYER
  5
206
100
AcDbSymbolTableRecord
100
AcDbLayerTableRecord
  2
INTF_13
 70
0
 62
7
  6
CONTINUOUS
370
-3
390
F
  0
LAYER
  5
207
100
AcDbSymbolTableRecord
100
AcDbLayerTableRecord
  2
INTF_2
 70
0
 62
7
  6
CONTINUOUS
370
-3
390
F
  0
LAYER
  5
208
100
AcDbSymbolTableRecord
100
AcDbLayerTableRecord
  2
INTF_8
 70
0
 62
7
  6
CONTINUOUS
370
-3
390
F
  0
LAYER
  5
209
100
AcDbSymbolTableRecord
100
AcDbLayerTableRecord
  2
NOTE
 70
0
 62
7
  6
CONTINUOUS
370
-3
390
F
  0
LAYER
  5
20A
100
AcDbSymbolTableRecord
100
AcDbLayerTableRecord
  2
PIANI
 70
0
 62
7
  6
CONTINUOUS
370
-3
390
F
  0
LAYER
  5
20B
100
AcDbSymbolTableRecord
100
AcDbLayerTableRecord
  2
PUNTI
 70
0
 62
7
  6
CONTINUOUS
370
-3
390
F
  0
LAYER
  5
20C
100
AcDbSymbolTableRecord
100
AcDbLayerTableRecord
  2
RACCORDO
 70
0
 62
7
  6
CONTINUOUS
370
-3
390
F
  0
LAYER
  5
20D
100
AcDbSymbolTableRecord
100
AcDbLayerTableRecord
  2
SIMBOLI
 70
0
 62
7
  6
CONTINUOUS
370
-3
390
F
  0
LAYER
  5
20E
100
AcDbSymbolTableRecord
100
AcDbLayerTableRecord
  2
SMUSSO
 70
0
 62
7
  6
CONTINUOUS
370
-3
390
F
  0
LAYER
  5
20F
100
AcDbSymbolTableRecord
100
AcDbLayerTableRecord
  2
SNAPLINE
 70
0
 62
7
  6
CONTINUOUS
370
-3
390
F
  0
LAYER
  5
210
100
AcDbSymbolTableRecord
100
AcDbLayerTableRecord
  2
SUPERFICI
 70
0
 62
7
  6
CONTINUOUS
370
-3
390
F
  0
LAYER
  5
211
100
AcDbSymbolTableRecord
100
AcDbLayerTableRecord
  2
TRASH
 70
0
 62
7
  6
CONTINUOUS
370
-3
390
F
  0
ENDTAB
  0
TABLE
  2
STYLE
  5
3
100
AcDbSymbolTable
 70
1
  0
STYLE
  5
11
100
AcDbSymbolTableRecord
100
AcDbTextStyleTableRecord
  2
STANDARD
 70
0
 40
0.0
 41
0.8
 50
0.0
 71
0
 42
0.2
  3
txt
  4

  0
STYLE
  5
212
100
AcDbSymbolTableRecord
100
AcDbTextStyleTableRecord
  2
TEXTSTYLE_1
 70
0
 40
0.0
 41
0.8
 50
0.0
 71
0
 42
0.2
  3
gdt
  4

  0
ENDTAB
  0
TABLE
  2
VIEW
  5
6
100
AcDbSymbolTable
 70
0
  0
ENDTAB
  0
TABLE
  2
UCS
  5
7
100
AcDbSymbolTable
 70
0
  0
ENDTAB
  0
TABLE
  2
APPID
  5
9
100
AcDbSymbolTable
 70
1
  0
APPID
  5
213
100
AcDbSymbolTableRecord
100
AcDbRegAppTableRecord
  2
ACAD
 70
0
  0
ENDTAB
  0
TABLE
  2
BLOCK_RECORD
  5
1
100
AcDbSymbolTable
 70
0
  0
BLOCK_RECORD
  5
214
100
AcDbSymbolTableRecord
100
AcDbBlockTableRecord
  2
*Model_Space
  0
BLOCK_RECORD
  5
215
100
AcDbSymbolTableRecord
100
AcDbBlockTableRecord
  2
*Paper_Space
  0
BLOCK_RECORD
  5
216
100
AcDbSymbolTableRecord
100
AcDbBlockTableRecord
  2
_FILLED
  0
BLOCK_RECORD
  5
217
100
AcDbSymbolTableRecord
100
AcDbBlockTableRecord
  2
*D0
  0
BLOCK_RECORD
  5
218
100
AcDbSymbolTableRecord
100
AcDbBlockTableRecord
  2
*D1
  0
BLOCK_RECORD
  5
219
100
AcDbSymbolTableRecord
100
AcDbBlockTableRecord
  2
*D2
  0
ENDTAB
  0
TABLE
  2
DIMSTYLE
  5
A
100
AcDbSymbolTable
 70
1
100
AcDbDimStyleTable
 71
0
  0
DIMSTYLE
105
21A
100
AcDbSymbolTableRecord
100
AcDbDimStyleTableRecord
  2
STANDARD
 70
0
  3

  4

 40
1.0
 41
3.0
 42
0.5
 43
0.38
 44
1.5
 45
0.0
 46
0.0
 47
0.01
 48
0.01
140
3.0
141
0.09
142
0.0
143
25.4
144
1.0
145
0.0
146
1.0
147
0.625
 71
1
 72
0
 73
0
 74
0
 75
0
 76
0
 77
1
 78
8
 79
2
170
0
171
1
172
0
173
0
174
0
175
0
176
0
177
0
178
0
270
2
179
2
271
2
272
2
273
2
274
2
275
0
280
0
281
0
282
0
283
1
284
8
285
0
286
0
287
3
288
0
340
11
278
44
341
216
342
216
343
216
344
216
  0
DIMSTYLE
105
21B
100
AcDbSymbolTableRecord
100
AcDbDimStyleTableRecord
  2
DIMSTYLE_1
 70
0
  3

  4

 40
1.0
 41
3.0
 42
0.5
 43
0.38
 44
1.5
 45
0.0
 46
0.0
 47
0.0
 48
0.0
140
3.0
141
0.09
142
0.0
143
25.4
144
1.0
145
0.0
146
1.0
147
0.75
 71
0
 72
0
 73
0
 74
0
 75
0
 76
0
 77
1
 78
8
 79
2
170
0
171
1
172
0
173
0
174
0
175
0
176
0
177
0
178
0
270
2
179
2
271
2
272
2
273
2
274
2
275
0
280
0
281
0
282
0
283
1
284
8
285
0
286
0
287
3
288
0
340
11
278
44
341
216
342
216
343
216
344
216
  0
ENDTAB
  0
ENDSEC
  0
SECTION
  2
BLOCKS
  0
BLOCK
  5
20
100
AcDbEntity
  8
0
100
AcDbBlockBegin
  2
*Model_Space
 70
0
 10
0.0
 20
0.0
 30
0.0
  3
*Model_Space
  1

  0
ENDBLK
  5
21
100
AcDbEntity
  8
0
100
AcDbBlockEnd
  0
BLOCK
  5
1C
100
AcDbEntity
  8
0
100
AcDbBlockBegin
  2
*Paper_Space
 70
0
 10
0.0
 20
0.0
 30
0.0
  3
*Paper_Space
  1

  0
ENDBLK
  5
1D
100
AcDbEntity
  8
0
100
AcDbBlockEnd
  0
BLOCK
  5
21C
100
AcDbEntity
  8
0
100
AcDbBlockBegin
  2
_FILLED
 70
64
 10
0.0
 20
0.0
  3
_FILLED
  1

  0
SOLID
  5
21D
100
AcDbEntity
  8
0
  6
BYBLOCK
 62
0
100
AcDbTrace
 10
0.0
 20
0.0
 11
-1.0
 21
0.3166666667
 12
-1.0
 22
-0.3166666667
 13
-1.0
 23
-0.3166666667
  0
ENDBLK
  5
21E
100
AcDbEntity
  8
0
  6
BYBLOCK
 62
0
100
AcDbBlockEnd
  0
BLOCK
  5
21F
100
AcDbEntity
  8
0
100
AcDbBlockBegin
 62
7
  6
CONTINUOUS
  2
*D0
 70
65
 10
0.0
 20
0.0
  3
*D0
  1

  0
MTEXT
  5
220
100
AcDbEntity
  8
0
100
AcDbMText
 62
7
  6
CONTINUOUS
  7
STANDARD
 71
2
 72
1
 10
245.159921671
 20
220.9046997389
 30
0.0
 11
1.0
 21
0.0
 31
0.0
 73
2
 44
0.9
  1
{\ftxt;\W0.0001;\H0.0001;\~}{\ftxt;\W2.2857142857;\H3.0; }{\ftxt;\W0.0001;\H0.0001;\~}
 40
3.0
 41
10.2857142857
  0
LINE
  5
221
100
AcDbEntity
  8
0
100
AcDbLine
 62
7
  6
CONTINUOUS
 10
129.159921671
 20
209.6546997389
 11
129.159921671
 21
218.6546997389
  0
LINE
  5
222
100
AcDbEntity
  8
0
100
AcDbLine
 62
7
  6
CONTINUOUS
 10
361.159921671
 20
209.6546997389
 11
361.159921671
 21
218.6546997389
  0
LINE
  5
223
100
AcDbEntity
  8
0
100
AcDbLine
 62
7
  6
CONTINUOUS
 10
129.159921671
 20
217.1546997389
 11
245.159921671
 21
217.1546997389
  0
LINE
  5
224
100
AcDbEntity
  8
0
100
AcDbLine
 62
7
  6
CONTINUOUS
 10
361.159921671
 20
217.1546997389
 11
245.159921671
 21
217.1546997389
  0
INSERT
  5
225
100
AcDbEntity
  8
0
100
AcDbBlockReference
 62
7
  6
CONTINUOUS
  2
_FILLED
 10
129.159921671
 20
217.1546997389
 41
3.0
 42
3.0
 43
3.0
 50
180.0
  0
INSERT
  5
226
100
AcDbEntity
  8
0
100
AcDbBlockReference
 62
7
  6
CONTINUOUS
  2
_FILLED
 10
361.159921671
 20
217.1546997389
 41
3.0
 42
3.0
 43
3.0
  0
ENDBLK
  5
227
100
AcDbEntity
  8
0
  6
BYBLOCK
 62
0
100
AcDbBlockEnd
  0
BLOCK
  5
228
100
AcDbEntity
  8
0
100
AcDbBlockBegin
 62
7
  6
CONTINUOUS
  2
*D1
 70
65
 10
0.0
 20
0.0
  3
*D1
  1

  0
MTEXT
  5
229
100
AcDbEntity
  8
0
100
AcDbMText
 62
7
  6
CONTINUOUS
  7
STANDARD
 71
2
 72
1
 10
365.409921671
 20
165.1546997389
 30
0.0
 11
0.0
 21
1.0
 31
0.0
 73
2
 44
0.9
  1
{\ftxt;\W0.0001;\H0.0001;\~}{\ftxt;\W1.5714285714;\H3.0; }{\ftxt;\W0.0001;\H0.0001;\~}
 40
3.0
 41
7.0714285714
  0
LINE
  5
22A
100
AcDbEntity
  8
0
100
AcDbLine
 62
7
  6
CONTINUOUS
 10
361.659921671
 20
209.1546997389
 11
370.659921671
 21
209.1546997389
  0
LINE
  5
22B
100
AcDbEntity
  8
0
100
AcDbLine
 62
7
  6
CONTINUOUS
 10
361.659921671
 20
121.1546997389
 11
370.659921671
 21
121.1546997389
  0
LINE
  5
22C
100
AcDbEntity
  8
0
100
AcDbLine
 62
7
  6
CONTINUOUS
 10
369.159921671
 20
209.1546997389
 11
369.159921671
 21
165.1546997389
  0
LINE
  5
22D
100
AcDbEntity
  8
0
100
AcDbLine
 62
7
  6
CONTINUOUS
 10
369.159921671
 20
121.1546997389
 11
369.159921671
 21
165.1546997389
  0
INSERT
  5
22E
100
AcDbEntity
  8
0
100
AcDbBlockReference
 62
7
  6
CONTINUOUS
  2
_FILLED
 10
369.159921671
 20
209.1546997389
 41
3.0
 42
3.0
 43
3.0
 50
90.0
  0
INSERT
  5
22F
100
AcDbEntity
  8
0
100
AcDbBlockReference
 62
7
  6
CONTINUOUS
  2
_FILLED
 10
369.159921671
 20
121.1546997389
 41
3.0
 42
3.0
 43
3.0
 50
270.0
  0
ENDBLK
  5
230
100
AcDbEntity
  8
0
  6
BYBLOCK
 62
0
100
AcDbBlockEnd
  0
BLOCK
  5
231
100
AcDbEntity
  8
0
100
AcDbBlockBegin
 62
7
  6
CONTINUOUS
  2
*D2
 70
65
 10
0.0
 20
0.0
  3
*D2
  1

  0
MTEXT
  5
232
100
AcDbEntity
  8
0
100
AcDbMText
 62
7
  6
CONTINUOUS
  7
STANDARD
 71
2
 72
1
 10
105.038381201
 20
220.9046997389
 30
0.0
 11
1.0
 21
0.0
 31
0.0
 73
2
 44
0.9
  1
{\ftxt;\W0.0001;\H0.0001;\~}{\ftxt;\W2.1428571429;\H3.0; }{\ftxt;\W0.0001;\H0.0001;\~}
 40
3.0
 41
9.6428571429
  0
LINE
  5
233
100
AcDbEntity
  8
0
100
AcDbLine
 62
7
  6
CONTINUOUS
 10
108.938381201
 20
207.3762447532
 11
108.938381201
 21
218.6546997389
  0
LINE
  5
234
100
AcDbEntity
  8
0
100
AcDbLine
 62
7
  6
CONTINUOUS
 10
101.138381201
 20
209.1546997389
 11
101.138381201
 21
218.6546997389
  0
LINE
  5
235
100
AcDbEntity
  8
0
100
AcDbLine
 62
7
  6
CONTINUOUS
 10
108.938381201
 20
217.1546997389
 11
112.938381201
 21
217.1546997389
  0
LINE
  5
236
100
AcDbEntity
  8
0
100
AcDbLine
 62
7
  6
CONTINUOUS
 10
112.938381201
 20
217.1546997389
 11
105.038381201
 21
217.1546997389
  0
LINE
  5
237
100
AcDbEntity
  8
0
100
AcDbLine
 62
7
  6
CONTINUOUS
 10
101.138381201
 20
217.1546997389
 11
97.138381201
 21
217.1546997389
  0
LINE
  5
238
100
AcDbEntity
  8
0
100
AcDbLine
 62
7
  6
CONTINUOUS
 10
97.138381201
 20
217.1546997389
 11
105.038381201
 21
217.1546997389
  0
INSERT
  5
239
100
AcDbEntity
  8
0
100
AcDbBlockReference
 62
7
  6
CONTINUOUS
  2
_FILLED
 10
108.938381201
 20
217.1546997389
 41
3.0
 42
3.0
 43
3.0
 50
180.0
  0
INSERT
  5
23A
100
AcDbEntity
  8
0
100
AcDbBlockReference
 62
7
  6
CONTINUOUS
  2
_FILLED
 10
101.138381201
 20
217.1546997389
 41
3.0
 42
3.0
 43
3.0
  0
ENDBLK
  5
23B
100
AcDbEntity
  8
0
  6
BYBLOCK
 62
0
100
AcDbBlockEnd
  0
ENDSEC
  0
SECTION
  2
ENTITIES
  0
DIMENSION
  5
23C
100
AcDbEntity
  8
0
100
AcDbDimension
 62
7
  6
CONTINUOUS
  2
*D0
 10
361.159921671
 20
217.1546997389
 11
244.7313519287
 21
217.1546997389
 70
160
 71
2
 72
2
 41
0.9
 42
232.0
  1
{\ftxt;\W0.0001;\H0.0001;\~}{\ftxt;\W2.2857142857;\H3.0; }{\ftxt;\W0.0001;\H0.0001;\~}
  3
DIMSTYLE_1
100
AcDbAlignedDimension
 13
129.159921671
 23
209.1546997389
 14
361.159921671
 24
209.1546997389
100
AcDbRotatedDimension
  0
DIMENSION
  5
23D
100
AcDbEntity
  8
0
100
AcDbDimension
 62
7
  6
CONTINUOUS
  2
*D1
 10
369.159921671
 20
121.1546997389
 11
369.159921671
 21
164.7261343562
 70
160
 71
2
 72
2
 41
0.9
 42
88.0
  1
{\ftxt;\W0.0001;\H0.0001;\~}{\ftxt;\W1.5714285714;\H3.0; }{\ftxt;\W0.0001;\H0.0001;\~}
  3
DIMSTYLE_1
100
AcDbAlignedDimension
 13
361.159921671
 23
209.1546997389
 14
361.159921671
 24
121.1546997389
 50
270.0
100
AcDbRotatedDimension
  0
DIMENSION
  5
23E
100
AcDbEntity
  8
0
100
AcDbDimension
 62
7
  6
CONTINUOUS
  2
*D2
 10
101.138381201
 20
217.1546997389
 11
104.6098100281
 21
217.1546997389
 70
160
 71
2
 72
2
 41
0.9
 42
7.8
  1
{\ftxt;\W0.0001;\H0.0001;\~}{\ftxt;\W2.1428571429;\H3.0; }{\ftxt;\W0.0001;\H0.0001;\~}
  3
DIMSTYLE_1
100
AcDbAlignedDimension
 13
108.938381201
 23
206.8762447532
 14
101.138381201
 24
208.6546997389
 50
180.0
100
AcDbRotatedDimension
  0
LINE
  5
23F
100
AcDbEntity
  8
RACCORDO
100
AcDbLine
 62
7
  6
CONTINUOUS
 10
129.159921671
 20
209.1546997389
 11
129.159921671
 21
121.1546997389
  0
LINE
  5
240
100
AcDbEntity
  8
0
100
AcDbLine
 62
7
  6
CONTINUOUS
 10
129.159921671
 20
209.1546997389
 11
129.159921671
 21
121.1546997389
  0
LINE
  5
241
100
AcDbEntity
  8
RACCORDO
100
AcDbLine
 62
250
  6
CONTINUOUS
 10
129.659921671
 20
208.6546997389
 11
129.659921671
 21
121.6546997389
  0
LINE
  5
242
100
AcDbEntity
  8
0
100
AcDbLine
 62
250
  6
CONTINUOUS
 10
129.659921671
 20
208.6546997389
 11
129.659921671
 21
121.6546997389
  0
LINE
  5
243
100
AcDbEntity
  8
RACCORDO
100
AcDbLine
 62
250
  6
CONTINUOUS
 10
151.084921671
 20
138.9296997389
 11
151.084921671
 21
191.3796997389
  0
LINE
  5
244
100
AcDbEntity
  8
0
100
AcDbLine
 62
250
  6
CONTINUOUS
 10
151.084921671
 20
138.9296997389
 11
151.084921671
 21
191.3796997389
  0
LINE
  5
245
100
AcDbEntity
  8
RACCORDO
100
AcDbLine
 62
7
  6
CONTINUOUS
 10
151.384921671
 20
138.9296997389
 11
151.384921671
 21
191.3796997389
  0
LINE
  5
246
100
AcDbEntity
  8
0
100
AcDbLine
 62
7
  6
CONTINUOUS
 10
151.384921671
 20
138.9296997389
 11
151.384921671
 21
191.3796997389
  0
LINE
  5
247
100
AcDbEntity
  8
RACCORDO
100
AcDbLine
 62
250
  6
CONTINUOUS
 10
151.984921671
 20
192.2796997389
 11
151.984921671
 21
191.9796997389
  0
LINE
  5
248
100
AcDbEntity
  8
0
100
AcDbLine
 62
250
  6
CONTINUOUS
 10
151.984921671
 20
192.2796997389
 11
151.984921671
 21
191.9796997389
  0
LINE
  5
249
100
AcDbEntity
  8
RACCORDO
100
AcDbLine
 62
250
  6
CONTINUOUS
 10
151.984921671
 20
138.0296997389
 11
151.984921671
 21
138.3296997389
  0
LINE
  5
24A
100
AcDbEntity
  8
0
100
AcDbLine
 62
250
  6
CONTINUOUS
 10
151.984921671
 20
138.0296997389
 11
151.984921671
 21
138.3296997389
  0
LINE
  5
24B
100
AcDbEntity
  8
RACCORDO
100
AcDbLine
 62
7
  6
CONTINUOUS
 10
129.1605664436
 20
121.1554198101
 11
129.159921671
 21
121.1546997389
  0
LINE
  5
24C
100
AcDbEntity
  8
0
100
AcDbLine
 62
7
  6
CONTINUOUS
 10
129.1605664436
 20
121.1554198101
 11
129.159921671
 21
121.1546997389
  0
LINE
  5
24D
100
AcDbEntity
  8
RACCORDO
100
AcDbLine
 62
250
  6
CONTINUOUS
 10
196.334921671
 20
192.2796997389
 11
196.334921671
 21
191.9796997389
  0
LINE
  5
24E
100
AcDbEntity
  8
0
100
AcDbLine
 62
250
  6
CONTINUOUS
 10
196.334921671
 20
192.2796997389
 11
196.334921671
 21
191.9796997389
  0
LINE
  5
24F
100
AcDbEntity
  8
RACCORDO
100
AcDbLine
 62
250
  6
CONTINUOUS
 10
196.334921671
 20
138.0296997389
 11
196.334921671
 21
138.3296997389
  0
LINE
  5
250
100
AcDbEntity
  8
0
100
AcDbLine
 62
250
  6
CONTINUOUS
 10
196.334921671
 20
138.0296997389
 11
196.334921671
 21
138.3296997389
  0
LWPOLYLINE
  5
251
100
AcDbEntity
  8
RACCORDO
100
AcDbPolyline
 62
7
  6
CONTINUOUS
 90
3
 70
0
 10
129.5041760282
 20
121.498860877
 10
129.1665577187
 20
121.1613357866
 10
129.1605664436
 20
121.1554198101
  0
LWPOLYLINE
  5
252
100
AcDbEntity
  8
0
100
AcDbPolyline
 62
7
  6
CONTINUOUS
 90
3
 70
0
 10
129.5041760282
 20
121.498860877
 10
129.1665577187
 20
121.1613357866
 10
129.1605664436
 20
121.1554198101
  0
LWPOLYLINE
  5
253
100
AcDbEntity
  8
RACCORDO
100
AcDbPolyline
 62
7
  6
CONTINUOUS
 90
3
 70
0
 10
129.659921671
 20
121.6546997389
 10
129.6187798163
 20
121.6138880925
 10
129.5041760282
 20
121.498860877
  0
LWPOLYLINE
  5
254
100
AcDbEntity
  8
0
100
AcDbPolyline
 62
7
  6
CONTINUOUS
 90
3
 70
0
 10
129.659921671
 20
121.6546997389
 10
129.6187798163
 20
121.6138880925
 10
129.5041760282
 20
121.498860877
  0
LWPOLYLINE
  5
255
100
AcDbEntity
  8
RACCORDO
100
AcDbPolyline
 62
7
  6
CONTINUOUS
 90
3
 70
0
 10
129.5040828091
 20
208.8104453817
 10
129.1665577187
 20
209.1480636912
 10
129.1606417422
 20
209.1540549663
  0
LWPOLYLINE
  5
256
100
AcDbEntity
  8
0
100
AcDbPolyline
 62
7
  6
CONTINUOUS
 90
3
 70
0
 10
129.5040828091
 20
208.8104453817
 10
129.1665577187
 20
209.1480636912
 10
129.1606417422
 20
209.1540549663
  0
LWPOLYLINE
  5
257
100
AcDbEntity
  8
RACCORDO
100
AcDbPolyline
 62
7
  6
CONTINUOUS
 90
3
 70
0
 10
129.659921671
 20
208.6546997389
 10
129.6191100246
 20
208.6958415936
 10
129.5040828091
 20
208.8104453817
  0
LWPOLYLINE
  5
258
100
AcDbEntity
  8
0
100
AcDbPolyline
 62
7
  6
CONTINUOUS
 90
3
 70
0
 10
129.659921671
 20
208.6546997389
 10
129.6191100246
 20
208.6958415936
 10
129.5040828091
 20
208.8104453817
  0
LINE
  5
259
100
AcDbEntity
  8
RACCORDO
100
AcDbLine
 62
7
  6
CONTINUOUS
 10
196.934921671
 20
191.3796997389
 11
196.934921671
 21
138.9296997389
  0
LINE
  5
25A
100
AcDbEntity
  8
0
100
AcDbLine
 62
7
  6
CONTINUOUS
 10
196.934921671
 20
191.3796997389
 11
196.934921671
 21
138.9296997389
  0
LINE
  5
25B
100
AcDbEntity
  8
RACCORDO
100
AcDbLine
 62
250
  6
CONTINUOUS
 10
197.234921671
 20
191.3796997389
 11
197.234921671
 21
138.9296997389
  0
LINE
  5
25C
100
AcDbEntity
  8
0
100
AcDbLine
 62
250
  6
CONTINUOUS
 10
197.234921671
 20
191.3796997389
 11
197.234921671
 21
138.9296997389
  0
LWPOLYLINE
  5
25D
100
AcDbEntity
  8
0
100
AcDbPolyline
 62
7
  6
CONTINUOUS
 90
5
 70
0
 43
0.3499999917
 10
244.945645752
 20
219.6189916992
 10
245.3027893066
 20
219.8332727051
 10
245.3027893066
 20
220.4761157227
 10
244.945645752
 20
220.9047033691
 10
244.0884960937
 20
220.9047033691
  0
LINE
  5
25E
100
AcDbEntity
  8
RACCORDO
100
AcDbLine
 62
7
  6
CONTINUOUS
 10
129.159921671
 20
121.1546997389
 11
361.159921671
 21
121.1546997389
  0
LINE
  5
25F
100
AcDbEntity
  8
0
100
AcDbLine
 62
7
  6
CONTINUOUS
 10
129.159921671
 20
121.1546997389
 11
361.159921671
 21
121.1546997389
  0
LINE
  5
260
100
AcDbEntity
  8
RACCORDO
100
AcDbLine
 62
250
  6
CONTINUOUS
 10
129.659921671
 20
121.6546997389
 11
360.659921671
 21
121.6546997389
  0
LINE
  5
261
100
AcDbEntity
  8
0
100
AcDbLine
 62
250
  6
CONTINUOUS
 10
129.659921671
 20
121.6546997389
 11
360.659921671
 21
121.6546997389
  0
LINE
  5
262
100
AcDbEntity
  8
RACCORDO
100
AcDbLine
 62
7
  6
CONTINUOUS
 10
129.1606417422
 20
209.1540549663
 11
129.159921671
 21
209.1546997389
  0
LINE
  5
263
100
AcDbEntity
  8
0
100
AcDbLine
 62
7
  6
CONTINUOUS
 10
129.1606417422
 20
209.1540549663
 11
129.159921671
 21
209.1546997389
  0
LINE
  5
264
100
AcDbEntity
  8
RACCORDO
100
AcDbLine
 62
250
  6
CONTINUOUS
 10
338.334921671
 20
138.0296997389
 11
293.984921671
 21
138.0296997389
  0
LINE
  5
265
100
AcDbEntity
  8
0
100
AcDbLine
 62
250
  6
CONTINUOUS
 10
338.334921671
 20
138.0296997389
 11
293.984921671
 21
138.0296997389
  0
LINE
  5
266
100
AcDbEntity
  8
RACCORDO
100
AcDbLine
 62
250
  6
CONTINUOUS
 10
267.334921671
 20
138.0296997389
 11
222.984921671
 21
138.0296997389
  0
LINE
  5
267
100
AcDbEntity
  8
0
100
AcDbLine
 62
250
  6
CONTINUOUS
 10
267.334921671
 20
138.0296997389
 11
222.984921671
 21
138.0296997389
  0
LINE
  5
268
100
AcDbEntity
  8
RACCORDO
100
AcDbLine
 62
250
  6
CONTINUOUS
 10
196.334921671
 20
138.0296997389
 11
151.984921671
 21
138.0296997389
  0
LINE
  5
269
100
AcDbEntity
  8
0
100
AcDbLine
 62
250
  6
CONTINUOUS
 10
196.334921671
 20
138.0296997389
 11
151.984921671
 21
138.0296997389
  0
LINE
  5
26A
100
AcDbEntity
  8
RACCORDO
100
AcDbLine
 62
7
  6
CONTINUOUS
 10
338.334921671
 20
138.3296997389
 11
293.984921671
 21
138.3296997389
  0
LINE
  5
26B
100
AcDbEntity
  8
0
100
AcDbLine
 62
7
  6
CONTINUOUS
 10
338.334921671
 20
138.3296997389
 11
293.984921671
 21
138.3296997389
  0
LINE
  5
26C
100
AcDbEntity
  8
RACCORDO
100
AcDbLine
 62
7
  6
CONTINUOUS
 10
267.334921671
 20
138.3296997389
 11
222.984921671
 21
138.3296997389
  0
LINE
  5
26D
100
AcDbEntity
  8
0
100
AcDbLine
 62
7
  6
CONTINUOUS
 10
267.334921671
 20
138.3296997389
 11
222.984921671
 21
138.3296997389
  0
LINE
  5
26E
100
AcDbEntity
  8
RACCORDO
100
AcDbLine
 62
7
  6
CONTINUOUS
 10
196.334921671
 20
138.3296997389
 11
151.984921671
 21
138.3296997389
  0
LINE
  5
26F
100
AcDbEntity
  8
0
100
AcDbLine
 62
7
  6
CONTINUOUS
 10
196.334921671
 20
138.3296997389
 11
151.984921671
 21
138.3296997389
  0
LINE
  5
270
100
AcDbEntity
  8
RACCORDO
100
AcDbLine
 62
250
  6
CONTINUOUS
 10
339.234921671
 20
138.9296997389
 11
338.934921671
 21
138.9296997389
  0
LINE
  5
271
100
AcDbEntity
  8
0
100
AcDbLine
 62
250
  6
CONTINUOUS
 10
339.234921671
 20
138.9296997389
 11
338.934921671
 21
138.9296997389
  0
LINE
  5
272
100
AcDbEntity
  8
RACCORDO
100
AcDbLine
 62
250
  6
CONTINUOUS
 10
268.234921671
 20
138.9296997389
 11
267.934921671
 21
138.9296997389
  0
LINE
  5
273
100
AcDbEntity
  8
0
100
AcDbLine
 62
250
  6
CONTINUOUS
 10
268.234921671
 20
138.9296997389
 11
267.934921671
 21
138.9296997389
  0
LINE
  5
274
100
AcDbEntity
  8
RACCORDO
100
AcDbLine
 62
250
  6
CONTINUOUS
 10
197.234921671
 20
138.9296997389
 11
196.934921671
 21
138.9296997389
  0
LINE
  5
275
100
AcDbEntity
  8
0
100
AcDbLine
 62
250
  6
CONTINUOUS
 10
197.234921671
 20
138.9296997389
 11
196.934921671
 21
138.9296997389
  0
LINE
  5
276
100
AcDbEntity
  8
RACCORDO
100
AcDbLine
 62
250
  6
CONTINUOUS
 10
151.084921671
 20
138.9296997389
 11
151.384921671
 21
138.9296997389
  0
LINE
  5
277
100
AcDbEntity
  8
0
100
AcDbLine
 62
250
  6
CONTINUOUS
 10
151.084921671
 20
138.9296997389
 11
151.384921671
 21
138.9296997389
  0
LINE
  5
278
100
AcDbEntity
  8
RACCORDO
100
AcDbLine
 62
250
  6
CONTINUOUS
 10
222.084921671
 20
138.9296997389
 11
222.384921671
 21
138.9296997389
  0
LINE
  5
279
100
AcDbEntity
  8
0
100
AcDbLine
 62
250
  6
CONTINUOUS
 10
222.084921671
 20
138.9296997389
 11
222.384921671
 21
138.9296997389
  0
LINE
  5
27A
100
AcDbEntity
  8
RACCORDO
100
AcDbLine
 62
250
  6
CONTINUOUS
 10
293.084921671
 20
138.9296997389
 11
293.384921671
 21
138.9296997389
  0
LINE
  5
27B
100
AcDbEntity
  8
0
100
AcDbLine
 62
250
  6
CONTINUOUS
 10
293.084921671
 20
138.9296997389
 11
293.384921671
 21
138.9296997389
  0
LINE
  5
27C
100
AcDbEntity
  8
RACCORDO
100
AcDbLine
 62
250
  6
CONTINUOUS
 10
222.084921671
 20
138.9296997389
 11
222.084921671
 21
191.3796997389
  0
LINE
  5
27D
100
AcDbEntity
  8
0
100
AcDbLine
 62
250
  6
CONTINUOUS
 10
222.084921671
 20
138.9296997389
 11
222.084921671
 21
191.3796997389
  0
LINE
  5
27E
100
AcDbEntity
  8
RACCORDO
100
AcDbLine
 62
7
  6
CONTINUOUS
 10
222.384921671
 20
138.9296997389
 11
222.384921671
 21
191.3796997389
  0
LINE
  5
27F
100
AcDbEntity
  8
0
100
AcDbLine
 62
7
  6
CONTINUOUS
 10
222.384921671
 20
138.9296997389
 11
222.384921671
 21
191.3796997389
  0
LINE
  5
280
100
AcDbEntity
  8
RACCORDO
100
AcDbLine
 62
250
  6
CONTINUOUS
 10
222.984921671
 20
192.2796997389
 11
222.984921671
 21
191.9796997389
  0
LINE
  5
281
100
AcDbEntity
  8
0
100
AcDbLine
 62
250
  6
CONTINUOUS
 10
222.984921671
 20
192.2796997389
 11
222.984921671
 21
191.9796997389
  0
LINE
  5
282
100
AcDbEntity
  8
RACCORDO
100
AcDbLine
 62
250
  6
CONTINUOUS
 10
222.984921671
 20
138.0296997389
 11
222.984921671
 21
138.3296997389
  0
LINE
  5
283
100
AcDbEntity
  8
0
100
AcDbLine
 62
250
  6
CONTINUOUS
 10
222.984921671
 20
138.0296997389
 11
222.984921671
 21
138.3296997389
  0
LWPOLYLINE
  5
284
100
AcDbEntity
  8
0
100
AcDbPolyline
 62
7
  6
CONTINUOUS
 90
4
 70
0
 43
0.3499999917
 10
367.9813439941
 20
162.7975598145
 10
367.1242199707
 20
162.7975598145
 10
366.6956323242
 20
163.2261346436
 10
366.6956323242
 20
163.8689904785
  0
LWPOLYLINE
  5
285
100
AcDbEntity
  8
0
100
AcDbPolyline
 62
7
  6
CONTINUOUS
 90
4
 70
0
 43
0.3499999917
 10
367.9813439941
 20
165.1547021484
 10
367.1242199707
 20
165.1547021484
 10
366.6956323242
 20
165.5832769775
 10
366.6956323242
 20
166.2261328125
  0
LINE
  5
286
100
AcDbEntity
  8
RACCORDO
100
AcDbLine
 62
250
  6
CONTINUOUS
 10
267.334921671
 20
192.2796997389
 11
267.334921671
 21
191.9796997389
  0
LINE
  5
287
100
AcDbEntity
  8
0
100
AcDbLine
 62
250
  6
CONTINUOUS
 10
267.334921671
 20
192.2796997389
 11
267.334921671
 21
191.9796997389
  0
LINE
  5
288
100
AcDbEntity
  8
RACCORDO
100
AcDbLine
 62
250
  6
CONTINUOUS
 10
267.334921671
 20
138.0296997389
 11
267.334921671
 21
138.3296997389
  0
LINE
  5
289
100
AcDbEntity
  8
0
100
AcDbLine
 62
250
  6
CONTINUOUS
 10
267.334921671
 20
138.0296997389
 11
267.334921671
 21
138.3296997389
  0
LINE
  5
28A
100
AcDbEntity
  8
RACCORDO
100
AcDbLine
 62
7
  6
CONTINUOUS
 10
267.934921671
 20
191.3796997389
 11
267.934921671
 21
138.9296997389
  0
LINE
  5
28B
100
AcDbEntity
  8
0
100
AcDbLine
 62
7
  6
CONTINUOUS
 10
267.934921671
 20
191.3796997389
 11
267.934921671
 21
138.9296997389
  0
LINE
  5
28C
100
AcDbEntity
  8
RACCORDO
100
AcDbLine
 62
250
  6
CONTINUOUS
 10
268.234921671
 20
191.3796997389
 11
268.234921671
 21
138.9296997389
  0
LINE
  5
28D
100
AcDbEntity
  8
0
100
AcDbLine
 62
250
  6
CONTINUOUS
 10
268.234921671
 20
191.3796997389
 11
268.234921671
 21
138.9296997389
  0
LINE
  5
28E
100
AcDbEntity
  8
RACCORDO
100
AcDbLine
 62
250
  6
CONTINUOUS
 10
339.234921671
 20
191.3796997389
 11
338.934921671
 21
191.3796997389
  0
LINE
  5
28F
100
AcDbEntity
  8
0
100
AcDbLine
 62
250
  6
CONTINUOUS
 10
339.234921671
 20
191.3796997389
 11
338.934921671
 21
191.3796997389
  0
LINE
  5
290
100
AcDbEntity
  8
RACCORDO
100
AcDbLine
 62
250
  6
CONTINUOUS
 10
268.234921671
 20
191.3796997389
 11
267.934921671
 21
191.3796997389
  0
LINE
  5
291
100
AcDbEntity
  8
0
100
AcDbLine
 62
250
  6
CONTINUOUS
 10
268.234921671
 20
191.3796997389
 11
267.934921671
 21
191.3796997389
  0
LINE
  5
292
100
AcDbEntity
  8
RACCORDO
100
AcDbLine
 62
250
  6
CONTINUOUS
 10
197.234921671
 20
191.3796997389
 11
196.934921671
 21
191.3796997389
  0
LINE
  5
293
100
AcDbEntity
  8
0
100
AcDbLine
 62
250
  6
CONTINUOUS
 10
197.234921671
 20
191.3796997389
 11
196.934921671
 21
191.3796997389
  0
LINE
  5
294
100
AcDbEntity
  8
RACCORDO
100
AcDbLine
 62
250
  6
CONTINUOUS
 10
151.084921671
 20
191.3796997389
 11
151.384921671
 21
191.3796997389
  0
LINE
  5
295
100
AcDbEntity
  8
0
100
AcDbLine
 62
250
  6
CONTINUOUS
 10
151.084921671
 20
191.3796997389
 11
151.384921671
 21
191.3796997389
  0
LINE
  5
296
100
AcDbEntity
  8
RACCORDO
100
AcDbLine
 62
250
  6
CONTINUOUS
 10
222.084921671
 20
191.3796997389
 11
222.384921671
 21
191.3796997389
  0
LINE
  5
297
100
AcDbEntity
  8
0
100
AcDbLine
 62
250
  6
CONTINUOUS
 10
222.084921671
 20
191.3796997389
 11
222.384921671
 21
191.3796997389
  0
LINE
  5
298
100
AcDbEntity
  8
RACCORDO
100
AcDbLine
 62
250
  6
CONTINUOUS
 10
293.084921671
 20
191.3796997389
 11
293.384921671
 21
191.3796997389
  0
LINE
  5
299
100
AcDbEntity
  8
0
100
AcDbLine
 62
250
  6
CONTINUOUS
 10
293.084921671
 20
191.3796997389
 11
293.384921671
 21
191.3796997389
  0
LINE
  5
29A
100
AcDbEntity
  8
RACCORDO
100
AcDbLine
 62
7
  6
CONTINUOUS
 10
151.984921671
 20
191.9796997389
 11
196.334921671
 21
191.9796997389
  0
LINE
  5
29B
100
AcDbEntity
  8
0
100
AcDbLine
 62
7
  6
CONTINUOUS
 10
151.984921671
 20
191.9796997389
 11
196.334921671
 21
191.9796997389
  0
LINE
  5
29C
100
AcDbEntity
  8
RACCORDO
100
AcDbLine
 62
7
  6
CONTINUOUS
 10
222.984921671
 20
191.9796997389
 11
267.334921671
 21
191.9796997389
  0
LINE
  5
29D
100
AcDbEntity
  8
0
100
AcDbLine
 62
7
  6
CONTINUOUS
 10
222.984921671
 20
191.9796997389
 11
267.334921671
 21
191.9796997389
  0
LINE
  5
29E
100
AcDbEntity
  8
RACCORDO
100
AcDbLine
 62
7
  6
CONTINUOUS
 10
293.984921671
 20
191.9796997389
 11
338.334921671
 21
191.9796997389
  0
LINE
  5
29F
100
AcDbEntity
  8
0
100
AcDbLine
 62
7
  6
CONTINUOUS
 10
293.984921671
 20
191.9796997389
 11
338.334921671
 21
191.9796997389
  0
LINE
  5
2A0
100
AcDbEntity
  8
RACCORDO
100
AcDbLine
 62
250
  6
CONTINUOUS
 10
151.984921671
 20
192.2796997389
 11
196.334921671
 21
192.2796997389
  0
LINE
  5
2A1
100
AcDbEntity
  8
0
100
AcDbLine
 62
250
  6
CONTINUOUS
 10
151.984921671
 20
192.2796997389
 11
196.334921671
 21
192.2796997389
  0
LINE
  5
2A2
100
AcDbEntity
  8
RACCORDO
100
AcDbLine
 62
250
  6
CONTINUOUS
 10
222.984921671
 20
192.2796997389
 11
267.334921671
 21
192.2796997389
  0
LINE
  5
2A3
100
AcDbEntity
  8
0
100
AcDbLine
 62
250
  6
CONTINUOUS
 10
222.984921671
 20
192.2796997389
 11
267.334921671
 21
192.2796997389
  0
LINE
  5
2A4
100
AcDbEntity
  8
RACCORDO
100
AcDbLine
 62
250
  6
CONTINUOUS
 10
293.984921671
 20
192.2796997389
 11
338.334921671
 21
192.2796997389
  0
LINE
  5
2A5
100
AcDbEntity
  8
0
100
AcDbLine
 62
250
  6
CONTINUOUS
 10
293.984921671
 20
192.2796997389
 11
338.334921671
 21
192.2796997389
  0
LINE
  5
2A6
100
AcDbEntity
  8
RACCORDO
100
AcDbLine
 62
250
  6
CONTINUOUS
 10
293.084921671
 20
138.9296997389
 11
293.084921671
 21
191.3796997389
  0
LINE
  5
2A7
100
AcDbEntity
  8
0
100
AcDbLine
 62
250
  6
CONTINUOUS
 10
293.084921671
 20
138.9296997389
 11
293.084921671
 21
191.3796997389
  0
LINE
  5
2A8
100
AcDbEntity
  8
RACCORDO
100
AcDbLine
 62
7
  6
CONTINUOUS
 10
293.384921671
 20
138.9296997389
 11
293.384921671
 21
191.3796997389
  0
LINE
  5
2A9
100
AcDbEntity
  8
0
100
AcDbLine
 62
7
  6
CONTINUOUS
 10
293.384921671
 20
138.9296997389
 11
293.384921671
 21
191.3796997389
  0
LINE
  5
2AA
100
AcDbEntity
  8
RACCORDO
100
AcDbLine
 62
250
  6
CONTINUOUS
 10
293.984921671
 20
192.2796997389
 11
293.984921671
 21
191.9796997389
  0
LINE
  5
2AB
100
AcDbEntity
  8
0
100
AcDbLine
 62
250
  6
CONTINUOUS
 10
293.984921671
 20
192.2796997389
 11
293.984921671
 21
191.9796997389
  0
LINE
  5
2AC
100
AcDbEntity
  8
RACCORDO
100
AcDbLine
 62
250
  6
CONTINUOUS
 10
293.984921671
 20
138.0296997389
 11
293.984921671
 21
138.3296997389
  0
LINE
  5
2AD
100
AcDbEntity
  8
0
100
AcDbLine
 62
250
  6
CONTINUOUS
 10
293.984921671
 20
138.0296997389
 11
293.984921671
 21
138.3296997389
  0
LWPOLYLINE
  5
2AE
100
AcDbEntity
  8
RACCORDO
100
AcDbPolyline
 62
7
  6
CONTINUOUS
 90
3
 70
0
 10
360.659921671
 20
208.6546997389
 10
360.7010635257
 20
208.6955113853
 10
360.8156673138
 20
208.8105386008
  0
LWPOLYLINE
  5
2AF
100
AcDbEntity
  8
0
100
AcDbPolyline
 62
7
  6
CONTINUOUS
 90
3
 70
0
 10
360.659921671
 20
208.6546997389
 10
360.7010635257
 20
208.6955113853
 10
360.8156673138
 20
208.8105386008
  0
LINE
  5
2B0
100
AcDbEntity
  8
RACCORDO
100
AcDbLine
 62
250
  6
CONTINUOUS
 10
360.659921671
 20
208.6546997389
 11
129.659921671
 21
208.6546997389
  0
LINE
  5
2B1
100
AcDbEntity
  8
0
100
AcDbLine
 62
250
  6
CONTINUOUS
 10
360.659921671
 20
208.6546997389
 11
129.659921671
 21
208.6546997389
  0
LINE
  5
2B2
100
AcDbEntity
  8
RACCORDO
100
AcDbLine
 62
7
  6
CONTINUOUS
 10
361.159921671
 20
209.1546997389
 11
129.159921671
 21
209.1546997389
  0
LINE
  5
2B3
100
AcDbEntity
  8
0
100
AcDbLine
 62
7
  6
CONTINUOUS
 10
361.159921671
 20
209.1546997389
 11
129.159921671
 21
209.1546997389
  0
LINE
  5
2B4
100
AcDbEntity
  8
RACCORDO
100
AcDbLine
 62
7
  6
CONTINUOUS
 10
361.1592015998
 20
121.1553445115
 11
361.159921671
 21
121.1546997389
  0
LINE
  5
2B5
100
AcDbEntity
  8
0
100
AcDbLine
 62
7
  6
CONTINUOUS
 10
361.1592015998
 20
121.1553445115
 11
361.159921671
 21
121.1546997389
  0
LWPOLYLINE
  5
2B6
100
AcDbEntity
  8
RACCORDO
100
AcDbPolyline
 62
7
  6
CONTINUOUS
 90
4
 70
0
 10
361.141102066
 20
121.173510087
 10
361.1479983649
 20
121.1666393151
 10
361.1532856233
 20
121.1613357866
 10
361.1592015998
 20
121.1553445115
  0
LWPOLYLINE
  5
2B7
100
AcDbEntity
  8
0
100
AcDbPolyline
 62
7
  6
CONTINUOUS
 90
4
 70
0
 10
361.141102066
 20
121.173510087
 10
361.1479983649
 20
121.1666393151
 10
361.1532856233
 20
121.1613357866
 10
361.1592015998
 20
121.1553445115
  0
LINE
  5
2B8
100
AcDbEntity
  8
RACCORDO
100
AcDbLine
 62
7
  6
CONTINUOUS
 10
361.1592768985
 20
209.1539796677
 11
361.159921671
 21
209.1546997389
  0
LINE
  5
2B9
100
AcDbEntity
  8
0
100
AcDbLine
 62
7
  6
CONTINUOUS
 10
361.1592768985
 20
209.1539796677
 11
361.159921671
 21
209.1546997389
  0
LWPOLYLINE
  5
2BA
100
AcDbEntity
  8
RACCORDO
100
AcDbPolyline
 62
7
  6
CONTINUOUS
 90
3
 70
0
 10
360.8156673138
 20
208.8105386008
 10
361.1532856233
 20
209.1480636912
 10
361.1592768985
 20
209.1539796677
  0
LWPOLYLINE
  5
2BB
100
AcDbEntity
  8
0
100
AcDbPolyline
 62
7
  6
CONTINUOUS
 90
3
 70
0
 10
360.8156673138
 20
208.8105386008
 10
361.1532856233
 20
209.1480636912
 10
361.1592768985
 20
209.1539796677
  0
LWPOLYLINE
  5
2BC
100
AcDbEntity
  8
0
100
AcDbPolyline
 62
7
  6
CONTINUOUS
 90
7
 70
0
 43
0.3499999917
 10
247.7313500977
 20
217.9046923828
 10
246.2313574219
 20
217.9046923828
 10
247.7313500977
 20
220.0475537109
 10
247.7313500977
 20
220.4761157227
 10
247.3027880859
 20
220.9047033691
 10
246.6599194336
 20
220.9047033691
 10
246.2313574219
 20
220.2618347168
  0
LWPOLYLINE
  5
2BD
100
AcDbEntity
  8
0
100
AcDbPolyline
 62
7
  6
CONTINUOUS
 90
7
 70
0
 43
0.3499999917
 10
243.2313464355
 20
217.9046923828
 10
241.7313537598
 20
217.9046923828
 10
243.2313464355
 20
220.0475537109
 10
243.2313464355
 20
220.4761157227
 10
242.8027844238
 20
220.9047033691
 10
242.1599157715
 20
220.9047033691
 10
241.7313537598
 20
220.2618347168
  0
LWPOLYLINE
  5
2BE
100
AcDbEntity
  8
0
100
AcDbPolyline
 62
7
  6
CONTINUOUS
 90
6
 70
0
 43
0.3499999917
 10
244.0884960937
 20
217.9046923828
 10
245.1599267578
 20
217.9046923828
 10
245.3742077637
 20
218.1189733887
 10
245.3742077637
 20
219.1904040527
 10
244.945645752
 20
219.6189916992
 10
244.5170581055
 20
219.6189916992
  0
LINE
  5
2BF
100
AcDbEntity
  8
RACCORDO
100
AcDbLine
 62
7
  6
CONTINUOUS
 10
360.7788740075
 20
121.5357474024
 11
361.141102066
 21
121.173510087
  0
LINE
  5
2C0
100
AcDbEntity
  8
0
100
AcDbLine
 62
7
  6
CONTINUOUS
 10
360.7788740075
 20
121.5357474024
 11
361.141102066
 21
121.173510087
  0
LWPOLYLINE
  5
2C1
100
AcDbEntity
  8
RACCORDO
100
AcDbPolyline
 62
7
  6
CONTINUOUS
 90
4
 70
0
 10
360.659921671
 20
121.6546997389
 10
360.7007333174
 20
121.6135578842
 10
360.7404610256
 20
121.5739071054
 10
360.7788740075
 20
121.5357474024
  0
LWPOLYLINE
  5
2C2
100
AcDbEntity
  8
0
100
AcDbPolyline
 62
7
  6
CONTINUOUS
 90
4
 70
0
 10
360.659921671
 20
121.6546997389
 10
360.7007333174
 20
121.6135578842
 10
360.7404610256
 20
121.5739071054
 10
360.7788740075
 20
121.5357474024
  0
LINE
  5
2C3
100
AcDbEntity
  8
RACCORDO
100
AcDbLine
 62
250
  6
CONTINUOUS
 10
338.334921671
 20
192.2796997389
 11
338.334921671
 21
191.9796997389
  0
LINE
  5
2C4
100
AcDbEntity
  8
0
100
AcDbLine
 62
250
  6
CONTINUOUS
 10
338.334921671
 20
192.2796997389
 11
338.334921671
 21
191.9796997389
  0
LINE
  5
2C5
100
AcDbEntity
  8
RACCORDO
100
AcDbLine
 62
250
  6
CONTINUOUS
 10
338.334921671
 20
138.0296997389
 11
338.334921671
 21
138.3296997389
  0
LINE
  5
2C6
100
AcDbEntity
  8
0
100
AcDbLine
 62
250
  6
CONTINUOUS
 10
338.334921671
 20
138.0296997389
 11
338.334921671
 21
138.3296997389
  0
LINE
  5
2C7
100
AcDbEntity
  8
RACCORDO
100
AcDbLine
 62
7
  6
CONTINUOUS
 10
338.934921671
 20
191.3796997389
 11
338.934921671
 21
138.9296997389
  0
LINE
  5
2C8
100
AcDbEntity
  8
0
100
AcDbLine
 62
7
  6
CONTINUOUS
 10
338.934921671
 20
191.3796997389
 11
338.934921671
 21
138.9296997389
  0
LINE
  5
2C9
100
AcDbEntity
  8
RACCORDO
100
AcDbLine
 62
250
  6
CONTINUOUS
 10
339.234921671
 20
191.3796997389
 11
339.234921671
 21
138.9296997389
  0
LINE
  5
2CA
100
AcDbEntity
  8
0
100
AcDbLine
 62
250
  6
CONTINUOUS
 10
339.234921671
 20
191.3796997389
 11
339.234921671
 21
138.9296997389
  0
LWPOLYLINE
  5
2CB
100
AcDbEntity
  8
0
100
AcDbPolyline
 62
7
  6
CONTINUOUS
 90
13
 70
0
 43
0.3499999917
 10
366.6956323242
 20
165.5832769775
 10
366.4813513184
 20
165.2975518799
 10
365.838482666
 20
165.2975518799
 10
365.4099206543
 20
165.5832769775
 10
365.4099206543
 20
166.2261328125
 10
365.838482666
 20
166.5118450928
 10
366.4813513184
 20
166.5118450928
 10
366.6956323242
 20
166.2261328125
 10
367.1242199707
 20
166.6546948242
 10
367.9813439941
 20
166.6546948242
 10
368.4099316406
 20
166.2261328125
 10
368.4099316406
 20
165.5832769775
 10
367.9813439941
 20
165.1547021484
  0
LWPOLYLINE
  5
2CC
100
AcDbEntity
  8
0
100
AcDbPolyline
 62
7
  6
CONTINUOUS
 90
13
 70
0
 43
0.3499999917
 10
366.6956323242
 20
163.2261346436
 10
366.4813513184
 20
162.9404095459
 10
365.838482666
 20
162.9404095459
 10
365.4099206543
 20
163.2261346436
 10
365.4099206543
 20
163.8689904785
 10
365.838482666
 20
164.1547027588
 10
366.4813513184
 20
164.1547027588
 10
366.6956323242
 20
163.8689904785
 10
367.1242199707
 20
164.2975524902
 10
367.9813439941
 20
164.2975524902
 10
368.4099316406
 20
163.8689904785
 10
368.4099316406
 20
163.2261346436
 10
367.9813439941
 20
162.7975598145
  0
LINE
  5
2CD
100
AcDbEntity
  8
RACCORDO
100
AcDbLine
 62
250
  6
CONTINUOUS
 10
360.659921671
 20
121.6546997389
 11
360.659921671
 21
208.6546997389
  0
LINE
  5
2CE
100
AcDbEntity
  8
0
100
AcDbLine
 62
250
  6
CONTINUOUS
 10
360.659921671
 20
121.6546997389
 11
360.659921671
 21
208.6546997389
  0
LINE
  5
2CF
100
AcDbEntity
  8
RACCORDO
100
AcDbLine
 62
7
  6
CONTINUOUS
 10
361.159921671
 20
121.1546997389
 11
361.159921671
 21
209.1546997389
  0
LINE
  5
2D0
100
AcDbEntity
  8
0
100
AcDbLine
 62
7
  6
CONTINUOUS
 10
361.159921671
 20
121.1546997389
 11
361.159921671
 21
209.1546997389
  0
LINE
  5
2D1
100
AcDbEntity
  8
RACCORDO
100
AcDbLine
 62
7
  6
CONTINUOUS
 10
106.038381201
 20
121.1546997389
 11
101.638381201
 21
121.1546997389
  0
LINE
  5
2D2
100
AcDbEntity
  8
0
100
AcDbLine
 62
7
  6
CONTINUOUS
 10
106.038381201
 20
121.1546997389
 11
101.638381201
 21
121.1546997389
  0
LINE
  5
2D3
100
AcDbEntity
  8
RACCORDO
100
AcDbLine
 62
7
  6
CONTINUOUS
 10
108.7436165907
 20
122.7333945971
 11
106.038381201
 21
122.6625555154
  0
LINE
  5
2D4
100
AcDbEntity
  8
RACCORDO
100
AcDbLine
 62
250
  6
CONTINUOUS
 10
108.7436165907
 20
123.4331547246
 11
106.038381201
 21
123.3623156429
  0
LINE
  5
2D5
100
AcDbEntity
  8
RACCORDO
100
AcDbLine
 62
250
  6
CONTINUOUS
 10
108.938381201
 20
123.4331547246
 11
108.7436165907
 21
123.4331547246
  0
LINE
  5
2D6
100
AcDbEntity
  8
CURVE
100
AcDbLine
 62
250
  6
CONTINUOUS
 10
103.962079201
 20
127.4898397389
 11
102.585528201
 21
127.1086337389
  0
LINE
  5
2D7
100
AcDbEntity
  8
CURVE
100
AcDbLine
 62
250
  6
CONTINUOUS
 10
104.585366201
 20
128.4547637389
 11
102.585408201
 21
128.4547637389
  0
LINE
  5
2D8
100
AcDbEntity
  8
CURVE
100
AcDbLine
 62
250
  6
CONTINUOUS
 10
102.585408201
 20
128.8722077389
 11
104.585366201
 21
128.8722077389
  0
LINE
  5
2D9
100
AcDbEntity
  8
CURVE
100
AcDbLine
 62
250
  6
CONTINUOUS
 10
104.585366201
 20
129.4962897389
 11
103.279509201
 21
129.5863737389
  0
LINE
  5
2DA
100
AcDbEntity
  8
CURVE
100
AcDbLine
 62
250
  6
CONTINUOUS
 10
102.585528201
 20
129.2775057389
 11
104.585366201
 21
129.0969317389
  0
LINE
  5
2DB
100
AcDbEntity
  8
CURVE
100
AcDbLine
 62
250
  6
CONTINUOUS
 10
102.585528201
 20
127.8826887389
 11
103.962079201
 21
127.4898397389
  0
LINE
  5
2DC
100
AcDbEntity
  8
CURVE
100
AcDbLine
 62
250
  6
CONTINUOUS
 10
104.585366201
 20
127.6570207389
 11
102.585528201
 21
128.2998487389
  0
LINE
  5
2DD
100
AcDbEntity
  8
CURVE
100
AcDbLine
 62
250
  6
CONTINUOUS
 10
104.585366201
 20
131.1251127389
 11
102.585528201
 21
130.9381057389
  0
LINE
  5
2DE
100
AcDbEntity
  8
CURVE
100
AcDbLine
 62
250
  6
CONTINUOUS
 10
103.284954201
 20
130.6309747389
 11
104.585366201
 21
130.7167417389
  0
LINE
  5
2DF
100
AcDbEntity
  8
CURVE
100
AcDbLine
 62
250
  6
CONTINUOUS
 10
104.5853664663
 20
132.9579485705
 11
102.6088936192
 21
132.9579485705
  0
LINE
  5
2E0
100
AcDbEntity
  8
CURVE
100
AcDbLine
 62
250
  6
CONTINUOUS
 10
103.877198201
 20
131.8041577389
 11
103.135033201
 21
132.0120097389
  0
LINE
  5
2E1
100
AcDbEntity
  8
CURVE
100
AcDbLine
 62
250
  6
CONTINUOUS
 10
104.585366201
 20
131.6035787389
 11
104.186127201
 21
131.7187667389
  0
LINE
  5
2E2
100
AcDbEntity
  8
CURVE
100
AcDbLine
 62
250
  6
CONTINUOUS
 10
102.585528201
 20
131.8179397389
 11
104.585366201
 21
131.1906627389
  0
LINE
  5
2E3
100
AcDbEntity
  8
CURVE
100
AcDbLine
 62
250
  6
CONTINUOUS
 10
102.585528201
 20
130.5250847389
 11
103.695844201
 21
130.1076407389
  0
LINE
  5
2E4
100
AcDbEntity
  8
CURVE
100
AcDbLine
 62
250
  6
CONTINUOUS
 10
104.585366201
 20
130.1346337389
 11
103.284954201
 21
130.6309747389
  0
LINE
  5
2E5
100
AcDbEntity
  8
CURVE
100
AcDbLine
 62
250
  6
CONTINUOUS
 10
104.3169916118
 20
133.934789476
 11
104.2318330736
 21
133.9106414768
  0
LINE
  5
2E6
100
AcDbEntity
  8
CURVE
100
AcDbLine
 62
250
  6
CONTINUOUS
 10
104.186127201
 20
132.2872567389
 11
104.585366201
 21
132.3953977389
  0
LINE
  5
2E7
100
AcDbEntity
  8
CURVE
100
AcDbLine
 62
250
  6
CONTINUOUS
 10
103.9976535205
 20
134.2592048152
 11
104.1163664253
 21
134.2913044742
  0
LINE
  5
2E8
100
AcDbEntity
  8
CURVE
100
AcDbLine
 62
250
  6
CONTINUOUS
 10
104.5139686385
 20
134.3954597081
 11
104.5853664663
 21
134.4145053576
  0
LINE
  5
2E9
100
AcDbEntity
  8
CURVE
100
AcDbLine
 62
250
  6
CONTINUOUS
 10
104.1163664253
 20
134.2913044742
 11
104.2610320753
 21
134.329513386
  0
LINE
  5
2EA
100
AcDbEntity
  8
CURVE
100
AcDbLine
 62
250
  6
CONTINUOUS
 10
104.2610320753
 20
134.329513386
 11
104.5139686385
 21
134.3954597081
  0
LINE
  5
2EB
100
AcDbEntity
  8
CURVE
100
AcDbLine
 62
250
  6
CONTINUOUS
 10
103.135033201
 20
132.0120097389
 11
103.877198201
 21
132.2038307389
  0
LWPOLYLINE
  5
2EC
100
AcDbEntity
  8
CURVE
100
AcDbPolyline
 62
250
  6
CONTINUOUS
 90
49
 70
0
 10
103.1644415279
 20
133.9227078649
 10
103.1567736564
 20
133.9224638552
 10
103.1490892653
 20
133.9219729461
 10
103.1413973925
 20
133.9212375586
 10
103.133707076
 20
133.9202601135
 10
103.1260273538
 20
133.9190430318
 10
103.118367264
 20
133.9175887346
 10
103.1107358445
 20
133.9158996428
 10
103.1031421334
 20
133.9139781774
 10
103.0955951687
 20
133.9118267592
 10
103.0881039884
 20
133.9094478094
 10
103.0806776304
 20
133.9068437488
 10
103.0733251329
 20
133.9040169984
 10
103.0660555338
 20
133.9009699792
 10
103.0588778711
 20
133.8977051122
 10
103.0518011829
 20
133.8942248183
 10
103.0448345072
 20
133.8905315184
 10
103.0379868819
 20
133.8866276337
 10
103.031267345
 20
133.8825155849
 10
103.0246849347
 20
133.8781977931
 10
103.0182486889
 20
133.8736766793
 10
103.0119676456
 20
133.8689546644
 10
103.0058508428
 20
133.8640341694
 10
102.9999073186
 20
133.8589176152
 10
102.9941461109
 20
133.8536074228
 10
102.9885448617
 20
133.8480763553
 10
102.9831376503
 20
133.8423603986
 10
102.9779250583
 20
133.8364679809
 10
102.972907667
 20
133.8304075306
 10
102.968086058
 20
133.8241874759
 10
102.9634608127
 20
133.817816245
 10
102.9590325127
 20
133.8113022664
 10
102.9548017394
 20
133.8046539681
 10
102.9507690742
 20
133.7978797786
 10
102.9469350988
 20
133.7909881261
 10
102.9433003945
 20
133.7839874389
 10
102.9398655428
 20
133.7768861452
 10
102.9366311253
 20
133.7696926733
 10
102.9335977234
 20
133.7624154515
 10
102.9307659185
 20
133.7550629081
 10
102.9281362922
 20
133.7476434714
 10
102.9257094259
 20
133.7401655696
 10
102.9234859012
 20
133.732637631
 10
102.9214662995
 20
133.7250680839
 10
102.9196512022
 20
133.7174653565
 10
102.9180411909
 20
133.7098378772
 10
102.9166368471
 20
133.7021940741
 10
102.9154387522
 20
133.6945423757
 10
102.9144474877
 20
133.6868912101
  0
LINE
  5
2ED
100
AcDbEntity
  8
CURVE
100
AcDbLine
 62
250
  6
CONTINUOUS
 10
102.926221025
 20
133.3598716236
 11
103.4752154329
 21
133.3598716236
  0
LINE
  5
2EE
100
AcDbEntity
  8
CURVE
100
AcDbLine
 62
250
  6
CONTINUOUS
 10
103.8027405057
 20
133.373713457
 11
104.5853664663
 21
133.373713457
  0
LINE
  5
2EF
100
AcDbEntity
  8
CURVE
100
AcDbLine
 62
250
  6
CONTINUOUS
 10
103.6400427257
 20
134.0311780504
 11
103.6518600223
 21
134.0311780504
  0
LWPOLYLINE
  5
2F0
100
AcDbEntity
  8
0
100
AcDbPolyline
 62
7
  6
CONTINUOUS
 90
3
 70
0
 43
0.3499999917
 10
104.8955255127
 20
218.1904174805
 10
104.8240942383
 20
217.9761364746
 10
104.6812380981
 20
217.690411377
  0
LWPOLYLINE
  5
2F1
100
AcDbEntity
  8
CURVE
100
AcDbPolyline
 62
250
  6
CONTINUOUS
 90
32
 70
0
 10
102.6088936192
 20
132.9579485705
 10
102.6033932623
 20
132.9960157343
 10
102.5981038527
 20
133.0341421546
 10
102.5930555805
 20
133.072323709
 10
102.5882786361
 20
133.1105562752
 10
102.5838032098
 20
133.1488357307
 10
102.5796594919
 20
133.1871579533
 10
102.5758776727
 20
133.2255188203
 10
102.5724879424
 20
133.2639142096
 10
102.5695204914
 20
133.3023399987
 10
102.56700551
 20
133.3407920652
 10
102.5649731885
 20
133.3792662868
 10
102.5634537171
 20
133.417758541
 10
102.5624772862
 20
133.4562647055
 10
102.5620740861
 20
133.4947806578
 10
102.5622743071
 20
133.5333022756
 10
102.5631081394
 20
133.5718254366
 10
102.5646057733
 20
133.6103460183
 10
102.5667973992
 20
133.6488598982
 10
102.5697132074
 20
133.6873629542
 10
102.5720718875
 20
133.7129522158
 10
102.5747987522
 20
133.73851438
 10
102.577928489
 20
133.7640289569
 10
102.5814957855
 20
133.7894754566
 10
102.585535329
 20
133.8148333894
 10
102.5900818072
 20
133.8400822653
 10
102.5951699075
 20
133.8652015946
 10
102.6008343173
 20
133.8901708874
 10
102.6071097242
 20
133.9149696538
 10
102.6140308158
 20
133.9395774041
 10
102.6216322793
 20
133.9639736483
 10
102.6299488025
 20
133.9881378966
  0
LINE
  5
2F2
100
AcDbEntity
  8
RACCORDO
100
AcDbLine
 62
7
  6
CONTINUOUS
 10
101.138381201
 20
121.6546997389
 11
101.138381201
 21
208.6546997389
  0
LINE
  5
2F3
100
AcDbEntity
  8
0
100
AcDbLine
 62
7
  6
CONTINUOUS
 10
101.138381201
 20
121.6546997389
 11
101.138381201
 21
208.6546997389
  0
LINE
  5
2F4
100
AcDbEntity
  8
RACCORDO
100
AcDbLine
 62
250
  6
CONTINUOUS
 10
101.638381201
 20
121.1546997389
 11
101.638381201
 21
209.1546997389
  0
LINE
  5
2F5
100
AcDbEntity
  8
0
100
AcDbLine
 62
250
  6
CONTINUOUS
 10
101.638381201
 20
121.1546997389
 11
101.638381201
 21
209.1546997389
  0
LWPOLYLINE
  5
2F6
100
AcDbEntity
  8
0
100
AcDbPolyline
 62
7
  6
CONTINUOUS
 90
4
 70
0
 43
0.3499999917
 10
101.8240960693
 20
220.2618347168
 10
101.8240960693
 20
220.9047033691
 10
103.3240951538
 20
220.9047033691
 10
102.4669519043
 20
217.9046923828
  0
LWPOLYLINE
  5
2F7
100
AcDbEntity
  8
CURVE
100
AcDbPolyline
 62
250
  6
CONTINUOUS
 90
59
 70
0
 10
103.4752154329
 20
133.5984370475
 10
103.4749689975
 20
133.606998053
 10
103.4746067724
 20
133.6156181271
 10
103.4741229384
 20
133.6242870143
 10
103.4735116766
 20
133.6329944591
 10
103.4727671676
 20
133.6417302059
 10
103.4718835924
 20
133.6504839993
 10
103.4708551318
 20
133.6592455836
 10
103.4696759668
 20
133.6680047035
 10
103.4683402782
 20
133.6767511032
 10
103.4668422468
 20
133.6854745274
 10
103.4651760535
 20
133.6941647205
 10
103.4633358792
 20
133.7028114269
 10
103.4613159047
 20
133.7114043912
 10
103.459110311
 20
133.7199333578
 10
103.4567132789
 20
133.7283880712
 10
103.4541189892
 20
133.7367582758
 10
103.4513216228
 20
133.7450337162
 10
103.4483153606
 20
133.7532041368
 10
103.4450943835
 20
133.761259282
 10
103.4416528723
 20
133.7691888964
 10
103.4379850079
 20
133.7769827245
 10
103.4340849712
 20
133.7846305106
 10
103.429946943
 20
133.7921219993
 10
103.4255651042
 20
133.7994469351
 10
103.4209336357
 20
133.8065950624
 10
103.4160467183
 20
133.8135561257
 10
103.4108985329
 20
133.8203198694
 10
103.4054832603
 20
133.8268760381
 10
103.3997186499
 20
133.8333010086
 10
103.3936856276
 20
133.839502268
 10
103.3873961776
 20
133.8454799141
 10
103.380862284
 20
133.8512340447
 10
103.374095931
 20
133.8567647576
 10
103.3671091028
 20
133.8620721505
 10
103.3599137835
 20
133.8671563214
 10
103.3525219574
 20
133.8720173679
 10
103.3449456087
 20
133.8766553878
 10
103.3371967214
 20
133.881070479
 10
103.3292872799
 20
133.8852627393
 10
103.3212292682
 20
133.8892322663
 10
103.3130346705
 20
133.892979158
 10
103.3047154711
 20
133.8965035121
 10
103.2962836541
 20
133.8998054265
 10
103.2877512036
 20
133.9028849988
 10
103.2791301039
 20
133.9057423269
 10
103.2704323392
 20
133.9083775086
 10
103.2616698935
 20
133.9107906416
 10
103.2528547512
 20
133.9129818239
 10
103.2439988963
 20
133.9149511531
 10
103.235114313
 20
133.916698727
 10
103.2262129856
 20
133.9182246436
 10
103.2173068982
 20
133.9195290004
 10
103.208408035
 20
133.9206118954
 10
103.1995283801
 20
133.9214734263
 10
103.1906799178
 20
133.9221136909
 10
103.1818746322
 20
133.922532787
 10
103.1731245075
 20
133.9227308124
 10
103.1644415279
 20
133.9227078649
  0
LINE
  5
2F8
100
AcDbEntity
  8
CURVE
100
AcDbLine
 62
250
  6
CONTINUOUS
 10
102.585408201
 20
128.4547637389
 11
102.585408201
 21
128.8722077389
  0
LINE
  5
2F9
100
AcDbEntity
  8
CURVE
100
AcDbLine
 62
250
  6
CONTINUOUS
 10
102.585528201
 20
132.2217667389
 11
102.585528201
 21
131.8179397389
  0
LINE
  5
2FA
100
AcDbEntity
  8
CURVE
100
AcDbLine
 62
250
  6
CONTINUOUS
 10
102.585528201
 20
130.9381057389
 11
102.585528201
 21
130.5250847389
  0
LINE
  5
2FB
100
AcDbEntity
  8
CURVE
100
AcDbLine
 62
250
  6
CONTINUOUS
 10
102.585528201
 20
129.6946047389
 11
102.585528201
 21
129.2775057389
  0
LINE
  5
2FC
100
AcDbEntity
  8
CURVE
100
AcDbLine
 62
250
  6
CONTINUOUS
 10
102.585528201
 20
128.2998487389
 11
102.585528201
 21
127.8826887389
  0
LINE
  5
2FD
100
AcDbEntity
  8
CURVE
100
AcDbLine
 62
250
  6
CONTINUOUS
 10
102.585528201
 20
127.1086337389
 11
102.585528201
 21
126.6551607389
  0
LINE
  5
2FE
100
AcDbEntity
  8
CURVE
100
AcDbLine
 62
250
  6
CONTINUOUS
 10
103.4752154329
 20
133.3598716236
 11
103.4752154329
 21
133.5984370475
  0
LINE
  5
2FF
100
AcDbEntity
  8
CURVE
100
AcDbLine
 62
250
  6
CONTINUOUS
 10
103.8027405057
 20
133.5975372534
 11
103.8027405057
 21
133.373713457
  0
LINE
  5
300
100
AcDbEntity
  8
CURVE
100
AcDbLine
 62
250
  6
CONTINUOUS
 10
103.877198201
 20
132.2038307389
 11
103.877198201
 21
131.8041577389
  0
LINE
  5
301
100
AcDbEntity
  8
CURVE
100
AcDbLine
 62
250
  6
CONTINUOUS
 10
104.186127201
 20
131.7187667389
 11
104.186127201
 21
132.2872567389
  0
LINE
  5
302
100
AcDbEntity
  8
CURVE
100
AcDbLine
 62
250
  6
CONTINUOUS
 10
104.585366201
 20
128.8722077389
 11
104.585366201
 21
128.4547637389
  0
LINE
  5
303
100
AcDbEntity
  8
CURVE
100
AcDbLine
 62
250
  6
CONTINUOUS
 10
104.585366201
 20
127.2891477389
 11
104.585366201
 21
127.6570207389
  0
LINE
  5
304
100
AcDbEntity
  8
CURVE
100
AcDbLine
 62
250
  6
CONTINUOUS
 10
104.585366201
 20
129.0969317389
 11
104.585366201
 21
129.4962897389
  0
LINE
  5
305
100
AcDbEntity
  8
CURVE
100
AcDbLine
 62
250
  6
CONTINUOUS
 10
104.585366201
 20
130.0760877389
 11
104.585366201
 21
130.1346337389
  0
LINE
  5
306
100
AcDbEntity
  8
CURVE
100
AcDbLine
 62
250
  6
CONTINUOUS
 10
104.585366201
 20
130.7167417389
 11
104.585366201
 21
131.1251127389
  0
LINE
  5
307
100
AcDbEntity
  8
CURVE
100
AcDbLine
 62
250
  6
CONTINUOUS
 10
104.585366201
 20
131.1906627389
 11
104.585366201
 21
131.6035787389
  0
LINE
  5
308
100
AcDbEntity
  8
CURVE
100
AcDbLine
 62
250
  6
CONTINUOUS
 10
104.585366201
 20
132.3953977389
 11
104.585366201
 21
132.8353667389
  0
LINE
  5
309
100
AcDbEntity
  8
CURVE
100
AcDbLine
 62
250
  6
CONTINUOUS
 10
104.5853664663
 20
134.4145053576
 11
104.5853664663
 21
134.0129722153
  0
LINE
  5
30A
100
AcDbEntity
  8
CURVE
100
AcDbLine
 62
250
  6
CONTINUOUS
 10
104.5853664663
 20
133.373713457
 11
104.5853664663
 21
132.9579485705
  0
LWPOLYLINE
  5
30B
100
AcDbEntity
  8
0
100
AcDbPolyline
 62
7
  6
CONTINUOUS
 90
4
 70
0
 43
0.3499999917
 10
105.8955249023
 20
218.3332800293
 10
105.8955249023
 20
219.1904040527
 10
106.3240933228
 20
219.6189916992
 10
106.9669555664
 20
219.6189916992
  0
LINE
  5
30C
100
AcDbEntity
  8
SUPERFICI
100
AcDbLine
 62
7
  6
CONTINUOUS
 10
106.038381201
 20
121.1546997389
 11
106.038381201
 21
209.1546997389
  0
LINE
  5
30D
100
AcDbEntity
  8
0
100
AcDbLine
 62
7
  6
CONTINUOUS
 10
106.038381201
 20
121.1546997389
 11
106.038381201
 21
209.1546997389
  0
LWPOLYLINE
  5
30E
100
AcDbEntity
  8
CURVE
100
AcDbPolyline
 62
250
  6
CONTINUOUS
 90
22
 70
0
 10
102.9144474878
 20
133.6868912101
 10
102.9127277739
 20
133.6710289873
 10
102.9112462664
 20
133.6551327732
 10
102.9100028884
 20
133.6392075237
 10
102.9089975626
 20
133.6232581947
 10
102.9082302119
 20
133.6072897422
 10
102.9077007591
 20
133.5913071222
 10
102.9074091271
 20
133.5753152905
 10
102.9073552387
 20
133.5593192032
 10
102.9075390167
 20
133.5433238161
 10
102.907960384
 20
133.5273340852
 10
102.9086192634
 20
133.5113549664
 10
102.9095155777
 20
133.4953914157
 10
102.9106492499
 20
133.4794483891
 10
102.9120202026
 20
133.4635308424
 10
102.9136283589
 20
133.4476437317
 10
102.9153269505
 20
133.432953856
 10
102.9172104734
 20
133.4182918326
 10
102.9192602848
 20
133.4036551295
 10
102.9214577423
 20
133.3890412148
 10
102.9237842032
 20
133.3744475568
 10
102.926221025
 20
133.3598716236
  0
LINE
  5
30F
100
AcDbEntity
  8
RACCORDO
100
AcDbLine
 62
250
  6
CONTINUOUS
 10
108.745015631
 20
207.5390922907
 11
108.7453869804
 21
207.5043790369
  0
LINE
  5
310
100
AcDbEntity
  8
RACCORDO
100
AcDbLine
 62
250
  6
CONTINUOUS
 10
108.7453869804
 20
207.5043790369
 11
108.7457175062
 21
207.4324866783
  0
LINE
  5
311
100
AcDbEntity
  8
RACCORDO
100
AcDbLine
 62
250
  6
CONTINUOUS
 10
108.7436165907
 20
123.4331547246
 11
108.7456365823
 21
123.0459872192
  0
LINE
  5
312
100
AcDbEntity
  8
RACCORDO
100
AcDbLine
 62
250
  6
CONTINUOUS
 10
108.7436165907
 20
206.8762447532
 11
108.7436165907
 21
123.4331547246
  0
LINE
  5
313
100
AcDbEntity
  8
RACCORDO
100
AcDbLine
 62
7
  6
CONTINUOUS
 10
108.938381201
 20
207.3760734157
 11
108.938381201
 21
122.9333260621
  0
LINE
  5
314
100
AcDbEntity
  8
RACCORDO
100
AcDbLine
 62
250
  6
CONTINUOUS
 10
108.7456365823
 20
123.0459872192
 11
108.7457239176
 21
122.8799387246
  0
LINE
  5
315
100
AcDbEntity
  8
RACCORDO
100
AcDbLine
 62
250
  6
CONTINUOUS
 10
108.7457175062
 20
207.4324866783
 11
108.7456465144
 21
207.2674303033
  0
LINE
  5
316
100
AcDbEntity
  8
RACCORDO
100
AcDbLine
 62
250
  6
CONTINUOUS
 10
108.7457239176
 20
122.8799387246
 11
108.7454026794
 21
122.8071568736
  0
LINE
  5
317
100
AcDbEntity
  8
RACCORDO
100
AcDbLine
 62
250
  6
CONTINUOUS
 10
108.7456465144
 20
207.2674303033
 11
108.7436165907
 21
206.8762447532
  0
LWPOLYLINE
  5
318
100
AcDbEntity
  8
RACCORDO
100
AcDbPolyline
 62
250
  6
CONTINUOUS
 90
7
 70
0
 10
108.7454026794
 20
122.8071568736
 10
108.7450346482
 20
122.771571988
 10
108.7448073198
 20
122.7579636543
 10
108.7445487666
 20
122.7472828229
 10
108.7442606225
 20
122.7395972029
 10
108.7439484773
 20
122.7349546189
 10
108.7436165907
 20
122.7333945971
  0
LWPOLYLINE
  5
319
100
AcDbEntity
  8
CURVE
100
AcDbPolyline
 62
250
  6
CONTINUOUS
 90
73
 70
0
 10
102.6299488025
 20
133.9881378966
 10
102.6350742994
 20
134.0014134563
 10
102.6407629735
 20
134.0144657747
 10
102.6469717583
 20
134.0272955184
 10
102.6536575872
 20
134.0399033542
 10
102.6607773934
 20
134.0522899486
 10
102.6682881103
 20
134.0644559682
 10
102.6761466714
 20
134.0764020796
 10
102.6874318426
 20
134.0924312624
 10
102.699279285
 20
134.1080293095
 10
102.7116776267
 20
134.1231777351
 10
102.7246154961
 20
134.1378580533
 10
102.7380815213
 20
134.1520517783
 10
102.7520643305
 20
134.1657404242
 10
102.766552552
 20
134.1789055052
 10
102.7824277919
 20
134.1922540235
 10
102.7988254737
 20
134.2049767107
 10
102.8157142004
 20
134.2170553961
 10
102.8330625751
 20
134.2284719089
 10
102.8508392009
 20
134.2392080782
 10
102.869012681
 20
134.2492457332
 10
102.8875516184
 20
134.2585667031
 10
102.9064246163
 20
134.2671528171
 10
102.9240290894
 20
134.2743799662
 10
102.9418665928
 20
134.2809762589
 10
102.9599147624
 20
134.2869462585
 10
102.9781512348
 20
134.2922945283
 10
102.9965536461
 20
134.2970256316
 10
103.0171942366
 20
134.3015720797
 10
103.0379868915
 20
134.3053839959
 10
103.0589059902
 20
134.3084849908
 10
103.0799259121
 20
134.310898675
 10
103.1010210364
 20
134.3126486591
 10
103.1227070704
 20
134.3137723513
 10
103.144417909
 20
134.3142098266
 10
103.1661262059
 20
134.3139481222
 10
103.1878046149
 20
134.312974275
 10
103.2094257897
 20
134.311275322
 10
103.2309623843
 20
134.3088383003
 10
103.2497117919
 20
134.306091282
 10
103.2683650757
 20
134.3027616029
 10
103.2869117551
 20
134.2988412707
 10
103.3053413491
 20
134.2943222929
 10
103.3236433772
 20
134.2891966772
 10
103.3418073586
 20
134.2834564311
 10
103.3598339764
 20
134.277090346
 10
103.377671026
 20
134.270109401
 10
103.3952777349
 20
134.2625224842
 10
103.4126133309
 20
134.2543384843
 10
103.4296370415
 20
134.2455662894
 10
103.4463080946
 20
134.2362147882
 10
103.4625857177
 20
134.2262928688
 10
103.4784291385
 20
134.2158094199
 10
103.4937975847
 20
134.2047733296
 10
103.5086502841
 20
134.1931934866
 10
103.5219223187
 20
134.181996486
 10
103.5347763778
 20
134.1703589522
 10
103.5472715821
 20
134.1582988838
 10
103.5594670524
 20
134.1458342794
 10
103.5714219094
 20
134.1329831378
 10
103.5831952739
 20
134.1197634577
 10
103.5948462665
 20
134.1061932375
 10
103.6064340081
 20
134.0922904761
 10
103.6110180289
 20
134.0866785638
 10
103.6155274459
 20
134.081000318
 10
103.6198883063
 20
134.0752390027
 10
103.6240266576
 20
134.0693778823
 10
103.6278685471
 20
134.0634002211
 10
103.6313400222
 20
134.0572892833
 10
103.6343671302
 20
134.051028333
 10
103.6368759185
 20
134.0446006347
 10
103.6387924346
 20
134.0379894524
 10
103.6400427257
 20
134.0311780504
  0
LWPOLYLINE
  5
31A
100
AcDbEntity
  8
CURVE
100
AcDbPolyline
 62
250
  6
CONTINUOUS
 90
45
 70
0
 10
103.6518600223
 20
134.0311780504
 10
103.6552776125
 20
134.0392818757
 10
103.6589935551
 20
134.0472157978
 10
103.6629991604
 20
134.0549816422
 10
103.6672857387
 20
134.0625812343
 10
103.6718446001
 20
134.0700163995
 10
103.6766670549
 20
134.0772889634
 10
103.6817444135
 20
134.0844007514
 10
103.687067986
 20
134.0913535889
 10
103.6926290827
 20
134.0981493014
 10
103.6984190138
 20
134.1047897143
 10
103.7044290897
 20
134.1112766531
 10
103.7106506205
 20
134.1176119433
 10
103.7170749165
 20
134.1237974102
 10
103.7236932879
 20
134.1298348793
 10
103.7304970451
 20
134.1357261762
 10
103.7374774983
 20
134.1414731261
 10
103.7446259577
 20
134.1470775547
 10
103.7519337336
 20
134.1525412873
 10
103.7593921362
 20
134.1578661494
 10
103.7669924757
 20
134.1630539665
 10
103.7747260626
 20
134.1681065639
 10
103.7825842069
 20
134.1730257672
 10
103.7905582189
 20
134.1778134017
 10
103.798639409
 20
134.182471293
 10
103.8068190873
 20
134.1870012665
 10
103.8150885641
 20
134.1914051477
 10
103.8234391496
 20
134.1956847619
 10
103.8318621542
 20
134.1998419347
 10
103.840348888
 20
134.2038784915
 10
103.8488906614
 20
134.2077962578
 10
103.8574787845
 20
134.2115970589
 10
103.8661045676
 20
134.2152827204
 10
103.874759321
 20
134.2188550677
 10
103.883434355
 20
134.2223159263
 10
103.8921209797
 20
134.2256671216
 10
103.9008105055
 20
134.228910479
 10
103.9094942425
 20
134.232047824
 10
103.9181635011
 20
134.2350809821
 10
103.9268095915
 20
134.2380117787
 10
103.935423824
 20
134.2408420392
 10
103.9511047356
 20
134.245779476
 10
103.9666818397
 20
134.2504457521
 10
103.9821873601
 20
134.2549008657
 10
103.9976535205
 20
134.2592048152
  0
LWPOLYLINE
  5
31B
100
AcDbEntity
  8
RACCORDO
100
AcDbPolyline
 62
250
  6
CONTINUOUS
 90
6
 70
0
 10
108.7436165907
 20
207.5760048807
 10
108.7439430346
 20
207.5744974899
 10
108.7442505836
 20
207.5700095069
 10
108.7445350965
 20
207.562575352
 10
108.74479031
 20
207.5522518074
 10
108.745015631
 20
207.5390922907
  0
LWPOLYLINE
  5
31C
100
AcDbEntity
  8
0
100
AcDbPolyline
 62
7
  6
CONTINUOUS
 90
10
 70
0
 43
0.3499999917
 10
104.8240942383
 20
218.4046984863
 10
104.8955255127
 20
218.2618359375
 10
104.8955255127
 20
218.1904174805
 10
104.7526693726
 20
218.0475549316
 10
104.6812380981
 20
218.0475549316
 10
104.6098068237
 20
218.1189733887
 10
104.6098068237
 20
218.1904174805
 10
104.6812380981
 20
218.3332800293
 10
104.7526693726
 20
218.4046984863
 10
104.8240942383
 20
218.4046984863
  0
LWPOLYLINE
  5
31D
100
AcDbEntity
  8
CURVE
100
AcDbPolyline
 62
250
  6
CONTINUOUS
 90
48
 70
0
 10
103.9789501947
 20
133.8304339742
 10
103.9727946098
 20
133.8280506949
 10
103.9666585704
 20
133.8255278368
 10
103.9605481279
 20
133.8228667886
 10
103.9544693336
 20
133.8200689391
 10
103.9484282389
 20
133.8171356772
 10
103.9424308954
 20
133.8140683916
 10
103.9364833543
 20
133.810868471
 10
103.930591667
 20
133.8075373044
 10
103.9247618851
 20
133.8040762806
 10
103.9190000599
 20
133.8004867882
 10
103.9133122427
 20
133.7967702161
 10
103.9077044851
 20
133.7929279531
 10
103.9021828384
 20
133.7889613881
 10
103.896753354
 20
133.7848719097
 10
103.8914220833
 20
133.7806609068
 10
103.8861950777
 20
133.7763297683
 10
103.8810783886
 20
133.7718798828
 10
103.8760780675
 20
133.7673126392
 10
103.8712001658
 20
133.7626294263
 10
103.8664507348
 20
133.7578316329
 10
103.8618358259
 20
133.7529206477
 10
103.8573614906
 20
133.7478978597
 10
103.8530337803
 20
133.7427646575
 10
103.8488587463
 20
133.73752243
 10
103.8448424401
 20
133.7321725659
 10
103.8409909131
 20
133.7267164542
 10
103.8373102167
 20
133.7211554835
 10
103.8338064023
 20
133.7154910427
 10
103.8304855213
 20
133.7097245205
 10
103.8273536251
 20
133.7038573058
 10
103.8244861614
 20
133.6980411025
 10
103.8218028279
 20
133.6921370837
 10
103.8193022894
 20
133.6861518645
 10
103.8169832107
 20
133.6800920602
 10
103.8148442565
 20
133.6739642857
 10
103.8128840918
 20
133.6677751565
 10
103.8111013811
 20
133.6615312875
 10
103.8094947894
 20
133.655239294
 10
103.8080629814
 20
133.6489057912
 10
103.806804622
 20
133.6425373942
 10
103.8057183758
 20
133.6361407183
 10
103.8048029076
 20
133.6297223785
 10
103.8040568824
 20
133.6232889901
 10
103.8034789648
 20
133.6168471682
 10
103.8030678196
 20
133.610403528
 10
103.8028221117
 20
133.6039646847
 10
103.8027405057
 20
133.5975372534
  0
LWPOLYLINE
  5
31E
100
AcDbEntity
  8
CURVE
100
AcDbPolyline
 62
250
  6
CONTINUOUS
 90
8
 70
0
 10
104.1751170162
 20
133.8943486271
 10
104.1468231322
 20
133.8860090347
 10
104.1185930132
 20
133.8774807029
 10
104.0904424108
 20
133.8687186609
 10
104.0623870762
 20
133.8596779378
 10
104.0344427611
 20
133.8503135629
 10
104.0066252168
 20
133.8405805652
 10
103.9789501947
 20
133.8304339742
  0
LINE
  5
31F
100
AcDbEntity
  8
CURVE
100
AcDbLine
 62
250
  6
CONTINUOUS
 10
104.5853664663
 20
134.0129722153
 11
104.3169916118
 21
133.934789476
  0
LINE
  5
320
100
AcDbEntity
  8
CURVE
100
AcDbLine
 62
250
  6
CONTINUOUS
 10
104.2318330736
 20
133.9106414768
 11
104.1751170162
 21
133.8943486271
  0
LINE
  5
321
100
AcDbEntity
  8
CURVE
100
AcDbLine
 62
250
  6
CONTINUOUS
 10
103.279509201
 20
129.5863737389
 11
104.585366201
 21
130.0760877389
  0
LINE
  5
322
100
AcDbEntity
  8
CURVE
100
AcDbLine
 62
250
  6
CONTINUOUS
 10
103.695844201
 20
130.1076407389
 11
102.585528201
 21
129.6946047389
  0
LINE
  5
323
100
AcDbEntity
  8
CURVE
100
AcDbLine
 62
250
  6
CONTINUOUS
 10
104.585366201
 20
132.8353667389
 11
102.585528201
 21
132.2217667389
  0
LINE
  5
324
100
AcDbEntity
  8
CURVE
100
AcDbLine
 62
250
  6
CONTINUOUS
 10
102.585528201
 20
126.6551607389
 11
104.585366201
 21
127.2891477389
  0
LINE
  5
325
100
AcDbEntity
  8
RACCORDO
100
AcDbLine
 62
250
  6
CONTINUOUS
 10
108.938381201
 20
206.8762447532
 11
108.7436165907
 21
206.8762447532
  0
LINE
  5
326
100
AcDbEntity
  8
RACCORDO
100
AcDbLine
 62
7
  6
CONTINUOUS
 10
106.038381201
 20
209.1546997389
 11
101.638381201
 21
209.1546997389
  0
LINE
  5
327
100
AcDbEntity
  8
0
100
AcDbLine
 62
7
  6
CONTINUOUS
 10
106.038381201
 20
209.1546997389
 11
101.638381201
 21
209.1546997389
  0
LINE
  5
328
100
AcDbEntity
  8
RACCORDO
100
AcDbLine
 62
250
  6
CONTINUOUS
 10
106.038381201
 20
206.9470838349
 11
108.7436165907
 21
206.8762447532
  0
LINE
  5
329
100
AcDbEntity
  8
RACCORDO
100
AcDbLine
 62
7
  6
CONTINUOUS
 10
106.038381201
 20
207.6468439624
 11
108.7436165907
 21
207.5760048807
  0
LWPOLYLINE
  5
32A
100
AcDbEntity
  8
0
100
AcDbPolyline
 62
7
  6
CONTINUOUS
 90
13
 70
0
 43
0.3499999917
 10
106.3240933228
 20
219.6189916992
 10
106.0383810425
 20
219.8332727051
 10
106.0383810425
 20
220.4761157227
 10
106.3240933228
 20
220.9047033691
 10
106.9669555664
 20
220.9047033691
 10
107.2526678467
 20
220.4761157227
 10
107.2526678467
 20
219.8332727051
 10
106.9669555664
 20
219.6189916992
 10
107.3955239868
 20
219.1904040527
 10
107.3955239868
 20
218.3332800293
 10
106.9669555664
 20
217.9046923828
 10
106.3240933228
 20
217.9046923828
 10
105.8955249023
 20
218.3332800293
  0
ARC
  5
32B
100
AcDbEntity
  8
RACCORDO
100
AcDbCircle
 62
250
  6
CONTINUOUS
 10
151.984921671
 20
138.9296997389
 40
0.9
100
AcDbArc
 50
180.0
 51
270.0
  0
ARC
  5
32C
100
AcDbEntity
  8
RACCORDO
100
AcDbCircle
 62
250
  6
CONTINUOUS
 10
196.334921671
 20
138.9296997389
 40
0.9
100
AcDbArc
 50
270.0
 51
360.0
  0
ARC
  5
32D
100
AcDbEntity
  8
RACCORDO
100
AcDbCircle
 62
250
  6
CONTINUOUS
 10
222.984921671
 20
138.9296997389
 40
0.9
100
AcDbArc
 50
180.0
 51
270.0
  0
ARC
  5
32E
100
AcDbEntity
  8
0
100
AcDbCircle
 62
250
  6
CONTINUOUS
 10
222.984921671
 20
138.9296997389
 40
0.9
100
AcDbArc
 50
180.0
 51
270.0
  0
ARC
  5
32F
100
AcDbEntity
  8
0
100
AcDbCircle
 62
250
  6
CONTINUOUS
 10
196.334921671
 20
138.9296997389
 40
0.9
100
AcDbArc
 50
270.0
 51
360.0
  0
ARC
  5
330
100
AcDbEntity
  8
0
100
AcDbCircle
 62
250
  6
CONTINUOUS
 10
151.984921671
 20
138.9296997389
 40
0.9
100
AcDbArc
 50
180.0
 51
270.0
  0
ARC
  5
331
100
AcDbEntity
  8
RACCORDO
100
AcDbCircle
 62
7
  6
CONTINUOUS
 10
221.814921671
 20
146.8546997389
 40
0.6
100
AcDbArc
 50
341.8737236061
 51
18.1329062449
  0
ARC
  5
332
100
AcDbEntity
  8
RACCORDO
100
AcDbCircle
 62
7
  6
CONTINUOUS
 10
197.504921671
 20
146.8546997389
 40
0.6
100
AcDbArc
 50
161.8828658156
 51
198.120235961
  0
ARC
  5
333
100
AcDbEntity
  8
RACCORDO
100
AcDbCircle
 62
7
  6
CONTINUOUS
 10
150.814921671
 20
146.8546997389
 40
0.6
100
AcDbArc
 50
341.8828658156
 51
18.120235961
  0
ARC
  5
334
100
AcDbEntity
  8
RACCORDO
100
AcDbCircle
 62
7
  6
CONTINUOUS
 10
222.984921671
 20
138.9296997389
 40
0.6
100
AcDbArc
 50
180.0
 51
270.0
  0
ARC
  5
335
100
AcDbEntity
  8
RACCORDO
100
AcDbCircle
 62
7
  6
CONTINUOUS
 10
151.984921671
 20
138.9296997389
 40
0.6
100
AcDbArc
 50
180.0
 51
270.0
  0
ARC
  5
336
100
AcDbEntity
  8
RACCORDO
100
AcDbCircle
 62
7
  6
CONTINUOUS
 10
196.334921671
 20
138.9296997389
 40
0.6
100
AcDbArc
 50
270.0
 51
360.0
  0
ARC
  5
337
100
AcDbEntity
  8
0
100
AcDbCircle
 62
7
  6
CONTINUOUS
 10
196.334921671
 20
138.9296997389
 40
0.6
100
AcDbArc
 50
270.0
 51
360.0
  0
ARC
  5
338
100
AcDbEntity
  8
0
100
AcDbCircle
 62
7
  6
CONTINUOUS
 10
151.984921671
 20
138.9296997389
 40
0.6
100
AcDbArc
 50
180.0
 51
270.0
  0
ARC
  5
339
100
AcDbEntity
  8
0
100
AcDbCircle
 62
7
  6
CONTINUOUS
 10
222.984921671
 20
138.9296997389
 40
0.6
100
AcDbArc
 50
180.0
 51
270.0
  0
ARC
  5
33A
100
AcDbEntity
  8
RACCORDO
100
AcDbCircle
 62
250
  6
CONTINUOUS
 10
151.984921671
 20
191.3796997389
 40
0.9
100
AcDbArc
 50
90.0
 51
180.0
  0
ARC
  5
33B
100
AcDbEntity
  8
RACCORDO
100
AcDbCircle
 62
250
  6
CONTINUOUS
 10
196.334921671
 20
191.3796997389
 40
0.9
100
AcDbArc
 50
0.0
 51
90.0
  0
ARC
  5
33C
100
AcDbEntity
  8
RACCORDO
100
AcDbCircle
 62
250
  6
CONTINUOUS
 10
222.984921671
 20
191.3796997389
 40
0.9
100
AcDbArc
 50
90.0
 51
180.0
  0
ARC
  5
33D
100
AcDbEntity
  8
0
100
AcDbCircle
 62
250
  6
CONTINUOUS
 10
151.984921671
 20
191.3796997389
 40
0.9
100
AcDbArc
 50
90.0
 51
180.0
  0
ARC
  5
33E
100
AcDbEntity
  8
0
100
AcDbCircle
 62
250
  6
CONTINUOUS
 10
222.984921671
 20
191.3796997389
 40
0.9
100
AcDbArc
 50
90.0
 51
180.0
  0
ARC
  5
33F
100
AcDbEntity
  8
0
100
AcDbCircle
 62
250
  6
CONTINUOUS
 10
196.334921671
 20
191.3796997389
 40
0.9
100
AcDbArc
 50
0.0
 51
90.0
  0
ARC
  5
340
100
AcDbEntity
  8
RACCORDO
100
AcDbCircle
 62
7
  6
CONTINUOUS
 10
221.814921671
 20
183.4546997389
 40
0.6
100
AcDbArc
 50
341.8737236061
 51
18.1329062449
  0
ARC
  5
341
100
AcDbEntity
  8
RACCORDO
100
AcDbCircle
 62
7
  6
CONTINUOUS
 10
197.504921671
 20
183.4546997389
 40
0.6
100
AcDbArc
 50
161.8828658156
 51
198.120235961
  0
ARC
  5
342
100
AcDbEntity
  8
RACCORDO
100
AcDbCircle
 62
7
  6
CONTINUOUS
 10
150.814921671
 20
183.4546997389
 40
0.6
100
AcDbArc
 50
341.8828658156
 51
18.120235961
  0
ARC
  5
343
100
AcDbEntity
  8
RACCORDO
100
AcDbCircle
 62
7
  6
CONTINUOUS
 10
222.984921671
 20
191.3796997389
 40
0.6
100
AcDbArc
 50
90.0
 51
180.0
  0
ARC
  5
344
100
AcDbEntity
  8
RACCORDO
100
AcDbCircle
 62
7
  6
CONTINUOUS
 10
151.984921671
 20
191.3796997389
 40
0.6
100
AcDbArc
 50
90.0
 51
180.0
  0
ARC
  5
345
100
AcDbEntity
  8
RACCORDO
100
AcDbCircle
 62
7
  6
CONTINUOUS
 10
196.334921671
 20
191.3796997389
 40
0.6
100
AcDbArc
 50
0.0
 51
90.0
  0
ARC
  5
346
100
AcDbEntity
  8
0
100
AcDbCircle
 62
7
  6
CONTINUOUS
 10
196.334921671
 20
191.3796997389
 40
0.6
100
AcDbArc
 50
0.0
 51
90.0
  0
ARC
  5
347
100
AcDbEntity
  8
0
100
AcDbCircle
 62
7
  6
CONTINUOUS
 10
151.984921671
 20
191.3796997389
 40
0.6
100
AcDbArc
 50
90.0
 51
180.0
  0
ARC
  5
348
100
AcDbEntity
  8
0
100
AcDbCircle
 62
7
  6
CONTINUOUS
 10
222.984921671
 20
191.3796997389
 40
0.6
100
AcDbArc
 50
90.0
 51
180.0
  0
ARC
  5
349
100
AcDbEntity
  8
RACCORDO
100
AcDbCircle
 62
250
  6
CONTINUOUS
 10
293.984921671
 20
138.9296997389
 40
0.9
100
AcDbArc
 50
180.0
 51
270.0
  0
ARC
  5
34A
100
AcDbEntity
  8
RACCORDO
100
AcDbCircle
 62
250
  6
CONTINUOUS
 10
338.334921671
 20
138.9296997389
 40
0.9
100
AcDbArc
 50
270.0
 51
360.0
  0
ARC
  5
34B
100
AcDbEntity
  8
RACCORDO
100
AcDbCircle
 62
250
  6
CONTINUOUS
 10
267.334921671
 20
138.9296997389
 40
0.9
100
AcDbArc
 50
270.0
 51
360.0
  0
ARC
  5
34C
100
AcDbEntity
  8
0
100
AcDbCircle
 62
250
  6
CONTINUOUS
 10
338.334921671
 20
138.9296997389
 40
0.9
100
AcDbArc
 50
270.0
 51
360.0
  0
ARC
  5
34D
100
AcDbEntity
  8
0
100
AcDbCircle
 62
250
  6
CONTINUOUS
 10
267.334921671
 20
138.9296997389
 40
0.9
100
AcDbArc
 50
270.0
 51
360.0
  0
ARC
  5
34E
100
AcDbEntity
  8
0
100
AcDbCircle
 62
250
  6
CONTINUOUS
 10
293.984921671
 20
138.9296997389
 40
0.9
100
AcDbArc
 50
180.0
 51
270.0
  0
ARC
  5
34F
100
AcDbEntity
  8
RACCORDO
100
AcDbCircle
 62
7
  6
CONTINUOUS
 10
268.504921671
 20
146.8546997389
 40
0.6
100
AcDbArc
 50
161.8737236061
 51
198.1329062449
  0
ARC
  5
350
100
AcDbEntity
  8
RACCORDO
100
AcDbCircle
 62
7
  6
CONTINUOUS
 10
292.814921671
 20
146.8546997389
 40
0.6
100
AcDbArc
 50
341.8828658156
 51
18.120235961
  0
ARC
  5
351
100
AcDbEntity
  8
RACCORDO
100
AcDbCircle
 62
7
  6
CONTINUOUS
 10
339.504921671
 20
146.8546997389
 40
0.6
100
AcDbArc
 50
161.8828658156
 51
198.120235961
  0
ARC
  5
352
100
AcDbEntity
  8
RACCORDO
100
AcDbCircle
 62
7
  6
CONTINUOUS
 10
338.334921671
 20
138.9296997389
 40
0.6
100
AcDbArc
 50
270.0
 51
360.0
  0
ARC
  5
353
100
AcDbEntity
  8
RACCORDO
100
AcDbCircle
 62
7
  6
CONTINUOUS
 10
293.984921671
 20
138.9296997389
 40
0.6
100
AcDbArc
 50
180.0
 51
270.0
  0
ARC
  5
354
100
AcDbEntity
  8
RACCORDO
100
AcDbCircle
 62
7
  6
CONTINUOUS
 10
267.334921671
 20
138.9296997389
 40
0.6
100
AcDbArc
 50
270.0
 51
360.0
  0
ARC
  5
355
100
AcDbEntity
  8
0
100
AcDbCircle
 62
7
  6
CONTINUOUS
 10
338.334921671
 20
138.9296997389
 40
0.6
100
AcDbArc
 50
270.0
 51
360.0
  0
ARC
  5
356
100
AcDbEntity
  8
0
100
AcDbCircle
 62
7
  6
CONTINUOUS
 10
267.334921671
 20
138.9296997389
 40
0.6
100
AcDbArc
 50
270.0
 51
360.0
  0
ARC
  5
357
100
AcDbEntity
  8
0
100
AcDbCircle
 62
7
  6
CONTINUOUS
 10
293.984921671
 20
138.9296997389
 40
0.6
100
AcDbArc
 50
180.0
 51
270.0
  0
ARC
  5
358
100
AcDbEntity
  8
RACCORDO
100
AcDbCircle
 62
250
  6
CONTINUOUS
 10
338.334921671
 20
191.3796997389
 40
0.9
100
AcDbArc
 50
0.0
 51
90.0
  0
ARC
  5
359
100
AcDbEntity
  8
RACCORDO
100
AcDbCircle
 62
250
  6
CONTINUOUS
 10
293.984921671
 20
191.3796997389
 40
0.9
100
AcDbArc
 50
90.0
 51
180.0
  0
ARC
  5
35A
100
AcDbEntity
  8
RACCORDO
100
AcDbCircle
 62
250
  6
CONTINUOUS
 10
267.334921671
 20
191.3796997389
 40
0.9
100
AcDbArc
 50
0.0
 51
90.0
  0
ARC
  5
35B
100
AcDbEntity
  8
0
100
AcDbCircle
 62
250
  6
CONTINUOUS
 10
267.334921671
 20
191.3796997389
 40
0.9
100
AcDbArc
 50
0.0
 51
90.0
  0
ARC
  5
35C
100
AcDbEntity
  8
0
100
AcDbCircle
 62
250
  6
CONTINUOUS
 10
293.984921671
 20
191.3796997389
 40
0.9
100
AcDbArc
 50
90.0
 51
180.0
  0
ARC
  5
35D
100
AcDbEntity
  8
0
100
AcDbCircle
 62
250
  6
CONTINUOUS
 10
338.334921671
 20
191.3796997389
 40
0.9
100
AcDbArc
 50
0.0
 51
90.0
  0
ARC
  5
35E
100
AcDbEntity
  8
RACCORDO
100
AcDbCircle
 62
7
  6
CONTINUOUS
 10
268.504921671
 20
183.4546997389
 40
0.6
100
AcDbArc
 50
161.8734966946
 51
198.1324147973
  0
ARC
  5
35F
100
AcDbEntity
  8
RACCORDO
100
AcDbCircle
 62
7
  6
CONTINUOUS
 10
292.814921671
 20
183.4546997389
 40
0.6
100
AcDbArc
 50
341.8828658156
 51
18.120235961
  0
ARC
  5
360
100
AcDbEntity
  8
RACCORDO
100
AcDbCircle
 62
7
  6
CONTINUOUS
 10
339.504921671
 20
183.4546997389
 40
0.6
100
AcDbArc
 50
161.8828658156
 51
198.120235961
  0
ARC
  5
361
100
AcDbEntity
  8
RACCORDO
100
AcDbCircle
 62
7
  6
CONTINUOUS
 10
338.334921671
 20
191.3796997389
 40
0.6
100
AcDbArc
 50
0.0
 51
90.0
  0
ARC
  5
362
100
AcDbEntity
  8
RACCORDO
100
AcDbCircle
 62
7
  6
CONTINUOUS
 10
293.984921671
 20
191.3796997389
 40
0.6
100
AcDbArc
 50
90.0
 51
180.0
  0
ARC
  5
363
100
AcDbEntity
  8
RACCORDO
100
AcDbCircle
 62
7
  6
CONTINUOUS
 10
267.334921671
 20
191.3796997389
 40
0.6
100
AcDbArc
 50
0.0
 51
90.0
  0
ARC
  5
364
100
AcDbEntity
  8
0
100
AcDbCircle
 62
7
  6
CONTINUOUS
 10
338.334921671
 20
191.3796997389
 40
0.6
100
AcDbArc
 50
0.0
 51
90.0
  0
ARC
  5
365
100
AcDbEntity
  8
0
100
AcDbCircle
 62
7
  6
CONTINUOUS
 10
267.334921671
 20
191.3796997389
 40
0.6
100
AcDbArc
 50
0.0
 51
90.0
  0
ARC
  5
366
100
AcDbEntity
  8
0
100
AcDbCircle
 62
7
  6
CONTINUOUS
 10
293.984921671
 20
191.3796997389
 40
0.6
100
AcDbArc
 50
90.0
 51
180.0
  0
ARC
  5
367
100
AcDbEntity
  8
RACCORDO
100
AcDbCircle
 62
7
  6
CONTINUOUS
 10
101.638381201
 20
121.6546997389
 40
0.5
100
AcDbArc
 50
180.0
 51
270.0
  0
ARC
  5
368
100
AcDbEntity
  8
RACCORDO
100
AcDbCircle
 62
7
  6
CONTINUOUS
 10
101.638381201
 20
208.6546997389
 40
0.5
100
AcDbArc
 50
90.0
 51
180.0
  0
ARC
  5
369
100
AcDbEntity
  8
0
100
AcDbCircle
 62
7
  6
CONTINUOUS
 10
101.638381201
 20
208.6546997389
 40
0.5
100
AcDbArc
 50
90.0
 51
180.0
  0
ARC
  5
36A
100
AcDbEntity
  8
0
100
AcDbCircle
 62
7
  6
CONTINUOUS
 10
101.638381201
 20
121.6546997389
 40
0.5
100
AcDbArc
 50
180.0
 51
270.0
  0
ARC
  5
36B
100
AcDbEntity
  8
RACCORDO
100
AcDbCircle
 62
7
  6
CONTINUOUS
 10
108.738381201
 20
207.3760734157
 40
0.2
100
AcDbArc
 50
0.0
 51
88.5
  0
ARC
  5
36C
100
AcDbEntity
  8
RACCORDO
100
AcDbCircle
 62
7
  6
CONTINUOUS
 10
108.738381201
 20
122.9333260621
 40
0.2
100
AcDbArc
 50
271.5
 51
360.0
  0
ENDSEC
  0
SECTION
  2
OBJECTS
  0
DICTIONARY
  5
C
100
AcDbDictionary
280
0
281
1
  3
ACAD_GROUP
350
D
  3
ACAD_MLINESTYLE
350
17
  3
ACAD_LAYOUT
350
1A
  3
ACAD_PLOTSETTINGS
350
19
  3
ACAD_PLOTSTYLENAME
350
E
  0
DICTIONARY
  5
D
102
{ACAD_REACTORS
330
C
102
}
100
AcDbDictionary
280
0
281
1
  0
ACDBDICTIONARYWDFLT
  5
E
102
{ACAD_REACTORS
330
C
102
}
100
AcDbDictionary
281
1
  3
Normal
350
F
100
AcDbDictionaryWithDefault
340
F
  0
DICTIONARY
  5
17
102
{ACAD_REACTORS
330
C
102
}
100
AcDbDictionary
280
0
281
1
  3
Standard
350
18
  0
DICTIONARY
  5
19
102
{ACAD_REACTORS
330
C
102
}
100
AcDbDictionary
281
1
  0
DICTIONARY
  5
1A
102
{ACAD_REACTORS
330
C
102
}
100
AcDbDictionary
281
1
  3
Model
350
36D
  3
Layout1
350
36E
  0
ACDBPLACEHOLDER
  5
F
102
{ACAD_REACTORS
330
E
102
}
  0
MLINESTYLE
  5
18
102
{ACAD_REACTORS
330
17
102
}
100
AcDbMlineStyle
  2
STANDARD
 70
0
  3

 62
256
 51
90.0
 52
90.0
 71
2
 49
0.5
 62
256
  6
BYLAYER
 49
-0.5
 62
256
  6
BYLAYER
  0
LAYOUT
  5
36D
102
{ACAD_REACTORS
330
1A
102
}
100
AcDbPlotSettings
  1

  2
none_device
  4
ISO_A3_(420.00_x_297.00_MM)
  6

 40
0.0
 41
0.0
 42
0.0
 43
0.0
 44
420.0
 45
297.0
 46
0.0
 47
0.0
 48
0.0
 49
0.0
140
0.0
141
0.0
142
1.0
143
1.0
 70
1024
 72
1
 73
0
 74
0
  7

 75
0
147
1.0
148
0.0
149
0.0
100
AcDbLayout
  1
Model
 70
0
 71
0
 10
0.0
 20
0.0
 11
420.0
 21
297.0
 12
0.0
 22
0.0
 32
0.0
 14
0.0
 24
0.0
 34
0.0
 15
0.0
 25
0.0
 35
0.0
146
0.0
 13
0.0
 23
0.0
 33
0.0
 16
1.0
 26
0.0
 36
0.0
 17
0.0
 27
1.0
 37
0.0
 76
0
330
214
345
0
346
0
  0
LAYOUT
  5
36E
102
{ACAD_REACTORS
330
1A
102
}
100
AcDbPlotSettings
  1

  2
none_device
  4
ISO_A3_(420.00_x_297.00_MM)
  6

 40
0.0
 41
0.0
 42
0.0
 43
0.0
 44
420.0
 45
297.0
 46
0.0
 47
0.0
 48
0.0
 49
0.0
140
0.0
141
0.0
142
1.0
143
1.0
 70
0
 72
1
 73
0
 74
0
  7

 75
0
147
1.0
148
0.0
149
0.0
100
AcDbLayout
  1
Layout1
 70
0
 71
1
 10
0.0
 20
0.0
 11
420.0
 21
297.0
 12
0.0
 22
0.0
 32
0.0
 14
0.0
 24
0.0
 34
0.0
 15
0.0
 25
0.0
 35
0.0
146
0.0
 13
0.0
 23
0.0
 33
0.0
 16
1.0
 26
0.0
 36
0.0
 17
0.0
 27
1.0
 37
0.0
 76
0
330
215
345
0
346
0
  0
ENDSEC
  0
EOF
