  0
SECTION
  2
HEADER
  9
$ACADVER
  1
AC1024
  9
$DWGCODEPAGE
  3
ANSI_1252
  9
$EXTMAX
 10
420.0
 20
297.0
 30
0.0
  9
$EXTMIN
 10
0.0
 20
0.0
 30
0.0
  9
$LIMMIN
 10
0.0
 20
0.0
  9
$LIMMAX
 10
420.0
 20
297.0
  9
$VIEWCTR
 10
210.0
 20
148.5
  9
$VIEWSIZE
 40
297.0
  9
$CLAYER
  8
0
  9
$LTSCALE
 40
23.1
  9
$CELTYPE
  6
BYLAYER
  9
$DIMSCALE
 40
1.0
  9
$DIMASZ
 40
3.0
  9
$DIMEXO
 40
0.5
  9
$DIMDLI
 40
15.96
  9
$DIMEXE
 40
1.5
  9
$DIMCEN
 40
3.78
  9
$DIMLFAC
 40
1.0
  9
$DIMBLK
  1
_FILLED
  9
$DIMALT
 70
0
  9
$DIMALTF
 40
0.0393700787
  9
$DIMTXT
 40
3.0
  9
$DIMTOL
 70
1
  9
$DIMLIM
 70
0
  9
$DIMTFAC
 40
1.0
  9
$DIMTP
 40
0.01
  9
$DIMTM
 40
0.01
  9
$DIMGAP
 40
0.625
  9
$DIMDSEP
 70
44
  9
$AUNITS
 70
0
  9
$PDMODE
 70
3
  9
$PDSIZE
 40
3.0
  9
$HANDSEED
  5
442
  9
$TILEMODE
 70
1
  9
$MEASUREMENT
 70
1
  9
$INSUNITS
 70
4
  0
ENDSEC
  0
SECTION
  2
CLASSES
  0
CLASS
  1
ACDBDICTIONARYWDFLT
  2
AcDbDictionaryWithDefault
  3
AutoCAD 2000
 90
0
 91
1
280
0
281
0
  0
CLASS
  1
ACDBPLACEHOLDER
  2
AcDbPlaceHolder
  3
AutoCAD 2000
 90
0
 91
1
280
0
281
0
  0
CLASS
  1
LAYOUT
  2
AcDbLayout
  3
AutoCAD 2000
 90
0
 91
0
280
0
281
0
  0
ENDSEC
  0
SECTION
  2
TABLES
  0
TABLE
  2
VPORT
  5
8
100
AcDbSymbolTable
 70
2
  0
VPORT
  5
1F4
100
AcDbSymbolTableRecord
100
AcDbViewportTableRecord
  2
*ACTIVE
 70
0
 10
0.0
 20
0.0
 11
1.0
 21
1.0
 12
210.0
 22
148.5
 13
0.0
 23
0.0
 14
1.0
 24
1.0
 15
0.0
 25
0.0
 16
0.0
 26
0.0
 36
1.0
 17
0.0
 27
0.0
 37
0.0
 40
297.0
 41
1.4141414141
 42
50.0
 43
0.0
 44
0.0
 50
0.0
 51
0.0
 71
0
 72
100
 73
1
 74
1
 75
0
 76
0
 77
0
 78
0
  0
ENDTAB
  0
TABLE
  2
LTYPE
  5
5
100
AcDbSymbolTable
 70
6
  0
LTYPE
  5
14
100
AcDbSymbolTableRecord
100
AcDbLinetypeTableRecord
  2
BYBLOCK
 70
0
  3

 72
65
 73
0
 40
0.0
  0
LTYPE
  5
15
100
AcDbSymbolTableRecord
100
AcDbLinetypeTableRecord
  2
BYLAYER
 70
0
  3

 72
65
 73
0
 40
0.0
  0
LTYPE
  5
16
100
AcDbSymbolTableRecord
100
AcDbLinetypeTableRecord
  2
CONTINUOUS
 70
64
  3
Solid line
 72
65
 73
0
 40
0.0
  0
LTYPE
  5
1F5
100
AcDbSymbolTableRecord
100
AcDbLinetypeTableRecord
  2
CENTER
 70
64
  3
____ _ ____ _ ____ _ ____ _ ____ _ ____ _ ____
 72
65
 73
4
 40
0.6
 49
0.375
 74
0
 49
-0.075
 74
0
 49
0.075
 74
0
 49
-0.075
 74
0
  0
LTYPE
  5
1F6
100
AcDbSymbolTableRecord
100
AcDbLinetypeTableRecord
  2
HIDDEN
 70
64
  3
- - - - - - - - - - - - - - - - - - - -
 72
65
 73
2
 40
0.2
 49
0.1
 74
0
 49
-0.1
 74
0
  0
LTYPE
  5
1F7
100
AcDbSymbolTableRecord
100
AcDbLinetypeTableRecord
  2
PHANTOM
 70
64
  3
_____ _ _ _____ _ _ _____ _ _ _____
 72
65
 73
6
 40
0.8
 49
0.45
 74
0
 49
-0.05
 74
0
 49
0.1
 74
0
 49
-0.05
 74
0
 49
0.1
 74
0
 49
-0.05
 74
0
  0
LTYPE
  5
1F8
100
AcDbSymbolTableRecord
100
AcDbLinetypeTableRecord
  2
DOT
 70
64
  3
. . . . . . . . . . . . . . . . . . . .
 72
65
 73
2
 40
0.2
 49
0.1
 74
0
 49
-0.1
 74
0
  0
LTYPE
  5
1F9
100
AcDbSymbolTableRecord
100
AcDbLinetypeTableRecord
  2
DASHED
 70
64
  3
- - - - - - - - - - - - - - - - - - - -
 72
65
 73
2
 40
0.2
 49
0.1
 74
0
 49
-0.1
 74
0
  0
ENDTAB
  0
TABLE
  2
LAYER
  5
2
100
AcDbSymbolTable
 70
36
  0
LAYER
  5
10
100
AcDbSymbolTableRecord
100
AcDbLayerTableRecord
  2
0
 70
0
 62
7
  6
CONTINUOUS
370
-3
390
F
  0
LAYER
  5
1FA
100
AcDbSymbolTableRecord
100
AcDbLayerTableRecord
  2
DEFAULT_1
 70
0
 62
7
  6
CENTER
370
-3
390
F
  0
LAYER
  5
1FB
100
AcDbSymbolTableRecord
100
AcDbLayerTableRecord
  2
DEFAULT_2
 70
0
 62
7
  6
HIDDEN
370
-3
390
F
  0
LAYER
  5
1FC
100
AcDbSymbolTableRecord
100
AcDbLayerTableRecord
  2
DEFAULT_3
 70
0
 62
7
  6
PHANTOM
370
-3
390
F
  0
LAYER
  5
1FD
100
AcDbSymbolTableRecord
100
AcDbLayerTableRecord
  2
ASSI
 70
0
 62
7
  6
CONTINUOUS
370
-3
390
F
  0
LAYER
  5
1FE
100
AcDbSymbolTableRecord
100
AcDbLayerTableRecord
  2
COORDINATE
 70
0
 62
7
  6
CONTINUOUS
370
-3
390
F
  0
LAYER
  5
1FF
100
AcDbSymbolTableRecord
100
AcDbLayerTableRecord
  2
COPY_PUBLISH
 70
0
 62
7
  6
CONTINUOUS
370
-3
390
F
  0
LAYER
  5
200
100
AcDbSymbolTableRecord
100
AcDbLayerTableRecord
  2
COSMETICI
 70
0
 62
7
  6
CONTINUOUS
370
-3
390
F
  0
LAYER
  5
201
100
AcDbSymbolTableRecord
100
AcDbLayerTableRecord
  2
CURVE
 70
0
 62
7
  6
CONTINUOUS
370
-3
390
F
  0
LAYER
  5
202
100
AcDbSymbolTableRecord
100
AcDbLayerTableRecord
  2
DRAFT
 70
0
 62
7
  6
CONTINUOUS
370
-3
390
F
  0
LAYER
  5
203
100
AcDbSymbolTableRecord
100
AcDbLayerTableRecord
  2
IMPORT_IGES
 70
0
 62
7
  6
CONTINUOUS
370
-3
390
F
  0
LAYER
  5
204
100
AcDbSymbolTableRecord
100
AcDbLayerTableRecord
  2
INTF_1
 70
0
 62
7
  6
CONTINUOUS
370
-3
390
F
  0
LAYER
  5
205
100
AcDbSymbolTableRecord
100
AcDbLayerTableRecord
  2
INTF_11
 70
0
 62
7
  6
CONTINUOUS
370
-3
390
F
  0
LAYER
  5
206
100
AcDbSymbolTableRecord
100
AcDbLayerTableRecord
  2
INTF_13
 70
0
 62
7
  6
CONTINUOUS
370
-3
390
F
  0
LAYER
  5
207
100
AcDbSymbolTableRecord
100
AcDbLayerTableRecord
  2
INTF_2
 70
0
 62
7
  6
CONTINUOUS
370
-3
390
F
  0
LAYER
  5
208
100
AcDbSymbolTableRecord
100
AcDbLayerTableRecord
  2
INTF_4
 70
0
 62
7
  6
CONTINUOUS
370
-3
390
F
  0
LAYER
  5
209
100
AcDbSymbolTableRecord
100
AcDbLayerTableRecord
  2
NOTE
 70
0
 62
7
  6
CONTINUOUS
370
-3
390
F
  0
LAYER
  5
20A
100
AcDbSymbolTableRecord
100
AcDbLayerTableRecord
  2
PIANI
 70
0
 62
7
  6
CONTINUOUS
370
-3
390
F
  0
LAYER
  5
20B
100
AcDbSymbolTableRecord
100
AcDbLayerTableRecord
  2
PUNTI
 70
0
 62
7
  6
CONTINUOUS
370
-3
390
F
  0
LAYER
  5
20C
100
AcDbSymbolTableRecord
100
AcDbLayerTableRecord
  2
RACCORDO
 70
0
 62
7
  6
CONTINUOUS
370
-3
390
F
  0
LAYER
  5
20D
100
AcDbSymbolTableRecord
100
AcDbLayerTableRecord
  2
RGB____0____0____0__
 70
0
 62
7
  6
CONTINUOUS
370
-3
390
F
  0
LAYER
  5
20E
100
AcDbSymbolTableRecord
100
AcDbLayerTableRecord
  2
SCRITTE
 70
0
 62
7
  6
CONTINUOUS
370
-3
390
F
  0
LAYER
  5
20F
100
AcDbSymbolTableRecord
100
AcDbLayerTableRecord
  2
SIMBOLI
 70
0
 62
7
  6
CONTINUOUS
370
-3
390
F
  0
LAYER
  5
210
100
AcDbSymbolTableRecord
100
AcDbLayerTableRecord
  2
SMUSSO
 70
0
 62
7
  6
CONTINUOUS
370
-3
390
F
  0
LAYER
  5
211
100
AcDbSymbolTableRecord
100
AcDbLayerTableRecord
  2
SNAPLINE
 70
0
 62
7
  6
CONTINUOUS
370
-3
390
F
  0
LAYER
  5
212
100
AcDbSymbolTableRecord
100
AcDbLayerTableRecord
  2
SUPERFICI
 70
0
 62
7
  6
CONTINUOUS
370
-3
390
F
  0
LAYER
  5
213
100
AcDbSymbolTableRecord
100
AcDbLayerTableRecord
  2
TRASH
 70
0
 62
7
  6
CONTINUOUS
370
-3
390
F
  0
ENDTAB
  0
TABLE
  2
STYLE
  5
3
100
AcDbSymbolTable
 70
1
  0
STYLE
  5
11
100
AcDbSymbolTableRecord
100
AcDbTextStyleTableRecord
  2
STANDARD
 70
0
 40
0.0
 41
0.8
 50
0.0
 71
0
 42
0.2
  3
txt
  4

  0
STYLE
  5
214
100
AcDbSymbolTableRecord
100
AcDbTextStyleTableRecord
  2
TEXTSTYLE_1
 70
0
 40
0.0
 41
0.8
 50
0.0
 71
0
 42
0.2
  3
gdt
  4

  0
ENDTAB
  0
TABLE
  2
VIEW
  5
6
100
AcDbSymbolTable
 70
0
  0
ENDTAB
  0
TABLE
  2
UCS
  5
7
100
AcDbSymbolTable
 70
0
  0
ENDTAB
  0
TABLE
  2
APPID
  5
9
100
AcDbSymbolTable
 70
1
  0
APPID
  5
215
100
AcDbSymbolTableRecord
100
AcDbRegAppTableRecord
  2
ACAD
 70
0
  0
ENDTAB
  0
TABLE
  2
BLOCK_RECORD
  5
1
100
AcDbSymbolTable
 70
0
  0
BLOCK_RECORD
  5
216
100
AcDbSymbolTableRecord
100
AcDbBlockTableRecord
  2
*Model_Space
  0
BLOCK_RECORD
  5
217
100
AcDbSymbolTableRecord
100
AcDbBlockTableRecord
  2
*Paper_Space
  0
BLOCK_RECORD
  5
218
100
AcDbSymbolTableRecord
100
AcDbBlockTableRecord
  2
_FILLED
  0
BLOCK_RECORD
  5
219
100
AcDbSymbolTableRecord
100
AcDbBlockTableRecord
  2
*D0
  0
BLOCK_RECORD
  5
21A
100
AcDbSymbolTableRecord
100
AcDbBlockTableRecord
  2
*D1
  0
BLOCK_RECORD
  5
21B
100
AcDbSymbolTableRecord
100
AcDbBlockTableRecord
  2
*D2
  0
ENDTAB
  0
TABLE
  2
DIMSTYLE
  5
A
100
AcDbSymbolTable
 70
1
100
AcDbDimStyleTable
 71
0
  0
DIMSTYLE
105
21C
100
AcDbSymbolTableRecord
100
AcDbDimStyleTableRecord
  2
STANDARD
 70
0
  3

  4

 40
1.0
 41
3.0
 42
0.5
 43
0.38
 44
1.5
 45
0.0
 46
0.0
 47
0.01
 48
0.01
140
3.0
141
0.09
142
0.0
143
25.4
144
1.0
145
0.0
146
1.0
147
0.625
 71
1
 72
0
 73
0
 74
0
 75
0
 76
0
 77
1
 78
8
 79
2
170
0
171
1
172
0
173
0
174
0
175
0
176
0
177
0
178
0
270
2
179
2
271
2
272
2
273
2
274
2
275
0
280
0
281
0
282
0
283
1
284
8
285
0
286
0
287
3
288
0
340
11
278
44
341
218
342
218
343
218
344
218
  0
DIMSTYLE
105
21D
100
AcDbSymbolTableRecord
100
AcDbDimStyleTableRecord
  2
DIMSTYLE_1
 70
0
  3

  4

 40
1.0
 41
3.0
 42
0.5
 43
0.38
 44
1.5
 45
0.0
 46
0.0
 47
0.0
 48
0.0
140
3.0
141
0.09
142
0.0
143
25.4
144
1.0
145
0.0
146
1.0
147
0.75
 71
0
 72
0
 73
0
 74
0
 75
0
 76
0
 77
1
 78
8
 79
2
170
0
171
1
172
0
173
0
174
0
175
0
176
0
177
0
178
0
270
2
179
2
271
2
272
2
273
2
274
2
275
0
280
0
281
0
282
0
283
1
284
8
285
0
286
0
287
3
288
0
340
11
278
44
341
218
342
218
343
218
344
218
  0
ENDTAB
  0
ENDSEC
  0
SECTION
  2
BLOCKS
  0
BLOCK
  5
20
100
AcDbEntity
  8
0
100
AcDbBlockBegin
  2
*Model_Space
 70
0
 10
0.0
 20
0.0
 30
0.0
  3
*Model_Space
  1

  0
ENDBLK
  5
21
100
AcDbEntity
  8
0
100
AcDbBlockEnd
  0
BLOCK
  5
1C
100
AcDbEntity
  8
0
100
AcDbBlockBegin
  2
*Paper_Space
 70
0
 10
0.0
 20
0.0
 30
0.0
  3
*Paper_Space
  1

  0
ENDBLK
  5
1D
100
AcDbEntity
  8
0
100
AcDbBlockEnd
  0
BLOCK
  5
21E
100
AcDbEntity
  8
0
100
AcDbBlockBegin
  2
_FILLED
 70
64
 10
0.0
 20
0.0
  3
_FILLED
  1

  0
SOLID
  5
21F
100
AcDbEntity
  8
0
  6
BYBLOCK
 62
0
100
AcDbTrace
 10
0.0
 20
0.0
 11
-1.0
 21
0.3166666667
 12
-1.0
 22
-0.3166666667
 13
-1.0
 23
-0.3166666667
  0
ENDBLK
  5
220
100
AcDbEntity
  8
0
  6
BYBLOCK
 62
0
100
AcDbBlockEnd
  0
BLOCK
  5
221
100
AcDbEntity
  8
0
100
AcDbBlockBegin
 62
7
  6
CONTINUOUS
  2
*D0
 70
65
 10
0.0
 20
0.0
  3
*D0
  1

  0
MTEXT
  5
222
100
AcDbEntity
  8
0
100
AcDbMText
 62
7
  6
CONTINUOUS
  7
STANDARD
 71
2
 72
1
 10
245.4337140992
 20
137.859497389
 30
0.0
 11
0.0
 21
1.0
 31
0.0
 73
2
 44
0.9
  1
{\ftxt;\W0.0001;\H0.0001;\~}{\ftxt;\W1.9285714286;\H3.0; }{\ftxt;\W0.0001;\H0.0001;\~}
 40
3.0
 41
8.6785714286
  0
LINE
  5
223
100
AcDbEntity
  8
0
100
AcDbLine
 62
7
  6
CONTINUOUS
 10
238.9857697971
 20
218.359497389
 11
250.6837140992
 21
218.359497389
  0
LINE
  5
224
100
AcDbEntity
  8
0
100
AcDbLine
 62
7
  6
CONTINUOUS
 10
238.9857697971
 20
57.359497389
 11
250.6837140992
 21
57.359497389
  0
LINE
  5
225
100
AcDbEntity
  8
0
100
AcDbLine
 62
7
  6
CONTINUOUS
 10
249.1837140992
 20
218.359497389
 11
249.1837140992
 21
137.859497389
  0
LINE
  5
226
100
AcDbEntity
  8
0
100
AcDbLine
 62
7
  6
CONTINUOUS
 10
249.1837140992
 20
57.359497389
 11
249.1837140992
 21
137.859497389
  0
INSERT
  5
227
100
AcDbEntity
  8
0
100
AcDbBlockReference
 62
7
  6
CONTINUOUS
  2
_FILLED
 10
249.1837140992
 20
218.359497389
 41
3.0
 42
3.0
 43
3.0
 50
90.0
  0
INSERT
  5
228
100
AcDbEntity
  8
0
100
AcDbBlockReference
 62
7
  6
CONTINUOUS
  2
_FILLED
 10
249.1837140992
 20
57.359497389
 41
3.0
 42
3.0
 43
3.0
 50
270.0
  0
ENDBLK
  5
229
100
AcDbEntity
  8
0
  6
BYBLOCK
 62
0
100
AcDbBlockEnd
  0
BLOCK
  5
22A
100
AcDbEntity
  8
0
100
AcDbBlockBegin
 62
7
  6
CONTINUOUS
  2
*D1
 70
65
 10
0.0
 20
0.0
  3
*D1
  1

  0
MTEXT
  5
22B
100
AcDbEntity
  8
0
100
AcDbMText
 62
7
  6
CONTINUOUS
  7
STANDARD
 71
2
 72
1
 10
195.9837140992
 20
53.109497389
 30
0.0
 11
1.0
 21
0.0
 31
0.0
 73
2
 44
0.9
  1
{\ftxt;\W0.0001;\H0.0001;\~}{\ftxt;\W1.5714285714;\H3.0; }{\ftxt;\W0.0001;\H0.0001;\~}
 40
3.0
 41
7.0714285714
  0
LINE
  5
22C
100
AcDbEntity
  8
0
100
AcDbLine
 62
7
  6
CONTINUOUS
 10
239.9837140992
 20
58.3574416912
 11
239.9837140992
 21
47.859497389
  0
LINE
  5
22D
100
AcDbEntity
  8
0
100
AcDbLine
 62
7
  6
CONTINUOUS
 10
151.9837140992
 20
58.3574416912
 11
151.9837140992
 21
47.859497389
  0
LINE
  5
22E
100
AcDbEntity
  8
0
100
AcDbLine
 62
7
  6
CONTINUOUS
 10
239.9837140992
 20
49.359497389
 11
195.9837140992
 21
49.359497389
  0
LINE
  5
22F
100
AcDbEntity
  8
0
100
AcDbLine
 62
7
  6
CONTINUOUS
 10
151.9837140992
 20
49.359497389
 11
195.9837140992
 21
49.359497389
  0
INSERT
  5
230
100
AcDbEntity
  8
0
100
AcDbBlockReference
 62
7
  6
CONTINUOUS
  2
_FILLED
 10
239.9837140992
 20
49.359497389
 41
3.0
 42
3.0
 43
3.0
 50
360.0
  0
INSERT
  5
231
100
AcDbEntity
  8
0
100
AcDbBlockReference
 62
7
  6
CONTINUOUS
  2
_FILLED
 10
151.9837140992
 20
49.359497389
 41
3.0
 42
3.0
 43
3.0
 50
180.0
  0
ENDBLK
  5
232
100
AcDbEntity
  8
0
  6
BYBLOCK
 62
0
100
AcDbBlockEnd
  0
BLOCK
  5
233
100
AcDbEntity
  8
0
100
AcDbBlockBegin
 62
7
  6
CONTINUOUS
  2
*D2
 70
65
 10
0.0
 20
0.0
  3
*D2
  1

  0
MTEXT
  5
234
100
AcDbEntity
  8
0
100
AcDbMText
 62
7
  6
CONTINUOUS
  7
STANDARD
 71
1
 72
1
 10
141.3042606559
 20
53.2967276422
 30
0.0
 11
1.0
 21
0.0
 31
0.0
 73
2
 44
0.9
  1
{\ftxt;\W0.0001;\H0.0001;\~}{\ftxt;\W2.1428571429;\H3.0; }{\ftxt;\W0.0001;\H0.0001;\~}
 40
3.0
 41
9.6428571429
  0
LINE
  5
235
100
AcDbEntity
  8
0
100
AcDbLine
 62
7
  6
CONTINUOUS
 10
130.0860639687
 20
58.5894073256
 11
130.0860639687
 21
48.0467276422
  0
LINE
  5
236
100
AcDbEntity
  8
0
100
AcDbLine
 62
7
  6
CONTINUOUS
 10
137.9860639687
 20
58.361555908
 11
137.9860639687
 21
48.0467276422
  0
LINE
  5
237
100
AcDbEntity
  8
0
100
AcDbLine
 62
7
  6
CONTINUOUS
 10
130.0860639687
 20
49.5467276422
 11
134.0360639687
 21
49.5467276422
  0
LINE
  5
238
100
AcDbEntity
  8
0
100
AcDbLine
 62
7
  6
CONTINUOUS
 10
137.9860639687
 20
49.5467276422
 11
134.0360639687
 21
49.5467276422
  0
LINE
  5
239
100
AcDbEntity
  8
0
100
AcDbLine
 62
7
  6
CONTINUOUS
 10
134.0360639687
 20
49.5467276422
 11
147.7328320845
 21
49.5467276422
  0
INSERT
  5
23A
100
AcDbEntity
  8
0
100
AcDbBlockReference
 62
7
  6
CONTINUOUS
  2
_FILLED
 10
130.0860639687
 20
49.5467276422
 41
3.0
 42
3.0
 43
3.0
 50
180.0
  0
INSERT
  5
23B
100
AcDbEntity
  8
0
100
AcDbBlockReference
 62
7
  6
CONTINUOUS
  2
_FILLED
 10
137.9860639687
 20
49.5467276422
 41
3.0
 42
3.0
 43
3.0
  0
ENDBLK
  5
23C
100
AcDbEntity
  8
0
  6
BYBLOCK
 62
0
100
AcDbBlockEnd
  0
ENDSEC
  0
SECTION
  2
ENTITIES
  0
DIMENSION
  5
23D
100
AcDbEntity
  8
0
100
AcDbDimension
 62
7
  6
CONTINUOUS
  2
*D0
 10
249.1837140992
 20
57.359497389
 11
249.1837140992
 21
137.4309260249
 70
160
 71
2
 72
2
 41
0.9
 42
161.0
  1
{\ftxt;\W0.0001;\H0.0001;\~}{\ftxt;\W1.9285714286;\H3.0; }{\ftxt;\W0.0001;\H0.0001;\~}
  3
DIMSTYLE_1
100
AcDbAlignedDimension
 13
238.4857697971
 23
218.359497389
 14
238.4857697971
 24
57.359497389
 50
270.0
100
AcDbRotatedDimension
  0
DIMENSION
  5
23E
100
AcDbEntity
  8
0
100
AcDbDimension
 62
7
  6
CONTINUOUS
  2
*D1
 10
151.9837140992
 20
49.359497389
 11
195.5551428223
 21
49.359497389
 70
160
 71
2
 72
2
 41
0.9
 42
88.0
  1
{\ftxt;\W0.0001;\H0.0001;\~}{\ftxt;\W1.5714285714;\H3.0; }{\ftxt;\W0.0001;\H0.0001;\~}
  3
DIMSTYLE_1
100
AcDbAlignedDimension
 13
239.9837140992
 23
58.8574416912
 14
151.9837140992
 24
58.8574416912
 50
180.0
100
AcDbRotatedDimension
  0
DIMENSION
  5
23F
100
AcDbEntity
  8
0
100
AcDbDimension
 62
7
  6
CONTINUOUS
  2
*D2
 10
137.9860639687
 20
49.5467276422
 11
144.0899734497
 21
49.5467276422
 70
160
 71
1
 72
2
 41
0.9
 42
7.9
  1
{\ftxt;\W0.0001;\H0.0001;\~}{\ftxt;\W2.1428571429;\H3.0; }{\ftxt;\W0.0001;\H0.0001;\~}
  3
DIMSTYLE_1
100
AcDbAlignedDimension
 13
130.0860639687
 23
59.0894073256
 14
137.9860639687
 24
58.861555908
100
AcDbRotatedDimension
  0
LWPOLYLINE
  5
240
100
AcDbEntity
  8
RACCORDO
100
AcDbPolyline
 62
250
  6
CONTINUOUS
 90
31
 70
0
 10
238.2538041626
 20
58.0907777909
 10
238.3070701847
 20
58.0923495541
 10
238.3593982138
 20
58.0964786016
 10
238.4107882497
 20
58.1031649333
 10
238.4611674737
 20
58.1124256652
 10
238.5106087047
 20
58.1242436814
 10
238.5593303987
 20
58.1385676338
 10
238.6075640842
 20
58.1554398717
 10
238.6550782327
 20
58.1748180458
 10
238.7013967155
 20
58.1965237593
 10
238.7464663581
 20
58.2205625256
 10
238.7903403349
 20
58.2469288314
 10
238.8327020407
 20
58.2754277397
 10
238.8735480617
 20
58.3060779672
 10
238.9128818117
 20
58.3388607971
 10
238.9503969261
 20
58.3735251425
 10
238.9860910818
 20
58.4101062825
 10
239.0199666019
 20
58.4485689379
 10
239.0517240918
 20
58.4885561836
 10
239.0812566865
 20
58.5298628274
 10
239.108671251
 20
58.5726940615
 10
239.1339889858
 20
58.6173085377
 10
239.1573526146
 20
58.6638482885
 10
239.1786194136
 20
58.7121712814
 10
239.1973824121
 20
58.7621100709
 10
239.2136590253
 20
58.8138285572
 10
239.2274318379
 20
58.86716284
 10
239.2382416331
 20
58.9214537729
 10
239.2459353386
 20
58.9764816404
 10
239.2506660267
 20
59.0324661579
 10
239.2524336974
 20
59.0894073256
  0
LWPOLYLINE
  5
241
100
AcDbEntity
  8
ASSI
100
AcDbPolyline
 62
250
  6
CONTINUOUS
 90
31
 70
0
 10
238.2538041626
 20
58.0907777909
 10
238.3070701847
 20
58.0923495541
 10
238.3593982138
 20
58.0964786016
 10
238.4107882497
 20
58.1031649333
 10
238.4611674737
 20
58.1124256652
 10
238.5106087047
 20
58.1242436814
 10
238.5593303987
 20
58.1385676338
 10
238.6075640842
 20
58.1554398717
 10
238.6550782327
 20
58.1748180458
 10
238.7013967155
 20
58.1965237593
 10
238.7464663581
 20
58.2205625256
 10
238.7903403349
 20
58.2469288314
 10
238.8327020407
 20
58.2754277397
 10
238.8735480617
 20
58.3060779672
 10
238.9128818117
 20
58.3388607971
 10
238.9503969261
 20
58.3735251425
 10
238.9860910818
 20
58.4101062825
 10
239.0199666019
 20
58.4485689379
 10
239.0517240918
 20
58.4885561836
 10
239.0812566865
 20
58.5298628274
 10
239.108671251
 20
58.5726940615
 10
239.1339889858
 20
58.6173085377
 10
239.1573526146
 20
58.6638482885
 10
239.1786194136
 20
58.7121712814
 10
239.1973824121
 20
58.7621100709
 10
239.2136590253
 20
58.8138285572
 10
239.2274318379
 20
58.86716284
 10
239.2382416331
 20
58.9214537729
 10
239.2459353386
 20
58.9764816404
 10
239.2506660267
 20
59.0324661579
 10
239.2524336974
 20
59.0894073256
  0
LWPOLYLINE
  5
242
100
AcDbEntity
  8
0
100
AcDbPolyline
 62
7
  6
CONTINUOUS
 90
28
 70
0
 10
238.4857697971
 20
57.359497389
 10
238.5728173457
 20
57.3620208759
 10
238.6597133194
 20
57.3696051915
 10
238.7461628908
 20
57.3822512535
 10
238.832007052
 20
57.3999744932
 10
238.9168083853
 20
57.4227249824
 10
238.9998732778
 20
57.4503083724
 10
239.0807197374
 20
57.4824944934
 10
239.159316969
 20
57.5191991615
 10
239.2356629297
 20
57.5603986327
 10
239.3095141983
 20
57.605965675
 10
239.3806087549
 20
57.6557430785
 10
239.4488851969
 20
57.7097170075
 10
239.5142644352
 20
57.7679075162
 10
239.576299371
 20
57.830002651
 10
239.6344258169
 20
57.8954375495
 10
239.6883484021
 20
57.9637863301
 10
239.7380688453
 20
58.0349499856
 10
239.7835331281
 20
58.1087968089
 10
239.8245701636
 20
58.1850050028
 10
239.8610986172
 20
58.2633754293
 10
239.8931418074
 20
58.3439929318
 10
239.9206194244
 20
58.4268464528
 10
239.9432931326
 20
58.511441133
 10
239.9609745843
 20
58.5971300717
 10
239.9736057956
 20
58.6834943146
 10
239.9811887289
 20
58.7703627401
 10
239.9837140992
 20
58.8574416912
  0
LWPOLYLINE
  5
243
100
AcDbEntity
  8
ASSI
100
AcDbPolyline
 62
7
  6
CONTINUOUS
 90
28
 70
0
 10
238.4857697971
 20
57.359497389
 10
238.5728173457
 20
57.3620208759
 10
238.6597133194
 20
57.3696051915
 10
238.7461628908
 20
57.3822512535
 10
238.832007052
 20
57.3999744932
 10
238.9168083853
 20
57.4227249824
 10
238.9998732778
 20
57.4503083724
 10
239.0807197374
 20
57.4824944934
 10
239.159316969
 20
57.5191991615
 10
239.2356629297
 20
57.5603986327
 10
239.3095141983
 20
57.605965675
 10
239.3806087549
 20
57.6557430785
 10
239.4488851969
 20
57.7097170075
 10
239.5142644352
 20
57.7679075162
 10
239.576299371
 20
57.830002651
 10
239.6344258169
 20
57.8954375495
 10
239.6883484021
 20
57.9637863301
 10
239.7380688453
 20
58.0349499856
 10
239.7835331281
 20
58.1087968089
 10
239.8245701636
 20
58.1850050028
 10
239.8610986172
 20
58.2633754293
 10
239.8931418074
 20
58.3439929318
 10
239.9206194244
 20
58.4268464528
 10
239.9432931326
 20
58.511441133
 10
239.9609745843
 20
58.5971300717
 10
239.9736057956
 20
58.6834943146
 10
239.9811887289
 20
58.7703627401
 10
239.9837140992
 20
58.8574416912
  0
LWPOLYLINE
  5
244
100
AcDbEntity
  8
RACCORDO
100
AcDbPolyline
 62
250
  6
CONTINUOUS
 90
31
 70
0
 10
238.2538041626
 20
57.5914630235
 10
238.3333122154
 20
57.5936432396
 10
238.4118071209
 20
57.5999495662
 10
238.4890828116
 20
57.6102412091
 10
238.5646482153
 20
57.6243050808
 10
238.6386309765
 20
57.6420182615
 10
238.7117415005
 20
57.6634998074
 10
238.7841232672
 20
57.68884079
 10
238.8552321539
 20
57.7179008713
 10
238.9247261041
 20
57.7505488632
 10
238.992365214
 20
57.786660299
 10
239.0580388213
 20
57.826163753
 10
239.1216125215
 20
57.868976405
 10
239.1829293492
 20
57.9149951064
 10
239.2418181536
 20
57.9640938766
 10
239.2981280839
 20
58.0161492748
 10
239.3517345924
 20
58.0710528192
 10
239.4024693975
 20
58.1286387871
 10
239.4501375486
 20
58.1886771204
 10
239.4944262576
 20
58.2507086463
 10
239.5354594008
 20
58.3148380109
 10
239.5735983842
 20
58.3817421576
 10
239.6087360291
 20
58.451544985
 10
239.6405209391
 20
58.5238975358
 10
239.6687997013
 20
58.5988332763
 10
239.6933863734
 20
58.6763873853
 10
239.7139697345
 20
58.7562023267
 10
239.7302503814
 20
58.8376869939
 10
239.7420547567
 20
58.9204809252
 10
239.749265663
 20
59.0044727705
 10
239.7517484647
 20
59.0894073256
  0
LWPOLYLINE
  5
245
100
AcDbEntity
  8
ASSI
100
AcDbPolyline
 62
250
  6
CONTINUOUS
 90
31
 70
0
 10
238.2538041626
 20
57.5914630235
 10
238.3333122154
 20
57.5936432396
 10
238.4118071209
 20
57.5999495662
 10
238.4890828116
 20
57.6102412091
 10
238.5646482153
 20
57.6243050808
 10
238.6386309765
 20
57.6420182615
 10
238.7117415005
 20
57.6634998074
 10
238.7841232672
 20
57.68884079
 10
238.8552321539
 20
57.7179008713
 10
238.9247261041
 20
57.7505488632
 10
238.992365214
 20
57.786660299
 10
239.0580388213
 20
57.826163753
 10
239.1216125215
 20
57.868976405
 10
239.1829293492
 20
57.9149951064
 10
239.2418181536
 20
57.9640938766
 10
239.2981280839
 20
58.0161492748
 10
239.3517345924
 20
58.0710528192
 10
239.4024693975
 20
58.1286387871
 10
239.4501375486
 20
58.1886771204
 10
239.4944262576
 20
58.2507086463
 10
239.5354594008
 20
58.3148380109
 10
239.5735983842
 20
58.3817421576
 10
239.6087360291
 20
58.451544985
 10
239.6405209391
 20
58.5238975358
 10
239.6687997013
 20
58.5988332763
 10
239.6933863734
 20
58.6763873853
 10
239.7139697345
 20
58.7562023267
 10
239.7302503814
 20
58.8376869939
 10
239.7420547567
 20
58.9204809252
 10
239.749265663
 20
59.0044727705
 10
239.7517484647
 20
59.0894073256
  0
LINE
  5
246
100
AcDbEntity
  8
0
100
AcDbLine
 62
7
  6
CONTINUOUS
 10
153.4816584013
 20
57.359497389
 11
238.4857697971
 21
57.359497389
  0
LINE
  5
247
100
AcDbEntity
  8
ASSI
100
AcDbLine
 62
7
  6
CONTINUOUS
 10
153.4816584013
 20
57.359497389
 11
238.4857697971
 21
57.359497389
  0
LINE
  5
248
100
AcDbEntity
  8
RACCORDO
100
AcDbLine
 62
250
  6
CONTINUOUS
 10
153.7136240358
 20
57.5914630235
 11
238.2538041626
 21
57.5914630235
  0
LINE
  5
249
100
AcDbEntity
  8
ASSI
100
AcDbLine
 62
250
  6
CONTINUOUS
 10
153.7136240358
 20
57.5914630235
 11
238.2538041626
 21
57.5914630235
  0
LINE
  5
24A
100
AcDbEntity
  8
RACCORDO
100
AcDbLine
 62
250
  6
CONTINUOUS
 10
153.7136240358
 20
58.0907777909
 11
238.2538041626
 21
58.0907777909
  0
LINE
  5
24B
100
AcDbEntity
  8
ASSI
100
AcDbLine
 62
250
  6
CONTINUOUS
 10
153.7136240358
 20
58.0907777909
 11
238.2538041626
 21
58.0907777909
  0
LINE
  5
24C
100
AcDbEntity
  8
RACCORDO
100
AcDbLine
 62
250
  6
CONTINUOUS
 10
152.7149945011
 20
59.0894073256
 11
152.2156797337
 21
59.0894073256
  0
LINE
  5
24D
100
AcDbEntity
  8
ASSI
100
AcDbLine
 62
250
  6
CONTINUOUS
 10
152.7149945011
 20
59.0894073256
 11
152.2156797337
 21
59.0894073256
  0
LINE
  5
24E
100
AcDbEntity
  8
RACCORDO
100
AcDbLine
 62
250
  6
CONTINUOUS
 10
239.2524336974
 20
59.0894073256
 11
239.7517484647
 21
59.0894073256
  0
LINE
  5
24F
100
AcDbEntity
  8
ASSI
100
AcDbLine
 62
250
  6
CONTINUOUS
 10
239.2524336974
 20
59.0894073256
 11
239.7517484647
 21
59.0894073256
  0
LINE
  5
250
100
AcDbEntity
  8
SCRITTE
100
AcDbLine
 62
250
  6
CONTINUOUS
 10
239.9185704435
 20
64.659561389
 11
239.813757086
 21
64.659561389
  0
LINE
  5
251
100
AcDbEntity
  8
SCRITTE
100
AcDbLine
 62
250
  6
CONTINUOUS
 10
239.813757086
 20
65.077005389
 11
239.9185704435
 21
65.077005389
  0
LINE
  5
252
100
AcDbEntity
  8
SCRITTE
100
AcDbLine
 62
250
  6
CONTINUOUS
 10
239.9185704574
 20
69.1627462207
 11
239.8149879046
 21
69.1627462207
  0
LINE
  5
253
100
AcDbEntity
  8
SCRITTE
100
AcDbLine
 62
250
  6
CONTINUOUS
 10
239.8316183293
 20
69.5646692737
 11
239.860389907
 21
69.5646692737
  0
LINE
  5
254
100
AcDbEntity
  8
SCRITTE
100
AcDbLine
 62
250
  6
CONTINUOUS
 10
239.8775547688
 20
69.5785111071
 11
239.9185704574
 21
69.5785111071
  0
LINE
  5
255
100
AcDbEntity
  8
SCRITTE
100
AcDbLine
 62
250
  6
CONTINUOUS
 10
239.8690281394
 20
70.2359757006
 11
239.8696474577
 21
70.2359757006
  0
LWPOLYLINE
  5
256
100
AcDbEntity
  8
0
100
AcDbPolyline
 62
7
  6
CONTINUOUS
 90
13
 70
0
 43
0.3499999917
 10
194.0551373291
 20
51.8237814331
 10
193.7694250488
 20
52.0380688477
 10
193.7694250488
 20
52.6809246826
 10
194.0551373291
 20
53.1094995117
 10
194.6980059814
 20
53.1094995117
 10
194.9837182617
 20
52.6809246826
 10
194.9837182617
 20
52.0380688477
 10
194.6980059814
 20
51.8237814331
 10
195.1265679932
 20
51.3952130127
 10
195.1265679932
 20
50.5380697632
 10
194.6980059814
 20
50.1094949341
 10
194.0551373291
 20
50.1094949341
 10
193.6265753174
 20
50.5380697632
  0
LWPOLYLINE
  5
257
100
AcDbEntity
  8
0
100
AcDbPolyline
 62
7
  6
CONTINUOUS
 90
13
 70
0
 43
0.3499999917
 10
196.4122796631
 20
51.8237814331
 10
196.1265673828
 20
52.0380688477
 10
196.1265673828
 20
52.6809246826
 10
196.4122796631
 20
53.1094995117
 10
197.0551483154
 20
53.1094995117
 10
197.3408605957
 20
52.6809246826
 10
197.3408605957
 20
52.0380688477
 10
197.0551483154
 20
51.8237814331
 10
197.4837103271
 20
51.3952130127
 10
197.4837103271
 20
50.5380697632
 10
197.0551483154
 20
50.1094949341
 10
196.4122796631
 20
50.1094949341
 10
195.9837176514
 20
50.5380697632
  0
LINE
  5
258
100
AcDbEntity
  8
RACCORDO
100
AcDbLine
 62
250
  6
CONTINUOUS
 10
218.217609174
 20
75.2757241582
 11
173.7498190245
 21
75.2757241582
  0
LINE
  5
259
100
AcDbEntity
  8
ASSI
100
AcDbLine
 62
250
  6
CONTINUOUS
 10
218.217609174
 20
75.2757241582
 11
173.7498190245
 21
75.2757241582
  0
LINE
  5
25A
100
AcDbEntity
  8
RACCORDO
100
AcDbLine
 62
250
  6
CONTINUOUS
 10
218.217609174
 20
75.5756784667
 11
173.7498190245
 21
75.5756784667
  0
LINE
  5
25B
100
AcDbEntity
  8
ASSI
100
AcDbLine
 62
250
  6
CONTINUOUS
 10
218.217609174
 20
75.5756784667
 11
173.7498190245
 21
75.5756784667
  0
LINE
  5
25C
100
AcDbEntity
  8
RACCORDO
100
AcDbLine
 62
7
  6
CONTINUOUS
 10
173.7586379468
 20
75.584497389
 11
218.2087902516
 21
75.584497389
  0
LINE
  5
25D
100
AcDbEntity
  8
ASSI
100
AcDbLine
 62
7
  6
CONTINUOUS
 10
173.7586379468
 20
75.584497389
 11
218.2087902516
 21
75.584497389
  0
LINE
  5
25E
100
AcDbEntity
  8
RACCORDO
100
AcDbLine
 62
250
  6
CONTINUOUS
 10
219.0174873301
 20
76.0756023143
 11
218.7175330215
 21
76.0756023143
  0
LINE
  5
25F
100
AcDbEntity
  8
ASSI
100
AcDbLine
 62
250
  6
CONTINUOUS
 10
219.0174873301
 20
76.0756023143
 11
218.7175330215
 21
76.0756023143
  0
LINE
  5
260
100
AcDbEntity
  8
RACCORDO
100
AcDbLine
 62
250
  6
CONTINUOUS
 10
172.9499408683
 20
76.0756023143
 11
173.2498951769
 21
76.0756023143
  0
LINE
  5
261
100
AcDbEntity
  8
ASSI
100
AcDbLine
 62
250
  6
CONTINUOUS
 10
172.9499408683
 20
76.0756023143
 11
173.2498951769
 21
76.0756023143
  0
LWPOLYLINE
  5
262
100
AcDbEntity
  8
RACCORDO
100
AcDbPolyline
 62
250
  6
CONTINUOUS
 90
25
 70
0
 10
173.749819027
 20
75.5756784692
 10
173.7180900283
 20
75.5766800009
 10
173.6864117055
 20
75.5797024646
 10
173.6549136806
 20
75.5847485291
 10
173.6236915483
 20
75.5918215189
 10
173.5929123107
 20
75.6009026318
 10
173.5628072873
 20
75.6119287136
 10
173.533520758
 20
75.6248383988
 10
173.5051467276
 20
75.6395814455
 10
173.477826598
 20
75.6560745622
 10
173.4516844979
 20
75.674226231
 10
173.4267988671
 20
75.6939646966
 10
173.4032355138
 20
75.7152271987
 10
173.3811882451
 20
75.7378131842
 10
173.360626341
 20
75.7617270329
 10
173.3413448598
 20
75.7872715819
 10
173.3234122474
 20
75.8145297572
 10
173.3070795306
 20
75.8433134969
 10
173.2924905663
 20
75.8735610601
 10
173.2797486733
 20
75.905318721
 10
173.2690752988
 20
75.9383428874
 10
173.260706224
 20
75.9720880297
 10
173.2547137664
 20
76.0062532212
 10
173.2511001067
 20
76.0408131358
 10
173.2498951803
 20
76.0756023177
  0
LWPOLYLINE
  5
263
100
AcDbEntity
  8
ASSI
100
AcDbPolyline
 62
250
  6
CONTINUOUS
 90
25
 70
0
 10
173.749819027
 20
75.5756784692
 10
173.7180900283
 20
75.5766800009
 10
173.6864117055
 20
75.5797024646
 10
173.6549136806
 20
75.5847485291
 10
173.6236915483
 20
75.5918215189
 10
173.5929123107
 20
75.6009026318
 10
173.5628072873
 20
75.6119287136
 10
173.533520758
 20
75.6248383988
 10
173.5051467276
 20
75.6395814455
 10
173.477826598
 20
75.6560745622
 10
173.4516844979
 20
75.674226231
 10
173.4267988671
 20
75.6939646966
 10
173.4032355138
 20
75.7152271987
 10
173.3811882451
 20
75.7378131842
 10
173.360626341
 20
75.7617270329
 10
173.3413448598
 20
75.7872715819
 10
173.3234122474
 20
75.8145297572
 10
173.3070795306
 20
75.8433134969
 10
173.2924905663
 20
75.8735610601
 10
173.2797486733
 20
75.905318721
 10
173.2690752988
 20
75.9383428874
 10
173.260706224
 20
75.9720880297
 10
173.2547137664
 20
76.0062532212
 10
173.2511001067
 20
76.0408131358
 10
173.2498951803
 20
76.0756023177
  0
LWPOLYLINE
  5
264
100
AcDbEntity
  8
RACCORDO
100
AcDbPolyline
 62
250
  6
CONTINUOUS
 90
25
 70
0
 10
173.7498190245
 20
75.2757241582
 10
173.6987142883
 20
75.2773509882
 10
173.6481064648
 20
75.2821967159
 10
173.5979955541
 20
75.2902613414
 10
173.5481251904
 20
75.3016127183
 10
173.4987517395
 20
75.3161829928
 10
173.4506442981
 20
75.3337686042
 10
173.4038658297
 20
75.3544177947
 10
173.3583533709
 20
75.3780823219
 10
173.3146871284
 20
75.4044138976
 10
173.2729235682
 20
75.433421763
 10
173.2330062243
 20
75.4650966768
 10
173.1953459046
 20
75.4990626265
 10
173.1600596581
 20
75.5351140953
 10
173.1270304359
 20
75.5734566001
 10
173.0963178996
 20
75.6143306784
 10
173.0677029276
 20
75.6579354992
 10
173.0414046414
 20
75.7040718937
 10
173.0181400674
 20
75.7523828927
 10
172.9979168723
 20
75.8031791112
 10
172.9807273894
 20
75.8561499342
 10
172.9672656449
 20
75.9100065474
 10
172.957762981
 20
75.9643193461
 10
172.9519880554
 20
76.0195179351
 10
172.9499408683
 20
76.0756023143
  0
LWPOLYLINE
  5
265
100
AcDbEntity
  8
ASSI
100
AcDbPolyline
 62
250
  6
CONTINUOUS
 90
25
 70
0
 10
173.7498190245
 20
75.2757241582
 10
173.6987142883
 20
75.2773509882
 10
173.6481064648
 20
75.2821967159
 10
173.5979955541
 20
75.2902613414
 10
173.5481251904
 20
75.3016127183
 10
173.4987517395
 20
75.3161829928
 10
173.4506442981
 20
75.3337686042
 10
173.4038658297
 20
75.3544177947
 10
173.3583533709
 20
75.3780823219
 10
173.3146871284
 20
75.4044138976
 10
173.2729235682
 20
75.433421763
 10
173.2330062243
 20
75.4650966768
 10
173.1953459046
 20
75.4990626265
 10
173.1600596581
 20
75.5351140953
 10
173.1270304359
 20
75.5734566001
 10
173.0963178996
 20
75.6143306784
 10
173.0677029276
 20
75.6579354992
 10
173.0414046414
 20
75.7040718937
 10
173.0181400674
 20
75.7523828927
 10
172.9979168723
 20
75.8031791112
 10
172.9807273894
 20
75.8561499342
 10
172.9672656449
 20
75.9100065474
 10
172.957762981
 20
75.9643193461
 10
172.9519880554
 20
76.0195179351
 10
172.9499408683
 20
76.0756023143
  0
LWPOLYLINE
  5
266
100
AcDbEntity
  8
RACCORDO
100
AcDbPolyline
 62
250
  6
CONTINUOUS
 90
31
 70
0
 10
152.7149945011
 20
59.0894073256
 10
152.7165662643
 20
59.0361413035
 10
152.7206953117
 20
58.9838132745
 10
152.7273816434
 20
58.9324232386
 10
152.7366423754
 20
58.8820440145
 10
152.7484603916
 20
58.8326027836
 10
152.7627843439
 20
58.7838810895
 10
152.7796565819
 20
58.7356474041
 10
152.7990347559
 20
58.6881332555
 10
152.8207404694
 20
58.6418147727
 10
152.8447792358
 20
58.5967451302
 10
152.8711455416
 20
58.5528711533
 10
152.8996444499
 20
58.5105094476
 10
152.9302946773
 20
58.4696634265
 10
152.9630775073
 20
58.4303296766
 10
152.9977418526
 20
58.3928145621
 10
153.0343229927
 20
58.3571204065
 10
153.0727856481
 20
58.3232448863
 10
153.1127728938
 20
58.2914873964
 10
153.1540795376
 20
58.2619548017
 10
153.1969107716
 20
58.2345402372
 10
153.2415252478
 20
58.2092225025
 10
153.2880649987
 20
58.1858588737
 10
153.3363879916
 20
58.1645920746
 10
153.3863267811
 20
58.1458290761
 10
153.4380452674
 20
58.129552463
 10
153.4913795502
 20
58.1157796504
 10
153.545670483
 20
58.1049698552
 10
153.6006983505
 20
58.0972761497
 10
153.6566828681
 20
58.0925454616
 10
153.7136240358
 20
58.0907777909
  0
LWPOLYLINE
  5
267
100
AcDbEntity
  8
ASSI
100
AcDbPolyline
 62
250
  6
CONTINUOUS
 90
31
 70
0
 10
152.7149945011
 20
59.0894073256
 10
152.7165662643
 20
59.0361413035
 10
152.7206953117
 20
58.9838132745
 10
152.7273816434
 20
58.9324232386
 10
152.7366423754
 20
58.8820440145
 10
152.7484603916
 20
58.8326027836
 10
152.7627843439
 20
58.7838810895
 10
152.7796565819
 20
58.7356474041
 10
152.7990347559
 20
58.6881332555
 10
152.8207404694
 20
58.6418147727
 10
152.8447792358
 20
58.5967451302
 10
152.8711455416
 20
58.5528711533
 10
152.8996444499
 20
58.5105094476
 10
152.9302946773
 20
58.4696634265
 10
152.9630775073
 20
58.4303296766
 10
152.9977418526
 20
58.3928145621
 10
153.0343229927
 20
58.3571204065
 10
153.0727856481
 20
58.3232448863
 10
153.1127728938
 20
58.2914873964
 10
153.1540795376
 20
58.2619548017
 10
153.1969107716
 20
58.2345402372
 10
153.2415252478
 20
58.2092225025
 10
153.2880649987
 20
58.1858588737
 10
153.3363879916
 20
58.1645920746
 10
153.3863267811
 20
58.1458290761
 10
153.4380452674
 20
58.129552463
 10
153.4913795502
 20
58.1157796504
 10
153.545670483
 20
58.1049698552
 10
153.6006983505
 20
58.0972761497
 10
153.6566828681
 20
58.0925454616
 10
153.7136240358
 20
58.0907777909
  0
LWPOLYLINE
  5
268
100
AcDbEntity
  8
0
100
AcDbPolyline
 62
7
  6
CONTINUOUS
 90
28
 70
0
 10
151.9837140992
 20
58.8574416912
 10
151.9862375861
 20
58.7703941426
 10
151.9938219017
 20
58.6834981688
 10
152.0064679637
 20
58.5970485974
 10
152.0241912034
 20
58.5112044363
 10
152.0469416925
 20
58.426403103
 10
152.0745250826
 20
58.3433382105
 10
152.1067112036
 20
58.2624917508
 10
152.1434158717
 20
58.1838945192
 10
152.1846153428
 20
58.1075485585
 10
152.2301823852
 20
58.03369729
 10
152.2799597887
 20
57.9626027333
 10
152.3339337177
 20
57.8943262914
 10
152.3921242263
 20
57.8289470531
 10
152.4542193612
 20
57.7669121173
 10
152.5196542597
 20
57.7087856713
 10
152.5880030403
 20
57.6548630862
 10
152.6591666958
 20
57.605142643
 10
152.733013519
 20
57.5596783601
 10
152.8092217129
 20
57.5186413246
 10
152.8875921395
 20
57.482112871
 10
152.968209642
 20
57.4500696808
 10
153.051063163
 20
57.4225920638
 10
153.1356578432
 20
57.3999183557
 10
153.2213467819
 20
57.3822369039
 10
153.3077110248
 20
57.3696056926
 10
153.3945794503
 20
57.3620227594
 10
153.4816584013
 20
57.359497389
  0
LWPOLYLINE
  5
269
100
AcDbEntity
  8
ASSI
100
AcDbPolyline
 62
7
  6
CONTINUOUS
 90
28
 70
0
 10
151.9837140992
 20
58.8574416912
 10
151.9862375861
 20
58.7703941426
 10
151.9938219017
 20
58.6834981688
 10
152.0064679637
 20
58.5970485974
 10
152.0241912034
 20
58.5112044363
 10
152.0469416925
 20
58.426403103
 10
152.0745250826
 20
58.3433382105
 10
152.1067112036
 20
58.2624917508
 10
152.1434158717
 20
58.1838945192
 10
152.1846153428
 20
58.1075485585
 10
152.2301823852
 20
58.03369729
 10
152.2799597887
 20
57.9626027333
 10
152.3339337177
 20
57.8943262914
 10
152.3921242263
 20
57.8289470531
 10
152.4542193612
 20
57.7669121173
 10
152.5196542597
 20
57.7087856713
 10
152.5880030403
 20
57.6548630862
 10
152.6591666958
 20
57.605142643
 10
152.733013519
 20
57.5596783601
 10
152.8092217129
 20
57.5186413246
 10
152.8875921395
 20
57.482112871
 10
152.968209642
 20
57.4500696808
 10
153.051063163
 20
57.4225920638
 10
153.1356578432
 20
57.3999183557
 10
153.2213467819
 20
57.3822369039
 10
153.3077110248
 20
57.3696056926
 10
153.3945794503
 20
57.3620227594
 10
153.4816584013
 20
57.359497389
  0
LWPOLYLINE
  5
26A
100
AcDbEntity
  8
RACCORDO
100
AcDbPolyline
 62
250
  6
CONTINUOUS
 90
31
 70
0
 10
152.2156797337
 20
59.0894073256
 10
152.2178599498
 20
59.0098992729
 10
152.2241662764
 20
58.9314043673
 10
152.2344579192
 20
58.8541286766
 10
152.2485217909
 20
58.7785632729
 10
152.2662349717
 20
58.7045805118
 10
152.2877165176
 20
58.6314699877
 10
152.3130575002
 20
58.5590882211
 10
152.3421175815
 20
58.4879793343
 10
152.3747655734
 20
58.4184853841
 10
152.4108770092
 20
58.3508462742
 10
152.4503804632
 20
58.285172667
 10
152.4931931152
 20
58.2215989668
 10
152.5392118166
 20
58.160282139
 10
152.5883105868
 20
58.1013933346
 10
152.640365985
 20
58.0450834043
 10
152.6952695294
 20
57.9914768959
 10
152.7528554973
 20
57.9407420908
 10
152.8128938306
 20
57.8930739397
 10
152.8749253565
 20
57.8487852307
 10
152.9390547211
 20
57.8077520874
 10
153.0059588678
 20
57.7696131041
 10
153.0757616951
 20
57.7344754591
 10
153.1481142459
 20
57.7026905491
 10
153.2230499865
 20
57.674411787
 10
153.3006040955
 20
57.6498251148
 10
153.3804190369
 20
57.6292417538
 10
153.4619037041
 20
57.6129611069
 10
153.5446976354
 20
57.6011567316
 10
153.6286894807
 20
57.5939458253
 10
153.7136240358
 20
57.5914630235
  0
LWPOLYLINE
  5
26B
100
AcDbEntity
  8
ASSI
100
AcDbPolyline
 62
250
  6
CONTINUOUS
 90
31
 70
0
 10
152.2156797337
 20
59.0894073256
 10
152.2178599498
 20
59.0098992729
 10
152.2241662764
 20
58.9314043673
 10
152.2344579192
 20
58.8541286766
 10
152.2485217909
 20
58.7785632729
 10
152.2662349717
 20
58.7045805118
 10
152.2877165176
 20
58.6314699877
 10
152.3130575002
 20
58.5590882211
 10
152.3421175815
 20
58.4879793343
 10
152.3747655734
 20
58.4184853841
 10
152.4108770092
 20
58.3508462742
 10
152.4503804632
 20
58.285172667
 10
152.4931931152
 20
58.2215989668
 10
152.5392118166
 20
58.160282139
 10
152.5883105868
 20
58.1013933346
 10
152.640365985
 20
58.0450834043
 10
152.6952695294
 20
57.9914768959
 10
152.7528554973
 20
57.9407420908
 10
152.8128938306
 20
57.8930739397
 10
152.8749253565
 20
57.8487852307
 10
152.9390547211
 20
57.8077520874
 10
153.0059588678
 20
57.7696131041
 10
153.0757616951
 20
57.7344754591
 10
153.1481142459
 20
57.7026905491
 10
153.2230499865
 20
57.674411787
 10
153.3006040955
 20
57.6498251148
 10
153.3804190369
 20
57.6292417538
 10
153.4619037041
 20
57.6129611069
 10
153.5446976354
 20
57.6011567316
 10
153.6286894807
 20
57.5939458253
 10
153.7136240358
 20
57.5914630235
  0
LINE
  5
26C
100
AcDbEntity
  8
0
100
AcDbLine
 62
7
  6
CONTINUOUS
 10
151.9837140992
 20
216.8615530869
 11
151.9837140992
 21
58.8574416912
  0
LINE
  5
26D
100
AcDbEntity
  8
ASSI
100
AcDbLine
 62
7
  6
CONTINUOUS
 10
151.9837140992
 20
216.8615530869
 11
151.9837140992
 21
58.8574416912
  0
LINE
  5
26E
100
AcDbEntity
  8
RACCORDO
100
AcDbLine
 62
250
  6
CONTINUOUS
 10
152.2156797337
 20
216.6295874524
 11
152.2156797337
 21
59.0894073256
  0
LINE
  5
26F
100
AcDbEntity
  8
ASSI
100
AcDbLine
 62
250
  6
CONTINUOUS
 10
152.2156797337
 20
216.6295874524
 11
152.2156797337
 21
59.0894073256
  0
LINE
  5
270
100
AcDbEntity
  8
RACCORDO
100
AcDbLine
 62
250
  6
CONTINUOUS
 10
152.7149945011
 20
216.6295874524
 11
152.7149945011
 21
59.0894073256
  0
LINE
  5
271
100
AcDbEntity
  8
ASSI
100
AcDbLine
 62
250
  6
CONTINUOUS
 10
152.7149945011
 20
216.6295874524
 11
152.7149945011
 21
59.0894073256
  0
LINE
  5
272
100
AcDbEntity
  8
RACCORDO
100
AcDbLine
 62
250
  6
CONTINUOUS
 10
153.7136240358
 20
58.0907777909
 11
153.7136240358
 21
57.5914630235
  0
LINE
  5
273
100
AcDbEntity
  8
ASSI
100
AcDbLine
 62
250
  6
CONTINUOUS
 10
153.7136240358
 20
58.0907777909
 11
153.7136240358
 21
57.5914630235
  0
LINE
  5
274
100
AcDbEntity
  8
RACCORDO
100
AcDbLine
 62
250
  6
CONTINUOUS
 10
153.7136240358
 20
217.6282169872
 11
153.7136240358
 21
218.1275317546
  0
LINE
  5
275
100
AcDbEntity
  8
ASSI
100
AcDbLine
 62
250
  6
CONTINUOUS
 10
153.7136240358
 20
217.6282169872
 11
153.7136240358
 21
218.1275317546
  0
LWPOLYLINE
  5
276
100
AcDbEntity
  8
RACCORDO
100
AcDbPolyline
 62
250
  6
CONTINUOUS
 90
25
 70
0
 10
173.2498951794
 20
199.6433924612
 10
173.2508967111
 20
199.67512146
 10
173.2539191748
 20
199.7067997827
 10
173.2589652393
 20
199.7382978077
 10
173.2660382291
 20
199.76951994
 10
173.275119342
 20
199.8002991775
 10
173.2861454238
 20
199.8304042009
 10
173.299055109
 20
199.8596907302
 10
173.3137981557
 20
199.8880647606
 10
173.3302912724
 20
199.9153848903
 10
173.3484429412
 20
199.9415269903
 10
173.3681814068
 20
199.9664126212
 10
173.3894439089
 20
199.9899759744
 10
173.4120298944
 20
200.0120232432
 10
173.4359437431
 20
200.0325851473
 10
173.4614882921
 20
200.0518666284
 10
173.4887464674
 20
200.0697992409
 10
173.5175302071
 20
200.0861319577
 10
173.5477777703
 20
200.1007209219
 10
173.5795354312
 20
200.1134628149
 10
173.6125595976
 20
200.1241361895
 10
173.6463047398
 20
200.1325052642
 10
173.6804699314
 20
200.1384977219
 10
173.715029846
 20
200.1421113816
 10
173.7498190279
 20
200.143316308
  0
LWPOLYLINE
  5
277
100
AcDbEntity
  8
ASSI
100
AcDbPolyline
 62
250
  6
CONTINUOUS
 90
25
 70
0
 10
173.2498951794
 20
199.6433924612
 10
173.2508967111
 20
199.67512146
 10
173.2539191748
 20
199.7067997827
 10
173.2589652393
 20
199.7382978077
 10
173.2660382291
 20
199.76951994
 10
173.275119342
 20
199.8002991775
 10
173.2861454238
 20
199.8304042009
 10
173.299055109
 20
199.8596907302
 10
173.3137981557
 20
199.8880647606
 10
173.3302912724
 20
199.9153848903
 10
173.3484429412
 20
199.9415269903
 10
173.3681814068
 20
199.9664126212
 10
173.3894439089
 20
199.9899759744
 10
173.4120298944
 20
200.0120232432
 10
173.4359437431
 20
200.0325851473
 10
173.4614882921
 20
200.0518666284
 10
173.4887464674
 20
200.0697992409
 10
173.5175302071
 20
200.0861319577
 10
173.5477777703
 20
200.1007209219
 10
173.5795354312
 20
200.1134628149
 10
173.6125595976
 20
200.1241361895
 10
173.6463047398
 20
200.1325052642
 10
173.6804699314
 20
200.1384977219
 10
173.715029846
 20
200.1421113816
 10
173.7498190279
 20
200.143316308
  0
LWPOLYLINE
  5
278
100
AcDbEntity
  8
RACCORDO
100
AcDbPolyline
 62
250
  6
CONTINUOUS
 90
25
 70
0
 10
172.9499408683
 20
199.6433924638
 10
172.9515676984
 20
199.6944972
 10
172.9564134261
 20
199.7451050234
 10
172.9644780516
 20
199.7952159342
 10
172.9758294284
 20
199.8450862978
 10
172.990399703
 20
199.8944597488
 10
173.0079853143
 20
199.9425671901
 10
173.0286345049
 20
199.9893456585
 10
173.0522990321
 20
200.0348581173
 10
173.0786306078
 20
200.0785243599
 10
173.1076384732
 20
200.1202879201
 10
173.139313387
 20
200.160205264
 10
173.1732793367
 20
200.1978655836
 10
173.2093308055
 20
200.2331518301
 10
173.2476733103
 20
200.2661810523
 10
173.2885473886
 20
200.2968935886
 10
173.3321522094
 20
200.3255085607
 10
173.3782886039
 20
200.3518068469
 10
173.4265996028
 20
200.3750714209
 10
173.4773958213
 20
200.395294616
 10
173.5303666444
 20
200.4124840989
 10
173.5842232576
 20
200.4259458433
 10
173.6385360563
 20
200.4354485073
 10
173.6937346453
 20
200.4412234328
 10
173.7498190245
 20
200.4432706199
  0
LWPOLYLINE
  5
279
100
AcDbEntity
  8
ASSI
100
AcDbPolyline
 62
250
  6
CONTINUOUS
 90
25
 70
0
 10
172.9499408683
 20
199.6433924638
 10
172.9515676984
 20
199.6944972
 10
172.9564134261
 20
199.7451050234
 10
172.9644780516
 20
199.7952159342
 10
172.9758294284
 20
199.8450862978
 10
172.990399703
 20
199.8944597488
 10
173.0079853143
 20
199.9425671901
 10
173.0286345049
 20
199.9893456585
 10
173.0522990321
 20
200.0348581173
 10
173.0786306078
 20
200.0785243599
 10
173.1076384732
 20
200.1202879201
 10
173.139313387
 20
200.160205264
 10
173.1732793367
 20
200.1978655836
 10
173.2093308055
 20
200.2331518301
 10
173.2476733103
 20
200.2661810523
 10
173.2885473886
 20
200.2968935886
 10
173.3321522094
 20
200.3255085607
 10
173.3782886039
 20
200.3518068469
 10
173.4265996028
 20
200.3750714209
 10
173.4773958213
 20
200.395294616
 10
173.5303666444
 20
200.4124840989
 10
173.5842232576
 20
200.4259458433
 10
173.6385360563
 20
200.4354485073
 10
173.6937346453
 20
200.4412234328
 10
173.7498190245
 20
200.4432706199
  0
LINE
  5
27A
100
AcDbEntity
  8
RACCORDO
100
AcDbLine
 62
250
  6
CONTINUOUS
 10
218.217609174
 20
200.1433163114
 11
218.2087902516
 21
200.134497389
  0
LINE
  5
27B
100
AcDbEntity
  8
ASSI
100
AcDbLine
 62
250
  6
CONTINUOUS
 10
218.217609174
 20
200.1433163114
 11
218.2087902516
 21
200.134497389
  0
LINE
  5
27C
100
AcDbEntity
  8
RACCORDO
100
AcDbLine
 62
250
  6
CONTINUOUS
 10
218.7175330215
 20
199.6433924638
 11
218.7087140992
 21
199.6345735415
  0
LINE
  5
27D
100
AcDbEntity
  8
ASSI
100
AcDbLine
 62
250
  6
CONTINUOUS
 10
218.7175330215
 20
199.6433924638
 11
218.7087140992
 21
199.6345735415
  0
LINE
  5
27E
100
AcDbEntity
  8
RACCORDO
100
AcDbLine
 62
250
  6
CONTINUOUS
 10
238.2538041626
 20
218.1275317546
 11
238.4857697971
 21
218.359497389
  0
LINE
  5
27F
100
AcDbEntity
  8
ASSI
100
AcDbLine
 62
250
  6
CONTINUOUS
 10
238.2538041626
 20
218.1275317546
 11
238.4857697971
 21
218.359497389
  0
LINE
  5
280
100
AcDbEntity
  8
RACCORDO
100
AcDbLine
 62
250
  6
CONTINUOUS
 10
239.7517484647
 20
216.6295874524
 11
239.9837140992
 21
216.8615530869
  0
LINE
  5
281
100
AcDbEntity
  8
ASSI
100
AcDbLine
 62
250
  6
CONTINUOUS
 10
239.7517484647
 20
216.6295874524
 11
239.9837140992
 21
216.8615530869
  0
LINE
  5
282
100
AcDbEntity
  8
RACCORDO
100
AcDbLine
 62
250
  6
CONTINUOUS
 10
218.217609174
 20
75.5756784667
 11
218.2087902516
 21
75.584497389
  0
LINE
  5
283
100
AcDbEntity
  8
ASSI
100
AcDbLine
 62
250
  6
CONTINUOUS
 10
218.217609174
 20
75.5756784667
 11
218.2087902516
 21
75.584497389
  0
LINE
  5
284
100
AcDbEntity
  8
RACCORDO
100
AcDbLine
 62
250
  6
CONTINUOUS
 10
218.7175330215
 20
76.0756023143
 11
218.7087140992
 21
76.0844212366
  0
LINE
  5
285
100
AcDbEntity
  8
ASSI
100
AcDbLine
 62
250
  6
CONTINUOUS
 10
218.7175330215
 20
76.0756023143
 11
218.7087140992
 21
76.0844212366
  0
LINE
  5
286
100
AcDbEntity
  8
RACCORDO
100
AcDbLine
 62
250
  6
CONTINUOUS
 10
238.2538041626
 20
57.5914630235
 11
238.4857697971
 21
57.359497389
  0
LINE
  5
287
100
AcDbEntity
  8
ASSI
100
AcDbLine
 62
250
  6
CONTINUOUS
 10
238.2538041626
 20
57.5914630235
 11
238.4857697971
 21
57.359497389
  0
LINE
  5
288
100
AcDbEntity
  8
RACCORDO
100
AcDbLine
 62
250
  6
CONTINUOUS
 10
239.7517484647
 20
59.0894073256
 11
239.9837140992
 21
58.8574416912
  0
LINE
  5
289
100
AcDbEntity
  8
ASSI
100
AcDbLine
 62
250
  6
CONTINUOUS
 10
239.7517484647
 20
59.0894073256
 11
239.9837140992
 21
58.8574416912
  0
LINE
  5
28A
100
AcDbEntity
  8
RACCORDO
100
AcDbLine
 62
250
  6
CONTINUOUS
 10
172.9499408683
 20
76.0756023143
 11
172.9499408683
 21
128.6433924638
  0
LINE
  5
28B
100
AcDbEntity
  8
ASSI
100
AcDbLine
 62
250
  6
CONTINUOUS
 10
172.9499408683
 20
76.0756023143
 11
172.9499408683
 21
128.6433924638
  0
LINE
  5
28C
100
AcDbEntity
  8
RACCORDO
100
AcDbLine
 62
250
  6
CONTINUOUS
 10
172.9499408683
 20
147.0756023143
 11
172.9499408683
 21
199.6433924638
  0
LINE
  5
28D
100
AcDbEntity
  8
ASSI
100
AcDbLine
 62
250
  6
CONTINUOUS
 10
172.9499408683
 20
147.0756023143
 11
172.9499408683
 21
199.6433924638
  0
LINE
  5
28E
100
AcDbEntity
  8
RACCORDO
100
AcDbLine
 62
250
  6
CONTINUOUS
 10
173.2498951769
 20
76.0756023143
 11
173.2498951769
 21
128.6433924638
  0
LINE
  5
28F
100
AcDbEntity
  8
ASSI
100
AcDbLine
 62
250
  6
CONTINUOUS
 10
173.2498951769
 20
76.0756023143
 11
173.2498951769
 21
128.6433924638
  0
LINE
  5
290
100
AcDbEntity
  8
RACCORDO
100
AcDbLine
 62
250
  6
CONTINUOUS
 10
173.2498951769
 20
147.0756023143
 11
173.2498951769
 21
199.6433924638
  0
LINE
  5
291
100
AcDbEntity
  8
ASSI
100
AcDbLine
 62
250
  6
CONTINUOUS
 10
173.2498951769
 20
147.0756023143
 11
173.2498951769
 21
199.6433924638
  0
LINE
  5
292
100
AcDbEntity
  8
RACCORDO
100
AcDbLine
 62
7
  6
CONTINUOUS
 10
173.2587140992
 20
199.6345735415
 11
173.2587140992
 21
147.0844212366
  0
LINE
  5
293
100
AcDbEntity
  8
ASSI
100
AcDbLine
 62
7
  6
CONTINUOUS
 10
173.2587140992
 20
199.6345735415
 11
173.2587140992
 21
147.0844212366
  0
LINE
  5
294
100
AcDbEntity
  8
RACCORDO
100
AcDbLine
 62
7
  6
CONTINUOUS
 10
173.2587140992
 20
128.6345735415
 11
173.2587140992
 21
76.0844212366
  0
LINE
  5
295
100
AcDbEntity
  8
ASSI
100
AcDbLine
 62
7
  6
CONTINUOUS
 10
173.2587140992
 20
128.6345735415
 11
173.2587140992
 21
76.0844212366
  0
LINE
  5
296
100
AcDbEntity
  8
RACCORDO
100
AcDbLine
 62
250
  6
CONTINUOUS
 10
173.7498190245
 20
200.4432706199
 11
173.7498190245
 21
200.1433163114
  0
LINE
  5
297
100
AcDbEntity
  8
ASSI
100
AcDbLine
 62
250
  6
CONTINUOUS
 10
173.7498190245
 20
200.4432706199
 11
173.7498190245
 21
200.1433163114
  0
LINE
  5
298
100
AcDbEntity
  8
RACCORDO
100
AcDbLine
 62
250
  6
CONTINUOUS
 10
173.7498190245
 20
129.4432706199
 11
173.7498190245
 21
129.1433163114
  0
LINE
  5
299
100
AcDbEntity
  8
ASSI
100
AcDbLine
 62
250
  6
CONTINUOUS
 10
173.7498190245
 20
129.4432706199
 11
173.7498190245
 21
129.1433163114
  0
LINE
  5
29A
100
AcDbEntity
  8
RACCORDO
100
AcDbLine
 62
250
  6
CONTINUOUS
 10
173.7498190245
 20
75.2757241582
 11
173.7498190245
 21
75.5756784667
  0
LINE
  5
29B
100
AcDbEntity
  8
ASSI
100
AcDbLine
 62
250
  6
CONTINUOUS
 10
173.7498190245
 20
75.2757241582
 11
173.7498190245
 21
75.5756784667
  0
LINE
  5
29C
100
AcDbEntity
  8
RACCORDO
100
AcDbLine
 62
250
  6
CONTINUOUS
 10
173.7498190245
 20
146.2757241582
 11
173.7498190245
 21
146.5756784667
  0
LINE
  5
29D
100
AcDbEntity
  8
ASSI
100
AcDbLine
 62
250
  6
CONTINUOUS
 10
173.7498190245
 20
146.2757241582
 11
173.7498190245
 21
146.5756784667
  0
LWPOLYLINE
  5
29E
100
AcDbEntity
  8
RACCORDO
100
AcDbPolyline
 62
250
  6
CONTINUOUS
 90
25
 70
0
 10
173.2498951794
 20
128.6433924612
 10
173.2508967111
 20
128.67512146
 10
173.2539191748
 20
128.7067997827
 10
173.2589652393
 20
128.7382978077
 10
173.2660382291
 20
128.76951994
 10
173.275119342
 20
128.8002991775
 10
173.2861454238
 20
128.8304042009
 10
173.299055109
 20
128.8596907302
 10
173.3137981557
 20
128.8880647606
 10
173.3302912724
 20
128.9153848903
 10
173.3484429412
 20
128.9415269903
 10
173.3681814068
 20
128.9664126212
 10
173.3894439089
 20
128.9899759744
 10
173.4120298944
 20
129.0120232432
 10
173.4359437431
 20
129.0325851473
 10
173.4614882921
 20
129.0518666284
 10
173.4887464674
 20
129.0697992409
 10
173.5175302071
 20
129.0861319577
 10
173.5477777703
 20
129.1007209219
 10
173.5795354312
 20
129.1134628149
 10
173.6125595976
 20
129.1241361895
 10
173.6463047398
 20
129.1325052642
 10
173.6804699314
 20
129.1384977219
 10
173.715029846
 20
129.1421113816
 10
173.7498190279
 20
129.143316308
  0
LWPOLYLINE
  5
29F
100
AcDbEntity
  8
ASSI
100
AcDbPolyline
 62
250
  6
CONTINUOUS
 90
25
 70
0
 10
173.2498951794
 20
128.6433924612
 10
173.2508967111
 20
128.67512146
 10
173.2539191748
 20
128.7067997827
 10
173.2589652393
 20
128.7382978077
 10
173.2660382291
 20
128.76951994
 10
173.275119342
 20
128.8002991775
 10
173.2861454238
 20
128.8304042009
 10
173.299055109
 20
128.8596907302
 10
173.3137981557
 20
128.8880647606
 10
173.3302912724
 20
128.9153848903
 10
173.3484429412
 20
128.9415269903
 10
173.3681814068
 20
128.9664126212
 10
173.3894439089
 20
128.9899759744
 10
173.4120298944
 20
129.0120232432
 10
173.4359437431
 20
129.0325851473
 10
173.4614882921
 20
129.0518666284
 10
173.4887464674
 20
129.0697992409
 10
173.5175302071
 20
129.0861319577
 10
173.5477777703
 20
129.1007209219
 10
173.5795354312
 20
129.1134628149
 10
173.6125595976
 20
129.1241361895
 10
173.6463047398
 20
129.1325052642
 10
173.6804699314
 20
129.1384977219
 10
173.715029846
 20
129.1421113816
 10
173.7498190279
 20
129.143316308
  0
LWPOLYLINE
  5
2A0
100
AcDbEntity
  8
RACCORDO
100
AcDbPolyline
 62
250
  6
CONTINUOUS
 90
25
 70
0
 10
172.9499408683
 20
128.6433924638
 10
172.9515676984
 20
128.6944972
 10
172.9564134261
 20
128.7451050234
 10
172.9644780516
 20
128.7952159342
 10
172.9758294284
 20
128.8450862978
 10
172.990399703
 20
128.8944597488
 10
173.0079853143
 20
128.9425671901
 10
173.0286345049
 20
128.9893456585
 10
173.0522990321
 20
129.0348581173
 10
173.0786306078
 20
129.0785243599
 10
173.1076384732
 20
129.1202879201
 10
173.139313387
 20
129.160205264
 10
173.1732793367
 20
129.1978655836
 10
173.2093308055
 20
129.2331518301
 10
173.2476733102
 20
129.2661810523
 10
173.2885473886
 20
129.2968935886
 10
173.3321522094
 20
129.3255085607
 10
173.3782886039
 20
129.3518068469
 10
173.4265996028
 20
129.3750714209
 10
173.4773958213
 20
129.395294616
 10
173.5303666444
 20
129.4124840989
 10
173.5842232576
 20
129.4259458433
 10
173.6385360563
 20
129.4354485073
 10
173.6937346453
 20
129.4412234328
 10
173.7498190245
 20
129.4432706199
  0
LWPOLYLINE
  5
2A1
100
AcDbEntity
  8
ASSI
100
AcDbPolyline
 62
250
  6
CONTINUOUS
 90
25
 70
0
 10
172.9499408683
 20
128.6433924638
 10
172.9515676984
 20
128.6944972
 10
172.9564134261
 20
128.7451050234
 10
172.9644780516
 20
128.7952159342
 10
172.9758294284
 20
128.8450862978
 10
172.990399703
 20
128.8944597488
 10
173.0079853143
 20
128.9425671901
 10
173.0286345049
 20
128.9893456585
 10
173.0522990321
 20
129.0348581173
 10
173.0786306078
 20
129.0785243599
 10
173.1076384732
 20
129.1202879201
 10
173.139313387
 20
129.160205264
 10
173.1732793367
 20
129.1978655836
 10
173.2093308055
 20
129.2331518301
 10
173.2476733102
 20
129.2661810523
 10
173.2885473886
 20
129.2968935886
 10
173.3321522094
 20
129.3255085607
 10
173.3782886039
 20
129.3518068469
 10
173.4265996028
 20
129.3750714209
 10
173.4773958213
 20
129.395294616
 10
173.5303666444
 20
129.4124840989
 10
173.5842232576
 20
129.4259458433
 10
173.6385360563
 20
129.4354485073
 10
173.6937346453
 20
129.4412234328
 10
173.7498190245
 20
129.4432706199
  0
LINE
  5
2A2
100
AcDbEntity
  8
RACCORDO
100
AcDbLine
 62
250
  6
CONTINUOUS
 10
173.2498951769
 20
147.0756023143
 11
173.2587140992
 21
147.0844212366
  0
LINE
  5
2A3
100
AcDbEntity
  8
ASSI
100
AcDbLine
 62
250
  6
CONTINUOUS
 10
173.2498951769
 20
147.0756023143
 11
173.2587140992
 21
147.0844212366
  0
LINE
  5
2A4
100
AcDbEntity
  8
RACCORDO
100
AcDbLine
 62
250
  6
CONTINUOUS
 10
173.7498190245
 20
146.5756784667
 11
173.7586379468
 21
146.584497389
  0
LINE
  5
2A5
100
AcDbEntity
  8
ASSI
100
AcDbLine
 62
250
  6
CONTINUOUS
 10
173.7498190245
 20
146.5756784667
 11
173.7586379468
 21
146.584497389
  0
LINE
  5
2A6
100
AcDbEntity
  8
RACCORDO
100
AcDbLine
 62
250
  6
CONTINUOUS
 10
173.2498951769
 20
128.6433924638
 11
173.2587140992
 21
128.6345735415
  0
LINE
  5
2A7
100
AcDbEntity
  8
ASSI
100
AcDbLine
 62
250
  6
CONTINUOUS
 10
173.2498951769
 20
128.6433924638
 11
173.2587140992
 21
128.6345735415
  0
LINE
  5
2A8
100
AcDbEntity
  8
RACCORDO
100
AcDbLine
 62
250
  6
CONTINUOUS
 10
173.7498190245
 20
129.1433163114
 11
173.7586379468
 21
129.134497389
  0
LINE
  5
2A9
100
AcDbEntity
  8
ASSI
100
AcDbLine
 62
250
  6
CONTINUOUS
 10
173.7498190245
 20
129.1433163114
 11
173.7586379468
 21
129.134497389
  0
LINE
  5
2AA
100
AcDbEntity
  8
RACCORDO
100
AcDbLine
 62
250
  6
CONTINUOUS
 10
219.0174873301
 20
128.6433924638
 11
218.7175330215
 21
128.6433924638
  0
LINE
  5
2AB
100
AcDbEntity
  8
ASSI
100
AcDbLine
 62
250
  6
CONTINUOUS
 10
219.0174873301
 20
128.6433924638
 11
218.7175330215
 21
128.6433924638
  0
LINE
  5
2AC
100
AcDbEntity
  8
RACCORDO
100
AcDbLine
 62
250
  6
CONTINUOUS
 10
172.9499408683
 20
128.6433924638
 11
173.2498951769
 21
128.6433924638
  0
LINE
  5
2AD
100
AcDbEntity
  8
ASSI
100
AcDbLine
 62
250
  6
CONTINUOUS
 10
172.9499408683
 20
128.6433924638
 11
173.2498951769
 21
128.6433924638
  0
LINE
  5
2AE
100
AcDbEntity
  8
RACCORDO
100
AcDbLine
 62
7
  6
CONTINUOUS
 10
218.2087902516
 20
129.134497389
 11
173.7586379468
 21
129.134497389
  0
LINE
  5
2AF
100
AcDbEntity
  8
ASSI
100
AcDbLine
 62
7
  6
CONTINUOUS
 10
218.2087902516
 20
129.134497389
 11
173.7586379468
 21
129.134497389
  0
LINE
  5
2B0
100
AcDbEntity
  8
RACCORDO
100
AcDbLine
 62
250
  6
CONTINUOUS
 10
173.7498190245
 20
129.1433163114
 11
218.217609174
 21
129.1433163114
  0
LINE
  5
2B1
100
AcDbEntity
  8
ASSI
100
AcDbLine
 62
250
  6
CONTINUOUS
 10
173.7498190245
 20
129.1433163114
 11
218.217609174
 21
129.1433163114
  0
LINE
  5
2B2
100
AcDbEntity
  8
RACCORDO
100
AcDbLine
 62
250
  6
CONTINUOUS
 10
173.7498190245
 20
129.4432706199
 11
218.217609174
 21
129.4432706199
  0
LINE
  5
2B3
100
AcDbEntity
  8
ASSI
100
AcDbLine
 62
250
  6
CONTINUOUS
 10
173.7498190245
 20
129.4432706199
 11
218.217609174
 21
129.4432706199
  0
LWPOLYLINE
  5
2B4
100
AcDbEntity
  8
RACCORDO
100
AcDbPolyline
 62
250
  6
CONTINUOUS
 90
25
 70
0
 10
218.2176091714
 20
129.1433163088
 10
218.2493381702
 20
129.1423147771
 10
218.2810164929
 20
129.1392923135
 10
218.3125145179
 20
129.134246249
 10
218.3437366501
 20
129.1271732592
 10
218.3745158877
 20
129.1180921463
 10
218.4046209111
 20
129.1070660644
 10
218.4339074404
 20
129.0941563792
 10
218.4622814708
 20
129.0794133325
 10
218.4896016005
 20
129.0629202159
 10
218.5157437005
 20
129.0447685471
 10
218.5406293314
 20
129.0250300814
 10
218.5641926846
 20
129.0037675794
 10
218.5862399534
 20
128.9811815939
 10
218.6068018574
 20
128.9572677452
 10
218.6260833386
 20
128.9317231962
 10
218.6440159511
 20
128.9044650209
 10
218.6603486679
 20
128.8756812812
 10
218.6749376321
 20
128.8454337179
 10
218.6876795251
 20
128.8136760571
 10
218.6983528997
 20
128.7806518907
 10
218.7067219744
 20
128.7469067484
 10
218.712714432
 20
128.7127415569
 10
218.7163280918
 20
128.6781816423
 10
218.7175330182
 20
128.6433924604
  0
LWPOLYLINE
  5
2B5
100
AcDbEntity
  8
ASSI
100
AcDbPolyline
 62
250
  6
CONTINUOUS
 90
25
 70
0
 10
218.2176091714
 20
129.1433163088
 10
218.2493381702
 20
129.1423147771
 10
218.2810164929
 20
129.1392923135
 10
218.3125145179
 20
129.134246249
 10
218.3437366501
 20
129.1271732592
 10
218.3745158877
 20
129.1180921463
 10
218.4046209111
 20
129.1070660644
 10
218.4339074404
 20
129.0941563792
 10
218.4622814708
 20
129.0794133325
 10
218.4896016005
 20
129.0629202159
 10
218.5157437005
 20
129.0447685471
 10
218.5406293314
 20
129.0250300814
 10
218.5641926846
 20
129.0037675794
 10
218.5862399534
 20
128.9811815939
 10
218.6068018574
 20
128.9572677452
 10
218.6260833386
 20
128.9317231962
 10
218.6440159511
 20
128.9044650209
 10
218.6603486679
 20
128.8756812812
 10
218.6749376321
 20
128.8454337179
 10
218.6876795251
 20
128.8136760571
 10
218.6983528997
 20
128.7806518907
 10
218.7067219744
 20
128.7469067484
 10
218.712714432
 20
128.7127415569
 10
218.7163280918
 20
128.6781816423
 10
218.7175330182
 20
128.6433924604
  0
LWPOLYLINE
  5
2B6
100
AcDbEntity
  8
RACCORDO
100
AcDbPolyline
 62
250
  6
CONTINUOUS
 90
25
 70
0
 10
218.217609174
 20
129.4432706199
 10
218.2687139101
 20
129.4416437899
 10
218.3193217336
 20
129.4367980621
 10
218.3694326443
 20
129.4287334367
 10
218.419303008
 20
129.4173820598
 10
218.468676459
 20
129.4028117852
 10
218.5167839003
 20
129.3852261739
 10
218.5635623687
 20
129.3645769834
 10
218.6090748275
 20
129.3409124561
 10
218.6527410701
 20
129.3145808805
 10
218.6945046302
 20
129.2855730151
 10
218.7344219742
 20
129.2538981013
 10
218.7720822938
 20
129.2199321516
 10
218.8073685403
 20
129.1838806827
 10
218.8403977625
 20
129.145538178
 10
218.8711102988
 20
129.1046640997
 10
218.8997252709
 20
129.0610592788
 10
218.9260235571
 20
129.0149228844
 10
218.9492881311
 20
128.9666118854
 10
218.9695113262
 20
128.9158156669
 10
218.9867008091
 20
128.8628448439
 10
219.0001625535
 20
128.8089882306
 10
219.0096652175
 20
128.7546754319
 10
219.015440143
 20
128.699476843
 10
219.0174873301
 20
128.6433924638
  0
LWPOLYLINE
  5
2B7
100
AcDbEntity
  8
ASSI
100
AcDbPolyline
 62
250
  6
CONTINUOUS
 90
25
 70
0
 10
218.217609174
 20
129.4432706199
 10
218.2687139101
 20
129.4416437899
 10
218.3193217336
 20
129.4367980621
 10
218.3694326443
 20
129.4287334367
 10
218.419303008
 20
129.4173820598
 10
218.468676459
 20
129.4028117852
 10
218.5167839003
 20
129.3852261739
 10
218.5635623687
 20
129.3645769834
 10
218.6090748275
 20
129.3409124561
 10
218.6527410701
 20
129.3145808805
 10
218.6945046302
 20
129.2855730151
 10
218.7344219742
 20
129.2538981013
 10
218.7720822938
 20
129.2199321516
 10
218.8073685403
 20
129.1838806827
 10
218.8403977625
 20
129.145538178
 10
218.8711102988
 20
129.1046640997
 10
218.8997252709
 20
129.0610592788
 10
218.9260235571
 20
129.0149228844
 10
218.9492881311
 20
128.9666118854
 10
218.9695113262
 20
128.9158156669
 10
218.9867008091
 20
128.8628448439
 10
219.0001625535
 20
128.8089882306
 10
219.0096652175
 20
128.7546754319
 10
219.015440143
 20
128.699476843
 10
219.0174873301
 20
128.6433924638
  0
LINE
  5
2B8
100
AcDbEntity
  8
SCRITTE
100
AcDbLine
 62
250
  6
CONTINUOUS
 10
239.9185704435
 20
65.701087389
 11
239.850133378
 21
65.791171389
  0
LWPOLYLINE
  5
2B9
100
AcDbEntity
  8
0
100
AcDbPolyline
 62
7
  6
CONTINUOUS
 90
4
 70
0
 43
0.3499999917
 10
193.6265753174
 20
50.5380697632
 10
193.6265753174
 20
51.3952130127
 10
194.0551373291
 20
51.8237814331
 10
194.6980059814
 20
51.8237814331
  0
LWPOLYLINE
  5
2BA
100
AcDbEntity
  8
0
100
AcDbPolyline
 62
7
  6
CONTINUOUS
 90
4
 70
0
 43
0.3499999917
 10
195.9837176514
 20
50.5380697632
 10
195.9837176514
 20
51.3952130127
 10
196.4122796631
 20
51.8237814331
 10
197.0551483154
 20
51.8237814331
  0
LINE
  5
2BB
100
AcDbEntity
  8
SCRITTE
100
AcDbLine
 62
250
  6
CONTINUOUS
 10
239.8137633749
 20
65.482303389
 11
239.9185704435
 21
65.301729389
  0
LINE
  5
2BC
100
AcDbEntity
  8
RACCORDO
100
AcDbLine
 62
250
  6
CONTINUOUS
 10
218.217609174
 20
146.2757241582
 11
173.7498190245
 21
146.2757241582
  0
LINE
  5
2BD
100
AcDbEntity
  8
ASSI
100
AcDbLine
 62
250
  6
CONTINUOUS
 10
218.217609174
 20
146.2757241582
 11
173.7498190245
 21
146.2757241582
  0
LINE
  5
2BE
100
AcDbEntity
  8
RACCORDO
100
AcDbLine
 62
250
  6
CONTINUOUS
 10
218.217609174
 20
146.5756784667
 11
173.7498190245
 21
146.5756784667
  0
LINE
  5
2BF
100
AcDbEntity
  8
ASSI
100
AcDbLine
 62
250
  6
CONTINUOUS
 10
218.217609174
 20
146.5756784667
 11
173.7498190245
 21
146.5756784667
  0
LINE
  5
2C0
100
AcDbEntity
  8
RACCORDO
100
AcDbLine
 62
7
  6
CONTINUOUS
 10
173.7586379468
 20
146.584497389
 11
218.2087902516
 21
146.584497389
  0
LINE
  5
2C1
100
AcDbEntity
  8
ASSI
100
AcDbLine
 62
7
  6
CONTINUOUS
 10
173.7586379468
 20
146.584497389
 11
218.2087902516
 21
146.584497389
  0
LINE
  5
2C2
100
AcDbEntity
  8
RACCORDO
100
AcDbLine
 62
250
  6
CONTINUOUS
 10
219.0174873301
 20
147.0756023143
 11
218.7175330215
 21
147.0756023143
  0
LINE
  5
2C3
100
AcDbEntity
  8
ASSI
100
AcDbLine
 62
250
  6
CONTINUOUS
 10
219.0174873301
 20
147.0756023143
 11
218.7175330215
 21
147.0756023143
  0
LINE
  5
2C4
100
AcDbEntity
  8
RACCORDO
100
AcDbLine
 62
250
  6
CONTINUOUS
 10
172.9499408683
 20
147.0756023143
 11
173.2498951769
 21
147.0756023143
  0
LINE
  5
2C5
100
AcDbEntity
  8
ASSI
100
AcDbLine
 62
250
  6
CONTINUOUS
 10
172.9499408683
 20
147.0756023143
 11
173.2498951769
 21
147.0756023143
  0
LWPOLYLINE
  5
2C6
100
AcDbEntity
  8
RACCORDO
100
AcDbPolyline
 62
250
  6
CONTINUOUS
 90
25
 70
0
 10
173.749819027
 20
146.5756784692
 10
173.7180900283
 20
146.5766800009
 10
173.6864117055
 20
146.5797024646
 10
173.6549136806
 20
146.5847485291
 10
173.6236915483
 20
146.5918215189
 10
173.5929123107
 20
146.6009026318
 10
173.5628072873
 20
146.6119287136
 10
173.533520758
 20
146.6248383988
 10
173.5051467276
 20
146.6395814455
 10
173.477826598
 20
146.6560745622
 10
173.4516844979
 20
146.674226231
 10
173.4267988671
 20
146.6939646966
 10
173.4032355138
 20
146.7152271987
 10
173.3811882451
 20
146.7378131842
 10
173.360626341
 20
146.7617270329
 10
173.3413448598
 20
146.7872715819
 10
173.3234122474
 20
146.8145297572
 10
173.3070795306
 20
146.8433134969
 10
173.2924905663
 20
146.8735610601
 10
173.2797486733
 20
146.905318721
 10
173.2690752988
 20
146.9383428874
 10
173.260706224
 20
146.9720880297
 10
173.2547137664
 20
147.0062532212
 10
173.2511001067
 20
147.0408131358
 10
173.2498951803
 20
147.0756023177
  0
LWPOLYLINE
  5
2C7
100
AcDbEntity
  8
ASSI
100
AcDbPolyline
 62
250
  6
CONTINUOUS
 90
25
 70
0
 10
173.749819027
 20
146.5756784692
 10
173.7180900283
 20
146.5766800009
 10
173.6864117055
 20
146.5797024646
 10
173.6549136806
 20
146.5847485291
 10
173.6236915483
 20
146.5918215189
 10
173.5929123107
 20
146.6009026318
 10
173.5628072873
 20
146.6119287136
 10
173.533520758
 20
146.6248383988
 10
173.5051467276
 20
146.6395814455
 10
173.477826598
 20
146.6560745622
 10
173.4516844979
 20
146.674226231
 10
173.4267988671
 20
146.6939646966
 10
173.4032355138
 20
146.7152271987
 10
173.3811882451
 20
146.7378131842
 10
173.360626341
 20
146.7617270329
 10
173.3413448598
 20
146.7872715819
 10
173.3234122474
 20
146.8145297572
 10
173.3070795306
 20
146.8433134969
 10
173.2924905663
 20
146.8735610601
 10
173.2797486733
 20
146.905318721
 10
173.2690752988
 20
146.9383428874
 10
173.260706224
 20
146.9720880297
 10
173.2547137664
 20
147.0062532212
 10
173.2511001067
 20
147.0408131358
 10
173.2498951803
 20
147.0756023177
  0
LWPOLYLINE
  5
2C8
100
AcDbEntity
  8
RACCORDO
100
AcDbPolyline
 62
250
  6
CONTINUOUS
 90
25
 70
0
 10
173.7498190245
 20
146.2757241582
 10
173.6987142883
 20
146.2773509882
 10
173.6481064648
 20
146.2821967159
 10
173.5979955541
 20
146.2902613414
 10
173.5481251904
 20
146.3016127183
 10
173.4987517395
 20
146.3161829928
 10
173.4506442981
 20
146.3337686042
 10
173.4038658297
 20
146.3544177947
 10
173.3583533709
 20
146.3780823219
 10
173.3146871284
 20
146.4044138976
 10
173.2729235682
 20
146.433421763
 10
173.2330062243
 20
146.4650966768
 10
173.1953459046
 20
146.4990626265
 10
173.1600596581
 20
146.5351140953
 10
173.1270304359
 20
146.5734566001
 10
173.0963178996
 20
146.6143306784
 10
173.0677029276
 20
146.6579354992
 10
173.0414046414
 20
146.7040718937
 10
173.0181400674
 20
146.7523828927
 10
172.9979168723
 20
146.8031791112
 10
172.9807273894
 20
146.8561499342
 10
172.9672656449
 20
146.9100065474
 10
172.957762981
 20
146.9643193461
 10
172.9519880554
 20
147.0195179351
 10
172.9499408683
 20
147.0756023143
  0
LWPOLYLINE
  5
2C9
100
AcDbEntity
  8
ASSI
100
AcDbPolyline
 62
250
  6
CONTINUOUS
 90
25
 70
0
 10
173.7498190245
 20
146.2757241582
 10
173.6987142883
 20
146.2773509882
 10
173.6481064648
 20
146.2821967159
 10
173.5979955541
 20
146.2902613414
 10
173.5481251904
 20
146.3016127183
 10
173.4987517395
 20
146.3161829928
 10
173.4506442981
 20
146.3337686042
 10
173.4038658297
 20
146.3544177947
 10
173.3583533709
 20
146.3780823219
 10
173.3146871284
 20
146.4044138976
 10
173.2729235682
 20
146.433421763
 10
173.2330062243
 20
146.4650966768
 10
173.1953459046
 20
146.4990626265
 10
173.1600596581
 20
146.5351140953
 10
173.1270304359
 20
146.5734566001
 10
173.0963178996
 20
146.6143306784
 10
173.0677029276
 20
146.6579354992
 10
173.0414046414
 20
146.7040718937
 10
173.0181400674
 20
146.7523828927
 10
172.9979168723
 20
146.8031791112
 10
172.9807273894
 20
146.8561499342
 10
172.9672656449
 20
146.9100065474
 10
172.957762981
 20
146.9643193461
 10
172.9519880554
 20
147.0195179351
 10
172.9499408683
 20
147.0756023143
  0
LINE
  5
2CA
100
AcDbEntity
  8
RACCORDO
100
AcDbLine
 62
250
  6
CONTINUOUS
 10
218.217609174
 20
200.4432706199
 11
218.217609174
 21
200.1433163114
  0
LINE
  5
2CB
100
AcDbEntity
  8
ASSI
100
AcDbLine
 62
250
  6
CONTINUOUS
 10
218.217609174
 20
200.4432706199
 11
218.217609174
 21
200.1433163114
  0
LINE
  5
2CC
100
AcDbEntity
  8
RACCORDO
100
AcDbLine
 62
250
  6
CONTINUOUS
 10
218.217609174
 20
129.4432706199
 11
218.217609174
 21
129.1433163114
  0
LINE
  5
2CD
100
AcDbEntity
  8
ASSI
100
AcDbLine
 62
250
  6
CONTINUOUS
 10
218.217609174
 20
129.4432706199
 11
218.217609174
 21
129.1433163114
  0
LINE
  5
2CE
100
AcDbEntity
  8
RACCORDO
100
AcDbLine
 62
250
  6
CONTINUOUS
 10
218.217609174
 20
75.2757241582
 11
218.217609174
 21
75.5756784667
  0
LINE
  5
2CF
100
AcDbEntity
  8
ASSI
100
AcDbLine
 62
250
  6
CONTINUOUS
 10
218.217609174
 20
75.2757241582
 11
218.217609174
 21
75.5756784667
  0
LINE
  5
2D0
100
AcDbEntity
  8
RACCORDO
100
AcDbLine
 62
250
  6
CONTINUOUS
 10
218.217609174
 20
146.2757241582
 11
218.217609174
 21
146.5756784667
  0
LINE
  5
2D1
100
AcDbEntity
  8
ASSI
100
AcDbLine
 62
250
  6
CONTINUOUS
 10
218.217609174
 20
146.2757241582
 11
218.217609174
 21
146.5756784667
  0
LINE
  5
2D2
100
AcDbEntity
  8
RACCORDO
100
AcDbLine
 62
7
  6
CONTINUOUS
 10
218.7087140992
 20
76.0844212366
 11
218.7087140992
 21
128.6345735415
  0
LINE
  5
2D3
100
AcDbEntity
  8
ASSI
100
AcDbLine
 62
7
  6
CONTINUOUS
 10
218.7087140992
 20
76.0844212366
 11
218.7087140992
 21
128.6345735415
  0
LINE
  5
2D4
100
AcDbEntity
  8
RACCORDO
100
AcDbLine
 62
7
  6
CONTINUOUS
 10
218.7087140992
 20
147.0844212366
 11
218.7087140992
 21
199.6345735415
  0
LINE
  5
2D5
100
AcDbEntity
  8
ASSI
100
AcDbLine
 62
7
  6
CONTINUOUS
 10
218.7087140992
 20
147.0844212366
 11
218.7087140992
 21
199.6345735415
  0
LINE
  5
2D6
100
AcDbEntity
  8
RACCORDO
100
AcDbLine
 62
250
  6
CONTINUOUS
 10
218.7175330215
 20
199.6433924638
 11
218.7175330215
 21
147.0756023143
  0
LINE
  5
2D7
100
AcDbEntity
  8
ASSI
100
AcDbLine
 62
250
  6
CONTINUOUS
 10
218.7175330215
 20
199.6433924638
 11
218.7175330215
 21
147.0756023143
  0
LINE
  5
2D8
100
AcDbEntity
  8
RACCORDO
100
AcDbLine
 62
250
  6
CONTINUOUS
 10
218.7175330215
 20
128.6433924638
 11
218.7175330215
 21
76.0756023143
  0
LINE
  5
2D9
100
AcDbEntity
  8
ASSI
100
AcDbLine
 62
250
  6
CONTINUOUS
 10
218.7175330215
 20
128.6433924638
 11
218.7175330215
 21
76.0756023143
  0
LINE
  5
2DA
100
AcDbEntity
  8
RACCORDO
100
AcDbLine
 62
250
  6
CONTINUOUS
 10
219.0174873301
 20
199.6433924638
 11
219.0174873301
 21
147.0756023143
  0
LINE
  5
2DB
100
AcDbEntity
  8
ASSI
100
AcDbLine
 62
250
  6
CONTINUOUS
 10
219.0174873301
 20
199.6433924638
 11
219.0174873301
 21
147.0756023143
  0
LINE
  5
2DC
100
AcDbEntity
  8
RACCORDO
100
AcDbLine
 62
250
  6
CONTINUOUS
 10
219.0174873301
 20
128.6433924638
 11
219.0174873301
 21
76.0756023143
  0
LINE
  5
2DD
100
AcDbEntity
  8
ASSI
100
AcDbLine
 62
250
  6
CONTINUOUS
 10
219.0174873301
 20
128.6433924638
 11
219.0174873301
 21
76.0756023143
  0
LWPOLYLINE
  5
2DE
100
AcDbEntity
  8
RACCORDO
100
AcDbPolyline
 62
250
  6
CONTINUOUS
 90
25
 70
0
 10
218.717533019
 20
147.0756023168
 10
218.7165314873
 20
147.0438733181
 10
218.7135090237
 20
147.0121949953
 10
218.7084629592
 20
146.9806969704
 10
218.7013899694
 20
146.9494748381
 10
218.6923088564
 20
146.9186956006
 10
218.6812827746
 20
146.8885905772
 10
218.6683730894
 20
146.8593040478
 10
218.6536300427
 20
146.8309300174
 10
218.6371369261
 20
146.8036098878
 10
218.6189852573
 20
146.7774677878
 10
218.5992467916
 20
146.7525821569
 10
218.5779842896
 20
146.7290188037
 10
218.5553983041
 20
146.7069715349
 10
218.5314844554
 20
146.6864096308
 10
218.5059399064
 20
146.6671281496
 10
218.4786817311
 20
146.6491955372
 10
218.4498979913
 20
146.6328628204
 10
218.4196504281
 20
146.6182738561
 10
218.3878927672
 20
146.6055319632
 10
218.3548686009
 20
146.5948585886
 10
218.3211234586
 20
146.5864895138
 10
218.286958267
 20
146.5804970562
 10
218.2523983524
 20
146.5768833965
 10
218.2176091706
 20
146.5756784701
  0
LWPOLYLINE
  5
2DF
100
AcDbEntity
  8
ASSI
100
AcDbPolyline
 62
250
  6
CONTINUOUS
 90
25
 70
0
 10
218.717533019
 20
147.0756023168
 10
218.7165314873
 20
147.0438733181
 10
218.7135090237
 20
147.0121949953
 10
218.7084629592
 20
146.9806969704
 10
218.7013899694
 20
146.9494748381
 10
218.6923088564
 20
146.9186956006
 10
218.6812827746
 20
146.8885905772
 10
218.6683730894
 20
146.8593040478
 10
218.6536300427
 20
146.8309300174
 10
218.6371369261
 20
146.8036098878
 10
218.6189852573
 20
146.7774677878
 10
218.5992467916
 20
146.7525821569
 10
218.5779842896
 20
146.7290188037
 10
218.5553983041
 20
146.7069715349
 10
218.5314844554
 20
146.6864096308
 10
218.5059399064
 20
146.6671281496
 10
218.4786817311
 20
146.6491955372
 10
218.4498979913
 20
146.6328628204
 10
218.4196504281
 20
146.6182738561
 10
218.3878927672
 20
146.6055319632
 10
218.3548686009
 20
146.5948585886
 10
218.3211234586
 20
146.5864895138
 10
218.286958267
 20
146.5804970562
 10
218.2523983524
 20
146.5768833965
 10
218.2176091706
 20
146.5756784701
  0
LWPOLYLINE
  5
2E0
100
AcDbEntity
  8
RACCORDO
100
AcDbPolyline
 62
250
  6
CONTINUOUS
 90
25
 70
0
 10
218.717533019
 20
76.0756023168
 10
218.7165314873
 20
76.0438733181
 10
218.7135090237
 20
76.0121949953
 10
218.7084629592
 20
75.9806969704
 10
218.7013899694
 20
75.9494748381
 10
218.6923088564
 20
75.9186956006
 10
218.6812827746
 20
75.8885905772
 10
218.6683730894
 20
75.8593040478
 10
218.6536300427
 20
75.8309300174
 10
218.6371369261
 20
75.8036098878
 10
218.6189852573
 20
75.7774677878
 10
218.5992467916
 20
75.7525821569
 10
218.5779842896
 20
75.7290188037
 10
218.5553983041
 20
75.7069715349
 10
218.5314844554
 20
75.6864096308
 10
218.5059399064
 20
75.6671281496
 10
218.4786817311
 20
75.6491955372
 10
218.4498979913
 20
75.6328628204
 10
218.4196504281
 20
75.6182738561
 10
218.3878927672
 20
75.6055319632
 10
218.3548686009
 20
75.5948585886
 10
218.3211234586
 20
75.5864895138
 10
218.286958267
 20
75.5804970562
 10
218.2523983524
 20
75.5768833965
 10
218.2176091706
 20
75.5756784701
  0
LWPOLYLINE
  5
2E1
100
AcDbEntity
  8
ASSI
100
AcDbPolyline
 62
250
  6
CONTINUOUS
 90
25
 70
0
 10
218.717533019
 20
76.0756023168
 10
218.7165314873
 20
76.0438733181
 10
218.7135090237
 20
76.0121949953
 10
218.7084629592
 20
75.9806969704
 10
218.7013899694
 20
75.9494748381
 10
218.6923088564
 20
75.9186956006
 10
218.6812827746
 20
75.8885905772
 10
218.6683730894
 20
75.8593040478
 10
218.6536300427
 20
75.8309300174
 10
218.6371369261
 20
75.8036098878
 10
218.6189852573
 20
75.7774677878
 10
218.5992467916
 20
75.7525821569
 10
218.5779842896
 20
75.7290188037
 10
218.5553983041
 20
75.7069715349
 10
218.5314844554
 20
75.6864096308
 10
218.5059399064
 20
75.6671281496
 10
218.4786817311
 20
75.6491955372
 10
218.4498979913
 20
75.6328628204
 10
218.4196504281
 20
75.6182738561
 10
218.3878927672
 20
75.6055319632
 10
218.3548686009
 20
75.5948585886
 10
218.3211234586
 20
75.5864895138
 10
218.286958267
 20
75.5804970562
 10
218.2523983524
 20
75.5768833965
 10
218.2176091706
 20
75.5756784701
  0
LWPOLYLINE
  5
2E2
100
AcDbEntity
  8
RACCORDO
100
AcDbPolyline
 62
250
  6
CONTINUOUS
 90
25
 70
0
 10
219.0174873301
 20
147.0756023143
 10
219.0158605001
 20
147.0244975781
 10
219.0110147723
 20
146.9738897547
 10
219.0029501469
 20
146.9237788439
 10
218.99159877
 20
146.8739084802
 10
218.9770284954
 20
146.8245350293
 10
218.9594428841
 20
146.7764275879
 10
218.9387936936
 20
146.7296491195
 10
218.9151291663
 20
146.6841366608
 10
218.8887975907
 20
146.6404704182
 10
218.8597897253
 20
146.598706858
 10
218.8281148115
 20
146.5587895141
 10
218.7941488618
 20
146.5211291944
 10
218.7580973929
 20
146.485842948
 10
218.7197548882
 20
146.4528137258
 10
218.6788808099
 20
146.4221011894
 10
218.635275989
 20
146.3934862174
 10
218.5891395946
 20
146.3671879312
 10
218.5408285956
 20
146.3439233572
 10
218.4900323771
 20
146.3237001621
 10
218.4370615541
 20
146.3065106792
 10
218.3832049408
 20
146.2930489347
 10
218.3288921421
 20
146.2835462708
 10
218.2736935532
 20
146.2777713452
 10
218.217609174
 20
146.2757241582
  0
LWPOLYLINE
  5
2E3
100
AcDbEntity
  8
ASSI
100
AcDbPolyline
 62
250
  6
CONTINUOUS
 90
25
 70
0
 10
219.0174873301
 20
147.0756023143
 10
219.0158605001
 20
147.0244975781
 10
219.0110147723
 20
146.9738897547
 10
219.0029501469
 20
146.9237788439
 10
218.99159877
 20
146.8739084802
 10
218.9770284954
 20
146.8245350293
 10
218.9594428841
 20
146.7764275879
 10
218.9387936936
 20
146.7296491195
 10
218.9151291663
 20
146.6841366608
 10
218.8887975907
 20
146.6404704182
 10
218.8597897253
 20
146.598706858
 10
218.8281148115
 20
146.5587895141
 10
218.7941488618
 20
146.5211291944
 10
218.7580973929
 20
146.485842948
 10
218.7197548882
 20
146.4528137258
 10
218.6788808099
 20
146.4221011894
 10
218.635275989
 20
146.3934862174
 10
218.5891395946
 20
146.3671879312
 10
218.5408285956
 20
146.3439233572
 10
218.4900323771
 20
146.3237001621
 10
218.4370615541
 20
146.3065106792
 10
218.3832049408
 20
146.2930489347
 10
218.3288921421
 20
146.2835462708
 10
218.2736935532
 20
146.2777713452
 10
218.217609174
 20
146.2757241582
  0
LWPOLYLINE
  5
2E4
100
AcDbEntity
  8
RACCORDO
100
AcDbPolyline
 62
250
  6
CONTINUOUS
 90
25
 70
0
 10
219.0174873301
 20
76.0756023143
 10
219.0158605001
 20
76.0244975781
 10
219.0110147723
 20
75.9738897547
 10
219.0029501469
 20
75.9237788439
 10
218.99159877
 20
75.8739084802
 10
218.9770284954
 20
75.8245350293
 10
218.9594428841
 20
75.7764275879
 10
218.9387936936
 20
75.7296491195
 10
218.9151291663
 20
75.6841366608
 10
218.8887975907
 20
75.6404704182
 10
218.8597897253
 20
75.598706858
 10
218.8281148115
 20
75.5587895141
 10
218.7941488618
 20
75.5211291944
 10
218.7580973929
 20
75.485842948
 10
218.7197548882
 20
75.4528137258
 10
218.6788808099
 20
75.4221011894
 10
218.635275989
 20
75.3934862174
 10
218.5891395946
 20
75.3671879312
 10
218.5408285956
 20
75.3439233572
 10
218.4900323771
 20
75.3237001621
 10
218.4370615541
 20
75.3065106792
 10
218.3832049408
 20
75.2930489347
 10
218.3288921421
 20
75.2835462708
 10
218.2736935532
 20
75.2777713452
 10
218.217609174
 20
75.2757241582
  0
LWPOLYLINE
  5
2E5
100
AcDbEntity
  8
ASSI
100
AcDbPolyline
 62
250
  6
CONTINUOUS
 90
25
 70
0
 10
219.0174873301
 20
76.0756023143
 10
219.0158605001
 20
76.0244975781
 10
219.0110147723
 20
75.9738897547
 10
219.0029501469
 20
75.9237788439
 10
218.99159877
 20
75.8739084802
 10
218.9770284954
 20
75.8245350293
 10
218.9594428841
 20
75.7764275879
 10
218.9387936936
 20
75.7296491195
 10
218.9151291663
 20
75.6841366608
 10
218.8887975907
 20
75.6404704182
 10
218.8597897253
 20
75.598706858
 10
218.8281148115
 20
75.5587895141
 10
218.7941488618
 20
75.5211291944
 10
218.7580973929
 20
75.485842948
 10
218.7197548882
 20
75.4528137258
 10
218.6788808099
 20
75.4221011894
 10
218.635275989
 20
75.3934862174
 10
218.5891395946
 20
75.3671879312
 10
218.5408285956
 20
75.3439233572
 10
218.4900323771
 20
75.3237001621
 10
218.4370615541
 20
75.3065106792
 10
218.3832049408
 20
75.2930489347
 10
218.3288921421
 20
75.2835462708
 10
218.2736935532
 20
75.2777713452
 10
218.217609174
 20
75.2757241582
  0
LINE
  5
2E6
100
AcDbEntity
  8
RACCORDO
100
AcDbLine
 62
250
  6
CONTINUOUS
 10
218.217609174
 20
129.1433163114
 11
218.2087902516
 21
129.134497389
  0
LINE
  5
2E7
100
AcDbEntity
  8
ASSI
100
AcDbLine
 62
250
  6
CONTINUOUS
 10
218.217609174
 20
129.1433163114
 11
218.2087902516
 21
129.134497389
  0
LINE
  5
2E8
100
AcDbEntity
  8
RACCORDO
100
AcDbLine
 62
250
  6
CONTINUOUS
 10
218.7175330215
 20
128.6433924638
 11
218.7087140992
 21
128.6345735415
  0
LINE
  5
2E9
100
AcDbEntity
  8
ASSI
100
AcDbLine
 62
250
  6
CONTINUOUS
 10
218.7175330215
 20
128.6433924638
 11
218.7087140992
 21
128.6345735415
  0
LINE
  5
2EA
100
AcDbEntity
  8
RACCORDO
100
AcDbLine
 62
250
  6
CONTINUOUS
 10
152.2156797337
 20
59.0894073256
 11
151.9837140992
 21
58.8574416912
  0
LINE
  5
2EB
100
AcDbEntity
  8
ASSI
100
AcDbLine
 62
250
  6
CONTINUOUS
 10
152.2156797337
 20
59.0894073256
 11
151.9837140992
 21
58.8574416912
  0
LINE
  5
2EC
100
AcDbEntity
  8
RACCORDO
100
AcDbLine
 62
250
  6
CONTINUOUS
 10
218.217609174
 20
146.5756784667
 11
218.2087902516
 21
146.584497389
  0
LINE
  5
2ED
100
AcDbEntity
  8
ASSI
100
AcDbLine
 62
250
  6
CONTINUOUS
 10
218.217609174
 20
146.5756784667
 11
218.2087902516
 21
146.584497389
  0
LINE
  5
2EE
100
AcDbEntity
  8
RACCORDO
100
AcDbLine
 62
250
  6
CONTINUOUS
 10
218.7175330215
 20
147.0756023143
 11
218.7087140992
 21
147.0844212366
  0
LINE
  5
2EF
100
AcDbEntity
  8
ASSI
100
AcDbLine
 62
250
  6
CONTINUOUS
 10
218.7175330215
 20
147.0756023143
 11
218.7087140992
 21
147.0844212366
  0
LINE
  5
2F0
100
AcDbEntity
  8
RACCORDO
100
AcDbLine
 62
250
  6
CONTINUOUS
 10
152.2156797337
 20
216.6295874524
 11
151.9837140992
 21
216.8615530869
  0
LINE
  5
2F1
100
AcDbEntity
  8
ASSI
100
AcDbLine
 62
250
  6
CONTINUOUS
 10
152.2156797337
 20
216.6295874524
 11
151.9837140992
 21
216.8615530869
  0
LINE
  5
2F2
100
AcDbEntity
  8
RACCORDO
100
AcDbLine
 62
250
  6
CONTINUOUS
 10
153.7136240358
 20
57.5914630235
 11
153.4816584013
 21
57.359497389
  0
LINE
  5
2F3
100
AcDbEntity
  8
ASSI
100
AcDbLine
 62
250
  6
CONTINUOUS
 10
153.7136240358
 20
57.5914630235
 11
153.4816584013
 21
57.359497389
  0
LINE
  5
2F4
100
AcDbEntity
  8
RACCORDO
100
AcDbLine
 62
250
  6
CONTINUOUS
 10
173.2498951769
 20
76.0756023143
 11
173.2587140992
 21
76.0844212366
  0
LINE
  5
2F5
100
AcDbEntity
  8
ASSI
100
AcDbLine
 62
250
  6
CONTINUOUS
 10
173.2498951769
 20
76.0756023143
 11
173.2587140992
 21
76.0844212366
  0
LINE
  5
2F6
100
AcDbEntity
  8
RACCORDO
100
AcDbLine
 62
250
  6
CONTINUOUS
 10
173.7498190245
 20
75.5756784667
 11
173.7586379468
 21
75.584497389
  0
LINE
  5
2F7
100
AcDbEntity
  8
ASSI
100
AcDbLine
 62
250
  6
CONTINUOUS
 10
173.7498190245
 20
75.5756784667
 11
173.7586379468
 21
75.584497389
  0
LINE
  5
2F8
100
AcDbEntity
  8
RACCORDO
100
AcDbLine
 62
250
  6
CONTINUOUS
 10
153.7136240358
 20
218.1275317546
 11
153.4816584013
 21
218.359497389
  0
LINE
  5
2F9
100
AcDbEntity
  8
ASSI
100
AcDbLine
 62
250
  6
CONTINUOUS
 10
153.7136240358
 20
218.1275317546
 11
153.4816584013
 21
218.359497389
  0
LINE
  5
2FA
100
AcDbEntity
  8
RACCORDO
100
AcDbLine
 62
250
  6
CONTINUOUS
 10
173.2498951769
 20
199.6433924638
 11
173.2587140992
 21
199.6345735415
  0
LINE
  5
2FB
100
AcDbEntity
  8
ASSI
100
AcDbLine
 62
250
  6
CONTINUOUS
 10
173.2498951769
 20
199.6433924638
 11
173.2587140992
 21
199.6345735415
  0
LINE
  5
2FC
100
AcDbEntity
  8
RACCORDO
100
AcDbLine
 62
250
  6
CONTINUOUS
 10
173.7498190245
 20
200.1433163114
 11
173.7586379468
 21
200.134497389
  0
LINE
  5
2FD
100
AcDbEntity
  8
ASSI
100
AcDbLine
 62
250
  6
CONTINUOUS
 10
173.7498190245
 20
200.1433163114
 11
173.7586379468
 21
200.134497389
  0
LINE
  5
2FE
100
AcDbEntity
  8
SCRITTE
100
AcDbLine
 62
250
  6
CONTINUOUS
 10
239.8814569312
 20
68.008955389
 11
239.8425617117
 21
68.216807389
  0
LINE
  5
2FF
100
AcDbEntity
  8
SCRITTE
100
AcDbLine
 62
250
  6
CONTINUOUS
 10
239.8137633749
 20
64.087486389
 11
239.8859053559
 21
63.694637389
  0
LINE
  5
300
100
AcDbEntity
  8
SCRITTE
100
AcDbLine
 62
250
  6
CONTINUOUS
 10
239.9185704435
 20
67.808376389
 11
239.8976472141
 21
67.923564389
  0
LINE
  5
301
100
AcDbEntity
  8
SCRITTE
100
AcDbLine
 62
250
  6
CONTINUOUS
 10
239.8137633749
 20
68.022737389
 11
239.9185704435
 21
67.395460389
  0
LINE
  5
302
100
AcDbEntity
  8
SCRITTE
100
AcDbLine
 62
250
  6
CONTINUOUS
 10
239.9185704435
 20
63.861818389
 11
239.8137633749
 21
64.504646389
  0
LWPOLYLINE
  5
303
100
AcDbEntity
  8
0
100
AcDbPolyline
 62
7
  6
CONTINUOUS
 90
3
 70
0
 43
0.3499999917
 10
246.2908557129
 20
134.9666381836
 10
245.4337060547
 20
135.8237878418
 10
248.433717041
 20
135.8237878418
  0
LWPOLYLINE
  5
304
100
AcDbEntity
  8
0
100
AcDbPolyline
 62
7
  6
CONTINUOUS
 90
10
 70
0
 43
0.3499999917
 10
245.4337060547
 20
137.7523553467
 10
246.076574707
 20
137.1094995117
 10
246.9337243652
 20
136.6809246826
 10
248.0051550293
 20
136.6809246826
 10
248.433717041
 20
137.1094995117
 10
248.433717041
 20
137.7523553467
 10
248.0051550293
 20
138.1809301758
 10
247.1480053711
 20
138.1809301758
 10
246.7194177246
 20
137.7523553467
 10
246.7194177246
 20
136.8237872314
  0
LWPOLYLINE
  5
305
100
AcDbEntity
  8
0
100
AcDbPolyline
 62
7
  6
CONTINUOUS
 90
3
 70
0
 43
0.3499999917
 10
246.2908557129
 20
139.0380670166
 10
245.4337060547
 20
139.8952166748
 10
248.433717041
 20
139.8952166748
  0
LINE
  5
306
100
AcDbEntity
  8
SCRITTE
100
AcDbLine
 62
250
  6
CONTINUOUS
 10
239.8137633749
 20
66.729882389
 11
239.8719525708
 21
66.312438389
  0
LINE
  5
307
100
AcDbEntity
  8
SCRITTE
100
AcDbLine
 62
250
  6
CONTINUOUS
 10
239.9185704435
 20
66.339431389
 11
239.8504187384
 21
66.835772389
  0
LWPOLYLINE
  5
308
100
AcDbEntity
  8
SCRITTE
100
AcDbPolyline
 62
250
  6
CONTINUOUS
 90
26
 70
0
 10
239.8552921334
 20
70.0584671927
 10
239.8549445997
 20
70.0637223198
 10
239.8545851516
 20
70.0687885875
 10
239.854213986
 20
70.0736655492
 10
239.8538312993
 20
70.0783527588
 10
239.853437335
 20
70.0828494163
 10
239.8530325233
 20
70.0871533077
 10
239.8526173409
 20
70.0912618654
 10
239.8521922648
 20
70.0951725219
 10
239.8517576929
 20
70.0988826843
 10
239.8513137082
 20
70.1023896589
 10
239.8508603147
 20
70.1056907263
 10
239.8503975162
 20
70.1087831674
 10
239.8499253169
 20
70.1116642631
 10
239.8494437207
 20
70.1143312942
 10
239.8489527317
 20
70.1167815416
 10
239.8484523538
 20
70.119012286
 10
239.8479996943
 20
70.1208071589
 10
239.8475396205
 20
70.122415306
 10
239.847072133
 20
70.1238255845
 10
239.8465972328
 20
70.1250268516
 10
239.8461149205
 20
70.1260079645
 10
239.8456251971
 20
70.1267577802
 10
239.8451280632
 20
70.1272651558
 10
239.8446235198
 20
70.1275189487
 10
239.8441115675
 20
70.1275080159
  0
LINE
  5
309
100
AcDbEntity
  8
SCRITTE
100
AcDbLine
 62
250
  6
CONTINUOUS
 10
239.8613588021
 20
70.4096361787
 11
239.8625838525
 21
70.3909766523
  0
LINE
  5
30A
100
AcDbEntity
  8
SCRITTE
100
AcDbLine
 62
250
  6
CONTINUOUS
 10
239.8559503817
 20
70.0473880207
 11
239.8552921334
 21
70.0584671927
  0
LINE
  5
30B
100
AcDbEntity
  8
SCRITTE
100
AcDbLine
 62
250
  6
CONTINUOUS
 10
239.8625838525
 20
70.3909766523
 11
239.8636767916
 21
70.3721838448
  0
LINE
  5
30C
100
AcDbEntity
  8
SCRITTE
100
AcDbLine
 62
250
  6
CONTINUOUS
 10
239.8636767916
 20
70.3721838448
 11
239.8651095507
 21
70.3444689068
  0
LINE
  5
30D
100
AcDbEntity
  8
SCRITTE
100
AcDbLine
 62
250
  6
CONTINUOUS
 10
239.856556875
 20
70.0355340193
 11
239.8559503817
 21
70.0473880207
  0
LINE
  5
30E
100
AcDbEntity
  8
SCRITTE
100
AcDbLine
 62
250
  6
CONTINUOUS
 10
239.8651095507
 20
70.3444689068
 11
239.8669947314
 21
70.303360868
  0
LINE
  5
30F
100
AcDbEntity
  8
SCRITTE
100
AcDbLine
 62
250
  6
CONTINUOUS
 10
239.8571088489
 20
70.0229145089
 11
239.856556875
 21
70.0355340193
  0
LINE
  5
310
100
AcDbEntity
  8
SCRITTE
100
AcDbLine
 62
250
  6
CONTINUOUS
 10
239.8669947314
 20
70.303360868
 11
239.8680028553
 21
70.2792259096
  0
LINE
  5
311
100
AcDbEntity
  8
SCRITTE
100
AcDbLine
 62
250
  6
CONTINUOUS
 10
239.8576057271
 20
70.0096607991
 11
239.8571088489
 21
70.0229145089
  0
LWPOLYLINE
  5
312
100
AcDbEntity
  8
SCRITTE
100
AcDbPolyline
 62
250
  6
CONTINUOUS
 90
7
 70
0
 10
239.8680028553
 20
70.2792259096
 10
239.8684273904
 20
70.267011006
 10
239.8686049918
 20
70.2608762082
 10
239.8687556076
 20
70.2547228881
 10
239.8688774178
 20
70.2485292937
 10
239.868968816
 20
70.2422764524
 10
239.8690281394
 20
70.2359757006
  0
LINE
  5
313
100
AcDbEntity
  8
SCRITTE
100
AcDbLine
 62
250
  6
CONTINUOUS
 10
239.8580487026
 20
69.9958950656
 11
239.8576057271
 21
70.0096607991
  0
LINE
  5
314
100
AcDbEntity
  8
SCRITTE
100
AcDbLine
 62
250
  6
CONTINUOUS
 10
239.8586256642
 20
69.9741975769
 11
239.8580487026
 21
69.9958950656
  0
LINE
  5
315
100
AcDbEntity
  8
SCRITTE
100
AcDbLine
 62
250
  6
CONTINUOUS
 10
239.8591122258
 20
69.951199052
 11
239.8586256642
 21
69.9741975769
  0
LINE
  5
316
100
AcDbEntity
  8
SCRITTE
100
AcDbLine
 62
250
  6
CONTINUOUS
 10
239.8595655361
 20
69.9234587265
 11
239.8591122258
 21
69.951199052
  0
LINE
  5
317
100
AcDbEntity
  8
SCRITTE
100
AcDbLine
 62
250
  6
CONTINUOUS
 10
239.8600133378
 20
69.8834388335
 11
239.8595655361
 21
69.9234587265
  0
LINE
  5
318
100
AcDbEntity
  8
SCRITTE
100
AcDbLine
 62
250
  6
CONTINUOUS
 10
239.8308413263
 20
69.6752464144
 11
239.8316183293
 21
69.5646692737
  0
LINE
  5
319
100
AcDbEntity
  8
SCRITTE
100
AcDbLine
 62
250
  6
CONTINUOUS
 10
239.8602944201
 20
69.8391679762
 11
239.8600133378
 21
69.8834388335
  0
LINE
  5
31A
100
AcDbEntity
  8
SCRITTE
100
AcDbLine
 62
250
  6
CONTINUOUS
 10
239.8149879046
 20
69.1627462207
 11
239.8127786488
 21
69.5501825079
  0
LINE
  5
31B
100
AcDbEntity
  8
SCRITTE
100
AcDbLine
 62
250
  6
CONTINUOUS
 10
239.8306292635
 20
69.7703000504
 11
239.8308413263
 21
69.6752464144
  0
LINE
  5
31C
100
AcDbEntity
  8
RACCORDO
100
AcDbLine
 62
250
  6
CONTINUOUS
 10
238.2538041626
 20
58.0907777909
 11
238.2538041626
 21
57.5914630235
  0
LINE
  5
31D
100
AcDbEntity
  8
ASSI
100
AcDbLine
 62
250
  6
CONTINUOUS
 10
238.2538041626
 20
58.0907777909
 11
238.2538041626
 21
57.5914630235
  0
LINE
  5
31E
100
AcDbEntity
  8
RACCORDO
100
AcDbLine
 62
250
  6
CONTINUOUS
 10
238.2538041626
 20
217.6282169872
 11
238.2538041626
 21
218.1275317546
  0
LINE
  5
31F
100
AcDbEntity
  8
ASSI
100
AcDbLine
 62
250
  6
CONTINUOUS
 10
238.2538041626
 20
217.6282169872
 11
238.2538041626
 21
218.1275317546
  0
LINE
  5
320
100
AcDbEntity
  8
RACCORDO
100
AcDbLine
 62
250
  6
CONTINUOUS
 10
239.2524336974
 20
59.0894073256
 11
239.2524336974
 21
216.6295874524
  0
LINE
  5
321
100
AcDbEntity
  8
ASSI
100
AcDbLine
 62
250
  6
CONTINUOUS
 10
239.2524336974
 20
59.0894073256
 11
239.2524336974
 21
216.6295874524
  0
LINE
  5
322
100
AcDbEntity
  8
RACCORDO
100
AcDbLine
 62
250
  6
CONTINUOUS
 10
239.7517484647
 20
59.0894073256
 11
239.7517484647
 21
216.6295874524
  0
LINE
  5
323
100
AcDbEntity
  8
ASSI
100
AcDbLine
 62
250
  6
CONTINUOUS
 10
239.7517484647
 20
59.0894073256
 11
239.7517484647
 21
216.6295874524
  0
LINE
  5
324
100
AcDbEntity
  8
SCRITTE
100
AcDbLine
 62
250
  6
CONTINUOUS
 10
239.813757086
 20
64.659561389
 11
239.813757086
 21
65.077005389
  0
LINE
  5
325
100
AcDbEntity
  8
SCRITTE
100
AcDbLine
 62
250
  6
CONTINUOUS
 10
239.8137633749
 20
68.426564389
 11
239.8137633749
 21
68.022737389
  0
LINE
  5
326
100
AcDbEntity
  8
SCRITTE
100
AcDbLine
 62
250
  6
CONTINUOUS
 10
239.8137633749
 20
67.142903389
 11
239.8137633749
 21
66.729882389
  0
LINE
  5
327
100
AcDbEntity
  8
SCRITTE
100
AcDbLine
 62
250
  6
CONTINUOUS
 10
239.8137633749
 20
65.899402389
 11
239.8137633749
 21
65.482303389
  0
LINE
  5
328
100
AcDbEntity
  8
SCRITTE
100
AcDbLine
 62
250
  6
CONTINUOUS
 10
239.8137633749
 20
64.504646389
 11
239.8137633749
 21
64.087486389
  0
LINE
  5
329
100
AcDbEntity
  8
SCRITTE
100
AcDbLine
 62
250
  6
CONTINUOUS
 10
239.8137633749
 20
63.313431389
 11
239.8137633749
 21
62.859958389
  0
LINE
  5
32A
100
AcDbEntity
  8
SCRITTE
100
AcDbLine
 62
250
  6
CONTINUOUS
 10
239.860389907
 20
69.5646692737
 11
239.8602944201
 21
69.8391679762
  0
LINE
  5
32B
100
AcDbEntity
  8
SCRITTE
100
AcDbLine
 62
250
  6
CONTINUOUS
 10
239.8814569312
 20
68.408628389
 11
239.8814569312
 21
68.008955389
  0
LINE
  5
32C
100
AcDbEntity
  8
SCRITTE
100
AcDbLine
 62
250
  6
CONTINUOUS
 10
239.8976472141
 20
67.923564389
 11
239.8976472141
 21
68.492054389
  0
LINE
  5
32D
100
AcDbEntity
  8
SCRITTE
100
AcDbLine
 62
250
  6
CONTINUOUS
 10
239.9185704574
 20
70.6193030077
 11
239.9185704574
 21
70.2177698655
  0
LINE
  5
32E
100
AcDbEntity
  8
SCRITTE
100
AcDbLine
 62
250
  6
CONTINUOUS
 10
239.9185704574
 20
69.5785111071
 11
239.9185704574
 21
69.1627462207
  0
LINE
  5
32F
100
AcDbEntity
  8
SCRITTE
100
AcDbLine
 62
250
  6
CONTINUOUS
 10
239.9185704435
 20
65.077005389
 11
239.9185704435
 21
64.659561389
  0
LINE
  5
330
100
AcDbEntity
  8
SCRITTE
100
AcDbLine
 62
250
  6
CONTINUOUS
 10
239.9185704435
 20
63.493945389
 11
239.9185704435
 21
63.861818389
  0
LINE
  5
331
100
AcDbEntity
  8
SCRITTE
100
AcDbLine
 62
250
  6
CONTINUOUS
 10
239.9185704435
 20
65.301729389
 11
239.9185704435
 21
65.701087389
  0
LINE
  5
332
100
AcDbEntity
  8
SCRITTE
100
AcDbLine
 62
250
  6
CONTINUOUS
 10
239.9185704435
 20
66.280885389
 11
239.9185704435
 21
66.339431389
  0
LINE
  5
333
100
AcDbEntity
  8
SCRITTE
100
AcDbLine
 62
250
  6
CONTINUOUS
 10
239.9185704435
 20
66.921539389
 11
239.9185704435
 21
67.329910389
  0
LINE
  5
334
100
AcDbEntity
  8
SCRITTE
100
AcDbLine
 62
250
  6
CONTINUOUS
 10
239.9185704435
 20
67.395460389
 11
239.9185704435
 21
67.808376389
  0
LINE
  5
335
100
AcDbEntity
  8
SCRITTE
100
AcDbLine
 62
250
  6
CONTINUOUS
 10
239.9185704435
 20
68.600195389
 11
239.9185704435
 21
69.040164389
  0
LINE
  5
336
100
AcDbEntity
  8
0
100
AcDbLine
 62
7
  6
CONTINUOUS
 10
239.9837140992
 20
58.8574416912
 11
239.9837140992
 21
216.8615530869
  0
LINE
  5
337
100
AcDbEntity
  8
ASSI
100
AcDbLine
 62
7
  6
CONTINUOUS
 10
239.9837140992
 20
58.8574416912
 11
239.9837140992
 21
216.8615530869
  0
LINE
  5
338
100
AcDbEntity
  8
SCRITTE
100
AcDbLine
 62
250
  6
CONTINUOUS
 10
239.8127786488
 20
69.5501825079
 11
239.812612105
 21
69.7899245289
  0
LINE
  5
339
100
AcDbEntity
  8
SCRITTE
100
AcDbLine
 62
250
  6
CONTINUOUS
 10
239.8776040645
 20
69.8241473658
 11
239.8775547688
 21
69.5785111071
  0
LINE
  5
33A
100
AcDbEntity
  8
SCRITTE
100
AcDbLine
 62
250
  6
CONTINUOUS
 10
239.8308380095
 20
69.8609326425
 11
239.8306292635
 21
69.7703000504
  0
LINE
  5
33B
100
AcDbEntity
  8
SCRITTE
100
AcDbLine
 62
250
  6
CONTINUOUS
 10
239.812612105
 20
69.7899245289
 11
239.8132623626
 21
69.9532595641
  0
LINE
  5
33C
100
AcDbEntity
  8
SCRITTE
100
AcDbLine
 62
250
  6
CONTINUOUS
 10
239.8310586261
 20
69.9000757813
 11
239.8308380095
 21
69.8609326425
  0
LINE
  5
33D
100
AcDbEntity
  8
SCRITTE
100
AcDbLine
 62
250
  6
CONTINUOUS
 10
239.8776815258
 20
69.8371604358
 11
239.8776040645
 21
69.8241473658
  0
LINE
  5
33E
100
AcDbEntity
  8
SCRITTE
100
AcDbLine
 62
250
  6
CONTINUOUS
 10
239.8132623626
 20
69.9532595641
 11
239.8136140352
 21
70.0019552765
  0
LWPOLYLINE
  5
33F
100
AcDbEntity
  8
RACCORDO
100
AcDbPolyline
 62
250
  6
CONTINUOUS
 90
31
 70
0
 10
239.2524336974
 20
216.6295874524
 10
239.2508619342
 20
216.6828534746
 10
239.2467328867
 20
216.7351815036
 10
239.240046555
 20
216.7865715395
 10
239.230785823
 20
216.8369507635
 10
239.2189678068
 20
216.8863919945
 10
239.2046438545
 20
216.9351136885
 10
239.1877716165
 20
216.983347374
 10
239.1683934425
 20
217.0308615225
 10
239.146687729
 20
217.0771800053
 10
239.1226489626
 20
217.1222496479
 10
239.0962826568
 20
217.1661236247
 10
239.0677837486
 20
217.2084853305
 10
239.0371335211
 20
217.2493313515
 10
239.0043506911
 20
217.2886651015
 10
238.9696863458
 20
217.3261802159
 10
238.9331052058
 20
217.3618743716
 10
238.8946425503
 20
217.3957498917
 10
238.8546553046
 20
217.4275073817
 10
238.8133486609
 20
217.4570399763
 10
238.7705174268
 20
217.4844545408
 10
238.7259029506
 20
217.5097722756
 10
238.6793631998
 20
217.5331359044
 10
238.6310402068
 20
217.5544027034
 10
238.5811014173
 20
217.5731657019
 10
238.5293829311
 20
217.5894423151
 10
238.4760486483
 20
217.6032151277
 10
238.4217577154
 20
217.6140249229
 10
238.3667298479
 20
217.6217186284
 10
238.3107453303
 20
217.6264493165
 10
238.2538041626
 20
217.6282169872
  0
LWPOLYLINE
  5
340
100
AcDbEntity
  8
ASSI
100
AcDbPolyline
 62
250
  6
CONTINUOUS
 90
31
 70
0
 10
239.2524336974
 20
216.6295874524
 10
239.2508619342
 20
216.6828534746
 10
239.2467328867
 20
216.7351815036
 10
239.240046555
 20
216.7865715395
 10
239.230785823
 20
216.8369507635
 10
239.2189678068
 20
216.8863919945
 10
239.2046438545
 20
216.9351136885
 10
239.1877716165
 20
216.983347374
 10
239.1683934425
 20
217.0308615225
 10
239.146687729
 20
217.0771800053
 10
239.1226489626
 20
217.1222496479
 10
239.0962826568
 20
217.1661236247
 10
239.0677837486
 20
217.2084853305
 10
239.0371335211
 20
217.2493313515
 10
239.0043506911
 20
217.2886651015
 10
238.9696863458
 20
217.3261802159
 10
238.9331052058
 20
217.3618743716
 10
238.8946425503
 20
217.3957498917
 10
238.8546553046
 20
217.4275073817
 10
238.8133486609
 20
217.4570399763
 10
238.7705174268
 20
217.4844545408
 10
238.7259029506
 20
217.5097722756
 10
238.6793631998
 20
217.5331359044
 10
238.6310402068
 20
217.5544027034
 10
238.5811014173
 20
217.5731657019
 10
238.5293829311
 20
217.5894423151
 10
238.4760486483
 20
217.6032151277
 10
238.4217577154
 20
217.6140249229
 10
238.3667298479
 20
217.6217186284
 10
238.3107453303
 20
217.6264493165
 10
238.2538041626
 20
217.6282169872
  0
LWPOLYLINE
  5
341
100
AcDbEntity
  8
0
100
AcDbPolyline
 62
7
  6
CONTINUOUS
 90
28
 70
0
 10
239.9837140992
 20
216.8615530869
 10
239.9811906124
 20
216.9486006355
 10
239.9736062967
 20
217.0354966092
 10
239.9609602347
 20
217.1219461806
 10
239.943236995
 20
217.2077903418
 10
239.9204865059
 20
217.2925916751
 10
239.8929031159
 20
217.3756565676
 10
239.8607169948
 20
217.4565030273
 10
239.8240123267
 20
217.5351002588
 10
239.7828128556
 20
217.6114462195
 10
239.7372458132
 20
217.6852974881
 10
239.6874684097
 20
217.7563920447
 10
239.6334944807
 20
217.8246684867
 10
239.5753039721
 20
217.890047725
 10
239.5132088372
 20
217.9520826608
 10
239.4477739387
 20
218.0102091067
 10
239.3794251582
 20
218.0641316919
 10
239.3082615026
 20
218.1138521351
 10
239.2344146794
 20
218.159316418
 10
239.1582064855
 20
218.2003534534
 10
239.0798360589
 20
218.236881907
 10
238.9992185565
 20
218.2689250972
 10
238.9163650354
 20
218.2964027142
 10
238.8317703552
 20
218.3190764224
 10
238.7460814166
 20
218.3367578741
 10
238.6597171737
 20
218.3493890855
 10
238.5728487482
 20
218.3569720187
 10
238.4857697971
 20
218.359497389
  0
LWPOLYLINE
  5
342
100
AcDbEntity
  8
ASSI
100
AcDbPolyline
 62
7
  6
CONTINUOUS
 90
28
 70
0
 10
239.9837140992
 20
216.8615530869
 10
239.9811906124
 20
216.9486006355
 10
239.9736062967
 20
217.0354966092
 10
239.9609602347
 20
217.1219461806
 10
239.943236995
 20
217.2077903418
 10
239.9204865059
 20
217.2925916751
 10
239.8929031159
 20
217.3756565676
 10
239.8607169948
 20
217.4565030273
 10
239.8240123267
 20
217.5351002588
 10
239.7828128556
 20
217.6114462195
 10
239.7372458132
 20
217.6852974881
 10
239.6874684097
 20
217.7563920447
 10
239.6334944807
 20
217.8246684867
 10
239.5753039721
 20
217.890047725
 10
239.5132088372
 20
217.9520826608
 10
239.4477739387
 20
218.0102091067
 10
239.3794251582
 20
218.0641316919
 10
239.3082615026
 20
218.1138521351
 10
239.2344146794
 20
218.159316418
 10
239.1582064855
 20
218.2003534534
 10
239.0798360589
 20
218.236881907
 10
238.9992185565
 20
218.2689250972
 10
238.9163650354
 20
218.2964027142
 10
238.8317703552
 20
218.3190764224
 10
238.7460814166
 20
218.3367578741
 10
238.6597171737
 20
218.3493890855
 10
238.5728487482
 20
218.3569720187
 10
238.4857697971
 20
218.359497389
  0
LWPOLYLINE
  5
343
100
AcDbEntity
  8
RACCORDO
100
AcDbPolyline
 62
250
  6
CONTINUOUS
 90
31
 70
0
 10
239.7517484647
 20
216.6295874524
 10
239.7495682487
 20
216.7090955052
 10
239.743261922
 20
216.7875904107
 10
239.7329702792
 20
216.8648661015
 10
239.7189064075
 20
216.9404315051
 10
239.7011932268
 20
217.0144142663
 10
239.6797116808
 20
217.0875247903
 10
239.6543706982
 20
217.159906557
 10
239.625310617
 20
217.2310154438
 10
239.592662625
 20
217.3005093939
 10
239.5565511893
 20
217.3681485039
 10
239.5170477353
 20
217.4338221111
 10
239.4742350833
 20
217.4973958113
 10
239.4282163819
 20
217.558712639
 10
239.3791176116
 20
217.6176014434
 10
239.3270622134
 20
217.6739113737
 10
239.272158669
 20
217.7275178822
 10
239.2145727011
 20
217.7782526873
 10
239.1545343678
 20
217.8259208384
 10
239.0925028419
 20
217.8702095474
 10
239.0283734773
 20
217.9112426906
 10
238.9614693306
 20
217.949381674
 10
238.8916665033
 20
217.984519319
 10
238.8193139525
 20
218.016304229
 10
238.7443782119
 20
218.0445829911
 10
238.6668241029
 20
218.0691696632
 10
238.5870091616
 20
218.0897530243
 10
238.5055244943
 20
218.1060336712
 10
238.4227305631
 20
218.1178380465
 10
238.3387387178
 20
218.1250489528
 10
238.2538041626
 20
218.1275317546
  0
LWPOLYLINE
  5
344
100
AcDbEntity
  8
ASSI
100
AcDbPolyline
 62
250
  6
CONTINUOUS
 90
31
 70
0
 10
239.7517484647
 20
216.6295874524
 10
239.7495682487
 20
216.7090955052
 10
239.743261922
 20
216.7875904107
 10
239.7329702792
 20
216.8648661015
 10
239.7189064075
 20
216.9404315051
 10
239.7011932268
 20
217.0144142663
 10
239.6797116808
 20
217.0875247903
 10
239.6543706982
 20
217.159906557
 10
239.625310617
 20
217.2310154438
 10
239.592662625
 20
217.3005093939
 10
239.5565511893
 20
217.3681485039
 10
239.5170477353
 20
217.4338221111
 10
239.4742350833
 20
217.4973958113
 10
239.4282163819
 20
217.558712639
 10
239.3791176116
 20
217.6176014434
 10
239.3270622134
 20
217.6739113737
 10
239.272158669
 20
217.7275178822
 10
239.2145727011
 20
217.7782526873
 10
239.1545343678
 20
217.8259208384
 10
239.0925028419
 20
217.8702095474
 10
239.0283734773
 20
217.9112426906
 10
238.9614693306
 20
217.949381674
 10
238.8916665033
 20
217.984519319
 10
238.8193139525
 20
218.016304229
 10
238.7443782119
 20
218.0445829911
 10
238.6668241029
 20
218.0691696632
 10
238.5870091616
 20
218.0897530243
 10
238.5055244943
 20
218.1060336712
 10
238.4227305631
 20
218.1178380465
 10
238.3387387178
 20
218.1250489528
 10
238.2538041626
 20
218.1275317546
  0
LINE
  5
345
100
AcDbEntity
  8
SCRITTE
100
AcDbLine
 62
250
  6
CONTINUOUS
 10
239.8313010956
 20
69.9246135193
 11
239.8310586261
 21
69.9000757813
  0
LINE
  5
346
100
AcDbEntity
  8
SCRITTE
100
AcDbLine
 62
250
  6
CONTINUOUS
 10
239.8779132721
 20
69.8603947066
 11
239.8776815258
 21
69.8371604358
  0
LINE
  5
347
100
AcDbEntity
  8
SCRITTE
100
AcDbLine
 62
250
  6
CONTINUOUS
 10
239.8136140352
 20
70.0019552765
 11
239.8146091913
 21
70.098434353
  0
LINE
  5
348
100
AcDbEntity
  8
SCRITTE
100
AcDbLine
 62
250
  6
CONTINUOUS
 10
239.8316460101
 20
69.9482760655
 11
239.8313010956
 21
69.9246135193
  0
LINE
  5
349
100
AcDbEntity
  8
SCRITTE
100
AcDbLine
 62
250
  6
CONTINUOUS
 10
239.8146091913
 20
70.098434353
 11
239.8156685992
 21
70.1695378819
  0
LINE
  5
34A
100
AcDbEntity
  8
SCRITTE
100
AcDbLine
 62
250
  6
CONTINUOUS
 10
239.878172787
 20
69.8778238082
 11
239.8779132721
 21
69.8603947066
  0
LINE
  5
34B
100
AcDbEntity
  8
SCRITTE
100
AcDbLine
 62
250
  6
CONTINUOUS
 10
239.8156685992
 20
70.1695378819
 11
239.816341328
 21
70.2053457919
  0
LINE
  5
34C
100
AcDbEntity
  8
SCRITTE
100
AcDbLine
 62
250
  6
CONTINUOUS
 10
239.8320892745
 20
69.9711261973
 11
239.8316460101
 21
69.9482760655
  0
LINE
  5
34D
100
AcDbEntity
  8
SCRITTE
100
AcDbLine
 62
250
  6
CONTINUOUS
 10
239.8785099767
 20
69.8949795045
 11
239.878172787
 21
69.8778238082
  0
LINE
  5
34E
100
AcDbEntity
  8
SCRITTE
100
AcDbLine
 62
250
  6
CONTINUOUS
 10
239.8696474577
 20
70.2359757006
 11
239.8700065141
 21
70.2514512961
  0
LINE
  5
34F
100
AcDbEntity
  8
SCRITTE
100
AcDbLine
 62
250
  6
CONTINUOUS
 10
239.816341328
 20
70.2053457919
 11
239.8169398174
 21
70.2304445766
  0
LINE
  5
350
100
AcDbEntity
  8
SCRITTE
100
AcDbLine
 62
250
  6
CONTINUOUS
 10
239.8326286811
 20
69.9930694686
 11
239.8320892745
 21
69.9711261973
  0
LINE
  5
351
100
AcDbEntity
  8
SCRITTE
100
AcDbLine
 62
250
  6
CONTINUOUS
 10
239.8789251834
 20
69.9115755504
 11
239.8785099767
 21
69.8949795045
  0
LINE
  5
352
100
AcDbEntity
  8
SCRITTE
100
AcDbLine
 62
250
  6
CONTINUOUS
 10
239.8700065141
 20
70.2514512961
 11
239.8704222678
 21
70.2663012268
  0
LINE
  5
353
100
AcDbEntity
  8
SCRITTE
100
AcDbLine
 62
250
  6
CONTINUOUS
 10
239.8169398174
 20
70.2304445766
 11
239.8176755634
 21
70.2560741319
  0
LINE
  5
354
100
AcDbEntity
  8
SCRITTE
100
AcDbLine
 62
250
  6
CONTINUOUS
 10
239.8332632399
 20
70.0139099988
 11
239.8326286811
 21
69.9930694686
  0
LINE
  5
355
100
AcDbEntity
  8
SCRITTE
100
AcDbLine
 62
250
  6
CONTINUOUS
 10
239.8794144783
 20
69.9273833516
 11
239.8789251834
 21
69.9115755504
  0
LINE
  5
356
100
AcDbEntity
  8
SCRITTE
100
AcDbLine
 62
250
  6
CONTINUOUS
 10
239.8704222678
 20
70.2663012268
 11
239.8708934929
 21
70.2805770307
  0
LINE
  5
357
100
AcDbEntity
  8
SCRITTE
100
AcDbLine
 62
250
  6
CONTINUOUS
 10
239.8176755634
 20
70.2560741319
 11
239.8185552409
 21
70.2824085172
  0
LINE
  5
358
100
AcDbEntity
  8
SCRITTE
100
AcDbLine
 62
250
  6
CONTINUOUS
 10
239.8337385095
 20
70.0270896139
 11
239.8332632399
 21
70.0139099988
  0
LINE
  5
359
100
AcDbEntity
  8
SCRITTE
100
AcDbLine
 62
250
  6
CONTINUOUS
 10
239.8185552409
 20
70.2824085172
 11
239.8195775317
 21
70.3092171111
  0
LINE
  5
35A
100
AcDbEntity
  8
SCRITTE
100
AcDbLine
 62
250
  6
CONTINUOUS
 10
239.8708934929
 20
70.2805770307
 11
239.8714179063
 21
70.2943104029
  0
LINE
  5
35B
100
AcDbEntity
  8
SCRITTE
100
AcDbLine
 62
250
  6
CONTINUOUS
 10
239.8799740026
 20
69.9423762898
 11
239.8794144783
 21
69.9273833516
  0
LINE
  5
35C
100
AcDbEntity
  8
SCRITTE
100
AcDbLine
 62
250
  6
CONTINUOUS
 10
239.8342544324
 20
70.0396095423
 11
239.8337385095
 21
70.0270896139
  0
LINE
  5
35D
100
AcDbEntity
  8
SCRITTE
100
AcDbLine
 62
250
  6
CONTINUOUS
 10
239.8803842704
 20
69.9519622183
 11
239.8799740026
 21
69.9423762898
  0
LINE
  5
35E
100
AcDbEntity
  8
SCRITTE
100
AcDbLine
 62
250
  6
CONTINUOUS
 10
239.8195775317
 20
70.3092171111
 11
239.8207331247
 21
70.3358646117
  0
LINE
  5
35F
100
AcDbEntity
  8
SCRITTE
100
AcDbLine
 62
250
  6
CONTINUOUS
 10
239.8714179063
 20
70.2943104029
 11
239.8719889946
 21
70.3074536641
  0
LINE
  5
360
100
AcDbEntity
  8
SCRITTE
100
AcDbLine
 62
250
  6
CONTINUOUS
 10
239.8808231074
 20
69.9612220186
 11
239.8803842704
 21
69.9519622183
  0
LINE
  5
361
100
AcDbEntity
  8
SCRITTE
100
AcDbLine
 62
250
  6
CONTINUOUS
 10
239.8348094933
 20
70.0513899252
 11
239.8342544324
 21
70.0396095423
  0
LINE
  5
362
100
AcDbEntity
  8
SCRITTE
100
AcDbLine
 62
250
  6
CONTINUOUS
 10
239.8719889946
 20
70.3074536641
 11
239.8725991869
 21
70.3199392916
  0
LINE
  5
363
100
AcDbEntity
  8
SCRITTE
100
AcDbLine
 62
250
  6
CONTINUOUS
 10
239.8207331247
 20
70.3358646117
 11
239.8220123826
 21
70.3617057509
  0
LINE
  5
364
100
AcDbEntity
  8
SCRITTE
100
AcDbLine
 62
250
  6
CONTINUOUS
 10
239.8812894445
 20
69.9701464759
 11
239.8808231074
 21
69.9612220186
  0
LINE
  5
365
100
AcDbEntity
  8
SCRITTE
100
AcDbLine
 62
250
  6
CONTINUOUS
 10
239.835400936
 20
70.0623585485
 11
239.8348094933
 21
70.0513899252
  0
LINE
  5
366
100
AcDbEntity
  8
SCRITTE
100
AcDbLine
 62
250
  6
CONTINUOUS
 10
239.8725991869
 20
70.3199392916
 11
239.8733736117
 21
70.333993164
  0
LWPOLYLINE
  5
367
100
AcDbEntity
  8
SCRITTE
100
AcDbPolyline
 62
250
  6
CONTINUOUS
 90
48
 70
0
 10
239.8220123826
 20
70.3617057509
 10
239.8234061606
 20
70.3862707183
 10
239.8241432895
 20
70.3979821758
 10
239.8249058066
 20
70.4092651617
 10
239.8256926331
 20
70.4200838357
 10
239.8265022689
 20
70.430403635
 10
239.8273315299
 20
70.440195108
 10
239.8281768108
 20
70.4494300808
 10
239.8290345061
 20
70.4580803795
 10
239.8299010107
 20
70.4661178302
 10
239.8307727192
 20
70.473514259
 10
239.8316464021
 20
70.4802505126
 10
239.8325203332
 20
70.4863435201
 10
239.8333931622
 20
70.4918192312
 10
239.8342635388
 20
70.4967035954
 10
239.8351301126
 20
70.5010225624
 10
239.8359915333
 20
70.5048020818
 10
239.8370164621
 20
70.5086625725
 10
239.8380292566
 20
70.5118320732
 10
239.8390271474
 20
70.5143590308
 10
239.8400073653
 20
70.5162918924
 10
239.8409671407
 20
70.5176791049
 10
239.8419042352
 20
70.5185653045
 10
239.8428185338
 20
70.5189798837
 10
239.8437104522
 20
70.5189484243
 10
239.844580406
 20
70.518496508
 10
239.8454288112
 20
70.5176497166
 10
239.846256068
 20
70.5164325338
 10
239.8470625147
 20
70.5148650506
 10
239.8478484742
 20
70.5129662602
 10
239.8486142693
 20
70.5107551557
 10
239.849360223
 20
70.5082507302
 10
239.8502653657
 20
70.5047348014
 10
239.8511413062
 20
70.5008162367
 10
239.8519893399
 20
70.4965210379
 10
239.8528107623
 20
70.4918752064
 10
239.8536065965
 20
70.4869058944
 10
239.854376775
 20
70.4816448564
 10
239.8551209578
 20
70.4761249974
 10
239.855838805
 20
70.4703792224
 10
239.8565301827
 20
70.4644377654
 10
239.8571957813
 20
70.4583201763
 10
239.8578364974
 20
70.452043334
 10
239.8584532277
 20
70.4456241173
 10
239.8592395261
 20
70.4368721992
 10
239.8599854213
 20
70.4279331989
 10
239.8606915578
 20
70.4188431375
 10
239.8613588021
 20
70.4096361787
  0
LINE
  5
368
100
AcDbEntity
  8
SCRITTE
100
AcDbLine
 62
250
  6
CONTINUOUS
 10
239.88178189
 20
69.9787225894
 11
239.8812894445
 21
69.9701464759
  0
LINE
  5
369
100
AcDbEntity
  8
SCRITTE
100
AcDbLine
 62
250
  6
CONTINUOUS
 10
239.8733736117
 20
70.333993164
 11
239.8741877802
 21
70.3470917372
  0
LINE
  5
36A
100
AcDbEntity
  8
SCRITTE
100
AcDbLine
 62
250
  6
CONTINUOUS
 10
239.8822987298
 20
69.9869335729
 11
239.88178189
 21
69.9787225894
  0
LINE
  5
36B
100
AcDbEntity
  8
SCRITTE
100
AcDbLine
 62
250
  6
CONTINUOUS
 10
239.8741877802
 20
70.3470917372
 11
239.8750359838
 21
70.3593225572
  0
LINE
  5
36C
100
AcDbEntity
  8
SCRITTE
100
AcDbLine
 62
250
  6
CONTINUOUS
 10
239.8750359838
 20
70.3593225572
 11
239.8759114912
 21
70.3707414362
  0
LWPOLYLINE
  5
36D
100
AcDbEntity
  8
SCRITTE
100
AcDbPolyline
 62
250
  6
CONTINUOUS
 90
19
 70
0
 10
239.8759114912
 20
70.3707414362
 10
239.8768065478
 20
70.3813724526
 10
239.8773728893
 20
70.3876306217
 10
239.8779447307
 20
70.3936181478
 10
239.8785229822
 20
70.3993632804
 10
239.8791085538
 20
70.4048942688
 10
239.8797023261
 20
70.4102367625
 10
239.8803050628
 20
70.4154060118
 10
239.8809174979
 20
70.4204146672
 10
239.8815403658
 20
70.4252753793
 10
239.8821744631
 20
70.4299998423
 10
239.8828208363
 20
70.4345959262
 10
239.8834805941
 20
70.4390705445
 10
239.8841548455
 20
70.4434306109
 10
239.8847054573
 20
70.4468422462
 10
239.8852668029
 20
70.4501970144
 10
239.8858396304
 20
70.4535069366
 10
239.8864246879
 20
70.4567840342
 10
239.8870227237
 20
70.4600403284
  0
LWPOLYLINE
  5
36E
100
AcDbEntity
  8
SCRITTE
100
AcDbPolyline
 62
250
  6
CONTINUOUS
 90
13
 70
0
 10
239.8867829313
 20
70.0351843608
 10
239.8864526564
 20
70.0327410232
 10
239.8861282717
 20
70.0301909811
 10
239.8858091275
 20
70.0275318176
 10
239.8854945743
 20
70.0247611158
 10
239.8851839625
 20
70.0218764589
 10
239.8848005371
 20
70.0181080483
 10
239.8844227059
 20
70.0141611382
 10
239.8840509201
 20
70.0100390604
 10
239.8836856305
 20
70.0057451467
 10
239.8833272926
 20
70.0012829759
 10
239.8829763788
 20
69.9966571143
 10
239.8822987298
 20
69.9869335729
  0
LINE
  5
36F
100
AcDbEntity
  8
SCRITTE
100
AcDbLine
 62
250
  6
CONTINUOUS
 10
239.850133378
 20
65.791171389
 11
239.9185704435
 21
66.280885389
  0
LINE
  5
370
100
AcDbEntity
  8
SCRITTE
100
AcDbLine
 62
250
  6
CONTINUOUS
 10
239.8719525708
 20
66.312438389
 11
239.8137633749
 21
65.899402389
  0
LINE
  5
371
100
AcDbEntity
  8
SCRITTE
100
AcDbLine
 62
250
  6
CONTINUOUS
 10
239.8137633749
 20
62.859958389
 11
239.9185704435
 21
63.493945389
  0
LINE
  5
372
100
AcDbEntity
  8
SCRITTE
100
AcDbLine
 62
250
  6
CONTINUOUS
 10
239.9185704435
 20
69.040164389
 11
239.8137633749
 21
68.426564389
  0
LWPOLYLINE
  5
373
100
AcDbEntity
  8
SCRITTE
100
AcDbPolyline
 62
250
  6
CONTINUOUS
 90
7
 70
0
 10
239.8952084063
 20
70.0886424434
 10
239.8937601519
 20
70.0802311319
 10
239.8923286083
 20
70.0716626755
 10
239.890914445
 20
70.062905421
 10
239.8895183315
 20
70.0539277154
 10
239.8881409373
 20
70.0446979057
 10
239.8867829317
 20
70.0351843388
  0
LINE
  5
374
100
AcDbEntity
  8
SCRITTE
100
AcDbLine
 62
250
  6
CONTINUOUS
 10
239.8984004015
 20
70.1064843427
 11
239.8952084063
 21
70.0886424434
  0
LINE
  5
375
100
AcDbEntity
  8
SCRITTE
100
AcDbLine
 62
250
  6
CONTINUOUS
 10
239.9185704574
 20
70.2177698655
 11
239.9054969344
 21
70.1450386476
  0
LINE
  5
376
100
AcDbEntity
  8
SCRITTE
100
AcDbLine
 62
250
  6
CONTINUOUS
 10
239.9054969344
 20
70.1450386476
 11
239.8984004015
 21
70.1064843427
  0
LINE
  5
377
100
AcDbEntity
  8
SCRITTE
100
AcDbLine
 62
250
  6
CONTINUOUS
 10
239.8870227237
 20
70.4600403284
 11
239.8882589382
 21
70.466549908
  0
LINE
  5
378
100
AcDbEntity
  8
SCRITTE
100
AcDbLine
 62
250
  6
CONTINUOUS
 10
239.8976472141
 20
68.492054389
 11
239.9185704435
 21
68.600195389
  0
LINE
  5
379
100
AcDbEntity
  8
SCRITTE
100
AcDbLine
 62
250
  6
CONTINUOUS
 10
239.8882589382
 20
70.466549908
 11
239.8974895674
 21
70.5138399219
  0
LINE
  5
37A
100
AcDbEntity
  8
SCRITTE
100
AcDbLine
 62
250
  6
CONTINUOUS
 10
239.9139917904
 20
70.5960257599
 11
239.9185704574
 21
70.6193030077
  0
LINE
  5
37B
100
AcDbEntity
  8
SCRITTE
100
AcDbLine
 62
250
  6
CONTINUOUS
 10
239.8974895674
 20
70.5138399219
 11
239.9139917904
 21
70.5960257599
  0
LINE
  5
37C
100
AcDbEntity
  8
SCRITTE
100
AcDbLine
 62
250
  6
CONTINUOUS
 10
239.8859053559
 20
63.694637389
 11
239.8137633749
 21
63.313431389
  0
LINE
  5
37D
100
AcDbEntity
  8
SCRITTE
100
AcDbLine
 62
250
  6
CONTINUOUS
 10
239.8425617117
 20
68.216807389
 11
239.8814569312
 21
68.408628389
  0
LINE
  5
37E
100
AcDbEntity
  8
RACCORDO
100
AcDbLine
 62
250
  6
CONTINUOUS
 10
219.0174873301
 20
199.6433924638
 11
218.7175330215
 21
199.6433924638
  0
LINE
  5
37F
100
AcDbEntity
  8
ASSI
100
AcDbLine
 62
250
  6
CONTINUOUS
 10
219.0174873301
 20
199.6433924638
 11
218.7175330215
 21
199.6433924638
  0
LINE
  5
380
100
AcDbEntity
  8
RACCORDO
100
AcDbLine
 62
250
  6
CONTINUOUS
 10
172.9499408683
 20
199.6433924638
 11
173.2498951769
 21
199.6433924638
  0
LINE
  5
381
100
AcDbEntity
  8
ASSI
100
AcDbLine
 62
250
  6
CONTINUOUS
 10
172.9499408683
 20
199.6433924638
 11
173.2498951769
 21
199.6433924638
  0
LINE
  5
382
100
AcDbEntity
  8
RACCORDO
100
AcDbLine
 62
7
  6
CONTINUOUS
 10
218.2087902516
 20
200.134497389
 11
173.7586379468
 21
200.134497389
  0
LINE
  5
383
100
AcDbEntity
  8
ASSI
100
AcDbLine
 62
7
  6
CONTINUOUS
 10
218.2087902516
 20
200.134497389
 11
173.7586379468
 21
200.134497389
  0
LINE
  5
384
100
AcDbEntity
  8
RACCORDO
100
AcDbLine
 62
250
  6
CONTINUOUS
 10
173.7498190245
 20
200.1433163114
 11
218.217609174
 21
200.1433163114
  0
LINE
  5
385
100
AcDbEntity
  8
ASSI
100
AcDbLine
 62
250
  6
CONTINUOUS
 10
173.7498190245
 20
200.1433163114
 11
218.217609174
 21
200.1433163114
  0
LINE
  5
386
100
AcDbEntity
  8
RACCORDO
100
AcDbLine
 62
250
  6
CONTINUOUS
 10
173.7498190245
 20
200.4432706199
 11
218.217609174
 21
200.4432706199
  0
LINE
  5
387
100
AcDbEntity
  8
ASSI
100
AcDbLine
 62
250
  6
CONTINUOUS
 10
173.7498190245
 20
200.4432706199
 11
218.217609174
 21
200.4432706199
  0
LWPOLYLINE
  5
388
100
AcDbEntity
  8
RACCORDO
100
AcDbPolyline
 62
250
  6
CONTINUOUS
 90
25
 70
0
 10
218.2176091714
 20
200.1433163088
 10
218.2493381702
 20
200.1423147771
 10
218.2810164929
 20
200.1392923135
 10
218.3125145179
 20
200.134246249
 10
218.3437366501
 20
200.1271732592
 10
218.3745158877
 20
200.1180921463
 10
218.4046209111
 20
200.1070660644
 10
218.4339074404
 20
200.0941563792
 10
218.4622814708
 20
200.0794133325
 10
218.4896016005
 20
200.0629202159
 10
218.5157437005
 20
200.0447685471
 10
218.5406293314
 20
200.0250300814
 10
218.5641926846
 20
200.0037675794
 10
218.5862399534
 20
199.9811815939
 10
218.6068018574
 20
199.9572677452
 10
218.6260833386
 20
199.9317231962
 10
218.6440159511
 20
199.9044650209
 10
218.6603486679
 20
199.8756812812
 10
218.6749376321
 20
199.8454337179
 10
218.6876795251
 20
199.8136760571
 10
218.6983528997
 20
199.7806518907
 10
218.7067219744
 20
199.7469067484
 10
218.712714432
 20
199.7127415569
 10
218.7163280918
 20
199.6781816423
 10
218.7175330182
 20
199.6433924604
  0
LWPOLYLINE
  5
389
100
AcDbEntity
  8
ASSI
100
AcDbPolyline
 62
250
  6
CONTINUOUS
 90
25
 70
0
 10
218.2176091714
 20
200.1433163088
 10
218.2493381702
 20
200.1423147771
 10
218.2810164929
 20
200.1392923135
 10
218.3125145179
 20
200.134246249
 10
218.3437366501
 20
200.1271732592
 10
218.3745158877
 20
200.1180921463
 10
218.4046209111
 20
200.1070660644
 10
218.4339074404
 20
200.0941563792
 10
218.4622814708
 20
200.0794133325
 10
218.4896016005
 20
200.0629202159
 10
218.5157437005
 20
200.0447685471
 10
218.5406293314
 20
200.0250300814
 10
218.5641926846
 20
200.0037675794
 10
218.5862399534
 20
199.9811815939
 10
218.6068018574
 20
199.9572677452
 10
218.6260833386
 20
199.9317231962
 10
218.6440159511
 20
199.9044650209
 10
218.6603486679
 20
199.8756812812
 10
218.6749376321
 20
199.8454337179
 10
218.6876795251
 20
199.8136760571
 10
218.6983528997
 20
199.7806518907
 10
218.7067219744
 20
199.7469067484
 10
218.712714432
 20
199.7127415569
 10
218.7163280918
 20
199.6781816423
 10
218.7175330182
 20
199.6433924604
  0
LWPOLYLINE
  5
38A
100
AcDbEntity
  8
RACCORDO
100
AcDbPolyline
 62
250
  6
CONTINUOUS
 90
25
 70
0
 10
218.217609174
 20
200.4432706199
 10
218.2687139101
 20
200.4416437899
 10
218.3193217336
 20
200.4367980621
 10
218.3694326443
 20
200.4287334367
 10
218.419303008
 20
200.4173820598
 10
218.468676459
 20
200.4028117852
 10
218.5167839003
 20
200.3852261739
 10
218.5635623687
 20
200.3645769834
 10
218.6090748275
 20
200.3409124561
 10
218.6527410701
 20
200.3145808805
 10
218.6945046302
 20
200.2855730151
 10
218.7344219742
 20
200.2538981013
 10
218.7720822938
 20
200.2199321516
 10
218.8073685403
 20
200.1838806827
 10
218.8403977625
 20
200.145538178
 10
218.8711102988
 20
200.1046640997
 10
218.8997252709
 20
200.0610592788
 10
218.9260235571
 20
200.0149228844
 10
218.9492881311
 20
199.9666118854
 10
218.9695113262
 20
199.9158156669
 10
218.9867008091
 20
199.8628448439
 10
219.0001625535
 20
199.8089882306
 10
219.0096652175
 20
199.7546754319
 10
219.015440143
 20
199.699476843
 10
219.0174873301
 20
199.6433924638
  0
LWPOLYLINE
  5
38B
100
AcDbEntity
  8
ASSI
100
AcDbPolyline
 62
250
  6
CONTINUOUS
 90
25
 70
0
 10
218.217609174
 20
200.4432706199
 10
218.2687139101
 20
200.4416437899
 10
218.3193217336
 20
200.4367980621
 10
218.3694326443
 20
200.4287334367
 10
218.419303008
 20
200.4173820598
 10
218.468676459
 20
200.4028117852
 10
218.5167839003
 20
200.3852261739
 10
218.5635623687
 20
200.3645769834
 10
218.6090748275
 20
200.3409124561
 10
218.6527410701
 20
200.3145808805
 10
218.6945046302
 20
200.2855730151
 10
218.7344219742
 20
200.2538981013
 10
218.7720822938
 20
200.2199321516
 10
218.8073685403
 20
200.1838806827
 10
218.8403977625
 20
200.145538178
 10
218.8711102988
 20
200.1046640997
 10
218.8997252709
 20
200.0610592788
 10
218.9260235571
 20
200.0149228844
 10
218.9492881311
 20
199.9666118854
 10
218.9695113262
 20
199.9158156669
 10
218.9867008091
 20
199.8628448439
 10
219.0001625535
 20
199.8089882306
 10
219.0096652175
 20
199.7546754319
 10
219.015440143
 20
199.699476843
 10
219.0174873301
 20
199.6433924638
  0
LINE
  5
38C
100
AcDbEntity
  8
SCRITTE
100
AcDbLine
 62
250
  6
CONTINUOUS
 10
239.9185704435
 20
67.329910389
 11
239.8137633749
 21
67.142903389
  0
LINE
  5
38D
100
AcDbEntity
  8
SCRITTE
100
AcDbLine
 62
250
  6
CONTINUOUS
 10
239.8504187384
 20
66.835772389
 11
239.9185704435
 21
66.921539389
  0
LWPOLYLINE
  5
38E
100
AcDbEntity
  8
SCRITTE
100
AcDbPolyline
 62
250
  6
CONTINUOUS
 90
24
 70
0
 10
239.8441115675
 20
70.1275080332
 10
239.843720354
 20
70.1272825308
 10
239.8433312075
 20
70.1268309728
 10
239.8429439656
 20
70.126155256
 10
239.8425584657
 20
70.1252572772
 10
239.8421745455
 20
70.1241389333
 10
239.8417920425
 20
70.1228021211
 10
239.8414107942
 20
70.1212487375
 10
239.8410306382
 20
70.1194806793
 10
239.8406515195
 20
70.1174995468
 10
239.8402738128
 20
70.1153057543
 10
239.8398980004
 20
70.1128994197
 10
239.8395245643
 20
70.1102806606
 10
239.8391539868
 20
70.107449595
 10
239.8387867502
 20
70.1044063406
 10
239.8384233365
 20
70.1011510152
 10
239.838064228
 20
70.0976837365
 10
239.8377099005
 20
70.0940047654
 10
239.8373608046
 20
70.0901149342
 10
239.8370173845
 20
70.0860152181
 10
239.8366800844
 20
70.0817065927
 10
239.836349348
 20
70.0771893463
 10
239.836025617
 20
70.0724610204
 10
239.835400936
 20
70.0623585485
  0
LINE
  5
38F
100
AcDbEntity
  8
RACCORDO
100
AcDbLine
 62
250
  6
CONTINUOUS
 10
152.7149945011
 20
216.6295874524
 11
152.2156797337
 21
216.6295874524
  0
LINE
  5
390
100
AcDbEntity
  8
ASSI
100
AcDbLine
 62
250
  6
CONTINUOUS
 10
152.7149945011
 20
216.6295874524
 11
152.2156797337
 21
216.6295874524
  0
LINE
  5
391
100
AcDbEntity
  8
RACCORDO
100
AcDbLine
 62
250
  6
CONTINUOUS
 10
239.2524336974
 20
216.6295874524
 11
239.7517484647
 21
216.6295874524
  0
LINE
  5
392
100
AcDbEntity
  8
ASSI
100
AcDbLine
 62
250
  6
CONTINUOUS
 10
239.2524336974
 20
216.6295874524
 11
239.7517484647
 21
216.6295874524
  0
LINE
  5
393
100
AcDbEntity
  8
RACCORDO
100
AcDbLine
 62
250
  6
CONTINUOUS
 10
238.2538041626
 20
217.6282169872
 11
153.7136240358
 21
217.6282169872
  0
LINE
  5
394
100
AcDbEntity
  8
ASSI
100
AcDbLine
 62
250
  6
CONTINUOUS
 10
238.2538041626
 20
217.6282169872
 11
153.7136240358
 21
217.6282169872
  0
LINE
  5
395
100
AcDbEntity
  8
RACCORDO
100
AcDbLine
 62
250
  6
CONTINUOUS
 10
238.2538041626
 20
218.1275317546
 11
153.7136240358
 21
218.1275317546
  0
LINE
  5
396
100
AcDbEntity
  8
ASSI
100
AcDbLine
 62
250
  6
CONTINUOUS
 10
238.2538041626
 20
218.1275317546
 11
153.7136240358
 21
218.1275317546
  0
LINE
  5
397
100
AcDbEntity
  8
0
100
AcDbLine
 62
7
  6
CONTINUOUS
 10
238.4857697971
 20
218.359497389
 11
153.4816584013
 21
218.359497389
  0
LINE
  5
398
100
AcDbEntity
  8
ASSI
100
AcDbLine
 62
7
  6
CONTINUOUS
 10
238.4857697971
 20
218.359497389
 11
153.4816584013
 21
218.359497389
  0
LWPOLYLINE
  5
399
100
AcDbEntity
  8
RACCORDO
100
AcDbPolyline
 62
250
  6
CONTINUOUS
 90
31
 70
0
 10
153.7136240358
 20
217.6282169872
 10
153.6603580137
 20
217.626645224
 10
153.6080299847
 20
217.6225161765
 10
153.5566399488
 20
217.6158298448
 10
153.5062607247
 20
217.6065691128
 10
153.4568194938
 20
217.5947510966
 10
153.4080977997
 20
217.5804271443
 10
153.3598641143
 20
217.5635549064
 10
153.3123499657
 20
217.5441767323
 10
153.2660314829
 20
217.5224710188
 10
153.2209618404
 20
217.4984322525
 10
153.1770878635
 20
217.4720659467
 10
153.1347261578
 20
217.4435670384
 10
153.0938801367
 20
217.4129168109
 10
153.0545463868
 20
217.380133981
 10
153.0170312723
 20
217.3454696356
 10
152.9813371167
 20
217.3088884956
 10
152.9474615965
 20
217.2704258402
 10
152.9157041066
 20
217.2304385944
 10
152.8861715119
 20
217.1891319507
 10
152.8587569474
 20
217.1463007166
 10
152.8334392127
 20
217.1016862404
 10
152.8100755839
 20
217.0551464896
 10
152.7888087848
 20
217.0068234966
 10
152.7700457863
 20
216.9568847072
 10
152.7537691731
 20
216.9051662209
 10
152.7399963606
 20
216.8518319381
 10
152.7291865654
 20
216.7975410052
 10
152.7214928599
 20
216.7425131377
 10
152.7167621718
 20
216.6865286201
 10
152.7149945011
 20
216.6295874524
  0
LWPOLYLINE
  5
39A
100
AcDbEntity
  8
ASSI
100
AcDbPolyline
 62
250
  6
CONTINUOUS
 90
31
 70
0
 10
153.7136240358
 20
217.6282169872
 10
153.6603580137
 20
217.626645224
 10
153.6080299847
 20
217.6225161765
 10
153.5566399488
 20
217.6158298448
 10
153.5062607247
 20
217.6065691128
 10
153.4568194938
 20
217.5947510966
 10
153.4080977997
 20
217.5804271443
 10
153.3598641143
 20
217.5635549064
 10
153.3123499657
 20
217.5441767323
 10
153.2660314829
 20
217.5224710188
 10
153.2209618404
 20
217.4984322525
 10
153.1770878635
 20
217.4720659467
 10
153.1347261578
 20
217.4435670384
 10
153.0938801367
 20
217.4129168109
 10
153.0545463868
 20
217.380133981
 10
153.0170312723
 20
217.3454696356
 10
152.9813371167
 20
217.3088884956
 10
152.9474615965
 20
217.2704258402
 10
152.9157041066
 20
217.2304385944
 10
152.8861715119
 20
217.1891319507
 10
152.8587569474
 20
217.1463007166
 10
152.8334392127
 20
217.1016862404
 10
152.8100755839
 20
217.0551464896
 10
152.7888087848
 20
217.0068234966
 10
152.7700457863
 20
216.9568847072
 10
152.7537691731
 20
216.9051662209
 10
152.7399963606
 20
216.8518319381
 10
152.7291865654
 20
216.7975410052
 10
152.7214928599
 20
216.7425131377
 10
152.7167621718
 20
216.6865286201
 10
152.7149945011
 20
216.6295874524
  0
LWPOLYLINE
  5
39B
100
AcDbEntity
  8
0
100
AcDbPolyline
 62
7
  6
CONTINUOUS
 90
28
 70
0
 10
153.4816584013
 20
218.359497389
 10
153.3946108528
 20
218.3569739022
 10
153.307714879
 20
218.3493895865
 10
153.2212653076
 20
218.3367435246
 10
153.1354211465
 20
218.3190202849
 10
153.0506198132
 20
218.2962697957
 10
152.9675549207
 20
218.2686864057
 10
152.886708461
 20
218.2365002846
 10
152.8081112294
 20
218.1997956165
 10
152.7317652687
 20
218.1585961454
 10
152.6579140002
 20
218.1130291031
 10
152.5868194435
 20
218.0632516995
 10
152.5185430016
 20
218.0092777706
 10
152.4531637633
 20
217.9510872619
 10
152.3911288275
 20
217.888992127
 10
152.3330023815
 20
217.8235572285
 10
152.2790797963
 20
217.755208448
 10
152.2293593531
 20
217.6840447924
 10
152.1838950703
 20
217.6101979692
 10
152.1428580348
 20
217.5339897753
 10
152.1063295812
 20
217.4556193487
 10
152.074286391
 20
217.3750018463
 10
152.046808774
 20
217.2921483252
 10
152.0241350658
 20
217.2075536451
 10
152.0064536141
 20
217.1218647064
 10
151.9938224028
 20
217.0355004635
 10
151.9862394696
 20
216.948632038
 10
151.9837140992
 20
216.8615530869
  0
LWPOLYLINE
  5
39C
100
AcDbEntity
  8
ASSI
100
AcDbPolyline
 62
7
  6
CONTINUOUS
 90
28
 70
0
 10
153.4816584013
 20
218.359497389
 10
153.3946108528
 20
218.3569739022
 10
153.307714879
 20
218.3493895865
 10
153.2212653076
 20
218.3367435246
 10
153.1354211465
 20
218.3190202849
 10
153.0506198132
 20
218.2962697957
 10
152.9675549207
 20
218.2686864057
 10
152.886708461
 20
218.2365002846
 10
152.8081112294
 20
218.1997956165
 10
152.7317652687
 20
218.1585961454
 10
152.6579140002
 20
218.1130291031
 10
152.5868194435
 20
218.0632516995
 10
152.5185430016
 20
218.0092777706
 10
152.4531637633
 20
217.9510872619
 10
152.3911288275
 20
217.888992127
 10
152.3330023815
 20
217.8235572285
 10
152.2790797963
 20
217.755208448
 10
152.2293593531
 20
217.6840447924
 10
152.1838950703
 20
217.6101979692
 10
152.1428580348
 20
217.5339897753
 10
152.1063295812
 20
217.4556193487
 10
152.074286391
 20
217.3750018463
 10
152.046808774
 20
217.2921483252
 10
152.0241350658
 20
217.2075536451
 10
152.0064536141
 20
217.1218647064
 10
151.9938224028
 20
217.0355004635
 10
151.9862394696
 20
216.948632038
 10
151.9837140992
 20
216.8615530869
  0
LWPOLYLINE
  5
39D
100
AcDbEntity
  8
RACCORDO
100
AcDbPolyline
 62
250
  6
CONTINUOUS
 90
31
 70
0
 10
153.7136240358
 20
218.1275317546
 10
153.6341159831
 20
218.1253515385
 10
153.5556210775
 20
218.1190452119
 10
153.4783453868
 20
218.108753569
 10
153.4027799831
 20
218.0946896973
 10
153.3287972219
 20
218.0769765166
 10
153.2556866979
 20
218.0554949706
 10
153.1833049312
 20
218.030153988
 10
153.1121960445
 20
218.0010939068
 10
153.0427020943
 20
217.9684459148
 10
152.9750629844
 20
217.9323344791
 10
152.9093893771
 20
217.8928310251
 10
152.8458156769
 20
217.8500183731
 10
152.7844988492
 20
217.8039996717
 10
152.7256100448
 20
217.7549009014
 10
152.6693001145
 20
217.7028455033
 10
152.6156936061
 20
217.6479419589
 10
152.5649588009
 20
217.5903559909
 10
152.5172906498
 20
217.5303176576
 10
152.4730019409
 20
217.4682861317
 10
152.4319687976
 20
217.4041567671
 10
152.3938298143
 20
217.3372526205
 10
152.3586921693
 20
217.2674497931
 10
152.3269072593
 20
217.1950972423
 10
152.2986284971
 20
217.1201615018
 10
152.274041825
 20
217.0426073927
 10
152.253458464
 20
216.9627924514
 10
152.2371778171
 20
216.8813077842
 10
152.2253734417
 20
216.7985138529
 10
152.2181625354
 20
216.7145220076
 10
152.2156797337
 20
216.6295874524
  0
LWPOLYLINE
  5
39E
100
AcDbEntity
  8
ASSI
100
AcDbPolyline
 62
250
  6
CONTINUOUS
 90
31
 70
0
 10
153.7136240358
 20
218.1275317546
 10
153.6341159831
 20
218.1253515385
 10
153.5556210775
 20
218.1190452119
 10
153.4783453868
 20
218.108753569
 10
153.4027799831
 20
218.0946896973
 10
153.3287972219
 20
218.0769765166
 10
153.2556866979
 20
218.0554949706
 10
153.1833049312
 20
218.030153988
 10
153.1121960445
 20
218.0010939068
 10
153.0427020943
 20
217.9684459148
 10
152.9750629844
 20
217.9323344791
 10
152.9093893771
 20
217.8928310251
 10
152.8458156769
 20
217.8500183731
 10
152.7844988492
 20
217.8039996717
 10
152.7256100448
 20
217.7549009014
 10
152.6693001145
 20
217.7028455033
 10
152.6156936061
 20
217.6479419589
 10
152.5649588009
 20
217.5903559909
 10
152.5172906498
 20
217.5303176576
 10
152.4730019409
 20
217.4682861317
 10
152.4319687976
 20
217.4041567671
 10
152.3938298143
 20
217.3372526205
 10
152.3586921693
 20
217.2674497931
 10
152.3269072593
 20
217.1950972423
 10
152.2986284971
 20
217.1201615018
 10
152.274041825
 20
217.0426073927
 10
152.253458464
 20
216.9627924514
 10
152.2371778171
 20
216.8813077842
 10
152.2253734417
 20
216.7985138529
 10
152.2181625354
 20
216.7145220076
 10
152.2156797337
 20
216.6295874524
  0
LINE
  5
39F
100
AcDbEntity
  8
RACCORDO
100
AcDbLine
 62
7
  6
CONTINUOUS
 10
130.5598959905
 20
57.5914630235
 11
134.9860639687
 21
57.359497389
  0
LINE
  5
3A0
100
AcDbEntity
  8
ASSI
100
AcDbLine
 62
7
  6
CONTINUOUS
 10
130.5598959905
 20
57.5914630235
 11
134.9860639687
 21
57.359497389
  0
LINE
  5
3A1
100
AcDbEntity
  8
RACCORDO
100
AcDbLine
 62
7
  6
CONTINUOUS
 10
137.7965311599
 20
58.194074811
 11
135.384405819
 21
58.0676606785
  0
LINE
  5
3A2
100
AcDbEntity
  8
ASSI
100
AcDbLine
 62
7
  6
CONTINUOUS
 10
137.7965311599
 20
58.194074811
 11
135.384405819
 21
58.0676606785
  0
LINE
  5
3A3
100
AcDbEntity
  8
0
100
AcDbLine
 62
250
  6
CONTINUOUS
 10
134.9860639687
 20
58.8574416912
 11
135.384405819
 21
58.8610836129
  0
LINE
  5
3A4
100
AcDbEntity
  8
ASSI
100
AcDbLine
 62
250
  6
CONTINUOUS
 10
134.9860639687
 20
58.8574416912
 11
135.384405819
 21
58.8610836129
  0
LINE
  5
3A5
100
AcDbEntity
  8
RACCORDO
100
AcDbLine
 62
250
  6
CONTINUOUS
 10
137.9860639687
 20
58.861555908
 11
135.384405819
 21
58.861555908
  0
LINE
  5
3A6
100
AcDbEntity
  8
ASSI
100
AcDbLine
 62
250
  6
CONTINUOUS
 10
137.9860639687
 20
58.861555908
 11
135.384405819
 21
58.861555908
  0
LINE
  5
3A7
100
AcDbEntity
  8
RACCORDO
100
AcDbLine
 62
250
  6
CONTINUOUS
 10
130.0860639687
 20
59.0894073256
 11
130.5598959905
 21
59.0894073256
  0
LINE
  5
3A8
100
AcDbEntity
  8
ASSI
100
AcDbLine
 62
250
  6
CONTINUOUS
 10
130.0860639687
 20
59.0894073256
 11
130.5598959905
 21
59.0894073256
  0
LINE
  5
3A9
100
AcDbEntity
  8
RACCORDO
100
AcDbLine
 62
250
  6
CONTINUOUS
 10
130.5598959905
 20
59.0894073256
 11
134.9860639687
 21
58.8574416912
  0
LINE
  5
3AA
100
AcDbEntity
  8
ASSI
100
AcDbLine
 62
250
  6
CONTINUOUS
 10
130.5598959905
 20
59.0894073256
 11
134.9860639687
 21
58.8574416912
  0
LINE
  5
3AB
100
AcDbEntity
  8
SCRITTE
100
AcDbLine
 62
250
  6
CONTINUOUS
 10
133.1197619687
 20
63.694637389
 11
131.7432109687
 21
63.313431389
  0
LINE
  5
3AC
100
AcDbEntity
  8
SCRITTE
100
AcDbLine
 62
250
  6
CONTINUOUS
 10
133.7430489687
 20
67.329910389
 11
131.7432109687
 21
67.142903389
  0
LINE
  5
3AD
100
AcDbEntity
  8
SCRITTE
100
AcDbLine
 62
250
  6
CONTINUOUS
 10
132.4426369687
 20
66.835772389
 11
133.7430489687
 21
66.921539389
  0
LINE
  5
3AE
100
AcDbEntity
  8
SCRITTE
100
AcDbLine
 62
250
  6
CONTINUOUS
 10
133.7430489687
 20
64.659561389
 11
131.7430909687
 21
64.659561389
  0
LINE
  5
3AF
100
AcDbEntity
  8
SCRITTE
100
AcDbLine
 62
250
  6
CONTINUOUS
 10
131.7430909687
 20
65.077005389
 11
133.7430489687
 21
65.077005389
  0
LINE
  5
3B0
100
AcDbEntity
  8
SCRITTE
100
AcDbLine
 62
250
  6
CONTINUOUS
 10
133.7430489687
 20
65.701087389
 11
132.4371919687
 21
65.791171389
  0
LINE
  5
3B1
100
AcDbEntity
  8
SCRITTE
100
AcDbLine
 62
250
  6
CONTINUOUS
 10
131.7432109687
 20
65.482303389
 11
133.7430489687
 21
65.301729389
  0
LINE
  5
3B2
100
AcDbEntity
  8
SCRITTE
100
AcDbLine
 62
250
  6
CONTINUOUS
 10
131.7432109687
 20
64.087486389
 11
133.1197619687
 21
63.694637389
  0
LINE
  5
3B3
100
AcDbEntity
  8
SCRITTE
100
AcDbLine
 62
250
  6
CONTINUOUS
 10
133.7430489687
 20
63.861818389
 11
131.7432109687
 21
64.504646389
  0
LWPOLYLINE
  5
3B4
100
AcDbEntity
  8
SCRITTE
100
AcDbPolyline
 62
250
  6
CONTINUOUS
 90
3
 70
0
 10
133.4592449659
 20
70.1352192463
 10
133.3915239496
 20
70.1159969787
 10
133.3252151732
 20
70.0969282629
  0
LINE
  5
3B5
100
AcDbEntity
  8
SCRITTE
100
AcDbLine
 62
250
  6
CONTINUOUS
 10
133.3438099687
 20
68.492054389
 11
133.7430489687
 21
68.600195389
  0
LINE
  5
3B6
100
AcDbEntity
  8
SCRITTE
100
AcDbLine
 62
250
  6
CONTINUOUS
 10
133.1527514783
 20
70.463289255
 11
133.2484005694
 21
70.4892181989
  0
LINE
  5
3B7
100
AcDbEntity
  8
SCRITTE
100
AcDbLine
 62
250
  6
CONTINUOUS
 10
133.6556830649
 20
70.5960257599
 11
133.7430492339
 21
70.6193030077
  0
LINE
  5
3B8
100
AcDbEntity
  8
SCRITTE
100
AcDbLine
 62
250
  6
CONTINUOUS
 10
133.2484005694
 20
70.4892181989
 11
133.3866062395
 21
70.5259011617
  0
LINE
  5
3B9
100
AcDbEntity
  8
SCRITTE
100
AcDbLine
 62
250
  6
CONTINUOUS
 10
133.3866062395
 20
70.5259011617
 11
133.6556830649
 21
70.5960257599
  0
LINE
  5
3BA
100
AcDbEntity
  8
SCRITTE
100
AcDbLine
 62
250
  6
CONTINUOUS
 10
132.2927159687
 20
68.216807389
 11
133.0348809687
 21
68.408628389
  0
LWPOLYLINE
  5
3BB
100
AcDbEntity
  8
SCRITTE
100
AcDbPolyline
 62
250
  6
CONTINUOUS
 90
49
 70
0
 10
132.3222889786
 20
70.1275080332
 10
132.3148241806
 20
70.1272825308
 10
132.3073988233
 20
70.1268309728
 10
132.3000098069
 20
70.126155256
 10
132.2926540316
 20
70.1252572772
 10
132.2853283977
 20
70.1241389333
 10
132.2780298054
 20
70.1228021211
 10
132.2707551549
 20
70.1212487375
 10
132.2635013466
 20
70.1194806793
 10
132.2562673306
 20
70.1174995468
 10
132.2490602577
 20
70.1153057543
 10
132.2418893286
 20
70.1128994197
 10
132.2347637441
 20
70.1102806606
 10
132.2276927049
 20
70.107449595
 10
132.2206854118
 20
70.1044063406
 10
132.2137510655
 20
70.1011510152
 10
132.2068988668
 20
70.0976837365
 10
132.2001378957
 20
70.0940047654
 10
132.1934767491
 20
70.0901149342
 10
132.1869239031
 20
70.0860152181
 10
132.1804878339
 20
70.0817065927
 10
132.174177008
 20
70.0771893463
 10
132.1679998531
 20
70.0724610204
 10
132.1619647871
 20
70.0675184696
 10
132.1560802279
 20
70.0623585485
 10
132.1503544095
 20
70.0569801007
 10
132.1447948293
 20
70.0513899252
 10
132.1394088007
 20
70.0455968098
 10
132.1342036371
 20
70.0396095423
 10
132.1291859122
 20
70.0334371495
 10
132.1243592407
 20
70.0270896139
 10
132.1197264975
 20
70.0205771565
 10
132.1152905577
 20
70.0139099988
 10
132.1110539312
 20
70.0070978779
 10
132.1070176686
 20
70.0001485954
 10
132.103182455
 20
69.9930694686
 10
132.0995489759
 20
69.985867815
 10
132.0961179167
 20
69.9785509521
 10
132.0928899628
 20
69.9711261973
 10
132.0898657995
 20
69.963600868
 10
132.0870461123
 20
69.9559822818
 10
132.0844319737
 20
69.9482760655
 10
132.0820260052
 20
69.9404810836
 10
132.0798312155
 20
69.9325945102
 10
132.0778506135
 20
69.9246135193
 10
132.0760872077
 20
69.9165352848
 10
132.074544007
 20
69.9083569808
 10
132.0732240199
 20
69.9000757813
 10
132.0721302553
 20
69.8916888603
  0
LINE
  5
3BC
100
AcDbEntity
  8
SCRITTE
100
AcDbLine
 62
250
  6
CONTINUOUS
 10
133.7430492339
 20
69.1627462207
 11
131.7665763868
 21
69.1627462207
  0
LINE
  5
3BD
100
AcDbEntity
  8
SCRITTE
100
AcDbLine
 62
250
  6
CONTINUOUS
 10
132.0839037926
 20
69.5646692737
 11
132.6328982005
 21
69.5646692737
  0
LINE
  5
3BE
100
AcDbEntity
  8
SCRITTE
100
AcDbLine
 62
250
  6
CONTINUOUS
 10
132.9604232734
 20
69.5785111071
 11
133.7430492339
 21
69.5785111071
  0
LINE
  5
3BF
100
AcDbEntity
  8
SCRITTE
100
AcDbLine
 62
250
  6
CONTINUOUS
 10
132.7977254933
 20
70.2359757006
 11
132.8095427899
 21
70.2359757006
  0
LINE
  5
3C0
100
AcDbEntity
  8
SCRITTE
100
AcDbLine
 62
250
  6
CONTINUOUS
 10
133.0348809687
 20
68.008955389
 11
132.2927159687
 21
68.216807389
  0
LINE
  5
3C1
100
AcDbEntity
  8
SCRITTE
100
AcDbLine
 62
250
  6
CONTINUOUS
 10
133.7430489687
 20
67.808376389
 11
133.3438099687
 21
67.923564389
  0
LINE
  5
3C2
100
AcDbEntity
  8
SCRITTE
100
AcDbLine
 62
250
  6
CONTINUOUS
 10
131.7432109687
 20
68.022737389
 11
133.7430489687
 21
67.395460389
  0
LINE
  5
3C3
100
AcDbEntity
  8
SCRITTE
100
AcDbLine
 62
250
  6
CONTINUOUS
 10
131.7432109687
 20
66.729882389
 11
132.8535269687
 21
66.312438389
  0
LINE
  5
3C4
100
AcDbEntity
  8
SCRITTE
100
AcDbLine
 62
250
  6
CONTINUOUS
 10
133.7430489687
 20
66.339431389
 11
132.4426369687
 21
66.835772389
  0
LWPOLYLINE
  5
3C5
100
AcDbEntity
  8
RACCORDO
100
AcDbPolyline
 62
250
  6
CONTINUOUS
 90
11
 70
0
 10
130.5598959905
 20
57.5914630235
 10
130.5585527653
 20
57.5936432396
 10
130.55729562
 20
57.5999495662
 10
130.5561279755
 20
57.6102412091
 10
130.5550596405
 20
57.6243050808
 10
130.5540822432
 20
57.6420182615
 10
130.5531790719
 20
57.6634998074
 10
130.5523573684
 20
57.68884079
 10
130.5516283057
 20
57.7179008713
 10
130.5509872486
 20
57.7505488632
 10
130.550437135
 20
57.786660299
  0
LWPOLYLINE
  5
3C6
100
AcDbEntity
  8
ASSI
100
AcDbPolyline
 62
250
  6
CONTINUOUS
 90
11
 70
0
 10
130.5598959905
 20
57.5914630235
 10
130.5585527653
 20
57.5936432396
 10
130.55729562
 20
57.5999495662
 10
130.5561279755
 20
57.6102412091
 10
130.5550596405
 20
57.6243050808
 10
130.5540822432
 20
57.6420182615
 10
130.5531790719
 20
57.6634998074
 10
130.5523573684
 20
57.68884079
 10
130.5516283057
 20
57.7179008713
 10
130.5509872486
 20
57.7505488632
 10
130.550437135
 20
57.786660299
  0
LWPOLYLINE
  5
3C7
100
AcDbEntity
  8
0
100
AcDbPolyline
 62
7
  6
CONTINUOUS
 90
10
 70
0
 43
0.3499999917
 10
144.3042608643
 20
50.7967245483
 10
144.3756921387
 20
50.6538684082
 10
144.3756921387
 20
50.5824435425
 10
144.2328295898
 20
50.4395874023
 10
144.1613983154
 20
50.4395874023
 10
144.0899798584
 20
50.5110122681
 10
144.0899798584
 20
50.5824435425
 10
144.1613983154
 20
50.7252996826
 10
144.2328295898
 20
50.7967245483
 10
144.3042608643
 20
50.7967245483
  0
LWPOLYLINE
  5
3C8
100
AcDbEntity
  8
SCRITTE
100
AcDbPolyline
 62
250
  6
CONTINUOUS
 90
36
 70
0
 10
131.7665763868
 20
69.1627462207
 10
131.762082508
 20
69.1937486714
 10
131.757794365
 20
69.2242919183
 10
131.7537196022
 20
69.2543643749
 10
131.7498658641
 20
69.2839544544
 10
131.7462407953
 20
69.3130505701
 10
131.7428504782
 20
69.3416493838
 10
131.7396947475
 20
69.3697805508
 10
131.7367718757
 20
69.3974819749
 10
131.7340801355
 20
69.4247915599
 10
131.7316177995
 20
69.4517472095
 10
131.7288607214
 20
69.484996491
 10
131.726461257
 20
69.5177941862
 10
131.7244212748
 20
69.5501825079
 10
131.7227426437
 20
69.582203669
 10
131.7214283072
 20
69.613902053
 10
131.7204855088
 20
69.6453307251
 10
131.7199225671
 20
69.6765449211
 10
131.7197478006
 20
69.7075998769
 10
131.7201330676
 20
69.7488379817
 10
131.7212434297
 20
69.7899245289
 10
131.7230991042
 20
69.8308928575
 10
131.7249969912
 20
69.8615590418
 10
131.7273631654
 20
69.8921763252
 10
131.7302353039
 20
69.9227435514
 10
131.7336510833
 20
69.9532595641
 10
131.7368029785
 20
69.9776321613
 10
131.7403613958
 20
70.0019552765
 10
131.744360814
 20
70.0262129446
 10
131.7488357117
 20
70.0503892001
 10
131.7538205678
 20
70.0744680779
 10
131.7593501055
 20
70.098434353
 10
131.7654600274
 20
70.1222757612
 10
131.7721862807
 20
70.1459807787
 10
131.7795648125
 20
70.1695378819
 10
131.7876315701
 20
70.1929355467
  0
LWPOLYLINE
  5
3C9
100
AcDbEntity
  8
SCRITTE
100
AcDbPolyline
 62
250
  6
CONTINUOUS
 90
56
 70
0
 10
132.6328982005
 20
69.8032346977
 10
132.6325102605
 20
69.8154608468
 10
132.6319012913
 20
69.8274405435
 10
132.6310762021
 20
69.8391679762
 10
132.6300399023
 20
69.8506373332
 10
132.628797301
 20
69.8618428028
 10
132.6273533075
 20
69.8727785735
 10
132.6257128311
 20
69.8834388335
 10
132.6238789682
 20
69.8938216804
 10
132.6218475645
 20
69.903940849
 10
132.6196126531
 20
69.913813983
 10
132.617168267
 20
69.9234587265
 10
132.6145084392
 20
69.9328927232
 10
132.6116272027
 20
69.9421336171
 10
132.6085185904
 20
69.951199052
 10
132.6056074017
 20
69.9589978076
 10
132.6025139042
 20
69.966666921
 10
132.5992344423
 20
69.9741975769
 10
132.5957653602
 20
69.9815809603
 10
132.592100708
 20
69.9888113081
 10
132.5882253585
 20
69.9958950656
 10
132.5841218904
 20
70.0028417301
 10
132.5797728821
 20
70.0096607991
 10
132.5751638276
 20
70.016356816
 10
132.5702918814
 20
70.0229145089
 10
132.5651571132
 20
70.0293136519
 10
132.5597595927
 20
70.0355340193
 10
132.5541006945
 20
70.0415591972
 10
132.5481870119
 20
70.0473880207
 10
132.5420264428
 20
70.0530231368
 10
132.5356268854
 20
70.0584671927
 10
132.5289955465
 20
70.0637223198
 10
132.5221368696
 20
70.0687885875
 10
132.5150546068
 20
70.0736655492
 10
132.5077525105
 20
70.0783527588
 10
132.500235224
 20
70.0828494163
 10
132.4925109554
 20
70.0871533077
 10
132.4845888037
 20
70.0912618654
 10
132.4764778681
 20
70.0951725219
 10
132.4681857438
 20
70.0988826843
 10
132.459714011
 20
70.1023896589
 10
132.4510627462
 20
70.1056907263
 10
132.4422320257
 20
70.1087831674
 10
132.433221926
 20
70.1116642631
 10
132.4240325234
 20
70.1143312942
 10
132.4146638943
 20
70.1167815416
 10
132.4051161151
 20
70.119012286
 10
132.3964788581
 20
70.1208071589
 10
132.387700126
 20
70.122415306
 10
132.378779934
 20
70.1238255845
 10
132.3697182975
 20
70.1250268516
 10
132.3605152316
 20
70.1260079645
 10
132.3511707515
 20
70.1267577802
 10
132.3416848725
 20
70.1272651558
 10
132.3320576099
 20
70.1275189487
 10
132.3222889788
 20
70.1275080159
  0
LINE
  5
3CA
100
AcDbEntity
  8
RACCORDO
100
AcDbLine
 62
250
  6
CONTINUOUS
 10
130.5598959905
 20
216.6295874524
 11
130.5540822432
 21
217.0144142663
  0
LINE
  5
3CB
100
AcDbEntity
  8
ASSI
100
AcDbLine
 62
250
  6
CONTINUOUS
 10
130.5598959905
 20
216.6295874524
 11
130.5540822432
 21
217.0144142663
  0
LINE
  5
3CC
100
AcDbEntity
  8
RACCORDO
100
AcDbLine
 62
250
  6
CONTINUOUS
 10
130.550437135
 20
57.786660299
 11
130.5496215951
 21
57.868976405
  0
LINE
  5
3CD
100
AcDbEntity
  8
ASSI
100
AcDbLine
 62
250
  6
CONTINUOUS
 10
130.550437135
 20
57.786660299
 11
130.5496215951
 21
57.868976405
  0
LINE
  5
3CE
100
AcDbEntity
  8
RACCORDO
100
AcDbLine
 62
250
  6
CONTINUOUS
 10
130.5540822432
 20
217.0144142663
 11
130.550437135
 21
217.3681485039
  0
LINE
  5
3CF
100
AcDbEntity
  8
ASSI
100
AcDbLine
 62
250
  6
CONTINUOUS
 10
130.5540822432
 20
217.0144142663
 11
130.550437135
 21
217.3681485039
  0
LINE
  5
3D0
100
AcDbEntity
  8
RACCORDO
100
AcDbLine
 62
250
  6
CONTINUOUS
 10
130.5496215951
 20
57.868976405
 11
130.5491844411
 21
57.9640938766
  0
LINE
  5
3D1
100
AcDbEntity
  8
ASSI
100
AcDbLine
 62
250
  6
CONTINUOUS
 10
130.5496215951
 20
57.868976405
 11
130.5491844411
 21
57.9640938766
  0
LINE
  5
3D2
100
AcDbEntity
  8
RACCORDO
100
AcDbLine
 62
250
  6
CONTINUOUS
 10
130.550437135
 20
217.3681485039
 11
130.5491844411
 21
217.6176014434
  0
LINE
  5
3D3
100
AcDbEntity
  8
ASSI
100
AcDbLine
 62
250
  6
CONTINUOUS
 10
130.550437135
 20
217.3681485039
 11
130.5491844411
 21
217.6176014434
  0
LINE
  5
3D4
100
AcDbEntity
  8
RACCORDO
100
AcDbLine
 62
7
  6
CONTINUOUS
 10
130.0860639687
 20
58.0907777909
 11
130.0860639687
 21
217.6282169872
  0
LINE
  5
3D5
100
AcDbEntity
  8
ASSI
100
AcDbLine
 62
7
  6
CONTINUOUS
 10
130.0860639687
 20
58.0907777909
 11
130.0860639687
 21
217.6282169872
  0
LINE
  5
3D6
100
AcDbEntity
  8
RACCORDO
100
AcDbLine
 62
250
  6
CONTINUOUS
 10
130.5598959905
 20
59.0894073256
 11
130.5598959905
 21
216.6295874524
  0
LINE
  5
3D7
100
AcDbEntity
  8
ASSI
100
AcDbLine
 62
250
  6
CONTINUOUS
 10
130.5598959905
 20
59.0894073256
 11
130.5598959905
 21
216.6295874524
  0
LINE
  5
3D8
100
AcDbEntity
  8
SCRITTE
100
AcDbLine
 62
250
  6
CONTINUOUS
 10
131.7430909687
 20
64.659561389
 11
131.7430909687
 21
65.077005389
  0
LINE
  5
3D9
100
AcDbEntity
  8
SCRITTE
100
AcDbLine
 62
250
  6
CONTINUOUS
 10
131.7432109687
 20
68.426564389
 11
131.7432109687
 21
68.022737389
  0
LINE
  5
3DA
100
AcDbEntity
  8
SCRITTE
100
AcDbLine
 62
250
  6
CONTINUOUS
 10
131.7432109687
 20
67.142903389
 11
131.7432109687
 21
66.729882389
  0
LINE
  5
3DB
100
AcDbEntity
  8
SCRITTE
100
AcDbLine
 62
250
  6
CONTINUOUS
 10
131.7432109687
 20
65.899402389
 11
131.7432109687
 21
65.482303389
  0
LINE
  5
3DC
100
AcDbEntity
  8
SCRITTE
100
AcDbLine
 62
250
  6
CONTINUOUS
 10
131.7432109687
 20
64.504646389
 11
131.7432109687
 21
64.087486389
  0
LINE
  5
3DD
100
AcDbEntity
  8
SCRITTE
100
AcDbLine
 62
250
  6
CONTINUOUS
 10
131.7432109687
 20
63.313431389
 11
131.7432109687
 21
62.859958389
  0
LINE
  5
3DE
100
AcDbEntity
  8
SCRITTE
100
AcDbLine
 62
250
  6
CONTINUOUS
 10
132.6328982005
 20
69.5646692737
 11
132.6328982005
 21
69.8032346977
  0
LINE
  5
3DF
100
AcDbEntity
  8
SCRITTE
100
AcDbLine
 62
250
  6
CONTINUOUS
 10
132.9604232734
 20
69.8023349035
 11
132.9604232734
 21
69.5785111071
  0
LINE
  5
3E0
100
AcDbEntity
  8
SCRITTE
100
AcDbLine
 62
250
  6
CONTINUOUS
 10
133.0348809687
 20
68.408628389
 11
133.0348809687
 21
68.008955389
  0
LINE
  5
3E1
100
AcDbEntity
  8
SCRITTE
100
AcDbLine
 62
250
  6
CONTINUOUS
 10
133.3438099687
 20
67.923564389
 11
133.3438099687
 21
68.492054389
  0
LINE
  5
3E2
100
AcDbEntity
  8
SCRITTE
100
AcDbLine
 62
250
  6
CONTINUOUS
 10
133.7430489687
 20
65.077005389
 11
133.7430489687
 21
64.659561389
  0
LINE
  5
3E3
100
AcDbEntity
  8
SCRITTE
100
AcDbLine
 62
250
  6
CONTINUOUS
 10
133.7430489687
 20
63.493945389
 11
133.7430489687
 21
63.861818389
  0
LINE
  5
3E4
100
AcDbEntity
  8
SCRITTE
100
AcDbLine
 62
250
  6
CONTINUOUS
 10
133.7430489687
 20
65.301729389
 11
133.7430489687
 21
65.701087389
  0
LINE
  5
3E5
100
AcDbEntity
  8
SCRITTE
100
AcDbLine
 62
250
  6
CONTINUOUS
 10
133.7430489687
 20
66.280885389
 11
133.7430489687
 21
66.339431389
  0
LINE
  5
3E6
100
AcDbEntity
  8
SCRITTE
100
AcDbLine
 62
250
  6
CONTINUOUS
 10
133.7430489687
 20
66.921539389
 11
133.7430489687
 21
67.329910389
  0
LINE
  5
3E7
100
AcDbEntity
  8
SCRITTE
100
AcDbLine
 62
250
  6
CONTINUOUS
 10
133.7430489687
 20
67.395460389
 11
133.7430489687
 21
67.808376389
  0
LINE
  5
3E8
100
AcDbEntity
  8
SCRITTE
100
AcDbLine
 62
250
  6
CONTINUOUS
 10
133.7430489687
 20
68.600195389
 11
133.7430489687
 21
69.040164389
  0
LINE
  5
3E9
100
AcDbEntity
  8
SCRITTE
100
AcDbLine
 62
250
  6
CONTINUOUS
 10
133.7430492339
 20
70.6193030077
 11
133.7430492339
 21
70.2177698655
  0
LINE
  5
3EA
100
AcDbEntity
  8
SCRITTE
100
AcDbLine
 62
250
  6
CONTINUOUS
 10
133.7430492339
 20
69.5785111071
 11
133.7430492339
 21
69.1627462207
  0
LINE
  5
3EB
100
AcDbEntity
  8
RACCORDO
100
AcDbLine
 62
250
  6
CONTINUOUS
 10
130.5491844411
 20
57.9640938766
 11
130.5492510083
 21
58.1286387871
  0
LINE
  5
3EC
100
AcDbEntity
  8
ASSI
100
AcDbLine
 62
250
  6
CONTINUOUS
 10
130.5491844411
 20
57.9640938766
 11
130.5492510083
 21
58.1286387871
  0
LINE
  5
3ED
100
AcDbEntity
  8
RACCORDO
100
AcDbLine
 62
250
  6
CONTINUOUS
 10
130.5491844411
 20
217.6176014434
 11
130.5492510083
 21
217.7782526873
  0
LINE
  5
3EE
100
AcDbEntity
  8
ASSI
100
AcDbLine
 62
250
  6
CONTINUOUS
 10
130.5491844411
 20
217.6176014434
 11
130.5492510083
 21
217.7782526873
  0
LINE
  5
3EF
100
AcDbEntity
  8
RACCORDO
100
AcDbLine
 62
250
  6
CONTINUOUS
 10
130.5492510083
 20
217.7782526873
 11
130.5497808287
 21
217.8702095474
  0
LINE
  5
3F0
100
AcDbEntity
  8
ASSI
100
AcDbLine
 62
250
  6
CONTINUOUS
 10
130.5492510083
 20
217.7782526873
 11
130.5497808287
 21
217.8702095474
  0
LINE
  5
3F1
100
AcDbEntity
  8
RACCORDO
100
AcDbLine
 62
250
  6
CONTINUOUS
 10
130.5492510083
 20
58.1286387871
 11
130.5506795454
 21
58.3817421576
  0
LINE
  5
3F2
100
AcDbEntity
  8
ASSI
100
AcDbLine
 62
250
  6
CONTINUOUS
 10
130.5492510083
 20
58.1286387871
 11
130.5506795454
 21
58.3817421576
  0
LINE
  5
3F3
100
AcDbEntity
  8
RACCORDO
100
AcDbLine
 62
250
  6
CONTINUOUS
 10
130.5506795454
 20
58.3817421576
 11
130.5547506175
 21
58.7562023267
  0
LINE
  5
3F4
100
AcDbEntity
  8
ASSI
100
AcDbLine
 62
250
  6
CONTINUOUS
 10
130.5506795454
 20
58.3817421576
 11
130.5547506175
 21
58.7562023267
  0
LWPOLYLINE
  5
3F5
100
AcDbEntity
  8
RACCORDO
100
AcDbPolyline
 62
250
  6
CONTINUOUS
 90
11
 70
0
 10
130.5497808287
 20
217.8702095474
 10
130.5506795454
 20
217.949381674
 10
130.5512816074
 20
217.984519319
 10
130.5519896371
 20
218.016304229
 10
130.5528009592
 20
218.0445829911
 10
130.5537195615
 20
218.0691696632
 10
130.5547506175
 20
218.0897530243
 10
130.5558891721
 20
218.1060336712
 10
130.5571288746
 20
218.1178380465
 10
130.5584665869
 20
218.1250489528
 10
130.5598959905
 20
218.1275317546
  0
LWPOLYLINE
  5
3F6
100
AcDbEntity
  8
ASSI
100
AcDbPolyline
 62
250
  6
CONTINUOUS
 90
11
 70
0
 10
130.5497808287
 20
217.8702095474
 10
130.5506795454
 20
217.949381674
 10
130.5512816074
 20
217.984519319
 10
130.5519896371
 20
218.016304229
 10
130.5528009592
 20
218.0445829911
 10
130.5537195615
 20
218.0691696632
 10
130.5547506175
 20
218.0897530243
 10
130.5558891721
 20
218.1060336712
 10
130.5571288746
 20
218.1178380465
 10
130.5584665869
 20
218.1250489528
 10
130.5598959905
 20
218.1275317546
  0
LINE
  5
3F7
100
AcDbEntity
  8
RACCORDO
100
AcDbLine
 62
250
  6
CONTINUOUS
 10
130.5547506175
 20
58.7562023267
 11
130.5598959905
 21
59.0894073256
  0
LINE
  5
3F8
100
AcDbEntity
  8
ASSI
100
AcDbLine
 62
250
  6
CONTINUOUS
 10
130.5547506175
 20
58.7562023267
 11
130.5598959905
 21
59.0894073256
  0
LINE
  5
3F9
100
AcDbEntity
  8
0
100
AcDbLine
 62
7
  6
CONTINUOUS
 10
135.3844057376
 20
217.6513341038
 11
135.3844240998
 21
217.6496294112
  0
LINE
  5
3FA
100
AcDbEntity
  8
ASSI
100
AcDbLine
 62
7
  6
CONTINUOUS
 10
135.3844057376
 20
217.6513341038
 11
135.3844240998
 21
217.6496294112
  0
LINE
  5
3FB
100
AcDbEntity
  8
0
100
AcDbLine
 62
7
  6
CONTINUOUS
 10
134.9860639687
 20
57.359497389
 11
134.9860639687
 21
218.359497389
  0
LINE
  5
3FC
100
AcDbEntity
  8
ASSI
100
AcDbLine
 62
7
  6
CONTINUOUS
 10
134.9860639687
 20
57.359497389
 11
134.9860639687
 21
218.359497389
  0
LINE
  5
3FD
100
AcDbEntity
  8
RACCORDO
100
AcDbLine
 62
250
  6
CONTINUOUS
 10
137.7965311599
 20
217.5249199671
 11
137.7965311599
 21
58.194074811
  0
LINE
  5
3FE
100
AcDbEntity
  8
ASSI
100
AcDbLine
 62
250
  6
CONTINUOUS
 10
137.7965311599
 20
217.5249199671
 11
137.7965311599
 21
58.194074811
  0
LINE
  5
3FF
100
AcDbEntity
  8
RACCORDO
100
AcDbLine
 62
7
  6
CONTINUOUS
 10
137.9860639687
 20
217.3251940601
 11
137.9860639687
 21
58.3951169867
  0
LINE
  5
400
100
AcDbEntity
  8
ASSI
100
AcDbLine
 62
7
  6
CONTINUOUS
 10
137.9860639687
 20
217.3251940601
 11
137.9860639687
 21
58.3951169867
  0
LINE
  5
401
100
AcDbEntity
  8
0
100
AcDbLine
 62
7
  6
CONTINUOUS
 10
135.3845409724
 20
58.2641584137
 11
135.3845373939
 21
58.231087119
  0
LINE
  5
402
100
AcDbEntity
  8
ASSI
100
AcDbLine
 62
7
  6
CONTINUOUS
 10
135.3845409724
 20
58.2641584137
 11
135.3845373939
 21
58.231087119
  0
LINE
  5
403
100
AcDbEntity
  8
0
100
AcDbLine
 62
7
  6
CONTINUOUS
 10
135.3844240998
 20
217.6496294112
 11
135.3845409724
 21
58.2641584137
  0
LINE
  5
404
100
AcDbEntity
  8
ASSI
100
AcDbLine
 62
7
  6
CONTINUOUS
 10
135.3844240998
 20
217.6496294112
 11
135.3845409724
 21
58.2641584137
  0
LINE
  5
405
100
AcDbEntity
  8
0
100
AcDbLine
 62
7
  6
CONTINUOUS
 10
135.3845373939
 20
58.231087119
 11
135.3845139766
 21
58.1494764588
  0
LINE
  5
406
100
AcDbEntity
  8
ASSI
100
AcDbLine
 62
7
  6
CONTINUOUS
 10
135.3845373939
 20
58.231087119
 11
135.3845139766
 21
58.1494764588
  0
LWPOLYLINE
  5
407
100
AcDbEntity
  8
0
100
AcDbPolyline
 62
7
  6
CONTINUOUS
 90
3
 70
0
 10
135.3845139766
 20
58.1494764588
 10
135.3844240828
 20
58.0693631467
 10
135.3844057376
 20
58.0676606743
  0
LWPOLYLINE
  5
408
100
AcDbEntity
  8
ASSI
100
AcDbPolyline
 62
7
  6
CONTINUOUS
 90
3
 70
0
 10
135.3845139766
 20
58.1494764588
 10
135.3844240828
 20
58.0693631467
 10
135.3844057376
 20
58.0676606743
  0
LWPOLYLINE
  5
409
100
AcDbEntity
  8
SCRITTE
100
AcDbPolyline
 62
250
  6
CONTINUOUS
 90
24
 70
0
 10
132.0721302555
 20
69.8916888602
 10
132.0704599985
 20
69.8763192791
 10
132.069014404
 20
69.8609326425
 10
132.0677929546
 20
69.8455310098
 10
132.0667951327
 20
69.8301164406
 10
132.0660204209
 20
69.8146909942
 10
132.0654683018
 20
69.7992567303
 10
132.0651382579
 20
69.7838157083
 10
132.0650312928
 20
69.7703000504
 10
132.0650939654
 20
69.7567771412
 10
132.0653262832
 20
69.743243327
 10
132.0657282537
 20
69.7296949539
 10
132.0663005857
 20
69.7161277996
 10
132.0670467929
 20
69.702535368
 10
132.0679710902
 20
69.6889105944
 10
132.0690776925
 20
69.6752464144
 10
132.0703688363
 20
69.6615380649
 10
132.0718388442
 20
69.6477899902
 10
132.0734800603
 20
69.6340089358
 10
132.0752848288
 20
69.6202016477
 10
132.0772442046
 20
69.6063721246
 10
132.079344085
 20
69.5925133782
 10
132.0815690783
 20
69.578615673
 10
132.0839037926
 20
69.5646692737
  0
LWPOLYLINE
  5
40A
100
AcDbEntity
  8
0
100
AcDbPolyline
 62
7
  6
CONTINUOUS
 90
4
 70
0
 43
0.3499999917
 10
141.3042626953
 20
52.6538735962
 10
141.3042626953
 20
53.2967294312
 10
142.8042553711
 20
53.2967294312
 10
141.9471185303
 20
50.2967248535
  0
LWPOLYLINE
  5
40B
100
AcDbEntity
  8
SCRITTE
100
AcDbPolyline
 62
250
  6
CONTINUOUS
 90
85
 70
0
 10
131.7876315701
 20
70.1929355467
 10
131.7924012426
 20
70.2053457919
 10
131.7977921696
 20
70.2178408163
 10
131.8038211005
 20
70.2304445766
 10
131.8105047845
 20
70.2431810295
 10
131.817859971
 20
70.2560741319
 10
131.8259034094
 20
70.2691478405
 10
131.834645218
 20
70.2824085172
 10
131.8440689904
 20
70.2957921448
 10
131.8541516894
 20
70.3092171111
 10
131.8648702774
 20
70.3226018041
 10
131.8762017172
 20
70.3358646117
 10
131.8881229714
 20
70.3489239218
 10
131.9006114112
 20
70.3617057509
 10
131.9136460425
 20
70.3741666299
 10
131.9272062799
 20
70.3862707183
 10
131.9412715378
 20
70.3979821758
 10
131.9558212308
 20
70.4092651617
 10
131.9708347734
 20
70.4200838357
 10
131.9862835454
 20
70.430403635
 10
132.002106788
 20
70.440195108
 10
132.0182357075
 20
70.4494300808
 10
132.0346015103
 20
70.4580803795
 10
132.0511354028
 20
70.4661178302
 10
132.0677685914
 20
70.473514259
 10
132.0844394538
 20
70.4802505126
 10
132.1011150528
 20
70.4863435201
 10
132.1177696225
 20
70.4918192312
 10
132.134377397
 20
70.4967035954
 10
132.1509126103
 20
70.5010225624
 10
132.1673494965
 20
70.5048020818
 10
132.1869063033
 20
70.5086625725
 10
132.2062315736
 20
70.5118320732
 10
132.2252724651
 20
70.5143590308
 10
132.2439761352
 20
70.5162918924
 10
132.2622897414
 20
70.5176791049
 10
132.2801705705
 20
70.5185653045
 10
132.2976164264
 20
70.5189798837
 10
132.3146352423
 20
70.5189484243
 10
132.3312349514
 20
70.518496508
 10
132.3474234867
 20
70.5176497166
 10
132.363208486
 20
70.5164325338
 10
132.3785964055
 20
70.5148650506
 10
132.3935934059
 20
70.5129662602
 10
132.4082056478
 20
70.5107551557
 10
132.422439292
 20
70.5082507302
 10
132.4397104442
 20
70.5047348014
 10
132.4564243836
 20
70.5008162367
 10
132.4726058305
 20
70.4965210379
 10
132.4882795047
 20
70.4918752064
 10
132.5034649254
 20
70.4869058944
 10
132.5181608065
 20
70.4816448564
 10
132.5323606608
 20
70.4761249974
 10
132.5460580012
 20
70.4703792224
 10
132.5592502729
 20
70.4644377654
 10
132.5719506511
 20
70.4583201763
 10
132.5841762433
 20
70.452043334
 10
132.595944157
 20
70.4456241173
 10
132.6109476241
 20
70.4368721992
 10
132.6251801523
 20
70.4279331989
 10
132.6386540399
 20
70.4188431375
 10
132.6513858197
 20
70.4096361787
 10
132.6634089625
 20
70.4003390576
 10
132.6747611734
 20
70.3909766523
 10
132.6854816669
 20
70.3815773838
 10
132.6956156942
 20
70.3721838448
 10
132.7052100156
 20
70.3628421711
 10
132.7143098643
 20
70.3535947415
 10
132.7229543657
 20
70.3444689068
 10
132.7311811181
 20
70.3354882611
 10
132.7370999659
 20
70.3288605996
 10
132.742822723
 20
70.3223279285
 10
132.748364568
 20
70.3158926933
 10
132.7537304182
 20
70.3095669215
 10
132.7589257576
 20
70.303360868
 10
132.7639685998
 20
70.2972681134
 10
132.7736168214
 20
70.285274131
 10
132.7781619075
 20
70.2792259096
 10
132.782410892
 20
70.2731298418
 10
132.7862625194
 20
70.267011006
 10
132.7896513569
 20
70.2608762082
 10
132.7925252773
 20
70.2547228881
 10
132.7948495531
 20
70.2485292937
 10
132.7965935357
 20
70.2422764524
 10
132.7977254933
 20
70.2359757006
  0
LWPOLYLINE
  5
40C
100
AcDbEntity
  8
SCRITTE
100
AcDbPolyline
 62
250
  6
CONTINUOUS
 90
41
 70
0
 10
132.8095427899
 20
70.2359757006
 10
132.8128317
 20
70.2437949276
 10
132.8163939953
 20
70.2514512961
 10
132.8202267522
 20
70.2589512484
 10
132.8243270474
 20
70.2663012268
 10
132.8286919572
 20
70.2735076734
 10
132.8333185583
 20
70.2805770307
 10
132.8382014048
 20
70.2875132605
 10
132.8433249615
 20
70.2943104029
 10
132.8486711708
 20
70.3009600175
 10
132.8542219751
 20
70.3074536641
 10
132.8599593168
 20
70.3137829022
 10
132.8658651384
 20
70.3199392916
 10
132.8731520417
 20
70.3270911981
 10
132.8806420434
 20
70.333993164
 10
132.888321634
 20
70.3406563051
 10
132.8961773039
 20
70.3470917372
 10
132.9041955433
 20
70.3533105759
 10
132.9123619941
 20
70.3593225572
 10
132.9206589034
 20
70.3651318982
 10
132.9290676698
 20
70.3707414362
 10
132.9375696917
 20
70.3761540086
 10
132.9461463677
 20
70.3813724526
 10
132.956952806
 20
70.3876306217
 10
132.9678641908
 20
70.3936181478
 10
132.9788978866
 20
70.3993632804
 10
132.9900712575
 20
70.4048942688
 10
133.0014011089
 20
70.4102367625
 10
133.0129020095
 20
70.4154060118
 10
133.0245879687
 20
70.4204146672
 10
133.0364729963
 20
70.4252753793
 10
133.0485722933
 20
70.4299998423
 10
133.0609058271
 20
70.4345959262
 10
133.0734947566
 20
70.4390705445
 10
133.0863602405
 20
70.4434306109
 10
133.0968665394
 20
70.4468422462
 10
133.1075776507
 20
70.4501970144
 10
133.1185078501
 20
70.4535069366
 10
133.1296714134
 20
70.4567840342
 10
133.1410826163
 20
70.4600403284
 10
133.1527514783
 20
70.463289255
  0
LWPOLYLINE
  5
40D
100
AcDbEntity
  8
0
100
AcDbPolyline
 62
7
  6
CONTINUOUS
 90
3
 70
0
 43
0.3499999917
 10
144.3756921387
 20
50.5824435425
 10
144.3042608643
 20
50.3681561279
 10
144.1613983154
 20
50.0824438477
  0
LINE
  5
40E
100
AcDbEntity
  8
0
100
AcDbLine
 62
7
  6
CONTINUOUS
 10
134.9860639687
 20
57.359497389
 11
135.384405819
 21
58.0676606785
  0
LINE
  5
40F
100
AcDbEntity
  8
ASSI
100
AcDbLine
 62
7
  6
CONTINUOUS
 10
134.9860639687
 20
57.359497389
 11
135.384405819
 21
58.0676606785
  0
LINE
  5
410
100
AcDbEntity
  8
0
100
AcDbLine
 62
7
  6
CONTINUOUS
 10
134.9860639687
 20
218.359497389
 11
135.384405819
 21
217.6513340995
  0
LINE
  5
411
100
AcDbEntity
  8
ASSI
100
AcDbLine
 62
7
  6
CONTINUOUS
 10
134.9860639687
 20
218.359497389
 11
135.384405819
 21
217.6513340995
  0
LWPOLYLINE
  5
412
100
AcDbEntity
  8
SCRITTE
100
AcDbPolyline
 62
250
  6
CONTINUOUS
 90
48
 70
0
 10
133.136507104
 20
70.0351843608
 10
133.1302050833
 20
70.0327410232
 10
133.1240154544
 20
70.0301909811
 10
133.1179258216
 20
70.0275318176
 10
133.1119237893
 20
70.0247611158
 10
133.1059969616
 20
70.0218764589
 10
133.0986807688
 20
70.0181080483
 10
133.0914713211
 20
70.0141611382
 10
133.0843772245
 20
70.0100390604
 10
133.0774070851
 20
70.0057451467
 10
133.0705695907
 20
70.0012829759
 10
133.0638737552
 20
69.9966571143
 10
133.0573286742
 20
69.9918723755
 10
133.0509434433
 20
69.9869335729
 10
133.0459563736
 20
69.9828747819
 10
133.0410815508
 20
69.9787225894
 10
133.0363230962
 20
69.9744791145
 10
133.0316851315
 20
69.9701464759
 10
133.027171778
 20
69.9657267925
 10
133.02278689
 20
69.9612220186
 10
133.0185332518
 20
69.9566334501
 10
133.0144133804
 20
69.9519622183
 10
133.0104297928
 20
69.9472094545
 10
133.0065850059
 20
69.9423762898
 10
133.0028815376
 20
69.9374630279
 10
132.9993219097
 20
69.9324666605
 10
132.9959086446
 20
69.9273833516
 10
132.9926442649
 20
69.9222092652
 10
132.9895312933
 20
69.9169405654
 10
132.9865723428
 20
69.9115755504
 10
132.9837703881
 20
69.9061210556
 10
132.9811284945
 20
69.9005860504
 10
132.9786497272
 20
69.8949795045
 10
132.9763371515
 20
69.8893103873
 10
132.9741929485
 20
69.8835881049
 10
132.9722157633
 20
69.8778238082
 10
132.9704033568
 20
69.8720290847
 10
132.96875349
 20
69.8662155217
 10
132.9672639239
 20
69.8603947066
 10
132.9659320764
 20
69.8545765043
 10
132.9647539944
 20
69.84876389
 10
132.9637253815
 20
69.8429581163
 10
132.9628419415
 20
69.8371604358
 10
132.9620993782
 20
69.8313721012
 10
132.9613638921
 20
69.8241473658
 10
132.9608403527
 20
69.816915429
 10
132.9605272998
 20
69.8096525288
 10
132.9604232734
 20
69.8023349035
  0
LWPOLYLINE
  5
413
100
AcDbEntity
  8
SCRITTE
100
AcDbPolyline
 62
250
  6
CONTINUOUS
 90
8
 70
0
 10
133.3252151732
 20
70.0969282629
 10
133.2972747445
 20
70.0886424434
 10
133.2696404036
 20
70.0802311319
 10
133.2423249247
 20
70.0716626755
 10
133.215341082
 20
70.062905421
 10
133.1887016495
 20
70.0539277154
 10
133.1624194016
 20
70.0446979057
 10
133.1365071123
 20
70.0351843388
  0
LINE
  5
414
100
AcDbEntity
  8
SCRITTE
100
AcDbLine
 62
250
  6
CONTINUOUS
 10
133.7063791995
 20
70.2071688326
 11
133.5282497464
 21
70.1550341447
  0
LINE
  5
415
100
AcDbEntity
  8
SCRITTE
100
AcDbLine
 62
250
  6
CONTINUOUS
 10
133.7430492339
 20
70.2177698655
 11
133.7063791995
 21
70.2071688326
  0
LINE
  5
416
100
AcDbEntity
  8
SCRITTE
100
AcDbLine
 62
250
  6
CONTINUOUS
 10
133.5282497464
 20
70.1550341447
 11
133.4592449659
 21
70.1352192463
  0
LWPOLYLINE
  5
417
100
AcDbEntity
  8
0
100
AcDbPolyline
 62
7
  6
CONTINUOUS
 90
10
 70
0
 43
0.3499999917
 10
145.8042663574
 20
50.2967248535
 10
146.6614031982
 20
51.153868103
 10
146.8756842041
 20
52.0110113525
 10
146.8756842041
 20
52.8681546021
 10
146.4471221924
 20
53.2967294312
 10
145.8042663574
 20
53.2967294312
 10
145.3756915283
 20
52.8681546021
 10
145.3756915283
 20
52.0110113525
 10
145.8042663574
 20
51.5824429321
 10
146.7328344727
 20
51.5824429321
  0
LINE
  5
418
100
AcDbEntity
  8
SCRITTE
100
AcDbLine
 62
250
  6
CONTINUOUS
 10
132.4371919687
 20
65.791171389
 11
133.7430489687
 21
66.280885389
  0
LINE
  5
419
100
AcDbEntity
  8
SCRITTE
100
AcDbLine
 62
250
  6
CONTINUOUS
 10
132.8535269687
 20
66.312438389
 11
131.7432109687
 21
65.899402389
  0
LINE
  5
41A
100
AcDbEntity
  8
SCRITTE
100
AcDbLine
 62
250
  6
CONTINUOUS
 10
133.7430489687
 20
69.040164389
 11
131.7432109687
 21
68.426564389
  0
LINE
  5
41B
100
AcDbEntity
  8
SCRITTE
100
AcDbLine
 62
250
  6
CONTINUOUS
 10
131.7432109687
 20
62.859958389
 11
133.7430489687
 21
63.493945389
  0
LINE
  5
41C
100
AcDbEntity
  8
RACCORDO
100
AcDbLine
 62
250
  6
CONTINUOUS
 10
130.5598959905
 20
216.6295874524
 11
134.9860639687
 21
216.8615530869
  0
LINE
  5
41D
100
AcDbEntity
  8
ASSI
100
AcDbLine
 62
250
  6
CONTINUOUS
 10
130.5598959905
 20
216.6295874524
 11
134.9860639687
 21
216.8615530869
  0
LINE
  5
41E
100
AcDbEntity
  8
RACCORDO
100
AcDbLine
 62
7
  6
CONTINUOUS
 10
130.5598959905
 20
218.1275317546
 11
134.9860639687
 21
218.359497389
  0
LINE
  5
41F
100
AcDbEntity
  8
ASSI
100
AcDbLine
 62
7
  6
CONTINUOUS
 10
130.5598959905
 20
218.1275317546
 11
134.9860639687
 21
218.359497389
  0
LINE
  5
420
100
AcDbEntity
  8
RACCORDO
100
AcDbLine
 62
250
  6
CONTINUOUS
 10
130.0860639687
 20
216.6295874524
 11
130.5598959905
 21
216.6295874524
  0
LINE
  5
421
100
AcDbEntity
  8
ASSI
100
AcDbLine
 62
250
  6
CONTINUOUS
 10
130.0860639687
 20
216.6295874524
 11
130.5598959905
 21
216.6295874524
  0
LINE
  5
422
100
AcDbEntity
  8
RACCORDO
100
AcDbLine
 62
250
  6
CONTINUOUS
 10
137.9860639687
 20
216.85743887
 11
135.384405819
 21
216.85743887
  0
LINE
  5
423
100
AcDbEntity
  8
ASSI
100
AcDbLine
 62
250
  6
CONTINUOUS
 10
137.9860639687
 20
216.85743887
 11
135.384405819
 21
216.85743887
  0
LINE
  5
424
100
AcDbEntity
  8
0
100
AcDbLine
 62
250
  6
CONTINUOUS
 10
134.9860639687
 20
216.8615530869
 11
135.384405819
 21
216.8579111652
  0
LINE
  5
425
100
AcDbEntity
  8
ASSI
100
AcDbLine
 62
250
  6
CONTINUOUS
 10
134.9860639687
 20
216.8615530869
 11
135.384405819
 21
216.8579111652
  0
LINE
  5
426
100
AcDbEntity
  8
RACCORDO
100
AcDbLine
 62
7
  6
CONTINUOUS
 10
137.7965311599
 20
217.5249199671
 11
135.384405819
 21
217.6513340995
  0
LINE
  5
427
100
AcDbEntity
  8
ASSI
100
AcDbLine
 62
7
  6
CONTINUOUS
 10
137.7965311599
 20
217.5249199671
 11
135.384405819
 21
217.6513340995
  0
ARC
  5
428
100
AcDbEntity
  8
RACCORDO
100
AcDbCircle
 62
7
  6
CONTINUOUS
 10
130.5860639687
 20
217.6282169872
 40
0.5
100
AcDbArc
 50
93.0
 51
180.0
  0
ARC
  5
429
100
AcDbEntity
  8
RACCORDO
100
AcDbCircle
 62
7
  6
CONTINUOUS
 10
130.5860639687
 20
58.0907777909
 40
0.5
100
AcDbArc
 50
180.0
 51
267.0
  0
ARC
  5
42A
100
AcDbEntity
  8
ASSI
100
AcDbCircle
 62
7
  6
CONTINUOUS
 10
130.5860639687
 20
217.6282169872
 40
0.5
100
AcDbArc
 50
93.0
 51
180.0
  0
ARC
  5
42B
100
AcDbEntity
  8
ASSI
100
AcDbCircle
 62
7
  6
CONTINUOUS
 10
130.5860639687
 20
58.0907777909
 40
0.5
100
AcDbArc
 50
180.0
 51
267.0
  0
ARC
  5
42C
100
AcDbEntity
  8
RACCORDO
100
AcDbCircle
 62
7
  6
CONTINUOUS
 10
137.7860639687
 20
58.3938007179
 40
0.2
100
AcDbArc
 50
273.0
 51
360.0
  0
ARC
  5
42D
100
AcDbEntity
  8
RACCORDO
100
AcDbCircle
 62
7
  6
CONTINUOUS
 10
137.7860639687
 20
217.3251940601
 40
0.2
100
AcDbArc
 50
0.0
 51
87.0
  0
ARC
  5
42E
100
AcDbEntity
  8
ASSI
100
AcDbCircle
 62
7
  6
CONTINUOUS
 10
137.7860639687
 20
58.3938007179
 40
0.2
100
AcDbArc
 50
273.0
 51
360.0
  0
ARC
  5
42F
100
AcDbEntity
  8
ASSI
100
AcDbCircle
 62
7
  6
CONTINUOUS
 10
137.7860639687
 20
217.3251940601
 40
0.2
100
AcDbArc
 50
0.0
 51
87.0
  0
ELLIPSE
  5
430
100
AcDbEntity
  8
RACCORDO
100
AcDbEllipse
 62
7
  6
CONTINUOUS
 10
218.2086379352
 20
128.634421225
 30
0.0
 11
-0.3536610946
 21
-0.3536610946
 31
0.0
 40
0.9996954599
 41
2.3563467834
 42
3.9268385237
  0
ELLIPSE
  5
431
100
AcDbEntity
  8
RACCORDO
100
AcDbEllipse
 62
7
  6
CONTINUOUS
 10
218.2086379352
 20
76.0845735531
 30
0.0
 11
-0.3536610946
 21
0.3536610946
 31
0.0
 40
0.9996954599
 41
2.3563467834
 42
3.9268385237
  0
ELLIPSE
  5
432
100
AcDbEntity
  8
RACCORDO
100
AcDbEllipse
 62
7
  6
CONTINUOUS
 10
173.7587902632
 20
76.0845735531
 30
0.0
 11
0.3536610946
 21
0.3536610946
 31
0.0
 40
0.9996954599
 41
2.3563467834
 42
3.9268385237
  0
ELLIPSE
  5
433
100
AcDbEntity
  8
RACCORDO
100
AcDbEllipse
 62
7
  6
CONTINUOUS
 10
173.7587902632
 20
128.634421225
 30
0.0
 11
0.3536610946
 21
-0.3536610946
 31
0.0
 40
0.9996954599
 41
2.3563467834
 42
3.9268385237
  0
ELLIPSE
  5
434
100
AcDbEntity
  8
RACCORDO
100
AcDbEllipse
 62
7
  6
CONTINUOUS
 10
173.7587902632
 20
147.0845735531
 30
0.0
 11
0.3536610946
 21
0.3536610946
 31
0.0
 40
0.9996954599
 41
2.3563467834
 42
3.9268385237
  0
ELLIPSE
  5
435
100
AcDbEntity
  8
RACCORDO
100
AcDbEllipse
 62
7
  6
CONTINUOUS
 10
173.7587902632
 20
199.634421225
 30
0.0
 11
0.3536610946
 21
-0.3536610946
 31
0.0
 40
0.9996954599
 41
2.3563467834
 42
3.9268385237
  0
ELLIPSE
  5
436
100
AcDbEntity
  8
RACCORDO
100
AcDbEllipse
 62
7
  6
CONTINUOUS
 10
218.2086379352
 20
199.634421225
 30
0.0
 11
-0.3536610946
 21
-0.3536610946
 31
0.0
 40
0.9996954599
 41
2.3563467834
 42
3.9268385237
  0
ELLIPSE
  5
437
100
AcDbEntity
  8
RACCORDO
100
AcDbEllipse
 62
7
  6
CONTINUOUS
 10
218.2086379352
 20
147.0845735531
 30
0.0
 11
-0.3536610946
 21
0.3536610946
 31
0.0
 40
0.9996954599
 41
2.3563467834
 42
3.9268385237
  0
ELLIPSE
  5
438
100
AcDbEntity
  8
ASSI
100
AcDbEllipse
 62
7
  6
CONTINUOUS
 10
218.2086379352
 20
128.634421225
 30
0.0
 11
-0.3536610946
 21
-0.3536610946
 31
0.0
 40
0.9996954599
 41
2.3563467834
 42
3.9268385237
  0
ELLIPSE
  5
439
100
AcDbEntity
  8
ASSI
100
AcDbEllipse
 62
7
  6
CONTINUOUS
 10
218.2086379352
 20
76.0845735531
 30
0.0
 11
-0.3536610946
 21
0.3536610946
 31
0.0
 40
0.9996954599
 41
2.3563467834
 42
3.9268385237
  0
ELLIPSE
  5
43A
100
AcDbEntity
  8
ASSI
100
AcDbEllipse
 62
7
  6
CONTINUOUS
 10
173.7587902632
 20
76.0845735531
 30
0.0
 11
0.3536610946
 21
0.3536610946
 31
0.0
 40
0.9996954599
 41
2.3563467834
 42
3.9268385237
  0
ELLIPSE
  5
43B
100
AcDbEntity
  8
ASSI
100
AcDbEllipse
 62
7
  6
CONTINUOUS
 10
173.7587902632
 20
128.634421225
 30
0.0
 11
0.3536610946
 21
-0.3536610946
 31
0.0
 40
0.9996954599
 41
2.3563467834
 42
3.9268385237
  0
ELLIPSE
  5
43C
100
AcDbEntity
  8
ASSI
100
AcDbEllipse
 62
7
  6
CONTINUOUS
 10
173.7587902632
 20
147.0845735531
 30
0.0
 11
0.3536610946
 21
0.3536610946
 31
0.0
 40
0.9996954599
 41
2.3563467834
 42
3.9268385237
  0
ELLIPSE
  5
43D
100
AcDbEntity
  8
ASSI
100
AcDbEllipse
 62
7
  6
CONTINUOUS
 10
173.7587902632
 20
199.634421225
 30
0.0
 11
0.3536610946
 21
-0.3536610946
 31
0.0
 40
0.9996954599
 41
2.3563467834
 42
3.9268385237
  0
ELLIPSE
  5
43E
100
AcDbEntity
  8
ASSI
100
AcDbEllipse
 62
7
  6
CONTINUOUS
 10
218.2086379352
 20
199.634421225
 30
0.0
 11
-0.3536610946
 21
-0.3536610946
 31
0.0
 40
0.9996954599
 41
2.3563467834
 42
3.9268385237
  0
ELLIPSE
  5
43F
100
AcDbEntity
  8
ASSI
100
AcDbEllipse
 62
7
  6
CONTINUOUS
 10
218.2086379352
 20
147.0845735531
 30
0.0
 11
-0.3536610946
 21
0.3536610946
 31
0.0
 40
0.9996954599
 41
2.3563467834
 42
3.9268385237
  0
ENDSEC
  0
SECTION
  2
OBJECTS
  0
DICTIONARY
  5
C
100
AcDbDictionary
280
0
281
1
  3
ACAD_GROUP
350
D
  3
ACAD_MLINESTYLE
350
17
  3
ACAD_LAYOUT
350
1A
  3
ACAD_PLOTSETTINGS
350
19
  3
ACAD_PLOTSTYLENAME
350
E
  0
DICTIONARY
  5
D
102
{ACAD_REACTORS
330
C
102
}
100
AcDbDictionary
280
0
281
1
  0
ACDBDICTIONARYWDFLT
  5
E
102
{ACAD_REACTORS
330
C
102
}
100
AcDbDictionary
281
1
  3
Normal
350
F
100
AcDbDictionaryWithDefault
340
F
  0
DICTIONARY
  5
17
102
{ACAD_REACTORS
330
C
102
}
100
AcDbDictionary
280
0
281
1
  3
Standard
350
18
  0
DICTIONARY
  5
19
102
{ACAD_REACTORS
330
C
102
}
100
AcDbDictionary
281
1
  0
DICTIONARY
  5
1A
102
{ACAD_REACTORS
330
C
102
}
100
AcDbDictionary
281
1
  3
Model
350
440
  3
Layout1
350
441
  0
ACDBPLACEHOLDER
  5
F
102
{ACAD_REACTORS
330
E
102
}
  0
MLINESTYLE
  5
18
102
{ACAD_REACTORS
330
17
102
}
100
AcDbMlineStyle
  2
STANDARD
 70
0
  3

 62
256
 51
90.0
 52
90.0
 71
2
 49
0.5
 62
256
  6
BYLAYER
 49
-0.5
 62
256
  6
BYLAYER
  0
LAYOUT
  5
440
102
{ACAD_REACTORS
330
1A
102
}
100
AcDbPlotSettings
  1

  2
none_device
  4
ISO_A3_(420.00_x_297.00_MM)
  6

 40
0.0
 41
0.0
 42
0.0
 43
0.0
 44
420.0
 45
297.0
 46
0.0
 47
0.0
 48
0.0
 49
0.0
140
0.0
141
0.0
142
1.0
143
1.0
 70
1024
 72
1
 73
0
 74
0
  7

 75
0
147
1.0
148
0.0
149
0.0
100
AcDbLayout
  1
Model
 70
0
 71
0
 10
0.0
 20
0.0
 11
420.0
 21
297.0
 12
0.0
 22
0.0
 32
0.0
 14
0.0
 24
0.0
 34
0.0
 15
0.0
 25
0.0
 35
0.0
146
0.0
 13
0.0
 23
0.0
 33
0.0
 16
1.0
 26
0.0
 36
0.0
 17
0.0
 27
1.0
 37
0.0
 76
0
330
216
345
0
346
0
  0
LAYOUT
  5
441
102
{ACAD_REACTORS
330
1A
102
}
100
AcDbPlotSettings
  1

  2
none_device
  4
ISO_A3_(420.00_x_297.00_MM)
  6

 40
0.0
 41
0.0
 42
0.0
 43
0.0
 44
420.0
 45
297.0
 46
0.0
 47
0.0
 48
0.0
 49
0.0
140
0.0
141
0.0
142
1.0
143
1.0
 70
0
 72
1
 73
0
 74
0
  7

 75
0
147
1.0
148
0.0
149
0.0
100
AcDbLayout
  1
Layout1
 70
0
 71
1
 10
0.0
 20
0.0
 11
420.0
 21
297.0
 12
0.0
 22
0.0
 32
0.0
 14
0.0
 24
0.0
 34
0.0
 15
0.0
 25
0.0
 35
0.0
146
0.0
 13
0.0
 23
0.0
 33
0.0
 16
1.0
 26
0.0
 36
0.0
 17
0.0
 27
1.0
 37
0.0
 76
0
330
217
345
0
346
0
  0
ENDSEC
  0
EOF
