  0
SECTION
  2
HEADER
  9
$ACADVER
  1
AC1024
  9
$DWGCODEPAGE
  3
ANSI_1252
  9
$EXTMAX
 10
420.0
 20
297.0
 30
0.0
  9
$EXTMIN
 10
0.0
 20
0.0
 30
0.0
  9
$LIMMIN
 10
0.0
 20
0.0
  9
$LIMMAX
 10
420.0
 20
297.0
  9
$VIEWCTR
 10
210.0
 20
148.5
  9
$VIEWSIZE
 40
297.0
  9
$CLAYER
  8
0
  9
$LTSCALE
 40
23.1
  9
$CELTYPE
  6
BYLAYER
  9
$DIMSCALE
 40
1.0
  9
$DIMASZ
 40
3.0
  9
$DIMEXO
 40
0.5
  9
$DIMDLI
 40
15.96
  9
$DIMEXE
 40
1.5
  9
$DIMCEN
 40
3.78
  9
$DIMLFAC
 40
1.0
  9
$DIMBLK
  1
_FILLED
  9
$DIMALT
 70
0
  9
$DIMALTF
 40
0.0393700787
  9
$DIMTXT
 40
3.0
  9
$DIMTOL
 70
1
  9
$DIMLIM
 70
0
  9
$DIMTFAC
 40
1.0
  9
$DIMTP
 40
0.01
  9
$DIMTM
 40
0.01
  9
$DIMGAP
 40
0.625
  9
$DIMDSEP
 70
44
  9
$AUNITS
 70
0
  9
$PDMODE
 70
3
  9
$PDSIZE
 40
3.0
  9
$HANDSEED
  5
32E
  9
$TILEMODE
 70
1
  9
$MEASUREMENT
 70
1
  9
$INSUNITS
 70
4
  0
ENDSEC
  0
SECTION
  2
CLASSES
  0
CLASS
  1
ACDBDICTIONARYWDFLT
  2
AcDbDictionaryWithDefault
  3
AutoCAD 2000
 90
0
 91
1
280
0
281
0
  0
CLASS
  1
ACDBPLACEHOLDER
  2
AcDbPlaceHolder
  3
AutoCAD 2000
 90
0
 91
1
280
0
281
0
  0
CLASS
  1
LAYOUT
  2
AcDbLayout
  3
AutoCAD 2000
 90
0
 91
0
280
0
281
0
  0
ENDSEC
  0
SECTION
  2
TABLES
  0
TABLE
  2
VPORT
  5
8
100
AcDbSymbolTable
 70
2
  0
VPORT
  5
1F4
100
AcDbSymbolTableRecord
100
AcDbViewportTableRecord
  2
*ACTIVE
 70
0
 10
0.0
 20
0.0
 11
1.0
 21
1.0
 12
210.0
 22
148.5
 13
0.0
 23
0.0
 14
1.0
 24
1.0
 15
0.0
 25
0.0
 16
0.0
 26
0.0
 36
1.0
 17
0.0
 27
0.0
 37
0.0
 40
297.0
 41
1.4141414141
 42
50.0
 43
0.0
 44
0.0
 50
0.0
 51
0.0
 71
0
 72
100
 73
1
 74
1
 75
0
 76
0
 77
0
 78
0
  0
ENDTAB
  0
TABLE
  2
LTYPE
  5
5
100
AcDbSymbolTable
 70
6
  0
LTYPE
  5
14
100
AcDbSymbolTableRecord
100
AcDbLinetypeTableRecord
  2
BYBLOCK
 70
0
  3

 72
65
 73
0
 40
0.0
  0
LTYPE
  5
15
100
AcDbSymbolTableRecord
100
AcDbLinetypeTableRecord
  2
BYLAYER
 70
0
  3

 72
65
 73
0
 40
0.0
  0
LTYPE
  5
16
100
AcDbSymbolTableRecord
100
AcDbLinetypeTableRecord
  2
CONTINUOUS
 70
64
  3
Solid line
 72
65
 73
0
 40
0.0
  0
LTYPE
  5
1F5
100
AcDbSymbolTableRecord
100
AcDbLinetypeTableRecord
  2
CENTER
 70
64
  3
____ _ ____ _ ____ _ ____ _ ____ _ ____ _ ____
 72
65
 73
4
 40
0.6
 49
0.375
 74
0
 49
-0.075
 74
0
 49
0.075
 74
0
 49
-0.075
 74
0
  0
LTYPE
  5
1F6
100
AcDbSymbolTableRecord
100
AcDbLinetypeTableRecord
  2
HIDDEN
 70
64
  3
- - - - - - - - - - - - - - - - - - - -
 72
65
 73
2
 40
0.2
 49
0.1
 74
0
 49
-0.1
 74
0
  0
LTYPE
  5
1F7
100
AcDbSymbolTableRecord
100
AcDbLinetypeTableRecord
  2
PHANTOM
 70
64
  3
_____ _ _ _____ _ _ _____ _ _ _____
 72
65
 73
6
 40
0.8
 49
0.45
 74
0
 49
-0.05
 74
0
 49
0.1
 74
0
 49
-0.05
 74
0
 49
0.1
 74
0
 49
-0.05
 74
0
  0
LTYPE
  5
1F8
100
AcDbSymbolTableRecord
100
AcDbLinetypeTableRecord
  2
DOT
 70
64
  3
. . . . . . . . . . . . . . . . . . . .
 72
65
 73
2
 40
0.2
 49
0.1
 74
0
 49
-0.1
 74
0
  0
LTYPE
  5
1F9
100
AcDbSymbolTableRecord
100
AcDbLinetypeTableRecord
  2
DASHED
 70
64
  3
- - - - - - - - - - - - - - - - - - - -
 72
65
 73
2
 40
0.2
 49
0.1
 74
0
 49
-0.1
 74
0
  0
ENDTAB
  0
TABLE
  2
LAYER
  5
2
100
AcDbSymbolTable
 70
36
  0
LAYER
  5
10
100
AcDbSymbolTableRecord
100
AcDbLayerTableRecord
  2
0
 70
0
 62
7
  6
CONTINUOUS
370
-3
390
F
  0
LAYER
  5
1FA
100
AcDbSymbolTableRecord
100
AcDbLayerTableRecord
  2
DEFAULT_1
 70
0
 62
7
  6
CENTER
370
-3
390
F
  0
LAYER
  5
1FB
100
AcDbSymbolTableRecord
100
AcDbLayerTableRecord
  2
DEFAULT_2
 70
0
 62
7
  6
HIDDEN
370
-3
390
F
  0
LAYER
  5
1FC
100
AcDbSymbolTableRecord
100
AcDbLayerTableRecord
  2
DEFAULT_3
 70
0
 62
7
  6
PHANTOM
370
-3
390
F
  0
LAYER
  5
1FD
100
AcDbSymbolTableRecord
100
AcDbLayerTableRecord
  2
ASSI
 70
0
 62
7
  6
CONTINUOUS
370
-3
390
F
  0
LAYER
  5
1FE
100
AcDbSymbolTableRecord
100
AcDbLayerTableRecord
  2
COORDINATE
 70
0
 62
7
  6
CONTINUOUS
370
-3
390
F
  0
LAYER
  5
1FF
100
AcDbSymbolTableRecord
100
AcDbLayerTableRecord
  2
COPY_PUBLISH
 70
0
 62
7
  6
CONTINUOUS
370
-3
390
F
  0
LAYER
  5
200
100
AcDbSymbolTableRecord
100
AcDbLayerTableRecord
  2
COSMETICI
 70
0
 62
7
  6
CONTINUOUS
370
-3
390
F
  0
LAYER
  5
201
100
AcDbSymbolTableRecord
100
AcDbLayerTableRecord
  2
CURVE
 70
0
 62
7
  6
CONTINUOUS
370
-3
390
F
  0
LAYER
  5
202
100
AcDbSymbolTableRecord
100
AcDbLayerTableRecord
  2
DRAFT
 70
0
 62
7
  6
CONTINUOUS
370
-3
390
F
  0
LAYER
  5
203
100
AcDbSymbolTableRecord
100
AcDbLayerTableRecord
  2
IMPORT_IGES
 70
0
 62
7
  6
CONTINUOUS
370
-3
390
F
  0
LAYER
  5
204
100
AcDbSymbolTableRecord
100
AcDbLayerTableRecord
  2
INTF_1
 70
0
 62
7
  6
CONTINUOUS
370
-3
390
F
  0
LAYER
  5
205
100
AcDbSymbolTableRecord
100
AcDbLayerTableRecord
  2
INTF_11
 70
0
 62
7
  6
CONTINUOUS
370
-3
390
F
  0
LAYER
  5
206
100
AcDbSymbolTableRecord
100
AcDbLayerTableRecord
  2
INTF_13
 70
0
 62
7
  6
CONTINUOUS
370
-3
390
F
  0
LAYER
  5
207
100
AcDbSymbolTableRecord
100
AcDbLayerTableRecord
  2
INTF_2
 70
0
 62
7
  6
CONTINUOUS
370
-3
390
F
  0
LAYER
  5
208
100
AcDbSymbolTableRecord
100
AcDbLayerTableRecord
  2
INTF_8
 70
0
 62
7
  6
CONTINUOUS
370
-3
390
F
  0
LAYER
  5
209
100
AcDbSymbolTableRecord
100
AcDbLayerTableRecord
  2
NOTE
 70
0
 62
7
  6
CONTINUOUS
370
-3
390
F
  0
LAYER
  5
20A
100
AcDbSymbolTableRecord
100
AcDbLayerTableRecord
  2
PIANI
 70
0
 62
7
  6
CONTINUOUS
370
-3
390
F
  0
LAYER
  5
20B
100
AcDbSymbolTableRecord
100
AcDbLayerTableRecord
  2
PUNTI
 70
0
 62
7
  6
CONTINUOUS
370
-3
390
F
  0
LAYER
  5
20C
100
AcDbSymbolTableRecord
100
AcDbLayerTableRecord
  2
RACCORDO
 70
0
 62
7
  6
CONTINUOUS
370
-3
390
F
  0
LAYER
  5
20D
100
AcDbSymbolTableRecord
100
AcDbLayerTableRecord
  2
RGB____0____0____0__
 70
0
 62
7
  6
CONTINUOUS
370
-3
390
F
  0
LAYER
  5
20E
100
AcDbSymbolTableRecord
100
AcDbLayerTableRecord
  2
SIMBOLI
 70
0
 62
7
  6
CONTINUOUS
370
-3
390
F
  0
LAYER
  5
20F
100
AcDbSymbolTableRecord
100
AcDbLayerTableRecord
  2
SMUSSO
 70
0
 62
7
  6
CONTINUOUS
370
-3
390
F
  0
LAYER
  5
210
100
AcDbSymbolTableRecord
100
AcDbLayerTableRecord
  2
SUPERFICI
 70
0
 62
7
  6
CONTINUOUS
370
-3
390
F
  0
LAYER
  5
211
100
AcDbSymbolTableRecord
100
AcDbLayerTableRecord
  2
TRASH
 70
0
 62
7
  6
CONTINUOUS
370
-3
390
F
  0
ENDTAB
  0
TABLE
  2
STYLE
  5
3
100
AcDbSymbolTable
 70
1
  0
STYLE
  5
11
100
AcDbSymbolTableRecord
100
AcDbTextStyleTableRecord
  2
STANDARD
 70
0
 40
0.0
 41
0.8
 50
0.0
 71
0
 42
0.2
  3
txt
  4

  0
STYLE
  5
212
100
AcDbSymbolTableRecord
100
AcDbTextStyleTableRecord
  2
TEXTSTYLE_1
 70
0
 40
0.0
 41
0.8
 50
0.0
 71
0
 42
0.2
  3
gdt
  4

  0
ENDTAB
  0
TABLE
  2
VIEW
  5
6
100
AcDbSymbolTable
 70
0
  0
ENDTAB
  0
TABLE
  2
UCS
  5
7
100
AcDbSymbolTable
 70
0
  0
ENDTAB
  0
TABLE
  2
APPID
  5
9
100
AcDbSymbolTable
 70
1
  0
APPID
  5
213
100
AcDbSymbolTableRecord
100
AcDbRegAppTableRecord
  2
ACAD
 70
0
  0
ENDTAB
  0
TABLE
  2
BLOCK_RECORD
  5
1
100
AcDbSymbolTable
 70
0
  0
BLOCK_RECORD
  5
214
100
AcDbSymbolTableRecord
100
AcDbBlockTableRecord
  2
*Model_Space
  0
BLOCK_RECORD
  5
215
100
AcDbSymbolTableRecord
100
AcDbBlockTableRecord
  2
*Paper_Space
  0
BLOCK_RECORD
  5
216
100
AcDbSymbolTableRecord
100
AcDbBlockTableRecord
  2
_FILLED
  0
BLOCK_RECORD
  5
217
100
AcDbSymbolTableRecord
100
AcDbBlockTableRecord
  2
*D0
  0
BLOCK_RECORD
  5
218
100
AcDbSymbolTableRecord
100
AcDbBlockTableRecord
  2
*D1
  0
BLOCK_RECORD
  5
219
100
AcDbSymbolTableRecord
100
AcDbBlockTableRecord
  2
*D2
  0
ENDTAB
  0
TABLE
  2
DIMSTYLE
  5
A
100
AcDbSymbolTable
 70
1
100
AcDbDimStyleTable
 71
0
  0
DIMSTYLE
105
21A
100
AcDbSymbolTableRecord
100
AcDbDimStyleTableRecord
  2
STANDARD
 70
0
  3

  4

 40
1.0
 41
3.0
 42
0.5
 43
0.38
 44
1.5
 45
0.0
 46
0.0
 47
0.01
 48
0.01
140
3.0
141
0.0
142
0.0
143
25.4
144
1.0
145
0.0
146
1.0
147
0.625
 71
1
 72
0
 73
0
 74
0
 75
0
 76
0
 77
1
 78
8
 79
2
170
0
171
1
172
0
173
0
174
0
175
0
176
0
177
0
178
0
270
2
179
2
271
2
272
2
273
2
274
2
275
0
280
0
281
0
282
0
283
1
284
8
285
0
286
0
287
3
288
0
340
11
278
44
341
216
342
216
343
216
344
216
  0
DIMSTYLE
105
21B
100
AcDbSymbolTableRecord
100
AcDbDimStyleTableRecord
  2
DIMSTYLE_1
 70
0
  3

  4

 40
1.0
 41
3.0
 42
0.5
 43
0.38
 44
1.5
 45
0.0
 46
0.0
 47
0.0
 48
0.0
140
3.0
141
0.0
142
0.0
143
25.4
144
1.0
145
0.0
146
1.0
147
0.75
 71
0
 72
0
 73
0
 74
0
 75
0
 76
0
 77
1
 78
8
 79
2
170
0
171
1
172
0
173
0
174
0
175
0
176
0
177
0
178
0
270
2
179
2
271
2
272
2
273
2
274
2
275
0
280
0
281
0
282
0
283
1
284
8
285
0
286
0
287
3
288
0
340
11
278
44
341
216
342
216
343
216
344
216
  0
ENDTAB
  0
ENDSEC
  0
SECTION
  2
BLOCKS
  0
BLOCK
  5
20
100
AcDbEntity
  8
0
100
AcDbBlockBegin
  2
*Model_Space
 70
0
 10
0.0
 20
0.0
 30
0.0
  3
*Model_Space
  1

  0
ENDBLK
  5
21
100
AcDbEntity
  8
0
100
AcDbBlockEnd
  0
BLOCK
  5
1C
100
AcDbEntity
  8
0
100
AcDbBlockBegin
  2
*Paper_Space
 70
0
 10
0.0
 20
0.0
 30
0.0
  3
*Paper_Space
  1

  0
ENDBLK
  5
1D
100
AcDbEntity
  8
0
100
AcDbBlockEnd
  0
BLOCK
  5
21C
100
AcDbEntity
  8
0
100
AcDbBlockBegin
  2
_FILLED
 70
64
 10
0.0
 20
0.0
 30
0.0
  3
_FILLED
  1

  0
SOLID
  5
21D
100
AcDbEntity
  8
0
  6
BYBLOCK
 62
0
100
AcDbTrace
 10
0.0
 20
0.0
 30
0.0
 11
-1.0
 21
0.3166666667
 31
0.0
 12
-1.0
 22
-0.3166666667
 32
0.0
 13
-1.0
 23
-0.3166666667
 33
0.0
  0
ENDBLK
  5
21E
100
AcDbEntity
  8
0
  6
BYBLOCK
 62
0
100
AcDbBlockEnd
  0
BLOCK
  5
21F
100
AcDbEntity
  8
0
100
AcDbBlockBegin
 62
7
  6
CONTINUOUS
  2
*D0
 70
65
 10
0.0
 20
0.0
 30
0.0
  3
*D0
  1

  0
MTEXT
  5
220
100
AcDbEntity
  8
0
100
AcDbMText
 62
7
  6
CONTINUOUS
  7
STANDARD
 71
2
 72
1
 10
248.2058743171
 20
138.3221279373
 30
0.0
 11
0.0
 21
1.0
 31
0.0
 73
2
 44
0.9
  1
{\ftxt;\W0.0001;\H0.0001;\~}{\ftxt;\W1.9285714286;\H3.0; }{\ftxt;\W0.0001;\H0.0001;\~}
 40
3.0
 41
8.6785714286
  0
LINE
  5
221
100
AcDbEntity
  8
0
100
AcDbLine
 62
7
  6
CONTINUOUS
 10
237.8453002611
 20
57.8221279373
 30
0.0
 11
253.4558743171
 21
57.8221279373
 31
0.0
  0
LINE
  5
222
100
AcDbEntity
  8
0
100
AcDbLine
 62
7
  6
CONTINUOUS
 10
237.8453002611
 20
218.8221279373
 30
0.0
 11
253.4558743171
 21
218.8221279373
 31
0.0
  0
LINE
  5
223
100
AcDbEntity
  8
0
100
AcDbLine
 62
7
  6
CONTINUOUS
 10
251.9558743171
 20
57.8221279373
 30
0.0
 11
251.9558743171
 21
138.3221279373
 31
0.0
  0
LINE
  5
224
100
AcDbEntity
  8
0
100
AcDbLine
 62
7
  6
CONTINUOUS
 10
251.9558743171
 20
218.8221279373
 30
0.0
 11
251.9558743171
 21
138.3221279373
 31
0.0
  0
INSERT
  5
225
100
AcDbEntity
  8
0
100
AcDbBlockReference
 62
7
  6
CONTINUOUS
  2
_FILLED
 10
251.9558743171
 20
57.8221279373
 30
0.0
 41
3.0
 42
3.0
 43
3.0
 50
270.0
  0
INSERT
  5
226
100
AcDbEntity
  8
0
100
AcDbBlockReference
 62
7
  6
CONTINUOUS
  2
_FILLED
 10
251.9558743171
 20
218.8221279373
 30
0.0
 41
3.0
 42
3.0
 43
3.0
 50
90.0
  0
ENDBLK
  5
227
100
AcDbEntity
  8
0
  6
BYBLOCK
 62
0
100
AcDbBlockEnd
  0
BLOCK
  5
228
100
AcDbEntity
  8
0
100
AcDbBlockBegin
 62
7
  6
CONTINUOUS
  2
*D1
 70
65
 10
0.0
 20
0.0
 30
0.0
  3
*D1
  1

  0
MTEXT
  5
229
100
AcDbEntity
  8
0
100
AcDbMText
 62
7
  6
CONTINUOUS
  7
STANDARD
 71
2
 72
1
 10
193.3453002611
 20
50.2195969969
 30
0.0
 11
1.0
 21
0.0
 31
0.0
 73
2
 44
0.9
  1
{\ftxt;\W0.0001;\H0.0001;\~}{\ftxt;\W1.5714285714;\H3.0; }{\ftxt;\W0.0001;\H0.0001;\~}
 40
3.0
 41
7.0714285714
  0
LINE
  5
22A
100
AcDbEntity
  8
0
100
AcDbLine
 62
7
  6
CONTINUOUS
 10
149.3453002611
 20
57.3221279373
 30
0.0
 11
149.3453002611
 21
44.9695969969
 31
0.0
  0
LINE
  5
22B
100
AcDbEntity
  8
0
100
AcDbLine
 62
7
  6
CONTINUOUS
 10
237.3453002611
 20
57.3221279373
 30
0.0
 11
237.3453002611
 21
44.9695969969
 31
0.0
  0
LINE
  5
22C
100
AcDbEntity
  8
0
100
AcDbLine
 62
7
  6
CONTINUOUS
 10
149.3453002611
 20
46.4695969969
 30
0.0
 11
193.3453002611
 21
46.4695969969
 31
0.0
  0
LINE
  5
22D
100
AcDbEntity
  8
0
100
AcDbLine
 62
7
  6
CONTINUOUS
 10
237.3453002611
 20
46.4695969969
 30
0.0
 11
193.3453002611
 21
46.4695969969
 31
0.0
  0
INSERT
  5
22E
100
AcDbEntity
  8
0
100
AcDbBlockReference
 62
7
  6
CONTINUOUS
  2
_FILLED
 10
149.3453002611
 20
46.4695969969
 30
0.0
 41
3.0
 42
3.0
 43
3.0
 50
180.0
  0
INSERT
  5
22F
100
AcDbEntity
  8
0
100
AcDbBlockReference
 62
7
  6
CONTINUOUS
  2
_FILLED
 10
237.3453002611
 20
46.4695969969
 30
0.0
 41
3.0
 42
3.0
 43
3.0
 50
360.0
  0
ENDBLK
  5
230
100
AcDbEntity
  8
0
  6
BYBLOCK
 62
0
100
AcDbBlockEnd
  0
BLOCK
  5
231
100
AcDbEntity
  8
0
100
AcDbBlockBegin
 62
7
  6
CONTINUOUS
  2
*D2
 70
65
 10
0.0
 20
0.0
 30
0.0
  3
*D2
  1

  0
MTEXT
  5
232
100
AcDbEntity
  8
0
100
AcDbMText
 62
7
  6
CONTINUOUS
  7
STANDARD
 71
1
 72
1
 10
137.550828392
 20
231.9345221739
 30
0.0
 11
1.0
 21
0.0
 31
0.0
 73
2
 44
0.9
  1
{\ftxt;\W0.0001;\H0.0001;\~}{\ftxt;\W2.1428571429;\H3.0; }{\ftxt;\W0.0001;\H0.0001;\~}
 40
3.0
 41
9.6428571429
  0
LINE
  5
233
100
AcDbEntity
  8
0
100
AcDbLine
 62
7
  6
CONTINUOUS
 10
126.2146788991
 20
218.8221279373
 30
0.0
 11
126.2146788991
 21
229.6845221739
 31
0.0
  0
LINE
  5
234
100
AcDbEntity
  8
0
100
AcDbLine
 62
7
  6
CONTINUOUS
 10
134.0146788991
 20
217.0436729516
 30
0.0
 11
134.0146788991
 21
229.6845221739
 31
0.0
  0
LINE
  5
235
100
AcDbEntity
  8
0
100
AcDbLine
 62
7
  6
CONTINUOUS
 10
126.2146788991
 20
228.1845221739
 30
0.0
 11
130.1146788991
 21
228.1845221739
 31
0.0
  0
LINE
  5
236
100
AcDbEntity
  8
0
100
AcDbLine
 62
7
  6
CONTINUOUS
 10
134.0146788991
 20
228.1845221739
 30
0.0
 11
130.1146788991
 21
228.1845221739
 31
0.0
  0
LINE
  5
237
100
AcDbEntity
  8
0
100
AcDbLine
 62
7
  6
CONTINUOUS
 10
130.1146788991
 20
228.1845221739
 30
0.0
 11
143.9793998206
 21
228.1845221739
 31
0.0
  0
INSERT
  5
238
100
AcDbEntity
  8
0
100
AcDbBlockReference
 62
7
  6
CONTINUOUS
  2
_FILLED
 10
126.2146788991
 20
228.1845221739
 30
0.0
 41
3.0
 42
3.0
 43
3.0
 50
180.0
  0
INSERT
  5
239
100
AcDbEntity
  8
0
100
AcDbBlockReference
 62
7
  6
CONTINUOUS
  2
_FILLED
 10
134.0146788991
 20
228.1845221739
 30
0.0
 41
3.0
 42
3.0
 43
3.0
  0
ENDBLK
  5
23A
100
AcDbEntity
  8
0
  6
BYBLOCK
 62
0
100
AcDbBlockEnd
  0
ENDSEC
  0
SECTION
  2
ENTITIES
  0
DIMENSION
  5
23B
100
AcDbEntity
  8
0
100
AcDbDimension
 62
7
  6
CONTINUOUS
  2
*D0
 10
251.9558743171
 20
218.8221279373
 30
0.0
 11
251.9558743171
 21
137.8935655447
 31
0.0
 70
160
 71
2
 72
2
 41
0.9
 42
161.0
  1
{\ftxt;\W0.0001;\H0.0001;\~}{\ftxt;\W1.9285714286;\H3.0; }{\ftxt;\W0.0001;\H0.0001;\~}
  3
DIMSTYLE_1
100
AcDbAlignedDimension
 13
237.3453002611
 23
57.8221279373
 33
0.0
 14
237.3453002611
 24
218.8221279373
 34
0.0
 50
90.0
100
AcDbRotatedDimension
  0
DIMENSION
  5
23C
100
AcDbEntity
  8
0
100
AcDbDimension
 62
7
  6
CONTINUOUS
  2
*D1
 10
237.3453002611
 20
46.4695969969
 30
0.0
 11
192.9167294312
 21
46.4695969969
 31
0.0
 70
160
 71
2
 72
2
 41
0.9
 42
88.0
  1
{\ftxt;\W0.0001;\H0.0001;\~}{\ftxt;\W1.5714285714;\H3.0; }{\ftxt;\W0.0001;\H0.0001;\~}
  3
DIMSTYLE_1
100
AcDbAlignedDimension
 13
149.3453002611
 23
57.8221279373
 33
0.0
 14
237.3453002611
 24
57.8221279373
 34
0.0
100
AcDbRotatedDimension
  0
DIMENSION
  5
23D
100
AcDbEntity
  8
0
100
AcDbDimension
 62
7
  6
CONTINUOUS
  2
*D2
 10
134.0146788991
 20
228.1845221739
 30
0.0
 11
140.3365438843
 21
228.1845221739
 31
0.0
 70
160
 71
1
 72
2
 41
0.9
 42
7.8
  1
{\ftxt;\W0.0001;\H0.0001;\~}{\ftxt;\W2.1428571429;\H3.0; }{\ftxt;\W0.0001;\H0.0001;\~}
  3
DIMSTYLE_1
100
AcDbAlignedDimension
 13
126.2146788991
 23
218.3221279373
 33
0.0
 14
134.0146788991
 24
216.5436729516
 34
0.0
100
AcDbRotatedDimension
  0
LINE
  5
23E
100
AcDbEntity
  8
RACCORDO
100
AcDbLine
 62
7
  6
CONTINUOUS
 10
149.3453002611
 20
57.8221279373
 30
0.0
 11
237.3453002611
 21
57.8221279373
 31
0.0
  0
LINE
  5
23F
100
AcDbEntity
  8
0
100
AcDbLine
 62
7
  6
CONTINUOUS
 10
149.3453002611
 20
57.8221279373
 30
0.0
 11
237.3453002611
 21
57.8221279373
 31
0.0
  0
LINE
  5
240
100
AcDbEntity
  8
RACCORDO
100
AcDbLine
 62
250
  6
CONTINUOUS
 10
149.8453002611
 20
58.3221279373
 30
0.0
 11
236.8453002611
 21
58.3221279373
 31
0.0
  0
LINE
  5
241
100
AcDbEntity
  8
0
100
AcDbLine
 62
250
  6
CONTINUOUS
 10
149.8453002611
 20
58.3221279373
 30
0.0
 11
236.8453002611
 21
58.3221279373
 31
0.0
  0
LWPOLYLINE
  5
242
100
AcDbEntity
  8
0
100
AcDbPolyline
 62
7
  6
CONTINUOUS
 90
13
 70
0
 43
0.3499999917
 10
191.4167303467
 20
48.9338845825
 10
191.1310180664
 20
49.1481655884
 10
191.1310180664
 20
49.791027832
 10
191.4167303467
 20
50.2195962524
 10
192.0595861816
 20
50.2195962524
 10
192.3452984619
 20
49.791027832
 10
192.3452984619
 20
49.1481655884
 10
192.0595861816
 20
48.9338845825
 10
192.4881610107
 20
48.5053097534
 10
192.4881610107
 20
47.6481665039
 10
192.0595861816
 20
47.2195980835
 10
191.4167303467
 20
47.2195980835
 10
190.9881555176
 20
47.6481665039
  0
LWPOLYLINE
  5
243
100
AcDbEntity
  8
0
100
AcDbPolyline
 62
7
  6
CONTINUOUS
 90
13
 70
0
 43
0.3499999917
 10
193.7738726807
 20
48.9338845825
 10
193.4881604004
 20
49.1481655884
 10
193.4881604004
 20
49.791027832
 10
193.7738726807
 20
50.2195962524
 10
194.4167285156
 20
50.2195962524
 10
194.7024407959
 20
49.791027832
 10
194.7024407959
 20
49.1481655884
 10
194.4167285156
 20
48.9338845825
 10
194.8453033447
 20
48.5053097534
 10
194.8453033447
 20
47.6481665039
 10
194.4167285156
 20
47.2195980835
 10
193.7738726807
 20
47.2195980835
 10
193.3452978516
 20
47.6481665039
  0
LINE
  5
244
100
AcDbEntity
  8
RACCORDO
100
AcDbLine
 62
250
  6
CONTINUOUS
 10
215.5203002611
 20
75.6971279373
 30
0.0
 11
171.1703002611
 21
75.6971279373
 31
0.0
  0
LINE
  5
245
100
AcDbEntity
  8
0
100
AcDbLine
 62
250
  6
CONTINUOUS
 10
215.5203002611
 20
75.6971279373
 30
0.0
 11
171.1703002611
 21
75.6971279373
 31
0.0
  0
LINE
  5
246
100
AcDbEntity
  8
RACCORDO
100
AcDbLine
 62
7
  6
CONTINUOUS
 10
215.5203002611
 20
75.9971279373
 30
0.0
 11
171.1703002611
 21
75.9971279373
 31
0.0
  0
LINE
  5
247
100
AcDbEntity
  8
0
100
AcDbLine
 62
7
  6
CONTINUOUS
 10
215.5203002611
 20
75.9971279373
 30
0.0
 11
171.1703002611
 21
75.9971279373
 31
0.0
  0
LINE
  5
248
100
AcDbEntity
  8
RACCORDO
100
AcDbLine
 62
250
  6
CONTINUOUS
 10
216.4203002611
 20
76.5971279373
 30
0.0
 11
216.1203002611
 21
76.5971279373
 31
0.0
  0
LINE
  5
249
100
AcDbEntity
  8
0
100
AcDbLine
 62
250
  6
CONTINUOUS
 10
216.4203002611
 20
76.5971279373
 30
0.0
 11
216.1203002611
 21
76.5971279373
 31
0.0
  0
LINE
  5
24A
100
AcDbEntity
  8
RACCORDO
100
AcDbLine
 62
250
  6
CONTINUOUS
 10
170.2703002611
 20
76.5971279373
 30
0.0
 11
170.5703002611
 21
76.5971279373
 31
0.0
  0
LINE
  5
24B
100
AcDbEntity
  8
0
100
AcDbLine
 62
250
  6
CONTINUOUS
 10
170.2703002611
 20
76.5971279373
 30
0.0
 11
170.5703002611
 21
76.5971279373
 31
0.0
  0
LINE
  5
24C
100
AcDbEntity
  8
RACCORDO
100
AcDbLine
 62
7
  6
CONTINUOUS
 10
149.3453002611
 20
218.8221279373
 30
0.0
 11
149.3453002611
 21
57.8221279373
 31
0.0
  0
LINE
  5
24D
100
AcDbEntity
  8
0
100
AcDbLine
 62
7
  6
CONTINUOUS
 10
149.3453002611
 20
218.8221279373
 30
0.0
 11
149.3453002611
 21
57.8221279373
 31
0.0
  0
LINE
  5
24E
100
AcDbEntity
  8
RACCORDO
100
AcDbLine
 62
250
  6
CONTINUOUS
 10
149.8453002611
 20
218.3221279373
 30
0.0
 11
149.8453002611
 21
58.3221279373
 31
0.0
  0
LINE
  5
24F
100
AcDbEntity
  8
0
100
AcDbLine
 62
250
  6
CONTINUOUS
 10
149.8453002611
 20
218.3221279373
 30
0.0
 11
149.8453002611
 21
58.3221279373
 31
0.0
  0
LINE
  5
250
100
AcDbEntity
  8
RACCORDO
100
AcDbLine
 62
7
  6
CONTINUOUS
 10
236.8453002611
 20
218.3221279373
 30
0.0
 11
237.3453002611
 21
218.8221279373
 31
0.0
  0
LINE
  5
251
100
AcDbEntity
  8
0
100
AcDbLine
 62
7
  6
CONTINUOUS
 10
236.8453002611
 20
218.3221279373
 30
0.0
 11
237.3453002611
 21
218.8221279373
 31
0.0
  0
LINE
  5
252
100
AcDbEntity
  8
RACCORDO
100
AcDbLine
 62
7
  6
CONTINUOUS
 10
237.2592144931
 20
218.7360421694
 30
0.0
 11
237.2779413195
 21
218.7547732784
 31
0.0
  0
LINE
  5
253
100
AcDbEntity
  8
0
100
AcDbLine
 62
7
  6
CONTINUOUS
 10
237.2592144931
 20
218.7360421694
 30
0.0
 11
237.2779413195
 21
218.7547732784
 31
0.0
  0
LINE
  5
254
100
AcDbEntity
  8
RACCORDO
100
AcDbLine
 62
7
  6
CONTINUOUS
 10
236.8453002611
 20
218.3221279373
 30
0.0
 11
236.8927051732
 21
218.3690993415
 31
0.0
  0
LINE
  5
255
100
AcDbEntity
  8
0
100
AcDbLine
 62
7
  6
CONTINUOUS
 10
236.8453002611
 20
218.3221279373
 30
0.0
 11
236.8927051732
 21
218.3690993415
 31
0.0
  0
LWPOLYLINE
  5
256
100
AcDbEntity
  8
RACCORDO
100
AcDbPolyline
 62
7
  6
CONTINUOUS
 90
4
 70
0
 10
237.336484857
 20
218.8133125333
 10
237.3415826247
 20
218.8182819855
 10
237.3445210927
 20
218.8211849701
 10
237.3453002611
 20
218.8221279373
  0
LWPOLYLINE
  5
257
100
AcDbEntity
  8
0
100
AcDbPolyline
 62
7
  6
CONTINUOUS
 90
4
 70
0
 10
237.336484857
 20
218.8133125333
 10
237.3415826247
 20
218.8182819855
 10
237.3445210927
 20
218.8211849701
 10
237.3453002611
 20
218.8221279373
  0
LINE
  5
258
100
AcDbEntity
  8
RACCORDO
100
AcDbLine
 62
7
  6
CONTINUOUS
 10
236.8453002611
 20
58.3221279373
 30
0.0
 11
237.3453002611
 21
57.8221279373
 31
0.0
  0
LINE
  5
259
100
AcDbEntity
  8
0
100
AcDbLine
 62
7
  6
CONTINUOUS
 10
236.8453002611
 20
58.3221279373
 30
0.0
 11
237.3453002611
 21
57.8221279373
 31
0.0
  0
LINE
  5
25A
100
AcDbEntity
  8
RACCORDO
100
AcDbLine
 62
7
  6
CONTINUOUS
 10
236.8453002611
 20
58.3221279373
 30
0.0
 11
236.8922716653
 21
58.2747230253
 31
0.0
  0
LINE
  5
25B
100
AcDbEntity
  8
0
100
AcDbLine
 62
7
  6
CONTINUOUS
 10
236.8453002611
 20
58.3221279373
 30
0.0
 11
236.8922716653
 21
58.2747230253
 31
0.0
  0
LWPOLYLINE
  5
25C
100
AcDbEntity
  8
RACCORDO
100
AcDbPolyline
 62
7
  6
CONTINUOUS
 90
4
 70
0
 10
237.336484857
 20
57.8309433414
 10
237.3414543093
 20
57.8258455737
 10
237.3443572939
 20
57.8229071057
 10
237.3453002611
 20
57.8221279373
  0
LWPOLYLINE
  5
25D
100
AcDbEntity
  8
0
100
AcDbPolyline
 62
7
  6
CONTINUOUS
 90
4
 70
0
 10
237.336484857
 20
57.8309433414
 10
237.3414543093
 20
57.8258455737
 10
237.3443572939
 20
57.8229071057
 10
237.3453002611
 20
57.8221279373
  0
LINE
  5
25E
100
AcDbEntity
  8
RACCORDO
100
AcDbLine
 62
250
  6
CONTINUOUS
 10
170.2703002611
 20
76.5971279373
 30
0.0
 11
170.2703002611
 21
129.0471279373
 31
0.0
  0
LINE
  5
25F
100
AcDbEntity
  8
0
100
AcDbLine
 62
250
  6
CONTINUOUS
 10
170.2703002611
 20
76.5971279373
 30
0.0
 11
170.2703002611
 21
129.0471279373
 31
0.0
  0
LINE
  5
260
100
AcDbEntity
  8
RACCORDO
100
AcDbLine
 62
250
  6
CONTINUOUS
 10
170.2703002611
 20
147.5971279373
 30
0.0
 11
170.2703002611
 21
200.0471279373
 31
0.0
  0
LINE
  5
261
100
AcDbEntity
  8
0
100
AcDbLine
 62
250
  6
CONTINUOUS
 10
170.2703002611
 20
147.5971279373
 30
0.0
 11
170.2703002611
 21
200.0471279373
 31
0.0
  0
LINE
  5
262
100
AcDbEntity
  8
RACCORDO
100
AcDbLine
 62
7
  6
CONTINUOUS
 10
170.5703002611
 20
76.5971279373
 30
0.0
 11
170.5703002611
 21
129.0471279373
 31
0.0
  0
LINE
  5
263
100
AcDbEntity
  8
0
100
AcDbLine
 62
7
  6
CONTINUOUS
 10
170.5703002611
 20
76.5971279373
 30
0.0
 11
170.5703002611
 21
129.0471279373
 31
0.0
  0
LINE
  5
264
100
AcDbEntity
  8
RACCORDO
100
AcDbLine
 62
7
  6
CONTINUOUS
 10
170.5703002611
 20
147.5971279373
 30
0.0
 11
170.5703002611
 21
200.0471279373
 31
0.0
  0
LINE
  5
265
100
AcDbEntity
  8
0
100
AcDbLine
 62
7
  6
CONTINUOUS
 10
170.5703002611
 20
147.5971279373
 30
0.0
 11
170.5703002611
 21
200.0471279373
 31
0.0
  0
LINE
  5
266
100
AcDbEntity
  8
RACCORDO
100
AcDbLine
 62
250
  6
CONTINUOUS
 10
171.1703002611
 20
200.9471279373
 30
0.0
 11
171.1703002611
 21
200.6471279373
 31
0.0
  0
LINE
  5
267
100
AcDbEntity
  8
0
100
AcDbLine
 62
250
  6
CONTINUOUS
 10
171.1703002611
 20
200.9471279373
 30
0.0
 11
171.1703002611
 21
200.6471279373
 31
0.0
  0
LINE
  5
268
100
AcDbEntity
  8
RACCORDO
100
AcDbLine
 62
250
  6
CONTINUOUS
 10
171.1703002611
 20
129.9471279373
 30
0.0
 11
171.1703002611
 21
129.6471279373
 31
0.0
  0
LINE
  5
269
100
AcDbEntity
  8
0
100
AcDbLine
 62
250
  6
CONTINUOUS
 10
171.1703002611
 20
129.9471279373
 30
0.0
 11
171.1703002611
 21
129.6471279373
 31
0.0
  0
LINE
  5
26A
100
AcDbEntity
  8
RACCORDO
100
AcDbLine
 62
250
  6
CONTINUOUS
 10
171.1703002611
 20
75.6971279373
 30
0.0
 11
171.1703002611
 21
75.9971279373
 31
0.0
  0
LINE
  5
26B
100
AcDbEntity
  8
0
100
AcDbLine
 62
250
  6
CONTINUOUS
 10
171.1703002611
 20
75.6971279373
 30
0.0
 11
171.1703002611
 21
75.9971279373
 31
0.0
  0
LINE
  5
26C
100
AcDbEntity
  8
RACCORDO
100
AcDbLine
 62
250
  6
CONTINUOUS
 10
171.1703002611
 20
146.6971279373
 30
0.0
 11
171.1703002611
 21
146.9971279373
 31
0.0
  0
LINE
  5
26D
100
AcDbEntity
  8
0
100
AcDbLine
 62
250
  6
CONTINUOUS
 10
171.1703002611
 20
146.6971279373
 30
0.0
 11
171.1703002611
 21
146.9971279373
 31
0.0
  0
LINE
  5
26E
100
AcDbEntity
  8
RACCORDO
100
AcDbLine
 62
250
  6
CONTINUOUS
 10
216.4203002611
 20
129.0471279373
 30
0.0
 11
216.1203002611
 21
129.0471279373
 31
0.0
  0
LINE
  5
26F
100
AcDbEntity
  8
0
100
AcDbLine
 62
250
  6
CONTINUOUS
 10
216.4203002611
 20
129.0471279373
 30
0.0
 11
216.1203002611
 21
129.0471279373
 31
0.0
  0
LINE
  5
270
100
AcDbEntity
  8
RACCORDO
100
AcDbLine
 62
250
  6
CONTINUOUS
 10
170.2703002611
 20
129.0471279373
 30
0.0
 11
170.5703002611
 21
129.0471279373
 31
0.0
  0
LINE
  5
271
100
AcDbEntity
  8
0
100
AcDbLine
 62
250
  6
CONTINUOUS
 10
170.2703002611
 20
129.0471279373
 30
0.0
 11
170.5703002611
 21
129.0471279373
 31
0.0
  0
LINE
  5
272
100
AcDbEntity
  8
RACCORDO
100
AcDbLine
 62
7
  6
CONTINUOUS
 10
171.1703002611
 20
129.6471279373
 30
0.0
 11
215.5203002611
 21
129.6471279373
 31
0.0
  0
LINE
  5
273
100
AcDbEntity
  8
0
100
AcDbLine
 62
7
  6
CONTINUOUS
 10
171.1703002611
 20
129.6471279373
 30
0.0
 11
215.5203002611
 21
129.6471279373
 31
0.0
  0
LINE
  5
274
100
AcDbEntity
  8
RACCORDO
100
AcDbLine
 62
250
  6
CONTINUOUS
 10
171.1703002611
 20
129.9471279373
 30
0.0
 11
215.5203002611
 21
129.9471279373
 31
0.0
  0
LINE
  5
275
100
AcDbEntity
  8
0
100
AcDbLine
 62
250
  6
CONTINUOUS
 10
171.1703002611
 20
129.9471279373
 30
0.0
 11
215.5203002611
 21
129.9471279373
 31
0.0
  0
LWPOLYLINE
  5
276
100
AcDbEntity
  8
0
100
AcDbPolyline
 62
7
  6
CONTINUOUS
 90
4
 70
0
 43
0.3499999917
 10
190.9881555176
 20
47.6481665039
 10
190.9881555176
 20
48.5053097534
 10
191.4167303467
 20
48.9338845825
 10
192.0595861816
 20
48.9338845825
  0
LWPOLYLINE
  5
277
100
AcDbEntity
  8
0
100
AcDbPolyline
 62
7
  6
CONTINUOUS
 90
4
 70
0
 43
0.3499999917
 10
193.3452978516
 20
47.6481665039
 10
193.3452978516
 20
48.5053097534
 10
193.7738726807
 20
48.9338845825
 10
194.4167285156
 20
48.9338845825
  0
LINE
  5
278
100
AcDbEntity
  8
RACCORDO
100
AcDbLine
 62
250
  6
CONTINUOUS
 10
215.5203002611
 20
146.6971279373
 30
0.0
 11
171.1703002611
 21
146.6971279373
 31
0.0
  0
LINE
  5
279
100
AcDbEntity
  8
0
100
AcDbLine
 62
250
  6
CONTINUOUS
 10
215.5203002611
 20
146.6971279373
 30
0.0
 11
171.1703002611
 21
146.6971279373
 31
0.0
  0
LINE
  5
27A
100
AcDbEntity
  8
RACCORDO
100
AcDbLine
 62
7
  6
CONTINUOUS
 10
215.5203002611
 20
146.9971279373
 30
0.0
 11
171.1703002611
 21
146.9971279373
 31
0.0
  0
LINE
  5
27B
100
AcDbEntity
  8
0
100
AcDbLine
 62
7
  6
CONTINUOUS
 10
215.5203002611
 20
146.9971279373
 30
0.0
 11
171.1703002611
 21
146.9971279373
 31
0.0
  0
LINE
  5
27C
100
AcDbEntity
  8
RACCORDO
100
AcDbLine
 62
250
  6
CONTINUOUS
 10
216.4203002611
 20
147.5971279373
 30
0.0
 11
216.1203002611
 21
147.5971279373
 31
0.0
  0
LINE
  5
27D
100
AcDbEntity
  8
0
100
AcDbLine
 62
250
  6
CONTINUOUS
 10
216.4203002611
 20
147.5971279373
 30
0.0
 11
216.1203002611
 21
147.5971279373
 31
0.0
  0
LINE
  5
27E
100
AcDbEntity
  8
RACCORDO
100
AcDbLine
 62
250
  6
CONTINUOUS
 10
170.2703002611
 20
147.5971279373
 30
0.0
 11
170.5703002611
 21
147.5971279373
 31
0.0
  0
LINE
  5
27F
100
AcDbEntity
  8
0
100
AcDbLine
 62
250
  6
CONTINUOUS
 10
170.2703002611
 20
147.5971279373
 30
0.0
 11
170.5703002611
 21
147.5971279373
 31
0.0
  0
LINE
  5
280
100
AcDbEntity
  8
RACCORDO
100
AcDbLine
 62
250
  6
CONTINUOUS
 10
215.5203002611
 20
200.9471279373
 30
0.0
 11
215.5203002611
 21
200.6471279373
 31
0.0
  0
LINE
  5
281
100
AcDbEntity
  8
0
100
AcDbLine
 62
250
  6
CONTINUOUS
 10
215.5203002611
 20
200.9471279373
 30
0.0
 11
215.5203002611
 21
200.6471279373
 31
0.0
  0
LINE
  5
282
100
AcDbEntity
  8
RACCORDO
100
AcDbLine
 62
250
  6
CONTINUOUS
 10
215.5203002611
 20
129.9471279373
 30
0.0
 11
215.5203002611
 21
129.6471279373
 31
0.0
  0
LINE
  5
283
100
AcDbEntity
  8
0
100
AcDbLine
 62
250
  6
CONTINUOUS
 10
215.5203002611
 20
129.9471279373
 30
0.0
 11
215.5203002611
 21
129.6471279373
 31
0.0
  0
LINE
  5
284
100
AcDbEntity
  8
RACCORDO
100
AcDbLine
 62
250
  6
CONTINUOUS
 10
215.5203002611
 20
75.6971279373
 30
0.0
 11
215.5203002611
 21
75.9971279373
 31
0.0
  0
LINE
  5
285
100
AcDbEntity
  8
0
100
AcDbLine
 62
250
  6
CONTINUOUS
 10
215.5203002611
 20
75.6971279373
 30
0.0
 11
215.5203002611
 21
75.9971279373
 31
0.0
  0
LINE
  5
286
100
AcDbEntity
  8
RACCORDO
100
AcDbLine
 62
250
  6
CONTINUOUS
 10
215.5203002611
 20
146.6971279373
 30
0.0
 11
215.5203002611
 21
146.9971279373
 31
0.0
  0
LINE
  5
287
100
AcDbEntity
  8
0
100
AcDbLine
 62
250
  6
CONTINUOUS
 10
215.5203002611
 20
146.6971279373
 30
0.0
 11
215.5203002611
 21
146.9971279373
 31
0.0
  0
LINE
  5
288
100
AcDbEntity
  8
RACCORDO
100
AcDbLine
 62
7
  6
CONTINUOUS
 10
216.1203002611
 20
200.0471279373
 30
0.0
 11
216.1203002611
 21
147.5971279373
 31
0.0
  0
LINE
  5
289
100
AcDbEntity
  8
0
100
AcDbLine
 62
7
  6
CONTINUOUS
 10
216.1203002611
 20
200.0471279373
 30
0.0
 11
216.1203002611
 21
147.5971279373
 31
0.0
  0
LINE
  5
28A
100
AcDbEntity
  8
RACCORDO
100
AcDbLine
 62
7
  6
CONTINUOUS
 10
216.1203002611
 20
129.0471279373
 30
0.0
 11
216.1203002611
 21
76.5971279373
 31
0.0
  0
LINE
  5
28B
100
AcDbEntity
  8
0
100
AcDbLine
 62
7
  6
CONTINUOUS
 10
216.1203002611
 20
129.0471279373
 30
0.0
 11
216.1203002611
 21
76.5971279373
 31
0.0
  0
LINE
  5
28C
100
AcDbEntity
  8
RACCORDO
100
AcDbLine
 62
250
  6
CONTINUOUS
 10
216.4203002611
 20
200.0471279373
 30
0.0
 11
216.4203002611
 21
147.5971279373
 31
0.0
  0
LINE
  5
28D
100
AcDbEntity
  8
0
100
AcDbLine
 62
250
  6
CONTINUOUS
 10
216.4203002611
 20
200.0471279373
 30
0.0
 11
216.4203002611
 21
147.5971279373
 31
0.0
  0
LINE
  5
28E
100
AcDbEntity
  8
RACCORDO
100
AcDbLine
 62
250
  6
CONTINUOUS
 10
216.4203002611
 20
129.0471279373
 30
0.0
 11
216.4203002611
 21
76.5971279373
 31
0.0
  0
LINE
  5
28F
100
AcDbEntity
  8
0
100
AcDbLine
 62
250
  6
CONTINUOUS
 10
216.4203002611
 20
129.0471279373
 30
0.0
 11
216.4203002611
 21
76.5971279373
 31
0.0
  0
LWPOLYLINE
  5
290
100
AcDbEntity
  8
RACCORDO
100
AcDbPolyline
 62
7
  6
CONTINUOUS
 90
4
 70
0
 10
149.3541156652
 20
218.8133125333
 10
149.3491462129
 20
218.8184103009
 10
149.3462432283
 20
218.821348769
 10
149.3453002611
 20
218.8221279373
  0
LWPOLYLINE
  5
291
100
AcDbEntity
  8
0
100
AcDbPolyline
 62
7
  6
CONTINUOUS
 90
4
 70
0
 10
149.3541156652
 20
218.8133125333
 10
149.3491462129
 20
218.8184103009
 10
149.3462432283
 20
218.821348769
 10
149.3453002611
 20
218.8221279373
  0
LINE
  5
292
100
AcDbEntity
  8
RACCORDO
100
AcDbLine
 62
7
  6
CONTINUOUS
 10
149.8453002611
 20
58.3221279373
 30
0.0
 11
149.3453002611
 21
57.8221279373
 31
0.0
  0
LINE
  5
293
100
AcDbEntity
  8
0
100
AcDbLine
 62
7
  6
CONTINUOUS
 10
149.8453002611
 20
58.3221279373
 30
0.0
 11
149.3453002611
 21
57.8221279373
 31
0.0
  0
LINE
  5
294
100
AcDbEntity
  8
RACCORDO
100
AcDbLine
 62
7
  6
CONTINUOUS
 10
149.8453002611
 20
58.3221279373
 30
0.0
 11
149.797895349
 21
58.2751565332
 31
0.0
  0
LINE
  5
295
100
AcDbEntity
  8
0
100
AcDbLine
 62
7
  6
CONTINUOUS
 10
149.8453002611
 20
58.3221279373
 30
0.0
 11
149.797895349
 21
58.2751565332
 31
0.0
  0
LWPOLYLINE
  5
296
100
AcDbEntity
  8
RACCORDO
100
AcDbPolyline
 62
7
  6
CONTINUOUS
 90
4
 70
0
 10
149.3541156652
 20
57.8309433414
 10
149.3490178975
 20
57.8259738892
 10
149.3460794295
 20
57.8230709045
 10
149.3453002611
 20
57.8221279373
  0
LWPOLYLINE
  5
297
100
AcDbEntity
  8
0
100
AcDbPolyline
 62
7
  6
CONTINUOUS
 90
4
 70
0
 10
149.3541156652
 20
57.8309433414
 10
149.3490178975
 20
57.8259738892
 10
149.3460794295
 20
57.8230709045
 10
149.3453002611
 20
57.8221279373
  0
LINE
  5
298
100
AcDbEntity
  8
RACCORDO
100
AcDbLine
 62
7
  6
CONTINUOUS
 10
149.8453002611
 20
218.3221279373
 30
0.0
 11
149.3453002611
 21
218.8221279373
 31
0.0
  0
LINE
  5
299
100
AcDbEntity
  8
0
100
AcDbLine
 62
7
  6
CONTINUOUS
 10
149.8453002611
 20
218.3221279373
 30
0.0
 11
149.3453002611
 21
218.8221279373
 31
0.0
  0
LINE
  5
29A
100
AcDbEntity
  8
RACCORDO
100
AcDbLine
 62
7
  6
CONTINUOUS
 10
149.431386029
 20
218.7360421694
 30
0.0
 11
149.4126549201
 21
218.7547689957
 31
0.0
  0
LINE
  5
29B
100
AcDbEntity
  8
0
100
AcDbLine
 62
7
  6
CONTINUOUS
 10
149.431386029
 20
218.7360421694
 30
0.0
 11
149.4126549201
 21
218.7547689957
 31
0.0
  0
LINE
  5
29C
100
AcDbEntity
  8
RACCORDO
100
AcDbLine
 62
7
  6
CONTINUOUS
 10
149.8453002611
 20
218.3221279373
 30
0.0
 11
149.7983288569
 21
218.3695328494
 31
0.0
  0
LINE
  5
29D
100
AcDbEntity
  8
0
100
AcDbLine
 62
7
  6
CONTINUOUS
 10
149.8453002611
 20
218.3221279373
 30
0.0
 11
149.7983288569
 21
218.3695328494
 31
0.0
  0
LWPOLYLINE
  5
29E
100
AcDbEntity
  8
0
100
AcDbPolyline
 62
7
  6
CONTINUOUS
 90
3
 70
0
 43
0.3499999917
 10
249.0630249023
 20
135.4292687988
 10
248.2058752441
 20
136.286418457
 10
251.2058862305
 20
136.286418457
  0
LINE
  5
29F
100
AcDbEntity
  8
RACCORDO
100
AcDbLine
 62
250
  6
CONTINUOUS
 10
236.8453002611
 20
58.3221279373
 30
0.0
 11
236.8453002611
 21
218.3221279373
 31
0.0
  0
LINE
  5
2A0
100
AcDbEntity
  8
0
100
AcDbLine
 62
250
  6
CONTINUOUS
 10
236.8453002611
 20
58.3221279373
 30
0.0
 11
236.8453002611
 21
218.3221279373
 31
0.0
  0
LWPOLYLINE
  5
2A1
100
AcDbEntity
  8
0
100
AcDbPolyline
 62
7
  6
CONTINUOUS
 90
10
 70
0
 43
0.3499999917
 10
248.2058752441
 20
138.2149859619
 10
248.8487438965
 20
137.572130127
 10
249.7058679199
 20
137.1435552979
 10
250.777298584
 20
137.1435552979
 10
251.2058862305
 20
137.572130127
 10
251.2058862305
 20
138.2149859619
 10
250.777298584
 20
138.643560791
 10
249.9201489258
 20
138.643560791
 10
249.4915869141
 20
138.2149859619
 10
249.4915869141
 20
137.2864178467
  0
LWPOLYLINE
  5
2A2
100
AcDbEntity
  8
0
100
AcDbPolyline
 62
7
  6
CONTINUOUS
 90
3
 70
0
 43
0.3499999917
 10
249.0630249023
 20
139.5006976318
 10
248.2058752441
 20
140.35784729
 10
251.2058862305
 20
140.35784729
  0
LINE
  5
2A3
100
AcDbEntity
  8
RACCORDO
100
AcDbLine
 62
7
  6
CONTINUOUS
 10
237.3453002611
 20
57.8221279373
 30
0.0
 11
237.3453002611
 21
218.8221279373
 31
0.0
  0
LINE
  5
2A4
100
AcDbEntity
  8
0
100
AcDbLine
 62
7
  6
CONTINUOUS
 10
237.3453002611
 20
57.8221279373
 30
0.0
 11
237.3453002611
 21
218.8221279373
 31
0.0
  0
LINE
  5
2A5
100
AcDbEntity
  8
RACCORDO
100
AcDbLine
 62
250
  6
CONTINUOUS
 10
216.4203002611
 20
200.0471279373
 30
0.0
 11
216.1203002611
 21
200.0471279373
 31
0.0
  0
LINE
  5
2A6
100
AcDbEntity
  8
0
100
AcDbLine
 62
250
  6
CONTINUOUS
 10
216.4203002611
 20
200.0471279373
 30
0.0
 11
216.1203002611
 21
200.0471279373
 31
0.0
  0
LINE
  5
2A7
100
AcDbEntity
  8
RACCORDO
100
AcDbLine
 62
250
  6
CONTINUOUS
 10
170.2703002611
 20
200.0471279373
 30
0.0
 11
170.5703002611
 21
200.0471279373
 31
0.0
  0
LINE
  5
2A8
100
AcDbEntity
  8
0
100
AcDbLine
 62
250
  6
CONTINUOUS
 10
170.2703002611
 20
200.0471279373
 30
0.0
 11
170.5703002611
 21
200.0471279373
 31
0.0
  0
LINE
  5
2A9
100
AcDbEntity
  8
RACCORDO
100
AcDbLine
 62
7
  6
CONTINUOUS
 10
171.1703002611
 20
200.6471279373
 30
0.0
 11
215.5203002611
 21
200.6471279373
 31
0.0
  0
LINE
  5
2AA
100
AcDbEntity
  8
0
100
AcDbLine
 62
7
  6
CONTINUOUS
 10
171.1703002611
 20
200.6471279373
 30
0.0
 11
215.5203002611
 21
200.6471279373
 31
0.0
  0
LINE
  5
2AB
100
AcDbEntity
  8
RACCORDO
100
AcDbLine
 62
250
  6
CONTINUOUS
 10
171.1703002611
 20
200.9471279373
 30
0.0
 11
215.5203002611
 21
200.9471279373
 31
0.0
  0
LINE
  5
2AC
100
AcDbEntity
  8
0
100
AcDbLine
 62
250
  6
CONTINUOUS
 10
171.1703002611
 20
200.9471279373
 30
0.0
 11
215.5203002611
 21
200.9471279373
 31
0.0
  0
LINE
  5
2AD
100
AcDbEntity
  8
RACCORDO
100
AcDbLine
 62
250
  6
CONTINUOUS
 10
236.8453002611
 20
218.3221279373
 30
0.0
 11
149.8453002611
 21
218.3221279373
 31
0.0
  0
LINE
  5
2AE
100
AcDbEntity
  8
0
100
AcDbLine
 62
250
  6
CONTINUOUS
 10
236.8453002611
 20
218.3221279373
 30
0.0
 11
149.8453002611
 21
218.3221279373
 31
0.0
  0
LINE
  5
2AF
100
AcDbEntity
  8
RACCORDO
100
AcDbLine
 62
7
  6
CONTINUOUS
 10
237.3453002611
 20
218.8221279373
 30
0.0
 11
149.3453002611
 21
218.8221279373
 31
0.0
  0
LINE
  5
2B0
100
AcDbEntity
  8
0
100
AcDbLine
 62
7
  6
CONTINUOUS
 10
237.3453002611
 20
218.8221279373
 30
0.0
 11
149.3453002611
 21
218.8221279373
 31
0.0
  0
LINE
  5
2B1
100
AcDbEntity
  8
RACCORDO
100
AcDbLine
 62
7
  6
CONTINUOUS
 10
131.1146788991
 20
57.8221279373
 30
0.0
 11
126.7146788991
 21
57.8221279373
 31
0.0
  0
LINE
  5
2B2
100
AcDbEntity
  8
0
100
AcDbLine
 62
7
  6
CONTINUOUS
 10
131.1146788991
 20
57.8221279373
 30
0.0
 11
126.7146788991
 21
57.8221279373
 31
0.0
  0
LINE
  5
2B3
100
AcDbEntity
  8
RACCORDO
100
AcDbLine
 62
7
  6
CONTINUOUS
 10
131.1146788991
 20
59.3299837138
 30
0.0
 11
133.8199142887
 21
59.4008227955
 31
0.0
  0
LINE
  5
2B4
100
AcDbEntity
  8
RACCORDO
100
AcDbLine
 62
250
  6
CONTINUOUS
 10
131.1146788991
 20
60.0297438413
 30
0.0
 11
133.8199142887
 21
60.100582923
 31
0.0
  0
LINE
  5
2B5
100
AcDbEntity
  8
RACCORDO
100
AcDbLine
 62
250
  6
CONTINUOUS
 10
134.0146788991
 20
60.100582923
 30
0.0
 11
133.8199142887
 21
60.100582923
 31
0.0
  0
LINE
  5
2B6
100
AcDbEntity
  8
CURVE
100
AcDbLine
 62
250
  6
CONTINUOUS
 10
127.6618258991
 20
63.7760619373
 30
0.0
 11
129.0383768991
 21
64.1572679373
 31
0.0
  0
LINE
  5
2B7
100
AcDbEntity
  8
CURVE
100
AcDbLine
 62
250
  6
CONTINUOUS
 10
127.6618258991
 20
67.6055339373
 30
0.0
 11
129.6616638991
 21
67.7925409373
 31
0.0
  0
LINE
  5
2B8
100
AcDbEntity
  8
CURVE
100
AcDbLine
 62
250
  6
CONTINUOUS
 10
129.6616638991
 20
67.3841699373
 30
0.0
 11
128.3612518991
 21
67.2984029373
 31
0.0
  0
LINE
  5
2B9
100
AcDbEntity
  8
CURVE
100
AcDbLine
 62
250
  6
CONTINUOUS
 10
127.6617058991
 20
65.1221919373
 30
0.0
 11
129.6616638991
 21
65.1221919373
 31
0.0
  0
LINE
  5
2BA
100
AcDbEntity
  8
CURVE
100
AcDbLine
 62
250
  6
CONTINUOUS
 10
129.6616638991
 20
65.5396359373
 30
0.0
 11
127.6617058991
 21
65.5396359373
 31
0.0
  0
LINE
  5
2BB
100
AcDbEntity
  8
CURVE
100
AcDbLine
 62
250
  6
CONTINUOUS
 10
128.3558068991
 20
66.2538019373
 30
0.0
 11
129.6616638991
 21
66.1637179373
 31
0.0
  0
LINE
  5
2BC
100
AcDbEntity
  8
CURVE
100
AcDbLine
 62
250
  6
CONTINUOUS
 10
129.6616638991
 20
65.7643599373
 30
0.0
 11
127.6618258991
 21
65.9449339373
 31
0.0
  0
LINE
  5
2BD
100
AcDbEntity
  8
CURVE
100
AcDbLine
 62
250
  6
CONTINUOUS
 10
129.0383768991
 20
64.1572679373
 30
0.0
 11
127.6618258991
 21
64.5501169373
 31
0.0
  0
LINE
  5
2BE
100
AcDbEntity
  8
CURVE
100
AcDbLine
 62
250
  6
CONTINUOUS
 10
127.6618258991
 20
64.9672769373
 30
0.0
 11
129.6616638991
 21
64.3244489373
 31
0.0
  0
LINE
  5
2BF
100
AcDbEntity
  8
CURVE
100
AcDbLine
 62
250
  6
CONTINUOUS
 10
129.6616638991
 20
69.0628259373
 30
0.0
 11
129.2624248991
 21
68.9546849373
 31
0.0
  0
LINE
  5
2C0
100
AcDbEntity
  8
CURVE
100
AcDbLine
 62
250
  6
CONTINUOUS
 10
128.9534958991
 20
68.8712589373
 30
0.0
 11
128.2113308991
 21
68.6794379373
 31
0.0
  0
LINE
  5
2C1
100
AcDbEntity
  8
CURVE
100
AcDbLine
 62
250
  6
CONTINUOUS
 10
127.6851913172
 20
69.625376769
 30
0.0
 11
129.6616641643
 21
69.625376769
 31
0.0
  0
LINE
  5
2C2
100
AcDbEntity
  8
CURVE
100
AcDbLine
 62
250
  6
CONTINUOUS
 10
128.5515131309
 20
70.027299822
 30
0.0
 11
128.002518723
 21
70.027299822
 31
0.0
  0
LINE
  5
2C3
100
AcDbEntity
  8
CURVE
100
AcDbLine
 62
250
  6
CONTINUOUS
 10
129.6616641643
 20
70.0411416554
 30
0.0
 11
128.8790382038
 21
70.0411416554
 31
0.0
  0
LINE
  5
2C4
100
AcDbEntity
  8
CURVE
100
AcDbLine
 62
250
  6
CONTINUOUS
 10
128.7281577203
 20
70.6986062489
 30
0.0
 11
128.7163404238
 21
70.6986062489
 31
0.0
  0
LINE
  5
2C5
100
AcDbEntity
  8
CURVE
100
AcDbLine
 62
250
  6
CONTINUOUS
 10
128.2113308991
 20
68.6794379373
 30
0.0
 11
128.9534958991
 21
68.4715859373
 31
0.0
  0
LINE
  5
2C6
100
AcDbEntity
  8
CURVE
100
AcDbLine
 62
250
  6
CONTINUOUS
 10
129.2624248991
 20
68.3861949373
 30
0.0
 11
129.6616638991
 21
68.2710069373
 31
0.0
  0
LINE
  5
2C7
100
AcDbEntity
  8
CURVE
100
AcDbLine
 62
250
  6
CONTINUOUS
 10
129.6616638991
 20
67.8580909373
 30
0.0
 11
127.6618258991
 21
68.4853679373
 31
0.0
  0
LINE
  5
2C8
100
AcDbEntity
  8
CURVE
100
AcDbLine
 62
250
  6
CONTINUOUS
 10
128.7721418991
 20
66.7750689373
 30
0.0
 11
127.6618258991
 21
67.1925129373
 31
0.0
  0
LINE
  5
2C9
100
AcDbEntity
  8
CURVE
100
AcDbLine
 62
250
  6
CONTINUOUS
 10
128.3612518991
 20
67.2984029373
 30
0.0
 11
129.6616638991
 21
66.8020619373
 31
0.0
  0
LWPOLYLINE
  5
2CA
100
AcDbEntity
  8
0
100
AcDbPolyline
 62
7
  6
CONTINUOUS
 90
3
 70
0
 43
0.3499999917
 10
140.6222625732
 20
229.2202368164
 10
140.5508312988
 20
229.0059558105
 10
140.40796875
 20
228.7202307129
  0
LINE
  5
2CB
100
AcDbEntity
  8
RACCORDO
100
AcDbLine
 62
7
  6
CONTINUOUS
 10
126.2146788991
 20
58.3221279373
 30
0.0
 11
126.2146788991
 21
218.3221279373
 31
0.0
  0
LINE
  5
2CC
100
AcDbEntity
  8
0
100
AcDbLine
 62
7
  6
CONTINUOUS
 10
126.2146788991
 20
58.3221279373
 30
0.0
 11
126.2146788991
 21
218.3221279373
 31
0.0
  0
LINE
  5
2CD
100
AcDbEntity
  8
RACCORDO
100
AcDbLine
 62
250
  6
CONTINUOUS
 10
126.7146788991
 20
57.8221279373
 30
0.0
 11
126.7146788991
 21
218.8221279373
 31
0.0
  0
LINE
  5
2CE
100
AcDbEntity
  8
0
100
AcDbLine
 62
250
  6
CONTINUOUS
 10
126.7146788991
 20
57.8221279373
 30
0.0
 11
126.7146788991
 21
218.8221279373
 31
0.0
  0
LINE
  5
2CF
100
AcDbEntity
  8
CURVE
100
AcDbLine
 62
250
  6
CONTINUOUS
 10
127.6617058991
 20
65.5396359373
 30
0.0
 11
127.6617058991
 21
65.1221919373
 31
0.0
  0
LINE
  5
2D0
100
AcDbEntity
  8
CURVE
100
AcDbLine
 62
250
  6
CONTINUOUS
 10
127.6618258991
 20
63.3225889373
 30
0.0
 11
127.6618258991
 21
63.7760619373
 31
0.0
  0
LINE
  5
2D1
100
AcDbEntity
  8
CURVE
100
AcDbLine
 62
250
  6
CONTINUOUS
 10
127.6618258991
 20
64.5501169373
 30
0.0
 11
127.6618258991
 21
64.9672769373
 31
0.0
  0
LINE
  5
2D2
100
AcDbEntity
  8
CURVE
100
AcDbLine
 62
250
  6
CONTINUOUS
 10
127.6618258991
 20
65.9449339373
 30
0.0
 11
127.6618258991
 21
66.3620329373
 31
0.0
  0
LINE
  5
2D3
100
AcDbEntity
  8
CURVE
100
AcDbLine
 62
250
  6
CONTINUOUS
 10
127.6618258991
 20
67.1925129373
 30
0.0
 11
127.6618258991
 21
67.6055339373
 31
0.0
  0
LINE
  5
2D4
100
AcDbEntity
  8
CURVE
100
AcDbLine
 62
250
  6
CONTINUOUS
 10
127.6618258991
 20
68.4853679373
 30
0.0
 11
127.6618258991
 21
68.8891949373
 31
0.0
  0
LINE
  5
2D5
100
AcDbEntity
  8
CURVE
100
AcDbLine
 62
250
  6
CONTINUOUS
 10
128.5515131309
 20
70.265865246
 30
0.0
 11
128.5515131309
 21
70.027299822
 31
0.0
  0
LINE
  5
2D6
100
AcDbEntity
  8
CURVE
100
AcDbLine
 62
250
  6
CONTINUOUS
 10
128.8790382038
 20
70.0411416554
 30
0.0
 11
128.8790382038
 21
70.2649654518
 31
0.0
  0
LINE
  5
2D7
100
AcDbEntity
  8
CURVE
100
AcDbLine
 62
250
  6
CONTINUOUS
 10
128.9534958991
 20
68.4715859373
 30
0.0
 11
128.9534958991
 21
68.8712589373
 31
0.0
  0
LINE
  5
2D8
100
AcDbEntity
  8
CURVE
100
AcDbLine
 62
250
  6
CONTINUOUS
 10
129.2624248991
 20
68.9546849373
 30
0.0
 11
129.2624248991
 21
68.3861949373
 31
0.0
  0
LINE
  5
2D9
100
AcDbEntity
  8
CURVE
100
AcDbLine
 62
250
  6
CONTINUOUS
 10
129.6616638991
 20
69.5027949373
 30
0.0
 11
129.6616638991
 21
69.0628259373
 31
0.0
  0
LINE
  5
2DA
100
AcDbEntity
  8
CURVE
100
AcDbLine
 62
250
  6
CONTINUOUS
 10
129.6616638991
 20
68.2710069373
 30
0.0
 11
129.6616638991
 21
67.8580909373
 31
0.0
  0
LINE
  5
2DB
100
AcDbEntity
  8
CURVE
100
AcDbLine
 62
250
  6
CONTINUOUS
 10
129.6616638991
 20
67.7925409373
 30
0.0
 11
129.6616638991
 21
67.3841699373
 31
0.0
  0
LINE
  5
2DC
100
AcDbEntity
  8
CURVE
100
AcDbLine
 62
250
  6
CONTINUOUS
 10
129.6616638991
 20
66.8020619373
 30
0.0
 11
129.6616638991
 21
66.7435159373
 31
0.0
  0
LINE
  5
2DD
100
AcDbEntity
  8
CURVE
100
AcDbLine
 62
250
  6
CONTINUOUS
 10
129.6616638991
 20
66.1637179373
 30
0.0
 11
129.6616638991
 21
65.7643599373
 31
0.0
  0
LINE
  5
2DE
100
AcDbEntity
  8
CURVE
100
AcDbLine
 62
250
  6
CONTINUOUS
 10
129.6616638991
 20
64.3244489373
 30
0.0
 11
129.6616638991
 21
63.9565759373
 31
0.0
  0
LINE
  5
2DF
100
AcDbEntity
  8
CURVE
100
AcDbLine
 62
250
  6
CONTINUOUS
 10
129.6616638991
 20
65.1221919373
 30
0.0
 11
129.6616638991
 21
65.5396359373
 31
0.0
  0
LINE
  5
2E0
100
AcDbEntity
  8
CURVE
100
AcDbLine
 62
250
  6
CONTINUOUS
 10
129.6616641643
 20
69.625376769
 30
0.0
 11
129.6616641643
 21
70.0411416554
 31
0.0
  0
LINE
  5
2E1
100
AcDbEntity
  8
CURVE
100
AcDbLine
 62
250
  6
CONTINUOUS
 10
129.6616641643
 20
70.6804004138
 30
0.0
 11
129.6616641643
 21
71.081933556
 31
0.0
  0
LINE
  5
2E2
100
AcDbEntity
  8
SUPERFICI
100
AcDbLine
 62
7
  6
CONTINUOUS
 10
131.1146788991
 20
57.8221279373
 30
0.0
 11
131.1146788991
 21
218.8221279373
 31
0.0
  0
LINE
  5
2E3
100
AcDbEntity
  8
0
100
AcDbLine
 62
7
  6
CONTINUOUS
 10
131.1146788991
 20
57.8221279373
 30
0.0
 11
131.1146788991
 21
218.8221279373
 31
0.0
  0
LINE
  5
2E4
100
AcDbEntity
  8
RACCORDO
100
AcDbLine
 62
250
  6
CONTINUOUS
 10
133.8199142887
 20
216.5436729516
 30
0.0
 11
133.8199142887
 21
60.100582923
 31
0.0
  0
LINE
  5
2E5
100
AcDbEntity
  8
RACCORDO
100
AcDbLine
 62
7
  6
CONTINUOUS
 10
134.0146788991
 20
217.0435016141
 30
0.0
 11
134.0146788991
 21
59.6007542605
 31
0.0
  0
LWPOLYLINE
  5
2E6
100
AcDbEntity
  8
0
100
AcDbPolyline
 62
7
  6
CONTINUOUS
 90
4
 70
0
 43
0.3499999917
 10
137.5508331299
 20
231.2916540527
 10
137.5508331299
 20
231.9345227051
 10
139.0508258057
 20
231.9345227051
 10
138.1936889648
 20
228.9345117188
  0
LWPOLYLINE
  5
2E7
100
AcDbEntity
  8
0
100
AcDbPolyline
 62
7
  6
CONTINUOUS
 90
4
 70
0
 43
0.3499999917
 10
141.6222619629
 20
229.3630993652
 10
141.6222619629
 20
230.2202490234
 10
142.0508239746
 20
230.6488110352
 10
142.6936798096
 20
230.6488110352
  0
LWPOLYLINE
  5
2E8
100
AcDbEntity
  8
0
100
AcDbPolyline
 62
7
  6
CONTINUOUS
 90
10
 70
0
 43
0.3499999917
 10
140.5508312988
 20
229.4345178223
 10
140.6222625732
 20
229.2916552734
 10
140.6222625732
 20
229.2202368164
 10
140.4794000244
 20
229.0773742676
 10
140.40796875
 20
229.0773742676
 10
140.3365374756
 20
229.1488183594
 10
140.3365374756
 20
229.2202368164
 10
140.40796875
 20
229.3630993652
 10
140.4794000244
 20
229.4345178223
 10
140.5508312988
 20
229.4345178223
  0
LINE
  5
2E9
100
AcDbEntity
  8
CURVE
100
AcDbLine
 62
250
  6
CONTINUOUS
 10
129.6616638991
 20
66.7435159373
 30
0.0
 11
128.3558068991
 21
66.2538019373
 31
0.0
  0
LINE
  5
2EA
100
AcDbEntity
  8
CURVE
100
AcDbLine
 62
250
  6
CONTINUOUS
 10
127.6618258991
 20
66.3620329373
 30
0.0
 11
128.7721418991
 21
66.7750689373
 31
0.0
  0
LINE
  5
2EB
100
AcDbEntity
  8
CURVE
100
AcDbLine
 62
250
  6
CONTINUOUS
 10
127.6618258991
 20
68.8891949373
 30
0.0
 11
129.6616638991
 21
69.5027949373
 31
0.0
  0
LINE
  5
2EC
100
AcDbEntity
  8
CURVE
100
AcDbLine
 62
250
  6
CONTINUOUS
 10
129.6616638991
 20
63.9565759373
 30
0.0
 11
127.6618258991
 21
63.3225889373
 31
0.0
  0
LINE
  5
2ED
100
AcDbEntity
  8
RACCORDO
100
AcDbLine
 62
250
  6
CONTINUOUS
 10
134.0146788991
 20
216.5436729516
 30
0.0
 11
133.8199142887
 21
216.5436729516
 31
0.0
  0
LINE
  5
2EE
100
AcDbEntity
  8
RACCORDO
100
AcDbLine
 62
7
  6
CONTINUOUS
 10
131.1146788991
 20
218.8221279373
 30
0.0
 11
126.7146788991
 21
218.8221279373
 31
0.0
  0
LINE
  5
2EF
100
AcDbEntity
  8
0
100
AcDbLine
 62
7
  6
CONTINUOUS
 10
131.1146788991
 20
218.8221279373
 30
0.0
 11
126.7146788991
 21
218.8221279373
 31
0.0
  0
LINE
  5
2F0
100
AcDbEntity
  8
RACCORDO
100
AcDbLine
 62
250
  6
CONTINUOUS
 10
133.8199142887
 20
216.5436729516
 30
0.0
 11
131.1146788991
 21
216.6145120334
 31
0.0
  0
LINE
  5
2F1
100
AcDbEntity
  8
RACCORDO
100
AcDbLine
 62
7
  6
CONTINUOUS
 10
133.8199142887
 20
217.2434330791
 30
0.0
 11
131.1146788991
 21
217.3142721609
 31
0.0
  0
LWPOLYLINE
  5
2F2
100
AcDbEntity
  8
0
100
AcDbPolyline
 62
7
  6
CONTINUOUS
 90
13
 70
0
 43
0.3499999917
 10
142.0508239746
 20
230.6488110352
 10
141.7651116943
 20
230.863092041
 10
141.7651116943
 20
231.5059606934
 10
142.0508239746
 20
231.9345227051
 10
142.6936798096
 20
231.9345227051
 10
142.9794049072
 20
231.5059606934
 10
142.9794049072
 20
230.863092041
 10
142.6936798096
 20
230.6488110352
 10
143.1222546387
 20
230.2202490234
 10
143.1222546387
 20
229.3630993652
 10
142.6936798096
 20
228.9345117188
 10
142.0508239746
 20
228.9345117188
 10
141.6222619629
 20
229.3630993652
  0
ARC
  5
2F3
100
AcDbEntity
  8
RACCORDO
100
AcDbCircle
 62
250
  6
CONTINUOUS
 10
171.1703002611
 20
129.0471279373
 30
0.0
 40
0.9
100
AcDbArc
 50
90.0
 51
180.0
  0
ARC
  5
2F4
100
AcDbEntity
  8
RACCORDO
100
AcDbCircle
 62
250
  6
CONTINUOUS
 10
171.1703002611
 20
76.5971279373
 30
0.0
 40
0.9
100
AcDbArc
 50
180.0
 51
270.0
  0
ARC
  5
2F5
100
AcDbEntity
  8
0
100
AcDbCircle
 62
250
  6
CONTINUOUS
 10
171.1703002611
 20
76.5971279373
 30
0.0
 40
0.9
100
AcDbArc
 50
180.0
 51
270.0
  0
ARC
  5
2F6
100
AcDbEntity
  8
0
100
AcDbCircle
 62
250
  6
CONTINUOUS
 10
171.1703002611
 20
129.0471279373
 30
0.0
 40
0.9
100
AcDbArc
 50
90.0
 51
180.0
  0
ARC
  5
2F7
100
AcDbEntity
  8
RACCORDO
100
AcDbCircle
 62
7
  6
CONTINUOUS
 10
170.0003002611
 20
121.1221279373
 30
0.0
 40
0.6
100
AcDbArc
 50
341.9075040346
 51
18.1165322878
  0
ARC
  5
2F8
100
AcDbEntity
  8
RACCORDO
100
AcDbCircle
 62
7
  6
CONTINUOUS
 10
170.0003002611
 20
84.5221279373
 30
0.0
 40
0.6
100
AcDbArc
 50
341.907503758
 51
18.1165351302
  0
ARC
  5
2F9
100
AcDbEntity
  8
RACCORDO
100
AcDbCircle
 62
7
  6
CONTINUOUS
 10
171.1703002611
 20
76.5971279373
 30
0.0
 40
0.6
100
AcDbArc
 50
180.0
 51
270.0
  0
ARC
  5
2FA
100
AcDbEntity
  8
RACCORDO
100
AcDbCircle
 62
7
  6
CONTINUOUS
 10
171.1703002611
 20
129.0471279373
 30
0.0
 40
0.6
100
AcDbArc
 50
90.0
 51
180.0
  0
ARC
  5
2FB
100
AcDbEntity
  8
0
100
AcDbCircle
 62
7
  6
CONTINUOUS
 10
171.1703002611
 20
76.5971279373
 30
0.0
 40
0.6
100
AcDbArc
 50
180.0
 51
270.0
  0
ARC
  5
2FC
100
AcDbEntity
  8
0
100
AcDbCircle
 62
7
  6
CONTINUOUS
 10
171.1703002611
 20
129.0471279373
 30
0.0
 40
0.6
100
AcDbArc
 50
90.0
 51
180.0
  0
ARC
  5
2FD
100
AcDbEntity
  8
RACCORDO
100
AcDbCircle
 62
250
  6
CONTINUOUS
 10
171.1703002611
 20
200.0471279373
 30
0.0
 40
0.9
100
AcDbArc
 50
90.0
 51
180.0
  0
ARC
  5
2FE
100
AcDbEntity
  8
RACCORDO
100
AcDbCircle
 62
250
  6
CONTINUOUS
 10
171.1703002611
 20
147.5971279373
 30
0.0
 40
0.9
100
AcDbArc
 50
180.0
 51
270.0
  0
ARC
  5
2FF
100
AcDbEntity
  8
0
100
AcDbCircle
 62
250
  6
CONTINUOUS
 10
171.1703002611
 20
147.5971279373
 30
0.0
 40
0.9
100
AcDbArc
 50
180.0
 51
270.0
  0
ARC
  5
300
100
AcDbEntity
  8
0
100
AcDbCircle
 62
250
  6
CONTINUOUS
 10
171.1703002611
 20
200.0471279373
 30
0.0
 40
0.9
100
AcDbArc
 50
90.0
 51
180.0
  0
ARC
  5
301
100
AcDbEntity
  8
RACCORDO
100
AcDbCircle
 62
7
  6
CONTINUOUS
 10
170.0003002611
 20
155.5221279373
 30
0.0
 40
0.6
100
AcDbArc
 50
341.9075040346
 51
18.1165322878
  0
ARC
  5
302
100
AcDbEntity
  8
RACCORDO
100
AcDbCircle
 62
7
  6
CONTINUOUS
 10
170.0003002611
 20
192.1221279373
 30
0.0
 40
0.6
100
AcDbArc
 50
341.907503758
 51
18.1165351302
  0
ARC
  5
303
100
AcDbEntity
  8
RACCORDO
100
AcDbCircle
 62
7
  6
CONTINUOUS
 10
171.1703002611
 20
200.0471279373
 30
0.0
 40
0.6
100
AcDbArc
 50
90.0
 51
180.0
  0
ARC
  5
304
100
AcDbEntity
  8
RACCORDO
100
AcDbCircle
 62
7
  6
CONTINUOUS
 10
171.1703002611
 20
147.5971279373
 30
0.0
 40
0.6
100
AcDbArc
 50
180.0
 51
270.0
  0
ARC
  5
305
100
AcDbEntity
  8
0
100
AcDbCircle
 62
7
  6
CONTINUOUS
 10
171.1703002611
 20
200.0471279373
 30
0.0
 40
0.6
100
AcDbArc
 50
90.0
 51
180.0
  0
ARC
  5
306
100
AcDbEntity
  8
0
100
AcDbCircle
 62
7
  6
CONTINUOUS
 10
171.1703002611
 20
147.5971279373
 30
0.0
 40
0.6
100
AcDbArc
 50
180.0
 51
270.0
  0
ARC
  5
307
100
AcDbEntity
  8
RACCORDO
100
AcDbCircle
 62
250
  6
CONTINUOUS
 10
215.5203002611
 20
76.5971279373
 30
0.0
 40
0.9
100
AcDbArc
 50
270.0
 51
360.0
  0
ARC
  5
308
100
AcDbEntity
  8
RACCORDO
100
AcDbCircle
 62
250
  6
CONTINUOUS
 10
215.5203002611
 20
129.0471279373
 30
0.0
 40
0.9
100
AcDbArc
 50
0.0
 51
90.0
  0
ARC
  5
309
100
AcDbEntity
  8
0
100
AcDbCircle
 62
250
  6
CONTINUOUS
 10
215.5203002611
 20
129.0471279373
 30
0.0
 40
0.9
100
AcDbArc
 50
0.0
 51
90.0
  0
ARC
  5
30A
100
AcDbEntity
  8
0
100
AcDbCircle
 62
250
  6
CONTINUOUS
 10
215.5203002611
 20
76.5971279373
 30
0.0
 40
0.9
100
AcDbArc
 50
270.0
 51
360.0
  0
ARC
  5
30B
100
AcDbEntity
  8
RACCORDO
100
AcDbCircle
 62
7
  6
CONTINUOUS
 10
216.6903002611
 20
121.1221279373
 30
0.0
 40
0.6
100
AcDbArc
 50
161.9075040346
 51
198.1165322878
  0
ARC
  5
30C
100
AcDbEntity
  8
RACCORDO
100
AcDbCircle
 62
7
  6
CONTINUOUS
 10
216.6903002611
 20
84.5221279373
 30
0.0
 40
0.6
100
AcDbArc
 50
161.907503758
 51
198.1165351302
  0
ARC
  5
30D
100
AcDbEntity
  8
RACCORDO
100
AcDbCircle
 62
7
  6
CONTINUOUS
 10
215.5203002611
 20
76.5971279373
 30
0.0
 40
0.6
100
AcDbArc
 50
270.0
 51
360.0
  0
ARC
  5
30E
100
AcDbEntity
  8
RACCORDO
100
AcDbCircle
 62
7
  6
CONTINUOUS
 10
215.5203002611
 20
129.0471279373
 30
0.0
 40
0.6
100
AcDbArc
 50
0.0
 51
90.0
  0
ARC
  5
30F
100
AcDbEntity
  8
0
100
AcDbCircle
 62
7
  6
CONTINUOUS
 10
215.5203002611
 20
76.5971279373
 30
0.0
 40
0.6
100
AcDbArc
 50
270.0
 51
360.0
  0
ARC
  5
310
100
AcDbEntity
  8
0
100
AcDbCircle
 62
7
  6
CONTINUOUS
 10
215.5203002611
 20
129.0471279373
 30
0.0
 40
0.6
100
AcDbArc
 50
0.0
 51
90.0
  0
ARC
  5
311
100
AcDbEntity
  8
RACCORDO
100
AcDbCircle
 62
250
  6
CONTINUOUS
 10
215.5203002611
 20
200.0471279373
 30
0.0
 40
0.9
100
AcDbArc
 50
0.0
 51
90.0
  0
ARC
  5
312
100
AcDbEntity
  8
RACCORDO
100
AcDbCircle
 62
250
  6
CONTINUOUS
 10
215.5203002611
 20
147.5971279373
 30
0.0
 40
0.9
100
AcDbArc
 50
270.0
 51
360.0
  0
ARC
  5
313
100
AcDbEntity
  8
0
100
AcDbCircle
 62
250
  6
CONTINUOUS
 10
215.5203002611
 20
147.5971279373
 30
0.0
 40
0.9
100
AcDbArc
 50
270.0
 51
360.0
  0
ARC
  5
314
100
AcDbEntity
  8
0
100
AcDbCircle
 62
250
  6
CONTINUOUS
 10
215.5203002611
 20
200.0471279373
 30
0.0
 40
0.9
100
AcDbArc
 50
0.0
 51
90.0
  0
ARC
  5
315
100
AcDbEntity
  8
RACCORDO
100
AcDbCircle
 62
7
  6
CONTINUOUS
 10
216.6903002611
 20
155.5221279373
 30
0.0
 40
0.6
100
AcDbArc
 50
161.9075040346
 51
198.1165322878
  0
ARC
  5
316
100
AcDbEntity
  8
RACCORDO
100
AcDbCircle
 62
7
  6
CONTINUOUS
 10
216.6903002611
 20
192.1221279373
 30
0.0
 40
0.6
100
AcDbArc
 50
161.907503758
 51
198.1165351302
  0
ARC
  5
317
100
AcDbEntity
  8
RACCORDO
100
AcDbCircle
 62
7
  6
CONTINUOUS
 10
215.5203002611
 20
200.0471279373
 30
0.0
 40
0.6
100
AcDbArc
 50
0.0
 51
90.0
  0
ARC
  5
318
100
AcDbEntity
  8
RACCORDO
100
AcDbCircle
 62
7
  6
CONTINUOUS
 10
215.5203002611
 20
147.5971279373
 30
0.0
 40
0.6
100
AcDbArc
 50
270.0
 51
360.0
  0
ARC
  5
319
100
AcDbEntity
  8
0
100
AcDbCircle
 62
7
  6
CONTINUOUS
 10
215.5203002611
 20
200.0471279373
 30
0.0
 40
0.6
100
AcDbArc
 50
0.0
 51
90.0
  0
ARC
  5
31A
100
AcDbEntity
  8
0
100
AcDbCircle
 62
7
  6
CONTINUOUS
 10
215.5203002611
 20
147.5971279373
 30
0.0
 40
0.6
100
AcDbArc
 50
270.0
 51
360.0
  0
ARC
  5
31B
100
AcDbEntity
  8
RACCORDO
100
AcDbCircle
 62
7
  6
CONTINUOUS
 10
126.7146788991
 20
58.3221279373
 30
0.0
 40
0.5
100
AcDbArc
 50
180.0
 51
270.0
  0
ARC
  5
31C
100
AcDbEntity
  8
RACCORDO
100
AcDbCircle
 62
7
  6
CONTINUOUS
 10
126.7146788991
 20
218.3221279373
 30
0.0
 40
0.5
100
AcDbArc
 50
90.0
 51
180.0
  0
ARC
  5
31D
100
AcDbEntity
  8
0
100
AcDbCircle
 62
7
  6
CONTINUOUS
 10
126.7146788991
 20
218.3221279373
 30
0.0
 40
0.5
100
AcDbArc
 50
90.0
 51
180.0
  0
ARC
  5
31E
100
AcDbEntity
  8
0
100
AcDbCircle
 62
7
  6
CONTINUOUS
 10
126.7146788991
 20
58.3221279373
 30
0.0
 40
0.5
100
AcDbArc
 50
180.0
 51
270.0
  0
ARC
  5
31F
100
AcDbEntity
  8
RACCORDO
100
AcDbCircle
 62
7
  6
CONTINUOUS
 10
133.8146788991
 20
59.6007542605
 30
0.0
 40
0.2
100
AcDbArc
 50
271.5
 51
360.0
  0
ARC
  5
320
100
AcDbEntity
  8
RACCORDO
100
AcDbCircle
 62
7
  6
CONTINUOUS
 10
133.8146788991
 20
217.0435016141
 30
0.0
 40
0.2
100
AcDbArc
 50
0.0
 51
88.5
  0
SPLINE
  5
321
100
AcDbEntity
  8
CURVE
100
AcDbSpline
 62
250
  6
CONTINUOUS
 70
0
 71
3
 72
17
 73
13
 74
0
 42
0.0000001
 43
0.0000001
 44
0.0000000001
 40
0.0
 40
0.0
 40
0.0
 40
0.0
 40
0.0559780952
 40
0.1687540387
 40
0.321006234
 40
0.4122750837
 40
0.516613223
 40
0.6013931059
 40
0.6776022439
 40
0.8103422694
 40
0.9200404832
 40
1.0
 40
1.0
 40
1.0
 40
1.0
 10
128.7163404238
 20
70.6986062489
 30
0.0
 10
128.7133653311
 20
70.7216632167
 30
0.0
 10
128.6672069529
 20
70.7802710475
 30
0.0
 10
128.5792162072
 20
70.8774653112
 30
0.0
 10
128.4437681153
 20
70.9490312932
 30
0.0
 10
128.3024650968
 20
70.9809122982
 30
0.0
 10
128.1851865412
 20
70.9839074548
 30
0.0
 10
128.0756493216
 20
70.9681226464
 30
0.0
 10
127.9592574807
 20
70.9298656905
 30
0.0
 10
127.8451909393
 20
70.8580112983
 30
0.0
 10
127.7559879075
 20
70.7565584876
 30
0.0
 10
127.7175154569
 20
70.6868033675
 30
0.0
 10
127.7062465005
 20
70.6555660951
 30
0.0
  0
SPLINE
  5
322
100
AcDbEntity
  8
CURVE
100
AcDbSpline
 62
250
  6
CONTINUOUS
 70
0
 71
3
 72
9
 73
5
 74
0
 42
0.0000001
 43
0.0000001
 44
0.0000000001
 40
0.0
 40
0.0
 40
0.0
 40
0.0
 40
0.2957417834
 40
1.0
 40
1.0
 40
1.0
 40
1.0
 10
127.7062465005
 20
70.6555660951
 30
0.0
 10
127.6715040389
 20
70.5594004133
 30
0.0
 10
127.6148717557
 20
70.2137430026
 30
0.0
 10
127.6497514594
 20
69.8662724578
 30
0.0
 10
127.6851913172
 20
69.625376769
 30
0.0
  0
SPLINE
  5
323
100
AcDbEntity
  8
CURVE
100
AcDbSpline
 62
250
  6
CONTINUOUS
 70
0
 71
3
 72
9
 73
5
 74
0
 42
0.0000001
 43
0.0000001
 44
0.0000000001
 40
0.0
 40
0.0
 40
0.0
 40
0.0
 40
0.3559141631
 40
1.0
 40
1.0
 40
1.0
 40
1.0
 10
128.8790382038
 20
70.2649654518
 30
0.0
 10
128.8790382038
 20
70.3013427329
 30
0.0
 10
128.9010658015
 20
70.4059904152
 30
0.0
 10
128.9936144883
 20
70.4747319038
 30
0.0
 10
129.0552478927
 20
70.4978621726
 30
0.0
  0
SPLINE
  5
324
100
AcDbEntity
  8
CURVE
100
AcDbSpline
 62
250
  6
CONTINUOUS
 70
0
 71
3
 72
9
 73
5
 74
0
 42
0.0000001
 43
0.0000001
 44
0.0000000001
 40
0.0
 40
0.0
 40
0.0
 40
0.0
 40
0.5586214172
 40
1.0
 40
1.0
 40
1.0
 40
1.0
 10
129.0552478927
 20
70.4978621726
 30
0.0
 10
129.1656419346
 20
70.539335685
 30
0.0
 10
129.3700605389
 20
70.5938770408
 30
0.0
 10
129.5721146919
 20
70.6546545809
 30
0.0
 10
129.6616641643
 20
70.6804004138
 30
0.0
  0
SPLINE
  5
325
100
AcDbEntity
  8
CURVE
100
AcDbSpline
 62
250
  6
CONTINUOUS
 70
0
 71
3
 72
9
 73
5
 74
0
 42
0.0000001
 43
0.0000001
 44
0.0000000001
 40
0.0
 40
0.0
 40
0.0
 40
0.0
 40
0.1980298616
 40
1.0
 40
1.0
 40
1.0
 40
1.0
 10
129.6616641643
 20
71.081933556
 30
0.0
 10
129.6260085162
 20
71.072249583
 30
0.0
 10
129.4455519306
 20
71.0248546294
 30
0.0
 10
129.2648011304
 20
70.978568968
 30
0.0
 10
129.1204357788
 20
70.9392378604
 30
0.0
  0
SPLINE
  5
326
100
AcDbEntity
  8
CURVE
100
AcDbSpline
 62
250
  6
CONTINUOUS
 70
0
 71
3
 72
9
 73
5
 74
0
 42
0.0000001
 43
0.0000001
 44
0.0000000001
 40
0.0
 40
0.0
 40
0.0
 40
0.0
 40
0.2427307434
 40
1.0
 40
1.0
 40
1.0
 40
1.0
 10
129.1204357789
 20
70.9392378602
 30
0.0
 10
129.0840805304
 20
70.9293331831
 30
0.0
 10
128.9373169095
 20
70.8915166298
 30
0.0
 10
128.7716979524
 20
70.8077980534
 30
0.0
 10
128.7281577203
 20
70.6986062489
 30
0.0
  0
SPLINE
  5
327
100
AcDbEntity
  8
CURVE
100
AcDbSpline
 62
250
  6
CONTINUOUS
 70
0
 71
3
 72
9
 73
5
 74
0
 42
0.0000001
 43
0.0000001
 44
0.0000000001
 40
0.0
 40
0.0
 40
0.0
 40
0.0
 40
0.5206208722
 40
1.0
 40
1.0
 40
1.0
 40
1.0
 10
128.2407392259
 20
70.5901360633
 30
0.0
 10
128.3271933496
 20
70.5914700769
 30
0.0
 10
128.5160515322
 20
70.5303944349
 30
0.0
 10
128.5497353151
 20
70.345460404
 30
0.0
 10
128.5515131309
 20
70.265865246
 30
0.0
  0
SPLINE
  5
328
100
AcDbEntity
  8
CURVE
100
AcDbSpline
 62
250
  6
CONTINUOUS
 70
0
 71
3
 72
9
 73
5
 74
0
 42
0.0000001
 43
0.0000001
 44
0.0000000001
 40
0.0
 40
0.0
 40
0.0
 40
0.0
 40
0.2704041687
 40
1.0
 40
1.0
 40
1.0
 40
1.0
 10
128.002518723
 20
70.027299822
 30
0.0
 10
127.997547147
 20
70.0564356516
 30
0.0
 10
127.9811965619
 20
70.1645219555
 30
0.0
 10
127.9815509709
 20
70.2751015329
 30
0.0
 10
127.9907451859
 20
70.3543194086
 30
0.0
  0
SPLINE
  5
329
100
AcDbEntity
  8
CURVE
100
AcDbSpline
 62
250
  6
CONTINUOUS
 70
0
 71
3
 72
9
 73
5
 74
0
 42
0.0000001
 43
0.0000001
 44
0.0000000001
 40
0.0
 40
0.0
 40
0.0
 40
0.0
 40
0.5013654753
 40
1.0
 40
1.0
 40
1.0
 40
1.0
 10
127.9907451857
 20
70.3543194086
 30
0.0
 10
127.9978464295
 20
70.4155041262
 30
0.0
 10
128.0517248604
 20
70.53925614
 30
0.0
 10
128.1794864347
 20
70.5891780397
 30
0.0
 10
128.2407392259
 20
70.5901360633
 30
0.0
  0
SPLINE
  5
32A
100
AcDbEntity
  8
RACCORDO
100
AcDbSpline
 62
250
  6
CONTINUOUS
 70
0
 71
3
 72
22
 73
18
 74
0
 42
0.0000001
 43
0.0000001
 44
0.0000000001
 40
0.0
 40
0.0
 40
0.0
 40
0.0
 40
0.0012671309
 40
0.0049018895
 40
0.0109214804
 40
0.0193189887
 40
0.0300799928
 40
0.0431744691
 40
0.0762307056
 40
0.1181845285
 40
0.1686216749
 40
0.2270687666
 40
0.2929512112
 40
0.4444454025
 40
0.6172923439
 40
0.8048944947
 40
1.0
 40
1.0
 40
1.0
 40
1.0
 10
133.8199142887
 20
217.2434330791
 30
0.0
 10
133.8202097648
 20
217.2434247893
 30
0.0
 10
133.8200765619
 20
217.241684485
 30
0.0
 10
133.8205667799
 20
217.2397168456
 30
0.0
 10
133.8206092153
 20
217.2351874373
 30
0.0
 10
133.8208806843
 20
217.2294593396
 30
0.0
 10
133.8210410439
 20
217.2218829715
 30
0.0
 10
133.8213071307
 20
217.2086350462
 30
0.0
 10
133.821556162
 20
217.1880669461
 30
0.0
 10
133.8217926282
 20
217.1588111234
 30
0.0
 10
133.8219592595
 20
217.1236218966
 30
0.0
 10
133.8220605126
 20
217.082853826
 30
0.0
 10
133.8221042114
 20
217.0185101793
 30
0.0
 10
133.8219641855
 20
216.9274802621
 30
0.0
 10
133.8215379521
 20
216.8080563783
 30
0.0
 10
133.8208566541
 20
216.6784601196
 30
0.0
 10
133.8202550028
 20
216.5891852717
 30
0.0
 10
133.8199142887
 20
216.5436729516
 30
0.0
  0
SPLINE
  5
32B
100
AcDbEntity
  8
RACCORDO
100
AcDbSpline
 62
250
  6
CONTINUOUS
 70
0
 71
3
 72
22
 73
18
 74
0
 42
0.0000001
 43
0.0000001
 44
0.0000000001
 40
0.0
 40
0.0
 40
0.0
 40
0.0
 40
0.1950565759
 40
0.3826039534
 40
0.5554568286
 40
0.7069663976
 40
0.7728581701
 40
0.8313134057
 40
0.8817613367
 40
0.9237268546
 40
0.9567982452
 40
0.9699014804
 40
0.9806674047
 40
0.9890685859
 40
0.9950926217
 40
0.9987311734
 40
1.0
 40
1.0
 40
1.0
 40
1.0
 10
133.8199142887
 20
60.100582923
 30
0.0
 10
133.820254818
 20
60.0550820184
 30
0.0
 10
133.8208564157
 20
59.9658313671
 30
0.0
 10
133.8215377466
 20
59.8362579228
 30
0.0
 10
133.8219639843
 20
59.7168418513
 30
0.0
 10
133.8221041808
 20
59.6258047915
 30
0.0
 10
133.8220605876
 20
59.5614534854
 30
0.0
 10
133.8219594187
 20
59.5206788246
 30
0.0
 10
133.8217928893
 20
59.485482457
 30
0.0
 10
133.8215564449
 20
59.4562178526
 30
0.0
 10
133.821307366
 20
59.4356414521
 30
0.0
 10
133.821041332
 20
59.4223867962
 30
0.0
 10
133.8208809696
 20
59.4148063921
 30
0.0
 10
133.8206093052
 20
59.409075223
 30
0.0
 10
133.8205671297
 20
59.4045430065
 30
0.0
 10
133.8200762268
 20
59.4025733067
 30
0.0
 10
133.8202101551
 20
59.4008312742
 30
0.0
 10
133.8199142887
 20
59.4008227955
 30
0.0
  0
ENDSEC
  0
SECTION
  2
OBJECTS
  0
DICTIONARY
  5
C
100
AcDbDictionary
280
0
281
1
  3
ACAD_GROUP
350
D
  3
ACAD_MLINESTYLE
350
17
  3
ACAD_LAYOUT
350
1A
  3
ACAD_PLOTSETTINGS
350
19
  3
ACAD_PLOTSTYLENAME
350
E
  0
DICTIONARY
  5
D
102
{ACAD_REACTORS
330
C
102
}
100
AcDbDictionary
280
0
281
1
  0
ACDBDICTIONARYWDFLT
  5
E
102
{ACAD_REACTORS
330
C
102
}
100
AcDbDictionary
281
1
  3
Normal
350
F
100
AcDbDictionaryWithDefault
340
F
  0
DICTIONARY
  5
17
102
{ACAD_REACTORS
330
C
102
}
100
AcDbDictionary
280
0
281
1
  3
Standard
350
18
  0
DICTIONARY
  5
19
102
{ACAD_REACTORS
330
C
102
}
100
AcDbDictionary
281
1
  0
DICTIONARY
  5
1A
102
{ACAD_REACTORS
330
C
102
}
100
AcDbDictionary
281
1
  3
Model
350
32C
  3
Layout1
350
32D
  0
ACDBPLACEHOLDER
  5
F
102
{ACAD_REACTORS
330
E
102
}
  0
MLINESTYLE
  5
18
102
{ACAD_REACTORS
330
17
102
}
100
AcDbMlineStyle
  2
STANDARD
 70
0
  3

 62
256
 51
90.0
 52
90.0
 71
2
 49
0.5
 62
256
  6
BYLAYER
 49
-0.5
 62
256
  6
BYLAYER
  0
LAYOUT
  5
32C
102
{ACAD_REACTORS
330
1A
102
}
100
AcDbPlotSettings
  1

  2
none_device
  4
ISO_A3_(420.00_x_297.00_MM)
  6

 40
0.0
 41
0.0
 42
0.0
 43
0.0
 44
420.0
 45
297.0
 46
0.0
 47
0.0
 48
0.0
 49
0.0
140
0.0
141
0.0
142
1.0
143
1.0
 70
1024
 72
1
 73
0
 74
0
  7

 75
0
147
1.0
148
0.0
149
0.0
100
AcDbLayout
  1
Model
 70
0
 71
0
 10
0.0
 20
0.0
 11
420.0
 21
297.0
 12
0.0
 22
0.0
 32
0.0
 14
0.0
 24
0.0
 34
0.0
 15
0.0
 25
0.0
 35
0.0
146
0.0
 13
0.0
 23
0.0
 33
0.0
 16
1.0
 26
0.0
 36
0.0
 17
0.0
 27
1.0
 37
0.0
 76
0
330
214
345
0
346
0
  0
LAYOUT
  5
32D
102
{ACAD_REACTORS
330
1A
102
}
100
AcDbPlotSettings
  1

  2
none_device
  4
ISO_A3_(420.00_x_297.00_MM)
  6

 40
0.0
 41
0.0
 42
0.0
 43
0.0
 44
420.0
 45
297.0
 46
0.0
 47
0.0
 48
0.0
 49
0.0
140
0.0
141
0.0
142
1.0
143
1.0
 70
0
 72
1
 73
0
 74
0
  7

 75
0
147
1.0
148
0.0
149
0.0
100
AcDbLayout
  1
Layout1
 70
0
 71
1
 10
0.0
 20
0.0
 11
420.0
 21
297.0
 12
0.0
 22
0.0
 32
0.0
 14
0.0
 24
0.0
 34
0.0
 15
0.0
 25
0.0
 35
0.0
146
0.0
 13
0.0
 23
0.0
 33
0.0
 16
1.0
 26
0.0
 36
0.0
 17
0.0
 27
1.0
 37
0.0
 76
0
330
215
345
0
346
0
  0
ENDSEC
  0
EOF
