  0
SECTION
  2
HEADER
  9
$ACADVER
  1
AC1024
  9
$DWGCODEPAGE
  3
ANSI_1252
  9
$EXTMAX
 10
420.0
 20
297.0
 30
0.0
  9
$EXTMIN
 10
0.0
 20
0.0
 30
0.0
  9
$LIMMIN
 10
0.0
 20
0.0
  9
$LIMMAX
 10
420.0
 20
297.0
  9
$VIEWCTR
 10
210.0
 20
148.5
  9
$VIEWSIZE
 40
297.0
  9
$CLAYER
  8
0
  9
$LTSCALE
 40
23.1
  9
$CELTYPE
  6
BYLAYER
  9
$DIMSCALE
 40
1.0
  9
$DIMASZ
 40
3.0
  9
$DIMEXO
 40
0.5
  9
$DIMDLI
 40
15.96
  9
$DIMEXE
 40
1.5
  9
$DIMCEN
 40
3.78
  9
$DIMLFAC
 40
1.0
  9
$DIMBLK
  1
_FILLED
  9
$DIMALT
 70
0
  9
$DIMALTF
 40
0.0393700787
  9
$DIMTXT
 40
3.0
  9
$DIMTOL
 70
1
  9
$DIMLIM
 70
0
  9
$DIMTFAC
 40
1.0
  9
$DIMTP
 40
0.01
  9
$DIMTM
 40
0.01
  9
$DIMGAP
 40
0.625
  9
$DIMDSEP
 70
44
  9
$AUNITS
 70
0
  9
$PDMODE
 70
3
  9
$PDSIZE
 40
3.0
  9
$HANDSEED
  5
495
  9
$TILEMODE
 70
1
  9
$MEASUREMENT
 70
1
  9
$INSUNITS
 70
4
  0
ENDSEC
  0
SECTION
  2
CLASSES
  0
CLASS
  1
ACDBDICTIONARYWDFLT
  2
AcDbDictionaryWithDefault
  3
AutoCAD 2000
 90
0
 91
1
280
0
281
0
  0
CLASS
  1
ACDBPLACEHOLDER
  2
AcDbPlaceHolder
  3
AutoCAD 2000
 90
0
 91
1
280
0
281
0
  0
CLASS
  1
LAYOUT
  2
AcDbLayout
  3
AutoCAD 2000
 90
0
 91
0
280
0
281
0
  0
ENDSEC
  0
SECTION
  2
TABLES
  0
TABLE
  2
VPORT
  5
8
100
AcDbSymbolTable
 70
2
  0
VPORT
  5
1F4
100
AcDbSymbolTableRecord
100
AcDbViewportTableRecord
  2
*ACTIVE
 70
0
 10
0.0
 20
0.0
 11
1.0
 21
1.0
 12
210.0
 22
148.5
 13
0.0
 23
0.0
 14
1.0
 24
1.0
 15
0.0
 25
0.0
 16
0.0
 26
0.0
 36
1.0
 17
0.0
 27
0.0
 37
0.0
 40
297.0
 41
1.4141414141
 42
50.0
 43
0.0
 44
0.0
 50
0.0
 51
0.0
 71
0
 72
100
 73
1
 74
1
 75
0
 76
0
 77
0
 78
0
  0
ENDTAB
  0
TABLE
  2
LTYPE
  5
5
100
AcDbSymbolTable
 70
6
  0
LTYPE
  5
14
100
AcDbSymbolTableRecord
100
AcDbLinetypeTableRecord
  2
BYBLOCK
 70
0
  3

 72
65
 73
0
 40
0.0
  0
LTYPE
  5
15
100
AcDbSymbolTableRecord
100
AcDbLinetypeTableRecord
  2
BYLAYER
 70
0
  3

 72
65
 73
0
 40
0.0
  0
LTYPE
  5
16
100
AcDbSymbolTableRecord
100
AcDbLinetypeTableRecord
  2
CONTINUOUS
 70
64
  3
Solid line
 72
65
 73
0
 40
0.0
  0
LTYPE
  5
1F5
100
AcDbSymbolTableRecord
100
AcDbLinetypeTableRecord
  2
CENTER
 70
64
  3
____ _ ____ _ ____ _ ____ _ ____ _ ____ _ ____
 72
65
 73
4
 40
0.6
 49
0.375
 74
0
 49
-0.075
 74
0
 49
0.075
 74
0
 49
-0.075
 74
0
  0
LTYPE
  5
1F6
100
AcDbSymbolTableRecord
100
AcDbLinetypeTableRecord
  2
HIDDEN
 70
64
  3
- - - - - - - - - - - - - - - - - - - -
 72
65
 73
2
 40
0.2
 49
0.1
 74
0
 49
-0.1
 74
0
  0
LTYPE
  5
1F7
100
AcDbSymbolTableRecord
100
AcDbLinetypeTableRecord
  2
PHANTOM
 70
64
  3
_____ _ _ _____ _ _ _____ _ _ _____
 72
65
 73
6
 40
0.8
 49
0.45
 74
0
 49
-0.05
 74
0
 49
0.1
 74
0
 49
-0.05
 74
0
 49
0.1
 74
0
 49
-0.05
 74
0
  0
LTYPE
  5
1F8
100
AcDbSymbolTableRecord
100
AcDbLinetypeTableRecord
  2
DOT
 70
64
  3
. . . . . . . . . . . . . . . . . . . .
 72
65
 73
2
 40
0.2
 49
0.1
 74
0
 49
-0.1
 74
0
  0
LTYPE
  5
1F9
100
AcDbSymbolTableRecord
100
AcDbLinetypeTableRecord
  2
DASHED
 70
64
  3
- - - - - - - - - - - - - - - - - - - -
 72
65
 73
2
 40
0.2
 49
0.1
 74
0
 49
-0.1
 74
0
  0
ENDTAB
  0
TABLE
  2
LAYER
  5
2
100
AcDbSymbolTable
 70
36
  0
LAYER
  5
10
100
AcDbSymbolTableRecord
100
AcDbLayerTableRecord
  2
0
 70
0
 62
7
  6
CONTINUOUS
370
-3
390
F
  0
LAYER
  5
1FA
100
AcDbSymbolTableRecord
100
AcDbLayerTableRecord
  2
DEFAULT_1
 70
0
 62
7
  6
CENTER
370
-3
390
F
  0
LAYER
  5
1FB
100
AcDbSymbolTableRecord
100
AcDbLayerTableRecord
  2
DEFAULT_2
 70
0
 62
7
  6
HIDDEN
370
-3
390
F
  0
LAYER
  5
1FC
100
AcDbSymbolTableRecord
100
AcDbLayerTableRecord
  2
DEFAULT_3
 70
0
 62
7
  6
PHANTOM
370
-3
390
F
  0
LAYER
  5
1FD
100
AcDbSymbolTableRecord
100
AcDbLayerTableRecord
  2
ASSI
 70
0
 62
7
  6
CONTINUOUS
370
-3
390
F
  0
LAYER
  5
1FE
100
AcDbSymbolTableRecord
100
AcDbLayerTableRecord
  2
COORDINATE
 70
0
 62
7
  6
CONTINUOUS
370
-3
390
F
  0
LAYER
  5
1FF
100
AcDbSymbolTableRecord
100
AcDbLayerTableRecord
  2
COPY_PUBLISH
 70
0
 62
7
  6
CONTINUOUS
370
-3
390
F
  0
LAYER
  5
200
100
AcDbSymbolTableRecord
100
AcDbLayerTableRecord
  2
COSMETICI
 70
0
 62
7
  6
CONTINUOUS
370
-3
390
F
  0
LAYER
  5
201
100
AcDbSymbolTableRecord
100
AcDbLayerTableRecord
  2
CURVE
 70
0
 62
7
  6
CONTINUOUS
370
-3
390
F
  0
LAYER
  5
202
100
AcDbSymbolTableRecord
100
AcDbLayerTableRecord
  2
DRAFT
 70
0
 62
7
  6
CONTINUOUS
370
-3
390
F
  0
LAYER
  5
203
100
AcDbSymbolTableRecord
100
AcDbLayerTableRecord
  2
IMPORT_IGES
 70
0
 62
7
  6
CONTINUOUS
370
-3
390
F
  0
LAYER
  5
204
100
AcDbSymbolTableRecord
100
AcDbLayerTableRecord
  2
INTF_1
 70
0
 62
7
  6
CONTINUOUS
370
-3
390
F
  0
LAYER
  5
205
100
AcDbSymbolTableRecord
100
AcDbLayerTableRecord
  2
INTF_11
 70
0
 62
7
  6
CONTINUOUS
370
-3
390
F
  0
LAYER
  5
206
100
AcDbSymbolTableRecord
100
AcDbLayerTableRecord
  2
INTF_13
 70
0
 62
7
  6
CONTINUOUS
370
-3
390
F
  0
LAYER
  5
207
100
AcDbSymbolTableRecord
100
AcDbLayerTableRecord
  2
INTF_2
 70
0
 62
7
  6
CONTINUOUS
370
-3
390
F
  0
LAYER
  5
208
100
AcDbSymbolTableRecord
100
AcDbLayerTableRecord
  2
INTF_4
 70
0
 62
7
  6
CONTINUOUS
370
-3
390
F
  0
LAYER
  5
209
100
AcDbSymbolTableRecord
100
AcDbLayerTableRecord
  2
NOTE
 70
0
 62
7
  6
CONTINUOUS
370
-3
390
F
  0
LAYER
  5
20A
100
AcDbSymbolTableRecord
100
AcDbLayerTableRecord
  2
PIANI
 70
0
 62
7
  6
CONTINUOUS
370
-3
390
F
  0
LAYER
  5
20B
100
AcDbSymbolTableRecord
100
AcDbLayerTableRecord
  2
PUNTI
 70
0
 62
7
  6
CONTINUOUS
370
-3
390
F
  0
LAYER
  5
20C
100
AcDbSymbolTableRecord
100
AcDbLayerTableRecord
  2
RACCORDO
 70
0
 62
7
  6
CONTINUOUS
370
-3
390
F
  0
LAYER
  5
20D
100
AcDbSymbolTableRecord
100
AcDbLayerTableRecord
  2
RGB____0____0____0__
 70
0
 62
7
  6
CONTINUOUS
370
-3
390
F
  0
LAYER
  5
20E
100
AcDbSymbolTableRecord
100
AcDbLayerTableRecord
  2
SCRITTE
 70
0
 62
7
  6
CONTINUOUS
370
-3
390
F
  0
LAYER
  5
20F
100
AcDbSymbolTableRecord
100
AcDbLayerTableRecord
  2
SIMBOLI
 70
0
 62
7
  6
CONTINUOUS
370
-3
390
F
  0
LAYER
  5
210
100
AcDbSymbolTableRecord
100
AcDbLayerTableRecord
  2
SMUSSO
 70
0
 62
7
  6
CONTINUOUS
370
-3
390
F
  0
LAYER
  5
211
100
AcDbSymbolTableRecord
100
AcDbLayerTableRecord
  2
SNAPLINE
 70
0
 62
7
  6
CONTINUOUS
370
-3
390
F
  0
LAYER
  5
212
100
AcDbSymbolTableRecord
100
AcDbLayerTableRecord
  2
SUPERFICI
 70
0
 62
7
  6
CONTINUOUS
370
-3
390
F
  0
LAYER
  5
213
100
AcDbSymbolTableRecord
100
AcDbLayerTableRecord
  2
TRASH
 70
0
 62
7
  6
CONTINUOUS
370
-3
390
F
  0
ENDTAB
  0
TABLE
  2
STYLE
  5
3
100
AcDbSymbolTable
 70
1
  0
STYLE
  5
11
100
AcDbSymbolTableRecord
100
AcDbTextStyleTableRecord
  2
STANDARD
 70
0
 40
0.0
 41
0.8
 50
0.0
 71
0
 42
0.2
  3
txt
  4

  0
STYLE
  5
214
100
AcDbSymbolTableRecord
100
AcDbTextStyleTableRecord
  2
TEXTSTYLE_1
 70
0
 40
0.0
 41
0.8
 50
0.0
 71
0
 42
0.2
  3
gdt
  4

  0
ENDTAB
  0
TABLE
  2
VIEW
  5
6
100
AcDbSymbolTable
 70
0
  0
ENDTAB
  0
TABLE
  2
UCS
  5
7
100
AcDbSymbolTable
 70
0
  0
ENDTAB
  0
TABLE
  2
APPID
  5
9
100
AcDbSymbolTable
 70
1
  0
APPID
  5
215
100
AcDbSymbolTableRecord
100
AcDbRegAppTableRecord
  2
ACAD
 70
0
  0
ENDTAB
  0
TABLE
  2
BLOCK_RECORD
  5
1
100
AcDbSymbolTable
 70
0
  0
BLOCK_RECORD
  5
216
100
AcDbSymbolTableRecord
100
AcDbBlockTableRecord
  2
*Model_Space
  0
BLOCK_RECORD
  5
217
100
AcDbSymbolTableRecord
100
AcDbBlockTableRecord
  2
*Paper_Space
  0
BLOCK_RECORD
  5
218
100
AcDbSymbolTableRecord
100
AcDbBlockTableRecord
  2
_FILLED
  0
BLOCK_RECORD
  5
219
100
AcDbSymbolTableRecord
100
AcDbBlockTableRecord
  2
*D0
  0
BLOCK_RECORD
  5
21A
100
AcDbSymbolTableRecord
100
AcDbBlockTableRecord
  2
*D1
  0
BLOCK_RECORD
  5
21B
100
AcDbSymbolTableRecord
100
AcDbBlockTableRecord
  2
*D2
  0
ENDTAB
  0
TABLE
  2
DIMSTYLE
  5
A
100
AcDbSymbolTable
 70
1
100
AcDbDimStyleTable
 71
0
  0
DIMSTYLE
105
21C
100
AcDbSymbolTableRecord
100
AcDbDimStyleTableRecord
  2
STANDARD
 70
0
  3

  4

 40
1.0
 41
3.0
 42
0.5
 43
0.38
 44
1.5
 45
0.0
 46
0.0
 47
0.01
 48
0.01
140
3.0
141
0.09
142
0.0
143
25.4
144
1.0
145
0.0
146
1.0
147
0.625
 71
1
 72
0
 73
0
 74
0
 75
0
 76
0
 77
1
 78
8
 79
2
170
0
171
1
172
0
173
0
174
0
175
0
176
0
177
0
178
0
270
2
179
2
271
2
272
2
273
2
274
2
275
0
280
0
281
0
282
0
283
1
284
8
285
0
286
0
287
3
288
0
340
11
278
44
341
218
342
218
343
218
344
218
  0
DIMSTYLE
105
21D
100
AcDbSymbolTableRecord
100
AcDbDimStyleTableRecord
  2
DIMSTYLE_1
 70
0
  3

  4

 40
1.0
 41
3.0
 42
0.5
 43
0.38
 44
1.5
 45
0.0
 46
0.0
 47
0.0
 48
0.0
140
3.0
141
0.09
142
0.0
143
25.4
144
1.0
145
0.0
146
1.0
147
0.75
 71
0
 72
0
 73
0
 74
0
 75
0
 76
0
 77
1
 78
8
 79
2
170
0
171
1
172
0
173
0
174
0
175
0
176
0
177
0
178
0
270
2
179
2
271
2
272
2
273
2
274
2
275
0
280
0
281
0
282
0
283
1
284
8
285
0
286
0
287
3
288
0
340
11
278
44
341
218
342
218
343
218
344
218
  0
ENDTAB
  0
ENDSEC
  0
SECTION
  2
BLOCKS
  0
BLOCK
  5
20
100
AcDbEntity
  8
0
100
AcDbBlockBegin
  2
*Model_Space
 70
0
 10
0.0
 20
0.0
 30
0.0
  3
*Model_Space
  1

  0
ENDBLK
  5
21
100
AcDbEntity
  8
0
100
AcDbBlockEnd
  0
BLOCK
  5
1C
100
AcDbEntity
  8
0
100
AcDbBlockBegin
  2
*Paper_Space
 70
0
 10
0.0
 20
0.0
 30
0.0
  3
*Paper_Space
  1

  0
ENDBLK
  5
1D
100
AcDbEntity
  8
0
100
AcDbBlockEnd
  0
BLOCK
  5
21E
100
AcDbEntity
  8
0
100
AcDbBlockBegin
  2
_FILLED
 70
64
 10
0.0
 20
0.0
  3
_FILLED
  1

  0
SOLID
  5
21F
100
AcDbEntity
  8
0
  6
BYBLOCK
 62
0
100
AcDbTrace
 10
0.0
 20
0.0
 11
-1.0
 21
0.3166666667
 12
-1.0
 22
-0.3166666667
 13
-1.0
 23
-0.3166666667
  0
ENDBLK
  5
220
100
AcDbEntity
  8
0
  6
BYBLOCK
 62
0
100
AcDbBlockEnd
  0
BLOCK
  5
221
100
AcDbEntity
  8
0
100
AcDbBlockBegin
 62
7
  6
CONTINUOUS
  2
*D0
 70
65
 10
0.0
 20
0.0
  3
*D0
  1

  0
MTEXT
  5
222
100
AcDbEntity
  8
0
100
AcDbMText
 62
7
  6
CONTINUOUS
  7
STANDARD
 71
2
 72
1
 10
330.5577349869
 20
124.4432114883
 30
0.0
 11
0.0
 21
1.0
 31
0.0
 73
2
 44
0.9
  1
{\ftxt;\W0.0001;\H0.0001;\~}{\ftxt;\W2.2857142857;\H3.0; }{\ftxt;\W0.0001;\H0.0001;\~}
 40
3.0
 41
10.2857142857
  0
LINE
  5
223
100
AcDbEntity
  8
0
100
AcDbLine
 62
7
  6
CONTINUOUS
 10
324.1097906848
 20
240.4432114883
 11
335.8077349869
 21
240.4432114883
  0
LINE
  5
224
100
AcDbEntity
  8
0
100
AcDbLine
 62
7
  6
CONTINUOUS
 10
324.1097906848
 20
8.4432114883
 11
335.8077349869
 21
8.4432114883
  0
LINE
  5
225
100
AcDbEntity
  8
0
100
AcDbLine
 62
7
  6
CONTINUOUS
 10
334.3077349869
 20
240.4432114883
 11
334.3077349869
 21
124.4432114883
  0
LINE
  5
226
100
AcDbEntity
  8
0
100
AcDbLine
 62
7
  6
CONTINUOUS
 10
334.3077349869
 20
8.4432114883
 11
334.3077349869
 21
124.4432114883
  0
INSERT
  5
227
100
AcDbEntity
  8
0
100
AcDbBlockReference
 62
7
  6
CONTINUOUS
  2
_FILLED
 10
334.3077349869
 20
240.4432114883
 41
3.0
 42
3.0
 43
3.0
 50
90.0
  0
INSERT
  5
228
100
AcDbEntity
  8
0
100
AcDbBlockReference
 62
7
  6
CONTINUOUS
  2
_FILLED
 10
334.3077349869
 20
8.4432114883
 41
3.0
 42
3.0
 43
3.0
 50
270.0
  0
ENDBLK
  5
229
100
AcDbEntity
  8
0
  6
BYBLOCK
 62
0
100
AcDbBlockEnd
  0
BLOCK
  5
22A
100
AcDbEntity
  8
0
100
AcDbBlockBegin
 62
7
  6
CONTINUOUS
  2
*D1
 70
65
 10
0.0
 20
0.0
  3
*D1
  1

  0
MTEXT
  5
22B
100
AcDbEntity
  8
0
100
AcDbMText
 62
7
  6
CONTINUOUS
  7
STANDARD
 71
2
 72
1
 10
281.1077349869
 20
4.1932114883
 30
0.0
 11
1.0
 21
0.0
 31
0.0
 73
2
 44
0.9
  1
{\ftxt;\W0.0001;\H0.0001;\~}{\ftxt;\W1.5714285714;\H3.0; }{\ftxt;\W0.0001;\H0.0001;\~}
 40
3.0
 41
7.0714285714
  0
LINE
  5
22C
100
AcDbEntity
  8
0
100
AcDbLine
 62
7
  6
CONTINUOUS
 10
237.1077349869
 20
9.4411557904
 11
237.1077349869
 21
-1.0567885117
  0
LINE
  5
22D
100
AcDbEntity
  8
0
100
AcDbLine
 62
7
  6
CONTINUOUS
 10
325.1077349869
 20
9.4411557904
 11
325.1077349869
 21
-1.0567885117
  0
LINE
  5
22E
100
AcDbEntity
  8
0
100
AcDbLine
 62
7
  6
CONTINUOUS
 10
237.1077349869
 20
0.4432114883
 11
281.1077349869
 21
0.4432114883
  0
LINE
  5
22F
100
AcDbEntity
  8
0
100
AcDbLine
 62
7
  6
CONTINUOUS
 10
325.1077349869
 20
0.4432114883
 11
281.1077349869
 21
0.4432114883
  0
INSERT
  5
230
100
AcDbEntity
  8
0
100
AcDbBlockReference
 62
7
  6
CONTINUOUS
  2
_FILLED
 10
237.1077349869
 20
0.4432114883
 41
3.0
 42
3.0
 43
3.0
 50
180.0
  0
INSERT
  5
231
100
AcDbEntity
  8
0
100
AcDbBlockReference
 62
7
  6
CONTINUOUS
  2
_FILLED
 10
325.1077349869
 20
0.4432114883
 41
3.0
 42
3.0
 43
3.0
 50
0.0
  0
ENDBLK
  5
232
100
AcDbEntity
  8
0
  6
BYBLOCK
 62
0
100
AcDbBlockEnd
  0
BLOCK
  5
233
100
AcDbEntity
  8
0
100
AcDbBlockBegin
 62
7
  6
CONTINUOUS
  2
*D2
 70
65
 10
0.0
 20
0.0
  3
*D2
  1

  0
MTEXT
  5
234
100
AcDbEntity
  8
0
100
AcDbMText
 62
7
  6
CONTINUOUS
  7
STANDARD
 71
1
 72
1
 10
213.1536839933
 20
4.5309843514
 30
0.0
 11
1.0
 21
0.0
 31
0.0
 73
2
 44
0.9
  1
{\ftxt;\W0.0001;\H0.0001;\~}{\ftxt;\W2.1428571429;\H3.0; }{\ftxt;\W0.0001;\H0.0001;\~}
 40
3.0
 41
9.6428571429
  0
LINE
  5
235
100
AcDbEntity
  8
0
100
AcDbLine
 62
7
  6
CONTINUOUS
 10
207.7623164164
 20
9.4452700072
 11
207.7623164164
 21
-0.7190156486
  0
LINE
  5
236
100
AcDbEntity
  8
0
100
AcDbLine
 62
7
  6
CONTINUOUS
 10
199.8623164164
 20
9.6731214248
 11
199.8623164164
 21
-0.7190156486
  0
LINE
  5
237
100
AcDbEntity
  8
0
100
AcDbLine
 62
7
  6
CONTINUOUS
 10
207.7623164164
 20
0.7809843514
 11
203.8123164164
 21
0.7809843514
  0
LINE
  5
238
100
AcDbEntity
  8
0
100
AcDbLine
 62
7
  6
CONTINUOUS
 10
203.8123164164
 20
0.7809843514
 11
219.5822554218
 21
0.7809843514
  0
LINE
  5
239
100
AcDbEntity
  8
0
100
AcDbLine
 62
7
  6
CONTINUOUS
 10
199.8623164164
 20
0.7809843514
 11
203.8123164164
 21
0.7809843514
  0
INSERT
  5
23A
100
AcDbEntity
  8
0
100
AcDbBlockReference
 62
7
  6
CONTINUOUS
  2
_FILLED
 10
207.7623164164
 20
0.7809843514
 41
3.0
 42
3.0
 43
3.0
  0
INSERT
  5
23B
100
AcDbEntity
  8
0
100
AcDbBlockReference
 62
7
  6
CONTINUOUS
  2
_FILLED
 10
199.8623164164
 20
0.7809843514
 41
3.0
 42
3.0
 43
3.0
 50
180.0
  0
ENDBLK
  5
23C
100
AcDbEntity
  8
0
  6
BYBLOCK
 62
0
100
AcDbBlockEnd
  0
ENDSEC
  0
SECTION
  2
ENTITIES
  0
DIMENSION
  5
23D
100
AcDbEntity
  8
0
100
AcDbDimension
 62
7
  6
CONTINUOUS
  2
*D0
 10
334.3077349869
 20
8.4432114883
 11
334.3077349869
 21
124.0146406684
 70
160
 71
2
 72
2
 41
0.9
 42
232.0
  1
{\ftxt;\W0.0001;\H0.0001;\~}{\ftxt;\W2.2857142857;\H3.0; }{\ftxt;\W0.0001;\H0.0001;\~}
  3
DIMSTYLE_1
100
AcDbAlignedDimension
 13
323.6097906848
 23
240.4432114883
 14
323.6097906848
 24
8.4432114883
 50
270.0
100
AcDbRotatedDimension
  0
DIMENSION
  5
23E
100
AcDbEntity
  8
0
100
AcDbDimension
 62
7
  6
CONTINUOUS
  2
*D1
 10
325.1077349869
 20
0.4432114883
 11
280.679163208
 21
0.4432114883
 70
160
 71
2
 72
2
 41
0.9
 42
88.0
  1
{\ftxt;\W0.0001;\H0.0001;\~}{\ftxt;\W1.5714285714;\H3.0; }{\ftxt;\W0.0001;\H0.0001;\~}
  3
DIMSTYLE_1
100
AcDbAlignedDimension
 13
237.1077349869
 23
9.9411557904
 14
325.1077349869
 24
9.9411557904
100
AcDbRotatedDimension
  0
DIMENSION
  5
23F
100
AcDbEntity
  8
0
100
AcDbDimension
 62
7
  6
CONTINUOUS
  2
*D2
 10
199.8623164164
 20
0.7809843514
 11
215.9393893433
 21
0.7809843514
 70
160
 71
1
 72
2
 41
0.9
 42
7.9
  1
{\ftxt;\W0.0001;\H0.0001;\~}{\ftxt;\W2.1428571429;\H3.0; }{\ftxt;\W0.0001;\H0.0001;\~}
  3
DIMSTYLE_1
100
AcDbAlignedDimension
 13
207.7623164164
 23
9.9452700072
 14
199.8623164164
 24
10.1731214248
 50
180.0
100
AcDbRotatedDimension
  0
LWPOLYLINE
  5
240
100
AcDbEntity
  8
RACCORDO
100
AcDbPolyline
 62
250
  6
CONTINUOUS
 90
31
 70
0
 10
323.3778250503
 20
8.6751771227
 10
323.4564279609
 20
8.6773083774
 10
323.5346880014
 20
8.6835420084
 10
323.6123927845
 20
8.6938419341
 10
323.6892891254
 20
8.7081514975
 10
323.7652164122
 20
8.7264182141
 10
323.8401016659
 20
8.7486168625
 10
323.9137904452
 20
8.7747082388
 10
323.9860314538
 20
8.8046099551
 10
324.0566075371
 20
8.8382335653
 10
324.1253186075
 20
8.8754816726
 10
324.1919882438
 20
8.9162562869
 10
324.2564429815
 20
8.9604514437
 10
324.3185104425
 20
9.0079498113
 10
324.3780189699
 20
9.0586206841
 10
324.4348052708
 20
9.1123255917
 10
324.4887151034
 20
9.168919042
 10
324.5396019189
 20
9.2282472952
 10
324.5873260787
 20
9.2901473248
 10
324.6317344466
 20
9.354414923
 10
324.6727339472
 20
9.4209092064
 10
324.7102718153
 20
9.4895625692
 10
324.7442460116
 20
9.5602367898
 10
324.7745244156
 20
9.6327104553
 10
324.8010058237
 20
9.706791183
 10
324.8236035431
 20
9.7823001117
 10
324.8422295581
 20
9.8590172701
 10
324.8568046915
 20
9.9366782511
 10
324.8672759467
 20
10.0150508498
 10
324.8736070461
 20
10.0939379791
 10
324.8757693525
 20
10.1731214248
  0
LWPOLYLINE
  5
241
100
AcDbEntity
  8
ASSI
100
AcDbPolyline
 62
250
  6
CONTINUOUS
 90
31
 70
0
 10
323.3778250503
 20
8.6751771227
 10
323.4564279609
 20
8.6773083774
 10
323.5346880014
 20
8.6835420084
 10
323.6123927845
 20
8.6938419341
 10
323.6892891254
 20
8.7081514975
 10
323.7652164122
 20
8.7264182141
 10
323.8401016659
 20
8.7486168625
 10
323.9137904452
 20
8.7747082388
 10
323.9860314538
 20
8.8046099551
 10
324.0566075371
 20
8.8382335653
 10
324.1253186075
 20
8.8754816726
 10
324.1919882438
 20
8.9162562869
 10
324.2564429815
 20
8.9604514437
 10
324.3185104425
 20
9.0079498113
 10
324.3780189699
 20
9.0586206841
 10
324.4348052708
 20
9.1123255917
 10
324.4887151034
 20
9.168919042
 10
324.5396019189
 20
9.2282472952
 10
324.5873260787
 20
9.2901473248
 10
324.6317344466
 20
9.354414923
 10
324.6727339472
 20
9.4209092064
 10
324.7102718153
 20
9.4895625692
 10
324.7442460116
 20
9.5602367898
 10
324.7745244156
 20
9.6327104553
 10
324.8010058237
 20
9.706791183
 10
324.8236035431
 20
9.7823001117
 10
324.8422295581
 20
9.8590172701
 10
324.8568046915
 20
9.9366782511
 10
324.8672759467
 20
10.0150508498
 10
324.8736070461
 20
10.0939379791
 10
324.8757693525
 20
10.1731214248
  0
LWPOLYLINE
  5
242
100
AcDbEntity
  8
RACCORDO
100
AcDbPolyline
 62
250
  6
CONTINUOUS
 90
31
 70
0
 10
323.3778250503
 20
9.1744918901
 10
323.4305059427
 20
9.1759181397
 10
323.4826758697
 20
9.1800221137
 10
323.5343348313
 20
9.1868038118
 10
323.5855901606
 20
9.1962944805
 10
323.6363345245
 20
9.2084628735
 10
323.6862459235
 20
9.2232152519
 10
323.7353520948
 20
9.2405756212
 10
323.7836253012
 20
9.260519976
 10
323.8306603324
 20
9.2828825613
 10
323.8764407461
 20
9.3076807969
 10
323.9209829845
 20
9.3348972629
 10
323.9639311639
 20
9.3643139446
 10
324.0052745311
 20
9.395949728
 10
324.0450238395
 20
9.4297857271
 10
324.0828554646
 20
9.4655472688
 10
324.1187537055
 20
9.5032503174
 10
324.1527342632
 20
9.5428789086
 10
324.1845206173
 20
9.5841104768
 10
324.2140856709
 20
9.6269308626
 10
324.241456521
 20
9.6713542254
 10
324.2664379376
 20
9.7171004767
 10
324.2890320351
 20
9.7642035901
 10
324.3092366993
 20
9.812629592
 10
324.3268503573
 20
9.8619964741
 10
324.3418526125
 20
9.9123276708
 10
324.3542638616
 20
9.9635997477
 10
324.3639437217
 20
10.0153603927
 10
324.3708453985
 20
10.0674588353
 10
324.3750156863
 20
10.120045846
 10
324.3764545851
 20
10.1731214248
  0
LWPOLYLINE
  5
243
100
AcDbEntity
  8
ASSI
100
AcDbPolyline
 62
250
  6
CONTINUOUS
 90
31
 70
0
 10
323.3778250503
 20
9.1744918901
 10
323.4305059427
 20
9.1759181397
 10
323.4826758697
 20
9.1800221137
 10
323.5343348313
 20
9.1868038118
 10
323.5855901606
 20
9.1962944805
 10
323.6363345245
 20
9.2084628735
 10
323.6862459235
 20
9.2232152519
 10
323.7353520948
 20
9.2405756212
 10
323.7836253012
 20
9.260519976
 10
323.8306603324
 20
9.2828825613
 10
323.8764407461
 20
9.3076807969
 10
323.9209829845
 20
9.3348972629
 10
323.9639311639
 20
9.3643139446
 10
324.0052745311
 20
9.395949728
 10
324.0450238395
 20
9.4297857271
 10
324.0828554646
 20
9.4655472688
 10
324.1187537055
 20
9.5032503174
 10
324.1527342632
 20
9.5428789086
 10
324.1845206173
 20
9.5841104768
 10
324.2140856709
 20
9.6269308626
 10
324.241456521
 20
9.6713542254
 10
324.2664379376
 20
9.7171004767
 10
324.2890320351
 20
9.7642035901
 10
324.3092366993
 20
9.812629592
 10
324.3268503573
 20
9.8619964741
 10
324.3418526125
 20
9.9123276708
 10
324.3542638616
 20
9.9635997477
 10
324.3639437217
 20
10.0153603927
 10
324.3708453985
 20
10.0674588353
 10
324.3750156863
 20
10.120045846
 10
324.3764545851
 20
10.1731214248
  0
LWPOLYLINE
  5
244
100
AcDbEntity
  8
0
100
AcDbPolyline
 62
7
  6
CONTINUOUS
 90
31
 70
0
 10
323.6097906848
 20
8.4432114883
 10
323.6880958002
 20
8.4452532548
 10
323.7663370685
 20
8.4513930492
 10
323.8442993479
 20
8.4616388559
 10
323.921871847
 20
8.4760092513
 10
323.9987285959
 20
8.4944783054
 10
324.0743422716
 20
8.5169204782
 10
324.1484204384
 20
8.5432144304
 10
324.2208630268
 20
8.5732889704
 10
324.2914539783
 20
8.6070250594
 10
324.3598634371
 20
8.6442164059
 10
324.4260808768
 20
8.6848077045
 10
324.4903427222
 20
8.7289546252
 10
324.552654587
 20
8.7767426666
 10
324.6125954523
 20
8.8279340589
 10
324.6697562029
 20
8.8822112583
 10
324.7239838882
 20
8.9394307121
 10
324.7751231159
 20
8.999428755
 10
324.8228425771
 20
9.0617766826
 10
324.866909689
 20
9.1260541616
 10
324.9074107893
 20
9.1922623508
 10
324.944488984
 20
9.2606056008
 10
324.9780814405
 20
9.3310343148
 10
325.0080103846
 20
9.4032498656
 10
325.0341915651
 20
9.477112903
 10
325.0565559624
 20
9.5525451406
 10
325.0749721115
 20
9.6292386946
 10
325.0893147865
 20
9.7066924462
 10
325.0995514441
 20
9.7845908607
 10
325.1056914065
 20
9.8628167801
 10
325.1077349869
 20
9.9411557904
  0
LWPOLYLINE
  5
245
100
AcDbEntity
  8
ASSI
100
AcDbPolyline
 62
7
  6
CONTINUOUS
 90
31
 70
0
 10
323.6097906848
 20
8.4432114883
 10
323.6880958002
 20
8.4452532548
 10
323.7663370685
 20
8.4513930492
 10
323.8442993479
 20
8.4616388559
 10
323.921871847
 20
8.4760092513
 10
323.9987285959
 20
8.4944783054
 10
324.0743422716
 20
8.5169204782
 10
324.1484204384
 20
8.5432144304
 10
324.2208630268
 20
8.5732889704
 10
324.2914539783
 20
8.6070250594
 10
324.3598634371
 20
8.6442164059
 10
324.4260808768
 20
8.6848077045
 10
324.4903427222
 20
8.7289546252
 10
324.552654587
 20
8.7767426666
 10
324.6125954523
 20
8.8279340589
 10
324.6697562029
 20
8.8822112583
 10
324.7239838882
 20
8.9394307121
 10
324.7751231159
 20
8.999428755
 10
324.8228425771
 20
9.0617766826
 10
324.866909689
 20
9.1260541616
 10
324.9074107893
 20
9.1922623508
 10
324.944488984
 20
9.2606056008
 10
324.9780814405
 20
9.3310343148
 10
325.0080103846
 20
9.4032498656
 10
325.0341915651
 20
9.477112903
 10
325.0565559624
 20
9.5525451406
 10
325.0749721115
 20
9.6292386946
 10
325.0893147865
 20
9.7066924462
 10
325.0995514441
 20
9.7845908607
 10
325.1056914065
 20
9.8628167801
 10
325.1077349869
 20
9.9411557904
  0
LINE
  5
246
100
AcDbEntity
  8
0
100
AcDbLine
 62
7
  6
CONTINUOUS
 10
238.6056792891
 20
8.4432114883
 11
323.6097906848
 21
8.4432114883
  0
LINE
  5
247
100
AcDbEntity
  8
ASSI
100
AcDbLine
 62
7
  6
CONTINUOUS
 10
238.6056792891
 20
8.4432114883
 11
323.6097906848
 21
8.4432114883
  0
LINE
  5
248
100
AcDbEntity
  8
RACCORDO
100
AcDbLine
 62
250
  6
CONTINUOUS
 10
238.8376449235
 20
8.6751771227
 11
323.3778250503
 21
8.6751771227
  0
LINE
  5
249
100
AcDbEntity
  8
ASSI
100
AcDbLine
 62
250
  6
CONTINUOUS
 10
238.8376449235
 20
8.6751771227
 11
323.3778250503
 21
8.6751771227
  0
LINE
  5
24A
100
AcDbEntity
  8
RACCORDO
100
AcDbLine
 62
250
  6
CONTINUOUS
 10
238.8376449235
 20
9.1744918901
 11
323.3778250503
 21
9.1744918901
  0
LINE
  5
24B
100
AcDbEntity
  8
ASSI
100
AcDbLine
 62
250
  6
CONTINUOUS
 10
238.8376449235
 20
9.1744918901
 11
323.3778250503
 21
9.1744918901
  0
LINE
  5
24C
100
AcDbEntity
  8
RACCORDO
100
AcDbLine
 62
250
  6
CONTINUOUS
 10
237.8390153888
 20
10.1731214248
 11
237.3397006214
 21
10.1731214248
  0
LINE
  5
24D
100
AcDbEntity
  8
ASSI
100
AcDbLine
 62
250
  6
CONTINUOUS
 10
237.8390153888
 20
10.1731214248
 11
237.3397006214
 21
10.1731214248
  0
LINE
  5
24E
100
AcDbEntity
  8
RACCORDO
100
AcDbLine
 62
250
  6
CONTINUOUS
 10
324.3764545851
 20
10.1731214248
 11
324.8757693525
 21
10.1731214248
  0
LINE
  5
24F
100
AcDbEntity
  8
ASSI
100
AcDbLine
 62
250
  6
CONTINUOUS
 10
324.3764545851
 20
10.1731214248
 11
324.8757693525
 21
10.1731214248
  0
LINE
  5
250
100
AcDbEntity
  8
SCRITTE
100
AcDbLine
 62
250
  6
CONTINUOUS
 10
325.0425913312
 20
15.7432754883
 11
324.9377779737
 21
15.7432754883
  0
LINE
  5
251
100
AcDbEntity
  8
SCRITTE
100
AcDbLine
 62
250
  6
CONTINUOUS
 10
324.9377779737
 20
16.1607194883
 11
325.0425913312
 21
16.1607194883
  0
LINE
  5
252
100
AcDbEntity
  8
SCRITTE
100
AcDbLine
 62
250
  6
CONTINUOUS
 10
325.0425913451
 20
20.2464603199
 11
324.9390087924
 21
20.2464603199
  0
LINE
  5
253
100
AcDbEntity
  8
SCRITTE
100
AcDbLine
 62
250
  6
CONTINUOUS
 10
324.955639217
 20
20.6483833729
 11
324.9844107947
 21
20.6483833729
  0
LINE
  5
254
100
AcDbEntity
  8
SCRITTE
100
AcDbLine
 62
250
  6
CONTINUOUS
 10
325.0015756565
 20
20.6622252064
 11
325.0425913451
 21
20.6622252064
  0
LINE
  5
255
100
AcDbEntity
  8
SCRITTE
100
AcDbLine
 62
250
  6
CONTINUOUS
 10
324.9930490271
 20
21.3196897998
 11
324.9936683454
 21
21.3196897998
  0
LWPOLYLINE
  5
256
100
AcDbEntity
  8
RACCORDO
100
AcDbPolyline
 62
250
  6
CONTINUOUS
 90
25
 70
0
 10
258.8738399149
 20
26.6593925686
 10
258.841425695
 20
26.6604379987
 10
258.8090690171
 20
26.6635925005
 10
258.7769080649
 20
26.668858294
 10
258.7450448579
 20
26.676238283
 10
258.7136572011
 20
26.6857113149
 10
258.6829908218
 20
26.6972080936
 10
258.6531978696
 20
26.7106617065
 10
258.6243785916
 20
26.7260166797
 10
258.5966844181
 20
26.7431805861
 10
258.5702629418
 20
26.7620399465
 10
258.545176499
 20
26.7825273127
 10
258.5214481693
 20
26.8046186923
 10
258.4991905608
 20
26.8282157262
 10
258.4784918042
 20
26.8532319255
 10
258.4593638997
 20
26.8796841711
 10
258.4418717722
 20
26.9075555451
 10
258.426173983
 20
26.9366741457
 10
258.412415929
 20
26.9668176938
 10
258.4006549071
 20
26.9978960729
 10
258.3909705692
 20
27.0297401093
 10
258.3834625773
 20
27.0619761983
 10
258.3781382012
 20
27.0943753703
 10
258.3749635976
 20
27.1268694332
 10
258.3739160674
 20
27.1593164163
  0
LWPOLYLINE
  5
257
100
AcDbEntity
  8
ASSI
100
AcDbPolyline
 62
250
  6
CONTINUOUS
 90
25
 70
0
 10
258.8738399149
 20
26.6593925686
 10
258.841425695
 20
26.6604379987
 10
258.8090690171
 20
26.6635925005
 10
258.7769080649
 20
26.668858294
 10
258.7450448579
 20
26.676238283
 10
258.7136572011
 20
26.6857113149
 10
258.6829908218
 20
26.6972080936
 10
258.6531978696
 20
26.7106617065
 10
258.6243785916
 20
26.7260166797
 10
258.5966844181
 20
26.7431805861
 10
258.5702629418
 20
26.7620399465
 10
258.545176499
 20
26.7825273127
 10
258.5214481693
 20
26.8046186923
 10
258.4991905608
 20
26.8282157262
 10
258.4784918042
 20
26.8532319255
 10
258.4593638997
 20
26.8796841711
 10
258.4418717722
 20
26.9075555451
 10
258.426173983
 20
26.9366741457
 10
258.412415929
 20
26.9668176938
 10
258.4006549071
 20
26.9978960729
 10
258.3909705692
 20
27.0297401093
 10
258.3834625773
 20
27.0619761983
 10
258.3781382012
 20
27.0943753703
 10
258.3749635976
 20
27.1268694332
 10
258.3739160674
 20
27.1593164163
  0
LWPOLYLINE
  5
258
100
AcDbEntity
  8
RACCORDO
100
AcDbPolyline
 62
250
  6
CONTINUOUS
 90
25
 70
0
 10
258.8738399122
 20
26.3594382574
 10
258.8216162268
 20
26.3611387092
 10
258.7699277603
 20
26.3661956175
 10
258.7187745128
 20
26.3746089824
 10
258.6678841511
 20
26.3864535876
 10
258.6175290083
 20
26.4016546494
 10
258.5685260844
 20
26.4199878161
 10
258.5209427303
 20
26.4415061454
 10
258.4747115952
 20
26.4661565796
 10
258.4304476257
 20
26.4935555941
 10
258.3882324394
 20
26.5236842825
 10
258.3479844188
 20
26.5565615512
 10
258.3100736588
 20
26.5918605948
 10
258.27450594
 20
26.6295648876
 10
258.2412754817
 20
26.6696909553
 10
258.2107350368
 20
26.7119615693
 10
258.1828327943
 20
26.756523896
 10
258.1576205651
 20
26.803230769
 10
258.1356065351
 20
26.8513634607
 10
258.1168763645
 20
26.9010286149
 10
258.101344393
 20
26.9521195878
 10
258.0892618258
 20
27.00359772
 10
258.0807123982
 20
27.0551167919
 10
258.0756123749
 20
27.107023023
 10
258.0739617561
 20
27.1593164135
  0
LWPOLYLINE
  5
259
100
AcDbEntity
  8
ASSI
100
AcDbPolyline
 62
250
  6
CONTINUOUS
 90
25
 70
0
 10
258.8738399122
 20
26.3594382574
 10
258.8216162268
 20
26.3611387092
 10
258.7699277603
 20
26.3661956175
 10
258.7187745128
 20
26.3746089824
 10
258.6678841511
 20
26.3864535876
 10
258.6175290083
 20
26.4016546494
 10
258.5685260844
 20
26.4199878161
 10
258.5209427303
 20
26.4415061454
 10
258.4747115952
 20
26.4661565796
 10
258.4304476257
 20
26.4935555941
 10
258.3882324394
 20
26.5236842825
 10
258.3479844188
 20
26.5565615512
 10
258.3100736588
 20
26.5918605948
 10
258.27450594
 20
26.6295648876
 10
258.2412754817
 20
26.6696909553
 10
258.2107350368
 20
26.7119615693
 10
258.1828327943
 20
26.756523896
 10
258.1576205651
 20
26.803230769
 10
258.1356065351
 20
26.8513634607
 10
258.1168763645
 20
26.9010286149
 10
258.101344393
 20
26.9521195878
 10
258.0892618258
 20
27.00359772
 10
258.0807123982
 20
27.0551167919
 10
258.0756123749
 20
27.107023023
 10
258.0739617561
 20
27.1593164135
  0
LWPOLYLINE
  5
25A
100
AcDbEntity
  8
0
100
AcDbPolyline
 62
7
  6
CONTINUOUS
 90
13
 70
0
 43
0.3499999917
 10
279.1791577148
 20
2.9074960327
 10
278.893458252
 20
3.1217834473
 10
278.893458252
 20
3.7646392822
 10
279.1791577148
 20
4.193210907
 10
279.8220263672
 20
4.193210907
 10
280.1077258301
 20
3.7646392822
 10
280.1077258301
 20
3.1217834473
 10
279.8220263672
 20
2.9074960327
 10
280.2505883789
 20
2.478924408
 10
280.2505883789
 20
1.6217843628
 10
279.8220263672
 20
1.193212738
 10
279.1791577148
 20
1.193212738
 10
278.7505957031
 20
1.6217843628
  0
LINE
  5
25B
100
AcDbEntity
  8
RACCORDO
100
AcDbLine
 62
250
  6
CONTINUOUS
 10
303.3416300617
 20
26.3594382574
 11
258.8738399122
 21
26.3594382574
  0
LINE
  5
25C
100
AcDbEntity
  8
ASSI
100
AcDbLine
 62
250
  6
CONTINUOUS
 10
303.3416300617
 20
26.3594382574
 11
258.8738399122
 21
26.3594382574
  0
LINE
  5
25D
100
AcDbEntity
  8
RACCORDO
100
AcDbLine
 62
250
  6
CONTINUOUS
 10
303.3416300617
 20
26.6593925659
 11
258.8738399122
 21
26.6593925659
  0
LINE
  5
25E
100
AcDbEntity
  8
ASSI
100
AcDbLine
 62
250
  6
CONTINUOUS
 10
303.3416300617
 20
26.6593925659
 11
258.8738399122
 21
26.6593925659
  0
LINE
  5
25F
100
AcDbEntity
  8
RACCORDO
100
AcDbLine
 62
7
  6
CONTINUOUS
 10
258.8826588345
 20
26.6682114883
 11
303.3328111394
 21
26.6682114883
  0
LINE
  5
260
100
AcDbEntity
  8
ASSI
100
AcDbLine
 62
7
  6
CONTINUOUS
 10
258.8826588345
 20
26.6682114883
 11
303.3328111394
 21
26.6682114883
  0
LINE
  5
261
100
AcDbEntity
  8
RACCORDO
100
AcDbLine
 62
250
  6
CONTINUOUS
 10
304.1415082178
 20
27.1593164135
 11
303.8415539093
 21
27.1593164135
  0
LINE
  5
262
100
AcDbEntity
  8
ASSI
100
AcDbLine
 62
250
  6
CONTINUOUS
 10
304.1415082178
 20
27.1593164135
 11
303.8415539093
 21
27.1593164135
  0
LINE
  5
263
100
AcDbEntity
  8
RACCORDO
100
AcDbLine
 62
250
  6
CONTINUOUS
 10
258.0739617561
 20
27.1593164135
 11
258.3739160646
 21
27.1593164135
  0
LINE
  5
264
100
AcDbEntity
  8
ASSI
100
AcDbLine
 62
250
  6
CONTINUOUS
 10
258.0739617561
 20
27.1593164135
 11
258.3739160646
 21
27.1593164135
  0
LWPOLYLINE
  5
265
100
AcDbEntity
  8
0
100
AcDbPolyline
 62
7
  6
CONTINUOUS
 90
13
 70
0
 43
0.3499999917
 10
281.5363000488
 20
2.9074960327
 10
281.2506005859
 20
3.1217834473
 10
281.2506005859
 20
3.7646392822
 10
281.5363000488
 20
4.193210907
 10
282.1791687012
 20
4.193210907
 10
282.4648681641
 20
3.7646392822
 10
282.4648681641
 20
3.1217834473
 10
282.1791687012
 20
2.9074960327
 10
282.6077307129
 20
2.478924408
 10
282.6077307129
 20
1.6217843628
 10
282.1791687012
 20
1.193212738
 10
281.5363000488
 20
1.193212738
 10
281.1077380371
 20
1.6217843628
  0
LINE
  5
266
100
AcDbEntity
  8
RACCORDO
100
AcDbLine
 62
250
  6
CONTINUOUS
 10
303.3416300617
 20
222.2270304106
 11
303.3328111394
 21
222.2182114883
  0
LINE
  5
267
100
AcDbEntity
  8
ASSI
100
AcDbLine
 62
250
  6
CONTINUOUS
 10
303.3416300617
 20
222.2270304106
 11
303.3328111394
 21
222.2182114883
  0
LINE
  5
268
100
AcDbEntity
  8
RACCORDO
100
AcDbLine
 62
250
  6
CONTINUOUS
 10
303.8415539093
 20
221.727106563
 11
303.8327349869
 21
221.7182876407
  0
LINE
  5
269
100
AcDbEntity
  8
ASSI
100
AcDbLine
 62
250
  6
CONTINUOUS
 10
303.8415539093
 20
221.727106563
 11
303.8327349869
 21
221.7182876407
  0
LINE
  5
26A
100
AcDbEntity
  8
RACCORDO
100
AcDbLine
 62
250
  6
CONTINUOUS
 10
323.3778250503
 20
240.2112458538
 11
323.6097906848
 21
240.4432114883
  0
LINE
  5
26B
100
AcDbEntity
  8
ASSI
100
AcDbLine
 62
250
  6
CONTINUOUS
 10
323.3778250503
 20
240.2112458538
 11
323.6097906848
 21
240.4432114883
  0
LINE
  5
26C
100
AcDbEntity
  8
RACCORDO
100
AcDbLine
 62
250
  6
CONTINUOUS
 10
324.8757693525
 20
238.7133015517
 11
325.1077349869
 21
238.9452671861
  0
LINE
  5
26D
100
AcDbEntity
  8
ASSI
100
AcDbLine
 62
250
  6
CONTINUOUS
 10
324.8757693525
 20
238.7133015517
 11
325.1077349869
 21
238.9452671861
  0
LINE
  5
26E
100
AcDbEntity
  8
RACCORDO
100
AcDbLine
 62
250
  6
CONTINUOUS
 10
303.3416300617
 20
26.6593925659
 11
303.3328111394
 21
26.6682114883
  0
LINE
  5
26F
100
AcDbEntity
  8
ASSI
100
AcDbLine
 62
250
  6
CONTINUOUS
 10
303.3416300617
 20
26.6593925659
 11
303.3328111394
 21
26.6682114883
  0
LINE
  5
270
100
AcDbEntity
  8
RACCORDO
100
AcDbLine
 62
250
  6
CONTINUOUS
 10
303.8415539093
 20
27.1593164135
 11
303.8327349869
 21
27.1681353358
  0
LINE
  5
271
100
AcDbEntity
  8
ASSI
100
AcDbLine
 62
250
  6
CONTINUOUS
 10
303.8415539093
 20
27.1593164135
 11
303.8327349869
 21
27.1681353358
  0
LINE
  5
272
100
AcDbEntity
  8
RACCORDO
100
AcDbLine
 62
250
  6
CONTINUOUS
 10
323.3778250503
 20
8.6751771227
 11
323.6097906848
 21
8.4432114883
  0
LINE
  5
273
100
AcDbEntity
  8
ASSI
100
AcDbLine
 62
250
  6
CONTINUOUS
 10
323.3778250503
 20
8.6751771227
 11
323.6097906848
 21
8.4432114883
  0
LINE
  5
274
100
AcDbEntity
  8
RACCORDO
100
AcDbLine
 62
250
  6
CONTINUOUS
 10
324.8757693525
 20
10.1731214248
 11
325.1077349869
 21
9.9411557904
  0
LINE
  5
275
100
AcDbEntity
  8
ASSI
100
AcDbLine
 62
250
  6
CONTINUOUS
 10
324.8757693525
 20
10.1731214248
 11
325.1077349869
 21
9.9411557904
  0
LWPOLYLINE
  5
276
100
AcDbEntity
  8
RACCORDO
100
AcDbPolyline
 62
250
  6
CONTINUOUS
 90
31
 70
0
 10
237.3397006214
 20
10.1731214248
 10
237.3418318761
 20
10.0945185143
 10
237.3480655071
 20
10.0162584737
 10
237.3583654328
 20
9.9385536907
 10
237.3726749962
 20
9.8616573498
 10
237.3909417128
 20
9.785730063
 10
237.4131403612
 20
9.7108448093
 10
237.4392317375
 20
9.63715603
 10
237.4691334538
 20
9.5649150214
 10
237.502757064
 20
9.4943389381
 10
237.5400051713
 20
9.4256278677
 10
237.5807797856
 20
9.3589582314
 10
237.6249749424
 20
9.2945034937
 10
237.67247331
 20
9.2324360327
 10
237.7231441828
 20
9.1729275053
 10
237.7768490904
 20
9.1161412044
 10
237.8334425407
 20
9.0622313718
 10
237.8927707939
 20
9.0113445563
 10
237.9546708235
 20
8.9636203965
 10
238.0189384217
 20
8.9192120286
 10
238.0854327051
 20
8.878212528
 10
238.1540860679
 20
8.8406746599
 10
238.2247602885
 20
8.8067004636
 10
238.297233954
 20
8.7764220596
 10
238.3713146817
 20
8.7499406515
 10
238.4468236104
 20
8.7273429321
 10
238.5235407688
 20
8.7087169171
 10
238.6012017498
 20
8.6941417837
 10
238.6795743485
 20
8.6836705285
 10
238.7584614778
 20
8.6773394291
 10
238.8376449235
 20
8.6751771227
  0
LWPOLYLINE
  5
277
100
AcDbEntity
  8
ASSI
100
AcDbPolyline
 62
250
  6
CONTINUOUS
 90
31
 70
0
 10
237.3397006214
 20
10.1731214248
 10
237.3418318761
 20
10.0945185143
 10
237.3480655071
 20
10.0162584737
 10
237.3583654328
 20
9.9385536907
 10
237.3726749962
 20
9.8616573498
 10
237.3909417128
 20
9.785730063
 10
237.4131403612
 20
9.7108448093
 10
237.4392317375
 20
9.63715603
 10
237.4691334538
 20
9.5649150214
 10
237.502757064
 20
9.4943389381
 10
237.5400051713
 20
9.4256278677
 10
237.5807797856
 20
9.3589582314
 10
237.6249749424
 20
9.2945034937
 10
237.67247331
 20
9.2324360327
 10
237.7231441828
 20
9.1729275053
 10
237.7768490904
 20
9.1161412044
 10
237.8334425407
 20
9.0622313718
 10
237.8927707939
 20
9.0113445563
 10
237.9546708235
 20
8.9636203965
 10
238.0189384217
 20
8.9192120286
 10
238.0854327051
 20
8.878212528
 10
238.1540860679
 20
8.8406746599
 10
238.2247602885
 20
8.8067004636
 10
238.297233954
 20
8.7764220596
 10
238.3713146817
 20
8.7499406515
 10
238.4468236104
 20
8.7273429321
 10
238.5235407688
 20
8.7087169171
 10
238.6012017498
 20
8.6941417837
 10
238.6795743485
 20
8.6836705285
 10
238.7584614778
 20
8.6773394291
 10
238.8376449235
 20
8.6751771227
  0
LWPOLYLINE
  5
278
100
AcDbEntity
  8
RACCORDO
100
AcDbPolyline
 62
250
  6
CONTINUOUS
 90
31
 70
0
 10
237.8390153888
 20
10.1731214248
 10
237.8404416384
 20
10.1204405325
 10
237.8445456124
 20
10.0682706055
 10
237.8513273105
 20
10.0166116439
 10
237.8608179792
 20
9.9653563146
 10
237.8729863722
 20
9.9146119507
 10
237.8877387506
 20
9.8647005517
 10
237.9050991199
 20
9.8155943804
 10
237.9250434747
 20
9.767321174
 10
237.94740606
 20
9.7202861428
 10
237.9722042956
 20
9.6745057291
 10
237.9994207616
 20
9.6299634907
 10
238.0288374433
 20
9.5870153113
 10
238.0604732267
 20
9.545671944
 10
238.0943092258
 20
9.5059226357
 10
238.1300707674
 20
9.4680910105
 10
238.1677738161
 20
9.4321927697
 10
238.2074024073
 20
9.398212212
 10
238.2486339754
 20
9.3664258579
 10
238.2914543613
 20
9.3368608043
 10
238.3358777241
 20
9.3094899542
 10
238.3816239754
 20
9.2845085376
 10
238.4287270888
 20
9.2619144401
 10
238.4771530907
 20
9.2417097759
 10
238.5265199728
 20
9.2240961179
 10
238.5768511695
 20
9.2090938627
 10
238.6281232464
 20
9.1966826136
 10
238.6798838914
 20
9.1870027535
 10
238.7319823339
 20
9.1801010767
 10
238.7845693447
 20
9.1759307889
 10
238.8376449235
 20
9.1744918901
  0
LWPOLYLINE
  5
279
100
AcDbEntity
  8
ASSI
100
AcDbPolyline
 62
250
  6
CONTINUOUS
 90
31
 70
0
 10
237.8390153888
 20
10.1731214248
 10
237.8404416384
 20
10.1204405325
 10
237.8445456124
 20
10.0682706055
 10
237.8513273105
 20
10.0166116439
 10
237.8608179792
 20
9.9653563146
 10
237.8729863722
 20
9.9146119507
 10
237.8877387506
 20
9.8647005517
 10
237.9050991199
 20
9.8155943804
 10
237.9250434747
 20
9.767321174
 10
237.94740606
 20
9.7202861428
 10
237.9722042956
 20
9.6745057291
 10
237.9994207616
 20
9.6299634907
 10
238.0288374433
 20
9.5870153113
 10
238.0604732267
 20
9.545671944
 10
238.0943092258
 20
9.5059226357
 10
238.1300707674
 20
9.4680910105
 10
238.1677738161
 20
9.4321927697
 10
238.2074024073
 20
9.398212212
 10
238.2486339754
 20
9.3664258579
 10
238.2914543613
 20
9.3368608043
 10
238.3358777241
 20
9.3094899542
 10
238.3816239754
 20
9.2845085376
 10
238.4287270888
 20
9.2619144401
 10
238.4771530907
 20
9.2417097759
 10
238.5265199728
 20
9.2240961179
 10
238.5768511695
 20
9.2090938627
 10
238.6281232464
 20
9.1966826136
 10
238.6798838914
 20
9.1870027535
 10
238.7319823339
 20
9.1801010767
 10
238.7845693447
 20
9.1759307889
 10
238.8376449235
 20
9.1744918901
  0
LWPOLYLINE
  5
27A
100
AcDbEntity
  8
0
100
AcDbPolyline
 62
7
  6
CONTINUOUS
 90
31
 70
0
 10
237.1077349869
 20
9.9411557904
 10
237.1097767535
 20
9.862850675
 10
237.1159165479
 20
9.7846094067
 10
237.1261623546
 20
9.7066471273
 10
237.14053275
 20
9.6290746282
 10
237.1590018041
 20
9.5522178793
 10
237.1814439769
 20
9.4766042036
 10
237.2077379291
 20
9.4025260368
 10
237.2378124691
 20
9.3300834484
 10
237.2715485581
 20
9.2594924969
 10
237.3087399046
 20
9.1910830381
 10
237.3493312032
 20
9.1248655984
 10
237.3934781239
 20
9.060603753
 10
237.4412661653
 20
8.9982918882
 10
237.4924575576
 20
8.9383510229
 10
237.546734757
 20
8.8811902723
 10
237.6039542108
 20
8.826962587
 10
237.6639522537
 20
8.7758233593
 10
237.7263001813
 20
8.7281038981
 10
237.7905776603
 20
8.6840367862
 10
237.8567858495
 20
8.6435356859
 10
237.9251290995
 20
8.6064574912
 10
237.9955578135
 20
8.5728650347
 10
238.0677733643
 20
8.5429360905
 10
238.1416364017
 20
8.5167549101
 10
238.2170686393
 20
8.4943905128
 10
238.2937621933
 20
8.4759743637
 10
238.3712159449
 20
8.4616316887
 10
238.4491143594
 20
8.4513950311
 10
238.5273402788
 20
8.4452550687
 10
238.6056792891
 20
8.4432114883
  0
LWPOLYLINE
  5
27B
100
AcDbEntity
  8
ASSI
100
AcDbPolyline
 62
7
  6
CONTINUOUS
 90
31
 70
0
 10
237.1077349869
 20
9.9411557904
 10
237.1097767535
 20
9.862850675
 10
237.1159165479
 20
9.7846094067
 10
237.1261623546
 20
9.7066471273
 10
237.14053275
 20
9.6290746282
 10
237.1590018041
 20
9.5522178793
 10
237.1814439769
 20
9.4766042036
 10
237.2077379291
 20
9.4025260368
 10
237.2378124691
 20
9.3300834484
 10
237.2715485581
 20
9.2594924969
 10
237.3087399046
 20
9.1910830381
 10
237.3493312032
 20
9.1248655984
 10
237.3934781239
 20
9.060603753
 10
237.4412661653
 20
8.9982918882
 10
237.4924575576
 20
8.9383510229
 10
237.546734757
 20
8.8811902723
 10
237.6039542108
 20
8.826962587
 10
237.6639522537
 20
8.7758233593
 10
237.7263001813
 20
8.7281038981
 10
237.7905776603
 20
8.6840367862
 10
237.8567858495
 20
8.6435356859
 10
237.9251290995
 20
8.6064574912
 10
237.9955578135
 20
8.5728650347
 10
238.0677733643
 20
8.5429360905
 10
238.1416364017
 20
8.5167549101
 10
238.2170686393
 20
8.4943905128
 10
238.2937621933
 20
8.4759743637
 10
238.3712159449
 20
8.4616316887
 10
238.4491143594
 20
8.4513950311
 10
238.5273402788
 20
8.4452550687
 10
238.6056792891
 20
8.4432114883
  0
LINE
  5
27C
100
AcDbEntity
  8
0
100
AcDbLine
 62
7
  6
CONTINUOUS
 10
237.1077349869
 20
238.9452671861
 11
237.1077349869
 21
9.9411557904
  0
LINE
  5
27D
100
AcDbEntity
  8
ASSI
100
AcDbLine
 62
7
  6
CONTINUOUS
 10
237.1077349869
 20
238.9452671861
 11
237.1077349869
 21
9.9411557904
  0
LINE
  5
27E
100
AcDbEntity
  8
RACCORDO
100
AcDbLine
 62
250
  6
CONTINUOUS
 10
237.3397006214
 20
238.7133015517
 11
237.3397006214
 21
10.1731214248
  0
LINE
  5
27F
100
AcDbEntity
  8
ASSI
100
AcDbLine
 62
250
  6
CONTINUOUS
 10
237.3397006214
 20
238.7133015517
 11
237.3397006214
 21
10.1731214248
  0
LINE
  5
280
100
AcDbEntity
  8
RACCORDO
100
AcDbLine
 62
250
  6
CONTINUOUS
 10
237.8390153888
 20
238.7133015517
 11
237.8390153888
 21
10.1731214248
  0
LINE
  5
281
100
AcDbEntity
  8
ASSI
100
AcDbLine
 62
250
  6
CONTINUOUS
 10
237.8390153888
 20
238.7133015517
 11
237.8390153888
 21
10.1731214248
  0
LINE
  5
282
100
AcDbEntity
  8
RACCORDO
100
AcDbLine
 62
250
  6
CONTINUOUS
 10
238.8376449235
 20
9.1744918901
 11
238.8376449235
 21
8.6751771227
  0
LINE
  5
283
100
AcDbEntity
  8
ASSI
100
AcDbLine
 62
250
  6
CONTINUOUS
 10
238.8376449235
 20
9.1744918901
 11
238.8376449235
 21
8.6751771227
  0
LINE
  5
284
100
AcDbEntity
  8
RACCORDO
100
AcDbLine
 62
250
  6
CONTINUOUS
 10
238.8376449235
 20
239.7119310864
 11
238.8376449235
 21
240.2112458538
  0
LINE
  5
285
100
AcDbEntity
  8
ASSI
100
AcDbLine
 62
250
  6
CONTINUOUS
 10
238.8376449235
 20
239.7119310864
 11
238.8376449235
 21
240.2112458538
  0
LINE
  5
286
100
AcDbEntity
  8
RACCORDO
100
AcDbLine
 62
250
  6
CONTINUOUS
 10
258.3739160646
 20
169.1593164135
 11
258.3827349869
 21
169.1681353358
  0
LINE
  5
287
100
AcDbEntity
  8
ASSI
100
AcDbLine
 62
250
  6
CONTINUOUS
 10
258.3739160646
 20
169.1593164135
 11
258.3827349869
 21
169.1681353358
  0
LINE
  5
288
100
AcDbEntity
  8
RACCORDO
100
AcDbLine
 62
250
  6
CONTINUOUS
 10
258.8738399122
 20
168.6593925659
 11
258.8826588345
 21
168.6682114883
  0
LINE
  5
289
100
AcDbEntity
  8
ASSI
100
AcDbLine
 62
250
  6
CONTINUOUS
 10
258.8738399122
 20
168.6593925659
 11
258.8826588345
 21
168.6682114883
  0
LINE
  5
28A
100
AcDbEntity
  8
RACCORDO
100
AcDbLine
 62
250
  6
CONTINUOUS
 10
304.1415082178
 20
79.727106563
 11
303.8415539093
 21
79.727106563
  0
LINE
  5
28B
100
AcDbEntity
  8
ASSI
100
AcDbLine
 62
250
  6
CONTINUOUS
 10
304.1415082178
 20
79.727106563
 11
303.8415539093
 21
79.727106563
  0
LINE
  5
28C
100
AcDbEntity
  8
RACCORDO
100
AcDbLine
 62
250
  6
CONTINUOUS
 10
258.0739617561
 20
79.727106563
 11
258.3739160646
 21
79.727106563
  0
LINE
  5
28D
100
AcDbEntity
  8
ASSI
100
AcDbLine
 62
250
  6
CONTINUOUS
 10
258.0739617561
 20
79.727106563
 11
258.3739160646
 21
79.727106563
  0
LINE
  5
28E
100
AcDbEntity
  8
RACCORDO
100
AcDbLine
 62
7
  6
CONTINUOUS
 10
303.3328111394
 20
80.2182114883
 11
258.8826588345
 21
80.2182114883
  0
LINE
  5
28F
100
AcDbEntity
  8
ASSI
100
AcDbLine
 62
7
  6
CONTINUOUS
 10
303.3328111394
 20
80.2182114883
 11
258.8826588345
 21
80.2182114883
  0
LINE
  5
290
100
AcDbEntity
  8
RACCORDO
100
AcDbLine
 62
250
  6
CONTINUOUS
 10
258.8738399122
 20
80.2270304106
 11
303.3416300617
 21
80.2270304106
  0
LINE
  5
291
100
AcDbEntity
  8
ASSI
100
AcDbLine
 62
250
  6
CONTINUOUS
 10
258.8738399122
 20
80.2270304106
 11
303.3416300617
 21
80.2270304106
  0
LINE
  5
292
100
AcDbEntity
  8
RACCORDO
100
AcDbLine
 62
250
  6
CONTINUOUS
 10
258.8738399122
 20
80.5269847191
 11
303.3416300617
 21
80.5269847191
  0
LINE
  5
293
100
AcDbEntity
  8
ASSI
100
AcDbLine
 62
250
  6
CONTINUOUS
 10
258.8738399122
 20
80.5269847191
 11
303.3416300617
 21
80.5269847191
  0
LWPOLYLINE
  5
294
100
AcDbEntity
  8
RACCORDO
100
AcDbPolyline
 62
250
  6
CONTINUOUS
 90
25
 70
0
 10
303.341630059
 20
80.2270304079
 10
303.3740442789
 20
80.2259849778
 10
303.4064009568
 20
80.222830476
 10
303.438561909
 20
80.2175646825
 10
303.470425116
 20
80.2101846935
 10
303.5018127728
 20
80.2007116616
 10
303.5324791521
 20
80.1892148829
 10
303.5622721043
 20
80.17576127
 10
303.5910913823
 20
80.1604062968
 10
303.6187855558
 20
80.1432423904
 10
303.6452070321
 20
80.12438303
 10
303.6702934749
 20
80.1038956638
 10
303.6940218046
 20
80.0818042842
 10
303.7162794131
 20
80.0582072503
 10
303.7369781697
 20
80.033191051
 10
303.7561060742
 20
80.0067388054
 10
303.7735982017
 20
79.9788674314
 10
303.7892959909
 20
79.9497488308
 10
303.8030540449
 20
79.9196052827
 10
303.8148150668
 20
79.8885269036
 10
303.8244994047
 20
79.8566828672
 10
303.8320073966
 20
79.8244467782
 10
303.8373317727
 20
79.7920476062
 10
303.8405063763
 20
79.7595535433
 10
303.8415539064
 20
79.7271065602
  0
LWPOLYLINE
  5
295
100
AcDbEntity
  8
ASSI
100
AcDbPolyline
 62
250
  6
CONTINUOUS
 90
25
 70
0
 10
303.341630059
 20
80.2270304079
 10
303.3740442789
 20
80.2259849778
 10
303.4064009568
 20
80.222830476
 10
303.438561909
 20
80.2175646825
 10
303.470425116
 20
80.2101846935
 10
303.5018127728
 20
80.2007116616
 10
303.5324791521
 20
80.1892148829
 10
303.5622721043
 20
80.17576127
 10
303.5910913823
 20
80.1604062968
 10
303.6187855558
 20
80.1432423904
 10
303.6452070321
 20
80.12438303
 10
303.6702934749
 20
80.1038956638
 10
303.6940218046
 20
80.0818042842
 10
303.7162794131
 20
80.0582072503
 10
303.7369781697
 20
80.033191051
 10
303.7561060742
 20
80.0067388054
 10
303.7735982017
 20
79.9788674314
 10
303.7892959909
 20
79.9497488308
 10
303.8030540449
 20
79.9196052827
 10
303.8148150668
 20
79.8885269036
 10
303.8244994047
 20
79.8566828672
 10
303.8320073966
 20
79.8244467782
 10
303.8373317727
 20
79.7920476062
 10
303.8405063763
 20
79.7595535433
 10
303.8415539064
 20
79.7271065602
  0
LWPOLYLINE
  5
296
100
AcDbEntity
  8
RACCORDO
100
AcDbPolyline
 62
250
  6
CONTINUOUS
 90
25
 70
0
 10
303.3416300617
 20
80.5269847191
 10
303.3938537471
 20
80.5252842673
 10
303.4455422136
 20
80.520227359
 10
303.496695461
 20
80.5118139941
 10
303.5475858228
 20
80.4999693889
 10
303.5979409656
 20
80.4847683271
 10
303.6469438895
 20
80.4664351604
 10
303.6945272435
 20
80.4449168311
 10
303.7407583787
 20
80.4202663969
 10
303.7850223481
 20
80.3928673824
 10
303.8272375345
 20
80.362738694
 10
303.8674855551
 20
80.3298614253
 10
303.9053963151
 20
80.2945623817
 10
303.9409640339
 20
80.2568580889
 10
303.9741944922
 20
80.2167320212
 10
304.0047349371
 20
80.1744614072
 10
304.0326371796
 20
80.1298990805
 10
304.0578494088
 20
80.0831922075
 10
304.0798634388
 20
80.0350595158
 10
304.0985936094
 20
79.9853943616
 10
304.1141255809
 20
79.9343033887
 10
304.126208148
 20
79.8828252565
 10
304.1347575757
 20
79.8313061846
 10
304.139857599
 20
79.7793999535
 10
304.1415082178
 20
79.727106563
  0
LWPOLYLINE
  5
297
100
AcDbEntity
  8
ASSI
100
AcDbPolyline
 62
250
  6
CONTINUOUS
 90
25
 70
0
 10
303.3416300617
 20
80.5269847191
 10
303.3938537471
 20
80.5252842673
 10
303.4455422136
 20
80.520227359
 10
303.496695461
 20
80.5118139941
 10
303.5475858228
 20
80.4999693889
 10
303.5979409656
 20
80.4847683271
 10
303.6469438895
 20
80.4664351604
 10
303.6945272435
 20
80.4449168311
 10
303.7407583787
 20
80.4202663969
 10
303.7850223481
 20
80.3928673824
 10
303.8272375345
 20
80.362738694
 10
303.8674855551
 20
80.3298614253
 10
303.9053963151
 20
80.2945623817
 10
303.9409640339
 20
80.2568580889
 10
303.9741944922
 20
80.2167320212
 10
304.0047349371
 20
80.1744614072
 10
304.0326371796
 20
80.1298990805
 10
304.0578494088
 20
80.0831922075
 10
304.0798634388
 20
80.0350595158
 10
304.0985936094
 20
79.9853943616
 10
304.1141255809
 20
79.9343033887
 10
304.126208148
 20
79.8828252565
 10
304.1347575757
 20
79.8313061846
 10
304.139857599
 20
79.7793999535
 10
304.1415082178
 20
79.727106563
  0
LINE
  5
298
100
AcDbEntity
  8
RACCORDO
100
AcDbLine
 62
250
  6
CONTINUOUS
 10
258.3739160646
 20
79.727106563
 11
258.3827349869
 21
79.7182876407
  0
LINE
  5
299
100
AcDbEntity
  8
ASSI
100
AcDbLine
 62
250
  6
CONTINUOUS
 10
258.3739160646
 20
79.727106563
 11
258.3827349869
 21
79.7182876407
  0
LINE
  5
29A
100
AcDbEntity
  8
RACCORDO
100
AcDbLine
 62
250
  6
CONTINUOUS
 10
258.8738399122
 20
80.2270304106
 11
258.8826588345
 21
80.2182114883
  0
LINE
  5
29B
100
AcDbEntity
  8
ASSI
100
AcDbLine
 62
250
  6
CONTINUOUS
 10
258.8738399122
 20
80.2270304106
 11
258.8826588345
 21
80.2182114883
  0
LWPOLYLINE
  5
29C
100
AcDbEntity
  8
RACCORDO
100
AcDbPolyline
 62
250
  6
CONTINUOUS
 90
25
 70
0
 10
258.3739160673
 20
221.7271065603
 10
258.3749614974
 20
221.7595207802
 10
258.3781159992
 20
221.7918774581
 10
258.3833817927
 20
221.8240384103
 10
258.3907617817
 20
221.8559016173
 10
258.4002348136
 20
221.8872892741
 10
258.4117315923
 20
221.9179556534
 10
258.4251852052
 20
221.9477486056
 10
258.4405401784
 20
221.9765678836
 10
258.4577040847
 20
222.0042620571
 10
258.4765634452
 20
222.0306835334
 10
258.4970508114
 20
222.0557699762
 10
258.519142191
 20
222.0794983059
 10
258.5427392249
 20
222.1017559144
 10
258.5677554242
 20
222.122454671
 10
258.5942076698
 20
222.1415825755
 10
258.6220790438
 20
222.159074703
 10
258.6511976444
 20
222.1747724922
 10
258.6813411925
 20
222.1885305462
 10
258.7124195716
 20
222.2002915681
 10
258.744263608
 20
222.209975906
 10
258.776499697
 20
222.2174838979
 10
258.808898869
 20
222.222808274
 10
258.8413929319
 20
222.2259828776
 10
258.873839915
 20
222.2270304077
  0
LWPOLYLINE
  5
29D
100
AcDbEntity
  8
ASSI
100
AcDbPolyline
 62
250
  6
CONTINUOUS
 90
25
 70
0
 10
258.3739160673
 20
221.7271065603
 10
258.3749614974
 20
221.7595207802
 10
258.3781159992
 20
221.7918774581
 10
258.3833817927
 20
221.8240384103
 10
258.3907617817
 20
221.8559016173
 10
258.4002348136
 20
221.8872892741
 10
258.4117315923
 20
221.9179556534
 10
258.4251852052
 20
221.9477486056
 10
258.4405401784
 20
221.9765678836
 10
258.4577040847
 20
222.0042620571
 10
258.4765634452
 20
222.0306835334
 10
258.4970508114
 20
222.0557699762
 10
258.519142191
 20
222.0794983059
 10
258.5427392249
 20
222.1017559144
 10
258.5677554242
 20
222.122454671
 10
258.5942076698
 20
222.1415825755
 10
258.6220790438
 20
222.159074703
 10
258.6511976444
 20
222.1747724922
 10
258.6813411925
 20
222.1885305462
 10
258.7124195716
 20
222.2002915681
 10
258.744263608
 20
222.209975906
 10
258.776499697
 20
222.2174838979
 10
258.808898869
 20
222.222808274
 10
258.8413929319
 20
222.2259828776
 10
258.873839915
 20
222.2270304077
  0
LWPOLYLINE
  5
29E
100
AcDbEntity
  8
RACCORDO
100
AcDbPolyline
 62
250
  6
CONTINUOUS
 90
25
 70
0
 10
258.3739160673
 20
150.7271065603
 10
258.3749614974
 20
150.7595207802
 10
258.3781159992
 20
150.7918774581
 10
258.3833817927
 20
150.8240384103
 10
258.3907617817
 20
150.8559016173
 10
258.4002348136
 20
150.8872892741
 10
258.4117315923
 20
150.9179556534
 10
258.4251852052
 20
150.9477486056
 10
258.4405401784
 20
150.9765678836
 10
258.4577040847
 20
151.0042620571
 10
258.4765634452
 20
151.0306835334
 10
258.4970508114
 20
151.0557699762
 10
258.519142191
 20
151.0794983059
 10
258.5427392249
 20
151.1017559144
 10
258.5677554242
 20
151.122454671
 10
258.5942076698
 20
151.1415825755
 10
258.6220790438
 20
151.159074703
 10
258.6511976444
 20
151.1747724922
 10
258.6813411925
 20
151.1885305462
 10
258.7124195716
 20
151.2002915681
 10
258.744263608
 20
151.209975906
 10
258.776499697
 20
151.2174838979
 10
258.808898869
 20
151.222808274
 10
258.8413929319
 20
151.2259828776
 10
258.873839915
 20
151.2270304077
  0
LWPOLYLINE
  5
29F
100
AcDbEntity
  8
ASSI
100
AcDbPolyline
 62
250
  6
CONTINUOUS
 90
25
 70
0
 10
258.3739160673
 20
150.7271065603
 10
258.3749614974
 20
150.7595207802
 10
258.3781159992
 20
150.7918774581
 10
258.3833817927
 20
150.8240384103
 10
258.3907617817
 20
150.8559016173
 10
258.4002348136
 20
150.8872892741
 10
258.4117315923
 20
150.9179556534
 10
258.4251852052
 20
150.9477486056
 10
258.4405401784
 20
150.9765678836
 10
258.4577040847
 20
151.0042620571
 10
258.4765634452
 20
151.0306835334
 10
258.4970508114
 20
151.0557699762
 10
258.519142191
 20
151.0794983059
 10
258.5427392249
 20
151.1017559144
 10
258.5677554242
 20
151.122454671
 10
258.5942076698
 20
151.1415825755
 10
258.6220790438
 20
151.159074703
 10
258.6511976444
 20
151.1747724922
 10
258.6813411925
 20
151.1885305462
 10
258.7124195716
 20
151.2002915681
 10
258.744263608
 20
151.209975906
 10
258.776499697
 20
151.2174838979
 10
258.808898869
 20
151.222808274
 10
258.8413929319
 20
151.2259828776
 10
258.873839915
 20
151.2270304077
  0
LWPOLYLINE
  5
2A0
100
AcDbEntity
  8
RACCORDO
100
AcDbPolyline
 62
250
  6
CONTINUOUS
 90
25
 70
0
 10
258.0739617561
 20
221.727106563
 10
258.0756622079
 20
221.7793302484
 10
258.0807191162
 20
221.8310187149
 10
258.0891324811
 20
221.8821719623
 10
258.1009770863
 20
221.9330623241
 10
258.1161781481
 20
221.9834174669
 10
258.1345113148
 20
222.0324203908
 10
258.1560296441
 20
222.0800037449
 10
258.1806800783
 20
222.12623488
 10
258.2080790928
 20
222.1704988494
 10
258.2382077812
 20
222.2127140358
 10
258.2710850499
 20
222.2529620564
 10
258.3063840935
 20
222.2908728164
 10
258.3440883863
 20
222.3264405352
 10
258.384214454
 20
222.3596709935
 10
258.426485068
 20
222.3902114384
 10
258.4710473947
 20
222.4181136809
 10
258.5177542677
 20
222.4433259101
 10
258.5658869594
 20
222.4653399401
 10
258.6155521136
 20
222.4840701107
 10
258.6666430865
 20
222.4996020822
 10
258.7181212187
 20
222.5116846493
 10
258.7696402905
 20
222.520234077
 10
258.8215465217
 20
222.5253341003
 10
258.8738399122
 20
222.5269847191
  0
LWPOLYLINE
  5
2A1
100
AcDbEntity
  8
ASSI
100
AcDbPolyline
 62
250
  6
CONTINUOUS
 90
25
 70
0
 10
258.0739617561
 20
221.727106563
 10
258.0756622079
 20
221.7793302484
 10
258.0807191162
 20
221.8310187149
 10
258.0891324811
 20
221.8821719623
 10
258.1009770863
 20
221.9330623241
 10
258.1161781481
 20
221.9834174669
 10
258.1345113148
 20
222.0324203908
 10
258.1560296441
 20
222.0800037449
 10
258.1806800783
 20
222.12623488
 10
258.2080790928
 20
222.1704988494
 10
258.2382077812
 20
222.2127140358
 10
258.2710850499
 20
222.2529620564
 10
258.3063840935
 20
222.2908728164
 10
258.3440883863
 20
222.3264405352
 10
258.384214454
 20
222.3596709935
 10
258.426485068
 20
222.3902114384
 10
258.4710473947
 20
222.4181136809
 10
258.5177542677
 20
222.4433259101
 10
258.5658869594
 20
222.4653399401
 10
258.6155521136
 20
222.4840701107
 10
258.6666430865
 20
222.4996020822
 10
258.7181212187
 20
222.5116846493
 10
258.7696402905
 20
222.520234077
 10
258.8215465217
 20
222.5253341003
 10
258.8738399122
 20
222.5269847191
  0
LWPOLYLINE
  5
2A2
100
AcDbEntity
  8
RACCORDO
100
AcDbPolyline
 62
250
  6
CONTINUOUS
 90
25
 70
0
 10
258.0739617561
 20
150.727106563
 10
258.0756622079
 20
150.7793302484
 10
258.0807191162
 20
150.8310187149
 10
258.0891324811
 20
150.8821719623
 10
258.1009770863
 20
150.9330623241
 10
258.1161781481
 20
150.9834174669
 10
258.1345113148
 20
151.0324203908
 10
258.1560296441
 20
151.0800037449
 10
258.1806800783
 20
151.12623488
 10
258.2080790928
 20
151.1704988494
 10
258.2382077812
 20
151.2127140358
 10
258.2710850499
 20
151.2529620564
 10
258.3063840935
 20
151.2908728164
 10
258.3440883863
 20
151.3264405352
 10
258.384214454
 20
151.3596709935
 10
258.426485068
 20
151.3902114384
 10
258.4710473947
 20
151.4181136809
 10
258.5177542677
 20
151.4433259101
 10
258.5658869594
 20
151.4653399401
 10
258.6155521136
 20
151.4840701107
 10
258.6666430865
 20
151.4996020822
 10
258.7181212187
 20
151.5116846493
 10
258.7696402905
 20
151.520234077
 10
258.8215465217
 20
151.5253341003
 10
258.8738399122
 20
151.5269847191
  0
LWPOLYLINE
  5
2A3
100
AcDbEntity
  8
ASSI
100
AcDbPolyline
 62
250
  6
CONTINUOUS
 90
25
 70
0
 10
258.0739617561
 20
150.727106563
 10
258.0756622079
 20
150.7793302484
 10
258.0807191162
 20
150.8310187149
 10
258.0891324811
 20
150.8821719623
 10
258.1009770863
 20
150.9330623241
 10
258.1161781481
 20
150.9834174669
 10
258.1345113148
 20
151.0324203908
 10
258.1560296441
 20
151.0800037449
 10
258.1806800783
 20
151.12623488
 10
258.2080790928
 20
151.1704988494
 10
258.2382077812
 20
151.2127140358
 10
258.2710850499
 20
151.2529620564
 10
258.3063840935
 20
151.2908728164
 10
258.3440883863
 20
151.3264405352
 10
258.384214454
 20
151.3596709935
 10
258.426485068
 20
151.3902114384
 10
258.4710473947
 20
151.4181136809
 10
258.5177542677
 20
151.4433259101
 10
258.5658869594
 20
151.4653399401
 10
258.6155521136
 20
151.4840701107
 10
258.6666430865
 20
151.4996020822
 10
258.7181212187
 20
151.5116846493
 10
258.7696402905
 20
151.520234077
 10
258.8215465217
 20
151.5253341003
 10
258.8738399122
 20
151.5269847191
  0
LINE
  5
2A4
100
AcDbEntity
  8
RACCORDO
100
AcDbLine
 62
250
  6
CONTINUOUS
 10
303.3416300617
 20
97.3594382574
 11
258.8738399122
 21
97.3594382574
  0
LINE
  5
2A5
100
AcDbEntity
  8
ASSI
100
AcDbLine
 62
250
  6
CONTINUOUS
 10
303.3416300617
 20
97.3594382574
 11
258.8738399122
 21
97.3594382574
  0
LINE
  5
2A6
100
AcDbEntity
  8
RACCORDO
100
AcDbLine
 62
250
  6
CONTINUOUS
 10
303.3416300617
 20
97.6593925659
 11
258.8738399122
 21
97.6593925659
  0
LINE
  5
2A7
100
AcDbEntity
  8
ASSI
100
AcDbLine
 62
250
  6
CONTINUOUS
 10
303.3416300617
 20
97.6593925659
 11
258.8738399122
 21
97.6593925659
  0
LINE
  5
2A8
100
AcDbEntity
  8
RACCORDO
100
AcDbLine
 62
7
  6
CONTINUOUS
 10
258.8826588345
 20
97.6682114883
 11
303.3328111394
 21
97.6682114883
  0
LINE
  5
2A9
100
AcDbEntity
  8
ASSI
100
AcDbLine
 62
7
  6
CONTINUOUS
 10
258.8826588345
 20
97.6682114883
 11
303.3328111394
 21
97.6682114883
  0
LINE
  5
2AA
100
AcDbEntity
  8
RACCORDO
100
AcDbLine
 62
250
  6
CONTINUOUS
 10
304.1415082178
 20
98.1593164135
 11
303.8415539093
 21
98.1593164135
  0
LINE
  5
2AB
100
AcDbEntity
  8
ASSI
100
AcDbLine
 62
250
  6
CONTINUOUS
 10
304.1415082178
 20
98.1593164135
 11
303.8415539093
 21
98.1593164135
  0
LINE
  5
2AC
100
AcDbEntity
  8
RACCORDO
100
AcDbLine
 62
250
  6
CONTINUOUS
 10
258.0739617561
 20
98.1593164135
 11
258.3739160646
 21
98.1593164135
  0
LINE
  5
2AD
100
AcDbEntity
  8
ASSI
100
AcDbLine
 62
250
  6
CONTINUOUS
 10
258.0739617561
 20
98.1593164135
 11
258.3739160646
 21
98.1593164135
  0
LWPOLYLINE
  5
2AE
100
AcDbEntity
  8
RACCORDO
100
AcDbPolyline
 62
250
  6
CONTINUOUS
 90
25
 70
0
 10
258.8738399149
 20
97.6593925686
 10
258.841425695
 20
97.6604379987
 10
258.8090690171
 20
97.6635925005
 10
258.7769080649
 20
97.668858294
 10
258.7450448579
 20
97.676238283
 10
258.7136572011
 20
97.6857113149
 10
258.6829908218
 20
97.6972080936
 10
258.6531978696
 20
97.7106617065
 10
258.6243785916
 20
97.7260166797
 10
258.5966844181
 20
97.7431805861
 10
258.5702629418
 20
97.7620399465
 10
258.545176499
 20
97.7825273127
 10
258.5214481693
 20
97.8046186923
 10
258.4991905608
 20
97.8282157262
 10
258.4784918042
 20
97.8532319255
 10
258.4593638997
 20
97.8796841711
 10
258.4418717722
 20
97.9075555451
 10
258.426173983
 20
97.9366741457
 10
258.412415929
 20
97.9668176938
 10
258.4006549071
 20
97.9978960729
 10
258.3909705692
 20
98.0297401093
 10
258.3834625773
 20
98.0619761983
 10
258.3781382012
 20
98.0943753703
 10
258.3749635976
 20
98.1268694332
 10
258.3739160674
 20
98.1593164163
  0
LWPOLYLINE
  5
2AF
100
AcDbEntity
  8
ASSI
100
AcDbPolyline
 62
250
  6
CONTINUOUS
 90
25
 70
0
 10
258.8738399149
 20
97.6593925686
 10
258.841425695
 20
97.6604379987
 10
258.8090690171
 20
97.6635925005
 10
258.7769080649
 20
97.668858294
 10
258.7450448579
 20
97.676238283
 10
258.7136572011
 20
97.6857113149
 10
258.6829908218
 20
97.6972080936
 10
258.6531978696
 20
97.7106617065
 10
258.6243785916
 20
97.7260166797
 10
258.5966844181
 20
97.7431805861
 10
258.5702629418
 20
97.7620399465
 10
258.545176499
 20
97.7825273127
 10
258.5214481693
 20
97.8046186923
 10
258.4991905608
 20
97.8282157262
 10
258.4784918042
 20
97.8532319255
 10
258.4593638997
 20
97.8796841711
 10
258.4418717722
 20
97.9075555451
 10
258.426173983
 20
97.9366741457
 10
258.412415929
 20
97.9668176938
 10
258.4006549071
 20
97.9978960729
 10
258.3909705692
 20
98.0297401093
 10
258.3834625773
 20
98.0619761983
 10
258.3781382012
 20
98.0943753703
 10
258.3749635976
 20
98.1268694332
 10
258.3739160674
 20
98.1593164163
  0
LWPOLYLINE
  5
2B0
100
AcDbEntity
  8
RACCORDO
100
AcDbPolyline
 62
250
  6
CONTINUOUS
 90
25
 70
0
 10
258.8738399122
 20
97.3594382574
 10
258.8216162268
 20
97.3611387092
 10
258.7699277603
 20
97.3661956175
 10
258.7187745128
 20
97.3746089824
 10
258.6678841511
 20
97.3864535876
 10
258.6175290083
 20
97.4016546494
 10
258.5685260844
 20
97.4199878161
 10
258.5209427303
 20
97.4415061454
 10
258.4747115952
 20
97.4661565796
 10
258.4304476257
 20
97.4935555941
 10
258.3882324394
 20
97.5236842825
 10
258.3479844188
 20
97.5565615512
 10
258.3100736588
 20
97.5918605948
 10
258.27450594
 20
97.6295648876
 10
258.2412754817
 20
97.6696909553
 10
258.2107350368
 20
97.7119615693
 10
258.1828327943
 20
97.756523896
 10
258.1576205651
 20
97.803230769
 10
258.1356065351
 20
97.8513634607
 10
258.1168763645
 20
97.9010286149
 10
258.101344393
 20
97.9521195878
 10
258.0892618258
 20
98.00359772
 10
258.0807123982
 20
98.0551167919
 10
258.0756123749
 20
98.107023023
 10
258.0739617561
 20
98.1593164135
  0
LWPOLYLINE
  5
2B1
100
AcDbEntity
  8
ASSI
100
AcDbPolyline
 62
250
  6
CONTINUOUS
 90
25
 70
0
 10
258.8738399122
 20
97.3594382574
 10
258.8216162268
 20
97.3611387092
 10
258.7699277603
 20
97.3661956175
 10
258.7187745128
 20
97.3746089824
 10
258.6678841511
 20
97.3864535876
 10
258.6175290083
 20
97.4016546494
 10
258.5685260844
 20
97.4199878161
 10
258.5209427303
 20
97.4415061454
 10
258.4747115952
 20
97.4661565796
 10
258.4304476257
 20
97.4935555941
 10
258.3882324394
 20
97.5236842825
 10
258.3479844188
 20
97.5565615512
 10
258.3100736588
 20
97.5918605948
 10
258.27450594
 20
97.6295648876
 10
258.2412754817
 20
97.6696909553
 10
258.2107350368
 20
97.7119615693
 10
258.1828327943
 20
97.756523896
 10
258.1576205651
 20
97.803230769
 10
258.1356065351
 20
97.8513634607
 10
258.1168763645
 20
97.9010286149
 10
258.101344393
 20
97.9521195878
 10
258.0892618258
 20
98.00359772
 10
258.0807123982
 20
98.0551167919
 10
258.0756123749
 20
98.107023023
 10
258.0739617561
 20
98.1593164135
  0
LINE
  5
2B2
100
AcDbEntity
  8
SCRITTE
100
AcDbLine
 62
250
  6
CONTINUOUS
 10
325.0425913312
 20
16.7848014883
 11
324.9741542657
 21
16.8748854883
  0
LINE
  5
2B3
100
AcDbEntity
  8
RACCORDO
100
AcDbLine
 62
250
  6
CONTINUOUS
 10
258.0739617561
 20
27.1593164135
 11
258.0739617561
 21
79.727106563
  0
LINE
  5
2B4
100
AcDbEntity
  8
ASSI
100
AcDbLine
 62
250
  6
CONTINUOUS
 10
258.0739617561
 20
27.1593164135
 11
258.0739617561
 21
79.727106563
  0
LINE
  5
2B5
100
AcDbEntity
  8
RACCORDO
100
AcDbLine
 62
250
  6
CONTINUOUS
 10
258.0739617561
 20
98.1593164135
 11
258.0739617561
 21
150.727106563
  0
LINE
  5
2B6
100
AcDbEntity
  8
ASSI
100
AcDbLine
 62
250
  6
CONTINUOUS
 10
258.0739617561
 20
98.1593164135
 11
258.0739617561
 21
150.727106563
  0
LINE
  5
2B7
100
AcDbEntity
  8
RACCORDO
100
AcDbLine
 62
250
  6
CONTINUOUS
 10
258.0739617561
 20
169.1593164135
 11
258.0739617561
 21
221.727106563
  0
LINE
  5
2B8
100
AcDbEntity
  8
ASSI
100
AcDbLine
 62
250
  6
CONTINUOUS
 10
258.0739617561
 20
169.1593164135
 11
258.0739617561
 21
221.727106563
  0
LINE
  5
2B9
100
AcDbEntity
  8
RACCORDO
100
AcDbLine
 62
250
  6
CONTINUOUS
 10
258.3739160646
 20
27.1593164135
 11
258.3739160646
 21
79.727106563
  0
LINE
  5
2BA
100
AcDbEntity
  8
ASSI
100
AcDbLine
 62
250
  6
CONTINUOUS
 10
258.3739160646
 20
27.1593164135
 11
258.3739160646
 21
79.727106563
  0
LINE
  5
2BB
100
AcDbEntity
  8
RACCORDO
100
AcDbLine
 62
250
  6
CONTINUOUS
 10
258.3739160646
 20
98.1593164135
 11
258.3739160646
 21
150.727106563
  0
LINE
  5
2BC
100
AcDbEntity
  8
ASSI
100
AcDbLine
 62
250
  6
CONTINUOUS
 10
258.3739160646
 20
98.1593164135
 11
258.3739160646
 21
150.727106563
  0
LINE
  5
2BD
100
AcDbEntity
  8
RACCORDO
100
AcDbLine
 62
250
  6
CONTINUOUS
 10
258.3739160646
 20
169.1593164135
 11
258.3739160646
 21
221.727106563
  0
LINE
  5
2BE
100
AcDbEntity
  8
ASSI
100
AcDbLine
 62
250
  6
CONTINUOUS
 10
258.3739160646
 20
169.1593164135
 11
258.3739160646
 21
221.727106563
  0
LINE
  5
2BF
100
AcDbEntity
  8
RACCORDO
100
AcDbLine
 62
7
  6
CONTINUOUS
 10
258.3827349869
 20
221.7182876407
 11
258.3827349869
 21
169.1681353358
  0
LINE
  5
2C0
100
AcDbEntity
  8
ASSI
100
AcDbLine
 62
7
  6
CONTINUOUS
 10
258.3827349869
 20
221.7182876407
 11
258.3827349869
 21
169.1681353358
  0
LINE
  5
2C1
100
AcDbEntity
  8
RACCORDO
100
AcDbLine
 62
7
  6
CONTINUOUS
 10
258.3827349869
 20
150.7182876407
 11
258.3827349869
 21
98.1681353358
  0
LINE
  5
2C2
100
AcDbEntity
  8
ASSI
100
AcDbLine
 62
7
  6
CONTINUOUS
 10
258.3827349869
 20
150.7182876407
 11
258.3827349869
 21
98.1681353358
  0
LINE
  5
2C3
100
AcDbEntity
  8
RACCORDO
100
AcDbLine
 62
7
  6
CONTINUOUS
 10
258.3827349869
 20
79.7182876407
 11
258.3827349869
 21
27.1681353358
  0
LINE
  5
2C4
100
AcDbEntity
  8
ASSI
100
AcDbLine
 62
7
  6
CONTINUOUS
 10
258.3827349869
 20
79.7182876407
 11
258.3827349869
 21
27.1681353358
  0
LINE
  5
2C5
100
AcDbEntity
  8
RACCORDO
100
AcDbLine
 62
250
  6
CONTINUOUS
 10
258.8738399122
 20
222.5269847191
 11
258.8738399122
 21
222.2270304106
  0
LINE
  5
2C6
100
AcDbEntity
  8
ASSI
100
AcDbLine
 62
250
  6
CONTINUOUS
 10
258.8738399122
 20
222.5269847191
 11
258.8738399122
 21
222.2270304106
  0
LINE
  5
2C7
100
AcDbEntity
  8
RACCORDO
100
AcDbLine
 62
250
  6
CONTINUOUS
 10
258.8738399122
 20
151.5269847191
 11
258.8738399122
 21
151.2270304106
  0
LINE
  5
2C8
100
AcDbEntity
  8
ASSI
100
AcDbLine
 62
250
  6
CONTINUOUS
 10
258.8738399122
 20
151.5269847191
 11
258.8738399122
 21
151.2270304106
  0
LINE
  5
2C9
100
AcDbEntity
  8
RACCORDO
100
AcDbLine
 62
250
  6
CONTINUOUS
 10
258.8738399122
 20
80.5269847191
 11
258.8738399122
 21
80.2270304106
  0
LINE
  5
2CA
100
AcDbEntity
  8
ASSI
100
AcDbLine
 62
250
  6
CONTINUOUS
 10
258.8738399122
 20
80.5269847191
 11
258.8738399122
 21
80.2270304106
  0
LINE
  5
2CB
100
AcDbEntity
  8
RACCORDO
100
AcDbLine
 62
250
  6
CONTINUOUS
 10
258.8738399122
 20
26.3594382574
 11
258.8738399122
 21
26.6593925659
  0
LINE
  5
2CC
100
AcDbEntity
  8
ASSI
100
AcDbLine
 62
250
  6
CONTINUOUS
 10
258.8738399122
 20
26.3594382574
 11
258.8738399122
 21
26.6593925659
  0
LINE
  5
2CD
100
AcDbEntity
  8
RACCORDO
100
AcDbLine
 62
250
  6
CONTINUOUS
 10
258.8738399122
 20
97.3594382574
 11
258.8738399122
 21
97.6593925659
  0
LINE
  5
2CE
100
AcDbEntity
  8
ASSI
100
AcDbLine
 62
250
  6
CONTINUOUS
 10
258.8738399122
 20
97.3594382574
 11
258.8738399122
 21
97.6593925659
  0
LINE
  5
2CF
100
AcDbEntity
  8
RACCORDO
100
AcDbLine
 62
250
  6
CONTINUOUS
 10
258.8738399122
 20
168.3594382574
 11
258.8738399122
 21
168.6593925659
  0
LINE
  5
2D0
100
AcDbEntity
  8
ASSI
100
AcDbLine
 62
250
  6
CONTINUOUS
 10
258.8738399122
 20
168.3594382574
 11
258.8738399122
 21
168.6593925659
  0
LWPOLYLINE
  5
2D1
100
AcDbEntity
  8
RACCORDO
100
AcDbPolyline
 62
250
  6
CONTINUOUS
 90
25
 70
0
 10
258.3739160673
 20
79.7271065603
 10
258.3749614974
 20
79.7595207802
 10
258.3781159992
 20
79.7918774581
 10
258.3833817927
 20
79.8240384103
 10
258.3907617817
 20
79.8559016173
 10
258.4002348136
 20
79.8872892741
 10
258.4117315923
 20
79.9179556534
 10
258.4251852052
 20
79.9477486056
 10
258.4405401784
 20
79.9765678836
 10
258.4577040847
 20
80.0042620571
 10
258.4765634452
 20
80.0306835334
 10
258.4970508114
 20
80.0557699762
 10
258.519142191
 20
80.0794983059
 10
258.5427392249
 20
80.1017559144
 10
258.5677554242
 20
80.122454671
 10
258.5942076698
 20
80.1415825755
 10
258.6220790438
 20
80.159074703
 10
258.6511976444
 20
80.1747724922
 10
258.6813411925
 20
80.1885305462
 10
258.7124195716
 20
80.2002915681
 10
258.744263608
 20
80.209975906
 10
258.776499697
 20
80.2174838979
 10
258.808898869
 20
80.222808274
 10
258.8413929319
 20
80.2259828776
 10
258.873839915
 20
80.2270304077
  0
LWPOLYLINE
  5
2D2
100
AcDbEntity
  8
ASSI
100
AcDbPolyline
 62
250
  6
CONTINUOUS
 90
25
 70
0
 10
258.3739160673
 20
79.7271065603
 10
258.3749614974
 20
79.7595207802
 10
258.3781159992
 20
79.7918774581
 10
258.3833817927
 20
79.8240384103
 10
258.3907617817
 20
79.8559016173
 10
258.4002348136
 20
79.8872892741
 10
258.4117315923
 20
79.9179556534
 10
258.4251852052
 20
79.9477486056
 10
258.4405401784
 20
79.9765678836
 10
258.4577040847
 20
80.0042620571
 10
258.4765634452
 20
80.0306835334
 10
258.4970508114
 20
80.0557699762
 10
258.519142191
 20
80.0794983059
 10
258.5427392249
 20
80.1017559144
 10
258.5677554242
 20
80.122454671
 10
258.5942076698
 20
80.1415825755
 10
258.6220790438
 20
80.159074703
 10
258.6511976444
 20
80.1747724922
 10
258.6813411925
 20
80.1885305462
 10
258.7124195716
 20
80.2002915681
 10
258.744263608
 20
80.209975906
 10
258.776499697
 20
80.2174838979
 10
258.808898869
 20
80.222808274
 10
258.8413929319
 20
80.2259828776
 10
258.873839915
 20
80.2270304077
  0
LWPOLYLINE
  5
2D3
100
AcDbEntity
  8
RACCORDO
100
AcDbPolyline
 62
250
  6
CONTINUOUS
 90
25
 70
0
 10
258.0739617561
 20
79.727106563
 10
258.0756622079
 20
79.7793302484
 10
258.0807191162
 20
79.8310187149
 10
258.0891324811
 20
79.8821719623
 10
258.1009770863
 20
79.9330623241
 10
258.1161781481
 20
79.9834174669
 10
258.1345113148
 20
80.0324203908
 10
258.1560296441
 20
80.0800037449
 10
258.1806800783
 20
80.12623488
 10
258.2080790928
 20
80.1704988494
 10
258.2382077812
 20
80.2127140358
 10
258.2710850499
 20
80.2529620564
 10
258.3063840935
 20
80.2908728164
 10
258.3440883863
 20
80.3264405352
 10
258.384214454
 20
80.3596709935
 10
258.426485068
 20
80.3902114384
 10
258.4710473947
 20
80.4181136809
 10
258.5177542677
 20
80.4433259101
 10
258.5658869594
 20
80.4653399401
 10
258.6155521136
 20
80.4840701107
 10
258.6666430865
 20
80.4996020822
 10
258.7181212187
 20
80.5116846493
 10
258.7696402905
 20
80.520234077
 10
258.8215465217
 20
80.5253341003
 10
258.8738399122
 20
80.5269847191
  0
LWPOLYLINE
  5
2D4
100
AcDbEntity
  8
ASSI
100
AcDbPolyline
 62
250
  6
CONTINUOUS
 90
25
 70
0
 10
258.0739617561
 20
79.727106563
 10
258.0756622079
 20
79.7793302484
 10
258.0807191162
 20
79.8310187149
 10
258.0891324811
 20
79.8821719623
 10
258.1009770863
 20
79.9330623241
 10
258.1161781481
 20
79.9834174669
 10
258.1345113148
 20
80.0324203908
 10
258.1560296441
 20
80.0800037449
 10
258.1806800783
 20
80.12623488
 10
258.2080790928
 20
80.1704988494
 10
258.2382077812
 20
80.2127140358
 10
258.2710850499
 20
80.2529620564
 10
258.3063840935
 20
80.2908728164
 10
258.3440883863
 20
80.3264405352
 10
258.384214454
 20
80.3596709935
 10
258.426485068
 20
80.3902114384
 10
258.4710473947
 20
80.4181136809
 10
258.5177542677
 20
80.4433259101
 10
258.5658869594
 20
80.4653399401
 10
258.6155521136
 20
80.4840701107
 10
258.6666430865
 20
80.4996020822
 10
258.7181212187
 20
80.5116846493
 10
258.7696402905
 20
80.520234077
 10
258.8215465217
 20
80.5253341003
 10
258.8738399122
 20
80.5269847191
  0
LINE
  5
2D5
100
AcDbEntity
  8
SCRITTE
100
AcDbLine
 62
250
  6
CONTINUOUS
 10
324.9377842627
 20
16.5660174883
 11
325.0425913312
 21
16.3854434883
  0
LWPOLYLINE
  5
2D6
100
AcDbEntity
  8
0
100
AcDbPolyline
 62
7
  6
CONTINUOUS
 90
4
 70
0
 43
0.3499999917
 10
278.7505957031
 20
1.6217843628
 10
278.7505957031
 20
2.478924408
 10
279.1791577148
 20
2.9074960327
 10
279.8220263672
 20
2.9074960327
  0
LWPOLYLINE
  5
2D7
100
AcDbEntity
  8
0
100
AcDbPolyline
 62
7
  6
CONTINUOUS
 90
4
 70
0
 43
0.3499999917
 10
281.1077380371
 20
1.6217843628
 10
281.1077380371
 20
2.478924408
 10
281.5363000488
 20
2.9074960327
 10
282.1791687012
 20
2.9074960327
  0
LINE
  5
2D8
100
AcDbEntity
  8
RACCORDO
100
AcDbLine
 62
250
  6
CONTINUOUS
 10
303.3416300617
 20
151.2270304106
 11
303.3328111394
 21
151.2182114883
  0
LINE
  5
2D9
100
AcDbEntity
  8
ASSI
100
AcDbLine
 62
250
  6
CONTINUOUS
 10
303.3416300617
 20
151.2270304106
 11
303.3328111394
 21
151.2182114883
  0
LINE
  5
2DA
100
AcDbEntity
  8
RACCORDO
100
AcDbLine
 62
250
  6
CONTINUOUS
 10
303.8415539093
 20
150.727106563
 11
303.8327349869
 21
150.7182876407
  0
LINE
  5
2DB
100
AcDbEntity
  8
ASSI
100
AcDbLine
 62
250
  6
CONTINUOUS
 10
303.8415539093
 20
150.727106563
 11
303.8327349869
 21
150.7182876407
  0
LINE
  5
2DC
100
AcDbEntity
  8
RACCORDO
100
AcDbLine
 62
250
  6
CONTINUOUS
 10
303.3416300617
 20
97.6593925659
 11
303.3328111394
 21
97.6682114883
  0
LINE
  5
2DD
100
AcDbEntity
  8
ASSI
100
AcDbLine
 62
250
  6
CONTINUOUS
 10
303.3416300617
 20
97.6593925659
 11
303.3328111394
 21
97.6682114883
  0
LINE
  5
2DE
100
AcDbEntity
  8
RACCORDO
100
AcDbLine
 62
250
  6
CONTINUOUS
 10
303.8415539093
 20
98.1593164135
 11
303.8327349869
 21
98.1681353358
  0
LINE
  5
2DF
100
AcDbEntity
  8
ASSI
100
AcDbLine
 62
250
  6
CONTINUOUS
 10
303.8415539093
 20
98.1593164135
 11
303.8327349869
 21
98.1681353358
  0
LINE
  5
2E0
100
AcDbEntity
  8
RACCORDO
100
AcDbLine
 62
250
  6
CONTINUOUS
 10
258.3739160646
 20
98.1593164135
 11
258.3827349869
 21
98.1681353358
  0
LINE
  5
2E1
100
AcDbEntity
  8
ASSI
100
AcDbLine
 62
250
  6
CONTINUOUS
 10
258.3739160646
 20
98.1593164135
 11
258.3827349869
 21
98.1681353358
  0
LINE
  5
2E2
100
AcDbEntity
  8
RACCORDO
100
AcDbLine
 62
250
  6
CONTINUOUS
 10
258.8738399122
 20
97.6593925659
 11
258.8826588345
 21
97.6682114883
  0
LINE
  5
2E3
100
AcDbEntity
  8
ASSI
100
AcDbLine
 62
250
  6
CONTINUOUS
 10
258.8738399122
 20
97.6593925659
 11
258.8826588345
 21
97.6682114883
  0
LINE
  5
2E4
100
AcDbEntity
  8
RACCORDO
100
AcDbLine
 62
250
  6
CONTINUOUS
 10
258.3739160646
 20
150.727106563
 11
258.3827349869
 21
150.7182876407
  0
LINE
  5
2E5
100
AcDbEntity
  8
ASSI
100
AcDbLine
 62
250
  6
CONTINUOUS
 10
258.3739160646
 20
150.727106563
 11
258.3827349869
 21
150.7182876407
  0
LINE
  5
2E6
100
AcDbEntity
  8
RACCORDO
100
AcDbLine
 62
250
  6
CONTINUOUS
 10
258.8738399122
 20
151.2270304106
 11
258.8826588345
 21
151.2182114883
  0
LINE
  5
2E7
100
AcDbEntity
  8
ASSI
100
AcDbLine
 62
250
  6
CONTINUOUS
 10
258.8738399122
 20
151.2270304106
 11
258.8826588345
 21
151.2182114883
  0
LINE
  5
2E8
100
AcDbEntity
  8
RACCORDO
100
AcDbLine
 62
250
  6
CONTINUOUS
 10
303.3416300617
 20
222.5269847191
 11
303.3416300617
 21
222.2270304106
  0
LINE
  5
2E9
100
AcDbEntity
  8
ASSI
100
AcDbLine
 62
250
  6
CONTINUOUS
 10
303.3416300617
 20
222.5269847191
 11
303.3416300617
 21
222.2270304106
  0
LINE
  5
2EA
100
AcDbEntity
  8
RACCORDO
100
AcDbLine
 62
250
  6
CONTINUOUS
 10
303.3416300617
 20
151.5269847191
 11
303.3416300617
 21
151.2270304106
  0
LINE
  5
2EB
100
AcDbEntity
  8
ASSI
100
AcDbLine
 62
250
  6
CONTINUOUS
 10
303.3416300617
 20
151.5269847191
 11
303.3416300617
 21
151.2270304106
  0
LINE
  5
2EC
100
AcDbEntity
  8
RACCORDO
100
AcDbLine
 62
250
  6
CONTINUOUS
 10
303.3416300617
 20
80.5269847191
 11
303.3416300617
 21
80.2270304106
  0
LINE
  5
2ED
100
AcDbEntity
  8
ASSI
100
AcDbLine
 62
250
  6
CONTINUOUS
 10
303.3416300617
 20
80.5269847191
 11
303.3416300617
 21
80.2270304106
  0
LINE
  5
2EE
100
AcDbEntity
  8
RACCORDO
100
AcDbLine
 62
250
  6
CONTINUOUS
 10
303.3416300617
 20
26.3594382574
 11
303.3416300617
 21
26.6593925659
  0
LINE
  5
2EF
100
AcDbEntity
  8
ASSI
100
AcDbLine
 62
250
  6
CONTINUOUS
 10
303.3416300617
 20
26.3594382574
 11
303.3416300617
 21
26.6593925659
  0
LINE
  5
2F0
100
AcDbEntity
  8
RACCORDO
100
AcDbLine
 62
250
  6
CONTINUOUS
 10
303.3416300617
 20
97.3594382574
 11
303.3416300617
 21
97.6593925659
  0
LINE
  5
2F1
100
AcDbEntity
  8
ASSI
100
AcDbLine
 62
250
  6
CONTINUOUS
 10
303.3416300617
 20
97.3594382574
 11
303.3416300617
 21
97.6593925659
  0
LINE
  5
2F2
100
AcDbEntity
  8
RACCORDO
100
AcDbLine
 62
250
  6
CONTINUOUS
 10
303.3416300617
 20
168.3594382574
 11
303.3416300617
 21
168.6593925659
  0
LINE
  5
2F3
100
AcDbEntity
  8
ASSI
100
AcDbLine
 62
250
  6
CONTINUOUS
 10
303.3416300617
 20
168.3594382574
 11
303.3416300617
 21
168.6593925659
  0
LINE
  5
2F4
100
AcDbEntity
  8
RACCORDO
100
AcDbLine
 62
7
  6
CONTINUOUS
 10
303.8327349869
 20
27.1681353358
 11
303.8327349869
 21
79.7182876407
  0
LINE
  5
2F5
100
AcDbEntity
  8
ASSI
100
AcDbLine
 62
7
  6
CONTINUOUS
 10
303.8327349869
 20
27.1681353358
 11
303.8327349869
 21
79.7182876407
  0
LINE
  5
2F6
100
AcDbEntity
  8
RACCORDO
100
AcDbLine
 62
7
  6
CONTINUOUS
 10
303.8327349869
 20
98.1681353358
 11
303.8327349869
 21
150.7182876407
  0
LINE
  5
2F7
100
AcDbEntity
  8
ASSI
100
AcDbLine
 62
7
  6
CONTINUOUS
 10
303.8327349869
 20
98.1681353358
 11
303.8327349869
 21
150.7182876407
  0
LINE
  5
2F8
100
AcDbEntity
  8
RACCORDO
100
AcDbLine
 62
7
  6
CONTINUOUS
 10
303.8327349869
 20
169.1681353358
 11
303.8327349869
 21
221.7182876407
  0
LINE
  5
2F9
100
AcDbEntity
  8
ASSI
100
AcDbLine
 62
7
  6
CONTINUOUS
 10
303.8327349869
 20
169.1681353358
 11
303.8327349869
 21
221.7182876407
  0
LINE
  5
2FA
100
AcDbEntity
  8
RACCORDO
100
AcDbLine
 62
250
  6
CONTINUOUS
 10
303.8415539093
 20
221.727106563
 11
303.8415539093
 21
169.1593164135
  0
LINE
  5
2FB
100
AcDbEntity
  8
ASSI
100
AcDbLine
 62
250
  6
CONTINUOUS
 10
303.8415539093
 20
221.727106563
 11
303.8415539093
 21
169.1593164135
  0
LINE
  5
2FC
100
AcDbEntity
  8
RACCORDO
100
AcDbLine
 62
250
  6
CONTINUOUS
 10
303.8415539093
 20
150.727106563
 11
303.8415539093
 21
98.1593164135
  0
LINE
  5
2FD
100
AcDbEntity
  8
ASSI
100
AcDbLine
 62
250
  6
CONTINUOUS
 10
303.8415539093
 20
150.727106563
 11
303.8415539093
 21
98.1593164135
  0
LINE
  5
2FE
100
AcDbEntity
  8
RACCORDO
100
AcDbLine
 62
250
  6
CONTINUOUS
 10
303.8415539093
 20
79.727106563
 11
303.8415539093
 21
27.1593164135
  0
LINE
  5
2FF
100
AcDbEntity
  8
ASSI
100
AcDbLine
 62
250
  6
CONTINUOUS
 10
303.8415539093
 20
79.727106563
 11
303.8415539093
 21
27.1593164135
  0
LINE
  5
300
100
AcDbEntity
  8
RACCORDO
100
AcDbLine
 62
250
  6
CONTINUOUS
 10
304.1415082178
 20
221.727106563
 11
304.1415082178
 21
169.1593164135
  0
LINE
  5
301
100
AcDbEntity
  8
ASSI
100
AcDbLine
 62
250
  6
CONTINUOUS
 10
304.1415082178
 20
221.727106563
 11
304.1415082178
 21
169.1593164135
  0
LINE
  5
302
100
AcDbEntity
  8
RACCORDO
100
AcDbLine
 62
250
  6
CONTINUOUS
 10
304.1415082178
 20
150.727106563
 11
304.1415082178
 21
98.1593164135
  0
LINE
  5
303
100
AcDbEntity
  8
ASSI
100
AcDbLine
 62
250
  6
CONTINUOUS
 10
304.1415082178
 20
150.727106563
 11
304.1415082178
 21
98.1593164135
  0
LINE
  5
304
100
AcDbEntity
  8
RACCORDO
100
AcDbLine
 62
250
  6
CONTINUOUS
 10
304.1415082178
 20
79.727106563
 11
304.1415082178
 21
27.1593164135
  0
LINE
  5
305
100
AcDbEntity
  8
ASSI
100
AcDbLine
 62
250
  6
CONTINUOUS
 10
304.1415082178
 20
79.727106563
 11
304.1415082178
 21
27.1593164135
  0
LWPOLYLINE
  5
306
100
AcDbEntity
  8
RACCORDO
100
AcDbPolyline
 62
250
  6
CONTINUOUS
 90
25
 70
0
 10
303.8415539066
 20
169.1593164162
 10
303.8405084765
 20
169.1269021963
 10
303.8373539747
 20
169.0945455184
 10
303.8320881812
 20
169.0623845662
 10
303.8247081922
 20
169.0305213592
 10
303.8152351603
 20
168.9991337024
 10
303.8037383816
 20
168.9684673231
 10
303.7902847687
 20
168.9386743709
 10
303.7749297955
 20
168.9098550929
 10
303.7577658891
 20
168.8821609194
 10
303.7389065287
 20
168.8557394431
 10
303.7184191625
 20
168.8306530003
 10
303.6963277829
 20
168.8069246706
 10
303.672730749
 20
168.7846670621
 10
303.6477145497
 20
168.7639683055
 10
303.6212623041
 20
168.744840401
 10
303.59339093
 20
168.7273482735
 10
303.5642723295
 20
168.7116504843
 10
303.5341287814
 20
168.6978924303
 10
303.5030504023
 20
168.6861314084
 10
303.4712063659
 20
168.6764470705
 10
303.4389702769
 20
168.6689390786
 10
303.4065711049
 20
168.6636147025
 10
303.374077042
 20
168.6604400989
 10
303.3416300589
 20
168.6593925688
  0
LWPOLYLINE
  5
307
100
AcDbEntity
  8
ASSI
100
AcDbPolyline
 62
250
  6
CONTINUOUS
 90
25
 70
0
 10
303.8415539066
 20
169.1593164162
 10
303.8405084765
 20
169.1269021963
 10
303.8373539747
 20
169.0945455184
 10
303.8320881812
 20
169.0623845662
 10
303.8247081922
 20
169.0305213592
 10
303.8152351603
 20
168.9991337024
 10
303.8037383816
 20
168.9684673231
 10
303.7902847687
 20
168.9386743709
 10
303.7749297955
 20
168.9098550929
 10
303.7577658891
 20
168.8821609194
 10
303.7389065287
 20
168.8557394431
 10
303.7184191625
 20
168.8306530003
 10
303.6963277829
 20
168.8069246706
 10
303.672730749
 20
168.7846670621
 10
303.6477145497
 20
168.7639683055
 10
303.6212623041
 20
168.744840401
 10
303.59339093
 20
168.7273482735
 10
303.5642723295
 20
168.7116504843
 10
303.5341287814
 20
168.6978924303
 10
303.5030504023
 20
168.6861314084
 10
303.4712063659
 20
168.6764470705
 10
303.4389702769
 20
168.6689390786
 10
303.4065711049
 20
168.6636147025
 10
303.374077042
 20
168.6604400989
 10
303.3416300589
 20
168.6593925688
  0
LWPOLYLINE
  5
308
100
AcDbEntity
  8
RACCORDO
100
AcDbPolyline
 62
250
  6
CONTINUOUS
 90
25
 70
0
 10
303.8415539066
 20
98.1593164162
 10
303.8405084765
 20
98.1269021963
 10
303.8373539747
 20
98.0945455184
 10
303.8320881812
 20
98.0623845662
 10
303.8247081922
 20
98.0305213592
 10
303.8152351603
 20
97.9991337024
 10
303.8037383816
 20
97.9684673231
 10
303.7902847687
 20
97.9386743709
 10
303.7749297955
 20
97.9098550929
 10
303.7577658891
 20
97.8821609194
 10
303.7389065287
 20
97.8557394431
 10
303.7184191625
 20
97.8306530003
 10
303.6963277829
 20
97.8069246706
 10
303.672730749
 20
97.7846670621
 10
303.6477145497
 20
97.7639683055
 10
303.6212623041
 20
97.744840401
 10
303.59339093
 20
97.7273482735
 10
303.5642723295
 20
97.7116504843
 10
303.5341287814
 20
97.6978924303
 10
303.5030504023
 20
97.6861314084
 10
303.4712063659
 20
97.6764470705
 10
303.4389702769
 20
97.6689390786
 10
303.4065711049
 20
97.6636147025
 10
303.374077042
 20
97.6604400989
 10
303.3416300589
 20
97.6593925688
  0
LWPOLYLINE
  5
309
100
AcDbEntity
  8
ASSI
100
AcDbPolyline
 62
250
  6
CONTINUOUS
 90
25
 70
0
 10
303.8415539066
 20
98.1593164162
 10
303.8405084765
 20
98.1269021963
 10
303.8373539747
 20
98.0945455184
 10
303.8320881812
 20
98.0623845662
 10
303.8247081922
 20
98.0305213592
 10
303.8152351603
 20
97.9991337024
 10
303.8037383816
 20
97.9684673231
 10
303.7902847687
 20
97.9386743709
 10
303.7749297955
 20
97.9098550929
 10
303.7577658891
 20
97.8821609194
 10
303.7389065287
 20
97.8557394431
 10
303.7184191625
 20
97.8306530003
 10
303.6963277829
 20
97.8069246706
 10
303.672730749
 20
97.7846670621
 10
303.6477145497
 20
97.7639683055
 10
303.6212623041
 20
97.744840401
 10
303.59339093
 20
97.7273482735
 10
303.5642723295
 20
97.7116504843
 10
303.5341287814
 20
97.6978924303
 10
303.5030504023
 20
97.6861314084
 10
303.4712063659
 20
97.6764470705
 10
303.4389702769
 20
97.6689390786
 10
303.4065711049
 20
97.6636147025
 10
303.374077042
 20
97.6604400989
 10
303.3416300589
 20
97.6593925688
  0
LWPOLYLINE
  5
30A
100
AcDbEntity
  8
RACCORDO
100
AcDbPolyline
 62
250
  6
CONTINUOUS
 90
25
 70
0
 10
303.8415539066
 20
27.1593164162
 10
303.8405084765
 20
27.1269021963
 10
303.8373539747
 20
27.0945455184
 10
303.8320881812
 20
27.0623845662
 10
303.8247081922
 20
27.0305213592
 10
303.8152351603
 20
26.9991337024
 10
303.8037383816
 20
26.9684673231
 10
303.7902847687
 20
26.9386743709
 10
303.7749297955
 20
26.9098550929
 10
303.7577658891
 20
26.8821609194
 10
303.7389065287
 20
26.8557394431
 10
303.7184191625
 20
26.8306530003
 10
303.6963277829
 20
26.8069246706
 10
303.672730749
 20
26.7846670621
 10
303.6477145497
 20
26.7639683055
 10
303.6212623041
 20
26.744840401
 10
303.59339093
 20
26.7273482735
 10
303.5642723295
 20
26.7116504843
 10
303.5341287814
 20
26.6978924303
 10
303.5030504023
 20
26.6861314084
 10
303.4712063659
 20
26.6764470705
 10
303.4389702769
 20
26.6689390786
 10
303.4065711049
 20
26.6636147025
 10
303.374077042
 20
26.6604400989
 10
303.3416300589
 20
26.6593925688
  0
LWPOLYLINE
  5
30B
100
AcDbEntity
  8
ASSI
100
AcDbPolyline
 62
250
  6
CONTINUOUS
 90
25
 70
0
 10
303.8415539066
 20
27.1593164162
 10
303.8405084765
 20
27.1269021963
 10
303.8373539747
 20
27.0945455184
 10
303.8320881812
 20
27.0623845662
 10
303.8247081922
 20
27.0305213592
 10
303.8152351603
 20
26.9991337024
 10
303.8037383816
 20
26.9684673231
 10
303.7902847687
 20
26.9386743709
 10
303.7749297955
 20
26.9098550929
 10
303.7577658891
 20
26.8821609194
 10
303.7389065287
 20
26.8557394431
 10
303.7184191625
 20
26.8306530003
 10
303.6963277829
 20
26.8069246706
 10
303.672730749
 20
26.7846670621
 10
303.6477145497
 20
26.7639683055
 10
303.6212623041
 20
26.744840401
 10
303.59339093
 20
26.7273482735
 10
303.5642723295
 20
26.7116504843
 10
303.5341287814
 20
26.6978924303
 10
303.5030504023
 20
26.6861314084
 10
303.4712063659
 20
26.6764470705
 10
303.4389702769
 20
26.6689390786
 10
303.4065711049
 20
26.6636147025
 10
303.374077042
 20
26.6604400989
 10
303.3416300589
 20
26.6593925688
  0
LWPOLYLINE
  5
30C
100
AcDbEntity
  8
RACCORDO
100
AcDbPolyline
 62
250
  6
CONTINUOUS
 90
25
 70
0
 10
304.1415082178
 20
169.1593164135
 10
304.139807766
 20
169.1070927281
 10
304.1347508577
 20
169.0554042616
 10
304.1263374928
 20
169.0042510142
 10
304.1144928876
 20
168.9533606524
 10
304.0992918258
 20
168.9030055096
 10
304.0809586591
 20
168.8540025857
 10
304.0594403298
 20
168.8064192316
 10
304.0347898956
 20
168.7601880965
 10
304.0073908811
 20
168.7159241271
 10
303.9772621927
 20
168.6737089407
 10
303.944384924
 20
168.6334609201
 10
303.9090858804
 20
168.5955501601
 10
303.8713815876
 20
168.5599824413
 10
303.8312555199
 20
168.526751983
 10
303.7889849059
 20
168.4962115381
 10
303.7444225792
 20
168.4683092956
 10
303.6977157062
 20
168.4430970664
 10
303.6495830145
 20
168.4210830364
 10
303.5999178603
 20
168.4023528658
 10
303.5488268874
 20
168.3868208943
 10
303.4973487551
 20
168.3747383272
 10
303.4458296833
 20
168.3661888995
 10
303.3939234522
 20
168.3610888762
 10
303.3416300617
 20
168.3594382574
  0
LWPOLYLINE
  5
30D
100
AcDbEntity
  8
ASSI
100
AcDbPolyline
 62
250
  6
CONTINUOUS
 90
25
 70
0
 10
304.1415082178
 20
169.1593164135
 10
304.139807766
 20
169.1070927281
 10
304.1347508577
 20
169.0554042616
 10
304.1263374928
 20
169.0042510142
 10
304.1144928876
 20
168.9533606524
 10
304.0992918258
 20
168.9030055096
 10
304.0809586591
 20
168.8540025857
 10
304.0594403298
 20
168.8064192316
 10
304.0347898956
 20
168.7601880965
 10
304.0073908811
 20
168.7159241271
 10
303.9772621927
 20
168.6737089407
 10
303.944384924
 20
168.6334609201
 10
303.9090858804
 20
168.5955501601
 10
303.8713815876
 20
168.5599824413
 10
303.8312555199
 20
168.526751983
 10
303.7889849059
 20
168.4962115381
 10
303.7444225792
 20
168.4683092956
 10
303.6977157062
 20
168.4430970664
 10
303.6495830145
 20
168.4210830364
 10
303.5999178603
 20
168.4023528658
 10
303.5488268874
 20
168.3868208943
 10
303.4973487551
 20
168.3747383272
 10
303.4458296833
 20
168.3661888995
 10
303.3939234522
 20
168.3610888762
 10
303.3416300617
 20
168.3594382574
  0
LWPOLYLINE
  5
30E
100
AcDbEntity
  8
RACCORDO
100
AcDbPolyline
 62
250
  6
CONTINUOUS
 90
25
 70
0
 10
304.1415082178
 20
98.1593164135
 10
304.139807766
 20
98.1070927281
 10
304.1347508577
 20
98.0554042616
 10
304.1263374928
 20
98.0042510142
 10
304.1144928876
 20
97.9533606524
 10
304.0992918258
 20
97.9030055096
 10
304.0809586591
 20
97.8540025857
 10
304.0594403298
 20
97.8064192316
 10
304.0347898956
 20
97.7601880965
 10
304.0073908811
 20
97.7159241271
 10
303.9772621927
 20
97.6737089407
 10
303.944384924
 20
97.6334609201
 10
303.9090858804
 20
97.5955501601
 10
303.8713815876
 20
97.5599824413
 10
303.8312555199
 20
97.526751983
 10
303.7889849059
 20
97.4962115381
 10
303.7444225792
 20
97.4683092956
 10
303.6977157062
 20
97.4430970664
 10
303.6495830145
 20
97.4210830364
 10
303.5999178603
 20
97.4023528658
 10
303.5488268874
 20
97.3868208943
 10
303.4973487551
 20
97.3747383272
 10
303.4458296833
 20
97.3661888995
 10
303.3939234522
 20
97.3610888762
 10
303.3416300617
 20
97.3594382574
  0
LWPOLYLINE
  5
30F
100
AcDbEntity
  8
ASSI
100
AcDbPolyline
 62
250
  6
CONTINUOUS
 90
25
 70
0
 10
304.1415082178
 20
98.1593164135
 10
304.139807766
 20
98.1070927281
 10
304.1347508577
 20
98.0554042616
 10
304.1263374928
 20
98.0042510142
 10
304.1144928876
 20
97.9533606524
 10
304.0992918258
 20
97.9030055096
 10
304.0809586591
 20
97.8540025857
 10
304.0594403298
 20
97.8064192316
 10
304.0347898956
 20
97.7601880965
 10
304.0073908811
 20
97.7159241271
 10
303.9772621927
 20
97.6737089407
 10
303.944384924
 20
97.6334609201
 10
303.9090858804
 20
97.5955501601
 10
303.8713815876
 20
97.5599824413
 10
303.8312555199
 20
97.526751983
 10
303.7889849059
 20
97.4962115381
 10
303.7444225792
 20
97.4683092956
 10
303.6977157062
 20
97.4430970664
 10
303.6495830145
 20
97.4210830364
 10
303.5999178603
 20
97.4023528658
 10
303.5488268874
 20
97.3868208943
 10
303.4973487551
 20
97.3747383272
 10
303.4458296833
 20
97.3661888995
 10
303.3939234522
 20
97.3610888762
 10
303.3416300617
 20
97.3594382574
  0
LWPOLYLINE
  5
310
100
AcDbEntity
  8
RACCORDO
100
AcDbPolyline
 62
250
  6
CONTINUOUS
 90
25
 70
0
 10
304.1415082178
 20
27.1593164135
 10
304.139807766
 20
27.1070927281
 10
304.1347508577
 20
27.0554042616
 10
304.1263374928
 20
27.0042510142
 10
304.1144928876
 20
26.9533606524
 10
304.0992918258
 20
26.9030055096
 10
304.0809586591
 20
26.8540025857
 10
304.0594403298
 20
26.8064192316
 10
304.0347898956
 20
26.7601880965
 10
304.0073908811
 20
26.7159241271
 10
303.9772621927
 20
26.6737089407
 10
303.944384924
 20
26.6334609201
 10
303.9090858804
 20
26.5955501601
 10
303.8713815876
 20
26.5599824413
 10
303.8312555199
 20
26.526751983
 10
303.7889849059
 20
26.4962115381
 10
303.7444225792
 20
26.4683092956
 10
303.6977157062
 20
26.4430970664
 10
303.6495830145
 20
26.4210830364
 10
303.5999178603
 20
26.4023528658
 10
303.5488268874
 20
26.3868208943
 10
303.4973487551
 20
26.3747383272
 10
303.4458296833
 20
26.3661888995
 10
303.3939234522
 20
26.3610888762
 10
303.3416300617
 20
26.3594382574
  0
LWPOLYLINE
  5
311
100
AcDbEntity
  8
ASSI
100
AcDbPolyline
 62
250
  6
CONTINUOUS
 90
25
 70
0
 10
304.1415082178
 20
27.1593164135
 10
304.139807766
 20
27.1070927281
 10
304.1347508577
 20
27.0554042616
 10
304.1263374928
 20
27.0042510142
 10
304.1144928876
 20
26.9533606524
 10
304.0992918258
 20
26.9030055096
 10
304.0809586591
 20
26.8540025857
 10
304.0594403298
 20
26.8064192316
 10
304.0347898956
 20
26.7601880965
 10
304.0073908811
 20
26.7159241271
 10
303.9772621927
 20
26.6737089407
 10
303.944384924
 20
26.6334609201
 10
303.9090858804
 20
26.5955501601
 10
303.8713815876
 20
26.5599824413
 10
303.8312555199
 20
26.526751983
 10
303.7889849059
 20
26.4962115381
 10
303.7444225792
 20
26.4683092956
 10
303.6977157062
 20
26.4430970664
 10
303.6495830145
 20
26.4210830364
 10
303.5999178603
 20
26.4023528658
 10
303.5488268874
 20
26.3868208943
 10
303.4973487551
 20
26.3747383272
 10
303.4458296833
 20
26.3661888995
 10
303.3939234522
 20
26.3610888762
 10
303.3416300617
 20
26.3594382574
  0
LINE
  5
312
100
AcDbEntity
  8
SCRITTE
100
AcDbLine
 62
250
  6
CONTINUOUS
 10
325.0054778189
 20
19.0926694883
 11
324.9665825994
 21
19.3005214883
  0
LINE
  5
313
100
AcDbEntity
  8
SCRITTE
100
AcDbLine
 62
250
  6
CONTINUOUS
 10
324.9377842627
 20
15.1712004883
 11
325.0099262437
 21
14.7783514883
  0
LINE
  5
314
100
AcDbEntity
  8
SCRITTE
100
AcDbLine
 62
250
  6
CONTINUOUS
 10
325.0425913312
 20
18.8920904883
 11
325.0216681018
 21
19.0072784883
  0
LINE
  5
315
100
AcDbEntity
  8
SCRITTE
100
AcDbLine
 62
250
  6
CONTINUOUS
 10
324.9377842627
 20
19.1064514883
 11
325.0425913312
 21
18.4791744883
  0
LINE
  5
316
100
AcDbEntity
  8
SCRITTE
100
AcDbLine
 62
250
  6
CONTINUOUS
 10
325.0425913312
 20
14.9455324883
 11
324.9377842627
 21
15.5883604883
  0
LINE
  5
317
100
AcDbEntity
  8
RACCORDO
100
AcDbLine
 62
250
  6
CONTINUOUS
 10
304.1415082178
 20
150.727106563
 11
303.8415539093
 21
150.727106563
  0
LINE
  5
318
100
AcDbEntity
  8
ASSI
100
AcDbLine
 62
250
  6
CONTINUOUS
 10
304.1415082178
 20
150.727106563
 11
303.8415539093
 21
150.727106563
  0
LINE
  5
319
100
AcDbEntity
  8
RACCORDO
100
AcDbLine
 62
250
  6
CONTINUOUS
 10
258.0739617561
 20
150.727106563
 11
258.3739160646
 21
150.727106563
  0
LINE
  5
31A
100
AcDbEntity
  8
ASSI
100
AcDbLine
 62
250
  6
CONTINUOUS
 10
258.0739617561
 20
150.727106563
 11
258.3739160646
 21
150.727106563
  0
LINE
  5
31B
100
AcDbEntity
  8
RACCORDO
100
AcDbLine
 62
7
  6
CONTINUOUS
 10
303.3328111394
 20
151.2182114883
 11
258.8826588345
 21
151.2182114883
  0
LINE
  5
31C
100
AcDbEntity
  8
ASSI
100
AcDbLine
 62
7
  6
CONTINUOUS
 10
303.3328111394
 20
151.2182114883
 11
258.8826588345
 21
151.2182114883
  0
LINE
  5
31D
100
AcDbEntity
  8
RACCORDO
100
AcDbLine
 62
250
  6
CONTINUOUS
 10
258.8738399122
 20
151.2270304106
 11
303.3416300617
 21
151.2270304106
  0
LINE
  5
31E
100
AcDbEntity
  8
ASSI
100
AcDbLine
 62
250
  6
CONTINUOUS
 10
258.8738399122
 20
151.2270304106
 11
303.3416300617
 21
151.2270304106
  0
LINE
  5
31F
100
AcDbEntity
  8
RACCORDO
100
AcDbLine
 62
250
  6
CONTINUOUS
 10
258.8738399122
 20
151.5269847191
 11
303.3416300617
 21
151.5269847191
  0
LINE
  5
320
100
AcDbEntity
  8
ASSI
100
AcDbLine
 62
250
  6
CONTINUOUS
 10
258.8738399122
 20
151.5269847191
 11
303.3416300617
 21
151.5269847191
  0
LWPOLYLINE
  5
321
100
AcDbEntity
  8
RACCORDO
100
AcDbPolyline
 62
250
  6
CONTINUOUS
 90
25
 70
0
 10
303.341630059
 20
151.2270304079
 10
303.3740442789
 20
151.2259849778
 10
303.4064009568
 20
151.222830476
 10
303.438561909
 20
151.2175646825
 10
303.470425116
 20
151.2101846935
 10
303.5018127728
 20
151.2007116616
 10
303.5324791521
 20
151.1892148829
 10
303.5622721043
 20
151.17576127
 10
303.5910913823
 20
151.1604062968
 10
303.6187855558
 20
151.1432423904
 10
303.6452070321
 20
151.12438303
 10
303.6702934749
 20
151.1038956638
 10
303.6940218046
 20
151.0818042842
 10
303.7162794131
 20
151.0582072503
 10
303.7369781697
 20
151.033191051
 10
303.7561060742
 20
151.0067388054
 10
303.7735982017
 20
150.9788674314
 10
303.7892959909
 20
150.9497488308
 10
303.8030540449
 20
150.9196052827
 10
303.8148150668
 20
150.8885269036
 10
303.8244994047
 20
150.8566828672
 10
303.8320073966
 20
150.8244467782
 10
303.8373317727
 20
150.7920476062
 10
303.8405063763
 20
150.7595535433
 10
303.8415539064
 20
150.7271065602
  0
LWPOLYLINE
  5
322
100
AcDbEntity
  8
ASSI
100
AcDbPolyline
 62
250
  6
CONTINUOUS
 90
25
 70
0
 10
303.341630059
 20
151.2270304079
 10
303.3740442789
 20
151.2259849778
 10
303.4064009568
 20
151.222830476
 10
303.438561909
 20
151.2175646825
 10
303.470425116
 20
151.2101846935
 10
303.5018127728
 20
151.2007116616
 10
303.5324791521
 20
151.1892148829
 10
303.5622721043
 20
151.17576127
 10
303.5910913823
 20
151.1604062968
 10
303.6187855558
 20
151.1432423904
 10
303.6452070321
 20
151.12438303
 10
303.6702934749
 20
151.1038956638
 10
303.6940218046
 20
151.0818042842
 10
303.7162794131
 20
151.0582072503
 10
303.7369781697
 20
151.033191051
 10
303.7561060742
 20
151.0067388054
 10
303.7735982017
 20
150.9788674314
 10
303.7892959909
 20
150.9497488308
 10
303.8030540449
 20
150.9196052827
 10
303.8148150668
 20
150.8885269036
 10
303.8244994047
 20
150.8566828672
 10
303.8320073966
 20
150.8244467782
 10
303.8373317727
 20
150.7920476062
 10
303.8405063763
 20
150.7595535433
 10
303.8415539064
 20
150.7271065602
  0
LWPOLYLINE
  5
323
100
AcDbEntity
  8
RACCORDO
100
AcDbPolyline
 62
250
  6
CONTINUOUS
 90
25
 70
0
 10
303.3416300617
 20
151.5269847191
 10
303.3938537471
 20
151.5252842673
 10
303.4455422136
 20
151.520227359
 10
303.496695461
 20
151.5118139941
 10
303.5475858228
 20
151.4999693889
 10
303.5979409656
 20
151.4847683271
 10
303.6469438895
 20
151.4664351604
 10
303.6945272435
 20
151.4449168311
 10
303.7407583787
 20
151.4202663969
 10
303.7850223481
 20
151.3928673824
 10
303.8272375345
 20
151.362738694
 10
303.8674855551
 20
151.3298614253
 10
303.9053963151
 20
151.2945623817
 10
303.9409640339
 20
151.2568580889
 10
303.9741944922
 20
151.2167320212
 10
304.0047349371
 20
151.1744614072
 10
304.0326371796
 20
151.1298990805
 10
304.0578494088
 20
151.0831922075
 10
304.0798634388
 20
151.0350595158
 10
304.0985936094
 20
150.9853943616
 10
304.1141255809
 20
150.9343033887
 10
304.126208148
 20
150.8828252565
 10
304.1347575757
 20
150.8313061846
 10
304.139857599
 20
150.7793999535
 10
304.1415082178
 20
150.727106563
  0
LWPOLYLINE
  5
324
100
AcDbEntity
  8
ASSI
100
AcDbPolyline
 62
250
  6
CONTINUOUS
 90
25
 70
0
 10
303.3416300617
 20
151.5269847191
 10
303.3938537471
 20
151.5252842673
 10
303.4455422136
 20
151.520227359
 10
303.496695461
 20
151.5118139941
 10
303.5475858228
 20
151.4999693889
 10
303.5979409656
 20
151.4847683271
 10
303.6469438895
 20
151.4664351604
 10
303.6945272435
 20
151.4449168311
 10
303.7407583787
 20
151.4202663969
 10
303.7850223481
 20
151.3928673824
 10
303.8272375345
 20
151.362738694
 10
303.8674855551
 20
151.3298614253
 10
303.9053963151
 20
151.2945623817
 10
303.9409640339
 20
151.2568580889
 10
303.9741944922
 20
151.2167320212
 10
304.0047349371
 20
151.1744614072
 10
304.0326371796
 20
151.1298990805
 10
304.0578494088
 20
151.0831922075
 10
304.0798634388
 20
151.0350595158
 10
304.0985936094
 20
150.9853943616
 10
304.1141255809
 20
150.9343033887
 10
304.126208148
 20
150.8828252565
 10
304.1347575757
 20
150.8313061846
 10
304.139857599
 20
150.7793999535
 10
304.1415082178
 20
150.727106563
  0
LINE
  5
325
100
AcDbEntity
  8
SCRITTE
100
AcDbLine
 62
250
  6
CONTINUOUS
 10
324.9377842627
 20
17.8135964883
 11
324.9959734585
 21
17.3961524883
  0
LINE
  5
326
100
AcDbEntity
  8
SCRITTE
100
AcDbLine
 62
250
  6
CONTINUOUS
 10
325.0425913312
 20
17.4231454883
 11
324.9744396261
 21
17.9194864883
  0
LWPOLYLINE
  5
327
100
AcDbEntity
  8
SCRITTE
100
AcDbPolyline
 62
250
  6
CONTINUOUS
 90
26
 70
0
 10
324.9792823746
 20
21.1426599939
 10
324.9789348593
 20
21.1478820013
 10
324.9785755625
 20
21.1529159972
 10
324.9782046693
 20
21.1577616422
 10
324.9778223649
 20
21.1624185967
 10
324.9774288797
 20
21.1668861614
 10
324.9770246257
 20
21.1711621996
 10
324.9766100602
 20
21.1752442149
 10
324.9761856405
 20
21.179129711
 10
324.97575175
 20
21.1828161394
 10
324.9753084765
 20
21.1863007432
 10
324.9748558336
 20
21.1895807135
 10
324.9743938353
 20
21.1926532413
 10
324.9739224952
 20
21.1955155175
 10
324.9734418271
 20
21.1981647333
 10
324.972951845
 20
21.2005980797
 10
324.9724525624
 20
21.2028127476
 10
324.9720009574
 20
21.2045939783
 10
324.9715420136
 20
21.2061891722
 10
324.9710757299
 20
21.207587295
 10
324.9706021052
 20
21.2087773123
 10
324.9701211382
 20
21.2097481898
 10
324.9696328278
 20
21.2104888931
 10
324.9691371729
 20
21.2109883879
 10
324.9686341722
 20
21.2112356397
 10
324.9681238245
 20
21.2112196142
  0
LINE
  5
328
100
AcDbEntity
  8
SCRITTE
100
AcDbLine
 62
250
  6
CONTINUOUS
 10
324.9856040826
 20
21.4901165636
 11
324.9867481836
 21
21.4723347453
  0
LINE
  5
329
100
AcDbEntity
  8
SCRITTE
100
AcDbLine
 62
250
  6
CONTINUOUS
 10
324.9799410084
 20
21.1316490498
 11
324.9792823746
 21
21.1426599939
  0
LINE
  5
32A
100
AcDbEntity
  8
SCRITTE
100
AcDbLine
 62
250
  6
CONTINUOUS
 10
324.9867481836
 20
21.4723347453
 11
324.9877723001
 21
21.4545389433
  0
LINE
  5
32B
100
AcDbEntity
  8
SCRITTE
100
AcDbLine
 62
250
  6
CONTINUOUS
 10
324.9805484247
 20
21.1198646116
 11
324.9799410084
 21
21.1316490498
  0
LINE
  5
32C
100
AcDbEntity
  8
SCRITTE
100
AcDbLine
 62
250
  6
CONTINUOUS
 10
324.9877723001
 20
21.4545389433
 11
324.9891210463
 21
21.428374674
  0
LINE
  5
32D
100
AcDbEntity
  8
SCRITTE
100
AcDbLine
 62
250
  6
CONTINUOUS
 10
324.9891210463
 20
21.428374674
 11
324.9909885482
 21
21.3876955157
  0
LINE
  5
32E
100
AcDbEntity
  8
SCRITTE
100
AcDbLine
 62
250
  6
CONTINUOUS
 10
324.9811017643
 20
21.1073153407
 11
324.9805484247
 21
21.1198646116
  0
LINE
  5
32F
100
AcDbEntity
  8
SCRITTE
100
AcDbLine
 62
250
  6
CONTINUOUS
 10
324.9909885482
 20
21.3876955157
 11
324.9919343646
 21
21.3652565507
  0
LINE
  5
330
100
AcDbEntity
  8
SCRITTE
100
AcDbLine
 62
250
  6
CONTINUOUS
 10
324.9816001342
 20
21.0941357721
 11
324.9811017643
 21
21.1073153407
  0
LINE
  5
331
100
AcDbEntity
  8
SCRITTE
100
AcDbLine
 62
250
  6
CONTINUOUS
 10
324.9919343646
 20
21.3652565507
 11
324.9923441574
 21
21.3539697996
  0
LINE
  5
332
100
AcDbEntity
  8
SCRITTE
100
AcDbLine
 62
250
  6
CONTINUOUS
 10
324.9820444791
 20
21.0804497506
 11
324.9816001342
 21
21.0941357721
  0
LWPOLYLINE
  5
333
100
AcDbEntity
  8
SCRITTE
100
AcDbPolyline
 62
250
  6
CONTINUOUS
 90
6
 70
0
 10
324.9923441574
 20
21.3539697996
 10
324.9926779272
 20
21.3425911013
 10
324.9928095489
 20
21.3369011706
 10
324.9929158791
 20
21.3311950416
 10
324.9929960425
 20
21.3254554536
 10
324.9930490271
 20
21.3196897998
  0
LINE
  5
334
100
AcDbEntity
  8
SCRITTE
100
AcDbLine
 62
250
  6
CONTINUOUS
 10
324.9826238365
 20
21.0588631646
 11
324.9820444791
 21
21.0804497506
  0
LINE
  5
335
100
AcDbEntity
  8
SCRITTE
100
AcDbLine
 62
250
  6
CONTINUOUS
 10
324.9831137414
 20
21.0359410618
 11
324.9826238365
 21
21.0588631646
  0
LINE
  5
336
100
AcDbEntity
  8
SCRITTE
100
AcDbLine
 62
250
  6
CONTINUOUS
 10
324.9835717364
 20
21.008223194
 11
324.9831137414
 21
21.0359410618
  0
LWPOLYLINE
  5
337
100
AcDbEntity
  8
SCRITTE
100
AcDbPolyline
 62
250
  6
CONTINUOUS
 90
3
 70
0
 10
324.9841139035
 20
20.9573196576
 10
324.9840262952
 20
20.9680579691
 10
324.9835717364
 20
21.008223194
  0
LINE
  5
338
100
AcDbEntity
  8
SCRITTE
100
AcDbLine
 62
250
  6
CONTINUOUS
 10
324.9390087924
 20
20.2464603199
 11
324.9380908964
 21
20.3740877275
  0
LINE
  5
339
100
AcDbEntity
  8
SCRITTE
100
AcDbLine
 62
250
  6
CONTINUOUS
 10
324.9550920796
 20
20.7178535835
 11
324.955639217
 21
20.6483833729
  0
LINE
  5
33A
100
AcDbEntity
  8
RACCORDO
100
AcDbLine
 62
250
  6
CONTINUOUS
 10
323.3778250503
 20
9.1744918901
 11
323.3778250503
 21
8.6751771227
  0
LINE
  5
33B
100
AcDbEntity
  8
ASSI
100
AcDbLine
 62
250
  6
CONTINUOUS
 10
323.3778250503
 20
9.1744918901
 11
323.3778250503
 21
8.6751771227
  0
LINE
  5
33C
100
AcDbEntity
  8
RACCORDO
100
AcDbLine
 62
250
  6
CONTINUOUS
 10
323.3778250503
 20
239.7119310864
 11
323.3778250503
 21
240.2112458538
  0
LINE
  5
33D
100
AcDbEntity
  8
ASSI
100
AcDbLine
 62
250
  6
CONTINUOUS
 10
323.3778250503
 20
239.7119310864
 11
323.3778250503
 21
240.2112458538
  0
LWPOLYLINE
  5
33E
100
AcDbEntity
  8
RACCORDO
100
AcDbPolyline
 62
250
  6
CONTINUOUS
 90
31
 70
0
 10
324.3764545851
 20
238.7133015517
 10
324.3750283354
 20
238.765982444
 10
324.3709243615
 20
238.818152371
 10
324.3641426634
 20
238.8698113326
 10
324.3546519947
 20
238.9210666619
 10
324.3424836017
 20
238.9718110258
 10
324.3277312233
 20
239.0217224248
 10
324.310370854
 20
239.0708285961
 10
324.2904264992
 20
239.1191018025
 10
324.2680639139
 20
239.1661368337
 10
324.2432656783
 20
239.2119172474
 10
324.2160492123
 20
239.2564594858
 10
324.1866325306
 20
239.2994076652
 10
324.1549967472
 20
239.3407510325
 10
324.1211607481
 20
239.3805003408
 10
324.0853992064
 20
239.418331966
 10
324.0476961578
 20
239.4542302068
 10
324.0080675666
 20
239.4882107645
 10
323.9668359984
 20
239.5199971186
 10
323.9240156126
 20
239.5495621722
 10
323.8795922498
 20
239.5769330223
 10
323.8338459985
 20
239.6019144389
 10
323.7867428851
 20
239.6245085364
 10
323.7383168832
 20
239.6447132006
 10
323.6889500011
 20
239.6623268586
 10
323.6386188044
 20
239.6773291138
 10
323.5873467275
 20
239.6897403629
 10
323.5355860825
 20
239.699420223
 10
323.4834876399
 20
239.7063218998
 10
323.4309006292
 20
239.7104921876
 10
323.3778250503
 20
239.7119310864
  0
LWPOLYLINE
  5
33F
100
AcDbEntity
  8
ASSI
100
AcDbPolyline
 62
250
  6
CONTINUOUS
 90
31
 70
0
 10
324.3764545851
 20
238.7133015517
 10
324.3750283354
 20
238.765982444
 10
324.3709243615
 20
238.818152371
 10
324.3641426634
 20
238.8698113326
 10
324.3546519947
 20
238.9210666619
 10
324.3424836017
 20
238.9718110258
 10
324.3277312233
 20
239.0217224248
 10
324.310370854
 20
239.0708285961
 10
324.2904264992
 20
239.1191018025
 10
324.2680639139
 20
239.1661368337
 10
324.2432656783
 20
239.2119172474
 10
324.2160492123
 20
239.2564594858
 10
324.1866325306
 20
239.2994076652
 10
324.1549967472
 20
239.3407510325
 10
324.1211607481
 20
239.3805003408
 10
324.0853992064
 20
239.418331966
 10
324.0476961578
 20
239.4542302068
 10
324.0080675666
 20
239.4882107645
 10
323.9668359984
 20
239.5199971186
 10
323.9240156126
 20
239.5495621722
 10
323.8795922498
 20
239.5769330223
 10
323.8338459985
 20
239.6019144389
 10
323.7867428851
 20
239.6245085364
 10
323.7383168832
 20
239.6447132006
 10
323.6889500011
 20
239.6623268586
 10
323.6386188044
 20
239.6773291138
 10
323.5873467275
 20
239.6897403629
 10
323.5355860825
 20
239.699420223
 10
323.4834876399
 20
239.7063218998
 10
323.4309006292
 20
239.7104921876
 10
323.3778250503
 20
239.7119310864
  0
LWPOLYLINE
  5
340
100
AcDbEntity
  8
RACCORDO
100
AcDbPolyline
 62
250
  6
CONTINUOUS
 90
31
 70
0
 10
324.8757693525
 20
238.7133015517
 10
324.8736380978
 20
238.7919044622
 10
324.8674044668
 20
238.8701645028
 10
324.8571045411
 20
238.9478692858
 10
324.8427949777
 20
239.0247656267
 10
324.8245282611
 20
239.1006929135
 10
324.8023296127
 20
239.1755781672
 10
324.7762382364
 20
239.2492669465
 10
324.7463365201
 20
239.3215079551
 10
324.7127129099
 20
239.3920840384
 10
324.6754648026
 20
239.4607951088
 10
324.6346901883
 20
239.5274647451
 10
324.5904950315
 20
239.5919194828
 10
324.5429966639
 20
239.6539869438
 10
324.4923257911
 20
239.7134954712
 10
324.4386208835
 20
239.7702817721
 10
324.3820274332
 20
239.8241916047
 10
324.32269918
 20
239.8750784202
 10
324.2607991504
 20
239.92280258
 10
324.1965315522
 20
239.9672109479
 10
324.1300372688
 20
240.0082104485
 10
324.061383906
 20
240.0457483166
 10
323.9907096854
 20
240.0797225129
 10
323.9182360199
 20
240.1100009169
 10
323.8441552922
 20
240.136482325
 10
323.7686463635
 20
240.1590800444
 10
323.6919292051
 20
240.1777060594
 10
323.6142682241
 20
240.1922811928
 10
323.5358956254
 20
240.202752448
 10
323.4570084961
 20
240.2090835474
 10
323.3778250503
 20
240.2112458538
  0
LWPOLYLINE
  5
341
100
AcDbEntity
  8
ASSI
100
AcDbPolyline
 62
250
  6
CONTINUOUS
 90
31
 70
0
 10
324.8757693525
 20
238.7133015517
 10
324.8736380978
 20
238.7919044622
 10
324.8674044668
 20
238.8701645028
 10
324.8571045411
 20
238.9478692858
 10
324.8427949777
 20
239.0247656267
 10
324.8245282611
 20
239.1006929135
 10
324.8023296127
 20
239.1755781672
 10
324.7762382364
 20
239.2492669465
 10
324.7463365201
 20
239.3215079551
 10
324.7127129099
 20
239.3920840384
 10
324.6754648026
 20
239.4607951088
 10
324.6346901883
 20
239.5274647451
 10
324.5904950315
 20
239.5919194828
 10
324.5429966639
 20
239.6539869438
 10
324.4923257911
 20
239.7134954712
 10
324.4386208835
 20
239.7702817721
 10
324.3820274332
 20
239.8241916047
 10
324.32269918
 20
239.8750784202
 10
324.2607991504
 20
239.92280258
 10
324.1965315522
 20
239.9672109479
 10
324.1300372688
 20
240.0082104485
 10
324.061383906
 20
240.0457483166
 10
323.9907096854
 20
240.0797225129
 10
323.9182360199
 20
240.1100009169
 10
323.8441552922
 20
240.136482325
 10
323.7686463635
 20
240.1590800444
 10
323.6919292051
 20
240.1777060594
 10
323.6142682241
 20
240.1922811928
 10
323.5358956254
 20
240.202752448
 10
323.4570084961
 20
240.2090835474
 10
323.3778250503
 20
240.2112458538
  0
LWPOLYLINE
  5
342
100
AcDbEntity
  8
0
100
AcDbPolyline
 62
7
  6
CONTINUOUS
 90
31
 70
0
 10
325.1077349869
 20
238.9452671861
 10
325.1056932204
 20
239.0235723015
 10
325.099553426
 20
239.1018135698
 10
325.0893076193
 20
239.1797758492
 10
325.0749372239
 20
239.2573483483
 10
325.0564681698
 20
239.3342050972
 10
325.034025997
 20
239.4098187729
 10
325.0077320448
 20
239.4838969397
 10
324.9776575048
 20
239.5563395281
 10
324.9439214158
 20
239.6269304796
 10
324.9067300693
 20
239.6953399384
 10
324.8661387707
 20
239.7615573781
 10
324.82199185
 20
239.8258192235
 10
324.7742038086
 20
239.8881310883
 10
324.7230124163
 20
239.9480719536
 10
324.6687352169
 20
240.0052327042
 10
324.6115157631
 20
240.0594603895
 10
324.5515177202
 20
240.1105996172
 10
324.4891697926
 20
240.1583190784
 10
324.4248923135
 20
240.2023861903
 10
324.3586841244
 20
240.2428872906
 10
324.2903408744
 20
240.2799654853
 10
324.2199121604
 20
240.3135579418
 10
324.1476966096
 20
240.343486886
 10
324.0738335722
 20
240.3696680664
 10
323.9984013346
 20
240.3920324637
 10
323.9217077806
 20
240.4104486128
 10
323.844254029
 20
240.4247912878
 10
323.7663556145
 20
240.4350279454
 10
323.6881296951
 20
240.4411679078
 10
323.6097906848
 20
240.4432114883
  0
LWPOLYLINE
  5
343
100
AcDbEntity
  8
ASSI
100
AcDbPolyline
 62
7
  6
CONTINUOUS
 90
31
 70
0
 10
325.1077349869
 20
238.9452671861
 10
325.1056932204
 20
239.0235723015
 10
325.099553426
 20
239.1018135698
 10
325.0893076193
 20
239.1797758492
 10
325.0749372239
 20
239.2573483483
 10
325.0564681698
 20
239.3342050972
 10
325.034025997
 20
239.4098187729
 10
325.0077320448
 20
239.4838969397
 10
324.9776575048
 20
239.5563395281
 10
324.9439214158
 20
239.6269304796
 10
324.9067300693
 20
239.6953399384
 10
324.8661387707
 20
239.7615573781
 10
324.82199185
 20
239.8258192235
 10
324.7742038086
 20
239.8881310883
 10
324.7230124163
 20
239.9480719536
 10
324.6687352169
 20
240.0052327042
 10
324.6115157631
 20
240.0594603895
 10
324.5515177202
 20
240.1105996172
 10
324.4891697926
 20
240.1583190784
 10
324.4248923135
 20
240.2023861903
 10
324.3586841244
 20
240.2428872906
 10
324.2903408744
 20
240.2799654853
 10
324.2199121604
 20
240.3135579418
 10
324.1476966096
 20
240.343486886
 10
324.0738335722
 20
240.3696680664
 10
323.9984013346
 20
240.3920324637
 10
323.9217077806
 20
240.4104486128
 10
323.844254029
 20
240.4247912878
 10
323.7663556145
 20
240.4350279454
 10
323.6881296951
 20
240.4411679078
 10
323.6097906848
 20
240.4432114883
  0
LINE
  5
344
100
AcDbEntity
  8
SCRITTE
100
AcDbLine
 62
250
  6
CONTINUOUS
 10
324.9843900685
 20
20.8993529161
 11
324.9841139035
 21
20.9573196576
  0
LINE
  5
345
100
AcDbEntity
  8
SCRITTE
100
AcDbLine
 62
250
  6
CONTINUOUS
 10
324.9380908964
 20
20.3740877275
 11
324.9366617979
 21
20.6879098374
  0
LINE
  5
346
100
AcDbEntity
  8
SCRITTE
100
AcDbLine
 62
250
  6
CONTINUOUS
 10
324.9546864169
 20
20.8135471102
 11
324.9550920796
 21
20.7178535835
  0
LINE
  5
347
100
AcDbEntity
  8
RACCORDO
100
AcDbLine
 62
250
  6
CONTINUOUS
 10
324.3764545851
 20
10.1731214248
 11
324.3764545851
 21
238.7133015517
  0
LINE
  5
348
100
AcDbEntity
  8
ASSI
100
AcDbLine
 62
250
  6
CONTINUOUS
 10
324.3764545851
 20
10.1731214248
 11
324.3764545851
 21
238.7133015517
  0
LINE
  5
349
100
AcDbEntity
  8
RACCORDO
100
AcDbLine
 62
250
  6
CONTINUOUS
 10
324.8757693525
 20
10.1731214248
 11
324.8757693525
 21
238.7133015517
  0
LINE
  5
34A
100
AcDbEntity
  8
ASSI
100
AcDbLine
 62
250
  6
CONTINUOUS
 10
324.8757693525
 20
10.1731214248
 11
324.8757693525
 21
238.7133015517
  0
LINE
  5
34B
100
AcDbEntity
  8
SCRITTE
100
AcDbLine
 62
250
  6
CONTINUOUS
 10
324.9377779737
 20
15.7432754883
 11
324.9377779737
 21
16.1607194883
  0
LINE
  5
34C
100
AcDbEntity
  8
SCRITTE
100
AcDbLine
 62
250
  6
CONTINUOUS
 10
324.9377842627
 20
19.5102784883
 11
324.9377842627
 21
19.1064514883
  0
LINE
  5
34D
100
AcDbEntity
  8
SCRITTE
100
AcDbLine
 62
250
  6
CONTINUOUS
 10
324.9377842627
 20
18.2266174883
 11
324.9377842627
 21
17.8135964883
  0
LINE
  5
34E
100
AcDbEntity
  8
SCRITTE
100
AcDbLine
 62
250
  6
CONTINUOUS
 10
324.9377842627
 20
16.9831164883
 11
324.9377842627
 21
16.5660174883
  0
LINE
  5
34F
100
AcDbEntity
  8
SCRITTE
100
AcDbLine
 62
250
  6
CONTINUOUS
 10
324.9377842627
 20
15.5883604883
 11
324.9377842627
 21
15.1712004883
  0
LINE
  5
350
100
AcDbEntity
  8
SCRITTE
100
AcDbLine
 62
250
  6
CONTINUOUS
 10
324.9377842627
 20
14.3971454883
 11
324.9377842627
 21
13.9436724883
  0
LINE
  5
351
100
AcDbEntity
  8
SCRITTE
100
AcDbLine
 62
250
  6
CONTINUOUS
 10
324.9844107947
 20
20.6483833729
 11
324.9843900685
 21
20.8993529161
  0
LINE
  5
352
100
AcDbEntity
  8
SCRITTE
100
AcDbLine
 62
250
  6
CONTINUOUS
 10
325.0054778189
 20
19.4923424883
 11
325.0054778189
 21
19.0926694883
  0
LINE
  5
353
100
AcDbEntity
  8
SCRITTE
100
AcDbLine
 62
250
  6
CONTINUOUS
 10
325.0216681018
 20
19.0072784883
 11
325.0216681018
 21
19.5757684883
  0
LINE
  5
354
100
AcDbEntity
  8
SCRITTE
100
AcDbLine
 62
250
  6
CONTINUOUS
 10
325.0425913451
 20
21.7030171069
 11
325.0425913451
 21
21.3014839647
  0
LINE
  5
355
100
AcDbEntity
  8
SCRITTE
100
AcDbLine
 62
250
  6
CONTINUOUS
 10
325.0425913451
 20
20.6622252064
 11
325.0425913451
 21
20.2464603199
  0
LINE
  5
356
100
AcDbEntity
  8
SCRITTE
100
AcDbLine
 62
250
  6
CONTINUOUS
 10
325.0425913312
 20
16.1607194883
 11
325.0425913312
 21
15.7432754883
  0
LINE
  5
357
100
AcDbEntity
  8
SCRITTE
100
AcDbLine
 62
250
  6
CONTINUOUS
 10
325.0425913312
 20
14.5776594883
 11
325.0425913312
 21
14.9455324883
  0
LINE
  5
358
100
AcDbEntity
  8
SCRITTE
100
AcDbLine
 62
250
  6
CONTINUOUS
 10
325.0425913312
 20
16.3854434883
 11
325.0425913312
 21
16.7848014883
  0
LINE
  5
359
100
AcDbEntity
  8
SCRITTE
100
AcDbLine
 62
250
  6
CONTINUOUS
 10
325.0425913312
 20
17.3645994883
 11
325.0425913312
 21
17.4231454883
  0
LINE
  5
35A
100
AcDbEntity
  8
SCRITTE
100
AcDbLine
 62
250
  6
CONTINUOUS
 10
325.0425913312
 20
18.0052534883
 11
325.0425913312
 21
18.4136244883
  0
LINE
  5
35B
100
AcDbEntity
  8
SCRITTE
100
AcDbLine
 62
250
  6
CONTINUOUS
 10
325.0425913312
 20
18.4791744883
 11
325.0425913312
 21
18.8920904883
  0
LINE
  5
35C
100
AcDbEntity
  8
SCRITTE
100
AcDbLine
 62
250
  6
CONTINUOUS
 10
325.0425913312
 20
19.6839094883
 11
325.0425913312
 21
20.1238784883
  0
LINE
  5
35D
100
AcDbEntity
  8
0
100
AcDbLine
 62
7
  6
CONTINUOUS
 10
325.1077349869
 20
9.9411557904
 11
325.1077349869
 21
238.9452671861
  0
LINE
  5
35E
100
AcDbEntity
  8
ASSI
100
AcDbLine
 62
7
  6
CONTINUOUS
 10
325.1077349869
 20
9.9411557904
 11
325.1077349869
 21
238.9452671861
  0
LINE
  5
35F
100
AcDbEntity
  8
SCRITTE
100
AcDbLine
 62
250
  6
CONTINUOUS
 10
324.9366617979
 20
20.6879098374
 11
324.9366872068
 21
20.8981748302
  0
LINE
  5
360
100
AcDbEntity
  8
SCRITTE
100
AcDbLine
 62
250
  6
CONTINUOUS
 10
324.9547427348
 20
20.9138743015
 11
324.9546864169
 21
20.8135471102
  0
LINE
  5
361
100
AcDbEntity
  8
SCRITTE
100
AcDbLine
 62
250
  6
CONTINUOUS
 10
325.0016249523
 20
20.9078614871
 11
325.0015756565
 21
20.6622252064
  0
LINE
  5
362
100
AcDbEntity
  8
SCRITTE
100
AcDbLine
 62
250
  6
CONTINUOUS
 10
324.9550792167
 20
20.9837508653
 11
324.9547427348
 21
20.9138743015
  0
LINE
  5
363
100
AcDbEntity
  8
SCRITTE
100
AcDbLine
 62
250
  6
CONTINUOUS
 10
324.9366872068
 20
20.8981748302
 11
324.9374785216
 21
21.0656947532
  0
LINE
  5
364
100
AcDbEntity
  8
SCRITTE
100
AcDbLine
 62
250
  6
CONTINUOUS
 10
325.0018026201
 20
20.9324780077
 11
325.0016249523
 21
20.9078614871
  0
LINE
  5
365
100
AcDbEntity
  8
SCRITTE
100
AcDbLine
 62
250
  6
CONTINUOUS
 10
324.9374785216
 20
21.0656947532
 11
324.9384156896
 21
21.1645919892
  0
LINE
  5
366
100
AcDbEntity
  8
SCRITTE
100
AcDbLine
 62
250
  6
CONTINUOUS
 10
324.9553202774
 20
21.0081871367
 11
324.9550792167
 21
20.9837508653
  0
LINE
  5
367
100
AcDbEntity
  8
SCRITTE
100
AcDbLine
 62
250
  6
CONTINUOUS
 10
325.00209869
 20
20.9557431527
 11
325.0018026201
 21
20.9324780077
  0
LINE
  5
368
100
AcDbEntity
  8
SCRITTE
100
AcDbLine
 62
250
  6
CONTINUOUS
 10
324.9556633206
 20
21.0317776016
 11
324.9553202774
 21
21.0081871367
  0
LINE
  5
369
100
AcDbEntity
  8
SCRITTE
100
AcDbLine
 62
250
  6
CONTINUOUS
 10
324.9384156896
 20
21.1645919892
 11
324.9397245428
 21
21.2552640866
  0
LINE
  5
36A
100
AcDbEntity
  8
SCRITTE
100
AcDbLine
 62
250
  6
CONTINUOUS
 10
325.0024096656
 20
20.9730243944
 11
325.00209869
 21
20.9557431527
  0
LINE
  5
36B
100
AcDbEntity
  8
SCRITTE
100
AcDbLine
 62
250
  6
CONTINUOUS
 10
324.9561046305
 20
21.0545911154
 11
324.9556633206
 21
21.0317776016
  0
LINE
  5
36C
100
AcDbEntity
  8
SCRITTE
100
AcDbLine
 62
250
  6
CONTINUOUS
 10
324.9397245428
 20
21.2552640866
 11
324.9405825547
 21
21.2989091519
  0
LINE
  5
36D
100
AcDbEntity
  8
SCRITTE
100
AcDbLine
 62
250
  6
CONTINUOUS
 10
325.002799223
 20
20.9898350055
 11
325.0024096656
 21
20.9730243944
  0
LINE
  5
36E
100
AcDbEntity
  8
SCRITTE
100
AcDbLine
 62
250
  6
CONTINUOUS
 10
324.9936683454
 20
21.3196897998
 11
324.9941406317
 21
21.3394589831
  0
LINE
  5
36F
100
AcDbEntity
  8
SCRITTE
100
AcDbLine
 62
250
  6
CONTINUOUS
 10
324.9566420993
 20
21.0765200381
 11
324.9561046305
 21
21.0545911154
  0
LINE
  5
370
100
AcDbEntity
  8
SCRITTE
100
AcDbLine
 62
250
  6
CONTINUOUS
 10
324.9405825547
 20
21.2989091519
 11
324.9411692057
 21
21.321859814
  0
LINE
  5
371
100
AcDbEntity
  8
SCRITTE
100
AcDbLine
 62
250
  6
CONTINUOUS
 10
324.9941406317
 20
21.3394589831
 11
324.9945199026
 21
21.3524820659
  0
LINE
  5
372
100
AcDbEntity
  8
SCRITTE
100
AcDbLine
 62
250
  6
CONTINUOUS
 10
325.0032642812
 20
21.0059231789
 11
325.002799223
 21
20.9898350055
  0
LINE
  5
373
100
AcDbEntity
  8
SCRITTE
100
AcDbLine
 62
250
  6
CONTINUOUS
 10
324.9572746567
 20
21.0973428616
 11
324.9566420993
 21
21.0765200381
  0
LINE
  5
374
100
AcDbEntity
  8
SCRITTE
100
AcDbLine
 62
250
  6
CONTINUOUS
 10
324.9411692057
 20
21.321859814
 11
324.942287207
 21
21.3578823228
  0
LINE
  5
375
100
AcDbEntity
  8
SCRITTE
100
AcDbLine
 62
250
  6
CONTINUOUS
 10
324.9945199026
 20
21.3524820659
 11
324.9949541328
 21
21.3654060348
  0
LINE
  5
376
100
AcDbEntity
  8
SCRITTE
100
AcDbLine
 62
250
  6
CONTINUOUS
 10
324.9577484497
 20
21.1105000101
 11
324.9572746567
 21
21.0973428616
  0
LINE
  5
377
100
AcDbEntity
  8
SCRITTE
100
AcDbLine
 62
250
  6
CONTINUOUS
 10
325.0038007923
 20
21.0211769304
 11
325.0032642812
 21
21.0059231789
  0
LINE
  5
378
100
AcDbEntity
  8
SCRITTE
100
AcDbLine
 62
250
  6
CONTINUOUS
 10
324.942287207
 20
21.3578823228
 11
324.9431957289
 21
21.382807705
  0
LINE
  5
379
100
AcDbEntity
  8
SCRITTE
100
AcDbLine
 62
250
  6
CONTINUOUS
 10
324.9949541328
 20
21.3654060348
 11
324.9954467223
 21
21.3782404951
  0
LINE
  5
37A
100
AcDbEntity
  8
SCRITTE
100
AcDbLine
 62
250
  6
CONTINUOUS
 10
325.0041963787
 20
21.0309233574
 11
325.0038007923
 21
21.0211769304
  0
LINE
  5
37B
100
AcDbEntity
  8
SCRITTE
100
AcDbLine
 62
250
  6
CONTINUOUS
 10
324.9431957289
 20
21.382807705
 11
324.9442267398
 21
21.4078657262
  0
LINE
  5
37C
100
AcDbEntity
  8
SCRITTE
100
AcDbLine
 62
250
  6
CONTINUOUS
 10
324.9582624108
 20
21.1230006107
 11
324.9577484497
 21
21.1105000101
  0
LINE
  5
37D
100
AcDbEntity
  8
SCRITTE
100
AcDbLine
 62
250
  6
CONTINUOUS
 10
324.9954467223
 20
21.3782404951
 11
324.9959982165
 21
21.3909358607
  0
LINE
  5
37E
100
AcDbEntity
  8
SCRITTE
100
AcDbLine
 62
250
  6
CONTINUOUS
 10
325.0046210623
 20
21.0403473588
 11
325.0041963787
 21
21.0309233574
  0
LINE
  5
37F
100
AcDbEntity
  8
SCRITTE
100
AcDbLine
 62
250
  6
CONTINUOUS
 10
324.9442267398
 20
21.4078657262
 11
324.9453721146
 21
21.4324980062
  0
LINE
  5
380
100
AcDbEntity
  8
SCRITTE
100
AcDbLine
 62
250
  6
CONTINUOUS
 10
324.9588149147
 20
21.1347790064
 11
324.9582624108
 21
21.1230006107
  0
LINE
  5
381
100
AcDbEntity
  8
SCRITTE
100
AcDbLine
 62
250
  6
CONTINUOUS
 10
324.9959982165
 20
21.3909358607
 11
324.9966062291
 21
21.4033845711
  0
LINE
  5
382
100
AcDbEntity
  8
SCRITTE
100
AcDbLine
 62
250
  6
CONTINUOUS
 10
325.0050737882
 20
21.0494407156
 11
325.0046210623
 21
21.0403473588
  0
LINE
  5
383
100
AcDbEntity
  8
SCRITTE
100
AcDbLine
 62
250
  6
CONTINUOUS
 10
324.9453721146
 20
21.4324980062
 11
324.9466264286
 21
21.4562884378
  0
LINE
  5
384
100
AcDbEntity
  8
SCRITTE
100
AcDbLine
 62
250
  6
CONTINUOUS
 10
324.9594043358
 20
21.1457695404
 11
324.9588149147
 21
21.1347790064
  0
LINE
  5
385
100
AcDbEntity
  8
SCRITTE
100
AcDbLine
 62
250
  6
CONTINUOUS
 10
324.9966062291
 20
21.4033845711
 11
324.9972670026
 21
21.4154956426
  0
LINE
  5
386
100
AcDbEntity
  8
SCRITTE
100
AcDbLine
 62
250
  6
CONTINUOUS
 10
325.005553389
 20
21.0581930629
 11
325.0050737882
 21
21.0494407156
  0
LINE
  5
387
100
AcDbEntity
  8
SCRITTE
100
AcDbLine
 62
250
  6
CONTINUOUS
 10
325.0060582488
 20
21.066588762
 11
325.005553389
 21
21.0581930629
  0
LWPOLYLINE
  5
388
100
AcDbEntity
  8
SCRITTE
100
AcDbPolyline
 62
250
  6
CONTINUOUS
 90
48
 70
0
 10
324.9466264286
 20
21.4562884378
 10
324.9479869578
 20
21.4789631872
 10
324.9487062384
 20
21.4897985411
 10
324.9494506408
 20
21.500254147
 10
324.9502175665
 20
21.5102942523
 10
324.9510039623
 20
21.5198826451
 10
324.9518067754
 20
21.5289831134
 10
324.9526229525
 20
21.537559445
 10
324.9534494407
 20
21.5455754282
 10
324.9542834481
 20
21.5530027531
 10
324.9551232267
 20
21.5598447194
 10
324.95596729
 20
21.5661125289
 10
324.9568141512
 20
21.5718173836
 10
324.9576623236
 20
21.5769704852
 10
324.9585103205
 20
21.5815830357
 10
324.9595254505
 20
21.5864242378
 10
324.9605347694
 20
21.5905459141
 10
324.9615348601
 20
21.5939908016
 10
324.9625223052
 20
21.5968016374
 10
324.9634936872
 20
21.5990211586
 10
324.9644460338
 20
21.6006904824
 10
324.9653781518
 20
21.6018442464
 10
324.9662892931
 20
21.6025154687
 10
324.9671787093
 20
21.6027371669
 10
324.9680456523
 20
21.6025423589
 10
324.9688895972
 20
21.6019619082
 10
324.9697109121
 20
21.601018061
 10
324.9705101884
 20
21.5997309089
 10
324.9712880177
 20
21.5981205437
 10
324.9720449914
 20
21.5962070573
 10
324.9729628667
 20
21.5934173827
 10
324.973850747
 20
21.5902117508
 10
324.9747102996
 20
21.5866164382
 10
324.9755431922
 20
21.5826577212
 10
324.9763508325
 20
21.5783620064
 10
324.9771335883
 20
21.5737562207
 10
324.9778915678
 20
21.5688674212
 10
324.978624879
 20
21.563722665
 10
324.9793336419
 20
21.5583485926
 10
324.9800180237
 20
21.5527701783
 10
324.9806782039
 20
21.5470119798
 10
324.9813143616
 20
21.5410985549
 10
324.9821257368
 20
21.5330102588
 10
324.9828964889
 20
21.5247196032
 10
324.9836283829
 20
21.5162565284
 10
324.9843230174
 20
21.5076503959
 10
324.9849813277
 20
21.4989282519
 10
324.9856040826
 20
21.4901165636
  0
LINE
  5
389
100
AcDbEntity
  8
SCRITTE
100
AcDbLine
 62
250
  6
CONTINUOUS
 10
324.9972670026
 20
21.4154956426
 11
324.9979756683
 21
21.4271995872
  0
LWPOLYLINE
  5
38A
100
AcDbEntity
  8
SCRITTE
100
AcDbPolyline
 62
250
  6
CONTINUOUS
 90
3
 70
0
 10
324.9979756683
 20
21.4271995872
 10
324.9987304141
 20
21.4384820717
 10
324.9991254646
 20
21.4439776157
  0
LINE
  5
38B
100
AcDbEntity
  8
RACCORDO
100
AcDbLine
 62
250
  6
CONTINUOUS
 10
303.3416300617
 20
80.2270304106
 11
303.3328111394
 21
80.2182114883
  0
LINE
  5
38C
100
AcDbEntity
  8
ASSI
100
AcDbLine
 62
250
  6
CONTINUOUS
 10
303.3416300617
 20
80.2270304106
 11
303.3328111394
 21
80.2182114883
  0
LINE
  5
38D
100
AcDbEntity
  8
RACCORDO
100
AcDbLine
 62
250
  6
CONTINUOUS
 10
303.8415539093
 20
79.727106563
 11
303.8327349869
 21
79.7182876407
  0
LINE
  5
38E
100
AcDbEntity
  8
ASSI
100
AcDbLine
 62
250
  6
CONTINUOUS
 10
303.8415539093
 20
79.727106563
 11
303.8327349869
 21
79.7182876407
  0
LINE
  5
38F
100
AcDbEntity
  8
RACCORDO
100
AcDbLine
 62
250
  6
CONTINUOUS
 10
237.3397006214
 20
10.1731214248
 11
237.1077349869
 21
9.9411557904
  0
LINE
  5
390
100
AcDbEntity
  8
ASSI
100
AcDbLine
 62
250
  6
CONTINUOUS
 10
237.3397006214
 20
10.1731214248
 11
237.1077349869
 21
9.9411557904
  0
LINE
  5
391
100
AcDbEntity
  8
RACCORDO
100
AcDbLine
 62
250
  6
CONTINUOUS
 10
303.3416300617
 20
168.3594382574
 11
258.8738399122
 21
168.3594382574
  0
LINE
  5
392
100
AcDbEntity
  8
ASSI
100
AcDbLine
 62
250
  6
CONTINUOUS
 10
303.3416300617
 20
168.3594382574
 11
258.8738399122
 21
168.3594382574
  0
LINE
  5
393
100
AcDbEntity
  8
RACCORDO
100
AcDbLine
 62
250
  6
CONTINUOUS
 10
303.3416300617
 20
168.6593925659
 11
258.8738399122
 21
168.6593925659
  0
LINE
  5
394
100
AcDbEntity
  8
ASSI
100
AcDbLine
 62
250
  6
CONTINUOUS
 10
303.3416300617
 20
168.6593925659
 11
258.8738399122
 21
168.6593925659
  0
LINE
  5
395
100
AcDbEntity
  8
RACCORDO
100
AcDbLine
 62
7
  6
CONTINUOUS
 10
258.8826588345
 20
168.6682114883
 11
303.3328111394
 21
168.6682114883
  0
LINE
  5
396
100
AcDbEntity
  8
ASSI
100
AcDbLine
 62
7
  6
CONTINUOUS
 10
258.8826588345
 20
168.6682114883
 11
303.3328111394
 21
168.6682114883
  0
LINE
  5
397
100
AcDbEntity
  8
RACCORDO
100
AcDbLine
 62
250
  6
CONTINUOUS
 10
304.1415082178
 20
169.1593164135
 11
303.8415539093
 21
169.1593164135
  0
LINE
  5
398
100
AcDbEntity
  8
ASSI
100
AcDbLine
 62
250
  6
CONTINUOUS
 10
304.1415082178
 20
169.1593164135
 11
303.8415539093
 21
169.1593164135
  0
LINE
  5
399
100
AcDbEntity
  8
RACCORDO
100
AcDbLine
 62
250
  6
CONTINUOUS
 10
258.0739617561
 20
169.1593164135
 11
258.3739160646
 21
169.1593164135
  0
LINE
  5
39A
100
AcDbEntity
  8
ASSI
100
AcDbLine
 62
250
  6
CONTINUOUS
 10
258.0739617561
 20
169.1593164135
 11
258.3739160646
 21
169.1593164135
  0
LWPOLYLINE
  5
39B
100
AcDbEntity
  8
RACCORDO
100
AcDbPolyline
 62
250
  6
CONTINUOUS
 90
25
 70
0
 10
258.8738399149
 20
168.6593925686
 10
258.841425695
 20
168.6604379987
 10
258.8090690171
 20
168.6635925005
 10
258.7769080649
 20
168.668858294
 10
258.7450448579
 20
168.676238283
 10
258.7136572011
 20
168.6857113149
 10
258.6829908218
 20
168.6972080936
 10
258.6531978696
 20
168.7106617065
 10
258.6243785916
 20
168.7260166797
 10
258.5966844181
 20
168.7431805861
 10
258.5702629418
 20
168.7620399465
 10
258.545176499
 20
168.7825273127
 10
258.5214481693
 20
168.8046186923
 10
258.4991905608
 20
168.8282157262
 10
258.4784918042
 20
168.8532319255
 10
258.4593638997
 20
168.8796841711
 10
258.4418717722
 20
168.9075555451
 10
258.426173983
 20
168.9366741457
 10
258.412415929
 20
168.9668176938
 10
258.4006549071
 20
168.9978960729
 10
258.3909705692
 20
169.0297401093
 10
258.3834625773
 20
169.0619761983
 10
258.3781382012
 20
169.0943753703
 10
258.3749635976
 20
169.1268694332
 10
258.3739160674
 20
169.1593164163
  0
LWPOLYLINE
  5
39C
100
AcDbEntity
  8
ASSI
100
AcDbPolyline
 62
250
  6
CONTINUOUS
 90
25
 70
0
 10
258.8738399149
 20
168.6593925686
 10
258.841425695
 20
168.6604379987
 10
258.8090690171
 20
168.6635925005
 10
258.7769080649
 20
168.668858294
 10
258.7450448579
 20
168.676238283
 10
258.7136572011
 20
168.6857113149
 10
258.6829908218
 20
168.6972080936
 10
258.6531978696
 20
168.7106617065
 10
258.6243785916
 20
168.7260166797
 10
258.5966844181
 20
168.7431805861
 10
258.5702629418
 20
168.7620399465
 10
258.545176499
 20
168.7825273127
 10
258.5214481693
 20
168.8046186923
 10
258.4991905608
 20
168.8282157262
 10
258.4784918042
 20
168.8532319255
 10
258.4593638997
 20
168.8796841711
 10
258.4418717722
 20
168.9075555451
 10
258.426173983
 20
168.9366741457
 10
258.412415929
 20
168.9668176938
 10
258.4006549071
 20
168.9978960729
 10
258.3909705692
 20
169.0297401093
 10
258.3834625773
 20
169.0619761983
 10
258.3781382012
 20
169.0943753703
 10
258.3749635976
 20
169.1268694332
 10
258.3739160674
 20
169.1593164163
  0
LWPOLYLINE
  5
39D
100
AcDbEntity
  8
RACCORDO
100
AcDbPolyline
 62
250
  6
CONTINUOUS
 90
25
 70
0
 10
258.8738399122
 20
168.3594382574
 10
258.8216162268
 20
168.3611387092
 10
258.7699277603
 20
168.3661956175
 10
258.7187745128
 20
168.3746089824
 10
258.6678841511
 20
168.3864535876
 10
258.6175290083
 20
168.4016546494
 10
258.5685260844
 20
168.4199878161
 10
258.5209427303
 20
168.4415061454
 10
258.4747115952
 20
168.4661565796
 10
258.4304476257
 20
168.4935555941
 10
258.3882324394
 20
168.5236842825
 10
258.3479844188
 20
168.5565615512
 10
258.3100736588
 20
168.5918605948
 10
258.27450594
 20
168.6295648876
 10
258.2412754817
 20
168.6696909553
 10
258.2107350368
 20
168.7119615693
 10
258.1828327943
 20
168.756523896
 10
258.1576205651
 20
168.803230769
 10
258.1356065351
 20
168.8513634607
 10
258.1168763645
 20
168.9010286149
 10
258.101344393
 20
168.9521195878
 10
258.0892618258
 20
169.00359772
 10
258.0807123982
 20
169.0551167919
 10
258.0756123749
 20
169.107023023
 10
258.0739617561
 20
169.1593164135
  0
LWPOLYLINE
  5
39E
100
AcDbEntity
  8
ASSI
100
AcDbPolyline
 62
250
  6
CONTINUOUS
 90
25
 70
0
 10
258.8738399122
 20
168.3594382574
 10
258.8216162268
 20
168.3611387092
 10
258.7699277603
 20
168.3661956175
 10
258.7187745128
 20
168.3746089824
 10
258.6678841511
 20
168.3864535876
 10
258.6175290083
 20
168.4016546494
 10
258.5685260844
 20
168.4199878161
 10
258.5209427303
 20
168.4415061454
 10
258.4747115952
 20
168.4661565796
 10
258.4304476257
 20
168.4935555941
 10
258.3882324394
 20
168.5236842825
 10
258.3479844188
 20
168.5565615512
 10
258.3100736588
 20
168.5918605948
 10
258.27450594
 20
168.6295648876
 10
258.2412754817
 20
168.6696909553
 10
258.2107350368
 20
168.7119615693
 10
258.1828327943
 20
168.756523896
 10
258.1576205651
 20
168.803230769
 10
258.1356065351
 20
168.8513634607
 10
258.1168763645
 20
168.9010286149
 10
258.101344393
 20
168.9521195878
 10
258.0892618258
 20
169.00359772
 10
258.0807123982
 20
169.0551167919
 10
258.0756123749
 20
169.107023023
 10
258.0739617561
 20
169.1593164135
  0
LINE
  5
39F
100
AcDbEntity
  8
RACCORDO
100
AcDbLine
 62
250
  6
CONTINUOUS
 10
303.3416300617
 20
168.6593925659
 11
303.3328111394
 21
168.6682114883
  0
LINE
  5
3A0
100
AcDbEntity
  8
ASSI
100
AcDbLine
 62
250
  6
CONTINUOUS
 10
303.3416300617
 20
168.6593925659
 11
303.3328111394
 21
168.6682114883
  0
LINE
  5
3A1
100
AcDbEntity
  8
RACCORDO
100
AcDbLine
 62
250
  6
CONTINUOUS
 10
303.8415539093
 20
169.1593164135
 11
303.8327349869
 21
169.1681353358
  0
LINE
  5
3A2
100
AcDbEntity
  8
ASSI
100
AcDbLine
 62
250
  6
CONTINUOUS
 10
303.8415539093
 20
169.1593164135
 11
303.8327349869
 21
169.1681353358
  0
LINE
  5
3A3
100
AcDbEntity
  8
RACCORDO
100
AcDbLine
 62
250
  6
CONTINUOUS
 10
237.3397006214
 20
238.7133015517
 11
237.1077349869
 21
238.9452671861
  0
LINE
  5
3A4
100
AcDbEntity
  8
ASSI
100
AcDbLine
 62
250
  6
CONTINUOUS
 10
237.3397006214
 20
238.7133015517
 11
237.1077349869
 21
238.9452671861
  0
LWPOLYLINE
  5
3A5
100
AcDbEntity
  8
0
100
AcDbPolyline
 62
7
  6
CONTINUOUS
 90
5
 70
0
 43
0.3499999917
 10
331.8434509277
 20
124.228927002
 10
331.6291699219
 20
124.5860705566
 10
330.9863012695
 20
124.5860705566
 10
330.5577392578
 20
124.228927002
 10
330.5577392578
 20
123.3717773437
  0
LWPOLYLINE
  5
3A6
100
AcDbEntity
  8
0
100
AcDbPolyline
 62
7
  6
CONTINUOUS
 90
7
 70
0
 43
0.3499999917
 10
333.5577246094
 20
127.014644165
 10
333.5577246094
 20
125.5146386719
 10
331.414888916
 20
127.014644165
 10
330.9863012695
 20
127.014644165
 10
330.5577392578
 20
126.5860693359
 10
330.5577392578
 20
125.943213501
 10
331.2005822754
 20
125.5146386719
  0
LWPOLYLINE
  5
3A7
100
AcDbEntity
  8
0
100
AcDbPolyline
 62
7
  6
CONTINUOUS
 90
7
 70
0
 43
0.3499999917
 10
333.5577246094
 20
122.5146405029
 10
333.5577246094
 20
121.0146350098
 10
331.414888916
 20
122.5146405029
 10
330.9863012695
 20
122.5146405029
 10
330.5577392578
 20
122.0860656738
 10
330.5577392578
 20
121.4432098389
 10
331.2005822754
 20
121.0146350098
  0
LWPOLYLINE
  5
3A8
100
AcDbEntity
  8
0
100
AcDbPolyline
 62
7
  6
CONTINUOUS
 90
6
 70
0
 43
0.3499999917
 10
333.5577246094
 20
123.3717773437
 10
333.5577246094
 20
124.4432080078
 10
333.3434436035
 20
124.6575018311
 10
332.2720129395
 20
124.6575018311
 10
331.8434509277
 20
124.228927002
 10
331.8434509277
 20
123.8003521729
  0
LINE
  5
3A9
100
AcDbEntity
  8
SCRITTE
100
AcDbLine
 62
250
  6
CONTINUOUS
 10
324.9991254646
 20
21.4439776157
 11
324.9999511471
 21
21.4546933681
  0
LWPOLYLINE
  5
3AA
100
AcDbEntity
  8
SCRITTE
100
AcDbPolyline
 62
250
  6
CONTINUOUS
 90
17
 70
0
 10
324.9999511471
 20
21.4546933681
 10
325.0008223391
 20
21.4650287242
 10
325.0013396432
 20
21.4707568425
 10
325.0018707379
 20
21.4763547968
 10
325.0024153982
 20
21.4818231982
 10
325.0029733991
 20
21.4871626578
 10
325.0035445156
 20
21.4923737867
 10
325.0041285228
 20
21.4974571959
 10
325.0047251958
 20
21.5024134967
 10
325.0054369876
 20
21.5080359235
 10
325.0061651472
 20
21.5134866136
 10
325.0069091093
 20
21.5187660075
 10
325.0076683085
 20
21.5238745455
 10
325.0084421794
 20
21.5288126681
 10
325.0092301565
 20
21.5335808157
 10
325.0100316938
 20
21.5381871903
 10
325.0108463227
 20
21.5426710408
  0
LWPOLYLINE
  5
3AB
100
AcDbEntity
  8
SCRITTE
100
AcDbPolyline
 62
250
  6
CONTINUOUS
 90
14
 70
0
 10
325.010803819
 20
21.11889846
 10
325.010473544
 20
21.1164551216
 10
325.0101491591
 20
21.1139050782
 10
325.0098300148
 20
21.1112459129
 10
325.0095154614
 20
21.1084752089
 10
325.0092048493
 20
21.1055905493
 10
325.0088214235
 20
21.1018221347
 10
325.0084435919
 20
21.0978752192
 10
325.0080718055
 20
21.0937531339
 10
325.0077065153
 20
21.0894592101
 10
325.0073481765
 20
21.084997026
 10
325.0069972617
 20
21.0803711486
 10
325.0066542475
 20
21.0755863917
 10
325.0060582488
 20
21.066588762
  0
LINE
  5
3AC
100
AcDbEntity
  8
SCRITTE
100
AcDbLine
 62
250
  6
CONTINUOUS
 10
324.9741542657
 20
16.8748854883
 11
325.0425913312
 21
17.3645994883
  0
LINE
  5
3AD
100
AcDbEntity
  8
SCRITTE
100
AcDbLine
 62
250
  6
CONTINUOUS
 10
324.9959734585
 20
17.3961524883
 11
324.9377842627
 21
16.9831164883
  0
LINE
  5
3AE
100
AcDbEntity
  8
RACCORDO
100
AcDbLine
 62
250
  6
CONTINUOUS
 10
238.8376449235
 20
8.6751771227
 11
238.6056792891
 21
8.4432114883
  0
LINE
  5
3AF
100
AcDbEntity
  8
ASSI
100
AcDbLine
 62
250
  6
CONTINUOUS
 10
238.8376449235
 20
8.6751771227
 11
238.6056792891
 21
8.4432114883
  0
LINE
  5
3B0
100
AcDbEntity
  8
RACCORDO
100
AcDbLine
 62
250
  6
CONTINUOUS
 10
258.3739160646
 20
27.1593164135
 11
258.3827349869
 21
27.1681353358
  0
LINE
  5
3B1
100
AcDbEntity
  8
ASSI
100
AcDbLine
 62
250
  6
CONTINUOUS
 10
258.3739160646
 20
27.1593164135
 11
258.3827349869
 21
27.1681353358
  0
LINE
  5
3B2
100
AcDbEntity
  8
RACCORDO
100
AcDbLine
 62
250
  6
CONTINUOUS
 10
258.8738399122
 20
26.6593925659
 11
258.8826588345
 21
26.6682114883
  0
LINE
  5
3B3
100
AcDbEntity
  8
ASSI
100
AcDbLine
 62
250
  6
CONTINUOUS
 10
258.8738399122
 20
26.6593925659
 11
258.8826588345
 21
26.6682114883
  0
LINE
  5
3B4
100
AcDbEntity
  8
RACCORDO
100
AcDbLine
 62
250
  6
CONTINUOUS
 10
238.8376449235
 20
240.2112458538
 11
238.6056792891
 21
240.4432114883
  0
LINE
  5
3B5
100
AcDbEntity
  8
ASSI
100
AcDbLine
 62
250
  6
CONTINUOUS
 10
238.8376449235
 20
240.2112458538
 11
238.6056792891
 21
240.4432114883
  0
LINE
  5
3B6
100
AcDbEntity
  8
RACCORDO
100
AcDbLine
 62
250
  6
CONTINUOUS
 10
258.3739160646
 20
221.727106563
 11
258.3827349869
 21
221.7182876407
  0
LINE
  5
3B7
100
AcDbEntity
  8
ASSI
100
AcDbLine
 62
250
  6
CONTINUOUS
 10
258.3739160646
 20
221.727106563
 11
258.3827349869
 21
221.7182876407
  0
LINE
  5
3B8
100
AcDbEntity
  8
RACCORDO
100
AcDbLine
 62
250
  6
CONTINUOUS
 10
258.8738399122
 20
222.2270304106
 11
258.8826588345
 21
222.2182114883
  0
LINE
  5
3B9
100
AcDbEntity
  8
ASSI
100
AcDbLine
 62
250
  6
CONTINUOUS
 10
258.8738399122
 20
222.2270304106
 11
258.8826588345
 21
222.2182114883
  0
LINE
  5
3BA
100
AcDbEntity
  8
SCRITTE
100
AcDbLine
 62
250
  6
CONTINUOUS
 10
324.9377842627
 20
13.9436724883
 11
325.0425913312
 21
14.5776594883
  0
LINE
  5
3BB
100
AcDbEntity
  8
SCRITTE
100
AcDbLine
 62
250
  6
CONTINUOUS
 10
325.0425913312
 20
20.1238784883
 11
324.9377842627
 21
19.5102784883
  0
LWPOLYLINE
  5
3BC
100
AcDbEntity
  8
SCRITTE
100
AcDbPolyline
 62
250
  6
CONTINUOUS
 90
7
 70
0
 10
325.0191880473
 20
21.1721198574
 10
325.0177445346
 20
21.16372931
 10
325.016318606
 20
21.1551876966
 10
325.014910916
 20
21.14646441
 10
325.0135221187
 20
21.1375288429
 10
325.0121528684
 20
21.128350388
 10
325.0108038194
 20
21.118898438
  0
LINE
  5
3BD
100
AcDbEntity
  8
SCRITTE
100
AcDbLine
 62
250
  6
CONTINUOUS
 10
325.0223728375
 20
21.1899328521
 11
325.0191880473
 21
21.1721198574
  0
LINE
  5
3BE
100
AcDbEntity
  8
SCRITTE
100
AcDbLine
 62
250
  6
CONTINUOUS
 10
325.0425913451
 20
21.3014839647
 11
325.02946874
 21
21.2284835979
  0
LINE
  5
3BF
100
AcDbEntity
  8
SCRITTE
100
AcDbLine
 62
250
  6
CONTINUOUS
 10
325.02946874
 20
21.2284835979
 11
325.0223728375
 21
21.1899328521
  0
LINE
  5
3C0
100
AcDbEntity
  8
SCRITTE
100
AcDbLine
 62
250
  6
CONTINUOUS
 10
325.0099262437
 20
14.7783514883
 11
324.9377842627
 21
14.3971454883
  0
LINE
  5
3C1
100
AcDbEntity
  8
SCRITTE
100
AcDbLine
 62
250
  6
CONTINUOUS
 10
325.0108463227
 20
21.5426710408
 11
325.0125130578
 21
21.5514592112
  0
LINE
  5
3C2
100
AcDbEntity
  8
SCRITTE
100
AcDbLine
 62
250
  6
CONTINUOUS
 10
325.0216681018
 20
19.5757684883
 11
325.0425913312
 21
19.6839094883
  0
LINE
  5
3C3
100
AcDbEntity
  8
SCRITTE
100
AcDbLine
 62
250
  6
CONTINUOUS
 10
325.0125130578
 20
21.5514592112
 11
325.0215256264
 21
21.5976305443
  0
LINE
  5
3C4
100
AcDbEntity
  8
SCRITTE
100
AcDbLine
 62
250
  6
CONTINUOUS
 10
325.0380235016
 20
21.6797944667
 11
325.0425913451
 21
21.7030171069
  0
LINE
  5
3C5
100
AcDbEntity
  8
SCRITTE
100
AcDbLine
 62
250
  6
CONTINUOUS
 10
325.0215256264
 20
21.5976305443
 11
325.0380235016
 21
21.6797944667
  0
LINE
  5
3C6
100
AcDbEntity
  8
SCRITTE
100
AcDbLine
 62
250
  6
CONTINUOUS
 10
324.9665825994
 20
19.3005214883
 11
325.0054778189
 21
19.4923424883
  0
LINE
  5
3C7
100
AcDbEntity
  8
SCRITTE
100
AcDbLine
 62
250
  6
CONTINUOUS
 10
325.0425913312
 20
18.4136244883
 11
324.9377842627
 21
18.2266174883
  0
LINE
  5
3C8
100
AcDbEntity
  8
SCRITTE
100
AcDbLine
 62
250
  6
CONTINUOUS
 10
324.9744396261
 20
17.9194864883
 11
325.0425913312
 21
18.0052534883
  0
LINE
  5
3C9
100
AcDbEntity
  8
RACCORDO
100
AcDbLine
 62
250
  6
CONTINUOUS
 10
304.1415082178
 20
221.727106563
 11
303.8415539093
 21
221.727106563
  0
LINE
  5
3CA
100
AcDbEntity
  8
ASSI
100
AcDbLine
 62
250
  6
CONTINUOUS
 10
304.1415082178
 20
221.727106563
 11
303.8415539093
 21
221.727106563
  0
LINE
  5
3CB
100
AcDbEntity
  8
RACCORDO
100
AcDbLine
 62
250
  6
CONTINUOUS
 10
258.0739617561
 20
221.727106563
 11
258.3739160646
 21
221.727106563
  0
LINE
  5
3CC
100
AcDbEntity
  8
ASSI
100
AcDbLine
 62
250
  6
CONTINUOUS
 10
258.0739617561
 20
221.727106563
 11
258.3739160646
 21
221.727106563
  0
LINE
  5
3CD
100
AcDbEntity
  8
RACCORDO
100
AcDbLine
 62
7
  6
CONTINUOUS
 10
303.3328111394
 20
222.2182114883
 11
258.8826588345
 21
222.2182114883
  0
LINE
  5
3CE
100
AcDbEntity
  8
ASSI
100
AcDbLine
 62
7
  6
CONTINUOUS
 10
303.3328111394
 20
222.2182114883
 11
258.8826588345
 21
222.2182114883
  0
LINE
  5
3CF
100
AcDbEntity
  8
RACCORDO
100
AcDbLine
 62
250
  6
CONTINUOUS
 10
258.8738399122
 20
222.2270304106
 11
303.3416300617
 21
222.2270304106
  0
LINE
  5
3D0
100
AcDbEntity
  8
ASSI
100
AcDbLine
 62
250
  6
CONTINUOUS
 10
258.8738399122
 20
222.2270304106
 11
303.3416300617
 21
222.2270304106
  0
LINE
  5
3D1
100
AcDbEntity
  8
RACCORDO
100
AcDbLine
 62
250
  6
CONTINUOUS
 10
258.8738399122
 20
222.5269847191
 11
303.3416300617
 21
222.5269847191
  0
LINE
  5
3D2
100
AcDbEntity
  8
ASSI
100
AcDbLine
 62
250
  6
CONTINUOUS
 10
258.8738399122
 20
222.5269847191
 11
303.3416300617
 21
222.5269847191
  0
LWPOLYLINE
  5
3D3
100
AcDbEntity
  8
RACCORDO
100
AcDbPolyline
 62
250
  6
CONTINUOUS
 90
25
 70
0
 10
303.341630059
 20
222.2270304079
 10
303.3740442789
 20
222.2259849778
 10
303.4064009568
 20
222.222830476
 10
303.438561909
 20
222.2175646825
 10
303.470425116
 20
222.2101846935
 10
303.5018127728
 20
222.2007116616
 10
303.5324791521
 20
222.1892148829
 10
303.5622721043
 20
222.17576127
 10
303.5910913823
 20
222.1604062968
 10
303.6187855558
 20
222.1432423904
 10
303.6452070321
 20
222.12438303
 10
303.6702934749
 20
222.1038956638
 10
303.6940218046
 20
222.0818042842
 10
303.7162794131
 20
222.0582072503
 10
303.7369781697
 20
222.033191051
 10
303.7561060742
 20
222.0067388054
 10
303.7735982017
 20
221.9788674314
 10
303.7892959909
 20
221.9497488308
 10
303.8030540449
 20
221.9196052827
 10
303.8148150668
 20
221.8885269036
 10
303.8244994047
 20
221.8566828672
 10
303.8320073966
 20
221.8244467782
 10
303.8373317727
 20
221.7920476062
 10
303.8405063763
 20
221.7595535433
 10
303.8415539064
 20
221.7271065602
  0
LWPOLYLINE
  5
3D4
100
AcDbEntity
  8
ASSI
100
AcDbPolyline
 62
250
  6
CONTINUOUS
 90
25
 70
0
 10
303.341630059
 20
222.2270304079
 10
303.3740442789
 20
222.2259849778
 10
303.4064009568
 20
222.222830476
 10
303.438561909
 20
222.2175646825
 10
303.470425116
 20
222.2101846935
 10
303.5018127728
 20
222.2007116616
 10
303.5324791521
 20
222.1892148829
 10
303.5622721043
 20
222.17576127
 10
303.5910913823
 20
222.1604062968
 10
303.6187855558
 20
222.1432423904
 10
303.6452070321
 20
222.12438303
 10
303.6702934749
 20
222.1038956638
 10
303.6940218046
 20
222.0818042842
 10
303.7162794131
 20
222.0582072503
 10
303.7369781697
 20
222.033191051
 10
303.7561060742
 20
222.0067388054
 10
303.7735982017
 20
221.9788674314
 10
303.7892959909
 20
221.9497488308
 10
303.8030540449
 20
221.9196052827
 10
303.8148150668
 20
221.8885269036
 10
303.8244994047
 20
221.8566828672
 10
303.8320073966
 20
221.8244467782
 10
303.8373317727
 20
221.7920476062
 10
303.8405063763
 20
221.7595535433
 10
303.8415539064
 20
221.7271065602
  0
LWPOLYLINE
  5
3D5
100
AcDbEntity
  8
RACCORDO
100
AcDbPolyline
 62
250
  6
CONTINUOUS
 90
25
 70
0
 10
303.3416300617
 20
222.5269847191
 10
303.3938537471
 20
222.5252842673
 10
303.4455422136
 20
222.520227359
 10
303.496695461
 20
222.5118139941
 10
303.5475858228
 20
222.4999693889
 10
303.5979409656
 20
222.4847683271
 10
303.6469438895
 20
222.4664351604
 10
303.6945272435
 20
222.4449168311
 10
303.7407583787
 20
222.4202663969
 10
303.7850223481
 20
222.3928673824
 10
303.8272375345
 20
222.362738694
 10
303.8674855551
 20
222.3298614253
 10
303.9053963151
 20
222.2945623817
 10
303.9409640339
 20
222.2568580889
 10
303.9741944922
 20
222.2167320212
 10
304.0047349371
 20
222.1744614072
 10
304.0326371796
 20
222.1298990805
 10
304.0578494088
 20
222.0831922075
 10
304.0798634388
 20
222.0350595158
 10
304.0985936094
 20
221.9853943616
 10
304.1141255809
 20
221.9343033887
 10
304.126208148
 20
221.8828252565
 10
304.1347575757
 20
221.8313061846
 10
304.139857599
 20
221.7793999535
 10
304.1415082178
 20
221.727106563
  0
LWPOLYLINE
  5
3D6
100
AcDbEntity
  8
ASSI
100
AcDbPolyline
 62
250
  6
CONTINUOUS
 90
25
 70
0
 10
303.3416300617
 20
222.5269847191
 10
303.3938537471
 20
222.5252842673
 10
303.4455422136
 20
222.520227359
 10
303.496695461
 20
222.5118139941
 10
303.5475858228
 20
222.4999693889
 10
303.5979409656
 20
222.4847683271
 10
303.6469438895
 20
222.4664351604
 10
303.6945272435
 20
222.4449168311
 10
303.7407583787
 20
222.4202663969
 10
303.7850223481
 20
222.3928673824
 10
303.8272375345
 20
222.362738694
 10
303.8674855551
 20
222.3298614253
 10
303.9053963151
 20
222.2945623817
 10
303.9409640339
 20
222.2568580889
 10
303.9741944922
 20
222.2167320212
 10
304.0047349371
 20
222.1744614072
 10
304.0326371796
 20
222.1298990805
 10
304.0578494088
 20
222.0831922075
 10
304.0798634388
 20
222.0350595158
 10
304.0985936094
 20
221.9853943616
 10
304.1141255809
 20
221.9343033887
 10
304.126208148
 20
221.8828252565
 10
304.1347575757
 20
221.8313061846
 10
304.139857599
 20
221.7793999535
 10
304.1415082178
 20
221.727106563
  0
LWPOLYLINE
  5
3D7
100
AcDbEntity
  8
SCRITTE
100
AcDbPolyline
 62
250
  6
CONTINUOUS
 90
24
 70
0
 10
324.9681238245
 20
21.2112196142
 10
324.9677312779
 20
21.2109876545
 10
324.9673408882
 20
21.2105282146
 10
324.9669525129
 20
21.2098434926
 10
324.9665660094
 20
21.2089356865
 10
324.9661812355
 20
21.2078069943
 10
324.9657980486
 20
21.2064596141
 10
324.9654163062
 20
21.204895744
 10
324.9650358659
 20
21.203117582
 10
324.9646566792
 20
21.2011269491
 10
324.9642790733
 20
21.1989241575
 10
324.9639034696
 20
21.1965091429
 10
324.9635302893
 20
21.1938818403
 10
324.9631599537
 20
21.1910421852
 10
324.9627928839
 20
21.187990113
 10
324.9624295014
 20
21.1847255589
 10
324.9620702272
 20
21.1812484583
 10
324.961715502
 20
21.1775587413
 10
324.9613658431
 20
21.1736563171
 10
324.9610217872
 20
21.1695410895
 10
324.9606838709
 20
21.1652129627
 10
324.960352631
 20
21.1606718404
 10
324.9600286041
 20
21.1559176266
 10
324.9594043358
 20
21.1457695404
  0
LWPOLYLINE
  5
3D8
100
AcDbEntity
  8
RACCORDO
100
AcDbPolyline
 62
250
  6
CONTINUOUS
 90
31
 70
0
 10
238.8376449235
 20
239.7119310864
 10
238.7849640311
 20
239.7105048368
 10
238.7327941042
 20
239.7064008628
 10
238.6811351426
 20
239.6996191647
 10
238.6298798133
 20
239.690128496
 10
238.5791354494
 20
239.677960103
 10
238.5292240504
 20
239.6632077246
 10
238.4801178791
 20
239.6458473553
 10
238.4318446727
 20
239.6259030005
 10
238.3848096415
 20
239.6035404152
 10
238.3390292278
 20
239.5787421796
 10
238.2944869894
 20
239.5515257136
 10
238.25153881
 20
239.5221090319
 10
238.2101954427
 20
239.4904732485
 10
238.1704461344
 20
239.4566372494
 10
238.1326145092
 20
239.4208757077
 10
238.0967162684
 20
239.3831726591
 10
238.0627357107
 20
239.3435440679
 10
238.0309493566
 20
239.3023124998
 10
238.001384303
 20
239.2594921139
 10
237.9740134529
 20
239.2150687511
 10
237.9490320363
 20
239.1693224998
 10
237.9264379387
 20
239.1222193864
 10
237.9062332746
 20
239.0737933845
 10
237.8886196166
 20
239.0244265024
 10
237.8736173613
 20
238.9740953057
 10
237.8612061123
 20
238.9228232288
 10
237.8515262522
 20
238.8710625838
 10
237.8446245754
 20
238.8189641413
 10
237.8404542876
 20
238.7663771305
 10
237.8390153888
 20
238.7133015517
  0
LWPOLYLINE
  5
3D9
100
AcDbEntity
  8
ASSI
100
AcDbPolyline
 62
250
  6
CONTINUOUS
 90
31
 70
0
 10
238.8376449235
 20
239.7119310864
 10
238.7849640311
 20
239.7105048368
 10
238.7327941042
 20
239.7064008628
 10
238.6811351426
 20
239.6996191647
 10
238.6298798133
 20
239.690128496
 10
238.5791354494
 20
239.677960103
 10
238.5292240504
 20
239.6632077246
 10
238.4801178791
 20
239.6458473553
 10
238.4318446727
 20
239.6259030005
 10
238.3848096415
 20
239.6035404152
 10
238.3390292278
 20
239.5787421796
 10
238.2944869894
 20
239.5515257136
 10
238.25153881
 20
239.5221090319
 10
238.2101954427
 20
239.4904732485
 10
238.1704461344
 20
239.4566372494
 10
238.1326145092
 20
239.4208757077
 10
238.0967162684
 20
239.3831726591
 10
238.0627357107
 20
239.3435440679
 10
238.0309493566
 20
239.3023124998
 10
238.001384303
 20
239.2594921139
 10
237.9740134529
 20
239.2150687511
 10
237.9490320363
 20
239.1693224998
 10
237.9264379387
 20
239.1222193864
 10
237.9062332746
 20
239.0737933845
 10
237.8886196166
 20
239.0244265024
 10
237.8736173613
 20
238.9740953057
 10
237.8612061123
 20
238.9228232288
 10
237.8515262522
 20
238.8710625838
 10
237.8446245754
 20
238.8189641413
 10
237.8404542876
 20
238.7663771305
 10
237.8390153888
 20
238.7133015517
  0
LWPOLYLINE
  5
3DA
100
AcDbEntity
  8
RACCORDO
100
AcDbPolyline
 62
250
  6
CONTINUOUS
 90
31
 70
0
 10
238.8376449235
 20
240.2112458538
 10
238.759042013
 20
240.2091145991
 10
238.6807819724
 20
240.2028809681
 10
238.6030771894
 20
240.1925810424
 10
238.5261808485
 20
240.178271479
 10
238.4502535617
 20
240.1600047624
 10
238.375368308
 20
240.137806114
 10
238.3016795287
 20
240.1117147377
 10
238.2294385201
 20
240.0818130214
 10
238.1588624368
 20
240.0481894112
 10
238.0901513664
 20
240.0109413039
 10
238.0234817301
 20
239.9701666896
 10
237.9590269924
 20
239.9259715328
 10
237.8969595314
 20
239.8784731652
 10
237.837451004
 20
239.8278022924
 10
237.7806647031
 20
239.7740973848
 10
237.7267548705
 20
239.7175039345
 10
237.675868055
 20
239.6581756813
 10
237.6281438952
 20
239.5962756517
 10
237.5837355273
 20
239.5320080535
 10
237.5427360267
 20
239.4655137701
 10
237.5051981586
 20
239.3968604073
 10
237.4712239622
 20
239.3261861867
 10
237.4409455583
 20
239.2537125212
 10
237.4144641502
 20
239.1796317935
 10
237.3918664308
 20
239.1041228648
 10
237.3732404157
 20
239.0274057064
 10
237.3586652824
 20
238.9497447254
 10
237.3481940272
 20
238.8713721267
 10
237.3418629278
 20
238.7924849974
 10
237.3397006214
 20
238.7133015517
  0
LWPOLYLINE
  5
3DB
100
AcDbEntity
  8
ASSI
100
AcDbPolyline
 62
250
  6
CONTINUOUS
 90
31
 70
0
 10
238.8376449235
 20
240.2112458538
 10
238.759042013
 20
240.2091145991
 10
238.6807819724
 20
240.2028809681
 10
238.6030771894
 20
240.1925810424
 10
238.5261808485
 20
240.178271479
 10
238.4502535617
 20
240.1600047624
 10
238.375368308
 20
240.137806114
 10
238.3016795287
 20
240.1117147377
 10
238.2294385201
 20
240.0818130214
 10
238.1588624368
 20
240.0481894112
 10
238.0901513664
 20
240.0109413039
 10
238.0234817301
 20
239.9701666896
 10
237.9590269924
 20
239.9259715328
 10
237.8969595314
 20
239.8784731652
 10
237.837451004
 20
239.8278022924
 10
237.7806647031
 20
239.7740973848
 10
237.7267548705
 20
239.7175039345
 10
237.675868055
 20
239.6581756813
 10
237.6281438952
 20
239.5962756517
 10
237.5837355273
 20
239.5320080535
 10
237.5427360267
 20
239.4655137701
 10
237.5051981586
 20
239.3968604073
 10
237.4712239622
 20
239.3261861867
 10
237.4409455583
 20
239.2537125212
 10
237.4144641502
 20
239.1796317935
 10
237.3918664308
 20
239.1041228648
 10
237.3732404157
 20
239.0274057064
 10
237.3586652824
 20
238.9497447254
 10
237.3481940272
 20
238.8713721267
 10
237.3418629278
 20
238.7924849974
 10
237.3397006214
 20
238.7133015517
  0
LWPOLYLINE
  5
3DC
100
AcDbEntity
  8
0
100
AcDbPolyline
 62
7
  6
CONTINUOUS
 90
31
 70
0
 10
238.6056792891
 20
240.4432114883
 10
238.5273741737
 20
240.4411697217
 10
238.4491329054
 20
240.4350299273
 10
238.371170626
 20
240.4247841206
 10
238.2935981269
 20
240.4104137252
 10
238.216741378
 20
240.3919446711
 10
238.1411277023
 20
240.3695024983
 10
238.0670495355
 20
240.3432085461
 10
237.9946069471
 20
240.3131340061
 10
237.9240159956
 20
240.2793979171
 10
237.8556065368
 20
240.2422065706
 10
237.7893890971
 20
240.201615272
 10
237.7251272517
 20
240.1574683513
 10
237.6628153869
 20
240.1096803099
 10
237.6028745215
 20
240.0584889176
 10
237.545713771
 20
240.0042117182
 10
237.4914860857
 20
239.9469922644
 10
237.440346858
 20
239.8869942215
 10
237.3926273968
 20
239.8246462939
 10
237.3485602849
 20
239.7603688149
 10
237.3080591846
 20
239.6941606257
 10
237.2709809899
 20
239.6258173757
 10
237.2373885334
 20
239.5553886617
 10
237.2074595892
 20
239.4831731109
 10
237.1812784088
 20
239.4093100735
 10
237.1589140115
 20
239.3338778359
 10
237.1404978624
 20
239.2571842819
 10
237.1261551874
 20
239.1797305303
 10
237.1159185298
 20
239.1018321158
 10
237.1097785674
 20
239.0236061964
 10
237.1077349869
 20
238.9452671861
  0
LWPOLYLINE
  5
3DD
100
AcDbEntity
  8
ASSI
100
AcDbPolyline
 62
7
  6
CONTINUOUS
 90
31
 70
0
 10
238.6056792891
 20
240.4432114883
 10
238.5273741737
 20
240.4411697217
 10
238.4491329054
 20
240.4350299273
 10
238.371170626
 20
240.4247841206
 10
238.2935981269
 20
240.4104137252
 10
238.216741378
 20
240.3919446711
 10
238.1411277023
 20
240.3695024983
 10
238.0670495355
 20
240.3432085461
 10
237.9946069471
 20
240.3131340061
 10
237.9240159956
 20
240.2793979171
 10
237.8556065368
 20
240.2422065706
 10
237.7893890971
 20
240.201615272
 10
237.7251272517
 20
240.1574683513
 10
237.6628153869
 20
240.1096803099
 10
237.6028745215
 20
240.0584889176
 10
237.545713771
 20
240.0042117182
 10
237.4914860857
 20
239.9469922644
 10
237.440346858
 20
239.8869942215
 10
237.3926273968
 20
239.8246462939
 10
237.3485602849
 20
239.7603688149
 10
237.3080591846
 20
239.6941606257
 10
237.2709809899
 20
239.6258173757
 10
237.2373885334
 20
239.5553886617
 10
237.2074595892
 20
239.4831731109
 10
237.1812784088
 20
239.4093100735
 10
237.1589140115
 20
239.3338778359
 10
237.1404978624
 20
239.2571842819
 10
237.1261551874
 20
239.1797305303
 10
237.1159185298
 20
239.1018321158
 10
237.1097785674
 20
239.0236061964
 10
237.1077349869
 20
238.9452671861
  0
LINE
  5
3DE
100
AcDbEntity
  8
RACCORDO
100
AcDbLine
 62
250
  6
CONTINUOUS
 10
237.8390153888
 20
238.7133015517
 11
237.3397006214
 21
238.7133015517
  0
LINE
  5
3DF
100
AcDbEntity
  8
ASSI
100
AcDbLine
 62
250
  6
CONTINUOUS
 10
237.8390153888
 20
238.7133015517
 11
237.3397006214
 21
238.7133015517
  0
LINE
  5
3E0
100
AcDbEntity
  8
RACCORDO
100
AcDbLine
 62
250
  6
CONTINUOUS
 10
324.3764545851
 20
238.7133015517
 11
324.8757693525
 21
238.7133015517
  0
LINE
  5
3E1
100
AcDbEntity
  8
ASSI
100
AcDbLine
 62
250
  6
CONTINUOUS
 10
324.3764545851
 20
238.7133015517
 11
324.8757693525
 21
238.7133015517
  0
LINE
  5
3E2
100
AcDbEntity
  8
RACCORDO
100
AcDbLine
 62
250
  6
CONTINUOUS
 10
323.3778250503
 20
239.7119310864
 11
238.8376449235
 21
239.7119310864
  0
LINE
  5
3E3
100
AcDbEntity
  8
ASSI
100
AcDbLine
 62
250
  6
CONTINUOUS
 10
323.3778250503
 20
239.7119310864
 11
238.8376449235
 21
239.7119310864
  0
LINE
  5
3E4
100
AcDbEntity
  8
RACCORDO
100
AcDbLine
 62
250
  6
CONTINUOUS
 10
323.3778250503
 20
240.2112458538
 11
238.8376449235
 21
240.2112458538
  0
LINE
  5
3E5
100
AcDbEntity
  8
ASSI
100
AcDbLine
 62
250
  6
CONTINUOUS
 10
323.3778250503
 20
240.2112458538
 11
238.8376449235
 21
240.2112458538
  0
LINE
  5
3E6
100
AcDbEntity
  8
0
100
AcDbLine
 62
7
  6
CONTINUOUS
 10
323.6097906848
 20
240.4432114883
 11
238.6056792891
 21
240.4432114883
  0
LINE
  5
3E7
100
AcDbEntity
  8
ASSI
100
AcDbLine
 62
7
  6
CONTINUOUS
 10
323.6097906848
 20
240.4432114883
 11
238.6056792891
 21
240.4432114883
  0
LINE
  5
3E8
100
AcDbEntity
  8
RACCORDO
100
AcDbLine
 62
7
  6
CONTINUOUS
 10
207.5727836077
 20
9.2777889102
 11
205.1606582668
 21
9.1513747777
  0
LINE
  5
3E9
100
AcDbEntity
  8
ASSI
100
AcDbLine
 62
7
  6
CONTINUOUS
 10
207.5727836077
 20
9.2777889102
 11
205.1606582668
 21
9.1513747777
  0
LINE
  5
3EA
100
AcDbEntity
  8
RACCORDO
100
AcDbLine
 62
7
  6
CONTINUOUS
 10
200.3361484383
 20
8.6751771227
 11
204.7623164164
 21
8.4432114883
  0
LINE
  5
3EB
100
AcDbEntity
  8
ASSI
100
AcDbLine
 62
7
  6
CONTINUOUS
 10
200.3361484383
 20
8.6751771227
 11
204.7623164164
 21
8.4432114883
  0
LINE
  5
3EC
100
AcDbEntity
  8
0
100
AcDbLine
 62
250
  6
CONTINUOUS
 10
204.7623164164
 20
9.9411557904
 11
205.1606582668
 21
9.9447977121
  0
LINE
  5
3ED
100
AcDbEntity
  8
ASSI
100
AcDbLine
 62
250
  6
CONTINUOUS
 10
204.7623164164
 20
9.9411557904
 11
205.1606582668
 21
9.9447977121
  0
LINE
  5
3EE
100
AcDbEntity
  8
RACCORDO
100
AcDbLine
 62
250
  6
CONTINUOUS
 10
207.7623164164
 20
9.9452700072
 11
205.1606582668
 21
9.9452700072
  0
LINE
  5
3EF
100
AcDbEntity
  8
ASSI
100
AcDbLine
 62
250
  6
CONTINUOUS
 10
207.7623164164
 20
9.9452700072
 11
205.1606582668
 21
9.9452700072
  0
LINE
  5
3F0
100
AcDbEntity
  8
RACCORDO
100
AcDbLine
 62
250
  6
CONTINUOUS
 10
199.8623164164
 20
10.1731214248
 11
200.3361484383
 21
10.1731214248
  0
LINE
  5
3F1
100
AcDbEntity
  8
ASSI
100
AcDbLine
 62
250
  6
CONTINUOUS
 10
199.8623164164
 20
10.1731214248
 11
200.3361484383
 21
10.1731214248
  0
LINE
  5
3F2
100
AcDbEntity
  8
SCRITTE
100
AcDbLine
 62
250
  6
CONTINUOUS
 10
203.5193014164
 20
15.7432754883
 11
201.5193434164
 21
15.7432754883
  0
LINE
  5
3F3
100
AcDbEntity
  8
SCRITTE
100
AcDbLine
 62
250
  6
CONTINUOUS
 10
201.5193434164
 20
16.1607194883
 11
203.5193014164
 21
16.1607194883
  0
LINE
  5
3F4
100
AcDbEntity
  8
RACCORDO
100
AcDbLine
 62
250
  6
CONTINUOUS
 10
200.3361484383
 20
10.1731214248
 11
204.7623164164
 21
9.9411557904
  0
LINE
  5
3F5
100
AcDbEntity
  8
ASSI
100
AcDbLine
 62
250
  6
CONTINUOUS
 10
200.3361484383
 20
10.1731214248
 11
204.7623164164
 21
9.9411557904
  0
LINE
  5
3F6
100
AcDbEntity
  8
SCRITTE
100
AcDbLine
 62
250
  6
CONTINUOUS
 10
203.5193014164
 20
16.7848014883
 11
202.2134444164
 21
16.8748854883
  0
LINE
  5
3F7
100
AcDbEntity
  8
SCRITTE
100
AcDbLine
 62
250
  6
CONTINUOUS
 10
201.5194634164
 20
16.5660174883
 11
203.5193014164
 21
16.3854434883
  0
LINE
  5
3F8
100
AcDbEntity
  8
SCRITTE
100
AcDbLine
 62
250
  6
CONTINUOUS
 10
202.8960144164
 20
14.7783514883
 11
201.5194634164
 21
14.3971454883
  0
LINE
  5
3F9
100
AcDbEntity
  8
SCRITTE
100
AcDbLine
 62
250
  6
CONTINUOUS
 10
203.1200624164
 20
19.5757684883
 11
203.5193014164
 21
19.6839094883
  0
LINE
  5
3FA
100
AcDbEntity
  8
SCRITTE
100
AcDbLine
 62
250
  6
CONTINUOUS
 10
202.0689684164
 20
19.3005214883
 11
202.8111334164
 21
19.4923424883
  0
LINE
  5
3FB
100
AcDbEntity
  8
SCRITTE
100
AcDbLine
 62
250
  6
CONTINUOUS
 10
203.5193014164
 20
18.4136244883
 11
201.5194634164
 21
18.2266174883
  0
LINE
  5
3FC
100
AcDbEntity
  8
SCRITTE
100
AcDbLine
 62
250
  6
CONTINUOUS
 10
202.2188894164
 20
17.9194864883
 11
203.5193014164
 21
18.0052534883
  0
LWPOLYLINE
  5
3FD
100
AcDbEntity
  8
SCRITTE
100
AcDbPolyline
 62
250
  6
CONTINUOUS
 90
49
 70
0
 10
202.0983767433
 20
21.2112196142
 10
202.090886508
 20
21.2109876545
 10
202.0834374281
 20
21.2105282146
 10
202.076026785
 20
21.2098434926
 10
202.0686518607
 20
21.2089356865
 10
202.0613099366
 20
21.2078069943
 10
202.0539982944
 20
21.2064596141
 10
202.0467142158
 20
21.204895744
 10
202.0394549826
 20
21.203117582
 10
202.032219669
 20
21.2011269491
 10
202.0250145204
 20
21.1989241575
 10
202.0178475748
 20
21.1965091429
 10
202.0107268704
 20
21.1938818403
 10
202.0036604452
 20
21.1910421852
 10
201.9966563373
 20
21.187990113
 10
201.9897225847
 20
21.1847255589
 10
201.9828672255
 20
21.1812484583
 10
201.9760986648
 20
21.1775587413
 10
201.9694267755
 20
21.1736563171
 10
201.9628617979
 20
21.1695410895
 10
201.956413972
 20
21.1652129627
 10
201.9500935379
 20
21.1606718404
 10
201.9439107356
 20
21.1559176266
 10
201.9378758052
 20
21.1509502253
 10
201.9319989868
 20
21.1457695404
 10
201.92628946
 20
21.1403768596
 10
201.9207521621
 20
21.1347790064
 10
201.9153909701
 20
21.1289841877
 10
201.9102097608
 20
21.1230006107
 10
201.9052124112
 20
21.1168364825
 10
201.900402798
 20
21.1105000101
 10
201.8957847983
 20
21.1039994008
 10
201.8913622889
 20
21.0973428616
 10
201.8871386246
 20
21.0905386108
 10
201.8831150717
 20
21.0835949115
 10
201.8792923744
 20
21.0765200381
 10
201.875671277
 20
21.0693222647
 10
201.8722525235
 20
21.0620098657
 10
201.8690368583
 20
21.0545911154
 10
201.8660250255
 20
21.0470742881
 10
201.8632177694
 20
21.039467658
 10
201.860616164
 20
21.0317776016
 10
201.8582226032
 20
21.0240029043
 10
201.8560398107
 20
21.0161404535
 10
201.8540705103
 20
21.0081871367
 10
201.8523174255
 20
21.0001398414
 10
201.8507832803
 20
20.9919954551
 10
201.8494707982
 20
20.9837508653
 10
201.8483827031
 20
20.9754029595
  0
LINE
  5
3FE
100
AcDbEntity
  8
SCRITTE
100
AcDbLine
 62
250
  6
CONTINUOUS
 10
203.5193016817
 20
20.2464603199
 11
201.5428288346
 21
20.2464603199
  0
LINE
  5
3FF
100
AcDbEntity
  8
SCRITTE
100
AcDbLine
 62
250
  6
CONTINUOUS
 10
201.8601562404
 20
20.6483833729
 11
202.4091506483
 21
20.6483833729
  0
LINE
  5
400
100
AcDbEntity
  8
SCRITTE
100
AcDbLine
 62
250
  6
CONTINUOUS
 10
202.7366757212
 20
20.6622252064
 11
203.5193016817
 21
20.6622252064
  0
LINE
  5
401
100
AcDbEntity
  8
SCRITTE
100
AcDbLine
 62
250
  6
CONTINUOUS
 10
202.5739779411
 20
21.3196897998
 11
202.5857952377
 21
21.3196897998
  0
LINE
  5
402
100
AcDbEntity
  8
SCRITTE
100
AcDbLine
 62
250
  6
CONTINUOUS
 10
202.8111334164
 20
19.0926694883
 11
202.0689684164
 21
19.3005214883
  0
LINE
  5
403
100
AcDbEntity
  8
SCRITTE
100
AcDbLine
 62
250
  6
CONTINUOUS
 10
201.5194634164
 20
15.1712004883
 11
202.8960144164
 21
14.7783514883
  0
LINE
  5
404
100
AcDbEntity
  8
SCRITTE
100
AcDbLine
 62
250
  6
CONTINUOUS
 10
203.5193014164
 20
18.8920904883
 11
203.1200624164
 21
19.0072784883
  0
LINE
  5
405
100
AcDbEntity
  8
SCRITTE
100
AcDbLine
 62
250
  6
CONTINUOUS
 10
201.5194634164
 20
19.1064514883
 11
203.5193014164
 21
18.4791744883
  0
LINE
  5
406
100
AcDbEntity
  8
SCRITTE
100
AcDbLine
 62
250
  6
CONTINUOUS
 10
203.5193014164
 20
14.9455324883
 11
201.5194634164
 21
15.5883604883
  0
LINE
  5
407
100
AcDbEntity
  8
SCRITTE
100
AcDbLine
 62
250
  6
CONTINUOUS
 10
201.5194634164
 20
17.8135964883
 11
202.6297794164
 21
17.3961524883
  0
LINE
  5
408
100
AcDbEntity
  8
SCRITTE
100
AcDbLine
 62
250
  6
CONTINUOUS
 10
203.5193014164
 20
17.4231454883
 11
202.2188894164
 21
17.9194864883
  0
LWPOLYLINE
  5
409
100
AcDbEntity
  8
SCRITTE
100
AcDbPolyline
 62
250
  6
CONTINUOUS
 90
3
 70
0
 10
203.2345266109
 20
21.2186572691
 10
203.1668118801
 20
21.1994373567
 10
203.1006070636
 20
21.1803899462
  0
LINE
  5
40A
100
AcDbEntity
  8
SCRITTE
100
AcDbLine
 62
250
  6
CONTINUOUS
 10
202.9293558434
 20
21.5470793776
 11
203.0711977619
 21
21.5853920766
  0
LINE
  5
40B
100
AcDbEntity
  8
SCRITTE
100
AcDbLine
 62
250
  6
CONTINUOUS
 10
203.4321420357
 20
21.6797944667
 11
203.5193016817
 21
21.7030171069
  0
LINE
  5
40C
100
AcDbEntity
  8
SCRITTE
100
AcDbLine
 62
250
  6
CONTINUOUS
 10
203.0711977619
 20
21.5853920766
 11
203.254025079
 21
21.6334484062
  0
LINE
  5
40D
100
AcDbEntity
  8
SCRITTE
100
AcDbLine
 62
250
  6
CONTINUOUS
 10
203.254025079
 20
21.6334484062
 11
203.4321420357
 21
21.6797944667
  0
LWPOLYLINE
  5
40E
100
AcDbEntity
  8
RACCORDO
100
AcDbPolyline
 62
250
  6
CONTINUOUS
 90
10
 70
0
 10
200.3361484383
 20
8.6751771227
 10
200.3348270245
 20
8.6773083774
 10
200.3335713956
 20
8.6835420084
 10
200.3323907915
 20
8.6938419341
 10
200.3312994584
 20
8.7081514975
 10
200.3302991165
 20
8.7264182141
 10
200.3293804283
 20
8.7486168625
 10
200.3285496937
 20
8.7747082388
 10
200.3278155043
 20
8.8046099551
 10
200.3271719845
 20
8.8382335653
  0
LWPOLYLINE
  5
40F
100
AcDbEntity
  8
ASSI
100
AcDbPolyline
 62
250
  6
CONTINUOUS
 90
10
 70
0
 10
200.3361484383
 20
8.6751771227
 10
200.3348270245
 20
8.6773083774
 10
200.3335713956
 20
8.6835420084
 10
200.3323907915
 20
8.6938419341
 10
200.3312994584
 20
8.7081514975
 10
200.3302991165
 20
8.7264182141
 10
200.3293804283
 20
8.7486168625
 10
200.3285496937
 20
8.7747082388
 10
200.3278155043
 20
8.8046099551
 10
200.3271719845
 20
8.8382335653
  0
LWPOLYLINE
  5
410
100
AcDbEntity
  8
0
100
AcDbPolyline
 62
7
  6
CONTINUOUS
 90
10
 70
0
 43
0.3499999917
 10
216.1536767578
 20
2.0309857178
 10
216.2251208496
 20
1.8881263733
 10
216.2251208496
 20
1.8166983032
 10
216.0822583008
 20
1.6738421631
 10
216.010814209
 20
1.6738421631
 10
215.939395752
 20
1.7452702332
 10
215.939395752
 20
1.8166983032
 10
216.010814209
 20
1.9595544434
 10
216.0822583008
 20
2.0309857178
 10
216.1536767578
 20
2.0309857178
  0
LWPOLYLINE
  5
411
100
AcDbEntity
  8
SCRITTE
100
AcDbPolyline
 62
250
  6
CONTINUOUS
 90
33
 70
0
 10
201.5428288346
 20
20.2464603199
 10
201.5366128272
 20
20.2896160565
 10
201.5307676023
 20
20.3321572333
 10
201.5253143357
 20
20.3740877275
 10
201.5202742033
 20
20.4154114158
 10
201.5156683811
 20
20.4561321753
 10
201.5115180449
 20
20.4962538829
 10
201.5078420164
 20
20.5357795956
 10
201.5046496994
 20
20.5747090904
 10
201.5019481433
 20
20.6130413243
 10
201.4997443977
 20
20.6507752543
 10
201.4980455122
 20
20.6879098374
 10
201.4968585361
 20
20.7244440305
 10
201.4961879695
 20
20.7603776083
 10
201.4960281144
 20
20.7957136152
 10
201.4963707234
 20
20.8304559131
 10
201.497207549
 20
20.8646083641
 10
201.4985303438
 20
20.8981748302
 10
201.5003308602
 20
20.9311591734
 10
201.5022510715
 20
20.9589684798
 10
201.5045286234
 20
20.9863398161
 10
201.5071759366
 20
21.0132600573
 10
201.5102054319
 20
21.0397160781
 10
201.5136295299
 20
21.0656947532
 10
201.5174606515
 20
21.0911829574
 10
201.5217112174
 20
21.1161675656
 10
201.5263925726
 20
21.1406377645
 10
201.5315117598
 20
21.1645919892
 10
201.5370747458
 20
21.1880309867
 10
201.5430874977
 20
21.210955504
 10
201.5495559824
 20
21.2333662883
 10
201.5564861668
 20
21.2552640866
 10
201.5638840178
 20
21.2766496459
  0
LWPOLYLINE
  5
412
100
AcDbEntity
  8
SCRITTE
100
AcDbPolyline
 62
250
  6
CONTINUOUS
 90
56
 70
0
 10
202.4091506483
 20
20.8869487969
 10
202.4087551682
 20
20.8993529161
 10
202.4081324654
 20
20.9114952099
 10
202.4072883498
 20
20.9233693547
 10
202.4062286314
 20
20.9349690268
 10
202.4049591202
 20
20.9462879023
 10
202.403485626
 20
20.9573196576
 10
202.401813959
 20
20.9680579691
 10
202.3999480338
 20
20.9785007768
 10
202.3978841837
 20
20.9886630769
 10
202.395616847
 20
20.9985641293
 10
202.3931404618
 20
21.008223194
 10
202.3904494662
 20
21.017659531
 10
202.3875382984
 20
21.0268924003
 10
202.3844013964
 20
21.0359410618
 10
202.3814671076
 20
21.0437191374
 10
202.3783522781
 20
21.0513626099
 10
202.3750534533
 20
21.0588631646
 10
202.3715671784
 20
21.0662124866
 10
202.3678875233
 20
21.0734054581
 10
202.3639986556
 20
21.0804497506
 10
202.3598822672
 20
21.0873562324
 10
202.3555200501
 20
21.0941357721
 10
202.3508969074
 20
21.1007939684
 10
202.3460105858
 20
21.1073153407
 10
202.340862043
 20
21.1136791386
 10
202.3354522366
 20
21.1198646116
 10
202.3297832969
 20
21.1258549429
 10
202.3238620433
 20
21.1316490498
 10
202.3176964679
 20
21.1372497832
 10
202.3112945626
 20
21.1426599939
 10
202.3046635762
 20
21.1478820013
 10
202.2978077846
 20
21.1529159972
 10
202.2907307207
 20
21.1577616422
 10
202.2834359171
 20
21.1624185967
 10
202.2759277722
 20
21.1668861614
 10
202.2682141464
 20
21.1711621996
 10
202.2603037657
 20
21.1752442149
 10
202.2522053559
 20
21.179129711
 10
202.2439262325
 20
21.1828161394
 10
202.2354680692
 20
21.1863007432
 10
202.2268311289
 20
21.1895807135
 10
202.2180156749
 20
21.1926532413
 10
202.2090219701
 20
21.1955155175
 10
202.1998502778
 20
21.1981647333
 10
202.1905008609
 20
21.2005980797
 10
202.1809739826
 20
21.2028127476
 10
202.1723568446
 20
21.2045939783
 10
202.1635996756
 20
21.2061891722
 10
202.1547024532
 20
21.207587295
 10
202.1456651551
 20
21.2087773123
 10
202.1364877587
 20
21.2097481898
 10
202.1271702418
 20
21.2104888931
 10
202.1177125819
 20
21.2109883879
 10
202.1081147565
 20
21.2112356397
 10
202.0983767433
 20
21.2112196142
  0
LINE
  5
413
100
AcDbEntity
  8
RACCORDO
100
AcDbLine
 62
250
  6
CONTINUOUS
 10
200.3361484383
 20
238.7133015517
 11
200.3302991165
 21
239.1006929135
  0
LINE
  5
414
100
AcDbEntity
  8
ASSI
100
AcDbLine
 62
250
  6
CONTINUOUS
 10
200.3361484383
 20
238.7133015517
 11
200.3302991165
 21
239.1006929135
  0
LINE
  5
415
100
AcDbEntity
  8
RACCORDO
100
AcDbLine
 62
250
  6
CONTINUOUS
 10
200.3271719845
 20
8.8382335653
 11
200.3261735977
 21
8.9162562869
  0
LINE
  5
416
100
AcDbEntity
  8
ASSI
100
AcDbLine
 62
250
  6
CONTINUOUS
 10
200.3271719845
 20
8.8382335653
 11
200.3261735977
 21
8.9162562869
  0
LINE
  5
417
100
AcDbEntity
  8
RACCORDO
100
AcDbLine
 62
250
  6
CONTINUOUS
 10
200.3302991165
 20
239.1006929135
 11
200.3266227102
 21
239.4607951088
  0
LINE
  5
418
100
AcDbEntity
  8
ASSI
100
AcDbLine
 62
250
  6
CONTINUOUS
 10
200.3302991165
 20
239.1006929135
 11
200.3266227102
 21
239.4607951088
  0
LINE
  5
419
100
AcDbEntity
  8
RACCORDO
100
AcDbLine
 62
250
  6
CONTINUOUS
 10
200.3261735977
 20
8.9162562869
 11
200.3255661988
 21
9.0079498113
  0
LINE
  5
41A
100
AcDbEntity
  8
ASSI
100
AcDbLine
 62
250
  6
CONTINUOUS
 10
200.3261735977
 20
8.9162562869
 11
200.3255661988
 21
9.0079498113
  0
LINE
  5
41B
100
AcDbEntity
  8
RACCORDO
100
AcDbLine
 62
250
  6
CONTINUOUS
 10
200.3266227102
 20
239.4607951088
 11
200.3254129434
 21
239.7134954712
  0
LINE
  5
41C
100
AcDbEntity
  8
ASSI
100
AcDbLine
 62
250
  6
CONTINUOUS
 10
200.3266227102
 20
239.4607951088
 11
200.3254129434
 21
239.7134954712
  0
LINE
  5
41D
100
AcDbEntity
  8
RACCORDO
100
AcDbLine
 62
7
  6
CONTINUOUS
 10
199.8623164164
 20
9.1744918901
 11
199.8623164164
 21
239.7119310864
  0
LINE
  5
41E
100
AcDbEntity
  8
ASSI
100
AcDbLine
 62
7
  6
CONTINUOUS
 10
199.8623164164
 20
9.1744918901
 11
199.8623164164
 21
239.7119310864
  0
LINE
  5
41F
100
AcDbEntity
  8
RACCORDO
100
AcDbLine
 62
250
  6
CONTINUOUS
 10
200.3361484383
 20
10.1731214248
 11
200.3361484383
 21
238.7133015517
  0
LINE
  5
420
100
AcDbEntity
  8
ASSI
100
AcDbLine
 62
250
  6
CONTINUOUS
 10
200.3361484383
 20
10.1731214248
 11
200.3361484383
 21
238.7133015517
  0
LINE
  5
421
100
AcDbEntity
  8
SCRITTE
100
AcDbLine
 62
250
  6
CONTINUOUS
 10
201.5193434164
 20
15.7432754883
 11
201.5193434164
 21
16.1607194883
  0
LINE
  5
422
100
AcDbEntity
  8
SCRITTE
100
AcDbLine
 62
250
  6
CONTINUOUS
 10
201.5194634164
 20
19.5102784883
 11
201.5194634164
 21
19.1064514883
  0
LINE
  5
423
100
AcDbEntity
  8
SCRITTE
100
AcDbLine
 62
250
  6
CONTINUOUS
 10
201.5194634164
 20
18.2266174883
 11
201.5194634164
 21
17.8135964883
  0
LINE
  5
424
100
AcDbEntity
  8
SCRITTE
100
AcDbLine
 62
250
  6
CONTINUOUS
 10
201.5194634164
 20
16.9831164883
 11
201.5194634164
 21
16.5660174883
  0
LINE
  5
425
100
AcDbEntity
  8
SCRITTE
100
AcDbLine
 62
250
  6
CONTINUOUS
 10
201.5194634164
 20
15.5883604883
 11
201.5194634164
 21
15.1712004883
  0
LINE
  5
426
100
AcDbEntity
  8
SCRITTE
100
AcDbLine
 62
250
  6
CONTINUOUS
 10
201.5194634164
 20
14.3971454883
 11
201.5194634164
 21
13.9436724883
  0
LINE
  5
427
100
AcDbEntity
  8
SCRITTE
100
AcDbLine
 62
250
  6
CONTINUOUS
 10
202.4091506483
 20
20.6483833729
 11
202.4091506483
 21
20.8869487969
  0
LINE
  5
428
100
AcDbEntity
  8
SCRITTE
100
AcDbLine
 62
250
  6
CONTINUOUS
 10
202.7366757212
 20
20.8860490027
 11
202.7366757212
 21
20.6622252064
  0
LINE
  5
429
100
AcDbEntity
  8
SCRITTE
100
AcDbLine
 62
250
  6
CONTINUOUS
 10
202.8111334164
 20
19.4923424883
 11
202.8111334164
 21
19.0926694883
  0
LINE
  5
42A
100
AcDbEntity
  8
SCRITTE
100
AcDbLine
 62
250
  6
CONTINUOUS
 10
203.1200624164
 20
19.0072784883
 11
203.1200624164
 21
19.5757684883
  0
LINE
  5
42B
100
AcDbEntity
  8
SCRITTE
100
AcDbLine
 62
250
  6
CONTINUOUS
 10
203.5193014164
 20
16.1607194883
 11
203.5193014164
 21
15.7432754883
  0
LINE
  5
42C
100
AcDbEntity
  8
SCRITTE
100
AcDbLine
 62
250
  6
CONTINUOUS
 10
203.5193014164
 20
14.5776594883
 11
203.5193014164
 21
14.9455324883
  0
LINE
  5
42D
100
AcDbEntity
  8
SCRITTE
100
AcDbLine
 62
250
  6
CONTINUOUS
 10
203.5193014164
 20
16.3854434883
 11
203.5193014164
 21
16.7848014883
  0
LINE
  5
42E
100
AcDbEntity
  8
SCRITTE
100
AcDbLine
 62
250
  6
CONTINUOUS
 10
203.5193014164
 20
17.3645994883
 11
203.5193014164
 21
17.4231454883
  0
LINE
  5
42F
100
AcDbEntity
  8
SCRITTE
100
AcDbLine
 62
250
  6
CONTINUOUS
 10
203.5193014164
 20
18.0052534883
 11
203.5193014164
 21
18.4136244883
  0
LINE
  5
430
100
AcDbEntity
  8
SCRITTE
100
AcDbLine
 62
250
  6
CONTINUOUS
 10
203.5193014164
 20
18.4791744883
 11
203.5193014164
 21
18.8920904883
  0
LINE
  5
431
100
AcDbEntity
  8
SCRITTE
100
AcDbLine
 62
250
  6
CONTINUOUS
 10
203.5193014164
 20
19.6839094883
 11
203.5193014164
 21
20.1238784883
  0
LINE
  5
432
100
AcDbEntity
  8
SCRITTE
100
AcDbLine
 62
250
  6
CONTINUOUS
 10
203.5193016817
 20
21.7030171069
 11
203.5193016817
 21
21.3014839647
  0
LINE
  5
433
100
AcDbEntity
  8
SCRITTE
100
AcDbLine
 62
250
  6
CONTINUOUS
 10
203.5193016817
 20
20.6622252064
 11
203.5193016817
 21
20.2464603199
  0
LINE
  5
434
100
AcDbEntity
  8
0
100
AcDbLine
 62
7
  6
CONTINUOUS
 10
204.7623164164
 20
8.4432114883
 11
204.7623164164
 21
240.4432114883
  0
LINE
  5
435
100
AcDbEntity
  8
ASSI
100
AcDbLine
 62
7
  6
CONTINUOUS
 10
204.7623164164
 20
8.4432114883
 11
204.7623164164
 21
240.4432114883
  0
LINE
  5
436
100
AcDbEntity
  8
RACCORDO
100
AcDbLine
 62
250
  6
CONTINUOUS
 10
200.3255661988
 20
9.0079498113
 11
200.3254059992
 21
9.168919042
  0
LINE
  5
437
100
AcDbEntity
  8
ASSI
100
AcDbLine
 62
250
  6
CONTINUOUS
 10
200.3255661988
 20
9.0079498113
 11
200.3254059992
 21
9.168919042
  0
LINE
  5
438
100
AcDbEntity
  8
RACCORDO
100
AcDbLine
 62
250
  6
CONTINUOUS
 10
200.3254129434
 20
239.7134954712
 11
200.325552392
 21
239.8750784202
  0
LINE
  5
439
100
AcDbEntity
  8
ASSI
100
AcDbLine
 62
250
  6
CONTINUOUS
 10
200.3254129434
 20
239.7134954712
 11
200.325552392
 21
239.8750784202
  0
LINE
  5
43A
100
AcDbEntity
  8
RACCORDO
100
AcDbLine
 62
250
  6
CONTINUOUS
 10
200.3254059992
 20
9.168919042
 11
200.3265888839
 21
9.4209092064
  0
LINE
  5
43B
100
AcDbEntity
  8
ASSI
100
AcDbLine
 62
250
  6
CONTINUOUS
 10
200.3254059992
 20
9.168919042
 11
200.3265888839
 21
9.4209092064
  0
LINE
  5
43C
100
AcDbEntity
  8
RACCORDO
100
AcDbLine
 62
250
  6
CONTINUOUS
 10
200.325552392
 20
239.8750784202
 11
200.3261464253
 21
239.9672109479
  0
LINE
  5
43D
100
AcDbEntity
  8
ASSI
100
AcDbLine
 62
250
  6
CONTINUOUS
 10
200.325552392
 20
239.8750784202
 11
200.3261464253
 21
239.9672109479
  0
LINE
  5
43E
100
AcDbEntity
  8
RACCORDO
100
AcDbLine
 62
250
  6
CONTINUOUS
 10
200.3265888839
 20
9.4209092064
 11
200.3302544704
 21
9.7823001117
  0
LINE
  5
43F
100
AcDbEntity
  8
ASSI
100
AcDbLine
 62
250
  6
CONTINUOUS
 10
200.3265888839
 20
9.4209092064
 11
200.3302544704
 21
9.7823001117
  0
LWPOLYLINE
  5
440
100
AcDbEntity
  8
RACCORDO
100
AcDbPolyline
 62
250
  6
CONTINUOUS
 90
11
 70
0
 10
200.3261464253
 20
239.9672109479
 10
200.3271313392
 20
240.0457483166
 10
200.3277701942
 20
240.0797225129
 10
200.3285024703
 20
240.1100009169
 10
200.3293329166
 20
240.136482325
 10
200.3302544704
 20
240.1590800444
 10
200.3312624486
 20
240.1777060594
 10
200.332363369
 20
240.1922811928
 10
200.333553248
 20
240.202752448
 10
200.3348182495
 20
240.2090835474
 10
200.3361484383
 20
240.2112458538
  0
LWPOLYLINE
  5
441
100
AcDbEntity
  8
ASSI
100
AcDbPolyline
 62
250
  6
CONTINUOUS
 90
11
 70
0
 10
200.3261464253
 20
239.9672109479
 10
200.3271313392
 20
240.0457483166
 10
200.3277701942
 20
240.0797225129
 10
200.3285024703
 20
240.1100009169
 10
200.3293329166
 20
240.136482325
 10
200.3302544704
 20
240.1590800444
 10
200.3312624486
 20
240.1777060594
 10
200.332363369
 20
240.1922811928
 10
200.333553248
 20
240.202752448
 10
200.3348182495
 20
240.2090835474
 10
200.3361484383
 20
240.2112458538
  0
LINE
  5
442
100
AcDbEntity
  8
RACCORDO
100
AcDbLine
 62
250
  6
CONTINUOUS
 10
200.3302544704
 20
9.7823001117
 11
200.3361484383
 21
10.1731214248
  0
LINE
  5
443
100
AcDbEntity
  8
ASSI
100
AcDbLine
 62
250
  6
CONTINUOUS
 10
200.3302544704
 20
9.7823001117
 11
200.3361484383
 21
10.1731214248
  0
LINE
  5
444
100
AcDbEntity
  8
0
100
AcDbLine
 62
7
  6
CONTINUOUS
 10
205.1606581854
 20
239.735048203
 11
205.1606744302
 21
239.7337015673
  0
LINE
  5
445
100
AcDbEntity
  8
ASSI
100
AcDbLine
 62
7
  6
CONTINUOUS
 10
205.1606581854
 20
239.735048203
 11
205.1606744302
 21
239.7337015673
  0
LWPOLYLINE
  5
446
100
AcDbEntity
  8
0
100
AcDbPolyline
 62
7
  6
CONTINUOUS
 90
3
 70
0
 10
205.1606581854
 20
9.9452700072
 10
205.1607926174
 20
9.4348923546
 10
205.1607943919
 20
9.4002213157
  0
LWPOLYLINE
  5
447
100
AcDbEntity
  8
ASSI
100
AcDbPolyline
 62
7
  6
CONTINUOUS
 90
3
 70
0
 10
205.1606581854
 20
9.9452700072
 10
205.1607926174
 20
9.4348923546
 10
205.1607943919
 20
9.4002213157
  0
LINE
  5
448
100
AcDbEntity
  8
RACCORDO
100
AcDbLine
 62
250
  6
CONTINUOUS
 10
207.5727836077
 20
239.6086340663
 11
207.5727836077
 21
9.2777889102
  0
LINE
  5
449
100
AcDbEntity
  8
ASSI
100
AcDbLine
 62
250
  6
CONTINUOUS
 10
207.5727836077
 20
239.6086340663
 11
207.5727836077
 21
9.2777889102
  0
LINE
  5
44A
100
AcDbEntity
  8
RACCORDO
100
AcDbLine
 62
7
  6
CONTINUOUS
 10
207.7623164164
 20
239.4089081593
 11
207.7623164164
 21
9.4788310859
  0
LINE
  5
44B
100
AcDbEntity
  8
ASSI
100
AcDbLine
 62
7
  6
CONTINUOUS
 10
207.7623164164
 20
239.4089081593
 11
207.7623164164
 21
9.4788310859
  0
LWPOLYLINE
  5
44C
100
AcDbEntity
  8
0
100
AcDbPolyline
 62
7
  6
CONTINUOUS
 90
3
 70
0
 10
205.1607943919
 20
9.4002213157
 10
205.1607925529
 20
9.3364896356
 10
205.1607888594
 20
9.3078912067
  0
LWPOLYLINE
  5
44D
100
AcDbEntity
  8
ASSI
100
AcDbPolyline
 62
7
  6
CONTINUOUS
 90
3
 70
0
 10
205.1607943919
 20
9.4002213157
 10
205.1607925529
 20
9.3364896356
 10
205.1607888594
 20
9.3078912067
  0
LINE
  5
44E
100
AcDbEntity
  8
0
100
AcDbLine
 62
7
  6
CONTINUOUS
 10
205.1606744302
 20
239.7337015673
 11
205.1606582668
 21
9.9447977121
  0
LINE
  5
44F
100
AcDbEntity
  8
ASSI
100
AcDbLine
 62
7
  6
CONTINUOUS
 10
205.1606744302
 20
239.7337015673
 11
205.1606582668
 21
9.9447977121
  0
LINE
  5
450
100
AcDbEntity
  8
0
100
AcDbLine
 62
7
  6
CONTINUOUS
 10
205.1607888594
 20
9.3078912067
 11
205.160767691
 21
9.2356891039
  0
LINE
  5
451
100
AcDbEntity
  8
ASSI
100
AcDbLine
 62
7
  6
CONTINUOUS
 10
205.1607888594
 20
9.3078912067
 11
205.160767691
 21
9.2356891039
  0
LWPOLYLINE
  5
452
100
AcDbEntity
  8
0
100
AcDbPolyline
 62
7
  6
CONTINUOUS
 90
3
 70
0
 10
205.160767691
 20
9.2356891039
 10
205.1606744203
 20
9.1527204014
 10
205.1606581854
 20
9.1513747735
  0
LWPOLYLINE
  5
453
100
AcDbEntity
  8
ASSI
100
AcDbPolyline
 62
7
  6
CONTINUOUS
 90
3
 70
0
 10
205.160767691
 20
9.2356891039
 10
205.1606744203
 20
9.1527204014
 10
205.1606581854
 20
9.1513747735
  0
LWPOLYLINE
  5
454
100
AcDbEntity
  8
0
100
AcDbPolyline
 62
7
  6
CONTINUOUS
 90
4
 70
0
 43
0.3499999917
 10
213.1536785889
 20
3.8881283569
 10
213.1536785889
 20
4.5309841919
 10
214.653684082
 20
4.5309841919
 10
213.7965472412
 20
1.5309828186
  0
LWPOLYLINE
  5
455
100
AcDbEntity
  8
SCRITTE
100
AcDbPolyline
 62
250
  6
CONTINUOUS
 90
24
 70
0
 10
201.8483827032
 20
20.9754029595
 10
201.8467136509
 20
20.9600447842
 10
201.8452689198
 20
20.9446689622
 10
201.8440479899
 20
20.9292779744
 10
201.8430503409
 20
20.9138743015
 10
201.8422754529
 20
20.8984604244
 10
201.8417228057
 20
20.8830388239
 10
201.8413918792
 20
20.8676119809
 10
201.8412838454
 20
20.8541101204
 10
201.8413451532
 20
20.8406016712
 10
201.8415757872
 20
20.8270821592
 10
201.8419757323
 20
20.8135471102
 10
201.8425457176
 20
20.7999914456
 10
201.8432894505
 20
20.7864076691
 10
201.8442113827
 20
20.7727876801
 10
201.8453159659
 20
20.7591233777
 10
201.8466056556
 20
20.745409254
 10
201.8480749216
 20
20.731650171
 10
201.8497162377
 20
20.7178535835
 10
201.8515220777
 20
20.7040269464
 10
201.8534836039
 20
20.6901748141
 10
201.8555867349
 20
20.6762901394
 10
201.857816078
 20
20.6623629748
 10
201.8601562404
 20
20.6483833729
  0
LWPOLYLINE
  5
456
100
AcDbEntity
  8
SCRITTE
100
AcDbPolyline
 62
250
  6
CONTINUOUS
 90
86
 70
0
 10
201.5638840178
 20
21.2766496459
 10
201.5681045524
 20
21.2877020148
 10
201.5728580084
 20
21.2989091519
 10
201.5781664589
 20
21.3102890781
 10
201.584051977
 20
21.321859814
 10
201.5905366359
 20
21.3336393805
 10
201.5976425086
 20
21.3456457983
 10
201.6053847126
 20
21.3578823228
 10
201.6137505439
 20
21.3702931486
 10
201.6227203424
 20
21.382807705
 10
201.6322744487
 20
21.3953554211
 10
201.6423932027
 20
21.4078657262
 10
201.6530569448
 20
21.4202680496
 10
201.6642482557
 20
21.4324980062
 10
201.6759586775
 20
21.4445159543
 10
201.6881819931
 20
21.4562884378
 10
201.700911985
 20
21.4677820008
 10
201.714142436
 20
21.4789631872
 10
201.7278671287
 20
21.4897985411
 10
201.7420711729
 20
21.500254147
 10
201.756704986
 20
21.5102942523
 10
201.7717103128
 20
21.5198826451
 10
201.7870288976
 20
21.5289831134
 10
201.8026024852
 20
21.537559445
 10
201.8183728201
 20
21.5455754282
 10
201.834286628
 20
21.5530027531
 10
201.8503105596
 20
21.5598447194
 10
201.8664162467
 20
21.5661125289
 10
201.8825753211
 20
21.5718173836
 10
201.8987594148
 20
21.5769704852
 10
201.9149401595
 20
21.5815830357
 10
201.9343099924
 20
21.5864242378
 10
201.9535689458
 20
21.5905459141
 10
201.9726518129
 20
21.5939908016
 10
201.9914933868
 20
21.5968016374
 10
202.0100284606
 20
21.5990211586
 10
202.0282003159
 20
21.6006904824
 10
202.0459861874
 20
21.6018442464
 10
202.063371798
 20
21.6025154687
 10
202.0803428709
 20
21.6027371669
 10
202.0968851292
 20
21.6025423589
 10
202.1129885562
 20
21.6019619082
 10
202.1286601774
 20
21.601018061
 10
202.1439112785
 20
21.5997309089
 10
202.1587531453
 20
21.5981205437
 10
202.1731970636
 20
21.5962070573
 10
202.1907111689
 20
21.5934173827
 10
202.2076529328
 20
21.5902117508
 10
202.2240541742
 20
21.5866164382
 10
202.2399467122
 20
21.5826577212
 10
202.2553574064
 20
21.5783620064
 10
202.2702932779
 20
21.5737562207
 10
202.2847563885
 20
21.5688674212
 10
202.2987487999
 20
21.563722665
 10
202.3122728003
 20
21.5583485926
 10
202.3253315839
 20
21.5527701783
 10
202.3379285715
 20
21.5470119798
 10
202.3500671836
 20
21.5410985549
 10
202.3655491447
 20
21.5330102588
 10
202.380255972
 20
21.5247196032
 10
202.3942213402
 20
21.5162565284
 10
202.4074757572
 20
21.5076503959
 10
202.4200370647
 20
21.4989282519
 10
202.4319199373
 20
21.4901165636
 10
202.4431442508
 20
21.4812423384
 10
202.4537506838
 20
21.4723347453
 10
202.4637851159
 20
21.4634234933
 10
202.4732919911
 20
21.4545389433
 10
202.4823100114
 20
21.4457140616
 10
202.4908764436
 20
21.4369824662
 10
202.499027601
 20
21.428374674
 10
202.5067959834
 20
21.4199087972
 10
202.5142131377
 20
21.4115998468
 10
202.5247485811
 20
21.3994526549
 10
202.5346616605
 20
21.3876955157
 10
202.5440043252
 20
21.376361435
 10
202.5484451644
 20
21.370810471
 10
202.552708913
 20
21.3652565507
 10
202.5567626585
 20
21.3596379696
 10
202.5605282252
 20
21.3539697996
 10
202.563923631
 20
21.3482824747
 10
202.5668969318
 20
21.3425911013
 10
202.5694084235
 20
21.3369011706
 10
202.5714373248
 20
21.3311950416
 10
202.5729669335
 20
21.3254554536
 10
202.5739779411
 20
21.3196897998
  0
LWPOLYLINE
  5
457
100
AcDbEntity
  8
SCRITTE
100
AcDbPolyline
 62
250
  6
CONTINUOUS
 90
41
 70
0
 10
202.5857952377
 20
21.3196897998
 10
202.5885612992
 20
21.3263157683
 10
202.5915632509
 20
21.3329042353
 10
202.5948069971
 20
21.3394589831
 10
202.5982984423
 20
21.3459837942
 10
202.6020439169
 20
21.3524820659
 10
202.6060514563
 20
21.3589556554
 10
202.6103295218
 20
21.3654060348
 10
202.614886575
 20
21.3718346763
 10
202.6197286903
 20
21.3782404951
 10
202.6248523943
 20
21.3846121795
 10
202.6302518263
 20
21.3909358607
 10
202.635921126
 20
21.3971976701
 10
202.6418533989
 20
21.4033845711
 10
202.6480376145
 20
21.4094868543
 10
202.6544617084
 20
21.4154956426
 10
202.6611136162
 20
21.4214020587
 10
202.6679838542
 20
21.4271995872
 10
202.6750732627
 20
21.4328911602
 10
202.6823852629
 20
21.4384820717
 10
202.6899232759
 20
21.4439776157
 10
202.6976891242
 20
21.4493817851
 10
202.705678236
 20
21.4546933681
 10
202.7138844409
 20
21.4599098521
 10
202.7223015684
 20
21.4650287242
 10
202.7321723198
 20
21.4707568425
 10
202.7423062102
 20
21.4763547968
 10
202.7526989472
 20
21.4818231982
 10
202.7633462383
 20
21.4871626578
 10
202.7742437911
 20
21.4923737867
 10
202.7853873131
 20
21.4974571959
 10
202.7967725119
 20
21.5024134967
 10
202.8103543077
 20
21.5080359235
 10
202.8242484213
 20
21.5134866136
 10
202.8384440642
 20
21.5187660075
 10
202.8529304477
 20
21.5238745455
 10
202.8676967833
 20
21.5288126681
 10
202.8827322825
 20
21.5335808157
 10
202.8980265258
 20
21.5381871903
 10
202.9135705706
 20
21.5426710408
 10
202.9293558434
 20
21.5470793776
  0
LWPOLYLINE
  5
458
100
AcDbEntity
  8
0
100
AcDbPolyline
 62
7
  6
CONTINUOUS
 90
3
 70
0
 43
0.3499999917
 10
216.2251208496
 20
1.8166983032
 10
216.1536767578
 20
1.602414093
 10
216.010814209
 20
1.3166986084
  0
LINE
  5
459
100
AcDbEntity
  8
0
100
AcDbLine
 62
7
  6
CONTINUOUS
 10
204.7623164164
 20
8.4432114883
 11
205.1606582668
 21
9.1513747777
  0
LINE
  5
45A
100
AcDbEntity
  8
ASSI
100
AcDbLine
 62
7
  6
CONTINUOUS
 10
204.7623164164
 20
8.4432114883
 11
205.1606582668
 21
9.1513747777
  0
LINE
  5
45B
100
AcDbEntity
  8
0
100
AcDbLine
 62
7
  6
CONTINUOUS
 10
204.7623164164
 20
240.4432114883
 11
205.1606582668
 21
239.7350481988
  0
LINE
  5
45C
100
AcDbEntity
  8
ASSI
100
AcDbLine
 62
7
  6
CONTINUOUS
 10
204.7623164164
 20
240.4432114883
 11
205.1606582668
 21
239.7350481988
  0
LWPOLYLINE
  5
45D
100
AcDbEntity
  8
0
100
AcDbPolyline
 62
7
  6
CONTINUOUS
 90
10
 70
0
 43
0.3499999917
 10
217.6536950684
 20
1.5309828186
 10
218.5108190918
 20
2.3881260681
 10
218.7251000977
 20
3.2452693176
 10
218.7251000977
 20
4.1024125671
 10
218.2965380859
 20
4.5309841919
 10
217.6536950684
 20
4.5309841919
 10
217.2251074219
 20
4.1024125671
 10
217.2251074219
 20
3.2452693176
 10
217.6536950684
 20
2.8166976929
 10
218.5822631836
 20
2.8166976929
  0
LWPOLYLINE
  5
45E
100
AcDbEntity
  8
SCRITTE
100
AcDbPolyline
 62
250
  6
CONTINUOUS
 90
48
 70
0
 10
202.9127595518
 20
21.11889846
 10
202.906457529
 20
21.1164551216
 10
202.9002678972
 20
21.1139050782
 10
202.8941782609
 20
21.1112459129
 10
202.8881762243
 20
21.1084752089
 10
202.8822493918
 20
21.1055905493
 10
202.8749331921
 20
21.1018221347
 10
202.867723736
 20
21.0978752192
 10
202.860629629
 20
21.0937531339
 10
202.8536594764
 20
21.0894592101
 10
202.8468219657
 20
21.084997026
 10
202.8401261117
 20
21.0803711486
 10
202.8335810115
 20
21.0755863917
 10
202.827195762
 20
21.0706475694
 10
202.8222086786
 20
21.066588762
 10
202.8173338437
 20
21.0624365533
 10
202.8125753793
 20
21.0581930629
 10
202.8079374075
 20
21.0538604105
 10
202.8034240502
 20
21.0494407156
 10
202.7990391619
 20
21.0449359332
 10
202.7947855266
 20
21.0403473588
 10
202.7906656605
 20
21.0356761233
 10
202.7866820799
 20
21.0309233574
 10
202.7828373012
 20
21.0260901921
 10
202.7791338418
 20
21.0211769304
 10
202.7755742232
 20
21.0161805646
 10
202.7721609683
 20
21.0110972593
 10
202.7688965996
 20
21.0059231789
 10
202.76578364
 20
21.000654488
 10
202.7628247024
 20
20.9952894853
 10
202.7600227613
 20
20.9898350055
 10
202.7573808813
 20
20.9843000179
 10
202.7549021271
 20
20.9786934912
 10
202.7525895633
 20
20.9730243944
 10
202.7504453708
 20
20.9673021329
 10
202.7484681944
 20
20.9615378568
 10
202.7466557951
 20
20.9557431527
 10
202.7450059339
 20
20.949929607
 10
202.7435163717
 20
20.9441088062
 10
202.7421845268
 20
20.9382906147
 10
202.741006446
 20
20.9324780077
 10
202.7399778333
 20
20.9266722383
 10
202.7390943929
 20
20.9208745597
 10
202.7383518289
 20
20.9150862249
 10
202.7376163417
 20
20.9078614871
 10
202.7370928014
 20
20.9006295454
 10
202.7367797479
 20
20.8933666378
 10
202.7366757212
 20
20.8860490027
  0
LINE
  5
45F
100
AcDbEntity
  8
SCRITTE
100
AcDbLine
 62
250
  6
CONTINUOUS
 10
202.2134444164
 20
16.8748854883
 11
203.5193014164
 21
17.3645994883
  0
LINE
  5
460
100
AcDbEntity
  8
SCRITTE
100
AcDbLine
 62
250
  6
CONTINUOUS
 10
202.6297794164
 20
17.3961524883
 11
201.5194634164
 21
16.9831164883
  0
LINE
  5
461
100
AcDbEntity
  8
SCRITTE
100
AcDbLine
 62
250
  6
CONTINUOUS
 10
203.5193014164
 20
20.1238784883
 11
201.5194634164
 21
19.5102784883
  0
LWPOLYLINE
  5
462
100
AcDbEntity
  8
SCRITTE
100
AcDbPolyline
 62
250
  6
CONTINUOUS
 90
8
 70
0
 10
203.1006070636
 20
21.1803899462
 10
203.0727401574
 20
21.1721198574
 10
203.0451962938
 20
21.16372931
 10
203.0179879568
 20
21.1551876966
 10
202.9911276308
 20
21.14646441
 10
202.9646277998
 20
21.1375288429
 10
202.9385009482
 20
21.128350388
 10
202.9127595601
 20
21.118898438
  0
LINE
  5
463
100
AcDbEntity
  8
SCRITTE
100
AcDbLine
 62
250
  6
CONTINUOUS
 10
203.4824234523
 20
21.2908224755
 11
203.3036249561
 21
21.2384933671
  0
LINE
  5
464
100
AcDbEntity
  8
SCRITTE
100
AcDbLine
 62
250
  6
CONTINUOUS
 10
203.5193016817
 20
21.3014839647
 11
203.4824234523
 21
21.2908224755
  0
LINE
  5
465
100
AcDbEntity
  8
SCRITTE
100
AcDbLine
 62
250
  6
CONTINUOUS
 10
203.3036249561
 20
21.2384933671
 11
203.2345266109
 21
21.2186572691
  0
LINE
  5
466
100
AcDbEntity
  8
SCRITTE
100
AcDbLine
 62
250
  6
CONTINUOUS
 10
201.5194634164
 20
13.9436724883
 11
203.5193014164
 21
14.5776594883
  0
LINE
  5
467
100
AcDbEntity
  8
RACCORDO
100
AcDbLine
 62
250
  6
CONTINUOUS
 10
200.3361484383
 20
238.7133015517
 11
204.7623164164
 21
238.9452671861
  0
LINE
  5
468
100
AcDbEntity
  8
ASSI
100
AcDbLine
 62
250
  6
CONTINUOUS
 10
200.3361484383
 20
238.7133015517
 11
204.7623164164
 21
238.9452671861
  0
LINE
  5
469
100
AcDbEntity
  8
RACCORDO
100
AcDbLine
 62
7
  6
CONTINUOUS
 10
200.3361484383
 20
240.2112458538
 11
204.7623164164
 21
240.4432114883
  0
LINE
  5
46A
100
AcDbEntity
  8
ASSI
100
AcDbLine
 62
7
  6
CONTINUOUS
 10
200.3361484383
 20
240.2112458538
 11
204.7623164164
 21
240.4432114883
  0
LINE
  5
46B
100
AcDbEntity
  8
RACCORDO
100
AcDbLine
 62
250
  6
CONTINUOUS
 10
199.8623164164
 20
238.7133015517
 11
200.3361484383
 21
238.7133015517
  0
LINE
  5
46C
100
AcDbEntity
  8
ASSI
100
AcDbLine
 62
250
  6
CONTINUOUS
 10
199.8623164164
 20
238.7133015517
 11
200.3361484383
 21
238.7133015517
  0
LINE
  5
46D
100
AcDbEntity
  8
RACCORDO
100
AcDbLine
 62
250
  6
CONTINUOUS
 10
207.7623164164
 20
238.9411529693
 11
205.1606582668
 21
238.9411529693
  0
LINE
  5
46E
100
AcDbEntity
  8
ASSI
100
AcDbLine
 62
250
  6
CONTINUOUS
 10
207.7623164164
 20
238.9411529693
 11
205.1606582668
 21
238.9411529693
  0
LINE
  5
46F
100
AcDbEntity
  8
0
100
AcDbLine
 62
250
  6
CONTINUOUS
 10
204.7623164164
 20
238.9452671861
 11
205.1606582668
 21
238.9416252644
  0
LINE
  5
470
100
AcDbEntity
  8
ASSI
100
AcDbLine
 62
250
  6
CONTINUOUS
 10
204.7623164164
 20
238.9452671861
 11
205.1606582668
 21
238.9416252644
  0
LINE
  5
471
100
AcDbEntity
  8
RACCORDO
100
AcDbLine
 62
7
  6
CONTINUOUS
 10
207.5727836077
 20
239.6086340663
 11
205.1606582668
 21
239.7350481988
  0
LINE
  5
472
100
AcDbEntity
  8
ASSI
100
AcDbLine
 62
7
  6
CONTINUOUS
 10
207.5727836077
 20
239.6086340663
 11
205.1606582668
 21
239.7350481988
  0
ARC
  5
473
100
AcDbEntity
  8
RACCORDO
100
AcDbCircle
 62
7
  6
CONTINUOUS
 10
200.3623164164
 20
239.7119310864
 40
0.5
100
AcDbArc
 50
93.0
 51
180.0
  0
ARC
  5
474
100
AcDbEntity
  8
RACCORDO
100
AcDbCircle
 62
7
  6
CONTINUOUS
 10
200.3623164164
 20
9.1744918901
 40
0.5
100
AcDbArc
 50
180.0
 51
267.0
  0
ARC
  5
475
100
AcDbEntity
  8
ASSI
100
AcDbCircle
 62
7
  6
CONTINUOUS
 10
200.3623164164
 20
239.7119310864
 40
0.5
100
AcDbArc
 50
93.0
 51
180.0
  0
ARC
  5
476
100
AcDbEntity
  8
ASSI
100
AcDbCircle
 62
7
  6
CONTINUOUS
 10
200.3623164164
 20
9.1744918901
 40
0.5
100
AcDbArc
 50
180.0
 51
267.0
  0
ARC
  5
477
100
AcDbEntity
  8
RACCORDO
100
AcDbCircle
 62
7
  6
CONTINUOUS
 10
207.5623164164
 20
9.4775148172
 40
0.2
100
AcDbArc
 50
273.0
 51
360.0
  0
ARC
  5
478
100
AcDbEntity
  8
RACCORDO
100
AcDbCircle
 62
7
  6
CONTINUOUS
 10
207.5623164164
 20
239.4089081593
 40
0.2
100
AcDbArc
 50
0.0
 51
87.0
  0
ARC
  5
479
100
AcDbEntity
  8
ASSI
100
AcDbCircle
 62
7
  6
CONTINUOUS
 10
207.5623164164
 20
9.4775148172
 40
0.2
100
AcDbArc
 50
273.0
 51
360.0
  0
ARC
  5
47A
100
AcDbEntity
  8
ASSI
100
AcDbCircle
 62
7
  6
CONTINUOUS
 10
207.5623164164
 20
239.4089081593
 40
0.2
100
AcDbArc
 50
0.0
 51
87.0
  0
ELLIPSE
  5
47B
100
AcDbEntity
  8
RACCORDO
100
AcDbEllipse
 62
7
  6
CONTINUOUS
 10
303.3326588229
 20
169.1682876523
 30
0.0
 11
-0.3536610946
 21
0.3536610946
 31
0.0
 40
0.9996954599
 41
2.3563467834
 42
3.9268385237
  0
ELLIPSE
  5
47C
100
AcDbEntity
  8
RACCORDO
100
AcDbEllipse
 62
7
  6
CONTINUOUS
 10
303.3326588229
 20
221.7181353242
 30
0.0
 11
-0.3536610946
 21
-0.3536610946
 31
0.0
 40
0.9996954599
 41
2.3563467834
 42
3.9268385237
  0
ELLIPSE
  5
47D
100
AcDbEntity
  8
RACCORDO
100
AcDbEllipse
 62
7
  6
CONTINUOUS
 10
258.882811151
 20
221.7181353242
 30
0.0
 11
0.3536610946
 21
-0.3536610946
 31
0.0
 40
0.9996954599
 41
2.3563467834
 42
3.9268385237
  0
ELLIPSE
  5
47E
100
AcDbEntity
  8
RACCORDO
100
AcDbEllipse
 62
7
  6
CONTINUOUS
 10
258.882811151
 20
169.1682876523
 30
0.0
 11
0.3536610946
 21
0.3536610946
 31
0.0
 40
0.9996954599
 41
2.3563467834
 42
3.9268385237
  0
ELLIPSE
  5
47F
100
AcDbEntity
  8
RACCORDO
100
AcDbEllipse
 62
7
  6
CONTINUOUS
 10
258.882811151
 20
79.7181353242
 30
0.0
 11
0.3536610946
 21
-0.3536610946
 31
0.0
 40
0.9996954599
 41
2.3563467834
 42
3.9268385237
  0
ELLIPSE
  5
480
100
AcDbEntity
  8
RACCORDO
100
AcDbEllipse
 62
7
  6
CONTINUOUS
 10
258.882811151
 20
27.1682876523
 30
0.0
 11
0.3536610946
 21
0.3536610946
 31
0.0
 40
0.9996954599
 41
2.3563467834
 42
3.9268385237
  0
ELLIPSE
  5
481
100
AcDbEntity
  8
RACCORDO
100
AcDbEllipse
 62
7
  6
CONTINUOUS
 10
303.3326588229
 20
27.1682876523
 30
0.0
 11
-0.3536610946
 21
0.3536610946
 31
0.0
 40
0.9996954599
 41
2.3563467834
 42
3.9268385237
  0
ELLIPSE
  5
482
100
AcDbEntity
  8
RACCORDO
100
AcDbEllipse
 62
7
  6
CONTINUOUS
 10
303.3326588229
 20
79.7181353242
 30
0.0
 11
-0.3536610946
 21
-0.3536610946
 31
0.0
 40
0.9996954599
 41
2.3563467834
 42
3.9268385237
  0
ELLIPSE
  5
483
100
AcDbEntity
  8
RACCORDO
100
AcDbEllipse
 62
7
  6
CONTINUOUS
 10
258.882811151
 20
150.7181353242
 30
0.0
 11
0.3536610946
 21
-0.3536610946
 31
0.0
 40
0.9996954599
 41
2.3563467834
 42
3.9268385237
  0
ELLIPSE
  5
484
100
AcDbEntity
  8
RACCORDO
100
AcDbEllipse
 62
7
  6
CONTINUOUS
 10
258.882811151
 20
98.1682876523
 30
0.0
 11
0.3536610946
 21
0.3536610946
 31
0.0
 40
0.9996954599
 41
2.3563467834
 42
3.9268385237
  0
ELLIPSE
  5
485
100
AcDbEntity
  8
RACCORDO
100
AcDbEllipse
 62
7
  6
CONTINUOUS
 10
303.3326588229
 20
98.1682876523
 30
0.0
 11
-0.3536610946
 21
0.3536610946
 31
0.0
 40
0.9996954599
 41
2.3563467834
 42
3.9268385237
  0
ELLIPSE
  5
486
100
AcDbEntity
  8
RACCORDO
100
AcDbEllipse
 62
7
  6
CONTINUOUS
 10
303.3326588229
 20
150.7181353242
 30
0.0
 11
-0.3536610946
 21
-0.3536610946
 31
0.0
 40
0.9996954599
 41
2.3563467834
 42
3.9268385237
  0
ELLIPSE
  5
487
100
AcDbEntity
  8
ASSI
100
AcDbEllipse
 62
7
  6
CONTINUOUS
 10
303.3326588229
 20
169.1682876523
 30
0.0
 11
-0.3536610946
 21
0.3536610946
 31
0.0
 40
0.9996954599
 41
2.3563467834
 42
3.9268385237
  0
ELLIPSE
  5
488
100
AcDbEntity
  8
ASSI
100
AcDbEllipse
 62
7
  6
CONTINUOUS
 10
303.3326588229
 20
221.7181353242
 30
0.0
 11
-0.3536610946
 21
-0.3536610946
 31
0.0
 40
0.9996954599
 41
2.3563467834
 42
3.9268385237
  0
ELLIPSE
  5
489
100
AcDbEntity
  8
ASSI
100
AcDbEllipse
 62
7
  6
CONTINUOUS
 10
258.882811151
 20
221.7181353242
 30
0.0
 11
0.3536610946
 21
-0.3536610946
 31
0.0
 40
0.9996954599
 41
2.3563467834
 42
3.9268385237
  0
ELLIPSE
  5
48A
100
AcDbEntity
  8
ASSI
100
AcDbEllipse
 62
7
  6
CONTINUOUS
 10
258.882811151
 20
169.1682876523
 30
0.0
 11
0.3536610946
 21
0.3536610946
 31
0.0
 40
0.9996954599
 41
2.3563467834
 42
3.9268385237
  0
ELLIPSE
  5
48B
100
AcDbEntity
  8
ASSI
100
AcDbEllipse
 62
7
  6
CONTINUOUS
 10
258.882811151
 20
79.7181353242
 30
0.0
 11
0.3536610946
 21
-0.3536610946
 31
0.0
 40
0.9996954599
 41
2.3563467834
 42
3.9268385237
  0
ELLIPSE
  5
48C
100
AcDbEntity
  8
ASSI
100
AcDbEllipse
 62
7
  6
CONTINUOUS
 10
258.882811151
 20
27.1682876523
 30
0.0
 11
0.3536610946
 21
0.3536610946
 31
0.0
 40
0.9996954599
 41
2.3563467834
 42
3.9268385237
  0
ELLIPSE
  5
48D
100
AcDbEntity
  8
ASSI
100
AcDbEllipse
 62
7
  6
CONTINUOUS
 10
303.3326588229
 20
27.1682876523
 30
0.0
 11
-0.3536610946
 21
0.3536610946
 31
0.0
 40
0.9996954599
 41
2.3563467834
 42
3.9268385237
  0
ELLIPSE
  5
48E
100
AcDbEntity
  8
ASSI
100
AcDbEllipse
 62
7
  6
CONTINUOUS
 10
303.3326588229
 20
79.7181353242
 30
0.0
 11
-0.3536610946
 21
-0.3536610946
 31
0.0
 40
0.9996954599
 41
2.3563467834
 42
3.9268385237
  0
ELLIPSE
  5
48F
100
AcDbEntity
  8
ASSI
100
AcDbEllipse
 62
7
  6
CONTINUOUS
 10
258.882811151
 20
150.7181353242
 30
0.0
 11
0.3536610946
 21
-0.3536610946
 31
0.0
 40
0.9996954599
 41
2.3563467834
 42
3.9268385237
  0
ELLIPSE
  5
490
100
AcDbEntity
  8
ASSI
100
AcDbEllipse
 62
7
  6
CONTINUOUS
 10
258.882811151
 20
98.1682876523
 30
0.0
 11
0.3536610946
 21
0.3536610946
 31
0.0
 40
0.9996954599
 41
2.3563467834
 42
3.9268385237
  0
ELLIPSE
  5
491
100
AcDbEntity
  8
ASSI
100
AcDbEllipse
 62
7
  6
CONTINUOUS
 10
303.3326588229
 20
98.1682876523
 30
0.0
 11
-0.3536610946
 21
0.3536610946
 31
0.0
 40
0.9996954599
 41
2.3563467834
 42
3.9268385237
  0
ELLIPSE
  5
492
100
AcDbEntity
  8
ASSI
100
AcDbEllipse
 62
7
  6
CONTINUOUS
 10
303.3326588229
 20
150.7181353242
 30
0.0
 11
-0.3536610946
 21
-0.3536610946
 31
0.0
 40
0.9996954599
 41
2.3563467834
 42
3.9268385237
  0
ENDSEC
  0
SECTION
  2
OBJECTS
  0
DICTIONARY
  5
C
100
AcDbDictionary
280
0
281
1
  3
ACAD_GROUP
350
D
  3
ACAD_MLINESTYLE
350
17
  3
ACAD_LAYOUT
350
1A
  3
ACAD_PLOTSETTINGS
350
19
  3
ACAD_PLOTSTYLENAME
350
E
  0
DICTIONARY
  5
D
102
{ACAD_REACTORS
330
C
102
}
100
AcDbDictionary
280
0
281
1
  0
ACDBDICTIONARYWDFLT
  5
E
102
{ACAD_REACTORS
330
C
102
}
100
AcDbDictionary
281
1
  3
Normal
350
F
100
AcDbDictionaryWithDefault
340
F
  0
DICTIONARY
  5
17
102
{ACAD_REACTORS
330
C
102
}
100
AcDbDictionary
280
0
281
1
  3
Standard
350
18
  0
DICTIONARY
  5
19
102
{ACAD_REACTORS
330
C
102
}
100
AcDbDictionary
281
1
  0
DICTIONARY
  5
1A
102
{ACAD_REACTORS
330
C
102
}
100
AcDbDictionary
281
1
  3
Model
350
493
  3
Layout1
350
494
  0
ACDBPLACEHOLDER
  5
F
102
{ACAD_REACTORS
330
E
102
}
  0
MLINESTYLE
  5
18
102
{ACAD_REACTORS
330
17
102
}
100
AcDbMlineStyle
  2
STANDARD
 70
0
  3

 62
256
 51
90.0
 52
90.0
 71
2
 49
0.5
 62
256
  6
BYLAYER
 49
-0.5
 62
256
  6
BYLAYER
  0
LAYOUT
  5
493
102
{ACAD_REACTORS
330
1A
102
}
100
AcDbPlotSettings
  1

  2
none_device
  4
ISO_A3_(420.00_x_297.00_MM)
  6

 40
0.0
 41
0.0
 42
0.0
 43
0.0
 44
420.0
 45
297.0
 46
0.0
 47
0.0
 48
0.0
 49
0.0
140
0.0
141
0.0
142
1.0
143
1.0
 70
1024
 72
1
 73
0
 74
0
  7

 75
0
147
1.0
148
0.0
149
0.0
100
AcDbLayout
  1
Model
 70
0
 71
0
 10
0.0
 20
0.0
 11
420.0
 21
297.0
 12
0.0
 22
0.0
 32
0.0
 14
0.0
 24
0.0
 34
0.0
 15
0.0
 25
0.0
 35
0.0
146
0.0
 13
0.0
 23
0.0
 33
0.0
 16
1.0
 26
0.0
 36
0.0
 17
0.0
 27
1.0
 37
0.0
 76
0
330
216
345
0
346
0
  0
LAYOUT
  5
494
102
{ACAD_REACTORS
330
1A
102
}
100
AcDbPlotSettings
  1

  2
none_device
  4
ISO_A3_(420.00_x_297.00_MM)
  6

 40
0.0
 41
0.0
 42
0.0
 43
0.0
 44
420.0
 45
297.0
 46
0.0
 47
0.0
 48
0.0
 49
0.0
140
0.0
141
0.0
142
1.0
143
1.0
 70
0
 72
1
 73
0
 74
0
  7

 75
0
147
1.0
148
0.0
149
0.0
100
AcDbLayout
  1
Layout1
 70
0
 71
1
 10
0.0
 20
0.0
 11
420.0
 21
297.0
 12
0.0
 22
0.0
 32
0.0
 14
0.0
 24
0.0
 34
0.0
 15
0.0
 25
0.0
 35
0.0
146
0.0
 13
0.0
 23
0.0
 33
0.0
 16
1.0
 26
0.0
 36
0.0
 17
0.0
 27
1.0
 37
0.0
 76
0
330
217
345
0
346
0
  0
ENDSEC
  0
EOF
