  0
SECTION
  2
HEADER
  9
$ACADVER
  1
AC1024
  9
$DWGCODEPAGE
  3
ANSI_1252
  9
$EXTMAX
 10
420.0
 20
297.0
 30
0.0
  9
$EXTMIN
 10
0.0
 20
0.0
 30
0.0
  9
$LIMMIN
 10
0.0
 20
0.0
  9
$LIMMAX
 10
420.0
 20
297.0
  9
$VIEWCTR
 10
210.0
 20
148.5
  9
$VIEWSIZE
 40
297.0
  9
$CLAYER
  8
0
  9
$LTSCALE
 40
23.1
  9
$CELTYPE
  6
BYLAYER
  9
$DIMSCALE
 40
1.0
  9
$DIMASZ
 40
3.0
  9
$DIMEXO
 40
0.5
  9
$DIMDLI
 40
15.96
  9
$DIMEXE
 40
1.5
  9
$DIMCEN
 40
3.78
  9
$DIMLFAC
 40
1.0
  9
$DIMBLK
  1
_FILLED
  9
$DIMALT
 70
0
  9
$DIMALTF
 40
0.0393700787
  9
$DIMTXT
 40
3.0
  9
$DIMTOL
 70
1
  9
$DIMLIM
 70
0
  9
$DIMTFAC
 40
1.0
  9
$DIMTP
 40
0.01
  9
$DIMTM
 40
0.01
  9
$DIMGAP
 40
0.625
  9
$DIMDSEP
 70
44
  9
$AUNITS
 70
0
  9
$PDMODE
 70
3
  9
$PDSIZE
 40
3.0
  9
$HANDSEED
  5
361
  9
$TILEMODE
 70
1
  9
$MEASUREMENT
 70
1
  9
$INSUNITS
 70
4
  0
ENDSEC
  0
SECTION
  2
CLASSES
  0
CLASS
  1
ACDBDICTIONARYWDFLT
  2
AcDbDictionaryWithDefault
  3
AutoCAD 2000
 90
0
 91
1
280
0
281
0
  0
CLASS
  1
ACDBPLACEHOLDER
  2
AcDbPlaceHolder
  3
AutoCAD 2000
 90
0
 91
1
280
0
281
0
  0
CLASS
  1
LAYOUT
  2
AcDbLayout
  3
AutoCAD 2000
 90
0
 91
0
280
0
281
0
  0
ENDSEC
  0
SECTION
  2
TABLES
  0
TABLE
  2
VPORT
  5
8
100
AcDbSymbolTable
 70
2
  0
VPORT
  5
1F4
100
AcDbSymbolTableRecord
100
AcDbViewportTableRecord
  2
*ACTIVE
 70
0
 10
0.0
 20
0.0
 11
1.0
 21
1.0
 12
210.0
 22
148.5
 13
0.0
 23
0.0
 14
1.0
 24
1.0
 15
0.0
 25
0.0
 16
0.0
 26
0.0
 36
1.0
 17
0.0
 27
0.0
 37
0.0
 40
297.0
 41
1.4141414141
 42
50.0
 43
0.0
 44
0.0
 50
0.0
 51
0.0
 71
0
 72
100
 73
1
 74
1
 75
0
 76
0
 77
0
 78
0
  0
ENDTAB
  0
TABLE
  2
LTYPE
  5
5
100
AcDbSymbolTable
 70
6
  0
LTYPE
  5
14
100
AcDbSymbolTableRecord
100
AcDbLinetypeTableRecord
  2
BYBLOCK
 70
0
  3

 72
65
 73
0
 40
0.0
  0
LTYPE
  5
15
100
AcDbSymbolTableRecord
100
AcDbLinetypeTableRecord
  2
BYLAYER
 70
0
  3

 72
65
 73
0
 40
0.0
  0
LTYPE
  5
16
100
AcDbSymbolTableRecord
100
AcDbLinetypeTableRecord
  2
CONTINUOUS
 70
64
  3
Solid line
 72
65
 73
0
 40
0.0
  0
LTYPE
  5
1F5
100
AcDbSymbolTableRecord
100
AcDbLinetypeTableRecord
  2
CENTER
 70
64
  3
____ _ ____ _ ____ _ ____ _ ____ _ ____ _ ____
 72
65
 73
4
 40
0.6
 49
0.375
 74
0
 49
-0.075
 74
0
 49
0.075
 74
0
 49
-0.075
 74
0
  0
LTYPE
  5
1F6
100
AcDbSymbolTableRecord
100
AcDbLinetypeTableRecord
  2
HIDDEN
 70
64
  3
- - - - - - - - - - - - - - - - - - - -
 72
65
 73
2
 40
0.2
 49
0.1
 74
0
 49
-0.1
 74
0
  0
LTYPE
  5
1F7
100
AcDbSymbolTableRecord
100
AcDbLinetypeTableRecord
  2
PHANTOM
 70
64
  3
_____ _ _ _____ _ _ _____ _ _ _____
 72
65
 73
6
 40
0.8
 49
0.45
 74
0
 49
-0.05
 74
0
 49
0.1
 74
0
 49
-0.05
 74
0
 49
0.1
 74
0
 49
-0.05
 74
0
  0
LTYPE
  5
1F8
100
AcDbSymbolTableRecord
100
AcDbLinetypeTableRecord
  2
DOT
 70
64
  3
. . . . . . . . . . . . . . . . . . . .
 72
65
 73
2
 40
0.2
 49
0.1
 74
0
 49
-0.1
 74
0
  0
LTYPE
  5
1F9
100
AcDbSymbolTableRecord
100
AcDbLinetypeTableRecord
  2
DASHED
 70
64
  3
- - - - - - - - - - - - - - - - - - - -
 72
65
 73
2
 40
0.2
 49
0.1
 74
0
 49
-0.1
 74
0
  0
ENDTAB
  0
TABLE
  2
LAYER
  5
2
100
AcDbSymbolTable
 70
36
  0
LAYER
  5
10
100
AcDbSymbolTableRecord
100
AcDbLayerTableRecord
  2
0
 70
0
 62
7
  6
CONTINUOUS
370
-3
390
F
  0
LAYER
  5
1FA
100
AcDbSymbolTableRecord
100
AcDbLayerTableRecord
  2
DEFAULT_1
 70
0
 62
7
  6
CENTER
370
-3
390
F
  0
LAYER
  5
1FB
100
AcDbSymbolTableRecord
100
AcDbLayerTableRecord
  2
DEFAULT_2
 70
0
 62
7
  6
HIDDEN
370
-3
390
F
  0
LAYER
  5
1FC
100
AcDbSymbolTableRecord
100
AcDbLayerTableRecord
  2
DEFAULT_3
 70
0
 62
7
  6
PHANTOM
370
-3
390
F
  0
LAYER
  5
1FD
100
AcDbSymbolTableRecord
100
AcDbLayerTableRecord
  2
ASSI
 70
0
 62
7
  6
CONTINUOUS
370
-3
390
F
  0
LAYER
  5
1FE
100
AcDbSymbolTableRecord
100
AcDbLayerTableRecord
  2
COORDINATE
 70
0
 62
7
  6
CONTINUOUS
370
-3
390
F
  0
LAYER
  5
1FF
100
AcDbSymbolTableRecord
100
AcDbLayerTableRecord
  2
COPY_PUBLISH
 70
0
 62
7
  6
CONTINUOUS
370
-3
390
F
  0
LAYER
  5
200
100
AcDbSymbolTableRecord
100
AcDbLayerTableRecord
  2
COSMETICI
 70
0
 62
7
  6
CONTINUOUS
370
-3
390
F
  0
LAYER
  5
201
100
AcDbSymbolTableRecord
100
AcDbLayerTableRecord
  2
CURVE
 70
0
 62
7
  6
CONTINUOUS
370
-3
390
F
  0
LAYER
  5
202
100
AcDbSymbolTableRecord
100
AcDbLayerTableRecord
  2
DRAFT
 70
0
 62
7
  6
CONTINUOUS
370
-3
390
F
  0
LAYER
  5
203
100
AcDbSymbolTableRecord
100
AcDbLayerTableRecord
  2
IMPORT_IGES
 70
0
 62
7
  6
CONTINUOUS
370
-3
390
F
  0
LAYER
  5
204
100
AcDbSymbolTableRecord
100
AcDbLayerTableRecord
  2
INTF_1
 70
0
 62
7
  6
CONTINUOUS
370
-3
390
F
  0
LAYER
  5
205
100
AcDbSymbolTableRecord
100
AcDbLayerTableRecord
  2
INTF_11
 70
0
 62
7
  6
CONTINUOUS
370
-3
390
F
  0
LAYER
  5
206
100
AcDbSymbolTableRecord
100
AcDbLayerTableRecord
  2
INTF_13
 70
0
 62
7
  6
CONTINUOUS
370
-3
390
F
  0
LAYER
  5
207
100
AcDbSymbolTableRecord
100
AcDbLayerTableRecord
  2
INTF_2
 70
0
 62
7
  6
CONTINUOUS
370
-3
390
F
  0
LAYER
  5
208
100
AcDbSymbolTableRecord
100
AcDbLayerTableRecord
  2
INTF_8
 70
0
 62
7
  6
CONTINUOUS
370
-3
390
F
  0
LAYER
  5
209
100
AcDbSymbolTableRecord
100
AcDbLayerTableRecord
  2
NOTE
 70
0
 62
7
  6
CONTINUOUS
370
-3
390
F
  0
LAYER
  5
20A
100
AcDbSymbolTableRecord
100
AcDbLayerTableRecord
  2
PIANI
 70
0
 62
7
  6
CONTINUOUS
370
-3
390
F
  0
LAYER
  5
20B
100
AcDbSymbolTableRecord
100
AcDbLayerTableRecord
  2
PUNTI
 70
0
 62
7
  6
CONTINUOUS
370
-3
390
F
  0
LAYER
  5
20C
100
AcDbSymbolTableRecord
100
AcDbLayerTableRecord
  2
RACCORDO
 70
0
 62
7
  6
CONTINUOUS
370
-3
390
F
  0
LAYER
  5
20D
100
AcDbSymbolTableRecord
100
AcDbLayerTableRecord
  2
SIMBOLI
 70
0
 62
7
  6
CONTINUOUS
370
-3
390
F
  0
LAYER
  5
20E
100
AcDbSymbolTableRecord
100
AcDbLayerTableRecord
  2
SMUSSO
 70
0
 62
7
  6
CONTINUOUS
370
-3
390
F
  0
LAYER
  5
20F
100
AcDbSymbolTableRecord
100
AcDbLayerTableRecord
  2
SUPERFICI
 70
0
 62
7
  6
CONTINUOUS
370
-3
390
F
  0
LAYER
  5
210
100
AcDbSymbolTableRecord
100
AcDbLayerTableRecord
  2
TRASH
 70
0
 62
7
  6
CONTINUOUS
370
-3
390
F
  0
ENDTAB
  0
TABLE
  2
STYLE
  5
3
100
AcDbSymbolTable
 70
1
  0
STYLE
  5
11
100
AcDbSymbolTableRecord
100
AcDbTextStyleTableRecord
  2
STANDARD
 70
0
 40
0.0
 41
0.8
 50
0.0
 71
0
 42
0.2
  3
txt
  4

  0
STYLE
  5
211
100
AcDbSymbolTableRecord
100
AcDbTextStyleTableRecord
  2
TEXTSTYLE_1
 70
0
 40
0.0
 41
0.8
 50
0.0
 71
0
 42
0.2
  3
gdt
  4

  0
ENDTAB
  0
TABLE
  2
VIEW
  5
6
100
AcDbSymbolTable
 70
0
  0
ENDTAB
  0
TABLE
  2
UCS
  5
7
100
AcDbSymbolTable
 70
0
  0
ENDTAB
  0
TABLE
  2
APPID
  5
9
100
AcDbSymbolTable
 70
1
  0
APPID
  5
212
100
AcDbSymbolTableRecord
100
AcDbRegAppTableRecord
  2
ACAD
 70
0
  0
ENDTAB
  0
TABLE
  2
BLOCK_RECORD
  5
1
100
AcDbSymbolTable
 70
0
  0
BLOCK_RECORD
  5
213
100
AcDbSymbolTableRecord
100
AcDbBlockTableRecord
  2
*Model_Space
  0
BLOCK_RECORD
  5
214
100
AcDbSymbolTableRecord
100
AcDbBlockTableRecord
  2
*Paper_Space
  0
BLOCK_RECORD
  5
215
100
AcDbSymbolTableRecord
100
AcDbBlockTableRecord
  2
_FILLED
  0
BLOCK_RECORD
  5
216
100
AcDbSymbolTableRecord
100
AcDbBlockTableRecord
  2
*D0
  0
BLOCK_RECORD
  5
217
100
AcDbSymbolTableRecord
100
AcDbBlockTableRecord
  2
*D1
  0
BLOCK_RECORD
  5
218
100
AcDbSymbolTableRecord
100
AcDbBlockTableRecord
  2
*D2
  0
ENDTAB
  0
TABLE
  2
DIMSTYLE
  5
A
100
AcDbSymbolTable
 70
1
100
AcDbDimStyleTable
 71
0
  0
DIMSTYLE
105
219
100
AcDbSymbolTableRecord
100
AcDbDimStyleTableRecord
  2
STANDARD
 70
0
  3

  4

 40
1.0
 41
3.0
 42
0.5
 43
0.38
 44
1.5
 45
0.0
 46
0.0
 47
0.01
 48
0.01
140
3.0
141
0.09
142
0.0
143
25.4
144
1.0
145
0.0
146
1.0
147
0.625
 71
1
 72
0
 73
0
 74
0
 75
0
 76
0
 77
1
 78
8
 79
2
170
0
171
1
172
0
173
0
174
0
175
0
176
0
177
0
178
0
270
2
179
2
271
2
272
2
273
2
274
2
275
0
280
0
281
0
282
0
283
1
284
8
285
0
286
0
287
3
288
0
340
11
278
44
341
215
342
215
343
215
344
215
  0
DIMSTYLE
105
21A
100
AcDbSymbolTableRecord
100
AcDbDimStyleTableRecord
  2
DIMSTYLE_1
 70
0
  3

  4

 40
1.0
 41
3.0
 42
0.5
 43
0.38
 44
1.5
 45
0.0
 46
0.0
 47
0.0
 48
0.0
140
3.0
141
0.09
142
0.0
143
25.4
144
1.0
145
0.0
146
1.0
147
0.75
 71
0
 72
0
 73
0
 74
0
 75
0
 76
0
 77
1
 78
8
 79
2
170
0
171
1
172
0
173
0
174
0
175
0
176
0
177
0
178
0
270
2
179
2
271
2
272
2
273
2
274
2
275
0
280
0
281
0
282
0
283
1
284
8
285
0
286
0
287
3
288
0
340
11
278
44
341
215
342
215
343
215
344
215
  0
ENDTAB
  0
ENDSEC
  0
SECTION
  2
BLOCKS
  0
BLOCK
  5
20
100
AcDbEntity
  8
0
100
AcDbBlockBegin
  2
*Model_Space
 70
0
 10
0.0
 20
0.0
 30
0.0
  3
*Model_Space
  1

  0
ENDBLK
  5
21
100
AcDbEntity
  8
0
100
AcDbBlockEnd
  0
BLOCK
  5
1C
100
AcDbEntity
  8
0
100
AcDbBlockBegin
  2
*Paper_Space
 70
0
 10
0.0
 20
0.0
 30
0.0
  3
*Paper_Space
  1

  0
ENDBLK
  5
1D
100
AcDbEntity
  8
0
100
AcDbBlockEnd
  0
BLOCK
  5
21B
100
AcDbEntity
  8
0
100
AcDbBlockBegin
  2
_FILLED
 70
64
 10
0.0
 20
0.0
  3
_FILLED
  1

  0
SOLID
  5
21C
100
AcDbEntity
  8
0
  6
BYBLOCK
 62
0
100
AcDbTrace
 10
0.0
 20
0.0
 11
-1.0
 21
0.3166666667
 12
-1.0
 22
-0.3166666667
 13
-1.0
 23
-0.3166666667
  0
ENDBLK
  5
21D
100
AcDbEntity
  8
0
  6
BYBLOCK
 62
0
100
AcDbBlockEnd
  0
BLOCK
  5
21E
100
AcDbEntity
  8
0
100
AcDbBlockBegin
 62
7
  6
CONTINUOUS
  2
*D0
 70
65
 10
0.0
 20
0.0
  3
*D0
  1

  0
MTEXT
  5
21F
100
AcDbEntity
  8
0
100
AcDbMText
 62
7
  6
CONTINUOUS
  7
STANDARD
 71
2
 72
1
 10
292.0649894056
 20
128.1442558747
 30
0.0
 11
0.0
 21
1.0
 31
0.0
 73
2
 44
0.9
  1
{\ftxt;\W0.0001;\H0.0001;\~}{\ftxt;\W2.2857142857;\H3.0; }{\ftxt;\W0.0001;\H0.0001;\~}
 40
3.0
 41
10.2857142857
  0
LINE
  5
220
100
AcDbEntity
  8
0
100
AcDbLine
 62
7
  6
CONTINUOUS
 10
282.2578328982
 20
12.1442558747
 11
297.3149894056
 21
12.1442558747
  0
LINE
  5
221
100
AcDbEntity
  8
0
100
AcDbLine
 62
7
  6
CONTINUOUS
 10
282.2578328982
 20
244.1442558747
 11
297.3149894056
 21
244.1442558747
  0
LINE
  5
222
100
AcDbEntity
  8
0
100
AcDbLine
 62
7
  6
CONTINUOUS
 10
295.8149894056
 20
12.1442558747
 11
295.8149894056
 21
128.1442558747
  0
LINE
  5
223
100
AcDbEntity
  8
0
100
AcDbLine
 62
7
  6
CONTINUOUS
 10
295.8149894056
 20
244.1442558747
 11
295.8149894056
 21
128.1442558747
  0
INSERT
  5
224
100
AcDbEntity
  8
0
100
AcDbBlockReference
 62
7
  6
CONTINUOUS
  2
_FILLED
 10
295.8149894056
 20
12.1442558747
 41
3.0
 42
3.0
 43
3.0
 50
270.0
  0
INSERT
  5
225
100
AcDbEntity
  8
0
100
AcDbBlockReference
 62
7
  6
CONTINUOUS
  2
_FILLED
 10
295.8149894056
 20
244.1442558747
 41
3.0
 42
3.0
 43
3.0
 50
90.0
  0
ENDBLK
  5
226
100
AcDbEntity
  8
0
  6
BYBLOCK
 62
0
100
AcDbBlockEnd
  0
BLOCK
  5
227
100
AcDbEntity
  8
0
100
AcDbBlockBegin
 62
7
  6
CONTINUOUS
  2
*D1
 70
65
 10
0.0
 20
0.0
  3
*D1
  1

  0
MTEXT
  5
228
100
AcDbEntity
  8
0
100
AcDbMText
 62
7
  6
CONTINUOUS
  7
STANDARD
 71
2
 72
1
 10
237.7578328982
 20
7.5738768973
 30
0.0
 11
1.0
 21
0.0
 31
0.0
 73
2
 44
0.9
  1
{\ftxt;\W0.0001;\H0.0001;\~}{\ftxt;\W1.5714285714;\H3.0; }{\ftxt;\W0.0001;\H0.0001;\~}
 40
3.0
 41
7.0714285714
  0
LINE
  5
229
100
AcDbEntity
  8
0
100
AcDbLine
 62
7
  6
CONTINUOUS
 10
193.7578328982
 20
11.6442558747
 11
193.7578328982
 21
2.3238768973
  0
LINE
  5
22A
100
AcDbEntity
  8
0
100
AcDbLine
 62
7
  6
CONTINUOUS
 10
281.7578328982
 20
11.6442558747
 11
281.7578328982
 21
2.3238768973
  0
LINE
  5
22B
100
AcDbEntity
  8
0
100
AcDbLine
 62
7
  6
CONTINUOUS
 10
193.7578328982
 20
3.8238768973
 11
237.7578328982
 21
3.8238768973
  0
LINE
  5
22C
100
AcDbEntity
  8
0
100
AcDbLine
 62
7
  6
CONTINUOUS
 10
281.7578328982
 20
3.8238768973
 11
237.7578328982
 21
3.8238768973
  0
INSERT
  5
22D
100
AcDbEntity
  8
0
100
AcDbBlockReference
 62
7
  6
CONTINUOUS
  2
_FILLED
 10
193.7578328982
 20
3.8238768973
 41
3.0
 42
3.0
 43
3.0
 50
180.0
  0
INSERT
  5
22E
100
AcDbEntity
  8
0
100
AcDbBlockReference
 62
7
  6
CONTINUOUS
  2
_FILLED
 10
281.7578328982
 20
3.8238768973
 41
3.0
 42
3.0
 43
3.0
  0
ENDBLK
  5
22F
100
AcDbEntity
  8
0
  6
BYBLOCK
 62
0
100
AcDbBlockEnd
  0
BLOCK
  5
230
100
AcDbEntity
  8
0
100
AcDbBlockBegin
 62
7
  6
CONTINUOUS
  2
*D2
 70
65
 10
0.0
 20
0.0
  3
*D2
  1

  0
MTEXT
  5
231
100
AcDbEntity
  8
0
100
AcDbMText
 62
7
  6
CONTINUOUS
  7
STANDARD
 71
1
 72
1
 10
165.3828670348
 20
253.7342401268
 30
0.0
 11
1.0
 21
0.0
 31
0.0
 73
2
 44
0.9
  1
{\ftxt;\W0.0001;\H0.0001;\~}{\ftxt;\W2.1428571429;\H3.0; }{\ftxt;\W0.0001;\H0.0001;\~}
 40
3.0
 41
9.6428571429
  0
LINE
  5
232
100
AcDbEntity
  8
0
100
AcDbLine
 62
7
  6
CONTINUOUS
 10
152.962544366
 20
244.1442558747
 11
152.962544366
 21
251.4842401268
  0
LINE
  5
233
100
AcDbEntity
  8
0
100
AcDbLine
 62
7
  6
CONTINUOUS
 10
160.762544366
 20
242.365800889
 11
160.762544366
 21
251.4842401268
  0
LINE
  5
234
100
AcDbEntity
  8
0
100
AcDbLine
 62
7
  6
CONTINUOUS
 10
152.962544366
 20
249.9842401268
 11
156.862544366
 21
249.9842401268
  0
LINE
  5
235
100
AcDbEntity
  8
0
100
AcDbLine
 62
7
  6
CONTINUOUS
 10
160.762544366
 20
249.9842401268
 11
156.862544366
 21
249.9842401268
  0
LINE
  5
236
100
AcDbEntity
  8
0
100
AcDbLine
 62
7
  6
CONTINUOUS
 10
156.862544366
 20
249.9842401268
 11
171.8114384634
 21
249.9842401268
  0
INSERT
  5
237
100
AcDbEntity
  8
0
100
AcDbBlockReference
 62
7
  6
CONTINUOUS
  2
_FILLED
 10
152.962544366
 20
249.9842401268
 41
3.0
 42
3.0
 43
3.0
 50
180.0
  0
INSERT
  5
238
100
AcDbEntity
  8
0
100
AcDbBlockReference
 62
7
  6
CONTINUOUS
  2
_FILLED
 10
160.762544366
 20
249.9842401268
 41
3.0
 42
3.0
 43
3.0
  0
ENDBLK
  5
239
100
AcDbEntity
  8
0
  6
BYBLOCK
 62
0
100
AcDbBlockEnd
  0
ENDSEC
  0
SECTION
  2
ENTITIES
  0
DIMENSION
  5
23A
100
AcDbEntity
  8
0
100
AcDbDimension
 62
7
  6
CONTINUOUS
  2
*D0
 10
295.8149894056
 20
244.1442558747
 11
295.8149894056
 21
127.7156895473
 70
160
 71
2
 72
2
 41
0.9
 42
232.0
  1
{\ftxt;\W0.0001;\H0.0001;\~}{\ftxt;\W2.2857142857;\H3.0; }{\ftxt;\W0.0001;\H0.0001;\~}
  3
DIMSTYLE_1
100
AcDbAlignedDimension
 13
281.7578328982
 23
12.1442558747
 14
281.7578328982
 24
244.1442558747
 50
90.0
100
AcDbRotatedDimension
  0
DIMENSION
  5
23B
100
AcDbEntity
  8
0
100
AcDbDimension
 62
7
  6
CONTINUOUS
  2
*D1
 10
281.7578328982
 20
3.8238768973
 11
237.329262085
 21
3.8238768973
 70
160
 71
2
 72
2
 41
0.9
 42
88.0
  1
{\ftxt;\W0.0001;\H0.0001;\~}{\ftxt;\W1.5714285714;\H3.0; }{\ftxt;\W0.0001;\H0.0001;\~}
  3
DIMSTYLE_1
100
AcDbAlignedDimension
 13
193.7578328982
 23
12.1442558747
 14
281.7578328982
 24
12.1442558747
100
AcDbRotatedDimension
  0
DIMENSION
  5
23C
100
AcDbEntity
  8
0
100
AcDbDimension
 62
7
  6
CONTINUOUS
  2
*D2
 10
160.762544366
 20
249.9842401268
 11
168.1685806274
 21
249.9842401268
 70
160
 71
1
 72
2
 41
0.9
 42
7.8
  1
{\ftxt;\W0.0001;\H0.0001;\~}{\ftxt;\W2.1428571429;\H3.0; }{\ftxt;\W0.0001;\H0.0001;\~}
  3
DIMSTYLE_1
100
AcDbAlignedDimension
 13
152.962544366
 23
243.6442558747
 14
160.762544366
 24
241.865800889
100
AcDbRotatedDimension
  0
LINE
  5
23D
100
AcDbEntity
  8
RACCORDO
100
AcDbLine
 62
7
  6
CONTINUOUS
 10
193.7578328982
 20
12.1442558747
 11
281.7578328982
 21
12.1442558747
  0
LINE
  5
23E
100
AcDbEntity
  8
0
100
AcDbLine
 62
7
  6
CONTINUOUS
 10
193.7578328982
 20
12.1442558747
 11
281.7578328982
 21
12.1442558747
  0
LINE
  5
23F
100
AcDbEntity
  8
RACCORDO
100
AcDbLine
 62
250
  6
CONTINUOUS
 10
194.2578328982
 20
12.6442558747
 11
281.2578328982
 21
12.6442558747
  0
LINE
  5
240
100
AcDbEntity
  8
0
100
AcDbLine
 62
250
  6
CONTINUOUS
 10
194.2578328982
 20
12.6442558747
 11
281.2578328982
 21
12.6442558747
  0
LWPOLYLINE
  5
241
100
AcDbEntity
  8
0
100
AcDbPolyline
 62
7
  6
CONTINUOUS
 90
13
 70
0
 43
0.3499999917
 10
235.8292565918
 20
6.2881640625
 10
235.5435571289
 20
6.5024482727
 10
235.5435571289
 20
7.1453041077
 10
235.8292565918
 20
7.5738757324
 10
236.4721252441
 20
7.5738757324
 10
236.757824707
 20
7.1453041077
 10
236.757824707
 20
6.5024482727
 10
236.4721252441
 20
6.2881640625
 10
236.9006872559
 20
5.8595924377
 10
236.9006872559
 20
5.0024491882
 10
236.4721252441
 20
4.5738775635
 10
235.8292565918
 20
4.5738775635
 10
235.4006945801
 20
5.0024491882
  0
LINE
  5
242
100
AcDbEntity
  8
RACCORDO
100
AcDbLine
 62
250
  6
CONTINUOUS
 10
259.9328328982
 20
30.0192558747
 11
215.5828328982
 21
30.0192558747
  0
LINE
  5
243
100
AcDbEntity
  8
0
100
AcDbLine
 62
250
  6
CONTINUOUS
 10
259.9328328982
 20
30.0192558747
 11
215.5828328982
 21
30.0192558747
  0
LINE
  5
244
100
AcDbEntity
  8
RACCORDO
100
AcDbLine
 62
7
  6
CONTINUOUS
 10
259.9328328982
 20
30.3192558747
 11
215.5828328982
 21
30.3192558747
  0
LINE
  5
245
100
AcDbEntity
  8
0
100
AcDbLine
 62
7
  6
CONTINUOUS
 10
259.9328328982
 20
30.3192558747
 11
215.5828328982
 21
30.3192558747
  0
LINE
  5
246
100
AcDbEntity
  8
RACCORDO
100
AcDbLine
 62
250
  6
CONTINUOUS
 10
260.8328328982
 20
30.9192558747
 11
260.5328328982
 21
30.9192558747
  0
LINE
  5
247
100
AcDbEntity
  8
0
100
AcDbLine
 62
250
  6
CONTINUOUS
 10
260.8328328982
 20
30.9192558747
 11
260.5328328982
 21
30.9192558747
  0
LINE
  5
248
100
AcDbEntity
  8
RACCORDO
100
AcDbLine
 62
250
  6
CONTINUOUS
 10
214.6828328982
 20
30.9192558747
 11
214.9828328982
 21
30.9192558747
  0
LINE
  5
249
100
AcDbEntity
  8
0
100
AcDbLine
 62
250
  6
CONTINUOUS
 10
214.6828328982
 20
30.9192558747
 11
214.9828328982
 21
30.9192558747
  0
LWPOLYLINE
  5
24A
100
AcDbEntity
  8
0
100
AcDbPolyline
 62
7
  6
CONTINUOUS
 90
13
 70
0
 43
0.3499999917
 10
238.1863989258
 20
6.2881640625
 10
237.9006994629
 20
6.5024482727
 10
237.9006994629
 20
7.1453041077
 10
238.1863989258
 20
7.5738757324
 10
238.8292675781
 20
7.5738757324
 10
239.114967041
 20
7.1453041077
 10
239.114967041
 20
6.5024482727
 10
238.8292675781
 20
6.2881640625
 10
239.2578295898
 20
5.8595924377
 10
239.2578295898
 20
5.0024491882
 10
238.8292675781
 20
4.5738775635
 10
238.1863989258
 20
4.5738775635
 10
237.7578369141
 20
5.0024491882
  0
LINE
  5
24B
100
AcDbEntity
  8
RACCORDO
100
AcDbLine
 62
7
  6
CONTINUOUS
 10
281.757112827
 20
12.1449006472
 11
281.7578328982
 21
12.1442558747
  0
LINE
  5
24C
100
AcDbEntity
  8
0
100
AcDbLine
 62
7
  6
CONTINUOUS
 10
281.757112827
 20
12.1449006472
 11
281.7578328982
 21
12.1442558747
  0
LWPOLYLINE
  5
24D
100
AcDbEntity
  8
RACCORDO
100
AcDbPolyline
 62
7
  6
CONTINUOUS
 90
3
 70
0
 10
281.413578541
 20
243.8000947366
 10
281.7511968505
 20
244.137619827
 10
281.7571881256
 20
244.1435358035
  0
LWPOLYLINE
  5
24E
100
AcDbEntity
  8
0
100
AcDbPolyline
 62
7
  6
CONTINUOUS
 90
3
 70
0
 10
281.413578541
 20
243.8000947366
 10
281.7511968505
 20
244.137619827
 10
281.7571881256
 20
244.1435358035
  0
LWPOLYLINE
  5
24F
100
AcDbEntity
  8
RACCORDO
100
AcDbPolyline
 62
7
  6
CONTINUOUS
 90
3
 70
0
 10
281.2578328982
 20
243.6442558747
 10
281.2989747529
 20
243.685067521
 10
281.413578541
 20
243.8000947366
  0
LWPOLYLINE
  5
250
100
AcDbEntity
  8
0
100
AcDbPolyline
 62
7
  6
CONTINUOUS
 90
3
 70
0
 10
281.2578328982
 20
243.6442558747
 10
281.2989747529
 20
243.685067521
 10
281.413578541
 20
243.8000947366
  0
LWPOLYLINE
  5
251
100
AcDbEntity
  8
RACCORDO
100
AcDbPolyline
 62
7
  6
CONTINUOUS
 90
3
 70
0
 10
281.4136717601
 20
12.4885102319
 10
281.7511968505
 20
12.1508919223
 10
281.757112827
 20
12.1449006472
  0
LWPOLYLINE
  5
252
100
AcDbEntity
  8
0
100
AcDbPolyline
 62
7
  6
CONTINUOUS
 90
3
 70
0
 10
281.4136717601
 20
12.4885102319
 10
281.7511968505
 20
12.1508919223
 10
281.757112827
 20
12.1449006472
  0
LWPOLYLINE
  5
253
100
AcDbEntity
  8
RACCORDO
100
AcDbPolyline
 62
7
  6
CONTINUOUS
 90
3
 70
0
 10
281.2578328982
 20
12.6442558747
 10
281.2986445445
 20
12.60311402
 10
281.4136717601
 20
12.4885102319
  0
LWPOLYLINE
  5
254
100
AcDbEntity
  8
0
100
AcDbPolyline
 62
7
  6
CONTINUOUS
 90
3
 70
0
 10
281.2578328982
 20
12.6442558747
 10
281.2986445445
 20
12.60311402
 10
281.4136717601
 20
12.4885102319
  0
LINE
  5
255
100
AcDbEntity
  8
RACCORDO
100
AcDbLine
 62
7
  6
CONTINUOUS
 10
193.7578328982
 20
244.1442558747
 11
193.7578328982
 21
12.1442558747
  0
LINE
  5
256
100
AcDbEntity
  8
0
100
AcDbLine
 62
7
  6
CONTINUOUS
 10
193.7578328982
 20
244.1442558747
 11
193.7578328982
 21
12.1442558747
  0
LINE
  5
257
100
AcDbEntity
  8
RACCORDO
100
AcDbLine
 62
250
  6
CONTINUOUS
 10
194.2578328982
 20
243.6442558747
 11
194.2578328982
 21
12.6442558747
  0
LINE
  5
258
100
AcDbEntity
  8
0
100
AcDbLine
 62
250
  6
CONTINUOUS
 10
194.2578328982
 20
243.6442558747
 11
194.2578328982
 21
12.6442558747
  0
LINE
  5
259
100
AcDbEntity
  8
RACCORDO
100
AcDbLine
 62
7
  6
CONTINUOUS
 10
281.7571881256
 20
244.1435358035
 11
281.7578328982
 21
244.1442558747
  0
LINE
  5
25A
100
AcDbEntity
  8
0
100
AcDbLine
 62
7
  6
CONTINUOUS
 10
281.7571881256
 20
244.1435358035
 11
281.7578328982
 21
244.1442558747
  0
LINE
  5
25B
100
AcDbEntity
  8
RACCORDO
100
AcDbLine
 62
250
  6
CONTINUOUS
 10
260.8328328982
 20
83.3692558747
 11
260.5328328982
 21
83.3692558747
  0
LINE
  5
25C
100
AcDbEntity
  8
0
100
AcDbLine
 62
250
  6
CONTINUOUS
 10
260.8328328982
 20
83.3692558747
 11
260.5328328982
 21
83.3692558747
  0
LINE
  5
25D
100
AcDbEntity
  8
RACCORDO
100
AcDbLine
 62
250
  6
CONTINUOUS
 10
214.6828328982
 20
83.3692558747
 11
214.9828328982
 21
83.3692558747
  0
LINE
  5
25E
100
AcDbEntity
  8
0
100
AcDbLine
 62
250
  6
CONTINUOUS
 10
214.6828328982
 20
83.3692558747
 11
214.9828328982
 21
83.3692558747
  0
LINE
  5
25F
100
AcDbEntity
  8
RACCORDO
100
AcDbLine
 62
7
  6
CONTINUOUS
 10
215.5828328982
 20
83.9692558747
 11
259.9328328982
 21
83.9692558747
  0
LINE
  5
260
100
AcDbEntity
  8
0
100
AcDbLine
 62
7
  6
CONTINUOUS
 10
215.5828328982
 20
83.9692558747
 11
259.9328328982
 21
83.9692558747
  0
LINE
  5
261
100
AcDbEntity
  8
RACCORDO
100
AcDbLine
 62
250
  6
CONTINUOUS
 10
215.5828328982
 20
84.2692558747
 11
259.9328328982
 21
84.2692558747
  0
LINE
  5
262
100
AcDbEntity
  8
0
100
AcDbLine
 62
250
  6
CONTINUOUS
 10
215.5828328982
 20
84.2692558747
 11
259.9328328982
 21
84.2692558747
  0
LINE
  5
263
100
AcDbEntity
  8
RACCORDO
100
AcDbLine
 62
250
  6
CONTINUOUS
 10
259.9328328982
 20
101.0192558747
 11
215.5828328982
 21
101.0192558747
  0
LINE
  5
264
100
AcDbEntity
  8
0
100
AcDbLine
 62
250
  6
CONTINUOUS
 10
259.9328328982
 20
101.0192558747
 11
215.5828328982
 21
101.0192558747
  0
LINE
  5
265
100
AcDbEntity
  8
RACCORDO
100
AcDbLine
 62
7
  6
CONTINUOUS
 10
259.9328328982
 20
101.3192558747
 11
215.5828328982
 21
101.3192558747
  0
LINE
  5
266
100
AcDbEntity
  8
0
100
AcDbLine
 62
7
  6
CONTINUOUS
 10
259.9328328982
 20
101.3192558747
 11
215.5828328982
 21
101.3192558747
  0
LINE
  5
267
100
AcDbEntity
  8
RACCORDO
100
AcDbLine
 62
250
  6
CONTINUOUS
 10
260.8328328982
 20
101.9192558747
 11
260.5328328982
 21
101.9192558747
  0
LINE
  5
268
100
AcDbEntity
  8
0
100
AcDbLine
 62
250
  6
CONTINUOUS
 10
260.8328328982
 20
101.9192558747
 11
260.5328328982
 21
101.9192558747
  0
LINE
  5
269
100
AcDbEntity
  8
RACCORDO
100
AcDbLine
 62
250
  6
CONTINUOUS
 10
214.6828328982
 20
101.9192558747
 11
214.9828328982
 21
101.9192558747
  0
LINE
  5
26A
100
AcDbEntity
  8
0
100
AcDbLine
 62
250
  6
CONTINUOUS
 10
214.6828328982
 20
101.9192558747
 11
214.9828328982
 21
101.9192558747
  0
LINE
  5
26B
100
AcDbEntity
  8
RACCORDO
100
AcDbLine
 62
250
  6
CONTINUOUS
 10
214.6828328982
 20
30.9192558747
 11
214.6828328982
 21
83.3692558747
  0
LINE
  5
26C
100
AcDbEntity
  8
0
100
AcDbLine
 62
250
  6
CONTINUOUS
 10
214.6828328982
 20
30.9192558747
 11
214.6828328982
 21
83.3692558747
  0
LINE
  5
26D
100
AcDbEntity
  8
RACCORDO
100
AcDbLine
 62
250
  6
CONTINUOUS
 10
214.6828328982
 20
101.9192558747
 11
214.6828328982
 21
154.3692558747
  0
LINE
  5
26E
100
AcDbEntity
  8
0
100
AcDbLine
 62
250
  6
CONTINUOUS
 10
214.6828328982
 20
101.9192558747
 11
214.6828328982
 21
154.3692558747
  0
LINE
  5
26F
100
AcDbEntity
  8
RACCORDO
100
AcDbLine
 62
250
  6
CONTINUOUS
 10
214.6828328982
 20
172.9192558747
 11
214.6828328982
 21
225.3692558747
  0
LINE
  5
270
100
AcDbEntity
  8
0
100
AcDbLine
 62
250
  6
CONTINUOUS
 10
214.6828328982
 20
172.9192558747
 11
214.6828328982
 21
225.3692558747
  0
LINE
  5
271
100
AcDbEntity
  8
RACCORDO
100
AcDbLine
 62
7
  6
CONTINUOUS
 10
214.9828328982
 20
30.9192558747
 11
214.9828328982
 21
83.3692558747
  0
LINE
  5
272
100
AcDbEntity
  8
0
100
AcDbLine
 62
7
  6
CONTINUOUS
 10
214.9828328982
 20
30.9192558747
 11
214.9828328982
 21
83.3692558747
  0
LINE
  5
273
100
AcDbEntity
  8
RACCORDO
100
AcDbLine
 62
7
  6
CONTINUOUS
 10
214.9828328982
 20
101.9192558747
 11
214.9828328982
 21
154.3692558747
  0
LINE
  5
274
100
AcDbEntity
  8
0
100
AcDbLine
 62
7
  6
CONTINUOUS
 10
214.9828328982
 20
101.9192558747
 11
214.9828328982
 21
154.3692558747
  0
LINE
  5
275
100
AcDbEntity
  8
RACCORDO
100
AcDbLine
 62
7
  6
CONTINUOUS
 10
214.9828328982
 20
172.9192558747
 11
214.9828328982
 21
225.3692558747
  0
LINE
  5
276
100
AcDbEntity
  8
0
100
AcDbLine
 62
7
  6
CONTINUOUS
 10
214.9828328982
 20
172.9192558747
 11
214.9828328982
 21
225.3692558747
  0
LINE
  5
277
100
AcDbEntity
  8
RACCORDO
100
AcDbLine
 62
250
  6
CONTINUOUS
 10
215.5828328982
 20
226.2692558747
 11
215.5828328982
 21
225.9692558747
  0
LINE
  5
278
100
AcDbEntity
  8
0
100
AcDbLine
 62
250
  6
CONTINUOUS
 10
215.5828328982
 20
226.2692558747
 11
215.5828328982
 21
225.9692558747
  0
LINE
  5
279
100
AcDbEntity
  8
RACCORDO
100
AcDbLine
 62
250
  6
CONTINUOUS
 10
215.5828328982
 20
155.2692558747
 11
215.5828328982
 21
154.9692558747
  0
LINE
  5
27A
100
AcDbEntity
  8
0
100
AcDbLine
 62
250
  6
CONTINUOUS
 10
215.5828328982
 20
155.2692558747
 11
215.5828328982
 21
154.9692558747
  0
LINE
  5
27B
100
AcDbEntity
  8
RACCORDO
100
AcDbLine
 62
250
  6
CONTINUOUS
 10
215.5828328982
 20
84.2692558747
 11
215.5828328982
 21
83.9692558747
  0
LINE
  5
27C
100
AcDbEntity
  8
0
100
AcDbLine
 62
250
  6
CONTINUOUS
 10
215.5828328982
 20
84.2692558747
 11
215.5828328982
 21
83.9692558747
  0
LINE
  5
27D
100
AcDbEntity
  8
RACCORDO
100
AcDbLine
 62
250
  6
CONTINUOUS
 10
215.5828328982
 20
30.0192558747
 11
215.5828328982
 21
30.3192558747
  0
LINE
  5
27E
100
AcDbEntity
  8
0
100
AcDbLine
 62
250
  6
CONTINUOUS
 10
215.5828328982
 20
30.0192558747
 11
215.5828328982
 21
30.3192558747
  0
LINE
  5
27F
100
AcDbEntity
  8
RACCORDO
100
AcDbLine
 62
250
  6
CONTINUOUS
 10
215.5828328982
 20
101.0192558747
 11
215.5828328982
 21
101.3192558747
  0
LINE
  5
280
100
AcDbEntity
  8
0
100
AcDbLine
 62
250
  6
CONTINUOUS
 10
215.5828328982
 20
101.0192558747
 11
215.5828328982
 21
101.3192558747
  0
LINE
  5
281
100
AcDbEntity
  8
RACCORDO
100
AcDbLine
 62
250
  6
CONTINUOUS
 10
215.5828328982
 20
172.0192558747
 11
215.5828328982
 21
172.3192558747
  0
LINE
  5
282
100
AcDbEntity
  8
0
100
AcDbLine
 62
250
  6
CONTINUOUS
 10
215.5828328982
 20
172.0192558747
 11
215.5828328982
 21
172.3192558747
  0
LWPOLYLINE
  5
283
100
AcDbEntity
  8
0
100
AcDbPolyline
 62
7
  6
CONTINUOUS
 90
4
 70
0
 43
0.3499999917
 10
235.4006945801
 20
5.0024491882
 10
235.4006945801
 20
5.8595924377
 10
235.8292565918
 20
6.2881640625
 10
236.4721252441
 20
6.2881640625
  0
LWPOLYLINE
  5
284
100
AcDbEntity
  8
0
100
AcDbPolyline
 62
7
  6
CONTINUOUS
 90
4
 70
0
 43
0.3499999917
 10
237.7578369141
 20
5.0024491882
 10
237.7578369141
 20
5.8595924377
 10
238.1863989258
 20
6.2881640625
 10
238.8292675781
 20
6.2881640625
  0
LINE
  5
285
100
AcDbEntity
  8
RACCORDO
100
AcDbLine
 62
250
  6
CONTINUOUS
 10
259.9328328982
 20
226.2692558747
 11
259.9328328982
 21
225.9692558747
  0
LINE
  5
286
100
AcDbEntity
  8
0
100
AcDbLine
 62
250
  6
CONTINUOUS
 10
259.9328328982
 20
226.2692558747
 11
259.9328328982
 21
225.9692558747
  0
LINE
  5
287
100
AcDbEntity
  8
RACCORDO
100
AcDbLine
 62
250
  6
CONTINUOUS
 10
259.9328328982
 20
155.2692558747
 11
259.9328328982
 21
154.9692558747
  0
LINE
  5
288
100
AcDbEntity
  8
0
100
AcDbLine
 62
250
  6
CONTINUOUS
 10
259.9328328982
 20
155.2692558747
 11
259.9328328982
 21
154.9692558747
  0
LINE
  5
289
100
AcDbEntity
  8
RACCORDO
100
AcDbLine
 62
250
  6
CONTINUOUS
 10
259.9328328982
 20
84.2692558747
 11
259.9328328982
 21
83.9692558747
  0
LINE
  5
28A
100
AcDbEntity
  8
0
100
AcDbLine
 62
250
  6
CONTINUOUS
 10
259.9328328982
 20
84.2692558747
 11
259.9328328982
 21
83.9692558747
  0
LINE
  5
28B
100
AcDbEntity
  8
RACCORDO
100
AcDbLine
 62
250
  6
CONTINUOUS
 10
259.9328328982
 20
30.0192558747
 11
259.9328328982
 21
30.3192558747
  0
LINE
  5
28C
100
AcDbEntity
  8
0
100
AcDbLine
 62
250
  6
CONTINUOUS
 10
259.9328328982
 20
30.0192558747
 11
259.9328328982
 21
30.3192558747
  0
LINE
  5
28D
100
AcDbEntity
  8
RACCORDO
100
AcDbLine
 62
250
  6
CONTINUOUS
 10
259.9328328982
 20
101.0192558747
 11
259.9328328982
 21
101.3192558747
  0
LINE
  5
28E
100
AcDbEntity
  8
0
100
AcDbLine
 62
250
  6
CONTINUOUS
 10
259.9328328982
 20
101.0192558747
 11
259.9328328982
 21
101.3192558747
  0
LINE
  5
28F
100
AcDbEntity
  8
RACCORDO
100
AcDbLine
 62
250
  6
CONTINUOUS
 10
259.9328328982
 20
172.0192558747
 11
259.9328328982
 21
172.3192558747
  0
LINE
  5
290
100
AcDbEntity
  8
0
100
AcDbLine
 62
250
  6
CONTINUOUS
 10
259.9328328982
 20
172.0192558747
 11
259.9328328982
 21
172.3192558747
  0
LINE
  5
291
100
AcDbEntity
  8
RACCORDO
100
AcDbLine
 62
7
  6
CONTINUOUS
 10
260.5328328982
 20
225.3692558747
 11
260.5328328982
 21
172.9192558747
  0
LINE
  5
292
100
AcDbEntity
  8
0
100
AcDbLine
 62
7
  6
CONTINUOUS
 10
260.5328328982
 20
225.3692558747
 11
260.5328328982
 21
172.9192558747
  0
LINE
  5
293
100
AcDbEntity
  8
RACCORDO
100
AcDbLine
 62
7
  6
CONTINUOUS
 10
260.5328328982
 20
154.3692558747
 11
260.5328328982
 21
101.9192558747
  0
LINE
  5
294
100
AcDbEntity
  8
0
100
AcDbLine
 62
7
  6
CONTINUOUS
 10
260.5328328982
 20
154.3692558747
 11
260.5328328982
 21
101.9192558747
  0
LINE
  5
295
100
AcDbEntity
  8
RACCORDO
100
AcDbLine
 62
7
  6
CONTINUOUS
 10
260.5328328982
 20
83.3692558747
 11
260.5328328982
 21
30.9192558747
  0
LINE
  5
296
100
AcDbEntity
  8
0
100
AcDbLine
 62
7
  6
CONTINUOUS
 10
260.5328328982
 20
83.3692558747
 11
260.5328328982
 21
30.9192558747
  0
LINE
  5
297
100
AcDbEntity
  8
RACCORDO
100
AcDbLine
 62
250
  6
CONTINUOUS
 10
260.8328328982
 20
225.3692558747
 11
260.8328328982
 21
172.9192558747
  0
LINE
  5
298
100
AcDbEntity
  8
0
100
AcDbLine
 62
250
  6
CONTINUOUS
 10
260.8328328982
 20
225.3692558747
 11
260.8328328982
 21
172.9192558747
  0
LINE
  5
299
100
AcDbEntity
  8
RACCORDO
100
AcDbLine
 62
250
  6
CONTINUOUS
 10
260.8328328982
 20
154.3692558747
 11
260.8328328982
 21
101.9192558747
  0
LINE
  5
29A
100
AcDbEntity
  8
0
100
AcDbLine
 62
250
  6
CONTINUOUS
 10
260.8328328982
 20
154.3692558747
 11
260.8328328982
 21
101.9192558747
  0
LINE
  5
29B
100
AcDbEntity
  8
RACCORDO
100
AcDbLine
 62
250
  6
CONTINUOUS
 10
260.8328328982
 20
83.3692558747
 11
260.8328328982
 21
30.9192558747
  0
LINE
  5
29C
100
AcDbEntity
  8
0
100
AcDbLine
 62
250
  6
CONTINUOUS
 10
260.8328328982
 20
83.3692558747
 11
260.8328328982
 21
30.9192558747
  0
LINE
  5
29D
100
AcDbEntity
  8
RACCORDO
100
AcDbLine
 62
250
  6
CONTINUOUS
 10
260.8328328982
 20
154.3692558747
 11
260.5328328982
 21
154.3692558747
  0
LINE
  5
29E
100
AcDbEntity
  8
0
100
AcDbLine
 62
250
  6
CONTINUOUS
 10
260.8328328982
 20
154.3692558747
 11
260.5328328982
 21
154.3692558747
  0
LINE
  5
29F
100
AcDbEntity
  8
RACCORDO
100
AcDbLine
 62
250
  6
CONTINUOUS
 10
214.6828328982
 20
154.3692558747
 11
214.9828328982
 21
154.3692558747
  0
LINE
  5
2A0
100
AcDbEntity
  8
0
100
AcDbLine
 62
250
  6
CONTINUOUS
 10
214.6828328982
 20
154.3692558747
 11
214.9828328982
 21
154.3692558747
  0
LINE
  5
2A1
100
AcDbEntity
  8
RACCORDO
100
AcDbLine
 62
7
  6
CONTINUOUS
 10
215.5828328982
 20
154.9692558747
 11
259.9328328982
 21
154.9692558747
  0
LINE
  5
2A2
100
AcDbEntity
  8
0
100
AcDbLine
 62
7
  6
CONTINUOUS
 10
215.5828328982
 20
154.9692558747
 11
259.9328328982
 21
154.9692558747
  0
LINE
  5
2A3
100
AcDbEntity
  8
RACCORDO
100
AcDbLine
 62
250
  6
CONTINUOUS
 10
215.5828328982
 20
155.2692558747
 11
259.9328328982
 21
155.2692558747
  0
LINE
  5
2A4
100
AcDbEntity
  8
0
100
AcDbLine
 62
250
  6
CONTINUOUS
 10
215.5828328982
 20
155.2692558747
 11
259.9328328982
 21
155.2692558747
  0
LINE
  5
2A5
100
AcDbEntity
  8
RACCORDO
100
AcDbLine
 62
250
  6
CONTINUOUS
 10
281.2578328982
 20
12.6442558747
 11
281.2578328982
 21
243.6442558747
  0
LINE
  5
2A6
100
AcDbEntity
  8
0
100
AcDbLine
 62
250
  6
CONTINUOUS
 10
281.2578328982
 20
12.6442558747
 11
281.2578328982
 21
243.6442558747
  0
LINE
  5
2A7
100
AcDbEntity
  8
RACCORDO
100
AcDbLine
 62
7
  6
CONTINUOUS
 10
281.7578328982
 20
12.1442558747
 11
281.7578328982
 21
244.1442558747
  0
LINE
  5
2A8
100
AcDbEntity
  8
0
100
AcDbLine
 62
7
  6
CONTINUOUS
 10
281.7578328982
 20
12.1442558747
 11
281.7578328982
 21
244.1442558747
  0
LINE
  5
2A9
100
AcDbEntity
  8
RACCORDO
100
AcDbLine
 62
7
  6
CONTINUOUS
 10
193.7584776707
 20
12.1449759459
 11
193.7578328982
 21
12.1442558747
  0
LINE
  5
2AA
100
AcDbEntity
  8
0
100
AcDbLine
 62
7
  6
CONTINUOUS
 10
193.7584776707
 20
12.1449759459
 11
193.7578328982
 21
12.1442558747
  0
LWPOLYLINE
  5
2AB
100
AcDbEntity
  8
RACCORDO
100
AcDbPolyline
 62
7
  6
CONTINUOUS
 90
4
 70
0
 10
193.7766432463
 20
12.1630754797
 10
193.7697724744
 20
12.1561791807
 10
193.7644689458
 20
12.1508919223
 10
193.7584776707
 20
12.1449759459
  0
LWPOLYLINE
  5
2AC
100
AcDbEntity
  8
0
100
AcDbPolyline
 62
7
  6
CONTINUOUS
 90
4
 70
0
 10
193.7766432463
 20
12.1630754797
 10
193.7697724744
 20
12.1561791807
 10
193.7644689458
 20
12.1508919223
 10
193.7584776707
 20
12.1449759459
  0
LINE
  5
2AD
100
AcDbEntity
  8
RACCORDO
100
AcDbLine
 62
250
  6
CONTINUOUS
 10
259.9328328982
 20
172.0192558747
 11
215.5828328982
 21
172.0192558747
  0
LINE
  5
2AE
100
AcDbEntity
  8
0
100
AcDbLine
 62
250
  6
CONTINUOUS
 10
259.9328328982
 20
172.0192558747
 11
215.5828328982
 21
172.0192558747
  0
LINE
  5
2AF
100
AcDbEntity
  8
RACCORDO
100
AcDbLine
 62
7
  6
CONTINUOUS
 10
259.9328328982
 20
172.3192558747
 11
215.5828328982
 21
172.3192558747
  0
LINE
  5
2B0
100
AcDbEntity
  8
0
100
AcDbLine
 62
7
  6
CONTINUOUS
 10
259.9328328982
 20
172.3192558747
 11
215.5828328982
 21
172.3192558747
  0
LINE
  5
2B1
100
AcDbEntity
  8
RACCORDO
100
AcDbLine
 62
250
  6
CONTINUOUS
 10
260.8328328982
 20
172.9192558747
 11
260.5328328982
 21
172.9192558747
  0
LINE
  5
2B2
100
AcDbEntity
  8
0
100
AcDbLine
 62
250
  6
CONTINUOUS
 10
260.8328328982
 20
172.9192558747
 11
260.5328328982
 21
172.9192558747
  0
LINE
  5
2B3
100
AcDbEntity
  8
RACCORDO
100
AcDbLine
 62
250
  6
CONTINUOUS
 10
214.6828328982
 20
172.9192558747
 11
214.9828328982
 21
172.9192558747
  0
LINE
  5
2B4
100
AcDbEntity
  8
0
100
AcDbLine
 62
250
  6
CONTINUOUS
 10
214.6828328982
 20
172.9192558747
 11
214.9828328982
 21
172.9192558747
  0
LWPOLYLINE
  5
2B5
100
AcDbEntity
  8
RACCORDO
100
AcDbPolyline
 62
7
  6
CONTINUOUS
 90
3
 70
0
 10
194.2578328982
 20
243.6442558747
 10
194.2170212518
 20
243.6853977294
 10
194.1019940363
 20
243.8000015175
  0
LWPOLYLINE
  5
2B6
100
AcDbEntity
  8
0
100
AcDbPolyline
 62
7
  6
CONTINUOUS
 90
3
 70
0
 10
194.2578328982
 20
243.6442558747
 10
194.2170212518
 20
243.6853977294
 10
194.1019940363
 20
243.8000015175
  0
LWPOLYLINE
  5
2B7
100
AcDbEntity
  8
0
100
AcDbPolyline
 62
7
  6
CONTINUOUS
 90
5
 70
0
 43
0.3499999917
 10
293.3506970215
 20
127.9299719238
 10
293.1364160156
 20
128.2871154785
 10
292.493572998
 20
128.2871154785
 10
292.0649853516
 20
127.9299719238
 10
292.0649853516
 20
127.0728222656
  0
LWPOLYLINE
  5
2B8
100
AcDbEntity
  8
0
100
AcDbPolyline
 62
7
  6
CONTINUOUS
 90
7
 70
0
 43
0.3499999917
 10
295.0649963379
 20
130.7156890869
 10
295.0649963379
 20
129.2156835937
 10
292.9221350098
 20
130.7156890869
 10
292.493572998
 20
130.7156890869
 10
292.0649853516
 20
130.2871142578
 10
292.0649853516
 20
129.6442584229
 10
292.7078540039
 20
129.2156835937
  0
LWPOLYLINE
  5
2B9
100
AcDbEntity
  8
0
100
AcDbPolyline
 62
7
  6
CONTINUOUS
 90
7
 70
0
 43
0.3499999917
 10
295.0649963379
 20
126.2156854248
 10
295.0649963379
 20
124.7156799316
 10
292.9221350098
 20
126.2156854248
 10
292.493572998
 20
126.2156854248
 10
292.0649853516
 20
125.7871105957
 10
292.0649853516
 20
125.1442547607
 10
292.7078540039
 20
124.7156799316
  0
LWPOLYLINE
  5
2BA
100
AcDbEntity
  8
0
100
AcDbPolyline
 62
7
  6
CONTINUOUS
 90
6
 70
0
 43
0.3499999917
 10
295.0649963379
 20
127.0728222656
 10
295.0649963379
 20
128.1442529297
 10
294.850715332
 20
128.3585467529
 10
293.779284668
 20
128.3585467529
 10
293.3506970215
 20
127.9299719238
 10
293.3506970215
 20
127.5013970947
  0
LINE
  5
2BB
100
AcDbEntity
  8
RACCORDO
100
AcDbLine
 62
7
  6
CONTINUOUS
 10
194.1388805617
 20
12.5253035382
 11
193.7766432463
 21
12.1630754797
  0
LINE
  5
2BC
100
AcDbEntity
  8
0
100
AcDbLine
 62
7
  6
CONTINUOUS
 10
194.1388805617
 20
12.5253035382
 11
193.7766432463
 21
12.1630754797
  0
LWPOLYLINE
  5
2BD
100
AcDbEntity
  8
RACCORDO
100
AcDbPolyline
 62
7
  6
CONTINUOUS
 90
4
 70
0
 10
194.2578328982
 20
12.6442558747
 10
194.2166910435
 20
12.6034442283
 10
194.1770402646
 20
12.5637165201
 10
194.1388805617
 20
12.5253035382
  0
LWPOLYLINE
  5
2BE
100
AcDbEntity
  8
0
100
AcDbPolyline
 62
7
  6
CONTINUOUS
 90
4
 70
0
 10
194.2578328982
 20
12.6442558747
 10
194.2166910435
 20
12.6034442283
 10
194.1770402646
 20
12.5637165201
 10
194.1388805617
 20
12.5253035382
  0
LINE
  5
2BF
100
AcDbEntity
  8
RACCORDO
100
AcDbLine
 62
7
  6
CONTINUOUS
 10
193.7585529694
 20
244.1436111021
 11
193.7578328982
 21
244.1442558747
  0
LINE
  5
2C0
100
AcDbEntity
  8
0
100
AcDbLine
 62
7
  6
CONTINUOUS
 10
193.7585529694
 20
244.1436111021
 11
193.7578328982
 21
244.1442558747
  0
LWPOLYLINE
  5
2C1
100
AcDbEntity
  8
RACCORDO
100
AcDbPolyline
 62
7
  6
CONTINUOUS
 90
3
 70
0
 10
194.1019940363
 20
243.8000015175
 10
193.7644689458
 20
244.137619827
 10
193.7585529694
 20
244.1436111021
  0
LWPOLYLINE
  5
2C2
100
AcDbEntity
  8
0
100
AcDbPolyline
 62
7
  6
CONTINUOUS
 90
3
 70
0
 10
194.1019940363
 20
243.8000015175
 10
193.7644689458
 20
244.137619827
 10
193.7585529694
 20
244.1436111021
  0
LINE
  5
2C3
100
AcDbEntity
  8
RACCORDO
100
AcDbLine
 62
250
  6
CONTINUOUS
 10
260.8328328982
 20
225.3692558747
 11
260.5328328982
 21
225.3692558747
  0
LINE
  5
2C4
100
AcDbEntity
  8
0
100
AcDbLine
 62
250
  6
CONTINUOUS
 10
260.8328328982
 20
225.3692558747
 11
260.5328328982
 21
225.3692558747
  0
LINE
  5
2C5
100
AcDbEntity
  8
RACCORDO
100
AcDbLine
 62
250
  6
CONTINUOUS
 10
214.6828328982
 20
225.3692558747
 11
214.9828328982
 21
225.3692558747
  0
LINE
  5
2C6
100
AcDbEntity
  8
0
100
AcDbLine
 62
250
  6
CONTINUOUS
 10
214.6828328982
 20
225.3692558747
 11
214.9828328982
 21
225.3692558747
  0
LINE
  5
2C7
100
AcDbEntity
  8
RACCORDO
100
AcDbLine
 62
7
  6
CONTINUOUS
 10
215.5828328982
 20
225.9692558747
 11
259.9328328982
 21
225.9692558747
  0
LINE
  5
2C8
100
AcDbEntity
  8
0
100
AcDbLine
 62
7
  6
CONTINUOUS
 10
215.5828328982
 20
225.9692558747
 11
259.9328328982
 21
225.9692558747
  0
LINE
  5
2C9
100
AcDbEntity
  8
RACCORDO
100
AcDbLine
 62
250
  6
CONTINUOUS
 10
215.5828328982
 20
226.2692558747
 11
259.9328328982
 21
226.2692558747
  0
LINE
  5
2CA
100
AcDbEntity
  8
0
100
AcDbLine
 62
250
  6
CONTINUOUS
 10
215.5828328982
 20
226.2692558747
 11
259.9328328982
 21
226.2692558747
  0
LINE
  5
2CB
100
AcDbEntity
  8
RACCORDO
100
AcDbLine
 62
250
  6
CONTINUOUS
 10
281.2578328982
 20
243.6442558747
 11
194.2578328982
 21
243.6442558747
  0
LINE
  5
2CC
100
AcDbEntity
  8
0
100
AcDbLine
 62
250
  6
CONTINUOUS
 10
281.2578328982
 20
243.6442558747
 11
194.2578328982
 21
243.6442558747
  0
LINE
  5
2CD
100
AcDbEntity
  8
RACCORDO
100
AcDbLine
 62
7
  6
CONTINUOUS
 10
281.7578328982
 20
244.1442558747
 11
193.7578328982
 21
244.1442558747
  0
LINE
  5
2CE
100
AcDbEntity
  8
0
100
AcDbLine
 62
7
  6
CONTINUOUS
 10
281.7578328982
 20
244.1442558747
 11
193.7578328982
 21
244.1442558747
  0
LINE
  5
2CF
100
AcDbEntity
  8
RACCORDO
100
AcDbLine
 62
7
  6
CONTINUOUS
 10
157.862544366
 20
12.1442558747
 11
153.462544366
 21
12.1442558747
  0
LINE
  5
2D0
100
AcDbEntity
  8
0
100
AcDbLine
 62
7
  6
CONTINUOUS
 10
157.862544366
 20
12.1442558747
 11
153.462544366
 21
12.1442558747
  0
LINE
  5
2D1
100
AcDbEntity
  8
RACCORDO
100
AcDbLine
 62
7
  6
CONTINUOUS
 10
157.862544366
 20
13.6521116511
 11
160.5677797557
 21
13.7229507329
  0
LINE
  5
2D2
100
AcDbEntity
  8
RACCORDO
100
AcDbLine
 62
250
  6
CONTINUOUS
 10
157.862544366
 20
14.3518717786
 11
160.5677797557
 21
14.4227108604
  0
LINE
  5
2D3
100
AcDbEntity
  8
RACCORDO
100
AcDbLine
 62
250
  6
CONTINUOUS
 10
160.762544366
 20
14.4227108604
 11
160.5677797557
 21
14.4227108604
  0
LINE
  5
2D4
100
AcDbEntity
  8
CURVE
100
AcDbLine
 62
250
  6
CONTINUOUS
 10
154.409571366
 20
19.4443198747
 11
156.409529366
 21
19.4443198747
  0
LINE
  5
2D5
100
AcDbEntity
  8
CURVE
100
AcDbLine
 62
250
  6
CONTINUOUS
 10
156.409529366
 20
19.8617638747
 11
154.409571366
 21
19.8617638747
  0
LINE
  5
2D6
100
AcDbEntity
  8
CURVE
100
AcDbLine
 62
250
  6
CONTINUOUS
 10
155.103672366
 20
20.5759298747
 11
156.409529366
 21
20.4858458747
  0
LINE
  5
2D7
100
AcDbEntity
  8
CURVE
100
AcDbLine
 62
250
  6
CONTINUOUS
 10
156.409529366
 20
20.0864878747
 11
154.409691366
 21
20.2670618747
  0
LINE
  5
2D8
100
AcDbEntity
  8
CURVE
100
AcDbLine
 62
250
  6
CONTINUOUS
 10
154.409691366
 20
18.0981898747
 11
155.786242366
 21
18.4793958747
  0
LINE
  5
2D9
100
AcDbEntity
  8
CURVE
100
AcDbLine
 62
250
  6
CONTINUOUS
 10
156.409529366
 20
23.3849538747
 11
156.010290366
 21
23.2768128747
  0
LINE
  5
2DA
100
AcDbEntity
  8
CURVE
100
AcDbLine
 62
250
  6
CONTINUOUS
 10
155.701361366
 20
23.1933868747
 11
154.959196366
 21
23.0015658747
  0
LINE
  5
2DB
100
AcDbEntity
  8
CURVE
100
AcDbLine
 62
250
  6
CONTINUOUS
 10
154.409691366
 20
21.9276618747
 11
156.409529366
 21
22.1146688747
  0
LINE
  5
2DC
100
AcDbEntity
  8
CURVE
100
AcDbLine
 62
250
  6
CONTINUOUS
 10
156.409529366
 20
21.7062978747
 11
155.109117366
 21
21.6205308747
  0
LWPOLYLINE
  5
2DD
100
AcDbEntity
  8
CURVE
100
AcDbPolyline
 62
250
  6
CONTINUOUS
 90
59
 70
0
 10
154.9886046928
 20
24.9122640007
 10
154.9972876725
 20
24.9122869482
 10
155.0060377972
 20
24.9120889227
 10
155.0148430828
 20
24.9116698266
 10
155.0236915451
 20
24.911029562
 10
155.0325712
 20
24.9101680311
 10
155.0414700632
 20
24.9090851362
 10
155.0503761506
 20
24.9077807793
 10
155.059277478
 20
24.9062548628
 10
155.0681620612
 20
24.9045072889
 10
155.0770179161
 20
24.9025379597
 10
155.0858330585
 20
24.9003467774
 10
155.0945955041
 20
24.8979336443
 10
155.1032932689
 20
24.8952984627
 10
155.1119143686
 20
24.8924411345
 10
155.1204468191
 20
24.8893615622
 10
155.1288786361
 20
24.8860596479
 10
155.1371978355
 20
24.8825352938
 10
155.1453924332
 20
24.8787884021
 10
155.1534504449
 20
24.874818875
 10
155.1613598864
 20
24.8706266148
 10
155.1691087737
 20
24.8662115236
 10
155.1766851224
 20
24.8615735036
 10
155.1840769485
 20
24.8567124572
 10
155.1912722677
 20
24.8516282863
 10
155.1982590959
 20
24.8463208934
 10
155.2050254489
 20
24.8407901805
 10
155.2115593426
 20
24.8350360499
 10
155.2178487926
 20
24.8290584038
 10
155.2238818149
 20
24.8228571444
 10
155.2296464253
 20
24.8164321739
 10
155.2350616978
 20
24.8098760052
 10
155.2402098832
 20
24.8031122614
 10
155.2450968006
 20
24.7961511982
 10
155.2497282692
 20
24.7890030709
 10
155.254110108
 20
24.7816781351
 10
155.2582481362
 20
24.7741866464
 10
155.2621481729
 20
24.7665388603
 10
155.2658160373
 20
24.7587450322
 10
155.2692575485
 20
24.7508154178
 10
155.2724785256
 20
24.7427602725
 10
155.2754847878
 20
24.734589852
 10
155.2782821541
 20
24.7263144116
 10
155.2808764438
 20
24.717944207
 10
155.283273476
 20
24.7094894936
 10
155.2854790697
 20
24.700960527
 10
155.2874990442
 20
24.6923675627
 10
155.2893392185
 20
24.6837208563
 10
155.2910054117
 20
24.6750306632
 10
155.2925034431
 20
24.666307239
 10
155.2938391318
 20
24.6575608392
 10
155.2950182968
 20
24.6488017194
 10
155.2960467574
 20
24.640040135
 10
155.2969303326
 20
24.6312863417
 10
155.2976748415
 20
24.6225505949
 10
155.2982861034
 20
24.6138431501
 10
155.2987699373
 20
24.6051742629
 10
155.2991321624
 20
24.5965541888
 10
155.2993785978
 20
24.5879931833
  0
LINE
  5
2DE
100
AcDbEntity
  8
CURVE
100
AcDbLine
 62
250
  6
CONTINUOUS
 10
154.4330567842
 20
23.9475047063
 11
156.4095296313
 21
23.9475047063
  0
LINE
  5
2DF
100
AcDbEntity
  8
CURVE
100
AcDbLine
 62
250
  6
CONTINUOUS
 10
155.2993785978
 20
24.3494277593
 11
154.75038419
 21
24.3494277593
  0
LINE
  5
2E0
100
AcDbEntity
  8
CURVE
100
AcDbLine
 62
250
  6
CONTINUOUS
 10
156.4095296313
 20
24.3632695928
 11
155.6269036707
 21
24.3632695928
  0
LINE
  5
2E1
100
AcDbEntity
  8
CURVE
100
AcDbLine
 62
250
  6
CONTINUOUS
 10
155.4760231873
 20
25.0207341862
 11
155.4642058907
 21
25.0207341862
  0
LINE
  5
2E2
100
AcDbEntity
  8
CURVE
100
AcDbLine
 62
250
  6
CONTINUOUS
 10
154.959196366
 20
23.0015658747
 11
155.701361366
 21
22.7937138747
  0
LINE
  5
2E3
100
AcDbEntity
  8
CURVE
100
AcDbLine
 62
250
  6
CONTINUOUS
 10
155.786242366
 20
18.4793958747
 11
154.409691366
 21
18.8722448747
  0
LINE
  5
2E4
100
AcDbEntity
  8
CURVE
100
AcDbLine
 62
250
  6
CONTINUOUS
 10
156.010290366
 20
22.7083228747
 11
156.409529366
 21
22.5931348747
  0
LINE
  5
2E5
100
AcDbEntity
  8
CURVE
100
AcDbLine
 62
250
  6
CONTINUOUS
 10
156.409529366
 20
22.1802188747
 11
154.409691366
 21
22.8074958747
  0
LINE
  5
2E6
100
AcDbEntity
  8
CURVE
100
AcDbLine
 62
250
  6
CONTINUOUS
 10
154.409691366
 20
19.2894048747
 11
156.409529366
 21
18.6465768747
  0
LINE
  5
2E7
100
AcDbEntity
  8
CURVE
100
AcDbLine
 62
250
  6
CONTINUOUS
 10
155.520007366
 20
21.0971968747
 11
154.409691366
 21
21.5146408747
  0
LINE
  5
2E8
100
AcDbEntity
  8
CURVE
100
AcDbLine
 62
250
  6
CONTINUOUS
 10
155.109117366
 20
21.6205308747
 11
156.409529366
 21
21.1241898747
  0
LINE
  5
2E9
100
AcDbEntity
  8
CURVE
100
AcDbLine
 62
250
  6
CONTINUOUS
 10
156.0559962386
 20
24.9001976126
 11
156.1411547767
 21
24.9243456118
  0
LWPOLYLINE
  5
2EA
100
AcDbEntity
  8
CURVE
100
AcDbPolyline
 62
250
  6
CONTINUOUS
 90
45
 70
0
 10
155.8218166855
 20
25.248760951
 10
155.806350525
 20
25.2444570015
 10
155.7908450047
 20
25.2400018878
 10
155.7752679006
 20
25.2353356118
 10
155.759586989
 20
25.230398175
 10
155.7509727565
 20
25.2275679145
 10
155.7423266661
 20
25.2246371179
 10
155.7336574075
 20
25.2216039598
 10
155.7249736705
 20
25.2184666148
 10
155.7162841447
 20
25.2152232573
 10
155.70759752
 20
25.2118720621
 10
155.698922486
 20
25.2084112035
 10
155.6902677326
 20
25.2048388562
 10
155.6816419495
 20
25.2011531947
 10
155.6730538264
 20
25.1973523936
 10
155.664512053
 20
25.1934346273
 10
155.6560253192
 20
25.1893980705
 10
155.6476023146
 20
25.1852408977
 10
155.639251729
 20
25.1809612835
 10
155.6309822522
 20
25.1765574023
 10
155.6228025739
 20
25.1720274288
 10
155.6147213839
 20
25.1673695375
 10
155.6067473718
 20
25.1625819029
 10
155.5988892275
 20
25.1576626997
 10
155.5911556407
 20
25.1526101022
 10
155.5835553011
 20
25.1474222852
 10
155.5760968985
 20
25.1420974231
 10
155.5687891227
 20
25.1366336905
 10
155.5616406633
 20
25.1310292619
 10
155.5546602101
 20
25.1252823119
 10
155.5478564529
 20
25.1193910151
 10
155.5412380814
 20
25.1133535459
 10
155.5348137854
 20
25.107168079
 10
155.5285922546
 20
25.1008327889
 10
155.5225821788
 20
25.0943458501
 10
155.5167922476
 20
25.0877054372
 10
155.511231151
 20
25.0809097247
 10
155.5059075785
 20
25.0739568872
 10
155.5008302199
 20
25.0668450992
 10
155.4960077651
 20
25.0595725353
 10
155.4914489036
 20
25.05213737
 10
155.4871623254
 20
25.0445377779
 10
155.4831567201
 20
25.0367719336
 10
155.4794407775
 20
25.0288380115
 10
155.4760231873
 20
25.0207341862
  0
LINE
  5
2EB
100
AcDbEntity
  8
CURVE
100
AcDbLine
 62
250
  6
CONTINUOUS
 10
155.9405295903
 20
25.28086061
 11
155.8218166855
 21
25.248760951
  0
LINE
  5
2EC
100
AcDbEntity
  8
CURVE
100
AcDbLine
 62
250
  6
CONTINUOUS
 10
156.4095296313
 20
25.4040614933
 11
156.3381318035
 21
25.3850158439
  0
LINE
  5
2ED
100
AcDbEntity
  8
CURVE
100
AcDbLine
 62
250
  6
CONTINUOUS
 10
156.0851952403
 20
25.3190695218
 11
155.9405295903
 21
25.28086061
  0
LINE
  5
2EE
100
AcDbEntity
  8
CURVE
100
AcDbLine
 62
250
  6
CONTINUOUS
 10
156.3381318035
 20
25.3850158439
 11
156.0851952403
 21
25.3190695218
  0
LWPOLYLINE
  5
2EF
100
AcDbEntity
  8
0
100
AcDbPolyline
 62
7
  6
CONTINUOUS
 90
3
 70
0
 43
0.3499999917
 10
168.4542993164
 20
251.0199645996
 10
168.382868042
 20
250.805657959
 10
168.2400054932
 20
250.5199584961
  0
LWPOLYLINE
  5
2F0
100
AcDbEntity
  8
CURVE
100
AcDbPolyline
 62
250
  6
CONTINUOUS
 90
73
 70
0
 10
155.4642058907
 20
25.0207341862
 10
155.4629555996
 20
25.0275455881
 10
155.4610390835
 20
25.0341567704
 10
155.4585302952
 20
25.0405844688
 10
155.4555031871
 20
25.046845419
 10
155.4520317121
 20
25.0529563569
 10
155.4481898226
 20
25.0589340181
 10
155.4440514713
 20
25.0647951385
 10
155.4396906109
 20
25.0705564537
 10
155.4351811939
 20
25.0762346996
 10
155.430597173
 20
25.0818466119
 10
155.4190094315
 20
25.0957493733
 10
155.4073584388
 20
25.1093195934
 10
155.3955850744
 20
25.1225392736
 10
155.3836302174
 20
25.1353904152
 10
155.3714347471
 20
25.1478550195
 10
155.3589395428
 20
25.1599150879
 10
155.3460854837
 20
25.1715526218
 10
155.332813449
 20
25.1827496223
 10
155.3179607497
 20
25.1943294654
 10
155.3025923035
 20
25.2053655556
 10
155.2867488827
 20
25.2158490046
 10
155.2704712596
 20
25.2257709239
 10
155.2538002065
 20
25.2351224252
 10
155.2367764958
 20
25.24389462
 10
155.2194408999
 20
25.25207862
 10
155.201834191
 20
25.2596655367
 10
155.1839971414
 20
25.2666464818
 10
155.1659705235
 20
25.2730125668
 10
155.1478065422
 20
25.2787528129
 10
155.1295045141
 20
25.2838784287
 10
155.11107492
 20
25.2883974064
 10
155.0925282407
 20
25.2923177387
 10
155.0738749569
 20
25.2956474177
 10
155.0551255492
 20
25.2983944361
 10
155.0335889547
 20
25.3008314578
 10
155.0119677799
 20
25.3025304108
 10
154.9902893709
 20
25.303504258
 10
154.968581074
 20
25.3037659624
 10
154.9468702354
 20
25.303328487
 10
154.9251842014
 20
25.3022047949
 10
154.9040890771
 20
25.3004548108
 10
154.8830691552
 20
25.2980411266
 10
154.8621500565
 20
25.2949401317
 10
154.8413574016
 20
25.2911282154
 10
154.8207168111
 20
25.2865817673
 10
154.8023143998
 20
25.281850664
 10
154.7840779274
 20
25.2765023942
 10
154.7660297577
 20
25.2705323946
 10
154.7481922544
 20
25.2639361019
 10
154.7305877812
 20
25.2567089528
 10
154.7117147834
 20
25.2481228389
 10
154.6931758459
 20
25.238801869
 10
154.6750023659
 20
25.228764214
 10
154.6572257401
 20
25.2180280447
 10
154.6398773654
 20
25.2066115319
 10
154.6229886387
 20
25.1945328465
 10
154.6065909569
 20
25.1818101592
 10
154.5907157169
 20
25.168461641
 10
154.5762274955
 20
25.15529656
 10
154.5622446863
 20
25.1416079141
 10
154.5487786611
 20
25.1274141891
 10
154.5358407917
 20
25.1127338709
 10
154.5234424499
 20
25.0975854453
 10
154.5115950076
 20
25.0819873982
 10
154.5003098364
 20
25.0659582154
 10
154.4924512753
 20
25.054012104
 10
154.4849405583
 20
25.0418460843
 10
154.4778207521
 20
25.02945949
 10
154.4711349233
 20
25.0168516542
 10
154.4649261385
 20
25.0040219104
 10
154.4592374643
 20
24.990969592
 10
154.4541119674
 20
24.9776940324
  0
LWPOLYLINE
  5
2F1
100
AcDbEntity
  8
CURVE
100
AcDbPolyline
 62
250
  6
CONTINUOUS
 90
22
 70
0
 10
154.75038419
 20
24.3494277593
 10
154.7479473682
 20
24.3640036926
 10
154.7456209073
 20
24.3785973506
 10
154.7434234498
 20
24.3932112652
 10
154.7413736384
 20
24.4078479683
 10
154.7394901155
 20
24.4225099918
 10
154.7377915239
 20
24.4371998674
 10
154.7361833676
 20
24.4530869782
 10
154.7348124148
 20
24.4690045249
 10
154.7336787427
 20
24.4849475515
 10
154.7327824283
 20
24.5009111022
 10
154.7321235489
 20
24.5168902209
 10
154.7317021816
 20
24.5328799518
 10
154.7315184036
 20
24.5488753389
 10
154.7315722921
 20
24.5648714263
 10
154.7318639241
 20
24.580863258
 10
154.7323933769
 20
24.596845878
 10
154.7331607276
 20
24.6128143305
 10
154.7341660534
 20
24.6287636595
 10
154.7354094314
 20
24.644688909
 10
154.7368909388
 20
24.6605851231
 10
154.7386106528
 20
24.6764473459
  0
LINE
  5
2F2
100
AcDbEntity
  8
RACCORDO
100
AcDbLine
 62
7
  6
CONTINUOUS
 10
152.962544366
 20
12.6442558747
 11
152.962544366
 21
243.6442558747
  0
LINE
  5
2F3
100
AcDbEntity
  8
0
100
AcDbLine
 62
7
  6
CONTINUOUS
 10
152.962544366
 20
12.6442558747
 11
152.962544366
 21
243.6442558747
  0
LINE
  5
2F4
100
AcDbEntity
  8
RACCORDO
100
AcDbLine
 62
250
  6
CONTINUOUS
 10
153.462544366
 20
12.1442558747
 11
153.462544366
 21
244.1442558747
  0
LINE
  5
2F5
100
AcDbEntity
  8
0
100
AcDbLine
 62
250
  6
CONTINUOUS
 10
153.462544366
 20
12.1442558747
 11
153.462544366
 21
244.1442558747
  0
LINE
  5
2F6
100
AcDbEntity
  8
CURVE
100
AcDbLine
 62
250
  6
CONTINUOUS
 10
154.409571366
 20
19.8617638747
 11
154.409571366
 21
19.4443198747
  0
LINE
  5
2F7
100
AcDbEntity
  8
CURVE
100
AcDbLine
 62
250
  6
CONTINUOUS
 10
154.409691366
 20
17.6447168747
 11
154.409691366
 21
18.0981898747
  0
LINE
  5
2F8
100
AcDbEntity
  8
CURVE
100
AcDbLine
 62
250
  6
CONTINUOUS
 10
154.409691366
 20
18.8722448747
 11
154.409691366
 21
19.2894048747
  0
LINE
  5
2F9
100
AcDbEntity
  8
CURVE
100
AcDbLine
 62
250
  6
CONTINUOUS
 10
154.409691366
 20
20.2670618747
 11
154.409691366
 21
20.6841608747
  0
LINE
  5
2FA
100
AcDbEntity
  8
CURVE
100
AcDbLine
 62
250
  6
CONTINUOUS
 10
154.409691366
 20
21.5146408747
 11
154.409691366
 21
21.9276618747
  0
LINE
  5
2FB
100
AcDbEntity
  8
CURVE
100
AcDbLine
 62
250
  6
CONTINUOUS
 10
154.409691366
 20
22.8074958747
 11
154.409691366
 21
23.2113228747
  0
LINE
  5
2FC
100
AcDbEntity
  8
CURVE
100
AcDbLine
 62
250
  6
CONTINUOUS
 10
155.2993785978
 20
24.5879931833
 11
155.2993785978
 21
24.3494277593
  0
LINE
  5
2FD
100
AcDbEntity
  8
CURVE
100
AcDbLine
 62
250
  6
CONTINUOUS
 10
155.6269036707
 20
24.3632695928
 11
155.6269036707
 21
24.5870933892
  0
LINE
  5
2FE
100
AcDbEntity
  8
CURVE
100
AcDbLine
 62
250
  6
CONTINUOUS
 10
155.701361366
 20
22.7937138747
 11
155.701361366
 21
23.1933868747
  0
LINE
  5
2FF
100
AcDbEntity
  8
CURVE
100
AcDbLine
 62
250
  6
CONTINUOUS
 10
156.010290366
 20
23.2768128747
 11
156.010290366
 21
22.7083228747
  0
LINE
  5
300
100
AcDbEntity
  8
CURVE
100
AcDbLine
 62
250
  6
CONTINUOUS
 10
156.409529366
 20
23.8249228747
 11
156.409529366
 21
23.3849538747
  0
LINE
  5
301
100
AcDbEntity
  8
CURVE
100
AcDbLine
 62
250
  6
CONTINUOUS
 10
156.409529366
 20
22.5931348747
 11
156.409529366
 21
22.1802188747
  0
LINE
  5
302
100
AcDbEntity
  8
CURVE
100
AcDbLine
 62
250
  6
CONTINUOUS
 10
156.409529366
 20
22.1146688747
 11
156.409529366
 21
21.7062978747
  0
LINE
  5
303
100
AcDbEntity
  8
CURVE
100
AcDbLine
 62
250
  6
CONTINUOUS
 10
156.409529366
 20
21.1241898747
 11
156.409529366
 21
21.0656438747
  0
LINE
  5
304
100
AcDbEntity
  8
CURVE
100
AcDbLine
 62
250
  6
CONTINUOUS
 10
156.409529366
 20
20.4858458747
 11
156.409529366
 21
20.0864878747
  0
LINE
  5
305
100
AcDbEntity
  8
CURVE
100
AcDbLine
 62
250
  6
CONTINUOUS
 10
156.409529366
 20
18.6465768747
 11
156.409529366
 21
18.2787038747
  0
LINE
  5
306
100
AcDbEntity
  8
CURVE
100
AcDbLine
 62
250
  6
CONTINUOUS
 10
156.409529366
 20
19.4443198747
 11
156.409529366
 21
19.8617638747
  0
LINE
  5
307
100
AcDbEntity
  8
CURVE
100
AcDbLine
 62
250
  6
CONTINUOUS
 10
156.4095296313
 20
23.9475047063
 11
156.4095296313
 21
24.3632695928
  0
LINE
  5
308
100
AcDbEntity
  8
CURVE
100
AcDbLine
 62
250
  6
CONTINUOUS
 10
156.4095296313
 20
25.0025283511
 11
156.4095296313
 21
25.4040614933
  0
LINE
  5
309
100
AcDbEntity
  8
SUPERFICI
100
AcDbLine
 62
7
  6
CONTINUOUS
 10
157.862544366
 20
12.1442558747
 11
157.862544366
 21
244.1442558747
  0
LINE
  5
30A
100
AcDbEntity
  8
0
100
AcDbLine
 62
7
  6
CONTINUOUS
 10
157.862544366
 20
12.1442558747
 11
157.862544366
 21
244.1442558747
  0
LWPOLYLINE
  5
30B
100
AcDbEntity
  8
CURVE
100
AcDbPolyline
 62
250
  6
CONTINUOUS
 90
48
 70
0
 10
155.6269036707
 20
24.5870933892
 10
155.6269852767
 20
24.5935208204
 10
155.6272309846
 20
24.5999596637
 10
155.6276421298
 20
24.6064033039
 10
155.6282200474
 20
24.6128451258
 10
155.6289660726
 20
24.6192785143
 10
155.6298815407
 20
24.625696854
 10
155.6309677869
 20
24.63209353
 10
155.6322261464
 20
24.638461927
 10
155.6336579544
 20
24.6447954298
 10
155.6352645461
 20
24.6510874233
 10
155.6370472567
 20
24.6573312922
 10
155.6390074215
 20
24.6635204215
 10
155.6411463757
 20
24.6696481959
 10
155.6434654544
 20
24.6757080003
 10
155.6459659929
 20
24.6816932195
 10
155.6486493263
 20
24.6875972383
 10
155.65151679
 20
24.6934134416
 10
155.6546486863
 20
24.6992806563
 10
155.6579695673
 20
24.7050471784
 10
155.6614733817
 20
24.7107116193
 10
155.6651540781
 20
24.71627259
 10
155.6690056051
 20
24.7217287017
 10
155.6730219113
 20
24.7270785657
 10
155.6771969453
 20
24.7323207932
 10
155.6815246556
 20
24.7374539954
 10
155.6859989909
 20
24.7424767835
 10
155.6906138998
 20
24.7473877686
 10
155.6953633308
 20
24.752185562
 10
155.7002412325
 20
24.7568687749
 10
155.7052415536
 20
24.7614360185
 10
155.7103582427
 20
24.765885904
 10
155.7155852482
 20
24.7702170426
 10
155.7209165189
 20
24.7744280455
 10
155.7263460033
 20
24.7785175238
 10
155.7318676501
 20
24.7824840889
 10
155.7374754077
 20
24.7863263519
 10
155.7431632249
 20
24.7900429239
 10
155.7489250501
 20
24.7936324163
 10
155.754754832
 20
24.7970934402
 10
155.7606465192
 20
24.8004246068
 10
155.7665940603
 20
24.8036245273
 10
155.7725914039
 20
24.806691813
 10
155.7786324985
 20
24.8096250749
 10
155.7847112928
 20
24.8124229244
 10
155.7908217354
 20
24.8150839726
 10
155.7969577748
 20
24.8176068307
 10
155.8031133597
 20
24.8199901099
  0
LINE
  5
30C
100
AcDbEntity
  8
RACCORDO
100
AcDbLine
 62
250
  6
CONTINUOUS
 10
160.5691780322
 20
242.5287114984
 11
160.5695494072
 21
242.494019049
  0
LINE
  5
30D
100
AcDbEntity
  8
RACCORDO
100
AcDbLine
 62
250
  6
CONTINUOUS
 10
160.5695494072
 20
242.494019049
 11
160.5698803168
 21
242.4222099281
  0
LINE
  5
30E
100
AcDbEntity
  8
RACCORDO
100
AcDbLine
 62
250
  6
CONTINUOUS
 10
160.5677797557
 20
14.4227108604
 11
160.5698002865
 21
14.0353281615
  0
LINE
  5
30F
100
AcDbEntity
  8
RACCORDO
100
AcDbLine
 62
250
  6
CONTINUOUS
 10
160.5677797557
 20
241.865800889
 11
160.5677797557
 21
14.4227108604
  0
LINE
  5
310
100
AcDbEntity
  8
RACCORDO
100
AcDbLine
 62
7
  6
CONTINUOUS
 10
160.762544366
 20
242.3656295515
 11
160.762544366
 21
13.9228821979
  0
LWPOLYLINE
  5
311
100
AcDbEntity
  8
0
100
AcDbPolyline
 62
7
  6
CONTINUOUS
 90
4
 70
0
 43
0.3499999917
 10
165.382869873
 20
253.0913818359
 10
165.382869873
 20
253.7342504883
 10
166.8828625488
 20
253.7342504883
 10
166.025725708
 20
250.734239502
  0
LINE
  5
312
100
AcDbEntity
  8
RACCORDO
100
AcDbLine
 62
250
  6
CONTINUOUS
 10
160.5698002865
 20
14.0353281615
 11
160.5698867394
 21
13.8692536355
  0
LINE
  5
313
100
AcDbEntity
  8
RACCORDO
100
AcDbLine
 62
250
  6
CONTINUOUS
 10
160.5698803168
 20
242.4222099281
 11
160.5698104918
 21
242.2573207395
  0
LINE
  5
314
100
AcDbEntity
  8
RACCORDO
100
AcDbLine
 62
250
  6
CONTINUOUS
 10
160.5698867394
 20
13.8692536355
 11
160.5695648634
 21
13.7965999281
  0
LINE
  5
315
100
AcDbEntity
  8
RACCORDO
100
AcDbLine
 62
250
  6
CONTINUOUS
 10
160.5698104918
 20
242.2573207395
 11
160.5677797557
 21
241.865800889
  0
LWPOLYLINE
  5
316
100
AcDbEntity
  8
RACCORDO
100
AcDbPolyline
 62
250
  6
CONTINUOUS
 90
7
 70
0
 10
160.5695648634
 20
13.7965999281
 10
160.5691973596
 20
13.7610984205
 10
160.5689702871
 20
13.7475137734
 10
160.5687120605
 20
13.7368433446
 10
160.5684241701
 20
13.7291583933
 10
160.5681120255
 20
13.7245128045
 10
160.5677797557
 20
13.7229507329
  0
LWPOLYLINE
  5
317
100
AcDbEntity
  8
0
100
AcDbPolyline
 62
7
  6
CONTINUOUS
 90
4
 70
0
 43
0.3499999917
 10
169.4542987061
 20
251.1628015137
 10
169.4542987061
 20
252.0199511719
 10
169.8828607178
 20
252.4485131836
 10
170.5257293701
 20
252.4485131836
  0
LWPOLYLINE
  5
318
100
AcDbEntity
  8
CURVE
100
AcDbPolyline
 62
250
  6
CONTINUOUS
 90
49
 70
0
 10
154.7386106527
 20
24.6764473459
 10
154.7396019172
 20
24.6840985115
 10
154.7408000121
 20
24.6917502099
 10
154.7422043559
 20
24.6993940129
 10
154.7438143672
 20
24.7070214923
 10
154.7456294645
 20
24.7146242196
 10
154.7476490662
 20
24.7221937667
 10
154.7498725909
 20
24.7297217054
 10
154.7522994572
 20
24.7371996072
 10
154.7549290835
 20
24.7446190439
 10
154.7577608883
 20
24.7519715873
 10
154.7607942903
 20
24.7592488091
 10
154.7640287078
 20
24.7664422809
 10
154.7674635595
 20
24.7735435746
 10
154.7710982638
 20
24.7805442619
 10
154.7749322392
 20
24.7874359144
 10
154.7789649043
 20
24.7942101039
 10
154.7831956777
 20
24.8008584021
 10
154.7876239777
 20
24.8073723808
 10
154.792249223
 20
24.8137436116
 10
154.797070832
 20
24.8199636664
 10
154.8020882232
 20
24.8260241167
 10
154.8073008153
 20
24.8319165344
 10
154.8127080267
 20
24.8376324911
 10
154.8183092759
 20
24.8431635586
 10
154.8240704836
 20
24.848473751
 10
154.8300140078
 20
24.8535903051
 10
154.8361308106
 20
24.8585108002
 10
154.8424118539
 20
24.8632328151
 10
154.8488480997
 20
24.8677539289
 10
154.85543051
 20
24.8720717207
 10
154.8621500468
 20
24.8761837694
 10
154.8689976721
 20
24.8800876542
 10
154.8759643479
 20
24.883780954
 10
154.8830410361
 20
24.8872612479
 10
154.8902186988
 20
24.890526115
 10
154.8974882979
 20
24.8935731342
 10
154.9048407954
 20
24.8963998845
 10
154.9122671534
 20
24.8990039451
 10
154.9197583337
 20
24.901382895
 10
154.9273052984
 20
24.9035343131
 10
154.9348990095
 20
24.9054557786
 10
154.942530429
 20
24.9071448704
 10
154.9501905188
 20
24.9085991676
 10
154.957870241
 20
24.9098162492
 10
154.9655605575
 20
24.9107936943
 10
154.9732524303
 20
24.9115290819
 10
154.9809368214
 20
24.912019991
 10
154.9886046928
 20
24.9122640007
  0
LWPOLYLINE
  5
319
100
AcDbEntity
  8
CURVE
100
AcDbPolyline
 62
250
  6
CONTINUOUS
 90
32
 70
0
 10
154.4541119674
 20
24.9776940324
 10
154.4457954443
 20
24.9535297841
 10
154.4381939807
 20
24.9291335399
 10
154.4312728892
 20
24.9045257896
 10
154.4249974823
 20
24.8797270232
 10
154.4193330724
 20
24.8547577304
 10
154.4142449722
 20
24.8296384011
 10
154.409698494
 20
24.8043895252
 10
154.4056589504
 20
24.7790315924
 10
154.402091654
 20
24.7535850926
 10
154.3989619172
 20
24.7280705157
 10
154.3962350525
 20
24.7025083516
 10
154.3938763724
 20
24.6769190899
 10
154.3909605642
 20
24.638416034
 10
154.3887689383
 20
24.599902154
 10
154.3872713043
 20
24.5613815724
 10
154.386437472
 20
24.5228584114
 10
154.3862372511
 20
24.4843367936
 10
154.3866404512
 20
24.4458208412
 10
154.3876168821
 20
24.4073146768
 10
154.3891363535
 20
24.3688224226
 10
154.391168675
 20
24.330348201
 10
154.3936836564
 20
24.2918961345
 10
154.3966511074
 20
24.2534703454
 10
154.4000408376
 20
24.2150749561
 10
154.4038226569
 20
24.176714089
 10
154.4079663748
 20
24.1383918665
 10
154.4124418011
 20
24.100112411
 10
154.4172187455
 20
24.0618798448
 10
154.4222670177
 20
24.0236982904
 10
154.4275564273
 20
23.9855718701
 10
154.4330567842
 20
23.9475047063
  0
LWPOLYLINE
  5
31A
100
AcDbEntity
  8
RACCORDO
100
AcDbPolyline
 62
250
  6
CONTINUOUS
 90
6
 70
0
 10
160.5677797557
 20
242.5655610165
 10
160.5681051439
 20
242.5640613513
 10
160.5684122694
 20
242.5595917416
 10
160.5686968144
 20
242.552179505
 10
160.5689523881
 20
242.5418697747
 10
160.5691780322
 20
242.5287114984
  0
LWPOLYLINE
  5
31B
100
AcDbEntity
  8
0
100
AcDbPolyline
 62
7
  6
CONTINUOUS
 90
10
 70
0
 43
0.3499999917
 10
168.382868042
 20
251.2342456055
 10
168.4542993164
 20
251.0913830566
 10
168.4542993164
 20
251.0199645996
 10
168.3114367676
 20
250.8771020508
 10
168.2400054932
 20
250.8771020508
 10
168.1685870361
 20
250.9485205078
 10
168.1685870361
 20
251.0199645996
 10
168.2400054932
 20
251.1628015137
 10
168.3114367676
 20
251.2342456055
 10
168.382868042
 20
251.2342456055
  0
LINE
  5
31C
100
AcDbEntity
  8
CURVE
100
AcDbLine
 62
250
  6
CONTINUOUS
 10
156.409529366
 20
21.0656438747
 11
155.103672366
 21
20.5759298747
  0
LINE
  5
31D
100
AcDbEntity
  8
CURVE
100
AcDbLine
 62
250
  6
CONTINUOUS
 10
154.409691366
 20
20.6841608747
 11
155.520007366
 21
21.0971968747
  0
LWPOLYLINE
  5
31E
100
AcDbEntity
  8
CURVE
100
AcDbPolyline
 62
250
  6
CONTINUOUS
 90
8
 70
0
 10
155.8031133597
 20
24.8199901099
 10
155.8307883817
 20
24.830136701
 10
155.8586059261
 20
24.8398696986
 10
155.8865502412
 20
24.8492340736
 10
155.9146055757
 20
24.8582747967
 10
155.9427561782
 20
24.8670368387
 10
155.9709862971
 20
24.8755651705
 10
155.9992801811
 20
24.8839047629
  0
LINE
  5
31F
100
AcDbEntity
  8
CURVE
100
AcDbLine
 62
250
  6
CONTINUOUS
 10
154.409691366
 20
23.2113228747
 11
156.409529366
 21
23.8249228747
  0
LINE
  5
320
100
AcDbEntity
  8
CURVE
100
AcDbLine
 62
250
  6
CONTINUOUS
 10
156.1411547767
 20
24.9243456118
 11
156.4095296313
 21
25.0025283511
  0
LINE
  5
321
100
AcDbEntity
  8
CURVE
100
AcDbLine
 62
250
  6
CONTINUOUS
 10
155.9992801811
 20
24.8839047629
 11
156.0559962386
 21
24.9001976126
  0
LINE
  5
322
100
AcDbEntity
  8
CURVE
100
AcDbLine
 62
250
  6
CONTINUOUS
 10
156.409529366
 20
18.2787038747
 11
154.409691366
 21
17.6447168747
  0
LINE
  5
323
100
AcDbEntity
  8
RACCORDO
100
AcDbLine
 62
250
  6
CONTINUOUS
 10
160.762544366
 20
241.865800889
 11
160.5677797557
 21
241.865800889
  0
LINE
  5
324
100
AcDbEntity
  8
RACCORDO
100
AcDbLine
 62
7
  6
CONTINUOUS
 10
157.862544366
 20
244.1442558747
 11
153.462544366
 21
244.1442558747
  0
LINE
  5
325
100
AcDbEntity
  8
0
100
AcDbLine
 62
7
  6
CONTINUOUS
 10
157.862544366
 20
244.1442558747
 11
153.462544366
 21
244.1442558747
  0
LINE
  5
326
100
AcDbEntity
  8
RACCORDO
100
AcDbLine
 62
250
  6
CONTINUOUS
 10
160.5677797557
 20
241.865800889
 11
157.862544366
 21
241.9366399707
  0
LINE
  5
327
100
AcDbEntity
  8
RACCORDO
100
AcDbLine
 62
7
  6
CONTINUOUS
 10
160.5677797557
 20
242.5655610165
 11
157.862544366
 21
242.6364000982
  0
LWPOLYLINE
  5
328
100
AcDbEntity
  8
0
100
AcDbPolyline
 62
7
  6
CONTINUOUS
 90
13
 70
0
 43
0.3499999917
 10
169.8828607178
 20
252.4485131836
 10
169.5971484375
 20
252.6628198242
 10
169.5971484375
 20
253.3056628418
 10
169.8828607178
 20
253.7342504883
 10
170.5257293701
 20
253.7342504883
 10
170.8114416504
 20
253.3056628418
 10
170.8114416504
 20
252.6628198242
 10
170.5257293701
 20
252.4485131836
 10
170.9542913818
 20
252.0199511719
 10
170.9542913818
 20
251.1628015137
 10
170.5257293701
 20
250.734239502
 10
169.8828607178
 20
250.734239502
 10
169.4542987061
 20
251.1628015137
  0
ARC
  5
329
100
AcDbEntity
  8
RACCORDO
100
AcDbCircle
 62
250
  6
CONTINUOUS
 10
215.5828328982
 20
83.3692558747
 40
0.9
100
AcDbArc
 50
90.0
 51
180.0
  0
ARC
  5
32A
100
AcDbEntity
  8
RACCORDO
100
AcDbCircle
 62
250
  6
CONTINUOUS
 10
215.5828328982
 20
30.9192558747
 40
0.9
100
AcDbArc
 50
180.0
 51
270.0
  0
ARC
  5
32B
100
AcDbEntity
  8
RACCORDO
100
AcDbCircle
 62
250
  6
CONTINUOUS
 10
215.5828328982
 20
101.9192558747
 40
0.9
100
AcDbArc
 50
180.0
 51
270.0
  0
ARC
  5
32C
100
AcDbEntity
  8
0
100
AcDbCircle
 62
250
  6
CONTINUOUS
 10
215.5828328982
 20
30.9192558747
 40
0.9
100
AcDbArc
 50
180.0
 51
270.0
  0
ARC
  5
32D
100
AcDbEntity
  8
0
100
AcDbCircle
 62
250
  6
CONTINUOUS
 10
215.5828328982
 20
101.9192558747
 40
0.9
100
AcDbArc
 50
180.0
 51
270.0
  0
ARC
  5
32E
100
AcDbEntity
  8
0
100
AcDbCircle
 62
250
  6
CONTINUOUS
 10
215.5828328982
 20
83.3692558747
 40
0.9
100
AcDbArc
 50
90.0
 51
180.0
  0
ARC
  5
32F
100
AcDbEntity
  8
RACCORDO
100
AcDbCircle
 62
7
  6
CONTINUOUS
 10
215.5828328982
 20
30.9192558747
 40
0.6
100
AcDbArc
 50
180.0
 51
270.0
  0
ARC
  5
330
100
AcDbEntity
  8
RACCORDO
100
AcDbCircle
 62
7
  6
CONTINUOUS
 10
215.5828328982
 20
83.3692558747
 40
0.6
100
AcDbArc
 50
90.0
 51
180.0
  0
ARC
  5
331
100
AcDbEntity
  8
RACCORDO
100
AcDbCircle
 62
7
  6
CONTINUOUS
 10
215.5828328982
 20
101.9192558747
 40
0.6
100
AcDbArc
 50
180.0
 51
270.0
  0
ARC
  5
332
100
AcDbEntity
  8
0
100
AcDbCircle
 62
7
  6
CONTINUOUS
 10
215.5828328982
 20
30.9192558747
 40
0.6
100
AcDbArc
 50
180.0
 51
270.0
  0
ARC
  5
333
100
AcDbEntity
  8
0
100
AcDbCircle
 62
7
  6
CONTINUOUS
 10
215.5828328982
 20
101.9192558747
 40
0.6
100
AcDbArc
 50
180.0
 51
270.0
  0
ARC
  5
334
100
AcDbEntity
  8
0
100
AcDbCircle
 62
7
  6
CONTINUOUS
 10
215.5828328982
 20
83.3692558747
 40
0.6
100
AcDbArc
 50
90.0
 51
180.0
  0
ARC
  5
335
100
AcDbEntity
  8
RACCORDO
100
AcDbCircle
 62
250
  6
CONTINUOUS
 10
215.5828328982
 20
225.3692558747
 40
0.9
100
AcDbArc
 50
90.0
 51
180.0
  0
ARC
  5
336
100
AcDbEntity
  8
RACCORDO
100
AcDbCircle
 62
250
  6
CONTINUOUS
 10
215.5828328982
 20
172.9192558747
 40
0.9
100
AcDbArc
 50
180.0
 51
270.0
  0
ARC
  5
337
100
AcDbEntity
  8
RACCORDO
100
AcDbCircle
 62
250
  6
CONTINUOUS
 10
215.5828328982
 20
154.3692558747
 40
0.9
100
AcDbArc
 50
90.0
 51
180.0
  0
ARC
  5
338
100
AcDbEntity
  8
0
100
AcDbCircle
 62
250
  6
CONTINUOUS
 10
215.5828328982
 20
154.3692558747
 40
0.9
100
AcDbArc
 50
90.0
 51
180.0
  0
ARC
  5
339
100
AcDbEntity
  8
0
100
AcDbCircle
 62
250
  6
CONTINUOUS
 10
215.5828328982
 20
172.9192558747
 40
0.9
100
AcDbArc
 50
180.0
 51
270.0
  0
ARC
  5
33A
100
AcDbEntity
  8
0
100
AcDbCircle
 62
250
  6
CONTINUOUS
 10
215.5828328982
 20
225.3692558747
 40
0.9
100
AcDbArc
 50
90.0
 51
180.0
  0
ARC
  5
33B
100
AcDbEntity
  8
RACCORDO
100
AcDbCircle
 62
7
  6
CONTINUOUS
 10
215.5828328982
 20
154.3692558747
 40
0.6
100
AcDbArc
 50
90.0
 51
180.0
  0
ARC
  5
33C
100
AcDbEntity
  8
RACCORDO
100
AcDbCircle
 62
7
  6
CONTINUOUS
 10
215.5828328982
 20
225.3692558747
 40
0.6
100
AcDbArc
 50
90.0
 51
180.0
  0
ARC
  5
33D
100
AcDbEntity
  8
RACCORDO
100
AcDbCircle
 62
7
  6
CONTINUOUS
 10
215.5828328982
 20
172.9192558747
 40
0.6
100
AcDbArc
 50
180.0
 51
270.0
  0
ARC
  5
33E
100
AcDbEntity
  8
0
100
AcDbCircle
 62
7
  6
CONTINUOUS
 10
215.5828328982
 20
172.9192558747
 40
0.6
100
AcDbArc
 50
180.0
 51
270.0
  0
ARC
  5
33F
100
AcDbEntity
  8
0
100
AcDbCircle
 62
7
  6
CONTINUOUS
 10
215.5828328982
 20
225.3692558747
 40
0.6
100
AcDbArc
 50
90.0
 51
180.0
  0
ARC
  5
340
100
AcDbEntity
  8
0
100
AcDbCircle
 62
7
  6
CONTINUOUS
 10
215.5828328982
 20
154.3692558747
 40
0.6
100
AcDbArc
 50
90.0
 51
180.0
  0
ARC
  5
341
100
AcDbEntity
  8
RACCORDO
100
AcDbCircle
 62
250
  6
CONTINUOUS
 10
259.9328328982
 20
30.9192558747
 40
0.9
100
AcDbArc
 50
270.0
 51
360.0
  0
ARC
  5
342
100
AcDbEntity
  8
RACCORDO
100
AcDbCircle
 62
250
  6
CONTINUOUS
 10
259.9328328982
 20
83.3692558747
 40
0.9
100
AcDbArc
 50
0.0
 51
90.0
  0
ARC
  5
343
100
AcDbEntity
  8
RACCORDO
100
AcDbCircle
 62
250
  6
CONTINUOUS
 10
259.9328328982
 20
101.9192558747
 40
0.9
100
AcDbArc
 50
270.0
 51
360.0
  0
ARC
  5
344
100
AcDbEntity
  8
0
100
AcDbCircle
 62
250
  6
CONTINUOUS
 10
259.9328328982
 20
101.9192558747
 40
0.9
100
AcDbArc
 50
270.0
 51
360.0
  0
ARC
  5
345
100
AcDbEntity
  8
0
100
AcDbCircle
 62
250
  6
CONTINUOUS
 10
259.9328328982
 20
83.3692558747
 40
0.9
100
AcDbArc
 50
0.0
 51
90.0
  0
ARC
  5
346
100
AcDbEntity
  8
0
100
AcDbCircle
 62
250
  6
CONTINUOUS
 10
259.9328328982
 20
30.9192558747
 40
0.9
100
AcDbArc
 50
270.0
 51
360.0
  0
ARC
  5
347
100
AcDbEntity
  8
RACCORDO
100
AcDbCircle
 62
7
  6
CONTINUOUS
 10
259.9328328982
 20
30.9192558747
 40
0.6
100
AcDbArc
 50
270.0
 51
360.0
  0
ARC
  5
348
100
AcDbEntity
  8
RACCORDO
100
AcDbCircle
 62
7
  6
CONTINUOUS
 10
259.9328328982
 20
83.3692558747
 40
0.6
100
AcDbArc
 50
0.0
 51
90.0
  0
ARC
  5
349
100
AcDbEntity
  8
RACCORDO
100
AcDbCircle
 62
7
  6
CONTINUOUS
 10
259.9328328982
 20
101.9192558747
 40
0.6
100
AcDbArc
 50
270.0
 51
360.0
  0
ARC
  5
34A
100
AcDbEntity
  8
0
100
AcDbCircle
 62
7
  6
CONTINUOUS
 10
259.9328328982
 20
30.9192558747
 40
0.6
100
AcDbArc
 50
270.0
 51
360.0
  0
ARC
  5
34B
100
AcDbEntity
  8
0
100
AcDbCircle
 62
7
  6
CONTINUOUS
 10
259.9328328982
 20
101.9192558747
 40
0.6
100
AcDbArc
 50
270.0
 51
360.0
  0
ARC
  5
34C
100
AcDbEntity
  8
0
100
AcDbCircle
 62
7
  6
CONTINUOUS
 10
259.9328328982
 20
83.3692558747
 40
0.6
100
AcDbArc
 50
0.0
 51
90.0
  0
ARC
  5
34D
100
AcDbEntity
  8
RACCORDO
100
AcDbCircle
 62
250
  6
CONTINUOUS
 10
259.9328328982
 20
225.3692558747
 40
0.9
100
AcDbArc
 50
0.0
 51
90.0
  0
ARC
  5
34E
100
AcDbEntity
  8
RACCORDO
100
AcDbCircle
 62
250
  6
CONTINUOUS
 10
259.9328328982
 20
172.9192558747
 40
0.9
100
AcDbArc
 50
270.0
 51
360.0
  0
ARC
  5
34F
100
AcDbEntity
  8
RACCORDO
100
AcDbCircle
 62
250
  6
CONTINUOUS
 10
259.9328328982
 20
154.3692558747
 40
0.9
100
AcDbArc
 50
0.0
 51
90.0
  0
ARC
  5
350
100
AcDbEntity
  8
0
100
AcDbCircle
 62
250
  6
CONTINUOUS
 10
259.9328328982
 20
225.3692558747
 40
0.9
100
AcDbArc
 50
0.0
 51
90.0
  0
ARC
  5
351
100
AcDbEntity
  8
0
100
AcDbCircle
 62
250
  6
CONTINUOUS
 10
259.9328328982
 20
154.3692558747
 40
0.9
100
AcDbArc
 50
0.0
 51
90.0
  0
ARC
  5
352
100
AcDbEntity
  8
0
100
AcDbCircle
 62
250
  6
CONTINUOUS
 10
259.9328328982
 20
172.9192558747
 40
0.9
100
AcDbArc
 50
270.0
 51
360.0
  0
ARC
  5
353
100
AcDbEntity
  8
RACCORDO
100
AcDbCircle
 62
7
  6
CONTINUOUS
 10
259.9328328982
 20
154.3692558747
 40
0.6
100
AcDbArc
 50
0.0
 51
90.0
  0
ARC
  5
354
100
AcDbEntity
  8
RACCORDO
100
AcDbCircle
 62
7
  6
CONTINUOUS
 10
259.9328328982
 20
225.3692558747
 40
0.6
100
AcDbArc
 50
0.0
 51
90.0
  0
ARC
  5
355
100
AcDbEntity
  8
RACCORDO
100
AcDbCircle
 62
7
  6
CONTINUOUS
 10
259.9328328982
 20
172.9192558747
 40
0.6
100
AcDbArc
 50
270.0
 51
360.0
  0
ARC
  5
356
100
AcDbEntity
  8
0
100
AcDbCircle
 62
7
  6
CONTINUOUS
 10
259.9328328982
 20
172.9192558747
 40
0.6
100
AcDbArc
 50
270.0
 51
360.0
  0
ARC
  5
357
100
AcDbEntity
  8
0
100
AcDbCircle
 62
7
  6
CONTINUOUS
 10
259.9328328982
 20
225.3692558747
 40
0.6
100
AcDbArc
 50
0.0
 51
90.0
  0
ARC
  5
358
100
AcDbEntity
  8
0
100
AcDbCircle
 62
7
  6
CONTINUOUS
 10
259.9328328982
 20
154.3692558747
 40
0.6
100
AcDbArc
 50
0.0
 51
90.0
  0
ARC
  5
359
100
AcDbEntity
  8
RACCORDO
100
AcDbCircle
 62
7
  6
CONTINUOUS
 10
153.462544366
 20
243.6442558747
 40
0.5
100
AcDbArc
 50
90.0
 51
180.0
  0
ARC
  5
35A
100
AcDbEntity
  8
RACCORDO
100
AcDbCircle
 62
7
  6
CONTINUOUS
 10
153.462544366
 20
12.6442558747
 40
0.5
100
AcDbArc
 50
180.0
 51
270.0
  0
ARC
  5
35B
100
AcDbEntity
  8
0
100
AcDbCircle
 62
7
  6
CONTINUOUS
 10
153.462544366
 20
12.6442558747
 40
0.5
100
AcDbArc
 50
180.0
 51
270.0
  0
ARC
  5
35C
100
AcDbEntity
  8
0
100
AcDbCircle
 62
7
  6
CONTINUOUS
 10
153.462544366
 20
243.6442558747
 40
0.5
100
AcDbArc
 50
90.0
 51
180.0
  0
ARC
  5
35D
100
AcDbEntity
  8
RACCORDO
100
AcDbCircle
 62
7
  6
CONTINUOUS
 10
160.562544366
 20
13.9228821979
 40
0.2
100
AcDbArc
 50
271.5
 51
360.0
  0
ARC
  5
35E
100
AcDbEntity
  8
RACCORDO
100
AcDbCircle
 62
7
  6
CONTINUOUS
 10
160.562544366
 20
242.3656295515
 40
0.2
100
AcDbArc
 50
0.0
 51
88.5
  0
ENDSEC
  0
SECTION
  2
OBJECTS
  0
DICTIONARY
  5
C
100
AcDbDictionary
280
0
281
1
  3
ACAD_GROUP
350
D
  3
ACAD_MLINESTYLE
350
17
  3
ACAD_LAYOUT
350
1A
  3
ACAD_PLOTSETTINGS
350
19
  3
ACAD_PLOTSTYLENAME
350
E
  0
DICTIONARY
  5
D
102
{ACAD_REACTORS
330
C
102
}
100
AcDbDictionary
280
0
281
1
  0
ACDBDICTIONARYWDFLT
  5
E
102
{ACAD_REACTORS
330
C
102
}
100
AcDbDictionary
281
1
  3
Normal
350
F
100
AcDbDictionaryWithDefault
340
F
  0
DICTIONARY
  5
17
102
{ACAD_REACTORS
330
C
102
}
100
AcDbDictionary
280
0
281
1
  3
Standard
350
18
  0
DICTIONARY
  5
19
102
{ACAD_REACTORS
330
C
102
}
100
AcDbDictionary
281
1
  0
DICTIONARY
  5
1A
102
{ACAD_REACTORS
330
C
102
}
100
AcDbDictionary
281
1
  3
Model
350
35F
  3
Layout1
350
360
  0
ACDBPLACEHOLDER
  5
F
102
{ACAD_REACTORS
330
E
102
}
  0
MLINESTYLE
  5
18
102
{ACAD_REACTORS
330
17
102
}
100
AcDbMlineStyle
  2
STANDARD
 70
0
  3

 62
256
 51
90.0
 52
90.0
 71
2
 49
0.5
 62
256
  6
BYLAYER
 49
-0.5
 62
256
  6
BYLAYER
  0
LAYOUT
  5
35F
102
{ACAD_REACTORS
330
1A
102
}
100
AcDbPlotSettings
  1

  2
none_device
  4
ISO_A3_(420.00_x_297.00_MM)
  6

 40
0.0
 41
0.0
 42
0.0
 43
0.0
 44
420.0
 45
297.0
 46
0.0
 47
0.0
 48
0.0
 49
0.0
140
0.0
141
0.0
142
1.0
143
1.0
 70
1024
 72
1
 73
0
 74
0
  7

 75
0
147
1.0
148
0.0
149
0.0
100
AcDbLayout
  1
Model
 70
0
 71
0
 10
0.0
 20
0.0
 11
420.0
 21
297.0
 12
0.0
 22
0.0
 32
0.0
 14
0.0
 24
0.0
 34
0.0
 15
0.0
 25
0.0
 35
0.0
146
0.0
 13
0.0
 23
0.0
 33
0.0
 16
1.0
 26
0.0
 36
0.0
 17
0.0
 27
1.0
 37
0.0
 76
0
330
213
345
0
346
0
  0
LAYOUT
  5
360
102
{ACAD_REACTORS
330
1A
102
}
100
AcDbPlotSettings
  1

  2
none_device
  4
ISO_A3_(420.00_x_297.00_MM)
  6

 40
0.0
 41
0.0
 42
0.0
 43
0.0
 44
420.0
 45
297.0
 46
0.0
 47
0.0
 48
0.0
 49
0.0
140
0.0
141
0.0
142
1.0
143
1.0
 70
0
 72
1
 73
0
 74
0
  7

 75
0
147
1.0
148
0.0
149
0.0
100
AcDbLayout
  1
Layout1
 70
0
 71
1
 10
0.0
 20
0.0
 11
420.0
 21
297.0
 12
0.0
 22
0.0
 32
0.0
 14
0.0
 24
0.0
 34
0.0
 15
0.0
 25
0.0
 35
0.0
146
0.0
 13
0.0
 23
0.0
 33
0.0
 16
1.0
 26
0.0
 36
0.0
 17
0.0
 27
1.0
 37
0.0
 76
0
330
214
345
0
346
0
  0
ENDSEC
  0
EOF
