  0
SECTION
  2
HEADER
  9
$ACADVER
  1
AC1024
  9
$DWGCODEPAGE
  3
ANSI_1252
  9
$EXTMAX
 10
297.0
 20
210.0
 30
0.0
  9
$EXTMIN
 10
0.0
 20
0.0
 30
0.0
  9
$LIMMIN
 10
0.0
 20
0.0
  9
$LIMMAX
 10
297.0
 20
210.0
  9
$VIEWCTR
 10
148.5
 20
105.0
  9
$VIEWSIZE
 40
210.0
  9
$CLAYER
  8
0
  9
$LTSCALE
 40
16.335
  9
$CELTYPE
  6
BYLAYER
  9
$DIMSCALE
 40
1.0
  9
$DIMASZ
 40
3.0
  9
$DIMEXO
 40
0.5
  9
$DIMDLI
 40
11.286
  9
$DIMEXE
 40
1.5
  9
$DIMCEN
 40
2.673
  9
$DIMLFAC
 40
1.0
  9
$DIMBLK
  1
_FILLED
  9
$DIMALT
 70
0
  9
$DIMALTF
 40
0.0393700787
  9
$DIMTXT
 40
3.0
  9
$DIMTOL
 70
1
  9
$DIMLIM
 70
0
  9
$DIMTFAC
 40
1.0
  9
$DIMTP
 40
0.01
  9
$DIMTM
 40
0.01
  9
$DIMGAP
 40
0.625
  9
$DIMDSEP
 70
44
  9
$AUNITS
 70
0
  9
$PDMODE
 70
3
  9
$PDSIZE
 40
3.0
  9
$HANDSEED
  5
354
  9
$TILEMODE
 70
1
  9
$MEASUREMENT
 70
1
  9
$INSUNITS
 70
4
  0
ENDSEC
  0
SECTION
  2
CLASSES
  0
CLASS
  1
ACDBDICTIONARYWDFLT
  2
AcDbDictionaryWithDefault
  3
AutoCAD 2000
 90
0
 91
1
280
0
281
0
  0
CLASS
  1
ACDBPLACEHOLDER
  2
AcDbPlaceHolder
  3
AutoCAD 2000
 90
0
 91
1
280
0
281
0
  0
CLASS
  1
LAYOUT
  2
AcDbLayout
  3
AutoCAD 2000
 90
0
 91
0
280
0
281
0
  0
ENDSEC
  0
SECTION
  2
TABLES
  0
TABLE
  2
VPORT
  5
8
100
AcDbSymbolTable
 70
2
  0
VPORT
  5
1F4
100
AcDbSymbolTableRecord
100
AcDbViewportTableRecord
  2
*ACTIVE
 70
0
 10
0.0
 20
0.0
 11
1.0
 21
1.0
 12
148.5
 22
105.0
 13
0.0
 23
0.0
 14
1.0
 24
1.0
 15
0.0
 25
0.0
 16
0.0
 26
0.0
 36
1.0
 17
0.0
 27
0.0
 37
0.0
 40
210.0
 41
1.4142857143
 42
50.0
 43
0.0
 44
0.0
 50
0.0
 51
0.0
 71
0
 72
100
 73
1
 74
1
 75
0
 76
0
 77
0
 78
0
  0
ENDTAB
  0
TABLE
  2
LTYPE
  5
5
100
AcDbSymbolTable
 70
6
  0
LTYPE
  5
14
100
AcDbSymbolTableRecord
100
AcDbLinetypeTableRecord
  2
BYBLOCK
 70
0
  3

 72
65
 73
0
 40
0.0
  0
LTYPE
  5
15
100
AcDbSymbolTableRecord
100
AcDbLinetypeTableRecord
  2
BYLAYER
 70
0
  3

 72
65
 73
0
 40
0.0
  0
LTYPE
  5
16
100
AcDbSymbolTableRecord
100
AcDbLinetypeTableRecord
  2
CONTINUOUS
 70
64
  3
Solid line
 72
65
 73
0
 40
0.0
  0
LTYPE
  5
1F5
100
AcDbSymbolTableRecord
100
AcDbLinetypeTableRecord
  2
CENTER
 70
64
  3
____ _ ____ _ ____ _ ____ _ ____ _ ____ _ ____
 72
65
 73
4
 40
0.6
 49
0.375
 74
0
 49
-0.075
 74
0
 49
0.075
 74
0
 49
-0.075
 74
0
  0
LTYPE
  5
1F6
100
AcDbSymbolTableRecord
100
AcDbLinetypeTableRecord
  2
HIDDEN
 70
64
  3
- - - - - - - - - - - - - - - - - - - -
 72
65
 73
2
 40
0.2
 49
0.1
 74
0
 49
-0.1
 74
0
  0
LTYPE
  5
1F7
100
AcDbSymbolTableRecord
100
AcDbLinetypeTableRecord
  2
PHANTOM
 70
64
  3
_____ _ _ _____ _ _ _____ _ _ _____
 72
65
 73
6
 40
0.8
 49
0.45
 74
0
 49
-0.05
 74
0
 49
0.1
 74
0
 49
-0.05
 74
0
 49
0.1
 74
0
 49
-0.05
 74
0
  0
LTYPE
  5
1F8
100
AcDbSymbolTableRecord
100
AcDbLinetypeTableRecord
  2
DOT
 70
64
  3
. . . . . . . . . . . . . . . . . . . .
 72
65
 73
2
 40
0.2
 49
0.1
 74
0
 49
-0.1
 74
0
  0
LTYPE
  5
1F9
100
AcDbSymbolTableRecord
100
AcDbLinetypeTableRecord
  2
DASHED
 70
64
  3
- - - - - - - - - - - - - - - - - - - -
 72
65
 73
2
 40
0.2
 49
0.1
 74
0
 49
-0.1
 74
0
  0
ENDTAB
  0
TABLE
  2
LAYER
  5
2
100
AcDbSymbolTable
 70
36
  0
LAYER
  5
10
100
AcDbSymbolTableRecord
100
AcDbLayerTableRecord
  2
0
 70
0
 62
7
  6
CONTINUOUS
370
-3
390
F
  0
LAYER
  5
1FA
100
AcDbSymbolTableRecord
100
AcDbLayerTableRecord
  2
DEFAULT_1
 70
0
 62
7
  6
CENTER
370
-3
390
F
  0
LAYER
  5
1FB
100
AcDbSymbolTableRecord
100
AcDbLayerTableRecord
  2
DEFAULT_2
 70
0
 62
7
  6
HIDDEN
370
-3
390
F
  0
LAYER
  5
1FC
100
AcDbSymbolTableRecord
100
AcDbLayerTableRecord
  2
DEFAULT_3
 70
0
 62
7
  6
PHANTOM
370
-3
390
F
  0
LAYER
  5
1FD
100
AcDbSymbolTableRecord
100
AcDbLayerTableRecord
  2
ASSI
 70
0
 62
7
  6
CONTINUOUS
370
-3
390
F
  0
LAYER
  5
1FE
100
AcDbSymbolTableRecord
100
AcDbLayerTableRecord
  2
COORDINATE
 70
0
 62
7
  6
CONTINUOUS
370
-3
390
F
  0
LAYER
  5
1FF
100
AcDbSymbolTableRecord
100
AcDbLayerTableRecord
  2
COPY_PUBLISH
 70
0
 62
7
  6
CONTINUOUS
370
-3
390
F
  0
LAYER
  5
200
100
AcDbSymbolTableRecord
100
AcDbLayerTableRecord
  2
COSMETICI
 70
0
 62
7
  6
CONTINUOUS
370
-3
390
F
  0
LAYER
  5
201
100
AcDbSymbolTableRecord
100
AcDbLayerTableRecord
  2
CURVE
 70
0
 62
7
  6
CONTINUOUS
370
-3
390
F
  0
LAYER
  5
202
100
AcDbSymbolTableRecord
100
AcDbLayerTableRecord
  2
DRAFT
 70
0
 62
7
  6
CONTINUOUS
370
-3
390
F
  0
LAYER
  5
203
100
AcDbSymbolTableRecord
100
AcDbLayerTableRecord
  2
IMPORT_IGES
 70
0
 62
7
  6
CONTINUOUS
370
-3
390
F
  0
LAYER
  5
204
100
AcDbSymbolTableRecord
100
AcDbLayerTableRecord
  2
INTF_1
 70
0
 62
7
  6
CONTINUOUS
370
-3
390
F
  0
LAYER
  5
205
100
AcDbSymbolTableRecord
100
AcDbLayerTableRecord
  2
INTF_11
 70
0
 62
7
  6
CONTINUOUS
370
-3
390
F
  0
LAYER
  5
206
100
AcDbSymbolTableRecord
100
AcDbLayerTableRecord
  2
INTF_13
 70
0
 62
7
  6
CONTINUOUS
370
-3
390
F
  0
LAYER
  5
207
100
AcDbSymbolTableRecord
100
AcDbLayerTableRecord
  2
INTF_2
 70
0
 62
7
  6
CONTINUOUS
370
-3
390
F
  0
LAYER
  5
208
100
AcDbSymbolTableRecord
100
AcDbLayerTableRecord
  2
INTF_4
 70
0
 62
7
  6
CONTINUOUS
370
-3
390
F
  0
LAYER
  5
209
100
AcDbSymbolTableRecord
100
AcDbLayerTableRecord
  2
INTF_CYAN
 70
0
 62
7
  6
CONTINUOUS
370
-3
390
F
  0
LAYER
  5
20A
100
AcDbSymbolTableRecord
100
AcDbLayerTableRecord
  2
NOTE
 70
0
 62
7
  6
CONTINUOUS
370
-3
390
F
  0
LAYER
  5
20B
100
AcDbSymbolTableRecord
100
AcDbLayerTableRecord
  2
PIANI
 70
0
 62
7
  6
CONTINUOUS
370
-3
390
F
  0
LAYER
  5
20C
100
AcDbSymbolTableRecord
100
AcDbLayerTableRecord
  2
PUNTI
 70
0
 62
7
  6
CONTINUOUS
370
-3
390
F
  0
LAYER
  5
20D
100
AcDbSymbolTableRecord
100
AcDbLayerTableRecord
  2
RACCORDO
 70
0
 62
7
  6
CONTINUOUS
370
-3
390
F
  0
LAYER
  5
20E
100
AcDbSymbolTableRecord
100
AcDbLayerTableRecord
  2
RGB____0____0____0__
 70
0
 62
7
  6
CONTINUOUS
370
-3
390
F
  0
LAYER
  5
20F
100
AcDbSymbolTableRecord
100
AcDbLayerTableRecord
  2
SIMBOLI
 70
0
 62
7
  6
CONTINUOUS
370
-3
390
F
  0
LAYER
  5
210
100
AcDbSymbolTableRecord
100
AcDbLayerTableRecord
  2
SMUSSO
 70
0
 62
7
  6
CONTINUOUS
370
-3
390
F
  0
LAYER
  5
211
100
AcDbSymbolTableRecord
100
AcDbLayerTableRecord
  2
SNAPLINE
 70
0
 62
7
  6
CONTINUOUS
370
-3
390
F
  0
LAYER
  5
212
100
AcDbSymbolTableRecord
100
AcDbLayerTableRecord
  2
SUPERFICI
 70
0
 62
7
  6
CONTINUOUS
370
-3
390
F
  0
LAYER
  5
213
100
AcDbSymbolTableRecord
100
AcDbLayerTableRecord
  2
TRASH
 70
0
 62
7
  6
CONTINUOUS
370
-3
390
F
  0
ENDTAB
  0
TABLE
  2
STYLE
  5
3
100
AcDbSymbolTable
 70
1
  0
STYLE
  5
11
100
AcDbSymbolTableRecord
100
AcDbTextStyleTableRecord
  2
STANDARD
 70
0
 40
0.0
 41
0.8
 50
0.0
 71
0
 42
0.2
  3
txt
  4

  0
STYLE
  5
214
100
AcDbSymbolTableRecord
100
AcDbTextStyleTableRecord
  2
TEXTSTYLE_1
 70
0
 40
0.0
 41
0.8
 50
0.0
 71
0
 42
0.2
  3
gdt
  4

  0
ENDTAB
  0
TABLE
  2
VIEW
  5
6
100
AcDbSymbolTable
 70
0
  0
ENDTAB
  0
TABLE
  2
UCS
  5
7
100
AcDbSymbolTable
 70
0
  0
ENDTAB
  0
TABLE
  2
APPID
  5
9
100
AcDbSymbolTable
 70
1
  0
APPID
  5
215
100
AcDbSymbolTableRecord
100
AcDbRegAppTableRecord
  2
ACAD
 70
0
  0
ENDTAB
  0
TABLE
  2
BLOCK_RECORD
  5
1
100
AcDbSymbolTable
 70
0
  0
BLOCK_RECORD
  5
216
100
AcDbSymbolTableRecord
100
AcDbBlockTableRecord
  2
*Model_Space
  0
BLOCK_RECORD
  5
217
100
AcDbSymbolTableRecord
100
AcDbBlockTableRecord
  2
*Paper_Space
  0
BLOCK_RECORD
  5
218
100
AcDbSymbolTableRecord
100
AcDbBlockTableRecord
  2
_FILLED
  0
BLOCK_RECORD
  5
219
100
AcDbSymbolTableRecord
100
AcDbBlockTableRecord
  2
*D0
  0
BLOCK_RECORD
  5
21A
100
AcDbSymbolTableRecord
100
AcDbBlockTableRecord
  2
*D1
  0
BLOCK_RECORD
  5
21B
100
AcDbSymbolTableRecord
100
AcDbBlockTableRecord
  2
*D2
  0
BLOCK_RECORD
  5
21C
100
AcDbSymbolTableRecord
100
AcDbBlockTableRecord
  2
*D3
  0
ENDTAB
  0
TABLE
  2
DIMSTYLE
  5
A
100
AcDbSymbolTable
 70
1
100
AcDbDimStyleTable
 71
0
  0
DIMSTYLE
105
21D
100
AcDbSymbolTableRecord
100
AcDbDimStyleTableRecord
  2
STANDARD
 70
0
  3

  4

 40
1.0
 41
3.0
 42
0.5
 43
0.38
 44
1.5
 45
0.0
 46
0.0
 47
0.01
 48
0.01
140
3.0
141
0.09
142
0.0
143
25.4
144
1.0
145
0.0
146
1.0
147
0.625
 71
1
 72
0
 73
0
 74
0
 75
0
 76
0
 77
1
 78
8
 79
2
170
0
171
1
172
0
173
0
174
0
175
0
176
0
177
0
178
0
270
2
179
2
271
2
272
2
273
2
274
2
275
0
280
0
281
0
282
0
283
1
284
8
285
0
286
0
287
3
288
0
340
11
278
44
341
218
342
218
343
218
344
218
  0
DIMSTYLE
105
21E
100
AcDbSymbolTableRecord
100
AcDbDimStyleTableRecord
  2
DIMSTYLE_1
 70
0
  3

  4

 40
1.0
 41
3.0
 42
0.5
 43
0.38
 44
1.5
 45
0.0
 46
0.0
 47
0.0
 48
0.0
140
3.0
141
0.09
142
0.0
143
25.4
144
1.0
145
0.0
146
1.0
147
0.75
 71
0
 72
0
 73
0
 74
0
 75
0
 76
0
 77
1
 78
8
 79
2
170
0
171
1
172
0
173
0
174
0
175
0
176
0
177
0
178
0
270
2
179
2
271
2
272
2
273
2
274
2
275
0
280
0
281
0
282
0
283
1
284
8
285
0
286
0
287
3
288
0
340
11
278
44
341
218
342
218
343
218
344
218
  0
ENDTAB
  0
ENDSEC
  0
SECTION
  2
BLOCKS
  0
BLOCK
  5
20
100
AcDbEntity
  8
0
100
AcDbBlockBegin
  2
*Model_Space
 70
0
 10
0.0
 20
0.0
 30
0.0
  3
*Model_Space
  1

  0
ENDBLK
  5
21
100
AcDbEntity
  8
0
100
AcDbBlockEnd
  0
BLOCK
  5
1C
100
AcDbEntity
  8
0
100
AcDbBlockBegin
  2
*Paper_Space
 70
0
 10
0.0
 20
0.0
 30
0.0
  3
*Paper_Space
  1

  0
ENDBLK
  5
1D
100
AcDbEntity
  8
0
100
AcDbBlockEnd
  0
BLOCK
  5
21F
100
AcDbEntity
  8
0
100
AcDbBlockBegin
  2
_FILLED
 70
64
 10
0.0
 20
0.0
  3
_FILLED
  1

  0
SOLID
  5
220
100
AcDbEntity
  8
0
  6
BYBLOCK
 62
0
100
AcDbTrace
 10
0.0
 20
0.0
 11
-1.0
 21
0.3166666667
 12
-1.0
 22
-0.3166666667
 13
-1.0
 23
-0.3166666667
  0
ENDBLK
  5
221
100
AcDbEntity
  8
0
  6
BYBLOCK
 62
0
100
AcDbBlockEnd
  0
BLOCK
  5
222
100
AcDbEntity
  8
0
100
AcDbBlockBegin
 62
7
  6
CONTINUOUS
  2
*D0
 70
65
 10
0.0
 20
0.0
  3
*D0
  1

  0
MTEXT
  5
223
100
AcDbEntity
  8
0
100
AcDbMText
 62
7
  6
CONTINUOUS
  7
STANDARD
 71
3
 72
1
 10
-79.0561854162
 20
65.75
 30
0.0
 11
1.0
 21
0.0
 31
0.0
 73
2
 44
0.9
  1
{\ftxt;\W0.0001;\H0.0001;\~}{\ftxt;\W2.7142857143;\H3.0; }{\ftxt;\W0.0001;\H0.0001;\~}
 40
3.0
 41
12.2142857143
  0
LINE
  5
224
100
AcDbEntity
  8
0
100
AcDbLine
 62
7
  6
CONTINUOUS
 10
-75.2
 20
42.8329793985
 11
-75.2
 21
63.5
  0
LINE
  5
225
100
AcDbEntity
  8
0
100
AcDbLine
 62
7
  6
CONTINUOUS
 10
-64.8
 20
17.2
 11
-64.8
 21
63.5
  0
LINE
  5
226
100
AcDbEntity
  8
0
100
AcDbLine
 62
7
  6
CONTINUOUS
 10
-75.2
 20
62.0
 11
-87.199042559
 21
62.0
  0
LINE
  5
227
100
AcDbEntity
  8
0
100
AcDbLine
 62
7
  6
CONTINUOUS
 10
-87.199042559
 20
62.0
 11
-70.0
 21
62.0
  0
LINE
  5
228
100
AcDbEntity
  8
0
100
AcDbLine
 62
7
  6
CONTINUOUS
 10
-64.8
 20
62.0
 11
-60.8
 21
62.0
  0
LINE
  5
229
100
AcDbEntity
  8
0
100
AcDbLine
 62
7
  6
CONTINUOUS
 10
-60.8
 20
62.0
 11
-70.0
 21
62.0
  0
INSERT
  5
22A
100
AcDbEntity
  8
0
100
AcDbBlockReference
 62
7
  6
CONTINUOUS
  2
_FILLED
 10
-75.2
 20
62.0
 41
3.0
 42
3.0
 43
3.0
  0
INSERT
  5
22B
100
AcDbEntity
  8
0
100
AcDbBlockReference
 62
7
  6
CONTINUOUS
  2
_FILLED
 10
-64.8
 20
62.0
 41
3.0
 42
3.0
 43
3.0
 50
180.0
  0
ENDBLK
  5
22C
100
AcDbEntity
  8
0
  6
BYBLOCK
 62
0
100
AcDbBlockEnd
  0
BLOCK
  5
22D
100
AcDbEntity
  8
0
100
AcDbBlockBegin
 62
7
  6
CONTINUOUS
  2
*D1
 70
65
 10
0.0
 20
0.0
  3
*D1
  1

  0
MTEXT
  5
22E
100
AcDbEntity
  8
0
100
AcDbMText
 62
7
  6
CONTINUOUS
  7
STANDARD
 71
3
 72
1
 10
-79.0974318947
 20
55.75
 30
0.0
 11
1.0
 21
0.0
 31
0.0
 73
2
 44
0.9
  1
{\ftxt;\W0.0001;\H0.0001;\~}{\ftxt;\W2.0714285714;\H3.0; }{\ftxt;\W0.0001;\H0.0001;\~}
 40
3.0
 41
9.3214285714
  0
LINE
  5
22F
100
AcDbEntity
  8
0
100
AcDbLine
 62
7
  6
CONTINUOUS
 10
-69.5
 20
42.997941481
 11
-69.5
 21
53.5
  0
LINE
  5
230
100
AcDbEntity
  8
0
100
AcDbLine
 62
7
  6
CONTINUOUS
 10
-75.2
 20
42.8329793985
 11
-75.2
 21
53.5
  0
LINE
  5
231
100
AcDbEntity
  8
0
100
AcDbLine
 62
7
  6
CONTINUOUS
 10
-69.5
 20
52.0
 11
-65.5
 21
52.0
  0
LINE
  5
232
100
AcDbEntity
  8
0
100
AcDbLine
 62
7
  6
CONTINUOUS
 10
-65.5
 20
52.0
 11
-72.35
 21
52.0
  0
LINE
  5
233
100
AcDbEntity
  8
0
100
AcDbLine
 62
7
  6
CONTINUOUS
 10
-75.2
 20
52.0
 11
-85.311717609
 21
52.0
  0
LINE
  5
234
100
AcDbEntity
  8
0
100
AcDbLine
 62
7
  6
CONTINUOUS
 10
-85.311717609
 20
52.0
 11
-72.35
 21
52.0
  0
INSERT
  5
235
100
AcDbEntity
  8
0
100
AcDbBlockReference
 62
7
  6
CONTINUOUS
  2
_FILLED
 10
-69.5
 20
52.0
 41
3.0
 42
3.0
 43
3.0
 50
180.0
  0
INSERT
  5
236
100
AcDbEntity
  8
0
100
AcDbBlockReference
 62
7
  6
CONTINUOUS
  2
_FILLED
 10
-75.2
 20
52.0
 41
3.0
 42
3.0
 43
3.0
  0
ENDBLK
  5
237
100
AcDbEntity
  8
0
  6
BYBLOCK
 62
0
100
AcDbBlockEnd
  0
BLOCK
  5
238
100
AcDbEntity
  8
0
100
AcDbBlockBegin
 62
7
  6
CONTINUOUS
  2
*D2
 70
65
 10
0.0
 20
0.0
  3
*D2
  1

  0
MTEXT
  5
239
100
AcDbEntity
  8
0
100
AcDbMText
 62
7
  6
CONTINUOUS
  7
STANDARD
 71
2
 72
1
 10
0.0
 20
55.75
 30
0.0
 11
1.0
 21
0.0
 31
0.0
 73
2
 44
0.9
  1
{\ftxt;\W0.0001;\H0.0001;\~}{\ftxt;\W1.5714285714;\H3.0; }{\ftxt;\W0.0001;\H0.0001;\~}
 40
3.0
 41
7.0714285714
  0
LINE
  5
23A
100
AcDbEntity
  8
0
100
AcDbLine
 62
7
  6
CONTINUOUS
 10
-44.0
 20
43.0020556979
 11
-44.0
 21
53.5
  0
LINE
  5
23B
100
AcDbEntity
  8
0
100
AcDbLine
 62
7
  6
CONTINUOUS
 10
44.0
 20
43.0020556979
 11
44.0
 21
53.5
  0
LINE
  5
23C
100
AcDbEntity
  8
0
100
AcDbLine
 62
7
  6
CONTINUOUS
 10
-44.0
 20
52.0
 11
0.0
 21
52.0
  0
LINE
  5
23D
100
AcDbEntity
  8
0
100
AcDbLine
 62
7
  6
CONTINUOUS
 10
44.0
 20
52.0
 11
0.0
 21
52.0
  0
INSERT
  5
23E
100
AcDbEntity
  8
0
100
AcDbBlockReference
 62
7
  6
CONTINUOUS
  2
_FILLED
 10
-44.0
 20
52.0
 41
3.0
 42
3.0
 43
3.0
 50
180.0
  0
INSERT
  5
23F
100
AcDbEntity
  8
0
100
AcDbBlockReference
 62
7
  6
CONTINUOUS
  2
_FILLED
 10
44.0
 20
52.0
 41
3.0
 42
3.0
 43
3.0
  0
ENDBLK
  5
240
100
AcDbEntity
  8
0
  6
BYBLOCK
 62
0
100
AcDbBlockEnd
  0
BLOCK
  5
241
100
AcDbEntity
  8
0
100
AcDbBlockBegin
 62
7
  6
CONTINUOUS
  2
*D3
 70
65
 10
0.0
 20
0.0
  3
*D3
  1

  0
MTEXT
  5
242
100
AcDbEntity
  8
0
100
AcDbMText
 62
7
  6
CONTINUOUS
  7
STANDARD
 71
2
 72
1
 10
48.25
 20
0.0
 30
0.0
 11
0.0
 21
1.0
 31
0.0
 73
2
 44
0.9
  1
{\ftxt;\W0.0001;\H0.0001;\~}{\ftxt;\W1.5714285714;\H3.0; }{\ftxt;\W0.0001;\H0.0001;\~}
 40
3.0
 41
7.0714285714
  0
LINE
  5
243
100
AcDbEntity
  8
0
100
AcDbLine
 62
7
  6
CONTINUOUS
 10
43.0020556979
 20
44.0
 11
53.5
 21
44.0
  0
LINE
  5
244
100
AcDbEntity
  8
0
100
AcDbLine
 62
7
  6
CONTINUOUS
 10
43.0020556979
 20
-44.0
 11
53.5
 21
-44.0
  0
LINE
  5
245
100
AcDbEntity
  8
0
100
AcDbLine
 62
7
  6
CONTINUOUS
 10
52.0
 20
44.0
 11
52.0
 21
0.0
  0
LINE
  5
246
100
AcDbEntity
  8
0
100
AcDbLine
 62
7
  6
CONTINUOUS
 10
52.0
 20
-44.0
 11
52.0
 21
0.0
  0
INSERT
  5
247
100
AcDbEntity
  8
0
100
AcDbBlockReference
 62
7
  6
CONTINUOUS
  2
_FILLED
 10
52.0
 20
44.0
 41
3.0
 42
3.0
 43
3.0
 50
90.0
  0
INSERT
  5
248
100
AcDbEntity
  8
0
100
AcDbBlockReference
 62
7
  6
CONTINUOUS
  2
_FILLED
 10
52.0
 20
-44.0
 41
3.0
 42
3.0
 43
3.0
 50
270.0
  0
ENDBLK
  5
249
100
AcDbEntity
  8
0
  6
BYBLOCK
 62
0
100
AcDbBlockEnd
  0
ENDSEC
  0
SECTION
  2
ENTITIES
  0
DIMENSION
  5
24A
100
AcDbEntity
  8
0
100
AcDbDimension
 62
7
  6
CONTINUOUS
  2
*D0
 10
-64.8
 20
62.0
 11
-83.5561842957
 21
62.0
 70
160
 71
3
 72
2
 41
0.9
 42
10.4
  1
{\ftxt;\W0.0001;\H0.0001;\~}{\ftxt;\W2.7142857143;\H3.0; }{\ftxt;\W0.0001;\H0.0001;\~}
  3
DIMSTYLE_1
100
AcDbAlignedDimension
 13
-75.2
 23
42.3329793985
 14
-64.8
 24
16.7
100
AcDbRotatedDimension
  0
DIMENSION
  5
24B
100
AcDbEntity
  8
0
100
AcDbDimension
 62
7
  6
CONTINUOUS
  2
*D1
 10
-75.2
 20
52.0
 11
-82.6331485748
 21
52.0
 70
160
 71
3
 72
2
 41
0.9
 42
5.7
  1
{\ftxt;\W0.0001;\H0.0001;\~}{\ftxt;\W2.0714285714;\H3.0; }{\ftxt;\W0.0001;\H0.0001;\~}
  3
DIMSTYLE_1
100
AcDbAlignedDimension
 13
-69.5
 23
42.497941481
 14
-75.2
 24
42.3329793985
 50
180.0
100
AcDbRotatedDimension
  0
DIMENSION
  5
24C
100
AcDbEntity
  8
0
100
AcDbDimension
 62
7
  6
CONTINUOUS
  2
*D2
 10
44.0
 20
52.0
 11
-0.4285713773
 21
52.0
 70
160
 71
2
 72
2
 41
0.9
 42
88.0
  1
{\ftxt;\W0.0001;\H0.0001;\~}{\ftxt;\W1.5714285714;\H3.0; }{\ftxt;\W0.0001;\H0.0001;\~}
  3
DIMSTYLE_1
100
AcDbAlignedDimension
 13
-44.0
 23
42.5020556979
 14
44.0
 24
42.5020556979
100
AcDbRotatedDimension
  0
DIMENSION
  5
24D
100
AcDbEntity
  8
0
100
AcDbDimension
 62
7
  6
CONTINUOUS
  2
*D3
 10
52.0
 20
-44.0
 11
52.0
 21
-0.428571385
 70
160
 71
2
 72
2
 41
0.9
 42
88.0
  1
{\ftxt;\W0.0001;\H0.0001;\~}{\ftxt;\W1.5714285714;\H3.0; }{\ftxt;\W0.0001;\H0.0001;\~}
  3
DIMSTYLE_1
100
AcDbAlignedDimension
 13
42.5020556979
 23
44.0
 14
42.5020556979
 24
-44.0
 50
270.0
100
AcDbRotatedDimension
  0
LINE
  5
24E
100
AcDbEntity
  8
ASSI
100
AcDbLine
 62
7
  6
CONTINUOUS
 10
-44.0
 20
42.5020556979
 11
-44.0
 21
-42.5020556979
  0
LINE
  5
24F
100
AcDbEntity
  8
ASSI
100
AcDbLine
 62
250
  6
CONTINUOUS
 10
-43.8309237007
 20
42.3329793985
 11
-43.8309237007
 21
-42.3329793985
  0
LINE
  5
250
100
AcDbEntity
  8
ASSI
100
AcDbLine
 62
250
  6
CONTINUOUS
 10
-43.3316089333
 20
42.3329793985
 11
-43.3316089333
 21
-42.3329793985
  0
LINE
  5
251
100
AcDbEntity
  8
ASSI
100
AcDbLine
 62
250
  6
CONTINUOUS
 10
-42.3329793985
 20
-43.3316089333
 11
-42.3329793985
 21
-43.8309237007
  0
LINE
  5
252
100
AcDbEntity
  8
ASSI
100
AcDbLine
 62
250
  6
CONTINUOUS
 10
-42.3329793985
 20
43.3316089333
 11
-42.3329793985
 21
43.8309237007
  0
LINE
  5
253
100
AcDbEntity
  8
ASSI
100
AcDbLine
 62
7
  6
CONTINUOUS
 10
-42.5020556979
 20
-44.0
 11
42.5020556979
 21
-44.0
  0
LINE
  5
254
100
AcDbEntity
  8
ASSI
100
AcDbLine
 62
250
  6
CONTINUOUS
 10
-42.3329793985
 20
-43.8309237007
 11
42.3329793985
 21
-43.8309237007
  0
LINE
  5
255
100
AcDbEntity
  8
ASSI
100
AcDbLine
 62
250
  6
CONTINUOUS
 10
-42.3329793985
 20
-43.3316089333
 11
42.3329793985
 21
-43.3316089333
  0
LINE
  5
256
100
AcDbEntity
  8
ASSI
100
AcDbLine
 62
250
  6
CONTINUOUS
 10
43.3316089333
 20
-42.3329793985
 11
43.8309237007
 21
-42.3329793985
  0
LINE
  5
257
100
AcDbEntity
  8
ASSI
100
AcDbLine
 62
250
  6
CONTINUOUS
 10
-43.3316089333
 20
-42.3329793985
 11
-43.8309237007
 21
-42.3329793985
  0
LINE
  5
258
100
AcDbEntity
  8
CURVE
100
AcDbLine
 62
250
  6
CONTINUOUS
 10
43.9663010118
 20
-36.699936
 11
43.8614876544
 21
-36.699936
  0
LINE
  5
259
100
AcDbEntity
  8
CURVE
100
AcDbLine
 62
250
  6
CONTINUOUS
 10
43.8614876544
 20
-36.282492
 11
43.9663010118
 21
-36.282492
  0
LINE
  5
25A
100
AcDbEntity
  8
CURVE
100
AcDbLine
 62
250
  6
CONTINUOUS
 10
43.9663010257
 20
-32.1967511684
 11
43.862718473
 21
-32.1967511684
  0
LINE
  5
25B
100
AcDbEntity
  8
CURVE
100
AcDbLine
 62
250
  6
CONTINUOUS
 10
43.8793488976
 20
-31.7948281153
 11
43.9081204754
 21
-31.7948281153
  0
LINE
  5
25C
100
AcDbEntity
  8
CURVE
100
AcDbLine
 62
250
  6
CONTINUOUS
 10
43.9252853371
 20
-31.7809862819
 11
43.9663010257
 21
-31.7809862819
  0
LINE
  5
25D
100
AcDbEntity
  8
CURVE
100
AcDbLine
 62
250
  6
CONTINUOUS
 10
43.9167587078
 20
-31.1235216885
 11
43.917378026
 21
-31.1235216885
  0
LINE
  5
25E
100
AcDbEntity
  8
ASSI
100
AcDbLine
 62
250
  6
CONTINUOUS
 10
22.2338950748
 20
-27.0837732309
 11
-22.2338950748
 21
-27.0837732309
  0
LINE
  5
25F
100
AcDbEntity
  8
ASSI
100
AcDbLine
 62
250
  6
CONTINUOUS
 10
22.2338950748
 20
-26.7838189223
 11
-22.2338950748
 21
-26.7838189223
  0
LINE
  5
260
100
AcDbEntity
  8
ASSI
100
AcDbLine
 62
7
  6
CONTINUOUS
 10
-22.2250761524
 20
-26.775
 11
22.2250761524
 21
-26.775
  0
LINE
  5
261
100
AcDbEntity
  8
ASSI
100
AcDbLine
 62
250
  6
CONTINUOUS
 10
-23.0337732309
 20
-26.2838950748
 11
-22.7338189223
 21
-26.2838950748
  0
LINE
  5
262
100
AcDbEntity
  8
ASSI
100
AcDbLine
 62
250
  6
CONTINUOUS
 10
23.0337732309
 20
-26.2838950748
 11
22.7338189223
 21
-26.2838950748
  0
LINE
  5
263
100
AcDbEntity
  8
ASSI
100
AcDbLine
 62
250
  6
CONTINUOUS
 10
-23.0337732309
 20
-26.2838950748
 11
-23.0337732309
 21
26.2838950748
  0
LINE
  5
264
100
AcDbEntity
  8
ASSI
100
AcDbLine
 62
250
  6
CONTINUOUS
 10
-22.7338189223
 20
-26.2838950748
 11
-22.7338189223
 21
26.2838950748
  0
LINE
  5
265
100
AcDbEntity
  8
ASSI
100
AcDbLine
 62
7
  6
CONTINUOUS
 10
-22.725
 20
26.2750761524
 11
-22.725
 21
-26.2750761524
  0
LINE
  5
266
100
AcDbEntity
  8
ASSI
100
AcDbLine
 62
250
  6
CONTINUOUS
 10
-22.2338950748
 20
27.0837732309
 11
-22.2338950748
 21
26.7838189223
  0
LINE
  5
267
100
AcDbEntity
  8
ASSI
100
AcDbLine
 62
250
  6
CONTINUOUS
 10
-22.2338950748
 20
-27.0837732309
 11
-22.2338950748
 21
-26.7838189223
  0
LWPOLYLINE
  5
268
100
AcDbEntity
  8
0
100
AcDbPolyline
 62
7
  6
CONTINUOUS
 90
4
 70
0
 43
0.3500000006
 10
-2.3571427875
 20
53.1785711517
 10
-2.3571427875
 20
54.035713623
 10
-1.9285714102
 20
54.4642871246
 10
-1.2857142735
 20
54.4642871246
  0
LWPOLYLINE
  5
269
100
AcDbEntity
  8
0
100
AcDbPolyline
 62
7
  6
CONTINUOUS
 90
4
 70
0
 43
0.3500000006
 10
0.0
 20
53.1785711517
 10
0.0
 20
54.035713623
 10
0.4285714127
 20
54.4642871246
 10
1.0714285848
 20
54.4642871246
  0
LINE
  5
26A
100
AcDbEntity
  8
ASSI
100
AcDbLine
 62
250
  6
CONTINUOUS
 10
22.2338950748
 20
26.7838189223
 11
22.2250761524
 21
26.775
  0
LINE
  5
26B
100
AcDbEntity
  8
ASSI
100
AcDbLine
 62
250
  6
CONTINUOUS
 10
22.7338189223
 20
26.2838950748
 11
22.725
 21
26.2750761524
  0
LINE
  5
26C
100
AcDbEntity
  8
ASSI
100
AcDbLine
 62
250
  6
CONTINUOUS
 10
-43.8309237007
 20
-42.3329793985
 11
-44.0
 21
-42.5020556979
  0
LINE
  5
26D
100
AcDbEntity
  8
ASSI
100
AcDbLine
 62
250
  6
CONTINUOUS
 10
42.3329793985
 20
43.8309237007
 11
42.5020556979
 21
44.0
  0
LWPOLYLINE
  5
26E
100
AcDbEntity
  8
0
100
AcDbPolyline
 62
7
  6
CONTINUOUS
 90
4
 70
0
 43
0.3500000006
 10
50.8214285431
 20
-2.3571432495
 10
49.9642860718
 20
-2.3571432495
 10
49.5357125702
 20
-1.9285708809
 10
49.5357125702
 20
-1.2857140274
  0
LWPOLYLINE
  5
26F
100
AcDbEntity
  8
0
100
AcDbPolyline
 62
7
  6
CONTINUOUS
 90
4
 70
0
 43
0.3500000006
 10
50.8214285431
 20
-0.0000003204
 10
49.9642860718
 20
-0.0000003204
 10
49.5357125702
 20
0.4285709152
 10
49.5357125702
 20
1.0714289017
  0
LINE
  5
270
100
AcDbEntity
  8
ASSI
100
AcDbLine
 62
250
  6
CONTINUOUS
 10
22.2338950748
 20
-26.7838189223
 11
22.2250761524
 21
-26.775
  0
LINE
  5
271
100
AcDbEntity
  8
ASSI
100
AcDbLine
 62
250
  6
CONTINUOUS
 10
22.7338189223
 20
-26.2838950748
 11
22.725
 21
-26.2750761524
  0
LINE
  5
272
100
AcDbEntity
  8
ASSI
100
AcDbLine
 62
250
  6
CONTINUOUS
 10
42.3329793985
 20
-43.8309237007
 11
42.5020556979
 21
-44.0
  0
LINE
  5
273
100
AcDbEntity
  8
ASSI
100
AcDbLine
 62
250
  6
CONTINUOUS
 10
-43.8309237007
 20
42.3329793985
 11
-44.0
 21
42.5020556979
  0
LINE
  5
274
100
AcDbEntity
  8
ASSI
100
AcDbLine
 62
250
  6
CONTINUOUS
 10
-42.3329793985
 20
-43.8309237007
 11
-42.5020556979
 21
-44.0
  0
LINE
  5
275
100
AcDbEntity
  8
ASSI
100
AcDbLine
 62
250
  6
CONTINUOUS
 10
43.8309237007
 20
42.3329793985
 11
44.0
 21
42.5020556979
  0
LINE
  5
276
100
AcDbEntity
  8
ASSI
100
AcDbLine
 62
250
  6
CONTINUOUS
 10
-22.7338189223
 20
-26.2838950748
 11
-22.725
 21
-26.2750761524
  0
LINE
  5
277
100
AcDbEntity
  8
ASSI
100
AcDbLine
 62
250
  6
CONTINUOUS
 10
-22.2338950748
 20
-26.7838189223
 11
-22.2250761524
 21
-26.775
  0
LINE
  5
278
100
AcDbEntity
  8
ASSI
100
AcDbLine
 62
250
  6
CONTINUOUS
 10
43.8309237007
 20
-42.3329793985
 11
44.0
 21
-42.5020556979
  0
LINE
  5
279
100
AcDbEntity
  8
ASSI
100
AcDbLine
 62
250
  6
CONTINUOUS
 10
-42.3329793985
 20
43.8309237007
 11
-42.5020556979
 21
44.0
  0
LINE
  5
27A
100
AcDbEntity
  8
ASSI
100
AcDbLine
 62
250
  6
CONTINUOUS
 10
-22.7338189223
 20
26.2838950748
 11
-22.725
 21
26.2750761524
  0
LINE
  5
27B
100
AcDbEntity
  8
ASSI
100
AcDbLine
 62
250
  6
CONTINUOUS
 10
-22.2338950748
 20
26.7838189223
 11
-22.2250761524
 21
26.775
  0
LINE
  5
27C
100
AcDbEntity
  8
CURVE
100
AcDbLine
 62
250
  6
CONTINUOUS
 10
43.9663010118
 20
-35.65841
 11
43.8978639464
 21
-35.568326
  0
LINE
  5
27D
100
AcDbEntity
  8
CURVE
100
AcDbLine
 62
250
  6
CONTINUOUS
 10
43.8614939433
 20
-35.877194
 11
43.9663010118
 21
-36.057768
  0
LINE
  5
27E
100
AcDbEntity
  8
ASSI
100
AcDbLine
 62
250
  6
CONTINUOUS
 10
22.2338950748
 20
27.0837732309
 11
22.2338950748
 21
26.7838189223
  0
LINE
  5
27F
100
AcDbEntity
  8
ASSI
100
AcDbLine
 62
250
  6
CONTINUOUS
 10
22.2338950748
 20
-27.0837732309
 11
22.2338950748
 21
-26.7838189223
  0
LINE
  5
280
100
AcDbEntity
  8
ASSI
100
AcDbLine
 62
7
  6
CONTINUOUS
 10
22.725
 20
-26.2750761524
 11
22.725
 21
26.2750761524
  0
LINE
  5
281
100
AcDbEntity
  8
ASSI
100
AcDbLine
 62
250
  6
CONTINUOUS
 10
22.7338189223
 20
26.2838950748
 11
22.7338189223
 21
-26.2838950748
  0
LINE
  5
282
100
AcDbEntity
  8
ASSI
100
AcDbLine
 62
250
  6
CONTINUOUS
 10
23.0337732309
 20
26.2838950748
 11
23.0337732309
 21
-26.2838950748
  0
LINE
  5
283
100
AcDbEntity
  8
ASSI
100
AcDbLine
 62
250
  6
CONTINUOUS
 10
-23.0337732309
 20
26.2838950748
 11
-22.7338189223
 21
26.2838950748
  0
LINE
  5
284
100
AcDbEntity
  8
ASSI
100
AcDbLine
 62
250
  6
CONTINUOUS
 10
23.0337732309
 20
26.2838950748
 11
22.7338189223
 21
26.2838950748
  0
LINE
  5
285
100
AcDbEntity
  8
ASSI
100
AcDbLine
 62
7
  6
CONTINUOUS
 10
22.2250761524
 20
26.775
 11
-22.2250761524
 21
26.775
  0
LINE
  5
286
100
AcDbEntity
  8
ASSI
100
AcDbLine
 62
250
  6
CONTINUOUS
 10
-22.2338950748
 20
26.7838189223
 11
22.2338950748
 21
26.7838189223
  0
LINE
  5
287
100
AcDbEntity
  8
ASSI
100
AcDbLine
 62
250
  6
CONTINUOUS
 10
-22.2338950748
 20
27.0837732309
 11
22.2338950748
 21
27.0837732309
  0
LINE
  5
288
100
AcDbEntity
  8
CURVE
100
AcDbLine
 62
250
  6
CONTINUOUS
 10
43.9291874996
 20
-33.350542
 11
43.8902922801
 21
-33.14269
  0
LINE
  5
289
100
AcDbEntity
  8
CURVE
100
AcDbLine
 62
250
  6
CONTINUOUS
 10
43.8614939433
 20
-37.272011
 11
43.9336359243
 21
-37.66486
  0
LINE
  5
28A
100
AcDbEntity
  8
CURVE
100
AcDbLine
 62
250
  6
CONTINUOUS
 10
43.9663010118
 20
-33.551121
 11
43.9453777824
 21
-33.435933
  0
LINE
  5
28B
100
AcDbEntity
  8
CURVE
100
AcDbLine
 62
250
  6
CONTINUOUS
 10
43.8614939433
 20
-33.33676
 11
43.9663010118
 21
-33.964037
  0
LINE
  5
28C
100
AcDbEntity
  8
CURVE
100
AcDbLine
 62
250
  6
CONTINUOUS
 10
43.9663010118
 20
-37.497679
 11
43.8614939433
 21
-36.854851
  0
LWPOLYLINE
  5
28D
100
AcDbEntity
  8
0
100
AcDbPolyline
 62
7
  6
CONTINUOUS
 90
13
 70
0
 43
0.3500000006
 10
49.5357125702
 20
0.4285709152
 10
49.3214280853
 20
0.1428575134
 10
48.6785700989
 20
0.1428575134
 10
48.2500011292
 20
0.4285709152
 10
48.2500011292
 20
1.0714289017
 10
48.6785700989
 20
1.3571423035
 10
49.3214280853
 20
1.3571423035
 10
49.5357125702
 20
1.0714289017
 10
49.9642860718
 20
1.5000001373
 10
50.8214285431
 20
1.5000001373
 10
51.2500020447
 20
1.0714289017
 10
51.2500020447
 20
0.4285709152
 10
50.8214285431
 20
-0.0000003204
  0
LWPOLYLINE
  5
28E
100
AcDbEntity
  8
0
100
AcDbPolyline
 62
7
  6
CONTINUOUS
 90
13
 70
0
 43
0.3500000006
 10
49.5357125702
 20
-1.9285708809
 10
49.3214280853
 20
-2.2142854156
 10
48.6785700989
 20
-2.2142854156
 10
48.2500011292
 20
-1.9285708809
 10
48.2500011292
 20
-1.2857140274
 10
48.6785700989
 20
-1.0000006256
 10
49.3214280853
 20
-1.0000006256
 10
49.5357125702
 20
-1.2857140274
 10
49.9642860718
 20
-0.8571427917
 10
50.8214285431
 20
-0.8571427917
 10
51.2500020447
 20
-1.2857140274
 10
51.2500020447
 20
-1.9285708809
 10
50.8214285431
 20
-2.3571432495
  0
LINE
  5
28F
100
AcDbEntity
  8
CURVE
100
AcDbLine
 62
250
  6
CONTINUOUS
 10
43.8614939433
 20
-34.629615
 11
43.9196831392
 21
-35.047059
  0
LINE
  5
290
100
AcDbEntity
  8
CURVE
100
AcDbLine
 62
250
  6
CONTINUOUS
 10
43.9663010118
 20
-35.020066
 11
43.8981493067
 21
-34.523725
  0
LINE
  5
291
100
AcDbEntity
  8
ASSI
100
AcDbLine
 62
250
  6
CONTINUOUS
 10
42.3329793985
 20
-43.3316089333
 11
42.3329793985
 21
-43.8309237007
  0
LINE
  5
292
100
AcDbEntity
  8
ASSI
100
AcDbLine
 62
250
  6
CONTINUOUS
 10
42.3329793985
 20
43.3316089333
 11
42.3329793985
 21
43.8309237007
  0
LINE
  5
293
100
AcDbEntity
  8
ASSI
100
AcDbLine
 62
250
  6
CONTINUOUS
 10
43.3316089333
 20
-42.3329793985
 11
43.3316089333
 21
42.3329793985
  0
LINE
  5
294
100
AcDbEntity
  8
ASSI
100
AcDbLine
 62
250
  6
CONTINUOUS
 10
43.8309237007
 20
-42.3329793985
 11
43.8309237007
 21
42.3329793985
  0
LINE
  5
295
100
AcDbEntity
  8
CURVE
100
AcDbLine
 62
250
  6
CONTINUOUS
 10
43.8614876544
 20
-36.699936
 11
43.8614876544
 21
-36.282492
  0
LINE
  5
296
100
AcDbEntity
  8
CURVE
100
AcDbLine
 62
250
  6
CONTINUOUS
 10
43.8614939433
 20
-32.932933
 11
43.8614939433
 21
-33.33676
  0
LINE
  5
297
100
AcDbEntity
  8
CURVE
100
AcDbLine
 62
250
  6
CONTINUOUS
 10
43.8614939433
 20
-34.216594
 11
43.8614939433
 21
-34.629615
  0
LINE
  5
298
100
AcDbEntity
  8
CURVE
100
AcDbLine
 62
250
  6
CONTINUOUS
 10
43.8614939433
 20
-35.460095
 11
43.8614939433
 21
-35.877194
  0
LINE
  5
299
100
AcDbEntity
  8
CURVE
100
AcDbLine
 62
250
  6
CONTINUOUS
 10
43.8614939433
 20
-36.854851
 11
43.8614939433
 21
-37.272011
  0
LINE
  5
29A
100
AcDbEntity
  8
CURVE
100
AcDbLine
 62
250
  6
CONTINUOUS
 10
43.8614939433
 20
-38.046066
 11
43.8614939433
 21
-38.499539
  0
LINE
  5
29B
100
AcDbEntity
  8
CURVE
100
AcDbLine
 62
250
  6
CONTINUOUS
 10
43.9081204754
 20
-31.7948281153
 11
43.9081204754
 21
-31.5562626914
  0
LINE
  5
29C
100
AcDbEntity
  8
CURVE
100
AcDbLine
 62
250
  6
CONTINUOUS
 10
43.9252853371
 20
-31.5571624855
 11
43.9252853371
 21
-31.7809862819
  0
LINE
  5
29D
100
AcDbEntity
  8
CURVE
100
AcDbLine
 62
250
  6
CONTINUOUS
 10
43.9291874996
 20
-32.950869
 11
43.9291874996
 21
-33.350542
  0
LINE
  5
29E
100
AcDbEntity
  8
CURVE
100
AcDbLine
 62
250
  6
CONTINUOUS
 10
43.9453777824
 20
-33.435933
 11
43.9453777824
 21
-32.867443
  0
LINE
  5
29F
100
AcDbEntity
  8
CURVE
100
AcDbLine
 62
250
  6
CONTINUOUS
 10
43.9663010118
 20
-37.865552
 11
43.9663010118
 21
-37.497679
  0
LINE
  5
2A0
100
AcDbEntity
  8
CURVE
100
AcDbLine
 62
250
  6
CONTINUOUS
 10
43.9663010118
 20
-36.057768
 11
43.9663010118
 21
-35.65841
  0
LINE
  5
2A1
100
AcDbEntity
  8
CURVE
100
AcDbLine
 62
250
  6
CONTINUOUS
 10
43.9663010118
 20
-35.078612
 11
43.9663010118
 21
-35.020066
  0
LINE
  5
2A2
100
AcDbEntity
  8
CURVE
100
AcDbLine
 62
250
  6
CONTINUOUS
 10
43.9663010118
 20
-34.437958
 11
43.9663010118
 21
-34.029587
  0
LINE
  5
2A3
100
AcDbEntity
  8
CURVE
100
AcDbLine
 62
250
  6
CONTINUOUS
 10
43.9663010118
 20
-33.964037
 11
43.9663010118
 21
-33.551121
  0
LINE
  5
2A4
100
AcDbEntity
  8
CURVE
100
AcDbLine
 62
250
  6
CONTINUOUS
 10
43.9663010118
 20
-32.759302
 11
43.9663010118
 21
-32.319333
  0
LINE
  5
2A5
100
AcDbEntity
  8
CURVE
100
AcDbLine
 62
250
  6
CONTINUOUS
 10
43.9663010257
 20
-30.7401943813
 11
43.9663010257
 21
-31.1417275236
  0
LINE
  5
2A6
100
AcDbEntity
  8
CURVE
100
AcDbLine
 62
250
  6
CONTINUOUS
 10
43.9663010257
 20
-31.7809862819
 11
43.9663010257
 21
-32.1967511684
  0
LINE
  5
2A7
100
AcDbEntity
  8
CURVE
100
AcDbLine
 62
250
  6
CONTINUOUS
 10
43.9663010118
 20
-36.282492
 11
43.9663010118
 21
-36.699936
  0
LINE
  5
2A8
100
AcDbEntity
  8
ASSI
100
AcDbLine
 62
7
  6
CONTINUOUS
 10
44.0
 20
-42.5020556979
 11
44.0
 21
42.5020556979
  0
LINE
  5
2A9
100
AcDbEntity
  8
ASSI
100
AcDbLine
 62
250
  6
CONTINUOUS
 10
43.3316089333
 20
42.3329793985
 11
43.8309237007
 21
42.3329793985
  0
LINE
  5
2AA
100
AcDbEntity
  8
ASSI
100
AcDbLine
 62
250
  6
CONTINUOUS
 10
-43.3316089333
 20
42.3329793985
 11
-43.8309237007
 21
42.3329793985
  0
LINE
  5
2AB
100
AcDbEntity
  8
ASSI
100
AcDbLine
 62
250
  6
CONTINUOUS
 10
42.3329793985
 20
43.3316089333
 11
-42.3329793985
 21
43.3316089333
  0
LINE
  5
2AC
100
AcDbEntity
  8
ASSI
100
AcDbLine
 62
250
  6
CONTINUOUS
 10
42.3329793985
 20
43.8309237007
 11
-42.3329793985
 21
43.8309237007
  0
LINE
  5
2AD
100
AcDbEntity
  8
ASSI
100
AcDbLine
 62
7
  6
CONTINUOUS
 10
42.5020556979
 20
44.0
 11
-42.5020556979
 21
44.0
  0
LWPOLYLINE
  5
2AE
100
AcDbEntity
  8
0
100
AcDbPolyline
 62
7
  6
CONTINUOUS
 90
13
 70
0
 43
0.3500000006
 10
-1.9285714102
 20
54.4642871246
 10
-2.2142856617
 20
54.6785716095
 10
-2.2142856617
 20
55.3214295959
 10
-1.9285714102
 20
55.7499985657
 10
-1.2857142735
 20
55.7499985657
 10
-1.0000000219
 20
55.3214295959
 10
-1.0000000219
 20
54.6785716095
 10
-1.2857142735
 20
54.4642871246
 10
-0.8571428254
 20
54.035713623
 10
-0.8571428254
 20
53.1785711517
 10
-1.2857142735
 20
52.750002182
 10
-1.9285714102
 20
52.750002182
 10
-2.3571427875
 20
53.1785711517
  0
LWPOLYLINE
  5
2AF
100
AcDbEntity
  8
0
100
AcDbPolyline
 62
7
  6
CONTINUOUS
 90
13
 70
0
 43
0.3500000006
 10
0.4285714127
 20
54.4642871246
 10
0.1428571435
 20
54.6785716095
 10
0.1428571435
 20
55.3214295959
 10
0.4285714127
 20
55.7499985657
 10
1.0714285848
 20
55.7499985657
 10
1.3571429071
 20
55.3214295959
 10
1.3571429071
 20
54.6785716095
 10
1.0714285848
 20
54.4642871246
 10
1.5000000329
 20
54.035713623
 10
1.5000000329
 20
53.1785711517
 10
1.0714285848
 20
52.750002182
 10
0.4285714127
 20
52.750002182
 10
0.0
 20
53.1785711517
  0
LINE
  5
2B0
100
AcDbEntity
  8
CURVE
100
AcDbLine
 62
250
  6
CONTINUOUS
 10
43.8978639464
 20
-35.568326
 11
43.9663010118
 21
-35.078612
  0
LINE
  5
2B1
100
AcDbEntity
  8
CURVE
100
AcDbLine
 62
250
  6
CONTINUOUS
 10
43.9196831392
 20
-35.047059
 11
43.8614939433
 21
-35.460095
  0
LINE
  5
2B2
100
AcDbEntity
  8
CURVE
100
AcDbLine
 62
250
  6
CONTINUOUS
 10
43.8614939433
 20
-38.499539
 11
43.9663010118
 21
-37.865552
  0
LINE
  5
2B3
100
AcDbEntity
  8
CURVE
100
AcDbLine
 62
250
  6
CONTINUOUS
 10
43.9663010118
 20
-32.319333
 11
43.8614939433
 21
-32.932933
  0
LINE
  5
2B4
100
AcDbEntity
  8
CURVE
100
AcDbLine
 62
250
  6
CONTINUOUS
 10
43.9336359243
 20
-37.66486
 11
43.8614939433
 21
-38.046066
  0
LINE
  5
2B5
100
AcDbEntity
  8
CURVE
100
AcDbLine
 62
250
  6
CONTINUOUS
 10
43.9453777824
 20
-32.867443
 11
43.9663010118
 21
-32.759302
  0
LINE
  5
2B6
100
AcDbEntity
  8
CURVE
100
AcDbLine
 62
250
  6
CONTINUOUS
 10
43.8902922801
 20
-33.14269
 11
43.9291874996
 21
-32.950869
  0
LINE
  5
2B7
100
AcDbEntity
  8
CURVE
100
AcDbLine
 62
250
  6
CONTINUOUS
 10
43.9663010118
 20
-34.029587
 11
43.8614939433
 21
-34.216594
  0
LINE
  5
2B8
100
AcDbEntity
  8
CURVE
100
AcDbLine
 62
250
  6
CONTINUOUS
 10
43.8981493067
 20
-34.523725
 11
43.9663010118
 21
-34.437958
  0
LWPOLYLINE
  5
2B9
100
AcDbEntity
  8
0
100
AcDbPolyline
 62
7
  6
CONTINUOUS
 90
3
 70
0
 43
0.3500000006
 10
-87.1990386658
 20
64.8928546143
 10
-86.3419007263
 20
65.7500016174
 10
-86.3419007263
 20
62.7500007019
  0
LINE
  5
2BA
100
AcDbEntity
  8
ASSI
100
AcDbLine
 62
7
  6
CONTINUOUS
 10
-74.7261679781
 20
-43.8309237007
 11
-71.5
 21
-44.0
  0
LINE
  5
2BB
100
AcDbEntity
  8
ASSI
100
AcDbLine
 62
7
  6
CONTINUOUS
 10
-69.6895328088
 20
-43.182877643
 11
-71.0814000518
 21
-43.2558223142
  0
LINE
  5
2BC
100
AcDbEntity
  8
ASSI
100
AcDbLine
 62
250
  6
CONTINUOUS
 10
-71.5
 20
-42.5020556979
 11
-71.0814000518
 21
-42.4982285624
  0
LINE
  5
2BD
100
AcDbEntity
  8
ASSI
100
AcDbLine
 62
250
  6
CONTINUOUS
 10
-69.5
 20
-42.497941481
 11
-71.0814000518
 21
-42.497941481
  0
LINE
  5
2BE
100
AcDbEntity
  8
ASSI
100
AcDbLine
 62
250
  6
CONTINUOUS
 10
-75.2
 20
-42.3329793985
 11
-74.7261679781
 21
-42.3329793985
  0
LINE
  5
2BF
100
AcDbEntity
  8
ASSI
100
AcDbLine
 62
250
  6
CONTINUOUS
 10
-74.7261679781
 20
-42.3329793985
 11
-71.5
 21
-42.5020556979
  0
LINE
  5
2C0
100
AcDbEntity
  8
CURVE
100
AcDbLine
 62
250
  6
CONTINUOUS
 10
-72.766302
 20
-37.66486
 11
-74.142853
 21
-38.046066
  0
LINE
  5
2C1
100
AcDbEntity
  8
CURVE
100
AcDbLine
 62
250
  6
CONTINUOUS
 10
-72.143015
 20
-36.699936
 11
-74.142973
 21
-36.699936
  0
LINE
  5
2C2
100
AcDbEntity
  8
CURVE
100
AcDbLine
 62
250
  6
CONTINUOUS
 10
-74.142973
 20
-36.282492
 11
-72.143015
 21
-36.282492
  0
LINE
  5
2C3
100
AcDbEntity
  8
CURVE
100
AcDbLine
 62
250
  6
CONTINUOUS
 10
-72.143015
 20
-35.65841
 11
-73.448872
 21
-35.568326
  0
LINE
  5
2C4
100
AcDbEntity
  8
CURVE
100
AcDbLine
 62
250
  6
CONTINUOUS
 10
-74.142853
 20
-35.877194
 11
-72.143015
 21
-36.057768
  0
LINE
  5
2C5
100
AcDbEntity
  8
CURVE
100
AcDbLine
 62
250
  6
CONTINUOUS
 10
-74.142853
 20
-37.272011
 11
-72.766302
 21
-37.66486
  0
LINE
  5
2C6
100
AcDbEntity
  8
CURVE
100
AcDbLine
 62
250
  6
CONTINUOUS
 10
-72.143015
 20
-37.497679
 11
-74.142853
 21
-36.854851
  0
LINE
  5
2C7
100
AcDbEntity
  8
CURVE
100
AcDbLine
 62
250
  6
CONTINUOUS
 10
-72.143015
 20
-34.029587
 11
-74.142853
 21
-34.216594
  0
LINE
  5
2C8
100
AcDbEntity
  8
CURVE
100
AcDbLine
 62
250
  6
CONTINUOUS
 10
-73.443427
 20
-34.523725
 11
-72.143015
 21
-34.437958
  0
LINE
  5
2C9
100
AcDbEntity
  8
CURVE
100
AcDbLine
 62
250
  6
CONTINUOUS
 10
-72.1430147347
 20
-32.1967511684
 11
-74.1194875818
 21
-32.1967511684
  0
LINE
  5
2CA
100
AcDbEntity
  8
CURVE
100
AcDbLine
 62
250
  6
CONTINUOUS
 10
-72.851183
 20
-33.350542
 11
-73.593348
 21
-33.14269
  0
LINE
  5
2CB
100
AcDbEntity
  8
CURVE
100
AcDbLine
 62
250
  6
CONTINUOUS
 10
-72.143015
 20
-33.551121
 11
-72.542254
 21
-33.435933
  0
LINE
  5
2CC
100
AcDbEntity
  8
CURVE
100
AcDbLine
 62
250
  6
CONTINUOUS
 10
-74.142853
 20
-33.33676
 11
-72.143015
 21
-33.964037
  0
LINE
  5
2CD
100
AcDbEntity
  8
CURVE
100
AcDbLine
 62
250
  6
CONTINUOUS
 10
-74.142853
 20
-34.629615
 11
-73.032537
 21
-35.047059
  0
LINE
  5
2CE
100
AcDbEntity
  8
CURVE
100
AcDbLine
 62
250
  6
CONTINUOUS
 10
-72.143015
 20
-35.020066
 11
-73.443427
 21
-34.523725
  0
LWPOLYLINE
  5
2CF
100
AcDbEntity
  8
0
100
AcDbPolyline
 62
7
  6
CONTINUOUS
 90
3
 70
0
 43
0.3500000006
 10
-82.4133306885
 20
63.0357163696
 10
-82.4847528076
 20
62.8214318848
 10
-82.6276151733
 20
62.535716217
  0
LINE
  5
2D0
100
AcDbEntity
  8
CURVE
100
AcDbLine
 62
250
  6
CONTINUOUS
 10
-72.542254
 20
-32.867443
 11
-72.143015
 21
-32.759302
  0
LINE
  5
2D1
100
AcDbEntity
  8
CURVE
100
AcDbLine
 62
250
  6
CONTINUOUS
 10
-73.593348
 20
-33.14269
 11
-72.851183
 21
-32.950869
  0
LINE
  5
2D2
100
AcDbEntity
  8
CURVE
100
AcDbLine
 62
250
  6
CONTINUOUS
 10
-73.8021601761
 20
-31.7948281153
 11
-73.2531657682
 21
-31.7948281153
  0
LINE
  5
2D3
100
AcDbEntity
  8
CURVE
100
AcDbLine
 62
250
  6
CONTINUOUS
 10
-72.9256406953
 20
-31.7809862819
 11
-72.1430147347
 21
-31.7809862819
  0
LINE
  5
2D4
100
AcDbEntity
  8
CURVE
100
AcDbLine
 62
250
  6
CONTINUOUS
 10
-73.0883384753
 20
-31.1235216885
 11
-73.0765211787
 21
-31.1235216885
  0
LWPOLYLINE
  5
2D5
100
AcDbEntity
  8
0
100
AcDbPolyline
 62
7
  6
CONTINUOUS
 90
3
 70
0
 43
0.3500000006
 10
-82.4545706177
 20
53.0357133179
 10
-82.5260018005
 20
52.821428833
 10
-82.6688641663
 20
52.5357131653
  0
LINE
  5
2D6
100
AcDbEntity
  8
ASSI
100
AcDbLine
 62
7
  6
CONTINUOUS
 10
-64.8
 20
-17.5
 11
-69.5
 21
-17.6641276166
  0
LINE
  5
2D7
100
AcDbEntity
  8
ASSI
100
AcDbLine
 62
250
  6
CONTINUOUS
 10
-65.2075256927
 20
-17.2168478984
 11
-69.5
 21
-17.3667444042
  0
LWPOLYLINE
  5
2D8
100
AcDbEntity
  8
0
100
AcDbPolyline
 62
7
  6
CONTINUOUS
 90
13
 70
0
 43
0.3500000006
 10
-85.4847537231
 20
63.6071386414
 10
-85.4847537231
 20
64.8928546143
 10
-85.2704692383
 20
65.3214326477
 10
-84.8419002686
 20
65.7500016174
 10
-84.6276157837
 20
65.7500016174
 10
-84.199046814
 20
65.3214326477
 10
-83.9847532654
 20
64.8928546143
 10
-83.9847532654
 20
63.6071386414
 10
-84.199046814
 20
63.1785696716
 10
-84.6276157837
 20
62.7500007019
 10
-84.8419002686
 20
62.7500007019
 10
-85.2704692383
 20
63.1785696716
 10
-85.4847537231
 20
63.6071386414
  0
LINE
  5
2D9
100
AcDbEntity
  8
ASSI
100
AcDbLine
 62
7
  6
CONTINUOUS
 10
-64.8
 20
-14.9
 11
-69.5
 21
-14.9410162786
  0
LINE
  5
2DA
100
AcDbEntity
  8
ASSI
100
AcDbLine
 62
250
  6
CONTINUOUS
 10
-69.5
 20
-14.6417045013
 11
-65.2075256927
 21
-14.6042446455
  0
LINE
  5
2DB
100
AcDbEntity
  8
ASSI
100
AcDbLine
 62
250
  6
CONTINUOUS
 10
-65.2075256927
 20
-16.9957553545
 11
-69.5
 21
-16.9582954987
  0
LINE
  5
2DC
100
AcDbEntity
  8
ASSI
100
AcDbLine
 62
7
  6
CONTINUOUS
 10
-64.8
 20
-16.7
 11
-69.5
 21
-16.6589837214
  0
LWPOLYLINE
  5
2DD
100
AcDbEntity
  8
0
100
AcDbPolyline
 62
7
  6
CONTINUOUS
 90
4
 70
0
 43
0.3500000006
 10
-81.4545703125
 20
55.1071451111
 10
-81.4545703125
 20
55.7499985657
 10
-79.9545789185
 20
55.7499985657
 10
-80.8117168579
 20
52.750002182
  0
LINE
  5
2DE
100
AcDbEntity
  8
ASSI
100
AcDbLine
 62
250
  6
CONTINUOUS
 10
-69.5
 20
-14.2332555958
 11
-65.2075256927
 21
-14.3831521016
  0
LINE
  5
2DF
100
AcDbEntity
  8
ASSI
100
AcDbLine
 62
7
  6
CONTINUOUS
 10
-69.5
 20
-13.9358723834
 11
-64.8
 21
-14.1
  0
LWPOLYLINE
  5
2E0
100
AcDbEntity
  8
0
100
AcDbPolyline
 62
7
  6
CONTINUOUS
 90
2
 70
0
 43
0.3500000006
 10
-80.4133300781
 20
62.7500007019
 10
-80.4133300781
 20
64.2500011597
  0
LINE
  5
2E1
100
AcDbEntity
  8
ASSI
100
AcDbLine
 62
7
  6
CONTINUOUS
 10
-75.2
 20
-43.3316089333
 11
-75.2
 21
43.3316089333
  0
LINE
  5
2E2
100
AcDbEntity
  8
ASSI
100
AcDbLine
 62
250
  6
CONTINUOUS
 10
-74.7261679781
 20
-42.3329793985
 11
-74.7261679781
 21
42.3329793985
  0
LINE
  5
2E3
100
AcDbEntity
  8
CURVE
100
AcDbLine
 62
250
  6
CONTINUOUS
 10
-74.142973
 20
-36.699936
 11
-74.142973
 21
-36.282492
  0
LINE
  5
2E4
100
AcDbEntity
  8
CURVE
100
AcDbLine
 62
250
  6
CONTINUOUS
 10
-74.142853
 20
-32.932933
 11
-74.142853
 21
-33.33676
  0
LINE
  5
2E5
100
AcDbEntity
  8
CURVE
100
AcDbLine
 62
250
  6
CONTINUOUS
 10
-74.142853
 20
-34.216594
 11
-74.142853
 21
-34.629615
  0
LINE
  5
2E6
100
AcDbEntity
  8
CURVE
100
AcDbLine
 62
250
  6
CONTINUOUS
 10
-74.142853
 20
-35.460095
 11
-74.142853
 21
-35.877194
  0
LINE
  5
2E7
100
AcDbEntity
  8
CURVE
100
AcDbLine
 62
250
  6
CONTINUOUS
 10
-74.142853
 20
-36.854851
 11
-74.142853
 21
-37.272011
  0
LINE
  5
2E8
100
AcDbEntity
  8
CURVE
100
AcDbLine
 62
250
  6
CONTINUOUS
 10
-74.142853
 20
-38.046066
 11
-74.142853
 21
-38.499539
  0
LINE
  5
2E9
100
AcDbEntity
  8
CURVE
100
AcDbLine
 62
250
  6
CONTINUOUS
 10
-73.2531657682
 20
-31.7948281153
 11
-73.2531657682
 21
-31.5562626914
  0
LINE
  5
2EA
100
AcDbEntity
  8
CURVE
100
AcDbLine
 62
250
  6
CONTINUOUS
 10
-72.9256406953
 20
-31.5571624855
 11
-72.9256406953
 21
-31.7809862819
  0
LINE
  5
2EB
100
AcDbEntity
  8
CURVE
100
AcDbLine
 62
250
  6
CONTINUOUS
 10
-72.851183
 20
-32.950869
 11
-72.851183
 21
-33.350542
  0
LINE
  5
2EC
100
AcDbEntity
  8
CURVE
100
AcDbLine
 62
250
  6
CONTINUOUS
 10
-72.542254
 20
-33.435933
 11
-72.542254
 21
-32.867443
  0
LINE
  5
2ED
100
AcDbEntity
  8
CURVE
100
AcDbLine
 62
250
  6
CONTINUOUS
 10
-72.143015
 20
-37.865552
 11
-72.143015
 21
-37.497679
  0
LINE
  5
2EE
100
AcDbEntity
  8
CURVE
100
AcDbLine
 62
250
  6
CONTINUOUS
 10
-72.143015
 20
-36.057768
 11
-72.143015
 21
-35.65841
  0
LINE
  5
2EF
100
AcDbEntity
  8
CURVE
100
AcDbLine
 62
250
  6
CONTINUOUS
 10
-72.143015
 20
-35.078612
 11
-72.143015
 21
-35.020066
  0
LINE
  5
2F0
100
AcDbEntity
  8
CURVE
100
AcDbLine
 62
250
  6
CONTINUOUS
 10
-72.143015
 20
-34.437958
 11
-72.143015
 21
-34.029587
  0
LINE
  5
2F1
100
AcDbEntity
  8
CURVE
100
AcDbLine
 62
250
  6
CONTINUOUS
 10
-72.143015
 20
-33.964037
 11
-72.143015
 21
-33.551121
  0
LINE
  5
2F2
100
AcDbEntity
  8
CURVE
100
AcDbLine
 62
250
  6
CONTINUOUS
 10
-72.143015
 20
-32.759302
 11
-72.143015
 21
-32.319333
  0
LINE
  5
2F3
100
AcDbEntity
  8
CURVE
100
AcDbLine
 62
250
  6
CONTINUOUS
 10
-72.143015
 20
-36.282492
 11
-72.143015
 21
-36.699936
  0
LINE
  5
2F4
100
AcDbEntity
  8
CURVE
100
AcDbLine
 62
250
  6
CONTINUOUS
 10
-72.1430147347
 20
-30.7401943813
 11
-72.1430147347
 21
-31.1417275236
  0
LINE
  5
2F5
100
AcDbEntity
  8
CURVE
100
AcDbLine
 62
250
  6
CONTINUOUS
 10
-72.1430147347
 20
-31.7809862819
 11
-72.1430147347
 21
-32.1967511684
  0
LINE
  5
2F6
100
AcDbEntity
  8
ASSI
100
AcDbLine
 62
7
  6
CONTINUOUS
 10
-71.5
 20
-44.0
 11
-71.5
 21
44.0
  0
LINE
  5
2F7
100
AcDbEntity
  8
ASSI
100
AcDbLine
 62
7
  6
CONTINUOUS
 10
-71.0814000833
 20
-43.2558223159
 11
-71.0814000833
 21
43.2558223159
  0
LINE
  5
2F8
100
AcDbEntity
  8
ASSI
100
AcDbLine
 62
250
  6
CONTINUOUS
 10
-69.6895328088
 20
43.182877643
 11
-69.6895328088
 21
-43.182877643
  0
LINE
  5
2F9
100
AcDbEntity
  8
ASSI
100
AcDbLine
 62
7
  6
CONTINUOUS
 10
-69.5
 20
42.983151736
 11
-69.5
 21
-42.983151736
  0
LINE
  5
2FA
100
AcDbEntity
  8
ASSI
100
AcDbLine
 62
7
  6
CONTINUOUS
 10
-67.10329231
 20
16.6798994725
 11
-67.10329231
 21
14.9201005275
  0
LINE
  5
2FB
100
AcDbEntity
  8
ASSI
100
AcDbLine
 62
7
  6
CONTINUOUS
 10
-67.10329231
 20
-14.9201005275
 11
-67.10329231
 21
-16.6798994725
  0
LINE
  5
2FC
100
AcDbEntity
  8
ASSI
100
AcDbLine
 62
7
  6
CONTINUOUS
 10
-65.2075256927
 20
-17.2168478984
 11
-65.2075256927
 21
-16.9957553545
  0
LINE
  5
2FD
100
AcDbEntity
  8
ASSI
100
AcDbLine
 62
7
  6
CONTINUOUS
 10
-65.2075256927
 20
-14.6042446455
 11
-65.2075256927
 21
-14.3831521016
  0
LINE
  5
2FE
100
AcDbEntity
  8
ASSI
100
AcDbLine
 62
7
  6
CONTINUOUS
 10
-65.2075256927
 20
14.3831521016
 11
-65.2075256927
 21
14.6042446455
  0
LINE
  5
2FF
100
AcDbEntity
  8
ASSI
100
AcDbLine
 62
7
  6
CONTINUOUS
 10
-65.2075256927
 20
16.9957553545
 11
-65.2075256927
 21
17.2168478984
  0
LINE
  5
300
100
AcDbEntity
  8
ASSI
100
AcDbLine
 62
7
  6
CONTINUOUS
 10
-64.8
 20
-17.5
 11
-64.8
 21
-14.1
  0
LINE
  5
301
100
AcDbEntity
  8
ASSI
100
AcDbLine
 62
7
  6
CONTINUOUS
 10
-64.8
 20
14.1
 11
-64.8
 21
17.5
  0
LINE
  5
302
100
AcDbEntity
  8
ASSI
100
AcDbLine
 62
7
  6
CONTINUOUS
 10
-64.8
 20
14.1
 11
-69.5
 21
13.9358723834
  0
LINE
  5
303
100
AcDbEntity
  8
ASSI
100
AcDbLine
 62
250
  6
CONTINUOUS
 10
-65.2075256927
 20
14.3831521016
 11
-69.5
 21
14.2332555958
  0
LINE
  5
304
100
AcDbEntity
  8
ASSI
100
AcDbLine
 62
250
  6
CONTINUOUS
 10
-65.2075256927
 20
14.6042446455
 11
-69.5
 21
14.6417045013
  0
LINE
  5
305
100
AcDbEntity
  8
ASSI
100
AcDbLine
 62
7
  6
CONTINUOUS
 10
-64.8
 20
14.9
 11
-69.5
 21
14.9410162786
  0
LWPOLYLINE
  5
306
100
AcDbEntity
  8
0
100
AcDbPolyline
 62
7
  6
CONTINUOUS
 90
10
 70
0
 43
0.3500000006
 10
-82.5260018005
 20
53.2499978027
 10
-82.4545706177
 20
53.1071445007
 10
-82.4545706177
 20
53.0357133179
 10
-82.5974329834
 20
52.892855484
 10
-82.6688641663
 20
52.892855484
 10
-82.7402862854
 20
52.9642866669
 10
-82.7402862854
 20
53.0357133179
 10
-82.6688641663
 20
53.1785711517
 10
-82.5974329834
 20
53.2499978027
 10
-82.5260018005
 20
53.2499978027
  0
LINE
  5
307
100
AcDbEntity
  8
ASSI
100
AcDbLine
 62
7
  6
CONTINUOUS
 10
-64.8
 20
16.7
 11
-69.5
 21
16.6589837214
  0
LINE
  5
308
100
AcDbEntity
  8
ASSI
100
AcDbLine
 62
250
  6
CONTINUOUS
 10
-69.5
 20
16.9582954987
 11
-65.2075256927
 21
16.9957553545
  0
LINE
  5
309
100
AcDbEntity
  8
ASSI
100
AcDbLine
 62
250
  6
CONTINUOUS
 10
-69.5
 20
17.3667444042
 11
-65.2075256927
 21
17.2168478984
  0
LINE
  5
30A
100
AcDbEntity
  8
ASSI
100
AcDbLine
 62
7
  6
CONTINUOUS
 10
-69.5
 20
17.6641276166
 11
-64.8
 21
17.5
  0
LWPOLYLINE
  5
30B
100
AcDbEntity
  8
0
100
AcDbPolyline
 62
7
  6
CONTINUOUS
 90
10
 70
0
 43
0.3500000006
 10
-82.4847528076
 20
63.2500008545
 10
-82.4133306885
 20
63.1071384888
 10
-82.4133306885
 20
63.0357163696
 10
-82.5561839905
 20
62.8928540039
 10
-82.6276151733
 20
62.8928540039
 10
-82.6990463562
 20
62.9642851868
 10
-82.6990463562
 20
63.0357163696
 10
-82.6276151733
 20
63.1785696716
 10
-82.5561839905
 20
63.2500008545
 10
-82.4847528076
 20
63.2500008545
  0
LINE
  5
30C
100
AcDbEntity
  8
ASSI
100
AcDbLine
 62
7
  6
CONTINUOUS
 10
-71.5
 20
-44.0
 11
-71.0814000518
 21
-43.2558223142
  0
LINE
  5
30D
100
AcDbEntity
  8
ASSI
100
AcDbLine
 62
7
  6
CONTINUOUS
 10
-71.5
 20
44.0
 11
-71.0814000518
 21
43.2558223142
  0
LINE
  5
30E
100
AcDbEntity
  8
CURVE
100
AcDbLine
 62
250
  6
CONTINUOUS
 10
-73.448872
 20
-35.568326
 11
-72.143015
 21
-35.078612
  0
LINE
  5
30F
100
AcDbEntity
  8
CURVE
100
AcDbLine
 62
250
  6
CONTINUOUS
 10
-73.032537
 20
-35.047059
 11
-74.142853
 21
-35.460095
  0
LINE
  5
310
100
AcDbEntity
  8
CURVE
100
AcDbLine
 62
250
  6
CONTINUOUS
 10
-72.143015
 20
-32.319333
 11
-74.142853
 21
-32.932933
  0
LINE
  5
311
100
AcDbEntity
  8
CURVE
100
AcDbLine
 62
250
  6
CONTINUOUS
 10
-74.142853
 20
-38.499539
 11
-72.143015
 21
-37.865552
  0
LINE
  5
312
100
AcDbEntity
  8
ASSI
100
AcDbLine
 62
250
  6
CONTINUOUS
 10
-74.7261679781
 20
42.3329793985
 11
-71.5
 21
42.5020556979
  0
LINE
  5
313
100
AcDbEntity
  8
ASSI
100
AcDbLine
 62
7
  6
CONTINUOUS
 10
-74.7261679781
 20
43.8309237007
 11
-71.5
 21
44.0
  0
LINE
  5
314
100
AcDbEntity
  8
ASSI
100
AcDbLine
 62
250
  6
CONTINUOUS
 10
-75.2
 20
42.3329793985
 11
-74.7261679781
 21
42.3329793985
  0
LINE
  5
315
100
AcDbEntity
  8
ASSI
100
AcDbLine
 62
250
  6
CONTINUOUS
 10
-69.5
 20
42.497941481
 11
-71.0814000518
 21
42.497941481
  0
LWPOLYLINE
  5
316
100
AcDbEntity
  8
0
100
AcDbPolyline
 62
7
  6
CONTINUOUS
 90
8
 70
0
 43
0.3500000006
 10
-85.3117182312
 20
52.750002182
 10
-84.454571228
 20
52.750002182
 10
-84.0260022583
 20
53.1785711517
 10
-84.0260022583
 20
54.035713623
 10
-84.454571228
 20
54.4642871246
 10
-85.3117182312
 20
54.4642871246
 10
-85.3117182312
 20
55.7499985657
 10
-84.0260022583
 20
55.7499985657
  0
LWPOLYLINE
  5
317
100
AcDbEntity
  8
0
100
AcDbPolyline
 62
7
  6
CONTINUOUS
 90
3
 70
0
 43
0.3500000006
 10
-79.9133299255
 20
63.3928541565
 10
-81.4133303833
 20
63.3928541565
 10
-80.770467865
 20
65.7500016174
  0
LINE
  5
318
100
AcDbEntity
  8
ASSI
100
AcDbLine
 62
250
  6
CONTINUOUS
 10
-71.5
 20
42.5020556979
 11
-71.0814000518
 21
42.4982285624
  0
LINE
  5
319
100
AcDbEntity
  8
ASSI
100
AcDbLine
 62
7
  6
CONTINUOUS
 10
-69.6895328088
 20
43.182877643
 11
-71.0814000518
 21
43.2558223142
  0
ARC
  5
31A
100
AcDbEntity
  8
CURVE
100
AcDbCircle
 62
250
  6
CONTINUOUS
 10
64.9348995603
 20
-31.5910562596
 40
21.056533613
100
AcDbArc
 50
179.6646353567
 51
180.5544810023
  0
ARC
  5
31B
100
AcDbEntity
  8
ASSI
100
AcDbCircle
 62
250
  6
CONTINUOUS
 10
-42.3318777968
 20
42.3318777967
 40
1.4990364889
100
AcDbArc
 50
90.0421048599
 51
179.9578951369
  0
ARC
  5
31C
100
AcDbEntity
  8
ASSI
100
AcDbCircle
 62
250
  6
CONTINUOUS
 10
-42.3318779608
 20
-42.3318779609
 40
1.4990364889
100
AcDbArc
 50
180.0420985923
 51
269.9579014046
  0
ARC
  5
31D
100
AcDbEntity
  8
ASSI
100
AcDbCircle
 62
250
  6
CONTINUOUS
 10
42.3318779609
 20
-42.3318779608
 40
1.4990364889
100
AcDbArc
 50
270.0420985923
 51
359.9579014046
  0
ARC
  5
31E
100
AcDbEntity
  8
ASSI
100
AcDbCircle
 62
250
  6
CONTINUOUS
 10
42.3318777967
 20
42.3318777968
 40
1.4990364889
100
AcDbArc
 50
0.0421048599
 51
89.9578951369
  0
ARC
  5
31F
100
AcDbEntity
  8
ASSI
100
AcDbCircle
 62
7
  6
CONTINUOUS
 10
42.5028117746
 20
-42.5028117746
 40
1.4971802891
100
AcDbArc
 50
269.971065759
 51
0.028934241
  0
ARC
  5
320
100
AcDbEntity
  8
ASSI
100
AcDbCircle
 62
7
  6
CONTINUOUS
 10
42.5028117749
 20
42.5028117749
 40
1.4971802888
100
AcDbArc
 50
359.9710657491
 51
90.0289342509
  0
ARC
  5
321
100
AcDbEntity
  8
ASSI
100
AcDbCircle
 62
7
  6
CONTINUOUS
 10
-42.502811775
 20
42.502811775
 40
1.4971802885
100
AcDbArc
 50
89.9710657464
 51
180.0289342536
  0
ARC
  5
322
100
AcDbEntity
  8
ASSI
100
AcDbCircle
 62
7
  6
CONTINUOUS
 10
-42.502811775
 20
-42.502811775
 40
1.4971802885
100
AcDbArc
 50
179.9710657465
 51
270.0289342535
  0
ARC
  5
323
100
AcDbEntity
  8
ASSI
100
AcDbCircle
 62
250
  6
CONTINUOUS
 10
-42.3334770567
 20
42.3334768239
 40
0.9981267369
100
AcDbArc
 50
89.9714329328
 51
180.028553715
  0
ARC
  5
324
100
AcDbEntity
  8
ASSI
100
AcDbCircle
 62
250
  6
CONTINUOUS
 10
42.3334768257
 20
42.3334770668
 40
0.9981267293
100
AcDbArc
 50
359.9714323519
 51
90.0285538162
  0
ARC
  5
325
100
AcDbEntity
  8
ASSI
100
AcDbCircle
 62
250
  6
CONTINUOUS
 10
-42.3334768827
 20
-42.3334774137
 40
0.9981264719
100
AcDbArc
 50
179.9714124374
 51
270.0285570963
  0
ARC
  5
326
100
AcDbEntity
  8
ASSI
100
AcDbCircle
 62
250
  6
CONTINUOUS
 10
42.3334774196
 20
-42.3334768792
 40
0.9981264708
100
AcDbArc
 50
269.9714120986
 51
0.0285569005
  0
ARC
  5
327
100
AcDbEntity
  8
ASSI
100
AcDbCircle
 62
250
  6
CONTINUOUS
 10
22.2339437383
 20
-26.2839437383
 40
0.799828081
100
AcDbArc
 50
269.9965139865
 51
0.0034860137
  0
ARC
  5
328
100
AcDbEntity
  8
ASSI
100
AcDbCircle
 62
250
  6
CONTINUOUS
 10
22.2339437383
 20
26.2839437383
 40
0.799828081
100
AcDbArc
 50
359.9965139865
 51
90.0034860137
  0
ARC
  5
329
100
AcDbEntity
  8
ASSI
100
AcDbCircle
 62
250
  6
CONTINUOUS
 10
-22.2339434947
 20
26.2839434947
 40
0.799828081
100
AcDbArc
 50
89.9965314362
 51
180.0034685641
  0
ARC
  5
32A
100
AcDbEntity
  8
ASSI
100
AcDbCircle
 62
250
  6
CONTINUOUS
 10
-22.2339434947
 20
-26.2839434947
 40
0.799828081
100
AcDbArc
 50
179.9965314362
 51
270.0034685641
  0
ARC
  5
32B
100
AcDbEntity
  8
ASSI
100
AcDbCircle
 62
250
  6
CONTINUOUS
 10
22.2340481238
 20
26.2840481244
 40
0.4997701678
100
AcDbArc
 50
359.9824533794
 51
90.0175464663
  0
ARC
  5
32C
100
AcDbEntity
  8
ASSI
100
AcDbCircle
 62
250
  6
CONTINUOUS
 10
22.2340481245
 20
-26.2840481238
 40
0.4997701677
100
AcDbArc
 50
269.9824533744
 51
0.0175464713
  0
ARC
  5
32D
100
AcDbEntity
  8
ASSI
100
AcDbCircle
 62
250
  6
CONTINUOUS
 10
-22.2340535873
 20
26.2840535866
 40
0.4997634486
100
AcDbArc
 50
89.9818269016
 51
180.0181729429
  0
ARC
  5
32E
100
AcDbEntity
  8
ASSI
100
AcDbCircle
 62
250
  6
CONTINUOUS
 10
-22.2340535866
 20
-26.2840535873
 40
0.4997634486
100
AcDbArc
 50
179.9818269016
 51
270.0181729429
  0
ARC
  5
32F
100
AcDbEntity
  8
ASSI
100
AcDbCircle
 62
7
  6
CONTINUOUS
 10
-74.7
 20
-43.3316089333
 40
0.5
100
AcDbArc
 50
180.0
 51
267.0
  0
ARC
  5
330
100
AcDbEntity
  8
ASSI
100
AcDbCircle
 62
7
  6
CONTINUOUS
 10
-74.7
 20
43.3316089333
 40
0.5
100
AcDbArc
 50
93.0
 51
180.0
  0
ARC
  5
331
100
AcDbEntity
  8
ASSI
100
AcDbCircle
 62
7
  6
CONTINUOUS
 10
-69.7
 20
-42.983151736
 40
0.2
100
AcDbArc
 50
273.0
 51
360.0
  0
ARC
  5
332
100
AcDbEntity
  8
ASSI
100
AcDbCircle
 62
7
  6
CONTINUOUS
 10
-69.7
 20
42.983151736
 40
0.2
100
AcDbArc
 50
0.0
 51
87.0
  0
SPLINE
  5
333
100
AcDbEntity
  8
CURVE
100
AcDbSpline
 62
250
  6
CONTINUOUS
 70
0
 71
3
 72
16
 73
12
 74
0
 42
0.0000001
 43
0.0000001
 44
0.0000000001
 40
0.0
 40
0.0
 40
0.0
 40
0.0
 40
0.1111111111
 40
0.2222222222
 40
0.3333333333
 40
0.4444444444
 40
0.5555555556
 40
0.6666666667
 40
0.7777777778
 40
0.8888888889
 40
1.0
 40
1.0
 40
1.0
 40
1.0
 10
43.917378026
 20
-31.1235216885
 30
0.0
 10
43.9177097444
 20
-31.1076481746
 30
0.0
 10
43.9185482592
 20
-31.077957029
 30
0.0
 10
43.920297309
 20
-31.0381747018
 30
0.0
 10
43.9223295391
 20
-31.0049859102
 30
0.0
 10
43.9245610823
 20
-30.9769116414
 30
0.0
 10
43.9268674401
 20
-30.9536416934
 30
0.0
 10
43.9293005682
 20
-30.9334098476
 30
0.0
 10
43.9319025351
 20
-30.9154149172
 30
0.0
 10
43.93473842
 20
-30.8992062329
 30
0.0
 10
43.9368426653
 20
-30.8885760984
 30
0.0
 10
43.9379364479
 20
-30.8828900772
 30
0.0
  0
SPLINE
  5
334
100
AcDbEntity
  8
CURVE
100
AcDbSpline
 62
250
  6
CONTINUOUS
 70
0
 71
3
 72
10
 73
6
 74
0
 42
0.0000001
 43
0.0000001
 44
0.0000000001
 40
0.0
 40
0.0
 40
0.0
 40
0.0
 40
0.3333333333
 40
0.6666666667
 40
1.0
 40
1.0
 40
1.0
 40
1.0
 10
43.9379364479
 20
-30.8828900769
 30
0.0
 10
43.9411890786
 20
-30.8659812997
 30
0.0
 10
43.9476340331
 20
-30.8333676855
 30
0.0
 10
43.9570928067
 20
-30.7864609303
 30
0.0
 10
43.9632614446
 20
-30.7559466537
 30
0.0
 10
43.9663010257
 20
-30.7401943813
 30
0.0
  0
SPLINE
  5
335
100
AcDbEntity
  8
CURVE
100
AcDbSpline
 62
250
  6
CONTINUOUS
 70
0
 71
3
 72
12
 73
8
 74
0
 42
0.0000001
 43
0.0000001
 44
0.0000000001
 40
0.0
 40
0.0
 40
0.0
 40
0.0
 40
0.1666666667
 40
0.3333333333
 40
0.5
 40
0.6666666667
 40
1.0
 40
1.0
 40
1.0
 40
1.0
 10
43.9663010257
 20
-31.1417275236
 30
0.0
 10
43.9643831128
 20
-31.1522490085
 30
0.0
 10
43.9606001047
 20
-31.1733826474
 30
0.0
 10
43.955074973
 20
-31.2044583687
 30
0.0
 10
43.9496786551
 20
-31.2338139358
 30
0.0
 10
43.942671823
 20
-31.2715165919
 30
0.0
 10
43.9376792245
 20
-31.3016091438
 30
0.0
 10
43.9345069039
 20
-31.3243603509
 30
0.0
  0
SPLINE
  5
336
100
AcDbEntity
  8
CURVE
100
AcDbSpline
 62
250
  6
CONTINUOUS
 70
0
 71
3
 72
16
 73
12
 74
0
 42
0.0000001
 43
0.0000001
 44
0.0000000001
 40
0.0
 40
0.0
 40
0.0
 40
0.0
 40
0.125
 40
0.25
 40
0.3125
 40
0.375
 40
0.5
 40
0.625
 40
0.75
 40
0.875
 40
1.0
 40
1.0
 40
1.0
 40
1.0
 10
43.9345069039
 20
-31.3243603509
 30
0.0
 10
43.9338038587
 20
-31.3294077856
 30
0.0
 10
43.9324954518
 20
-31.3407838911
 30
0.0
 10
43.9309718094
 20
-31.3586964362
 30
0.0
 10
43.9298563483
 20
-31.3749300343
 30
0.0
 10
43.9288083421
 20
-31.3925007662
 30
0.0
 10
43.9276592637
 20
-31.4164978046
 30
0.0
 10
43.9265523049
 20
-31.4490317645
 30
0.0
 10
43.925799552
 20
-31.4844496204
 30
0.0
 10
43.9253784856
 20
-31.5205813237
 30
0.0
 10
43.9252853371
 20
-31.5446326497
 30
0.0
 10
43.9252853371
 20
-31.5571624855
 30
0.0
  0
SPLINE
  5
337
100
AcDbEntity
  8
CURVE
100
AcDbSpline
 62
250
  6
CONTINUOUS
 70
0
 71
3
 72
15
 73
11
 74
0
 42
0.0000001
 43
0.0000001
 44
0.0000000001
 40
0.0
 40
0.0
 40
0.0
 40
0.0
 40
0.125
 40
0.25
 40
0.375
 40
0.5
 40
0.625
 40
0.75
 40
0.875
 40
1.0
 40
1.0
 40
1.0
 40
1.0
 10
43.862718473
 20
-32.1967511684
 30
0.0
 10
43.8623223361
 20
-32.1453720529
 30
0.0
 10
43.8616124643
 20
-32.0460211572
 30
0.0
 10
43.8608462063
 20
-31.9084793811
 30
0.0
 10
43.8603746302
 20
-31.7782095249
 30
0.0
 10
43.8602084544
 20
-31.6528372153
 30
0.0
 10
43.8603771958
 20
-31.52927375
 30
0.0
 10
43.8609078976
 20
-31.4066964133
 30
0.0
 10
43.8619261764
 20
-31.2849477712
 30
0.0
 10
43.8630835945
 20
-31.2055575278
 30
0.0
 10
43.8638219284
 20
-31.1665618423
 30
0.0
  0
SPLINE
  5
338
100
AcDbEntity
  8
CURVE
100
AcDbSpline
 62
250
  6
CONTINUOUS
 70
0
 71
3
 72
34
 73
30
 74
0
 42
0.0000001
 43
0.0000001
 44
0.0000000001
 40
0.0
 40
0.0
 40
0.0
 40
0.0
 40
0.0277777778
 40
0.0555555556
 40
0.0833333333
 40
0.1111111111
 40
0.1388888889
 40
0.1666666667
 40
0.1944444444
 40
0.2222222222
 40
0.25
 40
0.2777777778
 40
0.3333333333
 40
0.3888888889
 40
0.4444444444
 40
0.5
 40
0.5555555556
 40
0.6111111111
 40
0.6666666667
 40
0.7222222222
 40
0.7777777778
 40
0.8055555556
 40
0.8333333333
 40
0.8611111111
 40
0.8888888889
 40
0.9166666667
 40
0.9444444444
 40
0.9722222222
 40
1.0
 40
1.0
 40
1.0
 40
1.0
 10
43.8638219284
 20
-31.1665618423
 30
0.0
 10
43.8640990583
 20
-31.1519037652
 30
0.0
 10
43.8647732094
 20
-31.1230404448
 30
0.0
 10
43.8661353811
 20
-31.0797972235
 30
0.0
 10
43.8678613891
 20
-31.035531252
 30
0.0
 10
43.8698862994
 20
-30.9936388902
 30
0.0
 10
43.8721750247
 20
-30.955609221
 30
0.0
 10
43.8746872072
 20
-30.9223653802
 30
0.0
 10
43.8773701632
 20
-30.8945249258
 30
0.0
 10
43.8801390099
 20
-30.8729375061
 30
0.0
 10
43.8828192308
 20
-30.8578584323
 30
0.0
 10
43.8863230632
 20
-30.8446178678
 30
0.0
 10
43.8903638863
 20
-30.8387642228
 30
0.0
 10
43.8946934269
 20
-30.8427494805
 30
0.0
 10
43.8985607112
 20
-30.8557632079
 30
0.0
 10
43.9019392635
 20
-30.8753904938
 30
0.0
 10
43.9048747636
 20
-30.8995635764
 30
0.0
 10
43.9073995705
 20
-30.9266434507
 30
0.0
 10
43.909543601
 20
-30.955451852
 30
0.0
 10
43.9113425917
 20
-30.9853586647
 30
0.0
 10
43.9126048556
 20
-31.009960789
 30
0.0
 10
43.9135106683
 20
-31.0290136648
 30
0.0
 10
43.9141466557
 20
-31.0429640259
 30
0.0
 10
43.9147391882
 20
-31.0564215208
 30
0.0
 10
43.9153040165
 20
-31.0694437787
 30
0.0
 10
43.915841333
 20
-31.0827268768
 30
0.0
 10
43.9162869841
 20
-31.0961007355
 30
0.0
 10
43.9166089068
 20
-31.10959292
 30
0.0
 10
43.9167271765
 20
-31.1188588858
 30
0.0
 10
43.9167587078
 20
-31.1235216885
 30
0.0
  0
SPLINE
  5
339
100
AcDbEntity
  8
CURVE
100
AcDbSpline
 62
250
  6
CONTINUOUS
 70
0
 71
3
 72
15
 73
11
 74
0
 42
0.0000001
 43
0.0000001
 44
0.0000000001
 40
0.0
 40
0.0
 40
0.0
 40
0.0
 40
0.1666666667
 40
0.3333333333
 40
0.5
 40
0.5833333333
 40
0.6666666667
 40
0.75
 40
0.8333333333
 40
1.0
 40
1.0
 40
1.0
 40
1.0
 10
43.9081204754
 20
-31.5562626914
 30
0.0
 10
43.9080819499
 20
-31.5233508169
 30
0.0
 10
43.9077539943
 20
-31.4622820091
 30
0.0
 10
43.9065770815
 20
-31.3866663684
 30
0.0
 10
43.9048636257
 20
-31.3326662453
 30
0.0
 10
43.9028521954
 20
-31.2970227611
 30
0.0
 10
43.9010705614
 20
-31.2744718224
 30
0.0
 10
43.8991008258
 20
-31.2565575595
 30
0.0
 10
43.8961697795
 20
-31.2382630959
 30
0.0
 10
43.8936644938
 20
-31.2314867792
 30
0.0
 10
43.891850759
 20
-31.231986955
 30
0.0
  0
SPLINE
  5
33A
100
AcDbEntity
  8
CURVE
100
AcDbSpline
 62
250
  6
CONTINUOUS
 70
0
 71
3
 72
19
 73
15
 74
0
 42
0.0000001
 43
0.0000001
 44
0.0000000001
 40
0.0
 40
0.0
 40
0.0
 40
0.0
 40
0.1
 40
0.2
 40
0.25
 40
0.3
 40
0.4
 40
0.5
 40
0.6
 40
0.7
 40
0.75
 40
0.8
 40
0.9
 40
1.0
 40
1.0
 40
1.0
 40
1.0
 10
43.891850759
 20
-31.231986955
 30
0.0
 10
43.8912160612
 20
-31.2321594364
 30
0.0
 10
43.8899861424
 20
-31.2342963066
 30
0.0
 10
43.8884537785
 20
-31.2411005839
 30
0.0
 10
43.8872570308
 20
-31.2489692191
 30
0.0
 10
43.8860783139
 20
-31.2584994691
 30
0.0
 10
43.8846730803
 20
-31.273315321
 30
0.0
 10
43.8830967108
 20
-31.2963069348
 30
0.0
 10
43.8817309516
 20
-31.3242579921
 30
0.0
 10
43.8807965846
 20
-31.350581265
 30
0.0
 10
43.8801610437
 20
-31.3734082337
 30
0.0
 10
43.8796091168
 20
-31.3970579058
 30
0.0
 10
43.8790716336
 20
-31.428246359
 30
0.0
 10
43.878814712
 20
-31.4541894052
 30
0.0
 10
43.8787318727
 20
-31.4678085288
 30
0.0
  0
SPLINE
  5
33B
100
AcDbEntity
  8
ASSI
100
AcDbSpline
 62
250
  6
CONTINUOUS
 70
0
 71
3
 72
23
 73
19
 74
0
 42
0.0000001
 43
0.0000001
 44
0.0000000001
 40
0.0
 40
0.0
 40
0.0
 40
0.0
 40
0.0014995122
 40
0.0052298427
 40
0.0113097931
 40
0.0197507761
 40
0.0305413081
 40
0.0436554347
 40
0.0767379656
 40
0.1186922096
 40
0.1691227515
 40
0.2275435767
 40
0.2934011817
 40
0.3660550607
 40
0.4448121304
 40
0.6175624563
 40
0.8050183063
 40
1.0
 40
1.0
 40
1.0
 40
1.0
 10
-74.7261679781
 20
-43.8309237007
 30
0.0
 10
-74.7269160471
 20
-43.8308841302
 30
0.0
 10
-74.7278539769
 20
-43.8275297418
 30
0.0
 10
-74.7288433205
 20
-43.8227248052
 30
0.0
 10
-74.7298886533
 20
-43.8132465677
 30
0.0
 10
-74.7308764333
 20
-43.8008208767
 30
0.0
 10
-74.731816586
 20
-43.7846187116
 30
0.0
 10
-74.7330756154
 20
-43.7562096691
 30
0.0
 10
-74.7343586587
 20
-43.7121673227
 30
0.0
 10
-74.7355188122
 20
-43.6495067636
 30
0.0
 10
-74.7363548919
 20
-43.5741692605
 30
0.0
 10
-74.7368575577
 20
-43.4868917511
 30
0.0
 10
-74.7370143763
 20
-43.3885093589
 30
0.0
 10
-74.7368232518
 20
-43.2799681106
 30
0.0
 10
-74.736078944
 20
-43.1180276063
 30
0.0
 10
-74.7342536514
 20
-42.8987405332
 30
0.0
 10
-74.730860948
 20
-42.6214042507
 30
0.0
 10
-74.7278642448
 20
-42.4303720861
 30
0.0
 10
-74.7261679781
 20
-42.3329793985
 30
0.0
  0
SPLINE
  5
33C
100
AcDbEntity
  8
ASSI
100
AcDbSpline
 62
250
  6
CONTINUOUS
 70
0
 71
3
 72
23
 73
19
 74
0
 42
0.0000001
 43
0.0000001
 44
0.0000000001
 40
0.0
 40
0.0
 40
0.0
 40
0.0
 40
0.1949534097
 40
0.3823774405
 40
0.55512591
 40
0.6338884741
 40
0.7065478688
 40
0.772409661
 40
0.8308368605
 40
0.8812729468
 40
0.9232385079
 40
0.9563289342
 40
0.9694485288
 40
0.9802433771
 40
0.9886864105
 40
0.9947681649
 40
0.9984998943
 40
1.0
 40
1.0
 40
1.0
 40
1.0
 10
-74.7261679781
 20
42.3329793985
 30
0.0
 10
-74.7278637891
 20
42.4303579547
 30
0.0
 10
-74.7308603337
 20
42.6213600773
 30
0.0
 10
-74.7342528508
 20
42.8986653863
 30
0.0
 10
-74.7360782529
 20
43.1179383626
 30
0.0
 10
-74.7368230435
 20
43.2798834255
 30
0.0
 10
-74.7370143798
 20
43.388432258
 30
0.0
 10
-74.7368576991
 20
43.486822674
 30
0.0
 10
-74.7363555143
 20
43.5741082268
 30
0.0
 10
-74.7355193871
 20
43.6494573311
 30
0.0
 10
-74.7343597787
 20
43.7121302649
 30
0.0
 10
-74.7330761961
 20
43.7561849349
 30
0.0
 10
-74.7318172418
 20
43.7846028006
 30
0.0
 10
-74.7308771883
 20
43.8008109308
 30
0.0
 10
-74.7298890655
 20
43.81324062
 30
0.0
 10
-74.7288437746
 20
43.8227216605
 30
0.0
 10
-74.7278539521
 20
43.8275281054
 30
0.0
 10
-74.7269163371
 20
43.8308840015
 30
0.0
 10
-74.7261679781
 20
43.8309237007
 30
0.0
  0
SPLINE
  5
33D
100
AcDbEntity
  8
CURVE
100
AcDbSpline
 62
250
  6
CONTINUOUS
 70
0
 71
3
 72
16
 73
12
 74
0
 42
0.0000001
 43
0.0000001
 44
0.0000000001
 40
0.0
 40
0.0
 40
0.0
 40
0.0
 40
0.1111111111
 40
0.2222222222
 40
0.3333333333
 40
0.4444444444
 40
0.5555555556
 40
0.6666666667
 40
0.7777777778
 40
0.8888888889
 40
1.0
 40
1.0
 40
1.0
 40
1.0
 10
-73.0765211787
 20
-31.1235216885
 30
0.0
 10
-73.0701916151
 20
-31.1076481746
 30
0.0
 10
-73.0541918005
 20
-31.077957029
 30
0.0
 10
-73.0208179409
 20
-31.0381747018
 30
0.0
 10
-72.9820406801
 20
-31.0049859102
 30
0.0
 10
-72.9394602997
 20
-30.9769116414
 30
0.0
 10
-72.8954523725
 20
-30.9536416934
 30
0.0
 10
-72.849025522
 20
-30.9334098476
 30
0.0
 10
-72.7993770366
 20
-30.9154149172
 30
0.0
 10
-72.745265128
 20
-30.8992062329
 30
0.0
 10
-72.7051137363
 20
-30.8885760984
 30
0.0
 10
-72.6842431202
 20
-30.8828900772
 30
0.0
  0
SPLINE
  5
33E
100
AcDbEntity
  8
CURVE
100
AcDbSpline
 62
250
  6
CONTINUOUS
 70
0
 71
3
 72
10
 73
6
 74
0
 42
0.0000001
 43
0.0000001
 44
0.0000000001
 40
0.0
 40
0.0
 40
0.0
 40
0.0
 40
0.3333333333
 40
0.6666666667
 40
1.0
 40
1.0
 40
1.0
 40
1.0
 10
-72.6842431203
 20
-30.8828900769
 30
0.0
 10
-72.6221792292
 20
-30.8659812997
 30
0.0
 10
-72.499202172
 20
-30.8333676855
 30
0.0
 10
-72.3187180196
 20
-30.7864609303
 30
0.0
 10
-72.201013397
 20
-30.7559466537
 30
0.0
 10
-72.1430147347
 20
-30.7401943813
 30
0.0
  0
SPLINE
  5
33F
100
AcDbEntity
  8
CURVE
100
AcDbSpline
 62
250
  6
CONTINUOUS
 70
0
 71
3
 72
12
 73
8
 74
0
 42
0.0000001
 43
0.0000001
 44
0.0000000001
 40
0.0
 40
0.0
 40
0.0
 40
0.0
 40
0.1666666667
 40
0.3333333333
 40
0.5
 40
0.6666666667
 40
1.0
 40
1.0
 40
1.0
 40
1.0
 10
-72.1430147347
 20
-31.1417275236
 30
0.0
 10
-72.179610693
 20
-31.1522490085
 30
0.0
 10
-72.2517947878
 20
-31.1733826474
 30
0.0
 10
-72.35722058
 20
-31.2044583687
 30
0.0
 10
-72.4601884604
 20
-31.2338139358
 30
0.0
 10
-72.5938867823
 20
-31.2715165919
 30
0.0
 10
-72.6891512366
 20
-31.3016091438
 30
0.0
 10
-72.749682718
 20
-31.3243603509
 30
0.0
  0
SPLINE
  5
340
100
AcDbEntity
  8
CURVE
100
AcDbSpline
 62
250
  6
CONTINUOUS
 70
0
 71
3
 72
16
 73
12
 74
0
 42
0.0000001
 43
0.0000001
 44
0.0000000001
 40
0.0
 40
0.0
 40
0.0
 40
0.0
 40
0.125
 40
0.25
 40
0.3125
 40
0.375
 40
0.5
 40
0.625
 40
0.75
 40
0.875
 40
1.0
 40
1.0
 40
1.0
 40
1.0
 10
-72.749682718
 20
-31.3243603509
 30
0.0
 10
-72.7630976213
 20
-31.3294077856
 30
0.0
 10
-72.7880635121
 20
-31.3407838911
 30
0.0
 10
-72.8171363409
 20
-31.3586964362
 30
0.0
 10
-72.8384206059
 20
-31.3749300343
 30
0.0
 10
-72.8584177552
 20
-31.3925007662
 30
0.0
 10
-72.880343478
 20
-31.4164978046
 30
0.0
 10
-72.9014655097
 20
-31.4490317645
 30
0.0
 10
-72.91582889
 20
-31.4844496204
 30
0.0
 10
-72.9238633159
 20
-31.5205813237
 30
0.0
 10
-72.9256406953
 20
-31.5446326497
 30
0.0
 10
-72.9256406953
 20
-31.5571624855
 30
0.0
  0
SPLINE
  5
341
100
AcDbEntity
  8
CURVE
100
AcDbSpline
 62
250
  6
CONTINUOUS
 70
0
 71
3
 72
15
 73
11
 74
0
 42
0.0000001
 43
0.0000001
 44
0.0000000001
 40
0.0
 40
0.0
 40
0.0
 40
0.0
 40
0.125
 40
0.25
 40
0.375
 40
0.5
 40
0.625
 40
0.75
 40
0.875
 40
1.0
 40
1.0
 40
1.0
 40
1.0
 10
-74.1194875818
 20
-32.1967511684
 30
0.0
 10
-74.1270463246
 20
-32.1453720529
 30
0.0
 10
-74.1405914854
 20
-32.0460211572
 30
0.0
 10
-74.1552125574
 20
-31.9084793811
 30
0.0
 10
-74.1642107666
 20
-31.7782095249
 30
0.0
 10
-74.1673815894
 20
-31.6528372153
 30
0.0
 10
-74.1641618126
 20
-31.52927375
 30
0.0
 10
-74.1540354173
 20
-31.4066964133
 30
0.0
 10
-74.1346055015
 20
-31.2849477712
 30
0.0
 10
-74.112520648
 20
-31.2055575278
 30
0.0
 10
-74.0984323986
 20
-31.1665618423
 30
0.0
  0
SPLINE
  5
342
100
AcDbEntity
  8
CURVE
100
AcDbSpline
 62
250
  6
CONTINUOUS
 70
0
 71
3
 72
34
 73
30
 74
0
 42
0.0000001
 43
0.0000001
 44
0.0000000001
 40
0.0
 40
0.0
 40
0.0
 40
0.0
 40
0.0277777778
 40
0.0555555556
 40
0.0833333333
 40
0.1111111111
 40
0.1388888889
 40
0.1666666667
 40
0.1944444444
 40
0.2222222222
 40
0.25
 40
0.2777777778
 40
0.3333333333
 40
0.3888888889
 40
0.4444444444
 40
0.5
 40
0.5555555556
 40
0.6111111111
 40
0.6666666667
 40
0.7222222222
 40
0.7777777778
 40
0.8055555556
 40
0.8333333333
 40
0.8611111111
 40
0.8888888889
 40
0.9166666667
 40
0.9444444444
 40
0.9722222222
 40
1.0
 40
1.0
 40
1.0
 40
1.0
 10
-74.0984323986
 20
-31.1665618423
 30
0.0
 10
-74.0931444455
 20
-31.1519037652
 30
0.0
 10
-74.0802808758
 20
-31.1230404448
 30
0.0
 10
-74.0542890905
 20
-31.0797972235
 30
0.0
 10
-74.0213548959
 20
-31.035531252
 30
0.0
 10
-73.9827173059
 20
-30.9936388902
 30
0.0
 10
-73.9390458261
 20
-30.955609221
 30
0.0
 10
-73.8911105291
 20
-30.9223653802
 30
0.0
 10
-73.839916678
 20
-30.8945249258
 30
0.0
 10
-73.7870839348
 20
-30.8729375061
 30
0.0
 10
-73.7359422737
 20
-30.8578584323
 30
0.0
 10
-73.6690851694
 20
-30.8446178678
 30
0.0
 10
-73.5919816705
 20
-30.8387642228
 30
0.0
 10
-73.5093691157
 20
-30.8427494805
 30
0.0
 10
-73.4355769349
 20
-30.8557632079
 30
0.0
 10
-73.3711103161
 20
-30.8753904938
 30
0.0
 10
-73.3150976379
 20
-30.8995635764
 30
0.0
 10
-73.2669214529
 20
-30.9266434507
 30
0.0
 10
-73.2260109128
 20
-30.955451852
 30
0.0
 10
-73.1916841255
 20
-30.9853586647
 30
0.0
 10
-73.167598696
 20
-31.009960789
 30
0.0
 10
-73.1503147603
 20
-31.0290136648
 30
0.0
 10
-73.1381793974
 20
-31.0429640259
 30
0.0
 10
-73.1268732047
 20
-31.0564215208
 30
0.0
 10
-73.1160956388
 20
-31.0694437787
 30
0.0
 10
-73.1058430291
 20
-31.0827268768
 30
0.0
 10
-73.0973394987
 20
-31.0961007355
 30
0.0
 10
-73.0911968474
 20
-31.10959292
 30
0.0
 10
-73.0889401273
 20
-31.1188588858
 30
0.0
 10
-73.0883384753
 20
-31.1235216885
 30
0.0
  0
SPLINE
  5
343
100
AcDbEntity
  8
CURVE
100
AcDbSpline
 62
250
  6
CONTINUOUS
 70
0
 71
3
 72
15
 73
11
 74
0
 42
0.0000001
 43
0.0000001
 44
0.0000000001
 40
0.0
 40
0.0
 40
0.0
 40
0.0
 40
0.1666666667
 40
0.3333333333
 40
0.5
 40
0.5833333333
 40
0.6666666667
 40
0.75
 40
0.8333333333
 40
1.0
 40
1.0
 40
1.0
 40
1.0
 10
-73.2531657682
 20
-31.5562626914
 30
0.0
 10
-73.2539008789
 20
-31.5233508169
 30
0.0
 10
-73.2601586439
 20
-31.4622820091
 30
0.0
 10
-73.282615477
 20
-31.3866663684
 30
0.0
 10
-73.3153101611
 20
-31.3326662453
 30
0.0
 10
-73.3536905376
 20
-31.2970227611
 30
0.0
 10
-73.3876861404
 20
-31.2744718224
 30
0.0
 10
-73.4252709341
 20
-31.2565575595
 30
0.0
 10
-73.481198629
 20
-31.2382630959
 30
0.0
 10
-73.5290023278
 20
-31.2314867792
 30
0.0
 10
-73.5636104511
 20
-31.231986955
 30
0.0
  0
SPLINE
  5
344
100
AcDbEntity
  8
CURVE
100
AcDbSpline
 62
250
  6
CONTINUOUS
 70
0
 71
3
 72
19
 73
15
 74
0
 42
0.0000001
 43
0.0000001
 44
0.0000000001
 40
0.0
 40
0.0
 40
0.0
 40
0.0
 40
0.1
 40
0.2
 40
0.25
 40
0.3
 40
0.4
 40
0.5
 40
0.6
 40
0.7
 40
0.75
 40
0.8
 40
0.9
 40
1.0
 40
1.0
 40
1.0
 40
1.0
 10
-73.5636104511
 20
-31.231986955
 30
0.0
 10
-73.5757212056
 20
-31.2321594364
 30
0.0
 10
-73.5991894543
 20
-31.2342963066
 30
0.0
 10
-73.6284286999
 20
-31.2411005839
 30
0.0
 10
-73.6512640061
 20
-31.2489692191
 30
0.0
 10
-73.6737552641
 20
-31.2584994691
 30
0.0
 10
-73.7005687189
 20
-31.273315321
 30
0.0
 10
-73.7306476396
 20
-31.2963069348
 30
0.0
 10
-73.7567078785
 20
-31.3242579921
 30
0.0
 10
-73.7745366623
 20
-31.350581265
 30
0.0
 10
-73.786663506
 20
-31.3734082337
 30
0.0
 10
-73.7971948974
 20
-31.3970579058
 30
0.0
 10
-73.8074506892
 20
-31.428246359
 30
0.0
 10
-73.8123530455
 20
-31.4541894052
 30
0.0
 10
-73.8139337133
 20
-31.4678085288
 30
0.0
  0
SPLINE
  5
345
100
AcDbEntity
  8
CURVE
100
AcDbSpline
 62
250
  6
CONTINUOUS
 70
0
 71
3
 72
12
 73
8
 74
0
 42
0.0000001
 43
0.0000001
 44
0.0000000001
 40
0.0
 40
0.0
 40
0.0
 40
0.0
 40
0.3333333333
 40
0.5
 40
0.6666666667
 40
0.8333333333
 40
1.0
 40
1.0
 40
1.0
 40
1.0
 10
-73.8139337132
 20
-31.4678085288
 30
0.0
 10
-73.8180973134
 20
-31.5036823431
 30
0.0
 10
-73.8215793105
 20
-31.5577124276
 30
0.0
 10
-73.8207833514
 20
-31.6299242558
 30
0.0
 10
-73.8174648618
 20
-31.6843402053
 30
0.0
 10
-73.8111732244
 20
-31.7393862865
 30
0.0
 10
-73.805329898
 20
-31.7762520183
 30
0.0
 10
-73.8021601761
 20
-31.7948281153
 30
0.0
  0
ELLIPSE
  5
346
100
AcDbEntity
  8
ASSI
100
AcDbEllipse
 62
7
  6
CONTINUOUS
 10
-22.224923836
 20
26.274923836
 30
0.0
 11
0.3536610946
 21
-0.3536610946
 31
0.0
 40
0.9996954599
 41
2.3563467834
 42
3.9268385237
  0
ELLIPSE
  5
347
100
AcDbEntity
  8
ASSI
100
AcDbEllipse
 62
7
  6
CONTINUOUS
 10
22.224923836
 20
26.274923836
 30
0.0
 11
-0.3536610946
 21
-0.3536610946
 31
0.0
 40
0.9996954599
 41
2.3563467834
 42
3.9268385237
  0
ELLIPSE
  5
348
100
AcDbEntity
  8
ASSI
100
AcDbEllipse
 62
7
  6
CONTINUOUS
 10
22.224923836
 20
-26.274923836
 30
0.0
 11
-0.3536610946
 21
0.3536610946
 31
0.0
 40
0.9996954599
 41
2.3563467834
 42
3.9268385237
  0
ELLIPSE
  5
349
100
AcDbEntity
  8
ASSI
100
AcDbEllipse
 62
7
  6
CONTINUOUS
 10
-22.224923836
 20
-26.274923836
 30
0.0
 11
0.3536610946
 21
0.3536610946
 31
0.0
 40
0.9996954599
 41
2.3563467834
 42
3.9268385237
  0
ELLIPSE
  5
34A
100
AcDbEntity
  8
ASSI
100
AcDbEllipse
 62
7
  6
CONTINUOUS
 10
-64.9075256927
 20
-14.600926939
 30
0.0
 11
0.2123792432
 21
0.2142407358
 31
0.0
 40
0.9890020976
 41
2.3573605238
 42
3.9258247833
  0
ELLIPSE
  5
34B
100
AcDbEntity
  8
ASSI
100
AcDbEllipse
 62
7
  6
CONTINUOUS
 10
-64.9075256927
 20
-14.3964279834
 30
0.0
 11
0.2131189617
 21
-0.2206911452
 31
0.0
 40
0.9567239035
 41
2.3608578002
 42
3.922327507
  0
ELLIPSE
  5
34C
100
AcDbEntity
  8
ASSI
100
AcDbEllipse
 62
7
  6
CONTINUOUS
 10
-64.9075256927
 20
-17.2035720166
 30
0.0
 11
0.2131189617
 21
0.2206911452
 31
0.0
 40
0.9567239035
 41
2.3608578002
 42
3.922327507
  0
ELLIPSE
  5
34D
100
AcDbEntity
  8
ASSI
100
AcDbEllipse
 62
7
  6
CONTINUOUS
 10
-64.9075256927
 20
-16.999073061
 30
0.0
 11
0.2123792432
 21
-0.2142407358
 31
0.0
 40
0.9890020976
 41
2.3573605238
 42
3.9258247833
  0
ELLIPSE
  5
34E
100
AcDbEntity
  8
ASSI
100
AcDbEllipse
 62
7
  6
CONTINUOUS
 10
-64.9075256927
 20
14.600926939
 30
0.0
 11
0.2123792432
 21
-0.2142407358
 31
0.0
 40
0.9890020976
 41
2.3573605238
 42
3.9258247833
  0
ELLIPSE
  5
34F
100
AcDbEntity
  8
ASSI
100
AcDbEllipse
 62
7
  6
CONTINUOUS
 10
-64.9075256927
 20
14.3964279834
 30
0.0
 11
0.2131189617
 21
0.2206911452
 31
0.0
 40
0.9567239035
 41
2.3608578002
 42
3.922327507
  0
ELLIPSE
  5
350
100
AcDbEntity
  8
ASSI
100
AcDbEllipse
 62
7
  6
CONTINUOUS
 10
-64.9075256927
 20
17.2035720166
 30
0.0
 11
0.2131189617
 21
-0.2206911452
 31
0.0
 40
0.9567239035
 41
2.3608578002
 42
3.922327507
  0
ELLIPSE
  5
351
100
AcDbEntity
  8
ASSI
100
AcDbEllipse
 62
7
  6
CONTINUOUS
 10
-64.9075256927
 20
16.999073061
 30
0.0
 11
0.2123792432
 21
0.2142407358
 31
0.0
 40
0.9890020976
 41
2.3573605238
 42
3.9258247833
  0
ENDSEC
  0
SECTION
  2
OBJECTS
  0
DICTIONARY
  5
C
100
AcDbDictionary
280
0
281
1
  3
ACAD_GROUP
350
D
  3
ACAD_MLINESTYLE
350
17
  3
ACAD_LAYOUT
350
1A
  3
ACAD_PLOTSETTINGS
350
19
  3
ACAD_PLOTSTYLENAME
350
E
  0
DICTIONARY
  5
D
102
{ACAD_REACTORS
330
C
102
}
100
AcDbDictionary
280
0
281
1
  0
ACDBDICTIONARYWDFLT
  5
E
102
{ACAD_REACTORS
330
C
102
}
100
AcDbDictionary
281
1
  3
Normal
350
F
100
AcDbDictionaryWithDefault
340
F
  0
DICTIONARY
  5
17
102
{ACAD_REACTORS
330
C
102
}
100
AcDbDictionary
280
0
281
1
  3
Standard
350
18
  0
DICTIONARY
  5
19
102
{ACAD_REACTORS
330
C
102
}
100
AcDbDictionary
281
1
  0
DICTIONARY
  5
1A
102
{ACAD_REACTORS
330
C
102
}
100
AcDbDictionary
281
1
  3
Model
350
352
  3
Layout1
350
353
  0
ACDBPLACEHOLDER
  5
F
102
{ACAD_REACTORS
330
E
102
}
  0
MLINESTYLE
  5
18
102
{ACAD_REACTORS
330
17
102
}
100
AcDbMlineStyle
  2
STANDARD
 70
0
  3

 62
256
 51
90.0
 52
90.0
 71
2
 49
0.5
 62
256
  6
BYLAYER
 49
-0.5
 62
256
  6
BYLAYER
  0
LAYOUT
  5
352
102
{ACAD_REACTORS
330
1A
102
}
100
AcDbPlotSettings
  1

  2
none_device
  4
ISO_A4_(297.00_x_210.00_MM)
  6

 40
0.0
 41
0.0
 42
0.0
 43
0.0
 44
297.0
 45
210.0
 46
0.0
 47
0.0
 48
0.0
 49
0.0
140
0.0
141
0.0
142
1.0
143
1.0
 70
1024
 72
1
 73
0
 74
0
  7

 75
0
147
1.0
148
0.0
149
0.0
100
AcDbLayout
  1
Model
 70
0
 71
0
 10
0.0
 20
0.0
 11
297.0
 21
210.0
 12
0.0
 22
0.0
 32
0.0
 14
0.0
 24
0.0
 34
0.0
 15
0.0
 25
0.0
 35
0.0
146
0.0
 13
0.0
 23
0.0
 33
0.0
 16
1.0
 26
0.0
 36
0.0
 17
0.0
 27
1.0
 37
0.0
 76
0
330
216
345
0
346
0
  0
LAYOUT
  5
353
102
{ACAD_REACTORS
330
1A
102
}
100
AcDbPlotSettings
  1

  2
none_device
  4
ISO_A4_(297.00_x_210.00_MM)
  6

 40
0.0
 41
0.0
 42
0.0
 43
0.0
 44
297.0
 45
210.0
 46
0.0
 47
0.0
 48
0.0
 49
0.0
140
0.0
141
0.0
142
1.0
143
1.0
 70
0
 72
1
 73
0
 74
0
  7

 75
0
147
1.0
148
0.0
149
0.0
100
AcDbLayout
  1
Layout1
 70
0
 71
1
 10
0.0
 20
0.0
 11
297.0
 21
210.0
 12
0.0
 22
0.0
 32
0.0
 14
0.0
 24
0.0
 34
0.0
 15
0.0
 25
0.0
 35
0.0
146
0.0
 13
0.0
 23
0.0
 33
0.0
 16
1.0
 26
0.0
 36
0.0
 17
0.0
 27
1.0
 37
0.0
 76
0
330
217
345
0
346
0
  0
ENDSEC
  0
EOF
