  0
SECTION
  2
HEADER
  9
$ACADVER
  1
AC1024
  9
$DWGCODEPAGE
  3
ANSI_1252
  9
$EXTMAX
 10
297.0
 20
210.0
 30
0.0
  9
$EXTMIN
 10
0.0
 20
0.0
 30
0.0
  9
$LIMMIN
 10
0.0
 20
0.0
  9
$LIMMAX
 10
297.0
 20
210.0
  9
$VIEWCTR
 10
148.5
 20
105.0
  9
$VIEWSIZE
 40
210.0
  9
$CLAYER
  8
0
  9
$LTSCALE
 40
16.335
  9
$CELTYPE
  6
BYLAYER
  9
$DIMSCALE
 40
1.0
  9
$DIMASZ
 40
3.0
  9
$DIMEXO
 40
0.5
  9
$DIMDLI
 40
11.286
  9
$DIMEXE
 40
1.5
  9
$DIMCEN
 40
2.673
  9
$DIMLFAC
 40
1.0
  9
$DIMBLK
  1
_FILLED
  9
$DIMALT
 70
0
  9
$DIMALTF
 40
0.0393700787
  9
$DIMTXT
 40
3.0
  9
$DIMTOL
 70
1
  9
$DIMLIM
 70
0
  9
$DIMTFAC
 40
1.0
  9
$DIMTP
 40
0.01
  9
$DIMTM
 40
0.01
  9
$DIMGAP
 40
0.625
  9
$DIMDSEP
 70
44
  9
$AUNITS
 70
0
  9
$PDMODE
 70
3
  9
$PDSIZE
 40
3.0
  9
$HANDSEED
  5
313
  9
$TILEMODE
 70
1
  9
$MEASUREMENT
 70
1
  9
$INSUNITS
 70
4
  0
ENDSEC
  0
SECTION
  2
CLASSES
  0
CLASS
  1
ACDBDICTIONARYWDFLT
  2
AcDbDictionaryWithDefault
  3
AutoCAD 2000
 90
0
 91
1
280
0
281
0
  0
CLASS
  1
ACDBPLACEHOLDER
  2
AcDbPlaceHolder
  3
AutoCAD 2000
 90
0
 91
1
280
0
281
0
  0
CLASS
  1
LAYOUT
  2
AcDbLayout
  3
AutoCAD 2000
 90
0
 91
0
280
0
281
0
  0
ENDSEC
  0
SECTION
  2
TABLES
  0
TABLE
  2
VPORT
  5
8
100
AcDbSymbolTable
 70
2
  0
VPORT
  5
1F4
100
AcDbSymbolTableRecord
100
AcDbViewportTableRecord
  2
*ACTIVE
 70
0
 10
0.0
 20
0.0
 11
1.0
 21
1.0
 12
148.5
 22
105.0
 13
0.0
 23
0.0
 14
1.0
 24
1.0
 15
0.0
 25
0.0
 16
0.0
 26
0.0
 36
1.0
 17
0.0
 27
0.0
 37
0.0
 40
210.0
 41
1.4142857143
 42
50.0
 43
0.0
 44
0.0
 50
0.0
 51
0.0
 71
0
 72
100
 73
1
 74
1
 75
0
 76
0
 77
0
 78
0
  0
ENDTAB
  0
TABLE
  2
LTYPE
  5
5
100
AcDbSymbolTable
 70
6
  0
LTYPE
  5
14
100
AcDbSymbolTableRecord
100
AcDbLinetypeTableRecord
  2
BYBLOCK
 70
0
  3

 72
65
 73
0
 40
0.0
  0
LTYPE
  5
15
100
AcDbSymbolTableRecord
100
AcDbLinetypeTableRecord
  2
BYLAYER
 70
0
  3

 72
65
 73
0
 40
0.0
  0
LTYPE
  5
16
100
AcDbSymbolTableRecord
100
AcDbLinetypeTableRecord
  2
CONTINUOUS
 70
64
  3
Solid line
 72
65
 73
0
 40
0.0
  0
LTYPE
  5
1F5
100
AcDbSymbolTableRecord
100
AcDbLinetypeTableRecord
  2
CENTER
 70
64
  3
____ _ ____ _ ____ _ ____ _ ____ _ ____ _ ____
 72
65
 73
4
 40
0.6
 49
0.375
 74
0
 49
-0.075
 74
0
 49
0.075
 74
0
 49
-0.075
 74
0
  0
LTYPE
  5
1F6
100
AcDbSymbolTableRecord
100
AcDbLinetypeTableRecord
  2
HIDDEN
 70
64
  3
- - - - - - - - - - - - - - - - - - - -
 72
65
 73
2
 40
0.2
 49
0.1
 74
0
 49
-0.1
 74
0
  0
LTYPE
  5
1F7
100
AcDbSymbolTableRecord
100
AcDbLinetypeTableRecord
  2
PHANTOM
 70
64
  3
_____ _ _ _____ _ _ _____ _ _ _____
 72
65
 73
6
 40
0.8
 49
0.45
 74
0
 49
-0.05
 74
0
 49
0.1
 74
0
 49
-0.05
 74
0
 49
0.1
 74
0
 49
-0.05
 74
0
  0
LTYPE
  5
1F8
100
AcDbSymbolTableRecord
100
AcDbLinetypeTableRecord
  2
DOT
 70
64
  3
. . . . . . . . . . . . . . . . . . . .
 72
65
 73
2
 40
0.2
 49
0.1
 74
0
 49
-0.1
 74
0
  0
LTYPE
  5
1F9
100
AcDbSymbolTableRecord
100
AcDbLinetypeTableRecord
  2
DASHED
 70
64
  3
- - - - - - - - - - - - - - - - - - - -
 72
65
 73
2
 40
0.2
 49
0.1
 74
0
 49
-0.1
 74
0
  0
ENDTAB
  0
TABLE
  2
LAYER
  5
2
100
AcDbSymbolTable
 70
36
  0
LAYER
  5
10
100
AcDbSymbolTableRecord
100
AcDbLayerTableRecord
  2
0
 70
0
 62
7
  6
CONTINUOUS
370
-3
390
F
  0
LAYER
  5
1FA
100
AcDbSymbolTableRecord
100
AcDbLayerTableRecord
  2
DEFAULT_1
 70
0
 62
7
  6
CENTER
370
-3
390
F
  0
LAYER
  5
1FB
100
AcDbSymbolTableRecord
100
AcDbLayerTableRecord
  2
DEFAULT_2
 70
0
 62
7
  6
HIDDEN
370
-3
390
F
  0
LAYER
  5
1FC
100
AcDbSymbolTableRecord
100
AcDbLayerTableRecord
  2
DEFAULT_3
 70
0
 62
7
  6
PHANTOM
370
-3
390
F
  0
LAYER
  5
1FD
100
AcDbSymbolTableRecord
100
AcDbLayerTableRecord
  2
ASSI
 70
0
 62
7
  6
CONTINUOUS
370
-3
390
F
  0
LAYER
  5
1FE
100
AcDbSymbolTableRecord
100
AcDbLayerTableRecord
  2
COORDINATE
 70
0
 62
7
  6
CONTINUOUS
370
-3
390
F
  0
LAYER
  5
1FF
100
AcDbSymbolTableRecord
100
AcDbLayerTableRecord
  2
COPY_PUBLISH
 70
0
 62
7
  6
CONTINUOUS
370
-3
390
F
  0
LAYER
  5
200
100
AcDbSymbolTableRecord
100
AcDbLayerTableRecord
  2
COSMETICI
 70
0
 62
7
  6
CONTINUOUS
370
-3
390
F
  0
LAYER
  5
201
100
AcDbSymbolTableRecord
100
AcDbLayerTableRecord
  2
CURVE
 70
0
 62
7
  6
CONTINUOUS
370
-3
390
F
  0
LAYER
  5
202
100
AcDbSymbolTableRecord
100
AcDbLayerTableRecord
  2
DRAFT
 70
0
 62
7
  6
CONTINUOUS
370
-3
390
F
  0
LAYER
  5
203
100
AcDbSymbolTableRecord
100
AcDbLayerTableRecord
  2
IMPORT_IGES
 70
0
 62
7
  6
CONTINUOUS
370
-3
390
F
  0
LAYER
  5
204
100
AcDbSymbolTableRecord
100
AcDbLayerTableRecord
  2
INTF_1
 70
0
 62
7
  6
CONTINUOUS
370
-3
390
F
  0
LAYER
  5
205
100
AcDbSymbolTableRecord
100
AcDbLayerTableRecord
  2
INTF_11
 70
0
 62
7
  6
CONTINUOUS
370
-3
390
F
  0
LAYER
  5
206
100
AcDbSymbolTableRecord
100
AcDbLayerTableRecord
  2
INTF_13
 70
0
 62
7
  6
CONTINUOUS
370
-3
390
F
  0
LAYER
  5
207
100
AcDbSymbolTableRecord
100
AcDbLayerTableRecord
  2
INTF_2
 70
0
 62
7
  6
CONTINUOUS
370
-3
390
F
  0
LAYER
  5
208
100
AcDbSymbolTableRecord
100
AcDbLayerTableRecord
  2
INTF_CYAN
 70
0
 62
7
  6
CONTINUOUS
370
-3
390
F
  0
LAYER
  5
209
100
AcDbSymbolTableRecord
100
AcDbLayerTableRecord
  2
NOTE
 70
0
 62
7
  6
CONTINUOUS
370
-3
390
F
  0
LAYER
  5
20A
100
AcDbSymbolTableRecord
100
AcDbLayerTableRecord
  2
PIANI
 70
0
 62
7
  6
CONTINUOUS
370
-3
390
F
  0
LAYER
  5
20B
100
AcDbSymbolTableRecord
100
AcDbLayerTableRecord
  2
PUNTI
 70
0
 62
7
  6
CONTINUOUS
370
-3
390
F
  0
LAYER
  5
20C
100
AcDbSymbolTableRecord
100
AcDbLayerTableRecord
  2
RACCORDO
 70
0
 62
7
  6
CONTINUOUS
370
-3
390
F
  0
LAYER
  5
20D
100
AcDbSymbolTableRecord
100
AcDbLayerTableRecord
  2
SIMBOLI
 70
0
 62
7
  6
CONTINUOUS
370
-3
390
F
  0
LAYER
  5
20E
100
AcDbSymbolTableRecord
100
AcDbLayerTableRecord
  2
SMUSSO
 70
0
 62
7
  6
CONTINUOUS
370
-3
390
F
  0
LAYER
  5
20F
100
AcDbSymbolTableRecord
100
AcDbLayerTableRecord
  2
SNAPLINE
 70
0
 62
7
  6
CONTINUOUS
370
-3
390
F
  0
LAYER
  5
210
100
AcDbSymbolTableRecord
100
AcDbLayerTableRecord
  2
SUPERFICI
 70
0
 62
7
  6
CONTINUOUS
370
-3
390
F
  0
LAYER
  5
211
100
AcDbSymbolTableRecord
100
AcDbLayerTableRecord
  2
TRASH
 70
0
 62
7
  6
CONTINUOUS
370
-3
390
F
  0
ENDTAB
  0
TABLE
  2
STYLE
  5
3
100
AcDbSymbolTable
 70
1
  0
STYLE
  5
11
100
AcDbSymbolTableRecord
100
AcDbTextStyleTableRecord
  2
STANDARD
 70
0
 40
0.0
 41
0.8
 50
0.0
 71
0
 42
0.2
  3
txt
  4

  0
STYLE
  5
212
100
AcDbSymbolTableRecord
100
AcDbTextStyleTableRecord
  2
TEXTSTYLE_1
 70
0
 40
0.0
 41
0.8
 50
0.0
 71
0
 42
0.2
  3
gdt
  4

  0
ENDTAB
  0
TABLE
  2
VIEW
  5
6
100
AcDbSymbolTable
 70
0
  0
ENDTAB
  0
TABLE
  2
UCS
  5
7
100
AcDbSymbolTable
 70
0
  0
ENDTAB
  0
TABLE
  2
APPID
  5
9
100
AcDbSymbolTable
 70
1
  0
APPID
  5
213
100
AcDbSymbolTableRecord
100
AcDbRegAppTableRecord
  2
ACAD
 70
0
  0
ENDTAB
  0
TABLE
  2
BLOCK_RECORD
  5
1
100
AcDbSymbolTable
 70
0
  0
BLOCK_RECORD
  5
214
100
AcDbSymbolTableRecord
100
AcDbBlockTableRecord
  2
*Model_Space
  0
BLOCK_RECORD
  5
215
100
AcDbSymbolTableRecord
100
AcDbBlockTableRecord
  2
*Paper_Space
  0
BLOCK_RECORD
  5
216
100
AcDbSymbolTableRecord
100
AcDbBlockTableRecord
  2
_FILLED
  0
BLOCK_RECORD
  5
217
100
AcDbSymbolTableRecord
100
AcDbBlockTableRecord
  2
*D0
  0
BLOCK_RECORD
  5
218
100
AcDbSymbolTableRecord
100
AcDbBlockTableRecord
  2
*D1
  0
BLOCK_RECORD
  5
219
100
AcDbSymbolTableRecord
100
AcDbBlockTableRecord
  2
*D2
  0
BLOCK_RECORD
  5
21A
100
AcDbSymbolTableRecord
100
AcDbBlockTableRecord
  2
*D3
  0
ENDTAB
  0
TABLE
  2
DIMSTYLE
  5
A
100
AcDbSymbolTable
 70
1
100
AcDbDimStyleTable
 71
0
  0
DIMSTYLE
105
21B
100
AcDbSymbolTableRecord
100
AcDbDimStyleTableRecord
  2
STANDARD
 70
0
  3

  4

 40
1.0
 41
3.0
 42
0.5
 43
0.38
 44
1.5
 45
0.0
 46
0.0
 47
0.01
 48
0.01
140
3.0
141
0.09
142
0.0
143
25.4
144
1.0
145
0.0
146
1.0
147
0.625
 71
1
 72
0
 73
0
 74
0
 75
0
 76
0
 77
1
 78
8
 79
2
170
0
171
1
172
0
173
0
174
0
175
0
176
0
177
0
178
0
270
2
179
2
271
2
272
2
273
2
274
2
275
0
280
0
281
0
282
0
283
1
284
8
285
0
286
0
287
3
288
0
340
11
278
44
341
216
342
216
343
216
344
216
  0
DIMSTYLE
105
21C
100
AcDbSymbolTableRecord
100
AcDbDimStyleTableRecord
  2
DIMSTYLE_1
 70
0
  3

  4

 40
1.0
 41
3.0
 42
0.5
 43
0.38
 44
1.5
 45
0.0
 46
0.0
 47
0.0
 48
0.0
140
3.0
141
0.09
142
0.0
143
25.4
144
1.0
145
0.0
146
1.0
147
0.75
 71
0
 72
0
 73
0
 74
0
 75
0
 76
0
 77
1
 78
8
 79
2
170
0
171
1
172
0
173
0
174
0
175
0
176
0
177
0
178
0
270
2
179
2
271
2
272
2
273
2
274
2
275
0
280
0
281
0
282
0
283
1
284
8
285
0
286
0
287
3
288
0
340
11
278
44
341
216
342
216
343
216
344
216
  0
ENDTAB
  0
ENDSEC
  0
SECTION
  2
BLOCKS
  0
BLOCK
  5
20
100
AcDbEntity
  8
0
100
AcDbBlockBegin
  2
*Model_Space
 70
0
 10
0.0
 20
0.0
 30
0.0
  3
*Model_Space
  1

  0
ENDBLK
  5
21
100
AcDbEntity
  8
0
100
AcDbBlockEnd
  0
BLOCK
  5
1C
100
AcDbEntity
  8
0
100
AcDbBlockBegin
  2
*Paper_Space
 70
0
 10
0.0
 20
0.0
 30
0.0
  3
*Paper_Space
  1

  0
ENDBLK
  5
1D
100
AcDbEntity
  8
0
100
AcDbBlockEnd
  0
BLOCK
  5
21D
100
AcDbEntity
  8
0
100
AcDbBlockBegin
  2
_FILLED
 70
64
 10
0.0
 20
0.0
  3
_FILLED
  1

  0
SOLID
  5
21E
100
AcDbEntity
  8
0
  6
BYBLOCK
 62
0
100
AcDbTrace
 10
0.0
 20
0.0
 11
-1.0
 21
0.3166666667
 12
-1.0
 22
-0.3166666667
 13
-1.0
 23
-0.3166666667
  0
ENDBLK
  5
21F
100
AcDbEntity
  8
0
  6
BYBLOCK
 62
0
100
AcDbBlockEnd
  0
BLOCK
  5
220
100
AcDbEntity
  8
0
100
AcDbBlockBegin
 62
7
  6
CONTINUOUS
  2
*D0
 70
65
 10
0.0
 20
0.0
  3
*D0
  1

  0
MTEXT
  5
221
100
AcDbEntity
  8
0
100
AcDbMText
 62
7
  6
CONTINUOUS
  7
STANDARD
 71
2
 72
1
 10
0.0
 20
55.75
 30
0.0
 11
1.0
 21
0.0
 31
0.0
 73
2
 44
0.9
  1
{\ftxt;\W0.0001;\H0.0001;\~}{\ftxt;\W1.5714285714;\H3.0; }{\ftxt;\W0.0001;\H0.0001;\~}
 40
3.0
 41
7.0714285714
  0
LINE
  5
222
100
AcDbEntity
  8
0
100
AcDbLine
 62
7
  6
CONTINUOUS
 10
-44.0
 20
43.0
 11
-44.0
 21
53.5
  0
LINE
  5
223
100
AcDbEntity
  8
0
100
AcDbLine
 62
7
  6
CONTINUOUS
 10
44.0
 20
43.0
 11
44.0
 21
53.5
  0
LINE
  5
224
100
AcDbEntity
  8
0
100
AcDbLine
 62
7
  6
CONTINUOUS
 10
-44.0
 20
52.0
 11
0.0
 21
52.0
  0
LINE
  5
225
100
AcDbEntity
  8
0
100
AcDbLine
 62
7
  6
CONTINUOUS
 10
44.0
 20
52.0
 11
0.0
 21
52.0
  0
INSERT
  5
226
100
AcDbEntity
  8
0
100
AcDbBlockReference
 62
7
  6
CONTINUOUS
  2
_FILLED
 10
-44.0
 20
52.0
 41
3.0
 42
3.0
 43
3.0
 50
180.0
  0
INSERT
  5
227
100
AcDbEntity
  8
0
100
AcDbBlockReference
 62
7
  6
CONTINUOUS
  2
_FILLED
 10
44.0
 20
52.0
 41
3.0
 42
3.0
 43
3.0
  0
ENDBLK
  5
228
100
AcDbEntity
  8
0
  6
BYBLOCK
 62
0
100
AcDbBlockEnd
  0
BLOCK
  5
229
100
AcDbEntity
  8
0
100
AcDbBlockBegin
 62
7
  6
CONTINUOUS
  2
*D1
 70
65
 10
0.0
 20
0.0
  3
*D1
  1

  0
MTEXT
  5
22A
100
AcDbEntity
  8
0
100
AcDbMText
 62
7
  6
CONTINUOUS
  7
STANDARD
 71
2
 72
1
 10
48.25
 20
0.0
 30
0.0
 11
0.0
 21
1.0
 31
0.0
 73
2
 44
0.9
  1
{\ftxt;\W0.0001;\H0.0001;\~}{\ftxt;\W1.5714285714;\H3.0; }{\ftxt;\W0.0001;\H0.0001;\~}
 40
3.0
 41
7.0714285714
  0
LINE
  5
22B
100
AcDbEntity
  8
0
100
AcDbLine
 62
7
  6
CONTINUOUS
 10
43.0
 20
44.0
 11
53.5
 21
44.0
  0
LINE
  5
22C
100
AcDbEntity
  8
0
100
AcDbLine
 62
7
  6
CONTINUOUS
 10
43.0
 20
-44.0
 11
53.5
 21
-44.0
  0
LINE
  5
22D
100
AcDbEntity
  8
0
100
AcDbLine
 62
7
  6
CONTINUOUS
 10
52.0
 20
44.0
 11
52.0
 21
0.0
  0
LINE
  5
22E
100
AcDbEntity
  8
0
100
AcDbLine
 62
7
  6
CONTINUOUS
 10
52.0
 20
-44.0
 11
52.0
 21
0.0
  0
INSERT
  5
22F
100
AcDbEntity
  8
0
100
AcDbBlockReference
 62
7
  6
CONTINUOUS
  2
_FILLED
 10
52.0
 20
44.0
 41
3.0
 42
3.0
 43
3.0
 50
90.0
  0
INSERT
  5
230
100
AcDbEntity
  8
0
100
AcDbBlockReference
 62
7
  6
CONTINUOUS
  2
_FILLED
 10
52.0
 20
-44.0
 41
3.0
 42
3.0
 43
3.0
 50
270.0
  0
ENDBLK
  5
231
100
AcDbEntity
  8
0
  6
BYBLOCK
 62
0
100
AcDbBlockEnd
  0
BLOCK
  5
232
100
AcDbEntity
  8
0
100
AcDbBlockBegin
 62
7
  6
CONTINUOUS
  2
*D2
 70
65
 10
0.0
 20
0.0
  3
*D2
  1

  0
MTEXT
  5
233
100
AcDbEntity
  8
0
100
AcDbMText
 62
7
  6
CONTINUOUS
  7
STANDARD
 71
3
 72
1
 10
-79.331938398
 20
55.75
 30
0.0
 11
1.0
 21
0.0
 31
0.0
 73
2
 44
0.9
  1
{\ftxt;\W0.0001;\H0.0001;\~}{\ftxt;\W2.0714285714;\H3.0; }{\ftxt;\W0.0001;\H0.0001;\~}
 40
3.0
 41
9.3214285714
  0
LINE
  5
234
100
AcDbEntity
  8
0
100
AcDbLine
 62
7
  6
CONTINUOUS
 10
-69.55
 20
42.2477309359
 11
-69.55
 21
53.5
  0
LINE
  5
235
100
AcDbEntity
  8
0
100
AcDbLine
 62
7
  6
CONTINUOUS
 10
-75.15
 20
43.0
 11
-75.15
 21
53.5
  0
LINE
  5
236
100
AcDbEntity
  8
0
100
AcDbLine
 62
7
  6
CONTINUOUS
 10
-69.55
 20
52.0
 11
-65.55
 21
52.0
  0
LINE
  5
237
100
AcDbEntity
  8
0
100
AcDbLine
 62
7
  6
CONTINUOUS
 10
-65.55
 20
52.0
 11
-72.35
 21
52.0
  0
LINE
  5
238
100
AcDbEntity
  8
0
100
AcDbLine
 62
7
  6
CONTINUOUS
 10
-75.15
 20
52.0
 11
-85.5462241123
 21
52.0
  0
LINE
  5
239
100
AcDbEntity
  8
0
100
AcDbLine
 62
7
  6
CONTINUOUS
 10
-85.5462241123
 20
52.0
 11
-72.35
 21
52.0
  0
INSERT
  5
23A
100
AcDbEntity
  8
0
100
AcDbBlockReference
 62
7
  6
CONTINUOUS
  2
_FILLED
 10
-69.55
 20
52.0
 41
3.0
 42
3.0
 43
3.0
 50
180.0
  0
INSERT
  5
23B
100
AcDbEntity
  8
0
100
AcDbBlockReference
 62
7
  6
CONTINUOUS
  2
_FILLED
 10
-75.15
 20
52.0
 41
3.0
 42
3.0
 43
3.0
  0
ENDBLK
  5
23C
100
AcDbEntity
  8
0
  6
BYBLOCK
 62
0
100
AcDbBlockEnd
  0
BLOCK
  5
23D
100
AcDbEntity
  8
0
100
AcDbBlockBegin
 62
7
  6
CONTINUOUS
  2
*D3
 70
65
 10
0.0
 20
0.0
  3
*D3
  1

  0
MTEXT
  5
23E
100
AcDbEntity
  8
0
100
AcDbMText
 62
7
  6
CONTINUOUS
  7
STANDARD
 71
3
 72
1
 10
-79.1079374381
 20
65.75
 30
0.0
 11
1.0
 21
0.0
 31
0.0
 73
2
 44
0.9
  1
{\ftxt;\W0.0001;\H0.0001;\~}{\ftxt;\W2.6428571429;\H3.0; }{\ftxt;\W0.0001;\H0.0001;\~}
 40
3.0
 41
11.8928571429
  0
LINE
  5
23F
100
AcDbEntity
  8
0
100
AcDbLine
 62
7
  6
CONTINUOUS
 10
-75.15
 20
43.0
 11
-75.15
 21
63.5
  0
LINE
  5
240
100
AcDbEntity
  8
0
100
AcDbLine
 62
7
  6
CONTINUOUS
 10
-64.85
 20
16.9155181297
 11
-64.85
 21
63.5
  0
LINE
  5
241
100
AcDbEntity
  8
0
100
AcDbLine
 62
7
  6
CONTINUOUS
 10
-75.15
 20
62.0
 11
-87.0365088667
 21
62.0
  0
LINE
  5
242
100
AcDbEntity
  8
0
100
AcDbLine
 62
7
  6
CONTINUOUS
 10
-87.0365088667
 20
62.0
 11
-70.0
 21
62.0
  0
LINE
  5
243
100
AcDbEntity
  8
0
100
AcDbLine
 62
7
  6
CONTINUOUS
 10
-64.85
 20
62.0
 11
-60.85
 21
62.0
  0
LINE
  5
244
100
AcDbEntity
  8
0
100
AcDbLine
 62
7
  6
CONTINUOUS
 10
-60.85
 20
62.0
 11
-70.0
 21
62.0
  0
INSERT
  5
245
100
AcDbEntity
  8
0
100
AcDbBlockReference
 62
7
  6
CONTINUOUS
  2
_FILLED
 10
-75.15
 20
62.0
 41
3.0
 42
3.0
 43
3.0
  0
INSERT
  5
246
100
AcDbEntity
  8
0
100
AcDbBlockReference
 62
7
  6
CONTINUOUS
  2
_FILLED
 10
-64.85
 20
62.0
 41
3.0
 42
3.0
 43
3.0
 50
180.0
  0
ENDBLK
  5
247
100
AcDbEntity
  8
0
  6
BYBLOCK
 62
0
100
AcDbBlockEnd
  0
ENDSEC
  0
SECTION
  2
ENTITIES
  0
DIMENSION
  5
248
100
AcDbEntity
  8
0
100
AcDbDimension
 62
7
  6
CONTINUOUS
  2
*D0
 10
44.0
 20
52.0
 11
-0.4285713773
 21
52.0
 70
160
 71
2
 72
2
 41
0.9
 42
88.0
  1
{\ftxt;\W0.0001;\H0.0001;\~}{\ftxt;\W1.5714285714;\H3.0; }{\ftxt;\W0.0001;\H0.0001;\~}
  3
DIMSTYLE_1
100
AcDbAlignedDimension
 13
-44.0
 23
42.5
 14
44.0
 24
42.5
100
AcDbRotatedDimension
  0
DIMENSION
  5
249
100
AcDbEntity
  8
0
100
AcDbDimension
 62
7
  6
CONTINUOUS
  2
*D1
 10
52.0
 20
-44.0
 11
52.0
 21
-0.428571385
 70
160
 71
2
 72
2
 41
0.9
 42
88.0
  1
{\ftxt;\W0.0001;\H0.0001;\~}{\ftxt;\W1.5714285714;\H3.0; }{\ftxt;\W0.0001;\H0.0001;\~}
  3
DIMSTYLE_1
100
AcDbAlignedDimension
 13
42.5
 23
44.0
 14
42.5
 24
-44.0
 50
270.0
100
AcDbRotatedDimension
  0
DIMENSION
  5
24A
100
AcDbEntity
  8
0
100
AcDbDimension
 62
7
  6
CONTINUOUS
  2
*D2
 10
-75.15
 20
52.0
 11
-82.8676542206
 21
52.0
 70
160
 71
3
 72
2
 41
0.9
 42
5.6
  1
{\ftxt;\W0.0001;\H0.0001;\~}{\ftxt;\W2.0714285714;\H3.0; }{\ftxt;\W0.0001;\H0.0001;\~}
  3
DIMSTYLE_1
100
AcDbAlignedDimension
 13
-69.55
 23
41.7477309359
 14
-75.15
 24
42.5
 50
180.0
100
AcDbRotatedDimension
  0
DIMENSION
  5
24B
100
AcDbEntity
  8
0
100
AcDbDimension
 62
7
  6
CONTINUOUS
  2
*D3
 10
-64.85
 20
62.0
 11
-83.5007958984
 21
62.0
 70
160
 71
3
 72
2
 41
0.9
 42
10.3
  1
{\ftxt;\W0.0001;\H0.0001;\~}{\ftxt;\W2.6428571429;\H3.0; }{\ftxt;\W0.0001;\H0.0001;\~}
  3
DIMSTYLE_1
100
AcDbAlignedDimension
 13
-75.15
 23
42.5
 14
-64.85
 24
16.4155181297
100
AcDbRotatedDimension
  0
LINE
  5
24C
100
AcDbEntity
  8
0
100
AcDbLine
 62
7
  6
CONTINUOUS
 10
-44.0
 20
42.5
 11
-44.0
 21
-42.5
  0
LINE
  5
24D
100
AcDbEntity
  8
0
100
AcDbLine
 62
250
  6
CONTINUOUS
 10
-43.5
 20
42.5
 11
-43.5
 21
-42.5
  0
LINE
  5
24E
100
AcDbEntity
  8
0
100
AcDbLine
 62
250
  6
CONTINUOUS
 10
-42.5
 20
-43.5
 11
-42.5
 21
-44.0
  0
LINE
  5
24F
100
AcDbEntity
  8
0
100
AcDbLine
 62
250
  6
CONTINUOUS
 10
-42.5
 20
43.5
 11
-42.5
 21
44.0
  0
LINE
  5
250
100
AcDbEntity
  8
0
100
AcDbLine
 62
7
  6
CONTINUOUS
 10
-42.5
 20
-44.0
 11
42.5
 21
-44.0
  0
LINE
  5
251
100
AcDbEntity
  8
0
100
AcDbLine
 62
250
  6
CONTINUOUS
 10
-42.5
 20
-43.5
 11
42.5
 21
-43.5
  0
LINE
  5
252
100
AcDbEntity
  8
0
100
AcDbLine
 62
250
  6
CONTINUOUS
 10
43.5
 20
-42.5
 11
44.0
 21
-42.5
  0
LINE
  5
253
100
AcDbEntity
  8
0
100
AcDbLine
 62
250
  6
CONTINUOUS
 10
-43.5
 20
-42.5
 11
-44.0
 21
-42.5
  0
LINE
  5
254
100
AcDbEntity
  8
0
100
AcDbLine
 62
250
  6
CONTINUOUS
 10
22.175
 20
-27.125
 11
-22.175
 21
-27.125
  0
LINE
  5
255
100
AcDbEntity
  8
0
100
AcDbLine
 62
7
  6
CONTINUOUS
 10
22.175
 20
-26.825
 11
-22.175
 21
-26.825
  0
LINE
  5
256
100
AcDbEntity
  8
0
100
AcDbLine
 62
250
  6
CONTINUOUS
 10
-23.075
 20
-26.225
 11
-22.775
 21
-26.225
  0
LINE
  5
257
100
AcDbEntity
  8
0
100
AcDbLine
 62
250
  6
CONTINUOUS
 10
23.075
 20
-26.225
 11
22.775
 21
-26.225
  0
LINE
  5
258
100
AcDbEntity
  8
0
100
AcDbLine
 62
250
  6
CONTINUOUS
 10
-23.075
 20
-26.225
 11
-23.075
 21
26.225
  0
LINE
  5
259
100
AcDbEntity
  8
0
100
AcDbLine
 62
7
  6
CONTINUOUS
 10
-22.775
 20
-26.225
 11
-22.775
 21
26.225
  0
LINE
  5
25A
100
AcDbEntity
  8
0
100
AcDbLine
 62
250
  6
CONTINUOUS
 10
-22.175
 20
27.125
 11
-22.175
 21
26.825
  0
LINE
  5
25B
100
AcDbEntity
  8
0
100
AcDbLine
 62
250
  6
CONTINUOUS
 10
-22.175
 20
-27.125
 11
-22.175
 21
-26.825
  0
LWPOLYLINE
  5
25C
100
AcDbEntity
  8
0
100
AcDbPolyline
 62
7
  6
CONTINUOUS
 90
4
 70
0
 43
0.3500000006
 10
-2.3571427875
 20
53.1785711517
 10
-2.3571427875
 20
54.035713623
 10
-1.9285714102
 20
54.4642871246
 10
-1.2857142735
 20
54.4642871246
  0
LWPOLYLINE
  5
25D
100
AcDbEntity
  8
0
100
AcDbPolyline
 62
7
  6
CONTINUOUS
 90
4
 70
0
 43
0.3500000006
 10
0.0
 20
53.1785711517
 10
0.0
 20
54.035713623
 10
0.4285714127
 20
54.4642871246
 10
1.0714285848
 20
54.4642871246
  0
LWPOLYLINE
  5
25E
100
AcDbEntity
  8
0
100
AcDbPolyline
 62
7
  6
CONTINUOUS
 90
4
 70
0
 43
0.3500000006
 10
50.8214285431
 20
-2.3571432495
 10
49.9642860718
 20
-2.3571432495
 10
49.5357125702
 20
-1.9285708809
 10
49.5357125702
 20
-1.2857140274
  0
LWPOLYLINE
  5
25F
100
AcDbEntity
  8
0
100
AcDbPolyline
 62
7
  6
CONTINUOUS
 90
4
 70
0
 43
0.3500000006
 10
50.8214285431
 20
-0.0000003204
 10
49.9642860718
 20
-0.0000003204
 10
49.5357125702
 20
0.4285709152
 10
49.5357125702
 20
1.0714289017
  0
LINE
  5
260
100
AcDbEntity
  8
0
100
AcDbLine
 62
250
  6
CONTINUOUS
 10
22.175
 20
27.125
 11
22.175
 21
26.825
  0
LINE
  5
261
100
AcDbEntity
  8
0
100
AcDbLine
 62
250
  6
CONTINUOUS
 10
22.175
 20
-27.125
 11
22.175
 21
-26.825
  0
LINE
  5
262
100
AcDbEntity
  8
0
100
AcDbLine
 62
7
  6
CONTINUOUS
 10
22.775
 20
26.225
 11
22.775
 21
-26.225
  0
LINE
  5
263
100
AcDbEntity
  8
0
100
AcDbLine
 62
250
  6
CONTINUOUS
 10
23.075
 20
26.225
 11
23.075
 21
-26.225
  0
LINE
  5
264
100
AcDbEntity
  8
0
100
AcDbLine
 62
250
  6
CONTINUOUS
 10
-23.075
 20
26.225
 11
-22.775
 21
26.225
  0
LINE
  5
265
100
AcDbEntity
  8
0
100
AcDbLine
 62
250
  6
CONTINUOUS
 10
23.075
 20
26.225
 11
22.775
 21
26.225
  0
LINE
  5
266
100
AcDbEntity
  8
0
100
AcDbLine
 62
7
  6
CONTINUOUS
 10
-22.175
 20
26.825
 11
22.175
 21
26.825
  0
LINE
  5
267
100
AcDbEntity
  8
0
100
AcDbLine
 62
250
  6
CONTINUOUS
 10
-22.175
 20
27.125
 11
22.175
 21
27.125
  0
LWPOLYLINE
  5
268
100
AcDbEntity
  8
0
100
AcDbPolyline
 62
7
  6
CONTINUOUS
 90
13
 70
0
 43
0.3500000006
 10
49.5357125702
 20
0.4285709152
 10
49.3214280853
 20
0.1428575134
 10
48.6785700989
 20
0.1428575134
 10
48.2500011292
 20
0.4285709152
 10
48.2500011292
 20
1.0714289017
 10
48.6785700989
 20
1.3571423035
 10
49.3214280853
 20
1.3571423035
 10
49.5357125702
 20
1.0714289017
 10
49.9642860718
 20
1.5000001373
 10
50.8214285431
 20
1.5000001373
 10
51.2500020447
 20
1.0714289017
 10
51.2500020447
 20
0.4285709152
 10
50.8214285431
 20
-0.0000003204
  0
LWPOLYLINE
  5
269
100
AcDbEntity
  8
0
100
AcDbPolyline
 62
7
  6
CONTINUOUS
 90
13
 70
0
 43
0.3500000006
 10
49.5357125702
 20
-1.9285708809
 10
49.3214280853
 20
-2.2142854156
 10
48.6785700989
 20
-2.2142854156
 10
48.2500011292
 20
-1.9285708809
 10
48.2500011292
 20
-1.2857140274
 10
48.6785700989
 20
-1.0000006256
 10
49.3214280853
 20
-1.0000006256
 10
49.5357125702
 20
-1.2857140274
 10
49.9642860718
 20
-0.8571427917
 10
50.8214285431
 20
-0.8571427917
 10
51.2500020447
 20
-1.2857140274
 10
51.2500020447
 20
-1.9285708809
 10
50.8214285431
 20
-2.3571432495
  0
LINE
  5
26A
100
AcDbEntity
  8
0
100
AcDbLine
 62
250
  6
CONTINUOUS
 10
42.5
 20
-43.5
 11
42.5
 21
-44.0
  0
LINE
  5
26B
100
AcDbEntity
  8
0
100
AcDbLine
 62
250
  6
CONTINUOUS
 10
42.5
 20
43.5
 11
42.5
 21
44.0
  0
LINE
  5
26C
100
AcDbEntity
  8
0
100
AcDbLine
 62
250
  6
CONTINUOUS
 10
43.5
 20
-42.5
 11
43.5
 21
42.5
  0
LINE
  5
26D
100
AcDbEntity
  8
0
100
AcDbLine
 62
7
  6
CONTINUOUS
 10
44.0
 20
-42.5
 11
44.0
 21
42.5
  0
LINE
  5
26E
100
AcDbEntity
  8
0
100
AcDbLine
 62
250
  6
CONTINUOUS
 10
43.5
 20
42.5
 11
44.0
 21
42.5
  0
LINE
  5
26F
100
AcDbEntity
  8
0
100
AcDbLine
 62
250
  6
CONTINUOUS
 10
-43.5
 20
42.5
 11
-44.0
 21
42.5
  0
LINE
  5
270
100
AcDbEntity
  8
0
100
AcDbLine
 62
250
  6
CONTINUOUS
 10
42.5
 20
43.5
 11
-42.5
 21
43.5
  0
LINE
  5
271
100
AcDbEntity
  8
0
100
AcDbLine
 62
7
  6
CONTINUOUS
 10
42.5
 20
44.0
 11
-42.5
 21
44.0
  0
LWPOLYLINE
  5
272
100
AcDbEntity
  8
0
100
AcDbPolyline
 62
7
  6
CONTINUOUS
 90
13
 70
0
 43
0.3500000006
 10
-1.9285714102
 20
54.4642871246
 10
-2.2142856617
 20
54.6785716095
 10
-2.2142856617
 20
55.3214295959
 10
-1.9285714102
 20
55.7499985657
 10
-1.2857142735
 20
55.7499985657
 10
-1.0000000219
 20
55.3214295959
 10
-1.0000000219
 20
54.6785716095
 10
-1.2857142735
 20
54.4642871246
 10
-0.8571428254
 20
54.035713623
 10
-0.8571428254
 20
53.1785711517
 10
-1.2857142735
 20
52.750002182
 10
-1.9285714102
 20
52.750002182
 10
-2.3571427875
 20
53.1785711517
  0
LWPOLYLINE
  5
273
100
AcDbEntity
  8
0
100
AcDbPolyline
 62
7
  6
CONTINUOUS
 90
13
 70
0
 43
0.3500000006
 10
0.4285714127
 20
54.4642871246
 10
0.1428571435
 20
54.6785716095
 10
0.1428571435
 20
55.3214295959
 10
0.4285714127
 20
55.7499985657
 10
1.0714285848
 20
55.7499985657
 10
1.3571429071
 20
55.3214295959
 10
1.3571429071
 20
54.6785716095
 10
1.0714285848
 20
54.4642871246
 10
1.5000000329
 20
54.035713623
 10
1.5000000329
 20
53.1785711517
 10
1.0714285848
 20
52.750002182
 10
0.4285714127
 20
52.750002182
 10
0.0
 20
53.1785711517
  0
LWPOLYLINE
  5
274
100
AcDbEntity
  8
0
100
AcDbPolyline
 62
7
  6
CONTINUOUS
 90
3
 70
0
 43
0.3500000006
 10
-87.0365080261
 20
64.8928546143
 10
-86.1793700867
 20
65.7500016174
 10
-86.1793700867
 20
62.7500007019
  0
LWPOLYLINE
  5
275
100
AcDbEntity
  8
0
100
AcDbPolyline
 62
7
  6
CONTINUOUS
 90
10
 70
0
 43
0.3500000006
 10
-80.6176535339
 20
55.7499985657
 10
-81.2605069885
 20
55.1071451111
 10
-81.689085022
 20
54.2499981079
 10
-81.689085022
 20
53.1785711517
 10
-81.2605069885
 20
52.750002182
 10
-80.6176535339
 20
52.750002182
 10
-80.1890845642
 20
53.1785711517
 10
-80.1890845642
 20
54.035713623
 10
-80.6176535339
 20
54.4642871246
 10
-81.5462226563
 20
54.4642871246
  0
LWPOLYLINE
  5
276
100
AcDbEntity
  8
0
100
AcDbPolyline
 62
7
  6
CONTINUOUS
 90
5
 70
0
 43
0.3500000006
 10
-80.3936527405
 20
64.4642856445
 10
-80.0365058899
 20
64.6785701294
 10
-80.0365058899
 20
65.3214326477
 10
-80.3936527405
 20
65.7500016174
 10
-81.2507906799
 20
65.7500016174
  0
LINE
  5
277
100
AcDbEntity
  8
0
100
AcDbLine
 62
7
  6
CONTINUOUS
 10
-74.65
 20
-44.0
 11
-71.45
 21
-44.0
  0
LINE
  5
278
100
AcDbEntity
  8
RACCORDO
100
AcDbLine
 62
7
  6
CONTINUOUS
 10
-69.7447646103
 20
-42.4474910634
 11
-71.4502055698
 21
-42.4921496066
  0
LINE
  5
279
100
AcDbEntity
  8
RACCORDO
100
AcDbLine
 62
250
  6
CONTINUOUS
 10
-69.7447646103
 20
-41.7477309359
 11
-71.45
 21
-41.792384096
  0
LINE
  5
27A
100
AcDbEntity
  8
0
100
AcDbLine
 62
250
  6
CONTINUOUS
 10
-75.15
 20
-42.5
 11
-71.45
 21
-42.5
  0
LINE
  5
27B
100
AcDbEntity
  8
RACCORDO
100
AcDbLine
 62
250
  6
CONTINUOUS
 10
-69.55
 20
-41.7477309359
 11
-69.7447646103
 21
-41.7477309359
  0
LINE
  5
27C
100
AcDbEntity
  8
CURVE
100
AcDbLine
 62
250
  6
CONTINUOUS
 10
-72.926302
 20
-37.66486
 11
-74.302853
 21
-38.046066
  0
LINE
  5
27D
100
AcDbEntity
  8
CURVE
100
AcDbLine
 62
250
  6
CONTINUOUS
 10
-72.303015
 20
-36.699936
 11
-74.302973
 21
-36.699936
  0
LINE
  5
27E
100
AcDbEntity
  8
CURVE
100
AcDbLine
 62
250
  6
CONTINUOUS
 10
-74.302973
 20
-36.282492
 11
-72.303015
 21
-36.282492
  0
LINE
  5
27F
100
AcDbEntity
  8
CURVE
100
AcDbLine
 62
250
  6
CONTINUOUS
 10
-72.303015
 20
-35.65841
 11
-73.608872
 21
-35.568326
  0
LINE
  5
280
100
AcDbEntity
  8
CURVE
100
AcDbLine
 62
250
  6
CONTINUOUS
 10
-74.302853
 20
-35.877194
 11
-72.303015
 21
-36.057768
  0
LINE
  5
281
100
AcDbEntity
  8
CURVE
100
AcDbLine
 62
250
  6
CONTINUOUS
 10
-74.302853
 20
-37.272011
 11
-72.926302
 21
-37.66486
  0
LINE
  5
282
100
AcDbEntity
  8
CURVE
100
AcDbLine
 62
250
  6
CONTINUOUS
 10
-72.303015
 20
-37.497679
 11
-74.302853
 21
-36.854851
  0
LINE
  5
283
100
AcDbEntity
  8
CURVE
100
AcDbLine
 62
250
  6
CONTINUOUS
 10
-72.303015
 20
-34.029587
 11
-74.302853
 21
-34.216594
  0
LINE
  5
284
100
AcDbEntity
  8
CURVE
100
AcDbLine
 62
250
  6
CONTINUOUS
 10
-73.603427
 20
-34.523725
 11
-72.303015
 21
-34.437958
  0
LINE
  5
285
100
AcDbEntity
  8
CURVE
100
AcDbLine
 62
250
  6
CONTINUOUS
 10
-72.3030147347
 20
-32.1967511684
 11
-74.2794875818
 21
-32.1967511684
  0
LINE
  5
286
100
AcDbEntity
  8
CURVE
100
AcDbLine
 62
250
  6
CONTINUOUS
 10
-73.011183
 20
-33.350542
 11
-73.753348
 21
-33.14269
  0
LINE
  5
287
100
AcDbEntity
  8
CURVE
100
AcDbLine
 62
250
  6
CONTINUOUS
 10
-72.303015
 20
-33.551121
 11
-72.702254
 21
-33.435933
  0
LINE
  5
288
100
AcDbEntity
  8
CURVE
100
AcDbLine
 62
250
  6
CONTINUOUS
 10
-74.302853
 20
-33.33676
 11
-72.303015
 21
-33.964037
  0
LINE
  5
289
100
AcDbEntity
  8
CURVE
100
AcDbLine
 62
250
  6
CONTINUOUS
 10
-74.302853
 20
-34.629615
 11
-73.192537
 21
-35.047059
  0
LINE
  5
28A
100
AcDbEntity
  8
CURVE
100
AcDbLine
 62
250
  6
CONTINUOUS
 10
-72.303015
 20
-35.020066
 11
-73.603427
 21
-34.523725
  0
LWPOLYLINE
  5
28B
100
AcDbEntity
  8
0
100
AcDbPolyline
 62
7
  6
CONTINUOUS
 90
3
 70
0
 43
0.3500000006
 10
-82.2507909851
 20
63.0357163696
 10
-82.322222168
 20
62.8214318848
 10
-82.4650845337
 20
62.535716217
  0
LINE
  5
28C
100
AcDbEntity
  8
CURVE
100
AcDbLine
 62
250
  6
CONTINUOUS
 10
-72.702254
 20
-32.867443
 11
-72.303015
 21
-32.759302
  0
LINE
  5
28D
100
AcDbEntity
  8
CURVE
100
AcDbLine
 62
250
  6
CONTINUOUS
 10
-73.753348
 20
-33.14269
 11
-73.011183
 21
-32.950869
  0
LINE
  5
28E
100
AcDbEntity
  8
CURVE
100
AcDbLine
 62
250
  6
CONTINUOUS
 10
-73.9621601761
 20
-31.7948281153
 11
-73.4131657682
 21
-31.7948281153
  0
LINE
  5
28F
100
AcDbEntity
  8
CURVE
100
AcDbLine
 62
250
  6
CONTINUOUS
 10
-73.0856406953
 20
-31.7809862819
 11
-72.3030147347
 21
-31.7809862819
  0
LINE
  5
290
100
AcDbEntity
  8
CURVE
100
AcDbLine
 62
250
  6
CONTINUOUS
 10
-73.2483384753
 20
-31.1235216885
 11
-73.2365211787
 21
-31.1235216885
  0
LWPOLYLINE
  5
291
100
AcDbEntity
  8
0
100
AcDbPolyline
 62
7
  6
CONTINUOUS
 90
3
 70
0
 43
0.3500000006
 10
-82.6890853271
 20
53.0357133179
 10
-82.7605074463
 20
52.821428833
 10
-82.903369812
 20
52.5357131653
  0
LINE
  5
292
100
AcDbEntity
  8
RACCORDO
100
AcDbLine
 62
7
  6
CONTINUOUS
 10
-64.85
 20
-17.4082863863
 11
-69.55
 21
-17.6546029489
  0
LINE
  5
293
100
AcDbEntity
  8
RACCORDO
100
AcDbLine
 62
250
  6
CONTINUOUS
 10
-65.2600726589
 20
-17.2323039884
 11
-69.55
 21
-17.4571295537
  0
LWPOLYLINE
  5
294
100
AcDbEntity
  8
0
100
AcDbPolyline
 62
7
  6
CONTINUOUS
 90
13
 70
0
 43
0.3500000006
 10
-85.3222230835
 20
63.6071386414
 10
-85.3222230835
 20
64.8928546143
 10
-85.1079385986
 20
65.3214326477
 10
-84.6793696289
 20
65.7500016174
 10
-84.4650760803
 20
65.7500016174
 10
-84.0365071106
 20
65.3214326477
 10
-83.8222226257
 20
64.8928546143
 10
-83.8222226257
 20
63.6071386414
 10
-84.0365071106
 20
63.1785696716
 10
-84.4650760803
 20
62.7500007019
 10
-84.6793696289
 20
62.7500007019
 10
-85.1079385986
 20
63.1785696716
 10
-85.3222230835
 20
63.6071386414
  0
LINE
  5
295
100
AcDbEntity
  8
RACCORDO
100
AcDbLine
 62
7
  6
CONTINUOUS
 10
-65.0453497523
 20
-14.936253283
 11
-69.55
 21
-14.9755647702
  0
LINE
  5
296
100
AcDbEntity
  8
RACCORDO
100
AcDbLine
 62
250
  6
CONTINUOUS
 10
-69.55
 20
-14.7760235853
 11
-65.2600726589
 21
-14.7385859566
  0
LINE
  5
297
100
AcDbEntity
  8
RACCORDO
100
AcDbLine
 62
250
  6
CONTINUOUS
 10
-64.85
 20
-15.1844818703
 11
-69.55
 21
-15.2252895186
  0
LINE
  5
298
100
AcDbEntity
  8
RACCORDO
100
AcDbLine
 62
250
  6
CONTINUOUS
 10
-65.2600726589
 20
-16.8614140434
 11
-69.55
 21
-16.8239764147
  0
LINE
  5
299
100
AcDbEntity
  8
RACCORDO
100
AcDbLine
 62
7
  6
CONTINUOUS
 10
-65.0453497523
 20
-16.663746717
 11
-69.55
 21
-16.6244352298
  0
LINE
  5
29A
100
AcDbEntity
  8
RACCORDO
100
AcDbLine
 62
250
  6
CONTINUOUS
 10
-69.55
 20
-16.3747104814
 11
-64.85
 21
-16.4155181297
  0
LINE
  5
29B
100
AcDbEntity
  8
RACCORDO
100
AcDbLine
 62
250
  6
CONTINUOUS
 10
-69.55
 20
-14.1428704463
 11
-65.2600726589
 21
-14.3676960116
  0
LINE
  5
29C
100
AcDbEntity
  8
RACCORDO
100
AcDbLine
 62
7
  6
CONTINUOUS
 10
-69.55
 20
-13.9453970511
 11
-64.85
 21
-14.1917136137
  0
LINE
  5
29D
100
AcDbEntity
  8
0
100
AcDbLine
 62
7
  6
CONTINUOUS
 10
-75.15
 20
-43.5
 11
-75.15
 21
43.5
  0
LINE
  5
29E
100
AcDbEntity
  8
0
100
AcDbLine
 62
250
  6
CONTINUOUS
 10
-74.65
 20
-44.0
 11
-74.65
 21
44.0
  0
LINE
  5
29F
100
AcDbEntity
  8
CURVE
100
AcDbLine
 62
250
  6
CONTINUOUS
 10
-74.302973
 20
-36.699936
 11
-74.302973
 21
-36.282492
  0
LINE
  5
2A0
100
AcDbEntity
  8
CURVE
100
AcDbLine
 62
250
  6
CONTINUOUS
 10
-74.302853
 20
-32.932933
 11
-74.302853
 21
-33.33676
  0
LINE
  5
2A1
100
AcDbEntity
  8
CURVE
100
AcDbLine
 62
250
  6
CONTINUOUS
 10
-74.302853
 20
-34.216594
 11
-74.302853
 21
-34.629615
  0
LINE
  5
2A2
100
AcDbEntity
  8
CURVE
100
AcDbLine
 62
250
  6
CONTINUOUS
 10
-74.302853
 20
-35.460095
 11
-74.302853
 21
-35.877194
  0
LINE
  5
2A3
100
AcDbEntity
  8
CURVE
100
AcDbLine
 62
250
  6
CONTINUOUS
 10
-74.302853
 20
-36.854851
 11
-74.302853
 21
-37.272011
  0
LINE
  5
2A4
100
AcDbEntity
  8
CURVE
100
AcDbLine
 62
250
  6
CONTINUOUS
 10
-74.302853
 20
-38.046066
 11
-74.302853
 21
-38.499539
  0
LINE
  5
2A5
100
AcDbEntity
  8
CURVE
100
AcDbLine
 62
250
  6
CONTINUOUS
 10
-73.4131657682
 20
-31.7948281153
 11
-73.4131657682
 21
-31.5562626914
  0
LINE
  5
2A6
100
AcDbEntity
  8
CURVE
100
AcDbLine
 62
250
  6
CONTINUOUS
 10
-73.0856406953
 20
-31.5571624855
 11
-73.0856406953
 21
-31.7809862819
  0
LINE
  5
2A7
100
AcDbEntity
  8
CURVE
100
AcDbLine
 62
250
  6
CONTINUOUS
 10
-73.011183
 20
-32.950869
 11
-73.011183
 21
-33.350542
  0
LINE
  5
2A8
100
AcDbEntity
  8
CURVE
100
AcDbLine
 62
250
  6
CONTINUOUS
 10
-72.702254
 20
-33.435933
 11
-72.702254
 21
-32.867443
  0
LINE
  5
2A9
100
AcDbEntity
  8
CURVE
100
AcDbLine
 62
250
  6
CONTINUOUS
 10
-72.303015
 20
-37.865552
 11
-72.303015
 21
-37.497679
  0
LINE
  5
2AA
100
AcDbEntity
  8
CURVE
100
AcDbLine
 62
250
  6
CONTINUOUS
 10
-72.303015
 20
-36.057768
 11
-72.303015
 21
-35.65841
  0
LINE
  5
2AB
100
AcDbEntity
  8
CURVE
100
AcDbLine
 62
250
  6
CONTINUOUS
 10
-72.303015
 20
-35.078612
 11
-72.303015
 21
-35.020066
  0
LINE
  5
2AC
100
AcDbEntity
  8
CURVE
100
AcDbLine
 62
250
  6
CONTINUOUS
 10
-72.303015
 20
-34.437958
 11
-72.303015
 21
-34.029587
  0
LINE
  5
2AD
100
AcDbEntity
  8
CURVE
100
AcDbLine
 62
250
  6
CONTINUOUS
 10
-72.303015
 20
-33.964037
 11
-72.303015
 21
-33.551121
  0
LINE
  5
2AE
100
AcDbEntity
  8
CURVE
100
AcDbLine
 62
250
  6
CONTINUOUS
 10
-72.303015
 20
-32.759302
 11
-72.303015
 21
-32.319333
  0
LINE
  5
2AF
100
AcDbEntity
  8
CURVE
100
AcDbLine
 62
250
  6
CONTINUOUS
 10
-72.303015
 20
-36.282492
 11
-72.303015
 21
-36.699936
  0
LINE
  5
2B0
100
AcDbEntity
  8
CURVE
100
AcDbLine
 62
250
  6
CONTINUOUS
 10
-72.3030147347
 20
-30.7401943813
 11
-72.3030147347
 21
-31.1417275236
  0
LINE
  5
2B1
100
AcDbEntity
  8
CURVE
100
AcDbLine
 62
250
  6
CONTINUOUS
 10
-72.3030147347
 20
-31.7809862819
 11
-72.3030147347
 21
-32.1967511684
  0
LINE
  5
2B2
100
AcDbEntity
  8
0
100
AcDbLine
 62
7
  6
CONTINUOUS
 10
-71.45
 20
-44.0
 11
-71.45
 21
44.0
  0
LINE
  5
2B3
100
AcDbEntity
  8
RACCORDO
100
AcDbLine
 62
250
  6
CONTINUOUS
 10
-69.7447646103
 20
41.7477309359
 11
-69.7447646103
 21
-41.7477309359
  0
LINE
  5
2B4
100
AcDbEntity
  8
RACCORDO
100
AcDbLine
 62
7
  6
CONTINUOUS
 10
-69.55
 20
-42.2475595984
 11
-69.55
 21
42.2475595984
  0
LINE
  5
2B5
100
AcDbEntity
  8
RACCORDO
100
AcDbLine
 62
250
  6
CONTINUOUS
 10
-67.797297406
 20
16.3900060852
 11
-67.797297406
 21
15.2099939148
  0
LINE
  5
2B6
100
AcDbEntity
  8
RACCORDO
100
AcDbLine
 62
250
  6
CONTINUOUS
 10
-67.797297406
 20
-16.3900060852
 11
-67.797297406
 21
-15.2099939148
  0
LINE
  5
2B7
100
AcDbEntity
  8
RACCORDO
100
AcDbLine
 62
250
  6
CONTINUOUS
 10
-67.7016707105
 20
16.3906319764
 11
-67.7016707105
 21
15.2093680236
  0
LINE
  5
2B8
100
AcDbEntity
  8
RACCORDO
100
AcDbLine
 62
250
  6
CONTINUOUS
 10
-67.7016707105
 20
-16.3906319764
 11
-67.7016707105
 21
-15.2093680236
  0
LINE
  5
2B9
100
AcDbEntity
  8
RACCORDO
100
AcDbLine
 62
7
  6
CONTINUOUS
 10
-65.2600726589
 20
17.2323039884
 11
-65.2600726589
 21
16.8614140434
  0
LINE
  5
2BA
100
AcDbEntity
  8
RACCORDO
100
AcDbLine
 62
7
  6
CONTINUOUS
 10
-65.2600726589
 20
14.7385859566
 11
-65.2600726589
 21
14.3676960116
  0
LINE
  5
2BB
100
AcDbEntity
  8
RACCORDO
100
AcDbLine
 62
7
  6
CONTINUOUS
 10
-65.2600726589
 20
-17.2323039884
 11
-65.2600726589
 21
-16.8614140434
  0
LINE
  5
2BC
100
AcDbEntity
  8
RACCORDO
100
AcDbLine
 62
7
  6
CONTINUOUS
 10
-65.2600726589
 20
-14.7385859566
 11
-65.2600726589
 21
-14.3676960116
  0
LINE
  5
2BD
100
AcDbEntity
  8
RACCORDO
100
AcDbLine
 62
7
  6
CONTINUOUS
 10
-64.85
 20
-14.1917136137
 11
-64.85
 21
-17.4082863863
  0
LINE
  5
2BE
100
AcDbEntity
  8
RACCORDO
100
AcDbLine
 62
7
  6
CONTINUOUS
 10
-64.85
 20
14.1917136137
 11
-64.85
 21
17.4082863863
  0
LINE
  5
2BF
100
AcDbEntity
  8
RACCORDO
100
AcDbLine
 62
7
  6
CONTINUOUS
 10
-64.85
 20
14.1917136137
 11
-69.55
 21
13.9453970511
  0
LINE
  5
2C0
100
AcDbEntity
  8
RACCORDO
100
AcDbLine
 62
250
  6
CONTINUOUS
 10
-65.2600726589
 20
14.3676960116
 11
-69.55
 21
14.1428704463
  0
LINE
  5
2C1
100
AcDbEntity
  8
RACCORDO
100
AcDbLine
 62
250
  6
CONTINUOUS
 10
-65.2600726589
 20
14.7385859566
 11
-69.55
 21
14.7760235853
  0
LINE
  5
2C2
100
AcDbEntity
  8
RACCORDO
100
AcDbLine
 62
7
  6
CONTINUOUS
 10
-65.0453497523
 20
14.936253283
 11
-69.55
 21
14.9755647702
  0
LWPOLYLINE
  5
2C3
100
AcDbEntity
  8
0
100
AcDbPolyline
 62
7
  6
CONTINUOUS
 90
10
 70
0
 43
0.3500000006
 10
-82.7605074463
 20
53.2499978027
 10
-82.6890853271
 20
53.1071445007
 10
-82.6890853271
 20
53.0357133179
 10
-82.8319386292
 20
52.892855484
 10
-82.903369812
 20
52.892855484
 10
-82.9747919312
 20
52.9642866669
 10
-82.9747919312
 20
53.0357133179
 10
-82.903369812
 20
53.1785711517
 10
-82.8319386292
 20
53.2499978027
 10
-82.7605074463
 20
53.2499978027
  0
LINE
  5
2C4
100
AcDbEntity
  8
RACCORDO
100
AcDbLine
 62
7
  6
CONTINUOUS
 10
-65.0453497523
 20
16.663746717
 11
-69.55
 21
16.6244352298
  0
LINE
  5
2C5
100
AcDbEntity
  8
RACCORDO
100
AcDbLine
 62
250
  6
CONTINUOUS
 10
-69.55
 20
16.8239764147
 11
-65.2600726589
 21
16.8614140434
  0
LINE
  5
2C6
100
AcDbEntity
  8
RACCORDO
100
AcDbLine
 62
250
  6
CONTINUOUS
 10
-64.85
 20
16.4155181297
 11
-69.55
 21
16.3747104814
  0
LINE
  5
2C7
100
AcDbEntity
  8
RACCORDO
100
AcDbLine
 62
250
  6
CONTINUOUS
 10
-69.55
 20
15.2252895186
 11
-64.85
 21
15.1844818703
  0
LINE
  5
2C8
100
AcDbEntity
  8
RACCORDO
100
AcDbLine
 62
250
  6
CONTINUOUS
 10
-69.55
 20
17.4571295537
 11
-65.2600726589
 21
17.2323039884
  0
LINE
  5
2C9
100
AcDbEntity
  8
RACCORDO
100
AcDbLine
 62
7
  6
CONTINUOUS
 10
-69.55
 20
17.6546029489
 11
-64.85
 21
17.4082863863
  0
LWPOLYLINE
  5
2CA
100
AcDbEntity
  8
0
100
AcDbPolyline
 62
7
  6
CONTINUOUS
 90
10
 70
0
 43
0.3500000006
 10
-82.322222168
 20
63.2500008545
 10
-82.2507909851
 20
63.1071384888
 10
-82.2507909851
 20
63.0357163696
 10
-82.3936533508
 20
62.8928540039
 10
-82.4650845337
 20
62.8928540039
 10
-82.5365066528
 20
62.9642851868
 10
-82.5365066528
 20
63.0357163696
 10
-82.4650845337
 20
63.1785696716
 10
-82.3936533508
 20
63.2500008545
 10
-82.322222168
 20
63.2500008545
  0
LINE
  5
2CB
100
AcDbEntity
  8
CURVE
100
AcDbLine
 62
250
  6
CONTINUOUS
 10
-73.608872
 20
-35.568326
 11
-72.303015
 21
-35.078612
  0
LINE
  5
2CC
100
AcDbEntity
  8
CURVE
100
AcDbLine
 62
250
  6
CONTINUOUS
 10
-73.192537
 20
-35.047059
 11
-74.302853
 21
-35.460095
  0
LINE
  5
2CD
100
AcDbEntity
  8
CURVE
100
AcDbLine
 62
250
  6
CONTINUOUS
 10
-72.303015
 20
-32.319333
 11
-74.302853
 21
-32.932933
  0
LINE
  5
2CE
100
AcDbEntity
  8
CURVE
100
AcDbLine
 62
250
  6
CONTINUOUS
 10
-74.302853
 20
-38.499539
 11
-72.303015
 21
-37.865552
  0
LINE
  5
2CF
100
AcDbEntity
  8
RACCORDO
100
AcDbLine
 62
250
  6
CONTINUOUS
 10
-69.55
 20
41.7477309359
 11
-69.7447646103
 21
41.7477309359
  0
LINE
  5
2D0
100
AcDbEntity
  8
0
100
AcDbLine
 62
250
  6
CONTINUOUS
 10
-75.15
 20
42.5
 11
-71.45
 21
42.5
  0
LINE
  5
2D1
100
AcDbEntity
  8
0
100
AcDbLine
 62
7
  6
CONTINUOUS
 10
-74.65
 20
44.0
 11
-71.45
 21
44.0
  0
LWPOLYLINE
  5
2D2
100
AcDbEntity
  8
0
100
AcDbPolyline
 62
7
  6
CONTINUOUS
 90
8
 70
0
 43
0.3500000006
 10
-85.546223877
 20
52.750002182
 10
-84.6890768738
 20
52.750002182
 10
-84.2605079041
 20
53.1785711517
 10
-84.2605079041
 20
54.035713623
 10
-84.6890768738
 20
54.4642871246
 10
-85.546223877
 20
54.4642871246
 10
-85.546223877
 20
55.7499985657
 10
-84.2605079041
 20
55.7499985657
  0
LWPOLYLINE
  5
2D3
100
AcDbEntity
  8
0
100
AcDbPolyline
 62
7
  6
CONTINUOUS
 90
6
 70
0
 43
0.3500000006
 10
-81.2507906799
 20
62.7500007019
 10
-80.1793682556
 20
62.7500007019
 10
-79.9650837708
 20
62.9642851868
 10
-79.9650837708
 20
64.0357166748
 10
-80.3936527405
 20
64.4642856445
 10
-80.8222217102
 20
64.4642856445
  0
LINE
  5
2D4
100
AcDbEntity
  8
RACCORDO
100
AcDbLine
 62
250
  6
CONTINUOUS
 10
-71.45
 20
41.792384096
 11
-69.7447646103
 21
41.7477309359
  0
LINE
  5
2D5
100
AcDbEntity
  8
RACCORDO
100
AcDbLine
 62
7
  6
CONTINUOUS
 10
-71.4502055698
 20
42.4921496066
 11
-69.7447646103
 21
42.4474910634
  0
ARC
  5
2D6
100
AcDbEntity
  8
0
100
AcDbCircle
 62
7
  6
CONTINUOUS
 10
-42.5
 20
-42.5
 40
1.5
100
AcDbArc
 50
180.0
 51
270.0
  0
ARC
  5
2D7
100
AcDbEntity
  8
0
100
AcDbCircle
 62
7
  6
CONTINUOUS
 10
42.5
 20
-42.5
 40
1.5
100
AcDbArc
 50
270.0
 51
360.0
  0
ARC
  5
2D8
100
AcDbEntity
  8
0
100
AcDbCircle
 62
7
  6
CONTINUOUS
 10
42.5
 20
42.5
 40
1.5
100
AcDbArc
 50
0.0
 51
90.0
  0
ARC
  5
2D9
100
AcDbEntity
  8
0
100
AcDbCircle
 62
7
  6
CONTINUOUS
 10
-42.5
 20
42.5
 40
1.5
100
AcDbArc
 50
90.0
 51
180.0
  0
ARC
  5
2DA
100
AcDbEntity
  8
RACCORDO
100
AcDbCircle
 62
7
  6
CONTINUOUS
 10
-23.925
 20
20.0
 40
1.2
100
AcDbArc
 50
343.4941069308
 51
16.5058930657
  0
ARC
  5
2DB
100
AcDbEntity
  8
RACCORDO
100
AcDbCircle
 62
7
  6
CONTINUOUS
 10
-23.925
 20
-20.0
 40
1.2
100
AcDbArc
 50
343.4941069308
 51
16.5058930657
  0
ARC
  5
2DC
100
AcDbEntity
  8
RACCORDO
100
AcDbCircle
 62
7
  6
CONTINUOUS
 10
23.925
 20
20.0
 40
1.2
100
AcDbArc
 50
163.4941069308
 51
196.5058930657
  0
ARC
  5
2DD
100
AcDbEntity
  8
RACCORDO
100
AcDbCircle
 62
7
  6
CONTINUOUS
 10
23.925
 20
-20.0
 40
1.2
100
AcDbArc
 50
163.4941069308
 51
196.5058930657
  0
ARC
  5
2DE
100
AcDbEntity
  8
RACCORDO
100
AcDbCircle
 62
250
  6
CONTINUOUS
 10
-23.925
 20
20.0
 40
1.1947025539
100
AcDbArc
 50
344.3671945335
 51
15.632805483
  0
ARC
  5
2DF
100
AcDbEntity
  8
RACCORDO
100
AcDbCircle
 62
250
  6
CONTINUOUS
 10
-23.925
 20
-20.0
 40
1.1947025539
100
AcDbArc
 50
344.3671945334
 51
15.632805483
  0
ARC
  5
2E0
100
AcDbEntity
  8
RACCORDO
100
AcDbCircle
 62
250
  6
CONTINUOUS
 10
23.925
 20
20.0
 40
1.1947025539
100
AcDbArc
 50
164.3671945334
 51
195.632805483
  0
ARC
  5
2E1
100
AcDbEntity
  8
RACCORDO
100
AcDbCircle
 62
7
  6
CONTINUOUS
 10
23.925
 20
-20.0
 40
1.1912724675
100
AcDbArc
 50
164.9403434913
 51
195.0596565082
  0
ARC
  5
2E2
100
AcDbEntity
  8
0
100
AcDbCircle
 62
250
  6
CONTINUOUS
 10
-42.5
 20
42.5
 40
1.0
100
AcDbArc
 50
90.0
 51
180.0
  0
ARC
  5
2E3
100
AcDbEntity
  8
0
100
AcDbCircle
 62
250
  6
CONTINUOUS
 10
42.5
 20
42.5
 40
1.0
100
AcDbArc
 50
0.0
 51
90.0
  0
ARC
  5
2E4
100
AcDbEntity
  8
0
100
AcDbCircle
 62
250
  6
CONTINUOUS
 10
42.5
 20
-42.5
 40
1.0
100
AcDbArc
 50
270.0
 51
360.0
  0
ARC
  5
2E5
100
AcDbEntity
  8
0
100
AcDbCircle
 62
250
  6
CONTINUOUS
 10
-42.5
 20
-42.5
 40
1.0
100
AcDbArc
 50
180.0
 51
270.0
  0
ARC
  5
2E6
100
AcDbEntity
  8
0
100
AcDbCircle
 62
250
  6
CONTINUOUS
 10
22.175
 20
-26.225
 40
0.9
100
AcDbArc
 50
270.0
 51
360.0
  0
ARC
  5
2E7
100
AcDbEntity
  8
0
100
AcDbCircle
 62
250
  6
CONTINUOUS
 10
22.175
 20
26.225
 40
0.9
100
AcDbArc
 50
0.0
 51
90.0
  0
ARC
  5
2E8
100
AcDbEntity
  8
0
100
AcDbCircle
 62
250
  6
CONTINUOUS
 10
-22.175
 20
26.225
 40
0.9
100
AcDbArc
 50
90.0
 51
180.0
  0
ARC
  5
2E9
100
AcDbEntity
  8
0
100
AcDbCircle
 62
250
  6
CONTINUOUS
 10
-22.175
 20
-26.225
 40
0.9
100
AcDbArc
 50
180.0
 51
270.0
  0
ARC
  5
2EA
100
AcDbEntity
  8
0
100
AcDbCircle
 62
7
  6
CONTINUOUS
 10
-22.175
 20
-26.225
 40
0.6
100
AcDbArc
 50
180.0
 51
270.0
  0
ARC
  5
2EB
100
AcDbEntity
  8
0
100
AcDbCircle
 62
7
  6
CONTINUOUS
 10
-22.175
 20
26.225
 40
0.6
100
AcDbArc
 50
90.0
 51
180.0
  0
ARC
  5
2EC
100
AcDbEntity
  8
0
100
AcDbCircle
 62
7
  6
CONTINUOUS
 10
22.175
 20
26.225
 40
0.6
100
AcDbArc
 50
0.0
 51
90.0
  0
ARC
  5
2ED
100
AcDbEntity
  8
0
100
AcDbCircle
 62
7
  6
CONTINUOUS
 10
22.175
 20
-26.225
 40
0.6
100
AcDbArc
 50
270.0
 51
360.0
  0
ARC
  5
2EE
100
AcDbEntity
  8
0
100
AcDbCircle
 62
7
  6
CONTINUOUS
 10
-74.65
 20
43.5
 40
0.5
100
AcDbArc
 50
90.0
 51
180.0
  0
ARC
  5
2EF
100
AcDbEntity
  8
0
100
AcDbCircle
 62
7
  6
CONTINUOUS
 10
-74.65
 20
-43.5
 40
0.5
100
AcDbArc
 50
180.0
 51
270.0
  0
ARC
  5
2F0
100
AcDbEntity
  8
RACCORDO
100
AcDbCircle
 62
7
  6
CONTINUOUS
 10
-69.75
 20
42.2475595984
 40
0.2
100
AcDbArc
 50
0.0
 51
88.5
  0
ARC
  5
2F1
100
AcDbEntity
  8
RACCORDO
100
AcDbCircle
 62
7
  6
CONTINUOUS
 10
-69.75
 20
-42.2475595984
 40
0.2
100
AcDbArc
 50
271.5
 51
360.0
  0
SPLINE
  5
2F2
100
AcDbEntity
  8
CURVE
100
AcDbSpline
 62
250
  6
CONTINUOUS
 70
0
 71
3
 72
9
 73
5
 74
0
 42
0.0000001
 43
0.0000001
 44
0.0000000001
 40
0.0
 40
0.0
 40
0.0
 40
0.0
 40
0.7572692566
 40
1.0
 40
1.0
 40
1.0
 40
1.0
 10
-73.2365211787
 20
-31.1235216885
 30
0.0
 10
-73.1929809467
 20
-31.014329884
 30
0.0
 10
-73.0273619896
 20
-30.9306113076
 30
0.0
 10
-72.8805983687
 20
-30.8927947543
 30
0.0
 10
-72.8442431202
 20
-30.8828900772
 30
0.0
  0
SPLINE
  5
2F3
100
AcDbEntity
  8
CURVE
100
AcDbSpline
 62
250
  6
CONTINUOUS
 70
0
 71
3
 72
9
 73
5
 74
0
 42
0.0000001
 43
0.0000001
 44
0.0000000001
 40
0.0
 40
0.0
 40
0.0
 40
0.0
 40
0.8019701384
 40
1.0
 40
1.0
 40
1.0
 40
1.0
 10
-72.8442431203
 20
-30.8828900769
 30
0.0
 10
-72.6998777687
 20
-30.8435589694
 30
0.0
 10
-72.5191269684
 20
-30.797273308
 30
0.0
 10
-72.3386703829
 20
-30.7498783544
 30
0.0
 10
-72.3030147347
 20
-30.7401943813
 30
0.0
  0
SPLINE
  5
2F4
100
AcDbEntity
  8
CURVE
100
AcDbSpline
 62
250
  6
CONTINUOUS
 70
0
 71
3
 72
9
 73
5
 74
0
 42
0.0000001
 43
0.0000001
 44
0.0000000001
 40
0.0
 40
0.0
 40
0.0
 40
0.0
 40
0.4413785828
 40
1.0
 40
1.0
 40
1.0
 40
1.0
 10
-72.3030147347
 20
-31.1417275236
 30
0.0
 10
-72.3925642071
 20
-31.1674733565
 30
0.0
 10
-72.5946183602
 20
-31.2282508965
 30
0.0
 10
-72.7990369645
 20
-31.2827922524
 30
0.0
 10
-72.9094310064
 20
-31.3242657647
 30
0.0
  0
SPLINE
  5
2F5
100
AcDbEntity
  8
CURVE
100
AcDbSpline
 62
250
  6
CONTINUOUS
 70
0
 71
3
 72
9
 73
5
 74
0
 42
0.0000001
 43
0.0000001
 44
0.0000000001
 40
0.0
 40
0.0
 40
0.0
 40
0.0
 40
0.6440858369
 40
1.0
 40
1.0
 40
1.0
 40
1.0
 10
-72.9094310064
 20
-31.3242657647
 30
0.0
 10
-72.9710644108
 20
-31.3473960335
 30
0.0
 10
-73.0636130976
 20
-31.4161375221
 30
0.0
 10
-73.0856406953
 20
-31.5207852045
 30
0.0
 10
-73.0856406953
 20
-31.5571624855
 30
0.0
  0
SPLINE
  5
2F6
100
AcDbEntity
  8
CURVE
100
AcDbSpline
 62
250
  6
CONTINUOUS
 70
0
 71
3
 72
9
 73
5
 74
0
 42
0.0000001
 43
0.0000001
 44
0.0000000001
 40
0.0
 40
0.0
 40
0.0
 40
0.0
 40
0.7042582166
 40
1.0
 40
1.0
 40
1.0
 40
1.0
 10
-74.2794875818
 20
-32.1967511684
 30
0.0
 10
-74.3149274396
 20
-31.9558554795
 30
0.0
 10
-74.3498071434
 20
-31.6083849347
 30
0.0
 10
-74.2931748602
 20
-31.2627275241
 30
0.0
 10
-74.2584323986
 20
-31.1665618423
 30
0.0
  0
SPLINE
  5
2F7
100
AcDbEntity
  8
CURVE
100
AcDbSpline
 62
250
  6
CONTINUOUS
 70
0
 71
3
 72
17
 73
13
 74
0
 42
0.0000001
 43
0.0000001
 44
0.0000000001
 40
0.0
 40
0.0
 40
0.0
 40
0.0
 40
0.0799595168
 40
0.1896577306
 40
0.3223977561
 40
0.3986068941
 40
0.483386777
 40
0.5877249163
 40
0.678993766
 40
0.8312459613
 40
0.9440219048
 40
1.0
 40
1.0
 40
1.0
 40
1.0
 10
-74.2584323986
 20
-31.1665618423
 30
0.0
 10
-74.2471634422
 20
-31.1353245699
 30
0.0
 10
-74.2086909916
 20
-31.0655694498
 30
0.0
 10
-74.1194879598
 20
-30.964116639
 30
0.0
 10
-74.0054214184
 20
-30.8922622469
 30
0.0
 10
-73.8890295775
 20
-30.854005291
 30
0.0
 10
-73.7794923579
 20
-30.8382204826
 30
0.0
 10
-73.6622138022
 20
-30.8412156391
 30
0.0
 10
-73.5209107838
 20
-30.8730966441
 30
0.0
 10
-73.3854626919
 20
-30.9446626262
 30
0.0
 10
-73.2974719461
 20
-31.0418568898
 30
0.0
 10
-73.2513135679
 20
-31.1004647206
 30
0.0
 10
-73.2483384753
 20
-31.1235216885
 30
0.0
  0
SPLINE
  5
2F8
100
AcDbEntity
  8
CURVE
100
AcDbSpline
 62
250
  6
CONTINUOUS
 70
0
 71
3
 72
9
 73
5
 74
0
 42
0.0000001
 43
0.0000001
 44
0.0000000001
 40
0.0
 40
0.0
 40
0.0
 40
0.0
 40
0.4793791278
 40
1.0
 40
1.0
 40
1.0
 40
1.0
 10
-73.4131657682
 20
-31.5562626914
 30
0.0
 10
-73.414943584
 20
-31.4766675333
 30
0.0
 10
-73.4486273669
 20
-31.2917335024
 30
0.0
 10
-73.6374855495
 20
-31.2306578605
 30
0.0
 10
-73.7239396732
 20
-31.231991874
 30
0.0
  0
SPLINE
  5
2F9
100
AcDbEntity
  8
CURVE
100
AcDbSpline
 62
250
  6
CONTINUOUS
 70
0
 71
3
 72
9
 73
5
 74
0
 42
0.0000001
 43
0.0000001
 44
0.0000000001
 40
0.0
 40
0.0
 40
0.0
 40
0.0
 40
0.4986345247
 40
1.0
 40
1.0
 40
1.0
 40
1.0
 10
-73.7239396732
 20
-31.231991874
 30
0.0
 10
-73.7851924644
 20
-31.2329498976
 30
0.0
 10
-73.9129540387
 20
-31.2828717974
 30
0.0
 10
-73.9668324696
 20
-31.4066238111
 30
0.0
 10
-73.9739337133
 20
-31.4678085288
 30
0.0
  0
SPLINE
  5
2FA
100
AcDbEntity
  8
CURVE
100
AcDbSpline
 62
250
  6
CONTINUOUS
 70
0
 71
3
 72
9
 73
5
 74
0
 42
0.0000001
 43
0.0000001
 44
0.0000000001
 40
0.0
 40
0.0
 40
0.0
 40
0.0
 40
0.7295958313
 40
1.0
 40
1.0
 40
1.0
 40
1.0
 10
-73.9739337132
 20
-31.4678085288
 30
0.0
 10
-73.9831279281
 20
-31.5470264045
 30
0.0
 10
-73.9834823372
 20
-31.6576059819
 30
0.0
 10
-73.9671317521
 20
-31.7656922858
 30
0.0
 10
-73.9621601761
 20
-31.7948281153
 30
0.0
  0
SPLINE
  5
2FB
100
AcDbEntity
  8
RACCORDO
100
AcDbSpline
 62
250
  6
CONTINUOUS
 70
0
 71
3
 72
23
 73
19
 74
0
 42
0.0000001
 43
0.0000001
 44
0.0000000001
 40
0.0
 40
0.0
 40
0.0
 40
0.0
 40
0.0012686382
 40
0.0049060598
 40
0.0109272641
 40
0.0193231647
 40
0.0300815403
 40
0.0431783279
 40
0.0762363716
 40
0.1181873113
 40
0.168629391
 40
0.2270681445
 40
0.2929546345
 40
0.3656434571
 40
0.444451961
 40
0.6172820805
 40
0.8049183808
 40
1.0
 40
1.0
 40
1.0
 40
1.0
 10
-69.7447646103
 20
42.4474910634
 30
0.0
 10
-69.7444687895
 20
42.4474825305
 30
0.0
 10
-69.7446027689
 20
42.4457410575
 30
0.0
 10
-69.7441119763
 20
42.4437719998
 30
0.0
 10
-69.7440697968
 20
42.439242184
 30
0.0
 10
-69.7437982039
 20
42.4335145349
 30
0.0
 10
-69.7436378152
 20
42.4259386834
 30
0.0
 10
-69.743371848
 20
42.412690386
 30
0.0
 10
-69.7431227561
 20
42.3921220155
 30
0.0
 10
-69.7428861652
 20
42.3628652878
 30
0.0
 10
-69.7427196868
 20
42.3276775299
 30
0.0
 10
-69.7426183689
 20
42.286909317
 30
0.0
 10
-69.7425870858
 20
42.2409502172
 30
0.0
 10
-69.7426252874
 20
42.1902396946
 30
0.0
 10
-69.7427746239
 20
42.114581717
 30
0.0
 10
-69.7431413914
 20
42.012109661
 30
0.0
 10
-69.7438221202
 20
41.8825149127
 30
0.0
 10
-69.7444237037
 20
41.7932376789
 30
0.0
 10
-69.7447645332
 20
41.7477309339
 30
0.0
  0
SPLINE
  5
2FC
100
AcDbEntity
  8
RACCORDO
100
AcDbSpline
 62
250
  6
CONTINUOUS
 70
0
 71
3
 72
23
 73
19
 74
0
 42
0.0000001
 43
0.0000001
 44
0.0000000001
 40
0.0
 40
0.0
 40
0.0
 40
0.0
 40
0.1950341586
 40
0.3826033071
 40
0.5554381593
 40
0.6342515024
 40
0.7069486489
 40
0.7728449253
 40
0.8312949085
 40
0.8817548683
 40
0.9237181525
 40
0.95679753
 40
0.9699021476
 40
0.9806645696
 40
0.9890646057
 40
0.9950896897
 40
0.9987300546
 40
1.0
 40
1.0
 40
1.0
 40
1.0
 10
-69.7447646103
 20
-41.7477309359
 30
0.0
 10
-69.7444239765
 20
-41.793226608
 30
0.0
 10
-69.7438224239
 20
-41.8824770997
 30
0.0
 10
-69.7431415311
 20
-42.0120462072
 30
0.0
 10
-69.7427748695
 20
-42.1145048256
 30
0.0
 10
-69.7426254138
 20
-42.1901669733
 30
0.0
 10
-69.742587092
 20
-42.2408828466
 30
0.0
 10
-69.7426182389
 20
-42.286848788
 30
0.0
 10
-69.7427195337
 20
-42.3276260728
 30
0.0
 10
-69.7428858216
 20
-42.3628234986
 30
0.0
 10
-69.7431225924
 20
-42.3920922553
 30
0.0
 10
-69.7433715859
 20
-42.4126703031
 30
0.0
 10
-69.7436375486
 20
-42.4259263568
 30
0.0
 10
-69.7437979723
 20
-42.4335059145
 30
0.0
 10
-69.7440696907
 20
-42.4392364391
 30
0.0
 10
-69.7441116345
 20
-42.4437687366
 30
0.0
 10
-69.7446029754
 20
-42.445739715
 30
0.0
 10
-69.7444684141
 20
-42.4474822716
 30
0.0
 10
-69.7447645324
 20
-42.4474910613
 30
0.0
  0
SPLINE
  5
2FD
100
AcDbEntity
  8
RACCORDO
100
AcDbSpline
 62
250
  6
CONTINUOUS
 70
0
 71
3
 72
13
 73
9
 74
0
 42
0.0000001
 43
0.0000001
 44
0.0000000001
 40
0.0
 40
0.0
 40
0.0
 40
0.0
 40
0.0311730347
 40
0.0916961534
 40
0.1846209892
 40
0.307677615
 40
0.6258046539
 40
1.0
 40
1.0
 40
1.0
 40
1.0
 10
-67.7668474918
 20
14.960003434
 30
0.0
 10
-67.7695028516
 20
14.960026607
 30
0.0
 10
-67.7755213996
 20
14.9671347867
 30
0.0
 10
-67.780083623
 20
14.9814767411
 30
0.0
 10
-67.7855052997
 20
15.0047802662
 30
0.0
 10
-67.7917352712
 20
15.0497024211
 30
0.0
 10
-67.7966712849
 20
15.1191614727
 30
0.0
 10
-67.7975708313
 20
15.1781194254
 30
0.0
 10
-67.797297406
 20
15.2099939148
 30
0.0
  0
SPLINE
  5
2FE
100
AcDbEntity
  8
RACCORDO
100
AcDbSpline
 62
250
  6
CONTINUOUS
 70
0
 71
3
 72
18
 73
14
 74
0
 42
0.0000001
 43
0.0000001
 44
0.0000000001
 40
0.0
 40
0.0
 40
0.0
 40
0.0
 40
0.0059043685
 40
0.020666853
 40
0.0446648092
 40
0.0778131347
 40
0.1197948368
 40
0.1701978584
 40
0.2944133876
 40
0.4456176961
 40
0.6181088375
 40
0.8055006426
 40
1.0
 40
1.0
 40
1.0
 40
1.0
 10
-67.6951274702
 20
14.9593775428
 30
0.0
 10
-67.6956204545
 20
14.9593818451
 30
0.0
 10
-67.6962827851
 20
14.9616124562
 30
0.0
 10
-67.6969491838
 20
14.9647577597
 30
0.0
 10
-67.6976943007
 20
14.9710049556
 30
0.0
 10
-67.6983860965
 20
14.9791299336
 30
0.0
 10
-67.6990508283
 20
14.989638089
 30
0.0
 10
-67.6999236361
 20
15.0076815678
 30
0.0
 10
-67.7007868149
 20
15.0348885247
 30
0.0
 10
-67.7015021461
 20
15.0722763384
 30
0.0
 10
-67.7019064786
 20
15.1149516219
 30
0.0
 10
-67.701981906
 20
15.1612411905
 30
0.0
 10
-67.7018122595
 20
15.1931283287
 30
0.0
 10
-67.7016707105
 20
15.2093680236
 30
0.0
  0
SPLINE
  5
2FF
100
AcDbEntity
  8
RACCORDO
100
AcDbSpline
 62
250
  6
CONTINUOUS
 70
0
 71
3
 72
18
 73
14
 74
0
 42
0.0000001
 43
0.0000001
 44
0.0000000001
 40
0.0
 40
0.0
 40
0.0
 40
0.0
 40
0.0059043685
 40
0.0206668531
 40
0.0446648094
 40
0.0778131349
 40
0.1197948371
 40
0.1701978587
 40
0.2944133881
 40
0.4456176966
 40
0.6181088379
 40
0.8055006428
 40
1.0
 40
1.0
 40
1.0
 40
1.0
 10
-67.6951274702
 20
16.6406224572
 30
0.0
 10
-67.6956204545
 20
16.6406181549
 30
0.0
 10
-67.6962827851
 20
16.6383875438
 30
0.0
 10
-67.6969491838
 20
16.6352422403
 30
0.0
 10
-67.6976943007
 20
16.6289950444
 30
0.0
 10
-67.6983860965
 20
16.6208700664
 30
0.0
 10
-67.6990508283
 20
16.6103619109
 30
0.0
 10
-67.6999236361
 20
16.5923184321
 30
0.0
 10
-67.7007868149
 20
16.5651114751
 30
0.0
 10
-67.7015021461
 20
16.5277236615
 30
0.0
 10
-67.7019064786
 20
16.485048378
 30
0.0
 10
-67.701981906
 20
16.4387588095
 30
0.0
 10
-67.7018122595
 20
16.4068716713
 30
0.0
 10
-67.7016707105
 20
16.3906319764
 30
0.0
  0
SPLINE
  5
300
100
AcDbEntity
  8
RACCORDO
100
AcDbSpline
 62
250
  6
CONTINUOUS
 70
0
 71
3
 72
13
 73
9
 74
0
 42
0.0000001
 43
0.0000001
 44
0.0000000001
 40
0.0
 40
0.0
 40
0.0
 40
0.0
 40
0.0311730349
 40
0.0916961539
 40
0.1846209902
 40
0.3076776161
 40
0.6258046549
 40
1.0
 40
1.0
 40
1.0
 40
1.0
 10
-67.7668474918
 20
16.639996566
 30
0.0
 10
-67.7695028517
 20
16.639973393
 30
0.0
 10
-67.7755213996
 20
16.6328652132
 30
0.0
 10
-67.7800836231
 20
16.6185232588
 30
0.0
 10
-67.7855052997
 20
16.5952197335
 30
0.0
 10
-67.7917352713
 20
16.5502975786
 30
0.0
 10
-67.7966712849
 20
16.4808385271
 30
0.0
 10
-67.7975708313
 20
16.4218805745
 30
0.0
 10
-67.797297406
 20
16.3900060852
 30
0.0
  0
SPLINE
  5
301
100
AcDbEntity
  8
RACCORDO
100
AcDbSpline
 62
250
  6
CONTINUOUS
 70
0
 71
3
 72
13
 73
9
 74
0
 42
0.0000001
 43
0.0000001
 44
0.0000000001
 40
0.0
 40
0.0
 40
0.0
 40
0.0
 40
0.031173035
 40
0.0916961541
 40
0.1846209905
 40
0.3076776166
 40
0.6258046553
 40
1.0
 40
1.0
 40
1.0
 40
1.0
 10
-67.7668474918
 20
-16.639996566
 30
0.0
 10
-67.7695028517
 20
-16.639973393
 30
0.0
 10
-67.7755213996
 20
-16.6328652132
 30
0.0
 10
-67.7800836231
 20
-16.6185232588
 30
0.0
 10
-67.7855052998
 20
-16.5952197334
 30
0.0
 10
-67.7917352713
 20
-16.5502975785
 30
0.0
 10
-67.7966712849
 20
-16.4808385271
 30
0.0
 10
-67.7975708314
 20
-16.4218805745
 30
0.0
 10
-67.797297406
 20
-16.3900060852
 30
0.0
  0
SPLINE
  5
302
100
AcDbEntity
  8
RACCORDO
100
AcDbSpline
 62
250
  6
CONTINUOUS
 70
0
 71
3
 72
18
 73
14
 74
0
 42
0.0000001
 43
0.0000001
 44
0.0000000001
 40
0.0
 40
0.0
 40
0.0
 40
0.0
 40
0.0059043685
 40
0.020666853
 40
0.0446648092
 40
0.0778131347
 40
0.1197948368
 40
0.1701978584
 40
0.2944133876
 40
0.4456176961
 40
0.6181088375
 40
0.8055006426
 40
1.0
 40
1.0
 40
1.0
 40
1.0
 10
-67.6951274702
 20
-16.6406224572
 30
0.0
 10
-67.6956204545
 20
-16.6406181549
 30
0.0
 10
-67.6962827851
 20
-16.6383875438
 30
0.0
 10
-67.6969491838
 20
-16.6352422403
 30
0.0
 10
-67.6976943007
 20
-16.6289950444
 30
0.0
 10
-67.6983860965
 20
-16.6208700664
 30
0.0
 10
-67.6990508283
 20
-16.610361911
 30
0.0
 10
-67.6999236361
 20
-16.5923184322
 30
0.0
 10
-67.7007868149
 20
-16.5651114753
 30
0.0
 10
-67.7015021461
 20
-16.5277236616
 30
0.0
 10
-67.7019064786
 20
-16.4850483781
 30
0.0
 10
-67.701981906
 20
-16.4387588095
 30
0.0
 10
-67.7018122596
 20
-16.4068716713
 30
0.0
 10
-67.7016707105
 20
-16.3906319764
 30
0.0
  0
SPLINE
  5
303
100
AcDbEntity
  8
RACCORDO
100
AcDbSpline
 62
250
  6
CONTINUOUS
 70
0
 71
3
 72
18
 73
14
 74
0
 42
0.0000001
 43
0.0000001
 44
0.0000000001
 40
0.0
 40
0.0
 40
0.0
 40
0.0
 40
0.0059043684
 40
0.0206668528
 40
0.0446648089
 40
0.0778131342
 40
0.1197948361
 40
0.1701978575
 40
0.2944133865
 40
0.4456176948
 40
0.6181088365
 40
0.8055006423
 40
1.0
 40
1.0
 40
1.0
 40
1.0
 10
-67.6951274702
 20
-14.9593775428
 30
0.0
 10
-67.6956204545
 20
-14.9593818451
 30
0.0
 10
-67.6962827852
 20
-14.9616124562
 30
0.0
 10
-67.6969491838
 20
-14.9647577596
 30
0.0
 10
-67.6976943007
 20
-14.9710049555
 30
0.0
 10
-67.6983860965
 20
-14.9791299335
 30
0.0
 10
-67.6990508283
 20
-14.9896380888
 30
0.0
 10
-67.6999236361
 20
-15.0076815675
 30
0.0
 10
-67.7007868149
 20
-15.0348885245
 30
0.0
 10
-67.7015021462
 20
-15.0722763381
 30
0.0
 10
-67.7019064787
 20
-15.1149516217
 30
0.0
 10
-67.7019819061
 20
-15.1612411903
 30
0.0
 10
-67.7018122596
 20
-15.1931283287
 30
0.0
 10
-67.7016707105
 20
-15.2093680236
 30
0.0
  0
SPLINE
  5
304
100
AcDbEntity
  8
RACCORDO
100
AcDbSpline
 62
250
  6
CONTINUOUS
 70
0
 71
3
 72
13
 73
9
 74
0
 42
0.0000001
 43
0.0000001
 44
0.0000000001
 40
0.0
 40
0.0
 40
0.0
 40
0.0
 40
0.0311730349
 40
0.0916961539
 40
0.1846209902
 40
0.3076776161
 40
0.6258046549
 40
1.0
 40
1.0
 40
1.0
 40
1.0
 10
-67.7668474918
 20
-14.960003434
 30
0.0
 10
-67.7695028517
 20
-14.960026607
 30
0.0
 10
-67.7755213996
 20
-14.9671347868
 30
0.0
 10
-67.7800836231
 20
-14.9814767412
 30
0.0
 10
-67.7855052997
 20
-15.0047802665
 30
0.0
 10
-67.7917352713
 20
-15.0497024214
 30
0.0
 10
-67.7966712849
 20
-15.1191614729
 30
0.0
 10
-67.7975708314
 20
-15.1781194255
 30
0.0
 10
-67.797297406
 20
-15.2099939148
 30
0.0
  0
ELLIPSE
  5
305
100
AcDbEntity
  8
RACCORDO
100
AcDbEllipse
 62
7
  6
CONTINUOUS
 10
-65.0454092645
 20
15.186263322
 30
0.0
 11
-0.0035772632
 21
0.250000224
 31
0.0
 40
0.7815053723
 41
-3.1595956423
 42
-1.5891038672
  0
ELLIPSE
  5
306
100
AcDbEntity
  8
RACCORDO
100
AcDbEllipse
 62
7
  6
CONTINUOUS
 10
-65.0454092645
 20
16.413736678
 30
0.0
 11
0.0035772632
 21
0.250000224
 31
0.0
 40
0.7815053723
 41
-1.5524887864
 42
0.0180029887
  0
ELLIPSE
  5
307
100
AcDbEntity
  8
RACCORDO
100
AcDbEllipse
 62
7
  6
CONTINUOUS
 10
-65.0454092645
 20
-16.413736678
 30
0.0
 11
-0.0035772632
 21
0.250000224
 31
0.0
 40
0.7815053723
 41
-3.1595956423
 42
-1.5891038672
  0
ELLIPSE
  5
308
100
AcDbEntity
  8
RACCORDO
100
AcDbEllipse
 62
7
  6
CONTINUOUS
 10
-65.0454092645
 20
-15.186263322
 30
0.0
 11
0.0035772632
 21
0.250000224
 31
0.0
 40
0.7815053723
 41
-1.5524887864
 42
0.0180029887
  0
ELLIPSE
  5
309
100
AcDbEntity
  8
RACCORDO
100
AcDbEllipse
 62
7
  6
CONTINUOUS
 10
-65.0600726589
 20
14.3809786414
 30
0.0
 11
0.1424068942
 21
0.1500655548
 31
0.0
 40
0.9357837116
 41
2.3631878062
 42
3.919997501
  0
ELLIPSE
  5
30A
100
AcDbEntity
  8
RACCORDO
100
AcDbEllipse
 62
7
  6
CONTINUOUS
 10
-65.0600726589
 20
14.7363741522
 30
0.0
 11
0.1415861621
 21
-0.1428271572
 31
0.0
 40
0.9890020976
 41
8.640545831
 42
10.2090100905
  0
ELLIPSE
  5
30B
100
AcDbEntity
  8
RACCORDO
100
AcDbEllipse
 62
7
  6
CONTINUOUS
 10
-65.0600726589
 20
16.8636258478
 30
0.0
 11
0.1415861621
 21
0.1428271572
 31
0.0
 40
0.9890020976
 41
2.3573605238
 42
3.9258247833
  0
ELLIPSE
  5
30C
100
AcDbEntity
  8
RACCORDO
100
AcDbEllipse
 62
7
  6
CONTINUOUS
 10
-65.0600726589
 20
17.2190213586
 30
0.0
 11
0.1424068942
 21
-0.1500655548
 31
0.0
 40
0.9357837116
 41
2.3631878062
 42
3.919997501
  0
ELLIPSE
  5
30D
100
AcDbEntity
  8
RACCORDO
100
AcDbEllipse
 62
7
  6
CONTINUOUS
 10
-65.0600726589
 20
-17.2190213586
 30
0.0
 11
0.1424068942
 21
0.1500655548
 31
0.0
 40
0.9357837116
 41
2.3631878062
 42
3.919997501
  0
ELLIPSE
  5
30E
100
AcDbEntity
  8
RACCORDO
100
AcDbEllipse
 62
7
  6
CONTINUOUS
 10
-65.0600726589
 20
-16.8636258478
 30
0.0
 11
0.1415861621
 21
-0.1428271572
 31
0.0
 40
0.9890020976
 41
8.640545831
 42
10.2090100905
  0
ELLIPSE
  5
30F
100
AcDbEntity
  8
RACCORDO
100
AcDbEllipse
 62
7
  6
CONTINUOUS
 10
-65.0600726589
 20
-14.3809786414
 30
0.0
 11
0.1424068942
 21
-0.1500655548
 31
0.0
 40
0.9357837116
 41
2.3631878062
 42
3.919997501
  0
ELLIPSE
  5
310
100
AcDbEntity
  8
RACCORDO
100
AcDbEllipse
 62
7
  6
CONTINUOUS
 10
-65.0600726589
 20
-14.7363741522
 30
0.0
 11
0.1415861621
 21
0.1428271572
 31
0.0
 40
0.9890020976
 41
2.3573605238
 42
3.9258247833
  0
ENDSEC
  0
SECTION
  2
OBJECTS
  0
DICTIONARY
  5
C
100
AcDbDictionary
280
0
281
1
  3
ACAD_GROUP
350
D
  3
ACAD_MLINESTYLE
350
17
  3
ACAD_LAYOUT
350
1A
  3
ACAD_PLOTSETTINGS
350
19
  3
ACAD_PLOTSTYLENAME
350
E
  0
DICTIONARY
  5
D
102
{ACAD_REACTORS
330
C
102
}
100
AcDbDictionary
280
0
281
1
  0
ACDBDICTIONARYWDFLT
  5
E
102
{ACAD_REACTORS
330
C
102
}
100
AcDbDictionary
281
1
  3
Normal
350
F
100
AcDbDictionaryWithDefault
340
F
  0
DICTIONARY
  5
17
102
{ACAD_REACTORS
330
C
102
}
100
AcDbDictionary
280
0
281
1
  3
Standard
350
18
  0
DICTIONARY
  5
19
102
{ACAD_REACTORS
330
C
102
}
100
AcDbDictionary
281
1
  0
DICTIONARY
  5
1A
102
{ACAD_REACTORS
330
C
102
}
100
AcDbDictionary
281
1
  3
Model
350
311
  3
Layout1
350
312
  0
ACDBPLACEHOLDER
  5
F
102
{ACAD_REACTORS
330
E
102
}
  0
MLINESTYLE
  5
18
102
{ACAD_REACTORS
330
17
102
}
100
AcDbMlineStyle
  2
STANDARD
 70
0
  3

 62
256
 51
90.0
 52
90.0
 71
2
 49
0.5
 62
256
  6
BYLAYER
 49
-0.5
 62
256
  6
BYLAYER
  0
LAYOUT
  5
311
102
{ACAD_REACTORS
330
1A
102
}
100
AcDbPlotSettings
  1

  2
none_device
  4
ISO_A4_(297.00_x_210.00_MM)
  6

 40
0.0
 41
0.0
 42
0.0
 43
0.0
 44
297.0
 45
210.0
 46
0.0
 47
0.0
 48
0.0
 49
0.0
140
0.0
141
0.0
142
1.0
143
1.0
 70
1024
 72
1
 73
0
 74
0
  7

 75
0
147
1.0
148
0.0
149
0.0
100
AcDbLayout
  1
Model
 70
0
 71
0
 10
0.0
 20
0.0
 11
297.0
 21
210.0
 12
0.0
 22
0.0
 32
0.0
 14
0.0
 24
0.0
 34
0.0
 15
0.0
 25
0.0
 35
0.0
146
0.0
 13
0.0
 23
0.0
 33
0.0
 16
1.0
 26
0.0
 36
0.0
 17
0.0
 27
1.0
 37
0.0
 76
0
330
214
345
0
346
0
  0
LAYOUT
  5
312
102
{ACAD_REACTORS
330
1A
102
}
100
AcDbPlotSettings
  1

  2
none_device
  4
ISO_A4_(297.00_x_210.00_MM)
  6

 40
0.0
 41
0.0
 42
0.0
 43
0.0
 44
297.0
 45
210.0
 46
0.0
 47
0.0
 48
0.0
 49
0.0
140
0.0
141
0.0
142
1.0
143
1.0
 70
0
 72
1
 73
0
 74
0
  7

 75
0
147
1.0
148
0.0
149
0.0
100
AcDbLayout
  1
Layout1
 70
0
 71
1
 10
0.0
 20
0.0
 11
297.0
 21
210.0
 12
0.0
 22
0.0
 32
0.0
 14
0.0
 24
0.0
 34
0.0
 15
0.0
 25
0.0
 35
0.0
146
0.0
 13
0.0
 23
0.0
 33
0.0
 16
1.0
 26
0.0
 36
0.0
 17
0.0
 27
1.0
 37
0.0
 76
0
330
215
345
0
346
0
  0
ENDSEC
  0
EOF
