  0
SECTION
  2
HEADER
  9
$ACADVER
  1
AC1024
  9
$DWGCODEPAGE
  3
ANSI_1252
  9
$EXTMAX
 10
297.0
 20
210.0
 30
0.0
  9
$EXTMIN
 10
0.0
 20
0.0
 30
0.0
  9
$LIMMIN
 10
0.0
 20
0.0
  9
$LIMMAX
 10
297.0
 20
210.0
  9
$VIEWCTR
 10
148.5
 20
105.0
  9
$VIEWSIZE
 40
210.0
  9
$CLAYER
  8
0
  9
$LTSCALE
 40
16.335
  9
$CELTYPE
  6
BYLAYER
  9
$DIMSCALE
 40
1.0
  9
$DIMASZ
 40
3.0
  9
$DIMEXO
 40
0.5
  9
$DIMDLI
 40
11.286
  9
$DIMEXE
 40
1.5
  9
$DIMCEN
 40
2.673
  9
$DIMLFAC
 40
1.0
  9
$DIMBLK
  1
_FILLED
  9
$DIMALT
 70
0
  9
$DIMALTF
 40
0.0393700787
  9
$DIMTXT
 40
3.0
  9
$DIMTOL
 70
1
  9
$DIMLIM
 70
0
  9
$DIMTFAC
 40
1.0
  9
$DIMTP
 40
0.01
  9
$DIMTM
 40
0.01
  9
$DIMGAP
 40
0.625
  9
$DIMDSEP
 70
44
  9
$AUNITS
 70
0
  9
$PDMODE
 70
3
  9
$PDSIZE
 40
3.0
  9
$HANDSEED
  5
357
  9
$TILEMODE
 70
1
  9
$MEASUREMENT
 70
1
  9
$INSUNITS
 70
4
  0
ENDSEC
  0
SECTION
  2
CLASSES
  0
CLASS
  1
ACDBDICTIONARYWDFLT
  2
AcDbDictionaryWithDefault
  3
AutoCAD 2000
 90
0
 91
1
280
0
281
0
  0
CLASS
  1
ACDBPLACEHOLDER
  2
AcDbPlaceHolder
  3
AutoCAD 2000
 90
0
 91
1
280
0
281
0
  0
CLASS
  1
LAYOUT
  2
AcDbLayout
  3
AutoCAD 2000
 90
0
 91
0
280
0
281
0
  0
ENDSEC
  0
SECTION
  2
TABLES
  0
TABLE
  2
VPORT
  5
8
100
AcDbSymbolTable
 70
2
  0
VPORT
  5
1F4
100
AcDbSymbolTableRecord
100
AcDbViewportTableRecord
  2
*ACTIVE
 70
0
 10
0.0
 20
0.0
 11
1.0
 21
1.0
 12
148.5
 22
105.0
 13
0.0
 23
0.0
 14
1.0
 24
1.0
 15
0.0
 25
0.0
 16
0.0
 26
0.0
 36
1.0
 17
0.0
 27
0.0
 37
0.0
 40
210.0
 41
1.4142857143
 42
50.0
 43
0.0
 44
0.0
 50
0.0
 51
0.0
 71
0
 72
100
 73
1
 74
1
 75
0
 76
0
 77
0
 78
0
  0
ENDTAB
  0
TABLE
  2
LTYPE
  5
5
100
AcDbSymbolTable
 70
6
  0
LTYPE
  5
14
100
AcDbSymbolTableRecord
100
AcDbLinetypeTableRecord
  2
BYBLOCK
 70
0
  3

 72
65
 73
0
 40
0.0
  0
LTYPE
  5
15
100
AcDbSymbolTableRecord
100
AcDbLinetypeTableRecord
  2
BYLAYER
 70
0
  3

 72
65
 73
0
 40
0.0
  0
LTYPE
  5
16
100
AcDbSymbolTableRecord
100
AcDbLinetypeTableRecord
  2
CONTINUOUS
 70
64
  3
Solid line
 72
65
 73
0
 40
0.0
  0
LTYPE
  5
1F5
100
AcDbSymbolTableRecord
100
AcDbLinetypeTableRecord
  2
CENTER
 70
64
  3
____ _ ____ _ ____ _ ____ _ ____ _ ____ _ ____
 72
65
 73
4
 40
0.6
 49
0.375
 74
0
 49
-0.075
 74
0
 49
0.075
 74
0
 49
-0.075
 74
0
  0
LTYPE
  5
1F6
100
AcDbSymbolTableRecord
100
AcDbLinetypeTableRecord
  2
HIDDEN
 70
64
  3
- - - - - - - - - - - - - - - - - - - -
 72
65
 73
2
 40
0.2
 49
0.1
 74
0
 49
-0.1
 74
0
  0
LTYPE
  5
1F7
100
AcDbSymbolTableRecord
100
AcDbLinetypeTableRecord
  2
PHANTOM
 70
64
  3
_____ _ _ _____ _ _ _____ _ _ _____
 72
65
 73
6
 40
0.8
 49
0.45
 74
0
 49
-0.05
 74
0
 49
0.1
 74
0
 49
-0.05
 74
0
 49
0.1
 74
0
 49
-0.05
 74
0
  0
LTYPE
  5
1F8
100
AcDbSymbolTableRecord
100
AcDbLinetypeTableRecord
  2
DOT
 70
64
  3
. . . . . . . . . . . . . . . . . . . .
 72
65
 73
2
 40
0.2
 49
0.1
 74
0
 49
-0.1
 74
0
  0
LTYPE
  5
1F9
100
AcDbSymbolTableRecord
100
AcDbLinetypeTableRecord
  2
DASHED
 70
64
  3
- - - - - - - - - - - - - - - - - - - -
 72
65
 73
2
 40
0.2
 49
0.1
 74
0
 49
-0.1
 74
0
  0
ENDTAB
  0
TABLE
  2
LAYER
  5
2
100
AcDbSymbolTable
 70
36
  0
LAYER
  5
10
100
AcDbSymbolTableRecord
100
AcDbLayerTableRecord
  2
0
 70
0
 62
7
  6
CONTINUOUS
370
-3
390
F
  0
LAYER
  5
1FA
100
AcDbSymbolTableRecord
100
AcDbLayerTableRecord
  2
DEFAULT_1
 70
0
 62
7
  6
CENTER
370
-3
390
F
  0
LAYER
  5
1FB
100
AcDbSymbolTableRecord
100
AcDbLayerTableRecord
  2
DEFAULT_2
 70
0
 62
7
  6
HIDDEN
370
-3
390
F
  0
LAYER
  5
1FC
100
AcDbSymbolTableRecord
100
AcDbLayerTableRecord
  2
DEFAULT_3
 70
0
 62
7
  6
PHANTOM
370
-3
390
F
  0
LAYER
  5
1FD
100
AcDbSymbolTableRecord
100
AcDbLayerTableRecord
  2
ASSI
 70
0
 62
7
  6
CONTINUOUS
370
-3
390
F
  0
LAYER
  5
1FE
100
AcDbSymbolTableRecord
100
AcDbLayerTableRecord
  2
COORDINATE
 70
0
 62
7
  6
CONTINUOUS
370
-3
390
F
  0
LAYER
  5
1FF
100
AcDbSymbolTableRecord
100
AcDbLayerTableRecord
  2
COPY_PUBLISH
 70
0
 62
7
  6
CONTINUOUS
370
-3
390
F
  0
LAYER
  5
200
100
AcDbSymbolTableRecord
100
AcDbLayerTableRecord
  2
COSMETICI
 70
0
 62
7
  6
CONTINUOUS
370
-3
390
F
  0
LAYER
  5
201
100
AcDbSymbolTableRecord
100
AcDbLayerTableRecord
  2
CURVE
 70
0
 62
7
  6
CONTINUOUS
370
-3
390
F
  0
LAYER
  5
202
100
AcDbSymbolTableRecord
100
AcDbLayerTableRecord
  2
DRAFT
 70
0
 62
7
  6
CONTINUOUS
370
-3
390
F
  0
LAYER
  5
203
100
AcDbSymbolTableRecord
100
AcDbLayerTableRecord
  2
IMPORT_IGES
 70
0
 62
7
  6
CONTINUOUS
370
-3
390
F
  0
LAYER
  5
204
100
AcDbSymbolTableRecord
100
AcDbLayerTableRecord
  2
INTF_1
 70
0
 62
7
  6
CONTINUOUS
370
-3
390
F
  0
LAYER
  5
205
100
AcDbSymbolTableRecord
100
AcDbLayerTableRecord
  2
INTF_11
 70
0
 62
7
  6
CONTINUOUS
370
-3
390
F
  0
LAYER
  5
206
100
AcDbSymbolTableRecord
100
AcDbLayerTableRecord
  2
INTF_13
 70
0
 62
7
  6
CONTINUOUS
370
-3
390
F
  0
LAYER
  5
207
100
AcDbSymbolTableRecord
100
AcDbLayerTableRecord
  2
INTF_2
 70
0
 62
7
  6
CONTINUOUS
370
-3
390
F
  0
LAYER
  5
208
100
AcDbSymbolTableRecord
100
AcDbLayerTableRecord
  2
INTF_4
 70
0
 62
7
  6
CONTINUOUS
370
-3
390
F
  0
LAYER
  5
209
100
AcDbSymbolTableRecord
100
AcDbLayerTableRecord
  2
INTF_CYAN
 70
0
 62
7
  6
CONTINUOUS
370
-3
390
F
  0
LAYER
  5
20A
100
AcDbSymbolTableRecord
100
AcDbLayerTableRecord
  2
NOTE
 70
0
 62
7
  6
CONTINUOUS
370
-3
390
F
  0
LAYER
  5
20B
100
AcDbSymbolTableRecord
100
AcDbLayerTableRecord
  2
PIANI
 70
0
 62
7
  6
CONTINUOUS
370
-3
390
F
  0
LAYER
  5
20C
100
AcDbSymbolTableRecord
100
AcDbLayerTableRecord
  2
PUNTI
 70
0
 62
7
  6
CONTINUOUS
370
-3
390
F
  0
LAYER
  5
20D
100
AcDbSymbolTableRecord
100
AcDbLayerTableRecord
  2
RACCORDO
 70
0
 62
7
  6
CONTINUOUS
370
-3
390
F
  0
LAYER
  5
20E
100
AcDbSymbolTableRecord
100
AcDbLayerTableRecord
  2
RGB____0____0____0__
 70
0
 62
7
  6
CONTINUOUS
370
-3
390
F
  0
LAYER
  5
20F
100
AcDbSymbolTableRecord
100
AcDbLayerTableRecord
  2
SIMBOLI
 70
0
 62
7
  6
CONTINUOUS
370
-3
390
F
  0
LAYER
  5
210
100
AcDbSymbolTableRecord
100
AcDbLayerTableRecord
  2
SMUSSO
 70
0
 62
7
  6
CONTINUOUS
370
-3
390
F
  0
LAYER
  5
211
100
AcDbSymbolTableRecord
100
AcDbLayerTableRecord
  2
SNAPLINE
 70
0
 62
7
  6
CONTINUOUS
370
-3
390
F
  0
LAYER
  5
212
100
AcDbSymbolTableRecord
100
AcDbLayerTableRecord
  2
SUPERFICI
 70
0
 62
7
  6
CONTINUOUS
370
-3
390
F
  0
LAYER
  5
213
100
AcDbSymbolTableRecord
100
AcDbLayerTableRecord
  2
TRASH
 70
0
 62
7
  6
CONTINUOUS
370
-3
390
F
  0
ENDTAB
  0
TABLE
  2
STYLE
  5
3
100
AcDbSymbolTable
 70
1
  0
STYLE
  5
11
100
AcDbSymbolTableRecord
100
AcDbTextStyleTableRecord
  2
STANDARD
 70
0
 40
0.0
 41
0.8
 50
0.0
 71
0
 42
0.2
  3
txt
  4

  0
STYLE
  5
214
100
AcDbSymbolTableRecord
100
AcDbTextStyleTableRecord
  2
TEXTSTYLE_1
 70
0
 40
0.0
 41
0.8
 50
0.0
 71
0
 42
0.2
  3
gdt
  4

  0
ENDTAB
  0
TABLE
  2
VIEW
  5
6
100
AcDbSymbolTable
 70
0
  0
ENDTAB
  0
TABLE
  2
UCS
  5
7
100
AcDbSymbolTable
 70
0
  0
ENDTAB
  0
TABLE
  2
APPID
  5
9
100
AcDbSymbolTable
 70
1
  0
APPID
  5
215
100
AcDbSymbolTableRecord
100
AcDbRegAppTableRecord
  2
ACAD
 70
0
  0
ENDTAB
  0
TABLE
  2
BLOCK_RECORD
  5
1
100
AcDbSymbolTable
 70
0
  0
BLOCK_RECORD
  5
216
100
AcDbSymbolTableRecord
100
AcDbBlockTableRecord
  2
*Model_Space
  0
BLOCK_RECORD
  5
217
100
AcDbSymbolTableRecord
100
AcDbBlockTableRecord
  2
*Paper_Space
  0
BLOCK_RECORD
  5
218
100
AcDbSymbolTableRecord
100
AcDbBlockTableRecord
  2
_FILLED
  0
BLOCK_RECORD
  5
219
100
AcDbSymbolTableRecord
100
AcDbBlockTableRecord
  2
*D0
  0
BLOCK_RECORD
  5
21A
100
AcDbSymbolTableRecord
100
AcDbBlockTableRecord
  2
*D1
  0
BLOCK_RECORD
  5
21B
100
AcDbSymbolTableRecord
100
AcDbBlockTableRecord
  2
*D2
  0
BLOCK_RECORD
  5
21C
100
AcDbSymbolTableRecord
100
AcDbBlockTableRecord
  2
*D3
  0
ENDTAB
  0
TABLE
  2
DIMSTYLE
  5
A
100
AcDbSymbolTable
 70
1
100
AcDbDimStyleTable
 71
0
  0
DIMSTYLE
105
21D
100
AcDbSymbolTableRecord
100
AcDbDimStyleTableRecord
  2
STANDARD
 70
0
  3

  4

 40
1.0
 41
3.0
 42
0.5
 43
0.38
 44
1.5
 45
0.0
 46
0.0
 47
0.01
 48
0.01
140
3.0
141
0.09
142
0.0
143
25.4
144
1.0
145
0.0
146
1.0
147
0.625
 71
1
 72
0
 73
0
 74
0
 75
0
 76
0
 77
1
 78
8
 79
2
170
0
171
1
172
0
173
0
174
0
175
0
176
0
177
0
178
0
270
2
179
2
271
2
272
2
273
2
274
2
275
0
280
0
281
0
282
0
283
1
284
8
285
0
286
0
287
3
288
0
340
11
278
44
341
218
342
218
343
218
344
218
  0
DIMSTYLE
105
21E
100
AcDbSymbolTableRecord
100
AcDbDimStyleTableRecord
  2
DIMSTYLE_1
 70
0
  3

  4

 40
1.0
 41
3.0
 42
0.5
 43
0.38
 44
1.5
 45
0.0
 46
0.0
 47
0.0
 48
0.0
140
3.0
141
0.09
142
0.0
143
25.4
144
1.0
145
0.0
146
1.0
147
0.75
 71
0
 72
0
 73
0
 74
0
 75
0
 76
0
 77
1
 78
8
 79
2
170
0
171
1
172
0
173
0
174
0
175
0
176
0
177
0
178
0
270
2
179
2
271
2
272
2
273
2
274
2
275
0
280
0
281
0
282
0
283
1
284
8
285
0
286
0
287
3
288
0
340
11
278
44
341
218
342
218
343
218
344
218
  0
ENDTAB
  0
ENDSEC
  0
SECTION
  2
BLOCKS
  0
BLOCK
  5
20
100
AcDbEntity
  8
0
100
AcDbBlockBegin
  2
*Model_Space
 70
0
 10
0.0
 20
0.0
 30
0.0
  3
*Model_Space
  1

  0
ENDBLK
  5
21
100
AcDbEntity
  8
0
100
AcDbBlockEnd
  0
BLOCK
  5
1C
100
AcDbEntity
  8
0
100
AcDbBlockBegin
  2
*Paper_Space
 70
0
 10
0.0
 20
0.0
 30
0.0
  3
*Paper_Space
  1

  0
ENDBLK
  5
1D
100
AcDbEntity
  8
0
100
AcDbBlockEnd
  0
BLOCK
  5
21F
100
AcDbEntity
  8
0
100
AcDbBlockBegin
  2
_FILLED
 70
64
 10
0.0
 20
0.0
  3
_FILLED
  1

  0
SOLID
  5
220
100
AcDbEntity
  8
0
  6
BYBLOCK
 62
0
100
AcDbTrace
 10
0.0
 20
0.0
 11
-1.0
 21
0.3166666667
 12
-1.0
 22
-0.3166666667
 13
-1.0
 23
-0.3166666667
  0
ENDBLK
  5
221
100
AcDbEntity
  8
0
  6
BYBLOCK
 62
0
100
AcDbBlockEnd
  0
BLOCK
  5
222
100
AcDbEntity
  8
0
100
AcDbBlockBegin
 62
7
  6
CONTINUOUS
  2
*D0
 70
65
 10
0.0
 20
0.0
  3
*D0
  1

  0
MTEXT
  5
223
100
AcDbEntity
  8
0
100
AcDbMText
 62
7
  6
CONTINUOUS
  7
STANDARD
 71
3
 72
1
 10
-114.5714401657
 20
55.75
 30
0.0
 11
1.0
 21
0.0
 31
0.0
 73
2
 44
0.9
  1
{\ftxt;\W0.0001;\H0.0001;\~}{\ftxt;\W2.0714285714;\H3.0; }{\ftxt;\W0.0001;\H0.0001;\~}
 40
3.0
 41
9.3214285714
  0
LINE
  5
224
100
AcDbEntity
  8
0
100
AcDbLine
 62
7
  6
CONTINUOUS
 10
-104.5
 20
42.997941481
 11
-104.5
 21
53.5
  0
LINE
  5
225
100
AcDbEntity
  8
0
100
AcDbLine
 62
7
  6
CONTINUOUS
 10
-110.2
 20
42.8329793985
 11
-110.2
 21
53.5
  0
LINE
  5
226
100
AcDbEntity
  8
0
100
AcDbLine
 62
7
  6
CONTINUOUS
 10
-104.5
 20
52.0
 11
-100.5
 21
52.0
  0
LINE
  5
227
100
AcDbEntity
  8
0
100
AcDbLine
 62
7
  6
CONTINUOUS
 10
-100.5
 20
52.0
 11
-107.35
 21
52.0
  0
LINE
  5
228
100
AcDbEntity
  8
0
100
AcDbLine
 62
7
  6
CONTINUOUS
 10
-110.2
 20
52.0
 11
-120.78572588
 21
52.0
  0
LINE
  5
229
100
AcDbEntity
  8
0
100
AcDbLine
 62
7
  6
CONTINUOUS
 10
-120.78572588
 20
52.0
 11
-107.35
 21
52.0
  0
INSERT
  5
22A
100
AcDbEntity
  8
0
100
AcDbBlockReference
 62
7
  6
CONTINUOUS
  2
_FILLED
 10
-104.5
 20
52.0
 41
3.0
 42
3.0
 43
3.0
 50
180.0
  0
INSERT
  5
22B
100
AcDbEntity
  8
0
100
AcDbBlockReference
 62
7
  6
CONTINUOUS
  2
_FILLED
 10
-110.2
 20
52.0
 41
3.0
 42
3.0
 43
3.0
  0
ENDBLK
  5
22C
100
AcDbEntity
  8
0
  6
BYBLOCK
 62
0
100
AcDbBlockEnd
  0
BLOCK
  5
22D
100
AcDbEntity
  8
0
100
AcDbBlockBegin
 62
7
  6
CONTINUOUS
  2
*D1
 70
65
 10
0.0
 20
0.0
  3
*D1
  1

  0
MTEXT
  5
22E
100
AcDbEntity
  8
0
100
AcDbMText
 62
7
  6
CONTINUOUS
  7
STANDARD
 71
3
 72
1
 10
-114.6513842324
 20
65.75
 30
0.0
 11
1.0
 21
0.0
 31
0.0
 73
2
 44
0.9
  1
{\ftxt;\W0.0001;\H0.0001;\~}{\ftxt;\W2.7142857143;\H3.0; }{\ftxt;\W0.0001;\H0.0001;\~}
 40
3.0
 41
12.2142857143
  0
LINE
  5
22F
100
AcDbEntity
  8
0
100
AcDbLine
 62
7
  6
CONTINUOUS
 10
-110.2
 20
42.8329793985
 11
-110.2
 21
63.5
  0
LINE
  5
230
100
AcDbEntity
  8
0
100
AcDbLine
 62
7
  6
CONTINUOUS
 10
-99.8
 20
22.7
 11
-99.8
 21
63.5
  0
LINE
  5
231
100
AcDbEntity
  8
0
100
AcDbLine
 62
7
  6
CONTINUOUS
 10
-110.2
 20
62.0
 11
-122.7942413752
 21
62.0
  0
LINE
  5
232
100
AcDbEntity
  8
0
100
AcDbLine
 62
7
  6
CONTINUOUS
 10
-122.7942413752
 20
62.0
 11
-105.0
 21
62.0
  0
LINE
  5
233
100
AcDbEntity
  8
0
100
AcDbLine
 62
7
  6
CONTINUOUS
 10
-99.8
 20
62.0
 11
-95.8
 21
62.0
  0
LINE
  5
234
100
AcDbEntity
  8
0
100
AcDbLine
 62
7
  6
CONTINUOUS
 10
-95.8
 20
62.0
 11
-105.0
 21
62.0
  0
INSERT
  5
235
100
AcDbEntity
  8
0
100
AcDbBlockReference
 62
7
  6
CONTINUOUS
  2
_FILLED
 10
-110.2
 20
62.0
 41
3.0
 42
3.0
 43
3.0
  0
INSERT
  5
236
100
AcDbEntity
  8
0
100
AcDbBlockReference
 62
7
  6
CONTINUOUS
  2
_FILLED
 10
-99.8
 20
62.0
 41
3.0
 42
3.0
 43
3.0
 50
180.0
  0
ENDBLK
  5
237
100
AcDbEntity
  8
0
  6
BYBLOCK
 62
0
100
AcDbBlockEnd
  0
BLOCK
  5
238
100
AcDbEntity
  8
0
100
AcDbBlockBegin
 62
7
  6
CONTINUOUS
  2
*D2
 70
65
 10
0.0
 20
0.0
  3
*D2
  1

  0
MTEXT
  5
239
100
AcDbEntity
  8
0
100
AcDbMText
 62
7
  6
CONTINUOUS
  7
STANDARD
 71
2
 72
1
 10
0.0
 20
55.75
 30
0.0
 11
1.0
 21
0.0
 31
0.0
 73
2
 44
0.9
  1
{\ftxt;\W0.0001;\H0.0001;\~}{\ftxt;\W2.0;\H3.0; }{\ftxt;\W0.0001;\H0.0001;\~}
 40
3.0
 41
9.0
  0
LINE
  5
23A
100
AcDbEntity
  8
0
100
AcDbLine
 62
7
  6
CONTINUOUS
 10
-77.5
 20
43.0020556979
 11
-77.5
 21
53.5
  0
LINE
  5
23B
100
AcDbEntity
  8
0
100
AcDbLine
 62
7
  6
CONTINUOUS
 10
77.5
 20
43.0020556979
 11
77.5
 21
53.5
  0
LINE
  5
23C
100
AcDbEntity
  8
0
100
AcDbLine
 62
7
  6
CONTINUOUS
 10
-77.5
 20
52.0
 11
0.0
 21
52.0
  0
LINE
  5
23D
100
AcDbEntity
  8
0
100
AcDbLine
 62
7
  6
CONTINUOUS
 10
77.5
 20
52.0
 11
0.0
 21
52.0
  0
INSERT
  5
23E
100
AcDbEntity
  8
0
100
AcDbBlockReference
 62
7
  6
CONTINUOUS
  2
_FILLED
 10
-77.5
 20
52.0
 41
3.0
 42
3.0
 43
3.0
 50
180.0
  0
INSERT
  5
23F
100
AcDbEntity
  8
0
100
AcDbBlockReference
 62
7
  6
CONTINUOUS
  2
_FILLED
 10
77.5
 20
52.0
 41
3.0
 42
3.0
 43
3.0
  0
ENDBLK
  5
240
100
AcDbEntity
  8
0
  6
BYBLOCK
 62
0
100
AcDbBlockEnd
  0
BLOCK
  5
241
100
AcDbEntity
  8
0
100
AcDbBlockBegin
 62
7
  6
CONTINUOUS
  2
*D3
 70
65
 10
0.0
 20
0.0
  3
*D3
  1

  0
MTEXT
  5
242
100
AcDbEntity
  8
0
100
AcDbMText
 62
7
  6
CONTINUOUS
  7
STANDARD
 71
2
 72
1
 10
81.75
 20
0.0
 30
0.0
 11
0.0
 21
1.0
 31
0.0
 73
2
 44
0.9
  1
{\ftxt;\W0.0001;\H0.0001;\~}{\ftxt;\W1.5714285714;\H3.0; }{\ftxt;\W0.0001;\H0.0001;\~}
 40
3.0
 41
7.0714285714
  0
LINE
  5
243
100
AcDbEntity
  8
0
100
AcDbLine
 62
7
  6
CONTINUOUS
 10
76.5020556979
 20
44.0
 11
87.0
 21
44.0
  0
LINE
  5
244
100
AcDbEntity
  8
0
100
AcDbLine
 62
7
  6
CONTINUOUS
 10
76.5020556979
 20
-44.0
 11
87.0
 21
-44.0
  0
LINE
  5
245
100
AcDbEntity
  8
0
100
AcDbLine
 62
7
  6
CONTINUOUS
 10
85.5
 20
44.0
 11
85.5
 21
0.0
  0
LINE
  5
246
100
AcDbEntity
  8
0
100
AcDbLine
 62
7
  6
CONTINUOUS
 10
85.5
 20
-44.0
 11
85.5
 21
0.0
  0
INSERT
  5
247
100
AcDbEntity
  8
0
100
AcDbBlockReference
 62
7
  6
CONTINUOUS
  2
_FILLED
 10
85.5
 20
44.0
 41
3.0
 42
3.0
 43
3.0
 50
90.0
  0
INSERT
  5
248
100
AcDbEntity
  8
0
100
AcDbBlockReference
 62
7
  6
CONTINUOUS
  2
_FILLED
 10
85.5
 20
-44.0
 41
3.0
 42
3.0
 43
3.0
 50
270.0
  0
ENDBLK
  5
249
100
AcDbEntity
  8
0
  6
BYBLOCK
 62
0
100
AcDbBlockEnd
  0
ENDSEC
  0
SECTION
  2
ENTITIES
  0
DIMENSION
  5
24A
100
AcDbEntity
  8
0
100
AcDbDimension
 62
7
  6
CONTINUOUS
  2
*D0
 10
-110.2
 20
52.0
 11
-118.1071555939
 21
52.0
 70
160
 71
3
 72
2
 41
0.9
 42
5.7
  1
{\ftxt;\W0.0001;\H0.0001;\~}{\ftxt;\W2.0714285714;\H3.0; }{\ftxt;\W0.0001;\H0.0001;\~}
  3
DIMSTYLE_1
100
AcDbAlignedDimension
 13
-104.5
 23
42.497941481
 14
-110.2
 24
42.3329793985
 50
180.0
100
AcDbRotatedDimension
  0
DIMENSION
  5
24B
100
AcDbEntity
  8
0
100
AcDbDimension
 62
7
  6
CONTINUOUS
  2
*D1
 10
-99.8
 20
62.0
 11
-119.1513868561
 21
62.0
 70
160
 71
3
 72
2
 41
0.9
 42
10.4
  1
{\ftxt;\W0.0001;\H0.0001;\~}{\ftxt;\W2.7142857143;\H3.0; }{\ftxt;\W0.0001;\H0.0001;\~}
  3
DIMSTYLE_1
100
AcDbAlignedDimension
 13
-110.2
 23
42.3329793985
 14
-99.8
 24
22.2
100
AcDbRotatedDimension
  0
DIMENSION
  5
24C
100
AcDbEntity
  8
0
100
AcDbDimension
 62
7
  6
CONTINUOUS
  2
*D2
 10
77.5
 20
52.0
 11
-0.4285714481
 21
52.0
 70
160
 71
2
 72
2
 41
0.9
 42
155.0
  1
{\ftxt;\W0.0001;\H0.0001;\~}{\ftxt;\W2.0;\H3.0; }{\ftxt;\W0.0001;\H0.0001;\~}
  3
DIMSTYLE_1
100
AcDbAlignedDimension
 13
-77.5
 23
42.5020556979
 14
77.5
 24
42.5020556979
100
AcDbRotatedDimension
  0
DIMENSION
  5
24D
100
AcDbEntity
  8
0
100
AcDbDimension
 62
7
  6
CONTINUOUS
  2
*D3
 10
85.5
 20
-44.0
 11
85.5
 21
-0.4285702253
 70
160
 71
2
 72
2
 41
0.9
 42
88.0
  1
{\ftxt;\W0.0001;\H0.0001;\~}{\ftxt;\W1.5714285714;\H3.0; }{\ftxt;\W0.0001;\H0.0001;\~}
  3
DIMSTYLE_1
100
AcDbAlignedDimension
 13
76.0020556979
 23
44.0
 14
76.0020556979
 24
-44.0
 50
270.0
100
AcDbRotatedDimension
  0
LINE
  5
24E
100
AcDbEntity
  8
ASSI
100
AcDbLine
 62
7
  6
CONTINUOUS
 10
-77.5
 20
42.5020556979
 11
-77.5
 21
-42.5020556979
  0
LINE
  5
24F
100
AcDbEntity
  8
ASSI
100
AcDbLine
 62
250
  6
CONTINUOUS
 10
-77.3309237007
 20
42.3329793985
 11
-77.3309237007
 21
-42.3329793985
  0
LINE
  5
250
100
AcDbEntity
  8
ASSI
100
AcDbLine
 62
250
  6
CONTINUOUS
 10
-76.8316089333
 20
42.3329793985
 11
-76.8316089333
 21
-42.3329793985
  0
LINE
  5
251
100
AcDbEntity
  8
ASSI
100
AcDbLine
 62
250
  6
CONTINUOUS
 10
-75.8329793985
 20
-43.3316089333
 11
-75.8329793985
 21
-43.8309237007
  0
LINE
  5
252
100
AcDbEntity
  8
ASSI
100
AcDbLine
 62
250
  6
CONTINUOUS
 10
-75.8329793985
 20
43.3316089333
 11
-75.8329793985
 21
43.8309237007
  0
LINE
  5
253
100
AcDbEntity
  8
ASSI
100
AcDbLine
 62
250
  6
CONTINUOUS
 10
-56.7837732309
 20
-26.2838950748
 11
-56.7837732309
 21
26.2838950748
  0
LINE
  5
254
100
AcDbEntity
  8
ASSI
100
AcDbLine
 62
250
  6
CONTINUOUS
 10
-56.4838189223
 20
-26.2838950748
 11
-56.4838189223
 21
26.2838950748
  0
LINE
  5
255
100
AcDbEntity
  8
ASSI
100
AcDbLine
 62
7
  6
CONTINUOUS
 10
-56.475
 20
26.2750761524
 11
-56.475
 21
-26.2750761524
  0
LINE
  5
256
100
AcDbEntity
  8
ASSI
100
AcDbLine
 62
250
  6
CONTINUOUS
 10
-55.9838950748
 20
27.0837732309
 11
-55.9838950748
 21
26.7838189223
  0
LINE
  5
257
100
AcDbEntity
  8
ASSI
100
AcDbLine
 62
250
  6
CONTINUOUS
 10
-55.9838950748
 20
-27.0837732309
 11
-55.9838950748
 21
-26.7838189223
  0
LWPOLYLINE
  5
258
100
AcDbEntity
  8
0
100
AcDbPolyline
 62
7
  6
CONTINUOUS
 90
3
 70
0
 43
0.3500000006
 10
-3.0000000658
 20
54.8928560944
 10
-2.1428571696
 20
55.7499985657
 10
-2.1428571696
 20
52.750002182
  0
LINE
  5
259
100
AcDbEntity
  8
ASSI
100
AcDbLine
 62
7
  6
CONTINUOUS
 10
-76.0020556979
 20
-44.0
 11
76.0020556979
 21
-44.0
  0
LINE
  5
25A
100
AcDbEntity
  8
ASSI
100
AcDbLine
 62
250
  6
CONTINUOUS
 10
-75.8329793985
 20
-43.8309237007
 11
75.8329793985
 21
-43.8309237007
  0
LINE
  5
25B
100
AcDbEntity
  8
ASSI
100
AcDbLine
 62
250
  6
CONTINUOUS
 10
-75.8329793985
 20
-43.3316089333
 11
75.8329793985
 21
-43.3316089333
  0
LINE
  5
25C
100
AcDbEntity
  8
ASSI
100
AcDbLine
 62
250
  6
CONTINUOUS
 10
76.8316089333
 20
-42.3329793985
 11
77.3309237007
 21
-42.3329793985
  0
LINE
  5
25D
100
AcDbEntity
  8
ASSI
100
AcDbLine
 62
250
  6
CONTINUOUS
 10
-76.8316089333
 20
-42.3329793985
 11
-77.3309237007
 21
-42.3329793985
  0
LINE
  5
25E
100
AcDbEntity
  8
CURVE
100
AcDbLine
 62
250
  6
CONTINUOUS
 10
77.4663010118
 20
-36.699936
 11
77.3614876544
 21
-36.699936
  0
LINE
  5
25F
100
AcDbEntity
  8
CURVE
100
AcDbLine
 62
250
  6
CONTINUOUS
 10
77.3614876544
 20
-36.282492
 11
77.4663010118
 21
-36.282492
  0
LINE
  5
260
100
AcDbEntity
  8
CURVE
100
AcDbLine
 62
250
  6
CONTINUOUS
 10
77.4663010257
 20
-32.1967511684
 11
77.362718473
 21
-32.1967511684
  0
LINE
  5
261
100
AcDbEntity
  8
CURVE
100
AcDbLine
 62
250
  6
CONTINUOUS
 10
77.3793488976
 20
-31.7948281153
 11
77.4081204754
 21
-31.7948281153
  0
LINE
  5
262
100
AcDbEntity
  8
CURVE
100
AcDbLine
 62
250
  6
CONTINUOUS
 10
77.4252853371
 20
-31.7809862819
 11
77.4663010257
 21
-31.7809862819
  0
LINE
  5
263
100
AcDbEntity
  8
CURVE
100
AcDbLine
 62
250
  6
CONTINUOUS
 10
77.4167587078
 20
-31.1235216885
 11
77.417378026
 21
-31.1235216885
  0
LINE
  5
264
100
AcDbEntity
  8
ASSI
100
AcDbLine
 62
250
  6
CONTINUOUS
 10
-77.3309237007
 20
-42.3329793985
 11
-77.5
 21
-42.5020556979
  0
LINE
  5
265
100
AcDbEntity
  8
ASSI
100
AcDbLine
 62
250
  6
CONTINUOUS
 10
55.9838950748
 20
-27.0837732309
 11
-55.9838950748
 21
-27.0837732309
  0
LINE
  5
266
100
AcDbEntity
  8
ASSI
100
AcDbLine
 62
250
  6
CONTINUOUS
 10
55.9838950748
 20
-26.7838189223
 11
-55.9838950748
 21
-26.7838189223
  0
LINE
  5
267
100
AcDbEntity
  8
ASSI
100
AcDbLine
 62
7
  6
CONTINUOUS
 10
-55.9750761524
 20
-26.775
 11
55.9750761524
 21
-26.775
  0
LINE
  5
268
100
AcDbEntity
  8
ASSI
100
AcDbLine
 62
250
  6
CONTINUOUS
 10
-56.7837732309
 20
-26.2838950748
 11
-56.4838189223
 21
-26.2838950748
  0
LINE
  5
269
100
AcDbEntity
  8
ASSI
100
AcDbLine
 62
250
  6
CONTINUOUS
 10
56.7837732309
 20
-26.2838950748
 11
56.4838189223
 21
-26.2838950748
  0
LINE
  5
26A
100
AcDbEntity
  8
ASSI
100
AcDbLine
 62
250
  6
CONTINUOUS
 10
-77.3309237007
 20
42.3329793985
 11
-77.5
 21
42.5020556979
  0
LINE
  5
26B
100
AcDbEntity
  8
ASSI
100
AcDbLine
 62
250
  6
CONTINUOUS
 10
-75.8329793985
 20
-43.8309237007
 11
-76.0020556979
 21
-44.0
  0
LINE
  5
26C
100
AcDbEntity
  8
ASSI
100
AcDbLine
 62
250
  6
CONTINUOUS
 10
-56.4838189223
 20
-26.2838950748
 11
-56.475
 21
-26.2750761524
  0
LINE
  5
26D
100
AcDbEntity
  8
ASSI
100
AcDbLine
 62
250
  6
CONTINUOUS
 10
-55.9838950748
 20
-26.7838189223
 11
-55.9750761524
 21
-26.775
  0
LINE
  5
26E
100
AcDbEntity
  8
ASSI
100
AcDbLine
 62
250
  6
CONTINUOUS
 10
-75.8329793985
 20
43.8309237007
 11
-76.0020556979
 21
44.0
  0
LINE
  5
26F
100
AcDbEntity
  8
ASSI
100
AcDbLine
 62
250
  6
CONTINUOUS
 10
-56.4838189223
 20
26.2838950748
 11
-56.475
 21
26.2750761524
  0
LINE
  5
270
100
AcDbEntity
  8
ASSI
100
AcDbLine
 62
250
  6
CONTINUOUS
 10
-55.9838950748
 20
26.7838189223
 11
-55.9750761524
 21
26.775
  0
LWPOLYLINE
  5
271
100
AcDbEntity
  8
0
100
AcDbPolyline
 62
7
  6
CONTINUOUS
 90
4
 70
0
 43
0.3500000006
 10
84.3214251709
 20
-2.3571432495
 10
83.4642872314
 20
-2.3571432495
 10
83.0357182617
 20
-1.9285708809
 10
83.0357182617
 20
-1.2857140274
  0
LWPOLYLINE
  5
272
100
AcDbEntity
  8
0
100
AcDbPolyline
 62
7
  6
CONTINUOUS
 90
4
 70
0
 43
0.3500000006
 10
84.3214251709
 20
-0.0000003204
 10
83.4642872314
 20
-0.0000003204
 10
83.0357182617
 20
0.4285709152
 10
83.0357182617
 20
1.0714289017
  0
LINE
  5
273
100
AcDbEntity
  8
ASSI
100
AcDbLine
 62
250
  6
CONTINUOUS
 10
55.9838950748
 20
26.7838189223
 11
55.9750761524
 21
26.775
  0
LINE
  5
274
100
AcDbEntity
  8
ASSI
100
AcDbLine
 62
250
  6
CONTINUOUS
 10
56.4838189223
 20
26.2838950748
 11
56.475
 21
26.2750761524
  0
LINE
  5
275
100
AcDbEntity
  8
ASSI
100
AcDbLine
 62
250
  6
CONTINUOUS
 10
75.8329793985
 20
43.8309237007
 11
76.0020556979
 21
44.0
  0
LINE
  5
276
100
AcDbEntity
  8
ASSI
100
AcDbLine
 62
250
  6
CONTINUOUS
 10
55.9838950748
 20
-26.7838189223
 11
55.9750761524
 21
-26.775
  0
LINE
  5
277
100
AcDbEntity
  8
ASSI
100
AcDbLine
 62
250
  6
CONTINUOUS
 10
56.4838189223
 20
-26.2838950748
 11
56.475
 21
-26.2750761524
  0
LINE
  5
278
100
AcDbEntity
  8
ASSI
100
AcDbLine
 62
250
  6
CONTINUOUS
 10
75.8329793985
 20
-43.8309237007
 11
76.0020556979
 21
-44.0
  0
LINE
  5
279
100
AcDbEntity
  8
ASSI
100
AcDbLine
 62
250
  6
CONTINUOUS
 10
77.3309237007
 20
42.3329793985
 11
77.5
 21
42.5020556979
  0
LINE
  5
27A
100
AcDbEntity
  8
ASSI
100
AcDbLine
 62
250
  6
CONTINUOUS
 10
-56.7837732309
 20
26.2838950748
 11
-56.4838189223
 21
26.2838950748
  0
LINE
  5
27B
100
AcDbEntity
  8
ASSI
100
AcDbLine
 62
250
  6
CONTINUOUS
 10
56.7837732309
 20
26.2838950748
 11
56.4838189223
 21
26.2838950748
  0
LINE
  5
27C
100
AcDbEntity
  8
ASSI
100
AcDbLine
 62
7
  6
CONTINUOUS
 10
55.9750761524
 20
26.775
 11
-55.9750761524
 21
26.775
  0
LINE
  5
27D
100
AcDbEntity
  8
ASSI
100
AcDbLine
 62
250
  6
CONTINUOUS
 10
-55.9838950748
 20
26.7838189223
 11
55.9838950748
 21
26.7838189223
  0
LINE
  5
27E
100
AcDbEntity
  8
ASSI
100
AcDbLine
 62
250
  6
CONTINUOUS
 10
-55.9838950748
 20
27.0837732309
 11
55.9838950748
 21
27.0837732309
  0
LINE
  5
27F
100
AcDbEntity
  8
ASSI
100
AcDbLine
 62
250
  6
CONTINUOUS
 10
77.3309237007
 20
-42.3329793985
 11
77.5
 21
-42.5020556979
  0
LINE
  5
280
100
AcDbEntity
  8
ASSI
100
AcDbLine
 62
250
  6
CONTINUOUS
 10
76.8316089333
 20
42.3329793985
 11
77.3309237007
 21
42.3329793985
  0
LINE
  5
281
100
AcDbEntity
  8
ASSI
100
AcDbLine
 62
250
  6
CONTINUOUS
 10
-76.8316089333
 20
42.3329793985
 11
-77.3309237007
 21
42.3329793985
  0
LINE
  5
282
100
AcDbEntity
  8
CURVE
100
AcDbLine
 62
250
  6
CONTINUOUS
 10
77.4663010118
 20
-35.65841
 11
77.3978639464
 21
-35.568326
  0
LINE
  5
283
100
AcDbEntity
  8
ASSI
100
AcDbLine
 62
250
  6
CONTINUOUS
 10
75.8329793985
 20
43.3316089333
 11
-75.8329793985
 21
43.3316089333
  0
LINE
  5
284
100
AcDbEntity
  8
ASSI
100
AcDbLine
 62
250
  6
CONTINUOUS
 10
75.8329793985
 20
43.8309237007
 11
-75.8329793985
 21
43.8309237007
  0
LINE
  5
285
100
AcDbEntity
  8
ASSI
100
AcDbLine
 62
7
  6
CONTINUOUS
 10
76.0020556979
 20
44.0
 11
-76.0020556979
 21
44.0
  0
LWPOLYLINE
  5
286
100
AcDbEntity
  8
0
100
AcDbPolyline
 62
7
  6
CONTINUOUS
 90
8
 70
0
 43
0.3500000006
 10
-1.2857142735
 20
52.750002182
 10
-0.4285714127
 20
52.750002182
 10
0.0
 20
53.1785711517
 10
0.0
 20
54.035713623
 10
-0.4285714127
 20
54.4642871246
 10
-1.2857142735
 20
54.4642871246
 10
-1.2857142735
 20
55.7499985657
 10
0.0
 20
55.7499985657
  0
LWPOLYLINE
  5
287
100
AcDbEntity
  8
0
100
AcDbPolyline
 62
7
  6
CONTINUOUS
 90
8
 70
0
 43
0.3500000006
 10
0.8571428254
 20
52.750002182
 10
1.7142856507
 20
52.750002182
 10
2.1428571696
 20
53.1785711517
 10
2.1428571696
 20
54.035713623
 10
1.7142856507
 20
54.4642871246
 10
0.8571428254
 20
54.4642871246
 10
0.8571428254
 20
55.7499985657
 10
2.1428571696
 20
55.7499985657
  0
LINE
  5
288
100
AcDbEntity
  8
CURVE
100
AcDbLine
 62
250
  6
CONTINUOUS
 10
77.3614939433
 20
-35.877194
 11
77.4663010118
 21
-36.057768
  0
LINE
  5
289
100
AcDbEntity
  8
ASSI
100
AcDbLine
 62
250
  6
CONTINUOUS
 10
55.9838950748
 20
27.0837732309
 11
55.9838950748
 21
26.7838189223
  0
LINE
  5
28A
100
AcDbEntity
  8
ASSI
100
AcDbLine
 62
250
  6
CONTINUOUS
 10
55.9838950748
 20
-27.0837732309
 11
55.9838950748
 21
-26.7838189223
  0
LINE
  5
28B
100
AcDbEntity
  8
ASSI
100
AcDbLine
 62
7
  6
CONTINUOUS
 10
56.475
 20
-26.2750761524
 11
56.475
 21
26.2750761524
  0
LINE
  5
28C
100
AcDbEntity
  8
ASSI
100
AcDbLine
 62
250
  6
CONTINUOUS
 10
56.4838189223
 20
26.2838950748
 11
56.4838189223
 21
-26.2838950748
  0
LINE
  5
28D
100
AcDbEntity
  8
ASSI
100
AcDbLine
 62
250
  6
CONTINUOUS
 10
56.7837732309
 20
26.2838950748
 11
56.7837732309
 21
-26.2838950748
  0
LWPOLYLINE
  5
28E
100
AcDbEntity
  8
0
100
AcDbPolyline
 62
7
  6
CONTINUOUS
 90
13
 70
0
 43
0.3500000006
 10
83.0357182617
 20
0.4285709152
 10
82.8214247131
 20
0.1428575134
 10
82.1785712585
 20
0.1428575134
 10
81.7500022888
 20
0.4285709152
 10
81.7500022888
 20
1.0714289017
 10
82.1785712585
 20
1.3571423035
 10
82.8214247131
 20
1.3571423035
 10
83.0357182617
 20
1.0714289017
 10
83.4642872314
 20
1.5000001373
 10
84.3214251709
 20
1.5000001373
 10
84.7500032043
 20
1.0714289017
 10
84.7500032043
 20
0.4285709152
 10
84.3214251709
 20
-0.0000003204
  0
LWPOLYLINE
  5
28F
100
AcDbEntity
  8
0
100
AcDbPolyline
 62
7
  6
CONTINUOUS
 90
13
 70
0
 43
0.3500000006
 10
83.0357182617
 20
-1.9285708809
 10
82.8214247131
 20
-2.2142854156
 10
82.1785712585
 20
-2.2142854156
 10
81.7500022888
 20
-1.9285708809
 10
81.7500022888
 20
-1.2857140274
 10
82.1785712585
 20
-1.0000006256
 10
82.8214247131
 20
-1.0000006256
 10
83.0357182617
 20
-1.2857140274
 10
83.4642872314
 20
-0.8571427917
 10
84.3214251709
 20
-0.8571427917
 10
84.7500032043
 20
-1.2857140274
 10
84.7500032043
 20
-1.9285708809
 10
84.3214251709
 20
-2.3571432495
  0
LINE
  5
290
100
AcDbEntity
  8
CURVE
100
AcDbLine
 62
250
  6
CONTINUOUS
 10
77.4291874996
 20
-33.350542
 11
77.3902922801
 21
-33.14269
  0
LINE
  5
291
100
AcDbEntity
  8
CURVE
100
AcDbLine
 62
250
  6
CONTINUOUS
 10
77.3614939433
 20
-37.272011
 11
77.4336359243
 21
-37.66486
  0
LINE
  5
292
100
AcDbEntity
  8
CURVE
100
AcDbLine
 62
250
  6
CONTINUOUS
 10
77.4663010118
 20
-33.551121
 11
77.4453777824
 21
-33.435933
  0
LINE
  5
293
100
AcDbEntity
  8
CURVE
100
AcDbLine
 62
250
  6
CONTINUOUS
 10
77.3614939433
 20
-33.33676
 11
77.4663010118
 21
-33.964037
  0
LINE
  5
294
100
AcDbEntity
  8
CURVE
100
AcDbLine
 62
250
  6
CONTINUOUS
 10
77.4663010118
 20
-37.497679
 11
77.3614939433
 21
-36.854851
  0
LINE
  5
295
100
AcDbEntity
  8
CURVE
100
AcDbLine
 62
250
  6
CONTINUOUS
 10
77.3614939433
 20
-34.629615
 11
77.4196831392
 21
-35.047059
  0
LINE
  5
296
100
AcDbEntity
  8
CURVE
100
AcDbLine
 62
250
  6
CONTINUOUS
 10
77.4663010118
 20
-35.020066
 11
77.3981493067
 21
-34.523725
  0
LINE
  5
297
100
AcDbEntity
  8
ASSI
100
AcDbLine
 62
250
  6
CONTINUOUS
 10
75.8329793985
 20
-43.3316089333
 11
75.8329793985
 21
-43.8309237007
  0
LINE
  5
298
100
AcDbEntity
  8
ASSI
100
AcDbLine
 62
250
  6
CONTINUOUS
 10
75.8329793985
 20
43.3316089333
 11
75.8329793985
 21
43.8309237007
  0
LINE
  5
299
100
AcDbEntity
  8
ASSI
100
AcDbLine
 62
250
  6
CONTINUOUS
 10
76.8316089333
 20
-42.3329793985
 11
76.8316089333
 21
42.3329793985
  0
LINE
  5
29A
100
AcDbEntity
  8
ASSI
100
AcDbLine
 62
250
  6
CONTINUOUS
 10
77.3309237007
 20
-42.3329793985
 11
77.3309237007
 21
42.3329793985
  0
LINE
  5
29B
100
AcDbEntity
  8
CURVE
100
AcDbLine
 62
250
  6
CONTINUOUS
 10
77.3614876544
 20
-36.699936
 11
77.3614876544
 21
-36.282492
  0
LINE
  5
29C
100
AcDbEntity
  8
CURVE
100
AcDbLine
 62
250
  6
CONTINUOUS
 10
77.3614939433
 20
-32.932933
 11
77.3614939433
 21
-33.33676
  0
LINE
  5
29D
100
AcDbEntity
  8
CURVE
100
AcDbLine
 62
250
  6
CONTINUOUS
 10
77.3614939433
 20
-34.216594
 11
77.3614939433
 21
-34.629615
  0
LINE
  5
29E
100
AcDbEntity
  8
CURVE
100
AcDbLine
 62
250
  6
CONTINUOUS
 10
77.3614939433
 20
-35.460095
 11
77.3614939433
 21
-35.877194
  0
LINE
  5
29F
100
AcDbEntity
  8
CURVE
100
AcDbLine
 62
250
  6
CONTINUOUS
 10
77.3614939433
 20
-36.854851
 11
77.3614939433
 21
-37.272011
  0
LINE
  5
2A0
100
AcDbEntity
  8
CURVE
100
AcDbLine
 62
250
  6
CONTINUOUS
 10
77.3614939433
 20
-38.046066
 11
77.3614939433
 21
-38.499539
  0
LINE
  5
2A1
100
AcDbEntity
  8
CURVE
100
AcDbLine
 62
250
  6
CONTINUOUS
 10
77.4081204754
 20
-31.7948281153
 11
77.4081204754
 21
-31.5562626914
  0
LINE
  5
2A2
100
AcDbEntity
  8
CURVE
100
AcDbLine
 62
250
  6
CONTINUOUS
 10
77.4252853371
 20
-31.5571624855
 11
77.4252853371
 21
-31.7809862819
  0
LINE
  5
2A3
100
AcDbEntity
  8
CURVE
100
AcDbLine
 62
250
  6
CONTINUOUS
 10
77.4291874996
 20
-32.950869
 11
77.4291874996
 21
-33.350542
  0
LINE
  5
2A4
100
AcDbEntity
  8
CURVE
100
AcDbLine
 62
250
  6
CONTINUOUS
 10
77.4453777824
 20
-33.435933
 11
77.4453777824
 21
-32.867443
  0
LINE
  5
2A5
100
AcDbEntity
  8
CURVE
100
AcDbLine
 62
250
  6
CONTINUOUS
 10
77.4663010118
 20
-37.865552
 11
77.4663010118
 21
-37.497679
  0
LINE
  5
2A6
100
AcDbEntity
  8
CURVE
100
AcDbLine
 62
250
  6
CONTINUOUS
 10
77.4663010118
 20
-36.057768
 11
77.4663010118
 21
-35.65841
  0
LINE
  5
2A7
100
AcDbEntity
  8
CURVE
100
AcDbLine
 62
250
  6
CONTINUOUS
 10
77.4663010118
 20
-35.078612
 11
77.4663010118
 21
-35.020066
  0
LINE
  5
2A8
100
AcDbEntity
  8
CURVE
100
AcDbLine
 62
250
  6
CONTINUOUS
 10
77.4663010118
 20
-34.437958
 11
77.4663010118
 21
-34.029587
  0
LINE
  5
2A9
100
AcDbEntity
  8
CURVE
100
AcDbLine
 62
250
  6
CONTINUOUS
 10
77.4663010118
 20
-33.964037
 11
77.4663010118
 21
-33.551121
  0
LINE
  5
2AA
100
AcDbEntity
  8
CURVE
100
AcDbLine
 62
250
  6
CONTINUOUS
 10
77.4663010118
 20
-32.759302
 11
77.4663010118
 21
-32.319333
  0
LINE
  5
2AB
100
AcDbEntity
  8
CURVE
100
AcDbLine
 62
250
  6
CONTINUOUS
 10
77.4663010257
 20
-30.7401943813
 11
77.4663010257
 21
-31.1417275236
  0
LINE
  5
2AC
100
AcDbEntity
  8
CURVE
100
AcDbLine
 62
250
  6
CONTINUOUS
 10
77.4663010257
 20
-31.7809862819
 11
77.4663010257
 21
-32.1967511684
  0
LINE
  5
2AD
100
AcDbEntity
  8
CURVE
100
AcDbLine
 62
250
  6
CONTINUOUS
 10
77.4663010118
 20
-36.282492
 11
77.4663010118
 21
-36.699936
  0
LINE
  5
2AE
100
AcDbEntity
  8
ASSI
100
AcDbLine
 62
7
  6
CONTINUOUS
 10
77.5
 20
-42.5020556979
 11
77.5
 21
42.5020556979
  0
LINE
  5
2AF
100
AcDbEntity
  8
CURVE
100
AcDbLine
 62
250
  6
CONTINUOUS
 10
77.3978639464
 20
-35.568326
 11
77.4663010118
 21
-35.078612
  0
LINE
  5
2B0
100
AcDbEntity
  8
CURVE
100
AcDbLine
 62
250
  6
CONTINUOUS
 10
77.4196831392
 20
-35.047059
 11
77.3614939433
 21
-35.460095
  0
LINE
  5
2B1
100
AcDbEntity
  8
CURVE
100
AcDbLine
 62
250
  6
CONTINUOUS
 10
77.3614939433
 20
-38.499539
 11
77.4663010118
 21
-37.865552
  0
LINE
  5
2B2
100
AcDbEntity
  8
CURVE
100
AcDbLine
 62
250
  6
CONTINUOUS
 10
77.4663010118
 20
-32.319333
 11
77.3614939433
 21
-32.932933
  0
LINE
  5
2B3
100
AcDbEntity
  8
CURVE
100
AcDbLine
 62
250
  6
CONTINUOUS
 10
77.4336359243
 20
-37.66486
 11
77.3614939433
 21
-38.046066
  0
LINE
  5
2B4
100
AcDbEntity
  8
CURVE
100
AcDbLine
 62
250
  6
CONTINUOUS
 10
77.4453777824
 20
-32.867443
 11
77.4663010118
 21
-32.759302
  0
LINE
  5
2B5
100
AcDbEntity
  8
CURVE
100
AcDbLine
 62
250
  6
CONTINUOUS
 10
77.3902922801
 20
-33.14269
 11
77.4291874996
 21
-32.950869
  0
LINE
  5
2B6
100
AcDbEntity
  8
CURVE
100
AcDbLine
 62
250
  6
CONTINUOUS
 10
77.4663010118
 20
-34.029587
 11
77.3614939433
 21
-34.216594
  0
LINE
  5
2B7
100
AcDbEntity
  8
CURVE
100
AcDbLine
 62
250
  6
CONTINUOUS
 10
77.3981493067
 20
-34.523725
 11
77.4663010118
 21
-34.437958
  0
LWPOLYLINE
  5
2B8
100
AcDbEntity
  8
0
100
AcDbPolyline
 62
7
  6
CONTINUOUS
 90
3
 70
0
 43
0.3500000006
 10
-122.7942457581
 20
64.8928546143
 10
-121.9370987549
 20
65.7500016174
 10
-121.9370987549
 20
62.7500007019
  0
LINE
  5
2B9
100
AcDbEntity
  8
ASSI
100
AcDbLine
 62
7
  6
CONTINUOUS
 10
-109.7261679781
 20
-43.8309237007
 11
-106.5
 21
-44.0
  0
LINE
  5
2BA
100
AcDbEntity
  8
ASSI
100
AcDbLine
 62
7
  6
CONTINUOUS
 10
-104.6895328088
 20
-43.182877643
 11
-106.0814000518
 21
-43.2558223142
  0
LINE
  5
2BB
100
AcDbEntity
  8
ASSI
100
AcDbLine
 62
250
  6
CONTINUOUS
 10
-106.5
 20
-42.5020556979
 11
-106.0814000518
 21
-42.4982285624
  0
LINE
  5
2BC
100
AcDbEntity
  8
ASSI
100
AcDbLine
 62
250
  6
CONTINUOUS
 10
-104.5
 20
-42.497941481
 11
-106.0814000518
 21
-42.497941481
  0
LINE
  5
2BD
100
AcDbEntity
  8
ASSI
100
AcDbLine
 62
250
  6
CONTINUOUS
 10
-110.2
 20
-42.3329793985
 11
-109.7261679781
 21
-42.3329793985
  0
LINE
  5
2BE
100
AcDbEntity
  8
ASSI
100
AcDbLine
 62
250
  6
CONTINUOUS
 10
-109.7261679781
 20
-42.3329793985
 11
-106.5
 21
-42.5020556979
  0
LINE
  5
2BF
100
AcDbEntity
  8
CURVE
100
AcDbLine
 62
250
  6
CONTINUOUS
 10
-107.766302
 20
-37.66486
 11
-109.142853
 21
-38.046066
  0
LINE
  5
2C0
100
AcDbEntity
  8
CURVE
100
AcDbLine
 62
250
  6
CONTINUOUS
 10
-107.143015
 20
-36.699936
 11
-109.142973
 21
-36.699936
  0
LINE
  5
2C1
100
AcDbEntity
  8
CURVE
100
AcDbLine
 62
250
  6
CONTINUOUS
 10
-109.142973
 20
-36.282492
 11
-107.143015
 21
-36.282492
  0
LINE
  5
2C2
100
AcDbEntity
  8
CURVE
100
AcDbLine
 62
250
  6
CONTINUOUS
 10
-107.143015
 20
-35.65841
 11
-108.448872
 21
-35.568326
  0
LINE
  5
2C3
100
AcDbEntity
  8
CURVE
100
AcDbLine
 62
250
  6
CONTINUOUS
 10
-109.142853
 20
-35.877194
 11
-107.143015
 21
-36.057768
  0
LINE
  5
2C4
100
AcDbEntity
  8
CURVE
100
AcDbLine
 62
250
  6
CONTINUOUS
 10
-109.142853
 20
-37.272011
 11
-107.766302
 21
-37.66486
  0
LINE
  5
2C5
100
AcDbEntity
  8
CURVE
100
AcDbLine
 62
250
  6
CONTINUOUS
 10
-107.143015
 20
-37.497679
 11
-109.142853
 21
-36.854851
  0
LWPOLYLINE
  5
2C6
100
AcDbEntity
  8
0
100
AcDbPolyline
 62
7
  6
CONTINUOUS
 90
3
 70
0
 43
0.3500000006
 10
-118.008528717
 20
63.0357163696
 10
-118.0799598999
 20
62.8214318848
 10
-118.2228132019
 20
62.535716217
  0
LINE
  5
2C7
100
AcDbEntity
  8
CURVE
100
AcDbLine
 62
250
  6
CONTINUOUS
 10
-107.143015
 20
-34.029587
 11
-109.142853
 21
-34.216594
  0
LINE
  5
2C8
100
AcDbEntity
  8
CURVE
100
AcDbLine
 62
250
  6
CONTINUOUS
 10
-108.443427
 20
-34.523725
 11
-107.143015
 21
-34.437958
  0
LINE
  5
2C9
100
AcDbEntity
  8
CURVE
100
AcDbLine
 62
250
  6
CONTINUOUS
 10
-107.1430147347
 20
-32.1967511684
 11
-109.1194875818
 21
-32.1967511684
  0
LINE
  5
2CA
100
AcDbEntity
  8
CURVE
100
AcDbLine
 62
250
  6
CONTINUOUS
 10
-107.851183
 20
-33.350542
 11
-108.593348
 21
-33.14269
  0
LINE
  5
2CB
100
AcDbEntity
  8
CURVE
100
AcDbLine
 62
250
  6
CONTINUOUS
 10
-107.143015
 20
-33.551121
 11
-107.542254
 21
-33.435933
  0
LINE
  5
2CC
100
AcDbEntity
  8
CURVE
100
AcDbLine
 62
250
  6
CONTINUOUS
 10
-109.142853
 20
-33.33676
 11
-107.143015
 21
-33.964037
  0
LINE
  5
2CD
100
AcDbEntity
  8
CURVE
100
AcDbLine
 62
250
  6
CONTINUOUS
 10
-109.142853
 20
-34.629615
 11
-108.032537
 21
-35.047059
  0
LINE
  5
2CE
100
AcDbEntity
  8
CURVE
100
AcDbLine
 62
250
  6
CONTINUOUS
 10
-107.143015
 20
-35.020066
 11
-108.443427
 21
-34.523725
  0
LINE
  5
2CF
100
AcDbEntity
  8
CURVE
100
AcDbLine
 62
250
  6
CONTINUOUS
 10
-107.542254
 20
-32.867443
 11
-107.143015
 21
-32.759302
  0
LINE
  5
2D0
100
AcDbEntity
  8
CURVE
100
AcDbLine
 62
250
  6
CONTINUOUS
 10
-108.593348
 20
-33.14269
 11
-107.851183
 21
-32.950869
  0
LINE
  5
2D1
100
AcDbEntity
  8
CURVE
100
AcDbLine
 62
250
  6
CONTINUOUS
 10
-108.8021601761
 20
-31.7948281153
 11
-108.2531657682
 21
-31.7948281153
  0
LINE
  5
2D2
100
AcDbEntity
  8
CURVE
100
AcDbLine
 62
250
  6
CONTINUOUS
 10
-107.9256406953
 20
-31.7809862819
 11
-107.1430147347
 21
-31.7809862819
  0
LINE
  5
2D3
100
AcDbEntity
  8
CURVE
100
AcDbLine
 62
250
  6
CONTINUOUS
 10
-108.0883384753
 20
-31.1235216885
 11
-108.0765211787
 21
-31.1235216885
  0
LWPOLYLINE
  5
2D4
100
AcDbEntity
  8
0
100
AcDbPolyline
 62
7
  6
CONTINUOUS
 90
3
 70
0
 43
0.3500000006
 10
-117.9285867004
 20
53.0357133179
 10
-118.0000088196
 20
52.821428833
 10
-118.1428711853
 20
52.5357131653
  0
LINE
  5
2D5
100
AcDbEntity
  8
ASSI
100
AcDbLine
 62
7
  6
CONTINUOUS
 10
-99.8
 20
-23.0
 11
-104.5
 21
-23.1641276166
  0
LINE
  5
2D6
100
AcDbEntity
  8
ASSI
100
AcDbLine
 62
250
  6
CONTINUOUS
 10
-100.2075256927
 20
-22.7168478984
 11
-104.5
 21
-22.8667444042
  0
LINE
  5
2D7
100
AcDbEntity
  8
ASSI
100
AcDbLine
 62
7
  6
CONTINUOUS
 10
-99.8
 20
-20.4
 11
-104.5
 21
-20.4410162786
  0
LINE
  5
2D8
100
AcDbEntity
  8
ASSI
100
AcDbLine
 62
250
  6
CONTINUOUS
 10
-100.2075256927
 20
-22.4957553545
 11
-104.5
 21
-22.4582954987
  0
LINE
  5
2D9
100
AcDbEntity
  8
ASSI
100
AcDbLine
 62
7
  6
CONTINUOUS
 10
-99.8
 20
-22.2
 11
-104.5
 21
-22.1589837214
  0
LINE
  5
2DA
100
AcDbEntity
  8
ASSI
100
AcDbLine
 62
250
  6
CONTINUOUS
 10
-104.5
 20
-20.1417045013
 11
-100.2075256927
 21
-20.1042446455
  0
LINE
  5
2DB
100
AcDbEntity
  8
ASSI
100
AcDbLine
 62
250
  6
CONTINUOUS
 10
-104.5
 20
-19.7332555958
 11
-100.2075256927
 21
-19.8831521016
  0
LINE
  5
2DC
100
AcDbEntity
  8
ASSI
100
AcDbLine
 62
7
  6
CONTINUOUS
 10
-104.5
 20
-19.4358723834
 11
-99.8
 21
-19.6
  0
LWPOLYLINE
  5
2DD
100
AcDbEntity
  8
0
100
AcDbPolyline
 62
7
  6
CONTINUOUS
 90
13
 70
0
 43
0.3500000006
 10
-121.0799517517
 20
63.6071386414
 10
-121.0799517517
 20
64.8928546143
 10
-120.8656672668
 20
65.3214326477
 10
-120.4370982971
 20
65.7500016174
 10
-120.2228138123
 20
65.7500016174
 10
-119.7942448425
 20
65.3214326477
 10
-119.5799512939
 20
64.8928546143
 10
-119.5799512939
 20
63.6071386414
 10
-119.7942448425
 20
63.1785696716
 10
-120.2228138123
 20
62.7500007019
 10
-120.4370982971
 20
62.7500007019
 10
-120.8656672668
 20
63.1785696716
 10
-121.0799517517
 20
63.6071386414
  0
LWPOLYLINE
  5
2DE
100
AcDbEntity
  8
0
100
AcDbPolyline
 62
7
  6
CONTINUOUS
 90
4
 70
0
 43
0.3500000006
 10
-116.9285863953
 20
55.1071451111
 10
-116.9285863953
 20
55.7499985657
 10
-115.4285859375
 20
55.7499985657
 10
-116.285723877
 20
52.750002182
  0
LWPOLYLINE
  5
2DF
100
AcDbEntity
  8
0
100
AcDbPolyline
 62
7
  6
CONTINUOUS
 90
2
 70
0
 43
0.3500000006
 10
-116.0085281067
 20
62.7500007019
 10
-116.0085281067
 20
64.2500011597
  0
LINE
  5
2E0
100
AcDbEntity
  8
ASSI
100
AcDbLine
 62
7
  6
CONTINUOUS
 10
-110.2
 20
-43.3316089333
 11
-110.2
 21
43.3316089333
  0
LINE
  5
2E1
100
AcDbEntity
  8
ASSI
100
AcDbLine
 62
250
  6
CONTINUOUS
 10
-109.7261679781
 20
-42.3329793985
 11
-109.7261679781
 21
42.3329793985
  0
LINE
  5
2E2
100
AcDbEntity
  8
CURVE
100
AcDbLine
 62
250
  6
CONTINUOUS
 10
-109.142973
 20
-36.699936
 11
-109.142973
 21
-36.282492
  0
LINE
  5
2E3
100
AcDbEntity
  8
CURVE
100
AcDbLine
 62
250
  6
CONTINUOUS
 10
-109.142853
 20
-32.932933
 11
-109.142853
 21
-33.33676
  0
LINE
  5
2E4
100
AcDbEntity
  8
CURVE
100
AcDbLine
 62
250
  6
CONTINUOUS
 10
-109.142853
 20
-34.216594
 11
-109.142853
 21
-34.629615
  0
LINE
  5
2E5
100
AcDbEntity
  8
CURVE
100
AcDbLine
 62
250
  6
CONTINUOUS
 10
-109.142853
 20
-35.460095
 11
-109.142853
 21
-35.877194
  0
LINE
  5
2E6
100
AcDbEntity
  8
CURVE
100
AcDbLine
 62
250
  6
CONTINUOUS
 10
-109.142853
 20
-36.854851
 11
-109.142853
 21
-37.272011
  0
LINE
  5
2E7
100
AcDbEntity
  8
CURVE
100
AcDbLine
 62
250
  6
CONTINUOUS
 10
-109.142853
 20
-38.046066
 11
-109.142853
 21
-38.499539
  0
LINE
  5
2E8
100
AcDbEntity
  8
CURVE
100
AcDbLine
 62
250
  6
CONTINUOUS
 10
-108.2531657682
 20
-31.7948281153
 11
-108.2531657682
 21
-31.5562626914
  0
LINE
  5
2E9
100
AcDbEntity
  8
CURVE
100
AcDbLine
 62
250
  6
CONTINUOUS
 10
-107.9256406953
 20
-31.5571624855
 11
-107.9256406953
 21
-31.7809862819
  0
LINE
  5
2EA
100
AcDbEntity
  8
CURVE
100
AcDbLine
 62
250
  6
CONTINUOUS
 10
-107.851183
 20
-32.950869
 11
-107.851183
 21
-33.350542
  0
LINE
  5
2EB
100
AcDbEntity
  8
ASSI
100
AcDbLine
 62
7
  6
CONTINUOUS
 10
-106.0814000833
 20
43.2558223159
 11
-106.081388929
 21
43.2541973049
  0
LINE
  5
2EC
100
AcDbEntity
  8
CURVE
100
AcDbLine
 62
250
  6
CONTINUOUS
 10
-107.542254
 20
-33.435933
 11
-107.542254
 21
-32.867443
  0
LINE
  5
2ED
100
AcDbEntity
  8
CURVE
100
AcDbLine
 62
250
  6
CONTINUOUS
 10
-107.143015
 20
-37.865552
 11
-107.143015
 21
-37.497679
  0
LINE
  5
2EE
100
AcDbEntity
  8
CURVE
100
AcDbLine
 62
250
  6
CONTINUOUS
 10
-107.143015
 20
-36.057768
 11
-107.143015
 21
-35.65841
  0
LINE
  5
2EF
100
AcDbEntity
  8
CURVE
100
AcDbLine
 62
250
  6
CONTINUOUS
 10
-107.143015
 20
-35.078612
 11
-107.143015
 21
-35.020066
  0
LINE
  5
2F0
100
AcDbEntity
  8
CURVE
100
AcDbLine
 62
250
  6
CONTINUOUS
 10
-107.143015
 20
-34.437958
 11
-107.143015
 21
-34.029587
  0
LINE
  5
2F1
100
AcDbEntity
  8
CURVE
100
AcDbLine
 62
250
  6
CONTINUOUS
 10
-107.143015
 20
-33.964037
 11
-107.143015
 21
-33.551121
  0
LINE
  5
2F2
100
AcDbEntity
  8
CURVE
100
AcDbLine
 62
250
  6
CONTINUOUS
 10
-107.143015
 20
-32.759302
 11
-107.143015
 21
-32.319333
  0
LINE
  5
2F3
100
AcDbEntity
  8
CURVE
100
AcDbLine
 62
250
  6
CONTINUOUS
 10
-107.143015
 20
-36.282492
 11
-107.143015
 21
-36.699936
  0
LINE
  5
2F4
100
AcDbEntity
  8
CURVE
100
AcDbLine
 62
250
  6
CONTINUOUS
 10
-107.1430147347
 20
-30.7401943813
 11
-107.1430147347
 21
-31.1417275236
  0
LINE
  5
2F5
100
AcDbEntity
  8
CURVE
100
AcDbLine
 62
250
  6
CONTINUOUS
 10
-107.1430147347
 20
-31.7809862819
 11
-107.1430147347
 21
-32.1967511684
  0
LINE
  5
2F6
100
AcDbEntity
  8
ASSI
100
AcDbLine
 62
7
  6
CONTINUOUS
 10
-106.5
 20
-44.0
 11
-106.5
 21
44.0
  0
LINE
  5
2F7
100
AcDbEntity
  8
ASSI
100
AcDbLine
 62
7
  6
CONTINUOUS
 10
-106.0814000833
 20
-43.2558223159
 11
-106.081388929
 21
43.2541973049
  0
LINE
  5
2F8
100
AcDbEntity
  8
ASSI
100
AcDbLine
 62
7
  6
CONTINUOUS
 10
-106.0813234337
 20
43.1281052658
 11
-106.0813171341
 21
43.0334910109
  0
LINE
  5
2F9
100
AcDbEntity
  8
ASSI
100
AcDbLine
 62
250
  6
CONTINUOUS
 10
-104.6895328088
 20
43.182877643
 11
-104.6895328088
 21
-43.182877643
  0
LINE
  5
2FA
100
AcDbEntity
  8
ASSI
100
AcDbLine
 62
7
  6
CONTINUOUS
 10
-106.0813178989
 20
42.9970880937
 11
-106.0814000833
 21
42.497941481
  0
LINE
  5
2FB
100
AcDbEntity
  8
ASSI
100
AcDbLine
 62
7
  6
CONTINUOUS
 10
-106.0813889387
 20
-43.2541992618
 11
-106.0814000833
 21
-43.2558223159
  0
LINE
  5
2FC
100
AcDbEntity
  8
ASSI
100
AcDbLine
 62
7
  6
CONTINUOUS
 10
-104.5
 20
42.983151736
 11
-104.5
 21
-42.983151736
  0
LINE
  5
2FD
100
AcDbEntity
  8
ASSI
100
AcDbLine
 62
7
  6
CONTINUOUS
 10
-102.10329231
 20
22.1798994725
 11
-102.10329231
 21
20.4201005275
  0
LINE
  5
2FE
100
AcDbEntity
  8
ASSI
100
AcDbLine
 62
7
  6
CONTINUOUS
 10
-102.10329231
 20
-20.4201005275
 11
-102.10329231
 21
-22.1798994725
  0
LINE
  5
2FF
100
AcDbEntity
  8
ASSI
100
AcDbLine
 62
7
  6
CONTINUOUS
 10
-100.2075256927
 20
-22.7168478984
 11
-100.2075256927
 21
-22.4957553545
  0
LINE
  5
300
100
AcDbEntity
  8
ASSI
100
AcDbLine
 62
7
  6
CONTINUOUS
 10
-100.2075256927
 20
-20.1042446455
 11
-100.2075256927
 21
-19.8831521016
  0
LINE
  5
301
100
AcDbEntity
  8
ASSI
100
AcDbLine
 62
7
  6
CONTINUOUS
 10
-100.2075256927
 20
19.8831521016
 11
-100.2075256927
 21
20.1042446455
  0
LINE
  5
302
100
AcDbEntity
  8
ASSI
100
AcDbLine
 62
7
  6
CONTINUOUS
 10
-100.2075256927
 20
22.4957553545
 11
-100.2075256927
 21
22.7168478984
  0
LINE
  5
303
100
AcDbEntity
  8
ASSI
100
AcDbLine
 62
7
  6
CONTINUOUS
 10
-99.8
 20
-23.0
 11
-99.8
 21
-19.6
  0
LINE
  5
304
100
AcDbEntity
  8
ASSI
100
AcDbLine
 62
7
  6
CONTINUOUS
 10
-99.8
 20
19.6
 11
-99.8
 21
23.0
  0
LWPOLYLINE
  5
305
100
AcDbEntity
  8
0
100
AcDbPolyline
 62
7
  6
CONTINUOUS
 90
10
 70
0
 43
0.3500000006
 10
-118.0000088196
 20
53.2499978027
 10
-117.9285867004
 20
53.1071445007
 10
-117.9285867004
 20
53.0357133179
 10
-118.0714400024
 20
52.892855484
 10
-118.1428711853
 20
52.892855484
 10
-118.2142933044
 20
52.9642866669
 10
-118.2142933044
 20
53.0357133179
 10
-118.1428711853
 20
53.1785711517
 10
-118.0714400024
 20
53.2499978027
 10
-118.0000088196
 20
53.2499978027
  0
LWPOLYLINE
  5
306
100
AcDbEntity
  8
0
100
AcDbPolyline
 62
7
  6
CONTINUOUS
 90
10
 70
0
 43
0.3500000006
 10
-118.0799598999
 20
63.2500008545
 10
-118.008528717
 20
63.1071384888
 10
-118.008528717
 20
63.0357163696
 10
-118.151382019
 20
62.8928540039
 10
-118.2228132019
 20
62.8928540039
 10
-118.2942443848
 20
62.9642851868
 10
-118.2942443848
 20
63.0357163696
 10
-118.2228132019
 20
63.1785696716
 10
-118.151382019
 20
63.2500008545
 10
-118.0799598999
 20
63.2500008545
  0
LINE
  5
307
100
AcDbEntity
  8
ASSI
100
AcDbLine
 62
7
  6
CONTINUOUS
 10
-106.5
 20
-44.0
 11
-106.0814000518
 21
-43.2558223142
  0
LINE
  5
308
100
AcDbEntity
  8
ASSI
100
AcDbLine
 62
7
  6
CONTINUOUS
 10
-99.8
 20
19.6
 11
-104.5
 21
19.4358723834
  0
LINE
  5
309
100
AcDbEntity
  8
ASSI
100
AcDbLine
 62
250
  6
CONTINUOUS
 10
-100.2075256927
 20
19.8831521016
 11
-104.5
 21
19.7332555958
  0
LINE
  5
30A
100
AcDbEntity
  8
ASSI
100
AcDbLine
 62
250
  6
CONTINUOUS
 10
-100.2075256927
 20
20.1042446455
 11
-104.5
 21
20.1417045013
  0
LINE
  5
30B
100
AcDbEntity
  8
ASSI
100
AcDbLine
 62
7
  6
CONTINUOUS
 10
-99.8
 20
20.4
 11
-104.5
 21
20.4410162786
  0
LINE
  5
30C
100
AcDbEntity
  8
ASSI
100
AcDbLine
 62
7
  6
CONTINUOUS
 10
-106.5
 20
44.0
 11
-106.0814000518
 21
43.2558223142
  0
LINE
  5
30D
100
AcDbEntity
  8
ASSI
100
AcDbLine
 62
7
  6
CONTINUOUS
 10
-99.8
 20
22.2
 11
-104.5
 21
22.1589837214
  0
LINE
  5
30E
100
AcDbEntity
  8
ASSI
100
AcDbLine
 62
250
  6
CONTINUOUS
 10
-104.5
 20
22.4582954987
 11
-100.2075256927
 21
22.4957553545
  0
LINE
  5
30F
100
AcDbEntity
  8
ASSI
100
AcDbLine
 62
250
  6
CONTINUOUS
 10
-104.5
 20
22.8667444042
 11
-100.2075256927
 21
22.7168478984
  0
LINE
  5
310
100
AcDbEntity
  8
ASSI
100
AcDbLine
 62
7
  6
CONTINUOUS
 10
-104.5
 20
23.1641276166
 11
-99.8
 21
23.0
  0
LINE
  5
311
100
AcDbEntity
  8
CURVE
100
AcDbLine
 62
250
  6
CONTINUOUS
 10
-108.448872
 20
-35.568326
 11
-107.143015
 21
-35.078612
  0
LINE
  5
312
100
AcDbEntity
  8
CURVE
100
AcDbLine
 62
250
  6
CONTINUOUS
 10
-108.032537
 20
-35.047059
 11
-109.142853
 21
-35.460095
  0
LINE
  5
313
100
AcDbEntity
  8
CURVE
100
AcDbLine
 62
250
  6
CONTINUOUS
 10
-107.143015
 20
-32.319333
 11
-109.142853
 21
-32.932933
  0
LINE
  5
314
100
AcDbEntity
  8
CURVE
100
AcDbLine
 62
250
  6
CONTINUOUS
 10
-109.142853
 20
-38.499539
 11
-107.143015
 21
-37.865552
  0
LINE
  5
315
100
AcDbEntity
  8
ASSI
100
AcDbLine
 62
250
  6
CONTINUOUS
 10
-109.7261679781
 20
42.3329793985
 11
-106.5
 21
42.5020556979
  0
LINE
  5
316
100
AcDbEntity
  8
ASSI
100
AcDbLine
 62
7
  6
CONTINUOUS
 10
-109.7261679781
 20
43.8309237007
 11
-106.5
 21
44.0
  0
LINE
  5
317
100
AcDbEntity
  8
ASSI
100
AcDbLine
 62
250
  6
CONTINUOUS
 10
-110.2
 20
42.3329793985
 11
-109.7261679781
 21
42.3329793985
  0
LINE
  5
318
100
AcDbEntity
  8
ASSI
100
AcDbLine
 62
250
  6
CONTINUOUS
 10
-104.5
 20
42.497941481
 11
-106.0814000518
 21
42.497941481
  0
LWPOLYLINE
  5
319
100
AcDbEntity
  8
0
100
AcDbPolyline
 62
7
  6
CONTINUOUS
 90
8
 70
0
 43
0.3500000006
 10
-120.7857252502
 20
52.750002182
 10
-119.9285873108
 20
52.750002182
 10
-119.5000092773
 20
53.1785711517
 10
-119.5000092773
 20
54.035713623
 10
-119.9285873108
 20
54.4642871246
 10
-120.7857252502
 20
54.4642871246
 10
-120.7857252502
 20
55.7499985657
 10
-119.5000092773
 20
55.7499985657
  0
LWPOLYLINE
  5
31A
100
AcDbEntity
  8
0
100
AcDbPolyline
 62
7
  6
CONTINUOUS
 90
3
 70
0
 43
0.3500000006
 10
-115.5085279541
 20
63.3928541565
 10
-117.0085284119
 20
63.3928541565
 10
-116.3656658936
 20
65.7500016174
  0
LINE
  5
31B
100
AcDbEntity
  8
ASSI
100
AcDbLine
 62
250
  6
CONTINUOUS
 10
-106.5
 20
42.5020556979
 11
-106.0814000518
 21
42.4982285624
  0
LINE
  5
31C
100
AcDbEntity
  8
ASSI
100
AcDbLine
 62
7
  6
CONTINUOUS
 10
-104.6895328088
 20
43.182877643
 11
-106.0814000518
 21
43.2558223142
  0
ARC
  5
31D
100
AcDbEntity
  8
CURVE
100
AcDbCircle
 62
250
  6
CONTINUOUS
 10
98.4338131062
 20
-31.5910589394
 40
21.0554471775
100
AcDbArc
 50
179.6646107601
 51
180.5545023211
  0
ARC
  5
31E
100
AcDbEntity
  8
ASSI
100
AcDbCircle
 62
250
  6
CONTINUOUS
 10
-75.8318848731
 20
42.331884873
 40
1.499028092
100
AcDbArc
 50
90.0418345928
 51
179.9581654029
  0
ARC
  5
31F
100
AcDbEntity
  8
ASSI
100
AcDbCircle
 62
250
  6
CONTINUOUS
 10
-75.8318850417
 20
-42.3318850419
 40
1.499028092
100
AcDbArc
 50
180.0418281462
 51
269.9581718496
  0
ARC
  5
320
100
AcDbEntity
  8
ASSI
100
AcDbCircle
 62
250
  6
CONTINUOUS
 10
75.8318850419
 20
-42.3318850417
 40
1.499028092
100
AcDbArc
 50
270.0418281462
 51
359.9581718496
  0
ARC
  5
321
100
AcDbEntity
  8
ASSI
100
AcDbCircle
 62
250
  6
CONTINUOUS
 10
75.831884873
 20
42.3318848731
 40
1.499028092
100
AcDbArc
 50
0.0418345928
 51
89.9581654029
  0
ARC
  5
322
100
AcDbEntity
  8
ASSI
100
AcDbCircle
 62
7
  6
CONTINUOUS
 10
76.0028117749
 20
-42.5028117749
 40
1.4971802889
100
AcDbArc
 50
269.9710657502
 51
0.0289342498
  0
ARC
  5
323
100
AcDbEntity
  8
ASSI
100
AcDbCircle
 62
7
  6
CONTINUOUS
 10
76.0028117748
 20
42.5028117748
 40
1.497180289
100
AcDbArc
 50
359.9710657544
 51
90.0289342456
  0
ARC
  5
324
100
AcDbEntity
  8
ASSI
100
AcDbCircle
 62
7
  6
CONTINUOUS
 10
-76.002811775
 20
42.502811775
 40
1.4971802886
100
AcDbArc
 50
89.971065747
 51
180.028934253
  0
ARC
  5
325
100
AcDbEntity
  8
ASSI
100
AcDbCircle
 62
7
  6
CONTINUOUS
 10
-76.002811775
 20
-42.502811775
 40
1.4971802886
100
AcDbArc
 50
179.9710657473
 51
270.0289342527
  0
ARC
  5
326
100
AcDbEntity
  8
ASSI
100
AcDbCircle
 62
250
  6
CONTINUOUS
 10
-75.8334800475
 20
-42.3334800475
 40
0.99812333
100
AcDbArc
 50
179.9712611556
 51
270.028738844
  0
ARC
  5
327
100
AcDbEntity
  8
ASSI
100
AcDbCircle
 62
250
  6
CONTINUOUS
 10
-75.8334800475
 20
42.3334800475
 40
0.9981233301
100
AcDbArc
 50
89.9712611544
 51
180.0287388452
  0
ARC
  5
328
100
AcDbEntity
  8
ASSI
100
AcDbCircle
 62
250
  6
CONTINUOUS
 10
75.8334800474
 20
42.3334800474
 40
0.9981233302
100
AcDbArc
 50
359.9712611622
 51
90.0287388374
  0
ARC
  5
329
100
AcDbEntity
  8
ASSI
100
AcDbCircle
 62
250
  6
CONTINUOUS
 10
75.8334800475
 20
-42.3334800475
 40
0.99812333
100
AcDbArc
 50
269.9712611562
 51
0.0287388434
  0
ARC
  5
32A
100
AcDbEntity
  8
ASSI
100
AcDbCircle
 62
250
  6
CONTINUOUS
 10
55.9839431821
 20
-26.2839431821
 40
0.7998283936
100
AcDbArc
 50
269.9965538328
 51
0.0034461671
  0
ARC
  5
32B
100
AcDbEntity
  8
ASSI
100
AcDbCircle
 62
250
  6
CONTINUOUS
 10
55.9839434227
 20
26.2839434227
 40
0.7998283936
100
AcDbArc
 50
359.9965366
 51
90.0034633999
  0
ARC
  5
32C
100
AcDbEntity
  8
ASSI
100
AcDbCircle
 62
250
  6
CONTINUOUS
 10
-55.9839434227
 20
26.2839434227
 40
0.7998283936
100
AcDbArc
 50
89.9965366
 51
180.0034633999
  0
ARC
  5
32D
100
AcDbEntity
  8
ASSI
100
AcDbCircle
 62
250
  6
CONTINUOUS
 10
-55.9839431821
 20
-26.2839431821
 40
0.7998283936
100
AcDbArc
 50
179.9965538328
 51
270.0034461671
  0
ARC
  5
32E
100
AcDbEntity
  8
ASSI
100
AcDbCircle
 62
250
  6
CONTINUOUS
 10
-55.9840479168
 20
26.2840479159
 40
0.4997703743
100
AcDbArc
 50
89.9824771736
 51
180.0175226155
  0
ARC
  5
32F
100
AcDbEntity
  8
ASSI
100
AcDbCircle
 62
250
  6
CONTINUOUS
 10
55.9840479159
 20
26.2840479168
 40
0.4997703743
100
AcDbArc
 50
359.9824771737
 51
90.0175226154
  0
ARC
  5
330
100
AcDbEntity
  8
ASSI
100
AcDbCircle
 62
250
  6
CONTINUOUS
 10
55.9840533889
 20
-26.2840533879
 40
0.4997636438
100
AcDbArc
 50
269.9818496343
 51
0.0181501555
  0
ARC
  5
331
100
AcDbEntity
  8
ASSI
100
AcDbCircle
 62
250
  6
CONTINUOUS
 10
-55.9840533879
 20
-26.2840533889
 40
0.4997636438
100
AcDbArc
 50
179.9818496343
 51
270.0181501555
  0
ARC
  5
332
100
AcDbEntity
  8
ASSI
100
AcDbCircle
 62
7
  6
CONTINUOUS
 10
-109.7
 20
-43.3316089333
 40
0.5
100
AcDbArc
 50
180.0
 51
267.0
  0
ARC
  5
333
100
AcDbEntity
  8
ASSI
100
AcDbCircle
 62
7
  6
CONTINUOUS
 10
-109.7
 20
43.3316089333
 40
0.5
100
AcDbArc
 50
93.0
 51
180.0
  0
ARC
  5
334
100
AcDbEntity
  8
ASSI
100
AcDbCircle
 62
7
  6
CONTINUOUS
 10
-104.7
 20
-42.983151736
 40
0.2
100
AcDbArc
 50
273.0
 51
360.0
  0
ARC
  5
335
100
AcDbEntity
  8
ASSI
100
AcDbCircle
 62
7
  6
CONTINUOUS
 10
-104.7
 20
42.983151736
 40
0.2
100
AcDbArc
 50
0.0
 51
87.0
  0
SPLINE
  5
336
100
AcDbEntity
  8
CURVE
100
AcDbSpline
 62
250
  6
CONTINUOUS
 70
0
 71
3
 72
16
 73
12
 74
0
 42
0.0000001
 43
0.0000001
 44
0.0000000001
 40
0.0
 40
0.0
 40
0.0
 40
0.0
 40
0.1111111111
 40
0.2222222222
 40
0.3333333333
 40
0.4444444444
 40
0.5555555556
 40
0.6666666667
 40
0.7777777778
 40
0.8888888889
 40
1.0
 40
1.0
 40
1.0
 40
1.0
 10
77.417378026
 20
-31.1235216885
 30
0.0
 10
77.417708445
 20
-31.1077103536
 30
0.0
 10
77.4185431621
 20
-31.0781213233
 30
0.0
 10
77.4202837116
 20
-31.0384453261
 30
0.0
 10
77.4223080088
 20
-31.0053014165
 30
0.0
 10
77.4245279514
 20
-30.9772924824
 30
0.0
 10
77.4268214283
 20
-30.9540679303
 30
0.0
 10
77.4292461667
 20
-30.9338230894
 30
0.0
 10
77.4318487462
 20
-30.9157490078
 30
0.0
 10
77.4346996481
 20
-30.8994024993
 30
0.0
 10
77.436827763
 20
-30.888653568
 30
0.0
 10
77.4379364479
 20
-30.8828900772
 30
0.0
  0
SPLINE
  5
337
100
AcDbEntity
  8
CURVE
100
AcDbSpline
 62
250
  6
CONTINUOUS
 70
0
 71
3
 72
10
 73
6
 74
0
 42
0.0000001
 43
0.0000001
 44
0.0000000001
 40
0.0
 40
0.0
 40
0.0
 40
0.0
 40
0.3333333333
 40
0.6666666667
 40
1.0
 40
1.0
 40
1.0
 40
1.0
 10
77.4379364479
 20
-30.8828900769
 30
0.0
 10
77.4411989276
 20
-30.8659301001
 30
0.0
 10
77.4476570645
 20
-30.8332525916
 30
0.0
 10
77.4571149712
 20
-30.7863519752
 30
0.0
 10
77.4632709063
 20
-30.7558976197
 30
0.0
 10
77.4663010257
 20
-30.7401943813
 30
0.0
  0
SPLINE
  5
338
100
AcDbEntity
  8
CURVE
100
AcDbSpline
 62
250
  6
CONTINUOUS
 70
0
 71
3
 72
12
 73
8
 74
0
 42
0.0000001
 43
0.0000001
 44
0.0000000001
 40
0.0
 40
0.0
 40
0.0
 40
0.0
 40
0.1666666667
 40
0.3333333333
 40
0.5
 40
0.6666666667
 40
1.0
 40
1.0
 40
1.0
 40
1.0
 10
77.4663010257
 20
-31.1417275236
 30
0.0
 10
77.4643708577
 20
-31.1523162386
 30
0.0
 10
77.4605676784
 20
-31.1735650278
 30
0.0
 10
77.4550248627
 20
-31.2047387075
 30
0.0
 10
77.4496237207
 20
-31.2341061324
 30
0.0
 10
77.4426275663
 20
-31.2717664373
 30
0.0
 10
77.4376612343
 20
-31.3017433162
 30
0.0
 10
77.4345135001
 20
-31.3243130502
 30
0.0
  0
SPLINE
  5
339
100
AcDbEntity
  8
CURVE
100
AcDbSpline
 62
250
  6
CONTINUOUS
 70
0
 71
3
 72
17
 73
13
 74
0
 42
0.0000001
 43
0.0000001
 44
0.0000000001
 40
0.0
 40
0.0
 40
0.0
 40
0.0
 40
0.1
 40
0.2
 40
0.3
 40
0.4
 40
0.5
 40
0.6
 40
0.7
 40
0.8
 40
0.9
 40
1.0
 40
1.0
 40
1.0
 40
1.0
 10
77.4345134996
 20
-31.3243130283
 30
0.0
 10
77.433957772
 20
-31.3282976797
 30
0.0
 10
77.4329008156
 20
-31.3371360459
 30
0.0
 10
77.4313976729
 20
-31.3533028954
 30
0.0
 10
77.430005688
 20
-31.3721658051
 30
0.0
 10
77.4287553682
 20
-31.3934167198
 30
0.0
 10
77.4276737128
 20
-31.4167907899
 30
0.0
 10
77.4267772112
 20
-31.4421465986
 30
0.0
 10
77.4260823884
 20
-31.4699636523
 30
0.0
 10
77.4256093251
 20
-31.4991207477
 30
0.0
 10
77.4253433535
 20
-31.5281694515
 30
0.0
 10
77.4252853371
 20
-31.5473586091
 30
0.0
 10
77.4252853371
 20
-31.5571624855
 30
0.0
  0
SPLINE
  5
33A
100
AcDbEntity
  8
CURVE
100
AcDbSpline
 62
250
  6
CONTINUOUS
 70
0
 71
3
 72
15
 73
11
 74
0
 42
0.0000001
 43
0.0000001
 44
0.0000000001
 40
0.0
 40
0.0
 40
0.0
 40
0.0
 40
0.125
 40
0.25
 40
0.375
 40
0.5
 40
0.625
 40
0.75
 40
0.875
 40
1.0
 40
1.0
 40
1.0
 40
1.0
 10
77.362718473
 20
-32.1967511684
 30
0.0
 10
77.3623176128
 20
-32.1447594408
 30
0.0
 10
77.3616020647
 20
-32.0444794917
 30
0.0
 10
77.360837445
 20
-31.9066032039
 30
0.0
 10
77.3603708259
 20
-31.7765755782
 30
0.0
 10
77.3602088424
 20
-31.6517217529
 30
0.0
 10
77.360379533
 20
-31.5285432701
 30
0.0
 10
77.3609113754
 20
-31.4061476344
 30
0.0
 10
77.3619306764
 20
-31.2845893574
 30
0.0
 10
77.3630860061
 20
-31.2054301589
 30
0.0
 10
77.3638219284
 20
-31.1665618423
 30
0.0
  0
SPLINE
  5
33B
100
AcDbEntity
  8
CURVE
100
AcDbSpline
 62
250
  6
CONTINUOUS
 70
0
 71
3
 72
30
 73
26
 74
0
 42
0.0000001
 43
0.0000001
 44
0.0000000001
 40
0.0
 40
0.0
 40
0.0
 40
0.0
 40
0.0526315789
 40
0.1052631579
 40
0.1578947368
 40
0.2105263158
 40
0.2631578947
 40
0.3157894737
 40
0.3684210526
 40
0.4210526316
 40
0.4736842105
 40
0.5263157895
 40
0.5789473684
 40
0.6315789474
 40
0.6842105263
 40
0.7368421053
 40
0.7894736842
 40
0.8157894737
 40
0.8421052632
 40
0.8684210526
 40
0.8947368421
 40
0.9210526316
 40
0.9473684211
 40
0.9736842105
 40
1.0
 40
1.0
 40
1.0
 40
1.0
 10
77.3638219284
 20
-31.1665618423
 30
0.0
 10
77.3642931542
 20
-31.1416375573
 30
0.0
 10
77.3656186647
 20
-31.0911668828
 30
0.0
 10
77.368934636
 20
-31.0083544726
 30
0.0
 10
77.3733143743
 20
-30.936014027
 30
0.0
 10
77.3785210074
 20
-30.8817678753
 30
0.0
 10
77.383773514
 20
-30.8515874298
 30
0.0
 10
77.3887874773
 20
-30.8397675489
 30
0.0
 10
77.3932292454
 20
-30.8402920736
 30
0.0
 10
77.397149453
 20
-30.8500244524
 30
0.0
 10
77.4005840186
 20
-30.8666103648
 30
0.0
 10
77.4036147768
 20
-30.8883902005
 30
0.0
 10
77.4062207361
 20
-30.9132741427
 30
0.0
 10
77.4084587267
 20
-30.9401866691
 30
0.0
 10
77.4103456312
 20
-30.9681541293
 30
0.0
 10
77.4119338215
 20
-30.9965110521
 30
0.0
 10
77.4130633439
 20
-31.0194247867
 30
0.0
 10
77.4138771966
 20
-31.0370035354
 30
0.0
 10
77.4144501826
 20
-31.0498104953
 30
0.0
 10
77.4149866338
 20
-31.0621239231
 30
0.0
 10
77.4154957812
 20
-31.074026672
 30
0.0
 10
77.4159662868
 20
-31.0862395324
 30
0.0
 10
77.416351533
 20
-31.0985280234
 30
0.0
 10
77.4166275879
 20
-31.1108771513
 30
0.0
 10
77.4167301147
 20
-31.1192933745
 30
0.0
 10
77.4167587078
 20
-31.1235216885
 30
0.0
  0
SPLINE
  5
33C
100
AcDbEntity
  8
CURVE
100
AcDbSpline
 62
250
  6
CONTINUOUS
 70
0
 71
3
 72
17
 73
13
 74
0
 42
0.0000001
 43
0.0000001
 44
0.0000000001
 40
0.0
 40
0.0
 40
0.0
 40
0.0
 40
0.1428571429
 40
0.2857142857
 40
0.3571428571
 40
0.4285714286
 40
0.5
 40
0.5714285714
 40
0.6428571429
 40
0.7142857143
 40
0.8571428571
 40
1.0
 40
1.0
 40
1.0
 40
1.0
 10
77.4081204754
 20
-31.5562626914
 30
0.0
 10
77.408086793
 20
-31.5274882208
 30
0.0
 10
77.4078265483
 20
-31.4738464361
 30
0.0
 10
77.4070910649
 20
-31.4182032085
 30
0.0
 10
77.4062026362
 20
-31.3775456526
 30
0.0
 10
77.4053739942
 20
-31.3495482022
 30
0.0
 10
77.4043250582
 20
-31.3234513294
 30
0.0
 10
77.4030558144
 20
-31.3005402405
 30
0.0
 10
77.4015928586
 20
-31.2806466746
 30
0.0
 10
77.3994006776
 20
-31.2581807162
 30
0.0
 10
77.3962840002
 20
-31.2381185506
 30
0.0
 10
77.3933894988
 20
-31.231548231
 30
0.0
 10
77.3918421358
 20
-31.2319893732
 30
0.0
  0
SPLINE
  5
33D
100
AcDbEntity
  8
CURVE
100
AcDbSpline
 62
250
  6
CONTINUOUS
 70
0
 71
3
 72
19
 73
15
 74
0
 42
0.0000001
 43
0.0000001
 44
0.0000000001
 40
0.0
 40
0.0
 40
0.0
 40
0.0
 40
0.1
 40
0.2
 40
0.25
 40
0.3
 40
0.4
 40
0.5
 40
0.6
 40
0.7
 40
0.75
 40
0.8
 40
0.9
 40
1.0
 40
1.0
 40
1.0
 40
1.0
 10
77.3918421358
 20
-31.2319893559
 30
0.0
 10
77.3912078322
 20
-31.2321701913
 30
0.0
 10
77.3899786859
 20
-31.2343203199
 30
0.0
 10
77.3884473551
 20
-31.2411357483
 30
0.0
 10
77.3872514422
 20
-31.2490103799
 30
0.0
 10
77.3860735745
 20
-31.2585447505
 30
0.0
 10
77.3846693548
 20
-31.2733626858
 30
0.0
 10
77.3830941261
 20
-31.2963528381
 30
0.0
 10
77.3817293373
 20
-31.3242982933
 30
0.0
 10
77.3807955582
 20
-31.3506141811
 30
0.0
 10
77.3801603915
 20
-31.3734341657
 30
0.0
 10
77.3796087606
 20
-31.39707679
 30
0.0
 10
77.3790715235
 20
-31.4282564046
 30
0.0
 10
77.3788146905
 20
-31.4541929412
 30
0.0
 10
77.3787318727
 20
-31.4678085288
 30
0.0
  0
SPLINE
  5
33E
100
AcDbEntity
  8
ASSI
100
AcDbSpline
 62
250
  6
CONTINUOUS
 70
0
 71
3
 72
23
 73
19
 74
0
 42
0.0000001
 43
0.0000001
 44
0.0000000001
 40
0.0
 40
0.0
 40
0.0
 40
0.0
 40
0.0014990402
 40
0.0052286738
 40
0.0113088402
 40
0.0197508335
 40
0.030540372
 40
0.043653943
 40
0.0767380802
 40
0.1186924828
 40
0.1691225155
 40
0.2275461181
 40
0.2934016053
 40
0.3660594467
 40
0.4448168634
 40
0.6175642547
 40
0.8050148234
 40
1.0
 40
1.0
 40
1.0
 40
1.0
 10
-109.7261679781
 20
-43.8309237007
 30
0.0
 10
-109.7269158169
 20
-43.8308842414
 30
0.0
 10
-109.7278542931
 20
-43.8275309355
 30
0.0
 10
-109.7288432843
 20
-43.8227262138
 30
0.0
 10
-109.7298888001
 20
-43.8132477599
 30
0.0
 10
-109.7308763467
 20
-43.800821927
 30
0.0
 10
-109.7318168077
 20
-43.7846200632
 30
0.0
 10
-109.7330757533
 20
-43.7562109767
 30
0.0
 10
-109.7343584322
 20
-43.7121680148
 30
0.0
 10
-109.7355187711
 20
-43.6495068255
 30
0.0
 10
-109.7363551436
 20
-43.5741681044
 30
0.0
 10
-109.7368573804
 20
-43.4868905081
 30
0.0
 10
-109.7370144979
 20
-43.3885057976
 30
0.0
 10
-109.7368232135
 20
-43.2799634429
 30
0.0
 10
-109.7360790198
 20
-43.1180222344
 30
0.0
 10
-109.734253408
 20
-42.8987390723
 30
0.0
 10
-109.73086126
 20
-42.6214051178
 30
0.0
 10
-109.7278638558
 20
-42.4303738433
 30
0.0
 10
-109.7261679781
 20
-42.3329793985
 30
0.0
  0
SPLINE
  5
33F
100
AcDbEntity
  8
ASSI
100
AcDbSpline
 62
250
  6
CONTINUOUS
 70
0
 71
3
 72
23
 73
19
 74
0
 42
0.0000001
 43
0.0000001
 44
0.0000000001
 40
0.0
 40
0.0
 40
0.0
 40
0.0
 40
0.1949519103
 40
0.3823783928
 40
0.5551274932
 40
0.6338890869
 40
0.7065514223
 40
0.77241224
 40
0.8308397477
 40
0.8812762657
 40
0.9232381281
 40
0.956330158
 40
0.9694484293
 40
0.9802426814
 40
0.9886871304
 40
0.9947691071
 40
0.9985002842
 40
1.0
 40
1.0
 40
1.0
 40
1.0
 10
-109.7261679781
 20
42.3329793985
 30
0.0
 10
-109.7278632971
 20
42.4303572238
 30
0.0
 10
-109.7308608386
 20
42.621359825
 30
0.0
 10
-109.7342524642
 20
42.8986659639
 30
0.0
 10
-109.7360785728
 20
43.1179400113
 30
0.0
 10
-109.736822919
 20
43.2798863919
 30
0.0
 10
-109.7370144763
 20
43.388435732
 30
0.0
 10
-109.7368576748
 20
43.4868272943
 30
0.0
 10
-109.7363555002
 20
43.5741127375
 30
0.0
 10
-109.7355194861
 20
43.6494603746
 30
0.0
 10
-109.7343593774
 20
43.7121324723
 30
0.0
 10
-109.7330765182
 20
43.7561854571
 30
0.0
 10
-109.7318174312
 20
43.7846031702
 30
0.0
 10
-109.7308771158
 20
43.8008110238
 30
0.0
 10
-109.7298892901
 20
43.8132412458
 30
0.0
 10
-109.7288437762
 20
43.8227228121
 30
0.0
 10
-109.7278542765
 20
43.8275290819
 30
0.0
 10
-109.7269161486
 20
43.8308841241
 30
0.0
 10
-109.7261679781
 20
43.8309237007
 30
0.0
  0
SPLINE
  5
340
100
AcDbEntity
  8
CURVE
100
AcDbSpline
 62
250
  6
CONTINUOUS
 70
0
 71
3
 72
16
 73
12
 74
0
 42
0.0000001
 43
0.0000001
 44
0.0000000001
 40
0.0
 40
0.0
 40
0.0
 40
0.0
 40
0.1111111111
 40
0.2222222222
 40
0.3333333333
 40
0.4444444444
 40
0.5555555556
 40
0.6666666667
 40
0.7777777778
 40
0.8888888889
 40
1.0
 40
1.0
 40
1.0
 40
1.0
 10
-108.0765211787
 20
-31.1235216885
 30
0.0
 10
-108.070216409
 20
-31.1077103536
 30
0.0
 10
-108.054289059
 20
-31.0781213233
 30
0.0
 10
-108.0210773948
 20
-31.0384453261
 30
0.0
 10
-107.9824515032
 20
-31.0053014165
 30
0.0
 10
-107.9400924764
 20
-30.9772924824
 30
0.0
 10
-107.896330329
 20
-30.9540679303
 30
0.0
 10
-107.8500635651
 20
-30.9338230894
 30
0.0
 10
-107.80040339
 20
-30.9157490078
 30
0.0
 10
-107.7460049395
 20
-30.8994024993
 30
0.0
 10
-107.7053980896
 20
-30.888653568
 30
0.0
 10
-107.6842431202
 20
-30.8828900772
 30
0.0
  0
SPLINE
  5
341
100
AcDbEntity
  8
CURVE
100
AcDbSpline
 62
250
  6
CONTINUOUS
 70
0
 71
3
 72
10
 73
6
 74
0
 42
0.0000001
 43
0.0000001
 44
0.0000000001
 40
0.0
 40
0.0
 40
0.0
 40
0.0
 40
0.3333333333
 40
0.6666666667
 40
1.0
 40
1.0
 40
1.0
 40
1.0
 10
-107.6842431203
 20
-30.8828900769
 30
0.0
 10
-107.6219913007
 20
-30.8659301001
 30
0.0
 10
-107.4987627064
 20
-30.8332525916
 30
0.0
 10
-107.318295097
 20
-30.7863519752
 30
0.0
 10
-107.2008328574
 20
-30.7558976197
 30
0.0
 10
-107.1430147347
 20
-30.7401943813
 30
0.0
  0
SPLINE
  5
342
100
AcDbEntity
  8
CURVE
100
AcDbSpline
 62
250
  6
CONTINUOUS
 70
0
 71
3
 72
12
 73
8
 74
0
 42
0.0000001
 43
0.0000001
 44
0.0000000001
 40
0.0
 40
0.0
 40
0.0
 40
0.0
 40
0.1666666667
 40
0.3333333333
 40
0.5
 40
0.6666666667
 40
1.0
 40
1.0
 40
1.0
 40
1.0
 10
-107.1430147347
 20
-31.1417275236
 30
0.0
 10
-107.1798445336
 20
-31.1523162386
 30
0.0
 10
-107.2524135181
 20
-31.1735650278
 30
0.0
 10
-107.3581767429
 20
-31.2047387075
 30
0.0
 10
-107.4612366709
 20
-31.2341061324
 30
0.0
 10
-107.5947312503
 20
-31.2717664373
 30
0.0
 10
-107.6894945093
 20
-31.3017433162
 30
0.0
 10
-107.7495568564
 20
-31.3243130502
 30
0.0
  0
SPLINE
  5
343
100
AcDbEntity
  8
CURVE
100
AcDbSpline
 62
250
  6
CONTINUOUS
 70
0
 71
3
 72
17
 73
13
 74
0
 42
0.0000001
 43
0.0000001
 44
0.0000000001
 40
0.0
 40
0.0
 40
0.0
 40
0.0
 40
0.1
 40
0.2
 40
0.3
 40
0.4
 40
0.5
 40
0.6
 40
0.7
 40
0.8
 40
0.9
 40
1.0
 40
1.0
 40
1.0
 40
1.0
 10
-107.7495568646
 20
-31.3243130283
 30
0.0
 10
-107.7601607787
 20
-31.3282976797
 30
0.0
 10
-107.7803287095
 20
-31.3371360459
 30
0.0
 10
-107.809010381
 20
-31.3533028954
 30
0.0
 10
-107.835571034
 20
-31.3721658051
 30
0.0
 10
-107.8594285585
 20
-31.3934167198
 30
0.0
 10
-107.8800677712
 20
-31.4167907899
 30
0.0
 10
-107.8971740424
 20
-31.4421465986
 30
0.0
 10
-107.9104320509
 20
-31.4699636523
 30
0.0
 10
-107.9194586355
 20
-31.4991207477
 30
0.0
 10
-107.924533676
 20
-31.5281694515
 30
0.0
 10
-107.9256406953
 20
-31.5473586091
 30
0.0
 10
-107.9256406953
 20
-31.5571624855
 30
0.0
  0
SPLINE
  5
344
100
AcDbEntity
  8
CURVE
100
AcDbSpline
 62
250
  6
CONTINUOUS
 70
0
 71
3
 72
15
 73
11
 74
0
 42
0.0000001
 43
0.0000001
 44
0.0000000001
 40
0.0
 40
0.0
 40
0.0
 40
0.0
 40
0.125
 40
0.25
 40
0.375
 40
0.5
 40
0.625
 40
0.75
 40
0.875
 40
1.0
 40
1.0
 40
1.0
 40
1.0
 10
-109.1194875818
 20
-32.1967511684
 30
0.0
 10
-109.1271364503
 20
-32.1447594408
 30
0.0
 10
-109.1407899209
 20
-32.0444794917
 30
0.0
 10
-109.1553797333
 20
-31.9066032039
 30
0.0
 10
-109.1642833561
 20
-31.7765755782
 30
0.0
 10
-109.1673741858
 20
-31.6517217529
 30
0.0
 10
-109.1641172147
 20
-31.5285432701
 30
0.0
 10
-109.1539690576
 20
-31.4061476344
 30
0.0
 10
-109.1345196351
 20
-31.2845893574
 30
0.0
 10
-109.1124746325
 20
-31.2054301589
 30
0.0
 10
-109.0984323986
 20
-31.1665618423
 30
0.0
  0
SPLINE
  5
345
100
AcDbEntity
  8
CURVE
100
AcDbSpline
 62
250
  6
CONTINUOUS
 70
0
 71
3
 72
30
 73
26
 74
0
 42
0.0000001
 43
0.0000001
 44
0.0000000001
 40
0.0
 40
0.0
 40
0.0
 40
0.0
 40
0.0526315789
 40
0.1052631579
 40
0.1578947368
 40
0.2105263158
 40
0.2631578947
 40
0.3157894737
 40
0.3684210526
 40
0.4210526316
 40
0.4736842105
 40
0.5263157895
 40
0.5789473684
 40
0.6315789474
 40
0.6842105263
 40
0.7368421053
 40
0.7894736842
 40
0.8157894737
 40
0.8421052632
 40
0.8684210526
 40
0.8947368421
 40
0.9210526316
 40
0.9473684211
 40
0.9736842105
 40
1.0
 40
1.0
 40
1.0
 40
1.0
 10
-109.0984323986
 20
-31.1665618423
 30
0.0
 10
-109.0894408747
 20
-31.1416375573
 30
0.0
 10
-109.064148627
 20
-31.0911668828
 30
0.0
 10
-109.0008761257
 20
-31.0083544726
 30
0.0
 10
-108.9173057409
 20
-30.936014027
 30
0.0
 10
-108.8179572618
 20
-30.8817678753
 30
0.0
 10
-108.7177334661
 20
-30.8515874298
 30
0.0
 10
-108.6220613473
 20
-30.8397675489
 30
0.0
 10
-108.537307362
 20
-30.8402920736
 30
0.0
 10
-108.462505345
 20
-30.8500244524
 30
0.0
 10
-108.3969699305
 20
-30.8666103648
 30
0.0
 10
-108.3391396183
 20
-30.8883902005
 30
0.0
 10
-108.289414953
 20
-30.9132741427
 30
0.0
 10
-108.246711549
 20
-30.9401866691
 30
0.0
 10
-108.2107072651
 20
-30.9681541293
 30
0.0
 10
-108.18040279
 20
-30.9965110521
 30
0.0
 10
-108.1588502173
 20
-31.0194247867
 30
0.0
 10
-108.1433209832
 20
-31.0370035354
 30
0.0
 10
-108.132387759
 20
-31.0498104953
 30
0.0
 10
-108.1221516598
 20
-31.0621239231
 30
0.0
 10
-108.1124365504
 20
-31.074026672
 30
0.0
 10
-108.1034587683
 20
-31.0862395324
 30
0.0
 10
-108.096107832
 20
-31.0985280234
 30
0.0
 10
-108.090840391
 20
-31.1108771513
 30
0.0
 10
-108.0888840642
 20
-31.1192933745
 30
0.0
 10
-108.0883384753
 20
-31.1235216885
 30
0.0
  0
SPLINE
  5
346
100
AcDbEntity
  8
CURVE
100
AcDbSpline
 62
250
  6
CONTINUOUS
 70
0
 71
3
 72
17
 73
13
 74
0
 42
0.0000001
 43
0.0000001
 44
0.0000000001
 40
0.0
 40
0.0
 40
0.0
 40
0.0
 40
0.1428571429
 40
0.2857142857
 40
0.3571428571
 40
0.4285714286
 40
0.5
 40
0.5714285714
 40
0.6428571429
 40
0.7142857143
 40
0.8571428571
 40
1.0
 40
1.0
 40
1.0
 40
1.0
 10
-108.2531657682
 20
-31.5562626914
 30
0.0
 10
-108.2538084669
 20
-31.5274882208
 30
0.0
 10
-108.258774231
 20
-31.4738464361
 30
0.0
 10
-108.2728080907
 20
-31.4182032085
 30
0.0
 10
-108.2897603191
 20
-31.3775456526
 30
0.0
 10
-108.3055717503
 20
-31.3495482022
 30
0.0
 10
-108.3255866416
 20
-31.3234513294
 30
0.0
 10
-108.3498052574
 20
-31.3005402405
 30
0.0
 10
-108.3777201162
 20
-31.2806466746
 30
0.0
 10
-108.4195494211
 20
-31.2581807162
 30
0.0
 10
-108.4790191688
 20
-31.2381185506
 30
0.0
 10
-108.5342495461
 20
-31.231548231
 30
0.0
 10
-108.5637749898
 20
-31.2319893732
 30
0.0
  0
SPLINE
  5
347
100
AcDbEntity
  8
CURVE
100
AcDbSpline
 62
250
  6
CONTINUOUS
 70
0
 71
3
 72
19
 73
15
 74
0
 42
0.0000001
 43
0.0000001
 44
0.0000000001
 40
0.0
 40
0.0
 40
0.0
 40
0.0
 40
0.1
 40
0.2
 40
0.25
 40
0.3
 40
0.4
 40
0.5
 40
0.6
 40
0.7
 40
0.75
 40
0.8
 40
0.9
 40
1.0
 40
1.0
 40
1.0
 40
1.0
 10
-108.5637749901
 20
-31.2319893559
 30
0.0
 10
-108.5758782248
 20
-31.2321701913
 30
0.0
 10
-108.5993317328
 20
-31.2343203199
 30
0.0
 10
-108.6285512653
 20
-31.2411357483
 30
0.0
 10
-108.6513706419
 20
-31.2490103799
 30
0.0
 10
-108.6738456965
 20
-31.2585447505
 30
0.0
 10
-108.7006398055
 20
-31.2733626858
 30
0.0
 10
-108.7306969599
 20
-31.2963528381
 30
0.0
 10
-108.7567386815
 20
-31.3242982933
 30
0.0
 10
-108.7745562487
 20
-31.3506141811
 30
0.0
 10
-108.7866759503
 20
-31.3734341657
 30
0.0
 10
-108.797201695
 20
-31.39707679
 30
0.0
 10
-108.8074527887
 20
-31.4282564046
 30
0.0
 10
-108.8123534559
 20
-31.4541929412
 30
0.0
 10
-108.8139337133
 20
-31.4678085288
 30
0.0
  0
SPLINE
  5
348
100
AcDbEntity
  8
CURVE
100
AcDbSpline
 62
250
  6
CONTINUOUS
 70
0
 71
3
 72
12
 73
8
 74
0
 42
0.0000001
 43
0.0000001
 44
0.0000000001
 40
0.0
 40
0.0
 40
0.0
 40
0.0
 40
0.3333333333
 40
0.5
 40
0.6666666667
 40
0.8333333333
 40
1.0
 40
1.0
 40
1.0
 40
1.0
 10
-108.8139337132
 20
-31.4678085288
 30
0.0
 10
-108.8180938088
 20
-31.5036521476
 30
0.0
 10
-108.8215750832
 20
-31.5576504944
 30
0.0
 10
-108.8207877416
 20
-31.6297681513
 30
0.0
 10
-108.8174820883
 20
-31.6841449205
 30
0.0
 10
-108.8111930503
 20
-31.7392557202
 30
0.0
 10
-108.8053386355
 20
-31.7762008121
 30
0.0
 10
-108.8021601761
 20
-31.7948281153
 30
0.0
  0
ELLIPSE
  5
349
100
AcDbEntity
  8
ASSI
100
AcDbEllipse
 62
7
  6
CONTINUOUS
 10
-55.974923836
 20
26.274923836
 30
0.0
 11
0.3536610946
 21
-0.3536610946
 31
0.0
 40
0.9996954599
 41
2.3563467834
 42
3.9268385237
  0
ELLIPSE
  5
34A
100
AcDbEntity
  8
ASSI
100
AcDbEllipse
 62
7
  6
CONTINUOUS
 10
55.974923836
 20
26.274923836
 30
0.0
 11
-0.3536610946
 21
-0.3536610946
 31
0.0
 40
0.9996954599
 41
2.3563467834
 42
3.9268385237
  0
ELLIPSE
  5
34B
100
AcDbEntity
  8
ASSI
100
AcDbEllipse
 62
7
  6
CONTINUOUS
 10
55.974923836
 20
-26.274923836
 30
0.0
 11
-0.3536610946
 21
0.3536610946
 31
0.0
 40
0.9996954599
 41
2.3563467834
 42
3.9268385237
  0
ELLIPSE
  5
34C
100
AcDbEntity
  8
ASSI
100
AcDbEllipse
 62
7
  6
CONTINUOUS
 10
-55.974923836
 20
-26.274923836
 30
0.0
 11
0.3536610946
 21
0.3536610946
 31
0.0
 40
0.9996954599
 41
2.3563467834
 42
3.9268385237
  0
ELLIPSE
  5
34D
100
AcDbEntity
  8
ASSI
100
AcDbEllipse
 62
7
  6
CONTINUOUS
 10
-99.9075256927
 20
-19.8964279834
 30
0.0
 11
0.2131189617
 21
-0.2206911452
 31
0.0
 40
0.9567239035
 41
2.3608578002
 42
3.922327507
  0
ELLIPSE
  5
34E
100
AcDbEntity
  8
ASSI
100
AcDbEllipse
 62
7
  6
CONTINUOUS
 10
-99.9075256927
 20
-20.100926939
 30
0.0
 11
0.2123792432
 21
0.2142407358
 31
0.0
 40
0.9890020976
 41
2.3573605238
 42
3.9258247833
  0
ELLIPSE
  5
34F
100
AcDbEntity
  8
ASSI
100
AcDbEllipse
 62
7
  6
CONTINUOUS
 10
-99.9075256927
 20
-22.499073061
 30
0.0
 11
0.2123792432
 21
-0.2142407358
 31
0.0
 40
0.9890020976
 41
2.3573605238
 42
3.9258247833
  0
ELLIPSE
  5
350
100
AcDbEntity
  8
ASSI
100
AcDbEllipse
 62
7
  6
CONTINUOUS
 10
-99.9075256927
 20
-22.7035720166
 30
0.0
 11
0.2131189617
 21
0.2206911452
 31
0.0
 40
0.9567239035
 41
2.3608578002
 42
3.922327507
  0
ELLIPSE
  5
351
100
AcDbEntity
  8
ASSI
100
AcDbEllipse
 62
7
  6
CONTINUOUS
 10
-99.9075256927
 20
20.100926939
 30
0.0
 11
0.2123792432
 21
-0.2142407358
 31
0.0
 40
0.9890020976
 41
2.3573605238
 42
3.9258247833
  0
ELLIPSE
  5
352
100
AcDbEntity
  8
ASSI
100
AcDbEllipse
 62
7
  6
CONTINUOUS
 10
-99.9075256927
 20
19.8964279834
 30
0.0
 11
0.2131189617
 21
0.2206911452
 31
0.0
 40
0.9567239035
 41
2.3608578002
 42
3.922327507
  0
ELLIPSE
  5
353
100
AcDbEntity
  8
ASSI
100
AcDbEllipse
 62
7
  6
CONTINUOUS
 10
-99.9075256927
 20
22.7035720166
 30
0.0
 11
0.2131189617
 21
-0.2206911452
 31
0.0
 40
0.9567239035
 41
2.3608578002
 42
3.922327507
  0
ELLIPSE
  5
354
100
AcDbEntity
  8
ASSI
100
AcDbEllipse
 62
7
  6
CONTINUOUS
 10
-99.9075256927
 20
22.499073061
 30
0.0
 11
0.2123792432
 21
0.2142407358
 31
0.0
 40
0.9890020976
 41
2.3573605238
 42
3.9258247833
  0
ENDSEC
  0
SECTION
  2
OBJECTS
  0
DICTIONARY
  5
C
100
AcDbDictionary
280
0
281
1
  3
ACAD_GROUP
350
D
  3
ACAD_MLINESTYLE
350
17
  3
ACAD_LAYOUT
350
1A
  3
ACAD_PLOTSETTINGS
350
19
  3
ACAD_PLOTSTYLENAME
350
E
  0
DICTIONARY
  5
D
102
{ACAD_REACTORS
330
C
102
}
100
AcDbDictionary
280
0
281
1
  0
ACDBDICTIONARYWDFLT
  5
E
102
{ACAD_REACTORS
330
C
102
}
100
AcDbDictionary
281
1
  3
Normal
350
F
100
AcDbDictionaryWithDefault
340
F
  0
DICTIONARY
  5
17
102
{ACAD_REACTORS
330
C
102
}
100
AcDbDictionary
280
0
281
1
  3
Standard
350
18
  0
DICTIONARY
  5
19
102
{ACAD_REACTORS
330
C
102
}
100
AcDbDictionary
281
1
  0
DICTIONARY
  5
1A
102
{ACAD_REACTORS
330
C
102
}
100
AcDbDictionary
281
1
  3
Model
350
355
  3
Layout1
350
356
  0
ACDBPLACEHOLDER
  5
F
102
{ACAD_REACTORS
330
E
102
}
  0
MLINESTYLE
  5
18
102
{ACAD_REACTORS
330
17
102
}
100
AcDbMlineStyle
  2
STANDARD
 70
0
  3

 62
256
 51
90.0
 52
90.0
 71
2
 49
0.5
 62
256
  6
BYLAYER
 49
-0.5
 62
256
  6
BYLAYER
  0
LAYOUT
  5
355
102
{ACAD_REACTORS
330
1A
102
}
100
AcDbPlotSettings
  1

  2
none_device
  4
ISO_A4_(297.00_x_210.00_MM)
  6

 40
0.0
 41
0.0
 42
0.0
 43
0.0
 44
297.0
 45
210.0
 46
0.0
 47
0.0
 48
0.0
 49
0.0
140
0.0
141
0.0
142
1.0
143
1.0
 70
1024
 72
1
 73
0
 74
0
  7

 75
0
147
1.0
148
0.0
149
0.0
100
AcDbLayout
  1
Model
 70
0
 71
0
 10
0.0
 20
0.0
 11
297.0
 21
210.0
 12
0.0
 22
0.0
 32
0.0
 14
0.0
 24
0.0
 34
0.0
 15
0.0
 25
0.0
 35
0.0
146
0.0
 13
0.0
 23
0.0
 33
0.0
 16
1.0
 26
0.0
 36
0.0
 17
0.0
 27
1.0
 37
0.0
 76
0
330
216
345
0
346
0
  0
LAYOUT
  5
356
102
{ACAD_REACTORS
330
1A
102
}
100
AcDbPlotSettings
  1

  2
none_device
  4
ISO_A4_(297.00_x_210.00_MM)
  6

 40
0.0
 41
0.0
 42
0.0
 43
0.0
 44
297.0
 45
210.0
 46
0.0
 47
0.0
 48
0.0
 49
0.0
140
0.0
141
0.0
142
1.0
143
1.0
 70
0
 72
1
 73
0
 74
0
  7

 75
0
147
1.0
148
0.0
149
0.0
100
AcDbLayout
  1
Layout1
 70
0
 71
1
 10
0.0
 20
0.0
 11
297.0
 21
210.0
 12
0.0
 22
0.0
 32
0.0
 14
0.0
 24
0.0
 34
0.0
 15
0.0
 25
0.0
 35
0.0
146
0.0
 13
0.0
 23
0.0
 33
0.0
 16
1.0
 26
0.0
 36
0.0
 17
0.0
 27
1.0
 37
0.0
 76
0
330
217
345
0
346
0
  0
ENDSEC
  0
EOF
