  0
SECTION
  2
HEADER
  9
$ACADVER
  1
AC1024
  9
$DWGCODEPAGE
  3
ANSI_1252
  9
$EXTMAX
 10
297.0
 20
210.0
 30
0.0
  9
$EXTMIN
 10
0.0
 20
0.0
 30
0.0
  9
$LIMMIN
 10
0.0
 20
0.0
  9
$LIMMAX
 10
297.0
 20
210.0
  9
$VIEWCTR
 10
148.5
 20
105.0
  9
$VIEWSIZE
 40
210.0
  9
$CLAYER
  8
0
  9
$LTSCALE
 40
16.335
  9
$CELTYPE
  6
BYLAYER
  9
$DIMSCALE
 40
1.0
  9
$DIMASZ
 40
3.0
  9
$DIMEXO
 40
0.5
  9
$DIMDLI
 40
11.286
  9
$DIMEXE
 40
1.5
  9
$DIMCEN
 40
2.673
  9
$DIMLFAC
 40
1.0
  9
$DIMBLK
  1
_FILLED
  9
$DIMALT
 70
0
  9
$DIMALTF
 40
0.0393700787
  9
$DIMTXT
 40
3.0
  9
$DIMTOL
 70
1
  9
$DIMLIM
 70
0
  9
$DIMTFAC
 40
1.0
  9
$DIMTP
 40
0.01
  9
$DIMTM
 40
0.01
  9
$DIMGAP
 40
0.625
  9
$DIMDSEP
 70
44
  9
$AUNITS
 70
0
  9
$PDMODE
 70
3
  9
$PDSIZE
 40
3.0
  9
$HANDSEED
  5
312
  9
$TILEMODE
 70
1
  9
$MEASUREMENT
 70
1
  9
$INSUNITS
 70
4
  0
ENDSEC
  0
SECTION
  2
CLASSES
  0
CLASS
  1
ACDBDICTIONARYWDFLT
  2
AcDbDictionaryWithDefault
  3
AutoCAD 2000
 90
0
 91
1
280
0
281
0
  0
CLASS
  1
ACDBPLACEHOLDER
  2
AcDbPlaceHolder
  3
AutoCAD 2000
 90
0
 91
1
280
0
281
0
  0
CLASS
  1
LAYOUT
  2
AcDbLayout
  3
AutoCAD 2000
 90
0
 91
0
280
0
281
0
  0
ENDSEC
  0
SECTION
  2
TABLES
  0
TABLE
  2
VPORT
  5
8
100
AcDbSymbolTable
 70
2
  0
VPORT
  5
1F4
100
AcDbSymbolTableRecord
100
AcDbViewportTableRecord
  2
*ACTIVE
 70
0
 10
0.0
 20
0.0
 11
1.0
 21
1.0
 12
148.5
 22
105.0
 13
0.0
 23
0.0
 14
1.0
 24
1.0
 15
0.0
 25
0.0
 16
0.0
 26
0.0
 36
1.0
 17
0.0
 27
0.0
 37
0.0
 40
210.0
 41
1.4142857143
 42
50.0
 43
0.0
 44
0.0
 50
0.0
 51
0.0
 71
0
 72
100
 73
1
 74
1
 75
0
 76
0
 77
0
 78
0
  0
ENDTAB
  0
TABLE
  2
LTYPE
  5
5
100
AcDbSymbolTable
 70
6
  0
LTYPE
  5
14
100
AcDbSymbolTableRecord
100
AcDbLinetypeTableRecord
  2
BYBLOCK
 70
0
  3

 72
65
 73
0
 40
0.0
  0
LTYPE
  5
15
100
AcDbSymbolTableRecord
100
AcDbLinetypeTableRecord
  2
BYLAYER
 70
0
  3

 72
65
 73
0
 40
0.0
  0
LTYPE
  5
16
100
AcDbSymbolTableRecord
100
AcDbLinetypeTableRecord
  2
CONTINUOUS
 70
64
  3
Solid line
 72
65
 73
0
 40
0.0
  0
LTYPE
  5
1F5
100
AcDbSymbolTableRecord
100
AcDbLinetypeTableRecord
  2
CENTER
 70
64
  3
____ _ ____ _ ____ _ ____ _ ____ _ ____ _ ____
 72
65
 73
4
 40
0.6
 49
0.375
 74
0
 49
-0.075
 74
0
 49
0.075
 74
0
 49
-0.075
 74
0
  0
LTYPE
  5
1F6
100
AcDbSymbolTableRecord
100
AcDbLinetypeTableRecord
  2
HIDDEN
 70
64
  3
- - - - - - - - - - - - - - - - - - - -
 72
65
 73
2
 40
0.2
 49
0.1
 74
0
 49
-0.1
 74
0
  0
LTYPE
  5
1F7
100
AcDbSymbolTableRecord
100
AcDbLinetypeTableRecord
  2
PHANTOM
 70
64
  3
_____ _ _ _____ _ _ _____ _ _ _____
 72
65
 73
6
 40
0.8
 49
0.45
 74
0
 49
-0.05
 74
0
 49
0.1
 74
0
 49
-0.05
 74
0
 49
0.1
 74
0
 49
-0.05
 74
0
  0
LTYPE
  5
1F8
100
AcDbSymbolTableRecord
100
AcDbLinetypeTableRecord
  2
DOT
 70
64
  3
. . . . . . . . . . . . . . . . . . . .
 72
65
 73
2
 40
0.2
 49
0.1
 74
0
 49
-0.1
 74
0
  0
LTYPE
  5
1F9
100
AcDbSymbolTableRecord
100
AcDbLinetypeTableRecord
  2
DASHED
 70
64
  3
- - - - - - - - - - - - - - - - - - - -
 72
65
 73
2
 40
0.2
 49
0.1
 74
0
 49
-0.1
 74
0
  0
ENDTAB
  0
TABLE
  2
LAYER
  5
2
100
AcDbSymbolTable
 70
36
  0
LAYER
  5
10
100
AcDbSymbolTableRecord
100
AcDbLayerTableRecord
  2
0
 70
0
 62
7
  6
CONTINUOUS
370
-3
390
F
  0
LAYER
  5
1FA
100
AcDbSymbolTableRecord
100
AcDbLayerTableRecord
  2
DEFAULT_1
 70
0
 62
7
  6
CENTER
370
-3
390
F
  0
LAYER
  5
1FB
100
AcDbSymbolTableRecord
100
AcDbLayerTableRecord
  2
DEFAULT_2
 70
0
 62
7
  6
HIDDEN
370
-3
390
F
  0
LAYER
  5
1FC
100
AcDbSymbolTableRecord
100
AcDbLayerTableRecord
  2
DEFAULT_3
 70
0
 62
7
  6
PHANTOM
370
-3
390
F
  0
LAYER
  5
1FD
100
AcDbSymbolTableRecord
100
AcDbLayerTableRecord
  2
ASSI
 70
0
 62
7
  6
CONTINUOUS
370
-3
390
F
  0
LAYER
  5
1FE
100
AcDbSymbolTableRecord
100
AcDbLayerTableRecord
  2
COORDINATE
 70
0
 62
7
  6
CONTINUOUS
370
-3
390
F
  0
LAYER
  5
1FF
100
AcDbSymbolTableRecord
100
AcDbLayerTableRecord
  2
COPY_PUBLISH
 70
0
 62
7
  6
CONTINUOUS
370
-3
390
F
  0
LAYER
  5
200
100
AcDbSymbolTableRecord
100
AcDbLayerTableRecord
  2
COSMETICI
 70
0
 62
7
  6
CONTINUOUS
370
-3
390
F
  0
LAYER
  5
201
100
AcDbSymbolTableRecord
100
AcDbLayerTableRecord
  2
CURVE
 70
0
 62
7
  6
CONTINUOUS
370
-3
390
F
  0
LAYER
  5
202
100
AcDbSymbolTableRecord
100
AcDbLayerTableRecord
  2
DRAFT
 70
0
 62
7
  6
CONTINUOUS
370
-3
390
F
  0
LAYER
  5
203
100
AcDbSymbolTableRecord
100
AcDbLayerTableRecord
  2
IMPORT_IGES
 70
0
 62
7
  6
CONTINUOUS
370
-3
390
F
  0
LAYER
  5
204
100
AcDbSymbolTableRecord
100
AcDbLayerTableRecord
  2
INTF_1
 70
0
 62
7
  6
CONTINUOUS
370
-3
390
F
  0
LAYER
  5
205
100
AcDbSymbolTableRecord
100
AcDbLayerTableRecord
  2
INTF_11
 70
0
 62
7
  6
CONTINUOUS
370
-3
390
F
  0
LAYER
  5
206
100
AcDbSymbolTableRecord
100
AcDbLayerTableRecord
  2
INTF_13
 70
0
 62
7
  6
CONTINUOUS
370
-3
390
F
  0
LAYER
  5
207
100
AcDbSymbolTableRecord
100
AcDbLayerTableRecord
  2
INTF_2
 70
0
 62
7
  6
CONTINUOUS
370
-3
390
F
  0
LAYER
  5
208
100
AcDbSymbolTableRecord
100
AcDbLayerTableRecord
  2
INTF_CYAN
 70
0
 62
7
  6
CONTINUOUS
370
-3
390
F
  0
LAYER
  5
209
100
AcDbSymbolTableRecord
100
AcDbLayerTableRecord
  2
NOTE
 70
0
 62
7
  6
CONTINUOUS
370
-3
390
F
  0
LAYER
  5
20A
100
AcDbSymbolTableRecord
100
AcDbLayerTableRecord
  2
PIANI
 70
0
 62
7
  6
CONTINUOUS
370
-3
390
F
  0
LAYER
  5
20B
100
AcDbSymbolTableRecord
100
AcDbLayerTableRecord
  2
PUNTI
 70
0
 62
7
  6
CONTINUOUS
370
-3
390
F
  0
LAYER
  5
20C
100
AcDbSymbolTableRecord
100
AcDbLayerTableRecord
  2
RACCORDO
 70
0
 62
7
  6
CONTINUOUS
370
-3
390
F
  0
LAYER
  5
20D
100
AcDbSymbolTableRecord
100
AcDbLayerTableRecord
  2
SIMBOLI
 70
0
 62
7
  6
CONTINUOUS
370
-3
390
F
  0
LAYER
  5
20E
100
AcDbSymbolTableRecord
100
AcDbLayerTableRecord
  2
SMUSSO
 70
0
 62
7
  6
CONTINUOUS
370
-3
390
F
  0
LAYER
  5
20F
100
AcDbSymbolTableRecord
100
AcDbLayerTableRecord
  2
SNAPLINE
 70
0
 62
7
  6
CONTINUOUS
370
-3
390
F
  0
LAYER
  5
210
100
AcDbSymbolTableRecord
100
AcDbLayerTableRecord
  2
SUPERFICI
 70
0
 62
7
  6
CONTINUOUS
370
-3
390
F
  0
LAYER
  5
211
100
AcDbSymbolTableRecord
100
AcDbLayerTableRecord
  2
TRASH
 70
0
 62
7
  6
CONTINUOUS
370
-3
390
F
  0
ENDTAB
  0
TABLE
  2
STYLE
  5
3
100
AcDbSymbolTable
 70
1
  0
STYLE
  5
11
100
AcDbSymbolTableRecord
100
AcDbTextStyleTableRecord
  2
STANDARD
 70
0
 40
0.0
 41
0.8
 50
0.0
 71
0
 42
0.2
  3
txt
  4

  0
STYLE
  5
212
100
AcDbSymbolTableRecord
100
AcDbTextStyleTableRecord
  2
TEXTSTYLE_1
 70
0
 40
0.0
 41
0.8
 50
0.0
 71
0
 42
0.2
  3
gdt
  4

  0
ENDTAB
  0
TABLE
  2
VIEW
  5
6
100
AcDbSymbolTable
 70
0
  0
ENDTAB
  0
TABLE
  2
UCS
  5
7
100
AcDbSymbolTable
 70
0
  0
ENDTAB
  0
TABLE
  2
APPID
  5
9
100
AcDbSymbolTable
 70
1
  0
APPID
  5
213
100
AcDbSymbolTableRecord
100
AcDbRegAppTableRecord
  2
ACAD
 70
0
  0
ENDTAB
  0
TABLE
  2
BLOCK_RECORD
  5
1
100
AcDbSymbolTable
 70
0
  0
BLOCK_RECORD
  5
214
100
AcDbSymbolTableRecord
100
AcDbBlockTableRecord
  2
*Model_Space
  0
BLOCK_RECORD
  5
215
100
AcDbSymbolTableRecord
100
AcDbBlockTableRecord
  2
*Paper_Space
  0
BLOCK_RECORD
  5
216
100
AcDbSymbolTableRecord
100
AcDbBlockTableRecord
  2
_FILLED
  0
BLOCK_RECORD
  5
217
100
AcDbSymbolTableRecord
100
AcDbBlockTableRecord
  2
*D0
  0
BLOCK_RECORD
  5
218
100
AcDbSymbolTableRecord
100
AcDbBlockTableRecord
  2
*D1
  0
BLOCK_RECORD
  5
219
100
AcDbSymbolTableRecord
100
AcDbBlockTableRecord
  2
*D2
  0
BLOCK_RECORD
  5
21A
100
AcDbSymbolTableRecord
100
AcDbBlockTableRecord
  2
*D3
  0
ENDTAB
  0
TABLE
  2
DIMSTYLE
  5
A
100
AcDbSymbolTable
 70
1
100
AcDbDimStyleTable
 71
0
  0
DIMSTYLE
105
21B
100
AcDbSymbolTableRecord
100
AcDbDimStyleTableRecord
  2
STANDARD
 70
0
  3

  4

 40
1.0
 41
3.0
 42
0.5
 43
0.38
 44
1.5
 45
0.0
 46
0.0
 47
0.01
 48
0.01
140
3.0
141
0.09
142
0.0
143
25.4
144
1.0
145
0.0
146
1.0
147
0.625
 71
1
 72
0
 73
0
 74
0
 75
0
 76
0
 77
1
 78
8
 79
2
170
0
171
1
172
0
173
0
174
0
175
0
176
0
177
0
178
0
270
2
179
2
271
2
272
2
273
2
274
2
275
0
280
0
281
0
282
0
283
1
284
8
285
0
286
0
287
3
288
0
340
11
278
44
341
216
342
216
343
216
344
216
  0
DIMSTYLE
105
21C
100
AcDbSymbolTableRecord
100
AcDbDimStyleTableRecord
  2
DIMSTYLE_1
 70
0
  3

  4

 40
1.0
 41
3.0
 42
0.5
 43
0.38
 44
1.5
 45
0.0
 46
0.0
 47
0.0
 48
0.0
140
3.0
141
0.09
142
0.0
143
25.4
144
1.0
145
0.0
146
1.0
147
0.75
 71
0
 72
0
 73
0
 74
0
 75
0
 76
0
 77
1
 78
8
 79
2
170
0
171
1
172
0
173
0
174
0
175
0
176
0
177
0
178
0
270
2
179
2
271
2
272
2
273
2
274
2
275
0
280
0
281
0
282
0
283
1
284
8
285
0
286
0
287
3
288
0
340
11
278
44
341
216
342
216
343
216
344
216
  0
ENDTAB
  0
ENDSEC
  0
SECTION
  2
BLOCKS
  0
BLOCK
  5
20
100
AcDbEntity
  8
0
100
AcDbBlockBegin
  2
*Model_Space
 70
0
 10
0.0
 20
0.0
 30
0.0
  3
*Model_Space
  1

  0
ENDBLK
  5
21
100
AcDbEntity
  8
0
100
AcDbBlockEnd
  0
BLOCK
  5
1C
100
AcDbEntity
  8
0
100
AcDbBlockBegin
  2
*Paper_Space
 70
0
 10
0.0
 20
0.0
 30
0.0
  3
*Paper_Space
  1

  0
ENDBLK
  5
1D
100
AcDbEntity
  8
0
100
AcDbBlockEnd
  0
BLOCK
  5
21D
100
AcDbEntity
  8
0
100
AcDbBlockBegin
  2
_FILLED
 70
64
 10
0.0
 20
0.0
  3
_FILLED
  1

  0
SOLID
  5
21E
100
AcDbEntity
  8
0
  6
BYBLOCK
 62
0
100
AcDbTrace
 10
0.0
 20
0.0
 11
-1.0
 21
0.3166666667
 12
-1.0
 22
-0.3166666667
 13
-1.0
 23
-0.3166666667
  0
ENDBLK
  5
21F
100
AcDbEntity
  8
0
  6
BYBLOCK
 62
0
100
AcDbBlockEnd
  0
BLOCK
  5
220
100
AcDbEntity
  8
0
100
AcDbBlockBegin
 62
7
  6
CONTINUOUS
  2
*D0
 70
65
 10
0.0
 20
0.0
  3
*D0
  1

  0
MTEXT
  5
221
100
AcDbEntity
  8
0
100
AcDbMText
 62
7
  6
CONTINUOUS
  7
STANDARD
 71
2
 72
1
 10
0.0
 20
55.75
 30
0.0
 11
1.0
 21
0.0
 31
0.0
 73
2
 44
0.9
  1
{\ftxt;\W0.0001;\H0.0001;\~}{\ftxt;\W2.0;\H3.0; }{\ftxt;\W0.0001;\H0.0001;\~}
 40
3.0
 41
9.0
  0
LINE
  5
222
100
AcDbEntity
  8
0
100
AcDbLine
 62
7
  6
CONTINUOUS
 10
-77.5
 20
43.0
 11
-77.5
 21
53.5
  0
LINE
  5
223
100
AcDbEntity
  8
0
100
AcDbLine
 62
7
  6
CONTINUOUS
 10
77.5
 20
43.0
 11
77.5
 21
53.5
  0
LINE
  5
224
100
AcDbEntity
  8
0
100
AcDbLine
 62
7
  6
CONTINUOUS
 10
-77.5
 20
52.0
 11
0.0
 21
52.0
  0
LINE
  5
225
100
AcDbEntity
  8
0
100
AcDbLine
 62
7
  6
CONTINUOUS
 10
77.5
 20
52.0
 11
0.0
 21
52.0
  0
INSERT
  5
226
100
AcDbEntity
  8
0
100
AcDbBlockReference
 62
7
  6
CONTINUOUS
  2
_FILLED
 10
-77.5
 20
52.0
 41
3.0
 42
3.0
 43
3.0
 50
180.0
  0
INSERT
  5
227
100
AcDbEntity
  8
0
100
AcDbBlockReference
 62
7
  6
CONTINUOUS
  2
_FILLED
 10
77.5
 20
52.0
 41
3.0
 42
3.0
 43
3.0
  0
ENDBLK
  5
228
100
AcDbEntity
  8
0
  6
BYBLOCK
 62
0
100
AcDbBlockEnd
  0
BLOCK
  5
229
100
AcDbEntity
  8
0
100
AcDbBlockBegin
 62
7
  6
CONTINUOUS
  2
*D1
 70
65
 10
0.0
 20
0.0
  3
*D1
  1

  0
MTEXT
  5
22A
100
AcDbEntity
  8
0
100
AcDbMText
 62
7
  6
CONTINUOUS
  7
STANDARD
 71
2
 72
1
 10
81.75
 20
0.0
 30
0.0
 11
0.0
 21
1.0
 31
0.0
 73
2
 44
0.9
  1
{\ftxt;\W0.0001;\H0.0001;\~}{\ftxt;\W1.5714285714;\H3.0; }{\ftxt;\W0.0001;\H0.0001;\~}
 40
3.0
 41
7.0714285714
  0
LINE
  5
22B
100
AcDbEntity
  8
0
100
AcDbLine
 62
7
  6
CONTINUOUS
 10
76.5
 20
44.0
 11
87.0
 21
44.0
  0
LINE
  5
22C
100
AcDbEntity
  8
0
100
AcDbLine
 62
7
  6
CONTINUOUS
 10
76.5
 20
-44.0
 11
87.0
 21
-44.0
  0
LINE
  5
22D
100
AcDbEntity
  8
0
100
AcDbLine
 62
7
  6
CONTINUOUS
 10
85.5
 20
44.0
 11
85.5
 21
0.0
  0
LINE
  5
22E
100
AcDbEntity
  8
0
100
AcDbLine
 62
7
  6
CONTINUOUS
 10
85.5
 20
-44.0
 11
85.5
 21
0.0
  0
INSERT
  5
22F
100
AcDbEntity
  8
0
100
AcDbBlockReference
 62
7
  6
CONTINUOUS
  2
_FILLED
 10
85.5
 20
44.0
 41
3.0
 42
3.0
 43
3.0
 50
90.0
  0
INSERT
  5
230
100
AcDbEntity
  8
0
100
AcDbBlockReference
 62
7
  6
CONTINUOUS
  2
_FILLED
 10
85.5
 20
-44.0
 41
3.0
 42
3.0
 43
3.0
 50
270.0
  0
ENDBLK
  5
231
100
AcDbEntity
  8
0
  6
BYBLOCK
 62
0
100
AcDbBlockEnd
  0
BLOCK
  5
232
100
AcDbEntity
  8
0
100
AcDbBlockBegin
 62
7
  6
CONTINUOUS
  2
*D2
 70
65
 10
0.0
 20
0.0
  3
*D2
  1

  0
MTEXT
  5
233
100
AcDbEntity
  8
0
100
AcDbMText
 62
7
  6
CONTINUOUS
  7
STANDARD
 71
3
 72
1
 10
-114.8239726124
 20
65.75
 30
0.0
 11
1.0
 21
0.0
 31
0.0
 73
2
 44
0.9
  1
{\ftxt;\W0.0001;\H0.0001;\~}{\ftxt;\W2.6428571429;\H3.0; }{\ftxt;\W0.0001;\H0.0001;\~}
 40
3.0
 41
11.8928571429
  0
LINE
  5
234
100
AcDbEntity
  8
0
100
AcDbLine
 62
7
  6
CONTINUOUS
 10
-110.15
 20
43.0
 11
-110.15
 21
63.5
  0
LINE
  5
235
100
AcDbEntity
  8
0
100
AcDbLine
 62
7
  6
CONTINUOUS
 10
-99.85
 20
22.4155181297
 11
-99.85
 21
63.5
  0
LINE
  5
236
100
AcDbEntity
  8
0
100
AcDbLine
 62
7
  6
CONTINUOUS
 10
-110.15
 20
62.0
 11
-122.752544041
 21
62.0
  0
LINE
  5
237
100
AcDbEntity
  8
0
100
AcDbLine
 62
7
  6
CONTINUOUS
 10
-122.752544041
 20
62.0
 11
-105.0
 21
62.0
  0
LINE
  5
238
100
AcDbEntity
  8
0
100
AcDbLine
 62
7
  6
CONTINUOUS
 10
-99.85
 20
62.0
 11
-95.85
 21
62.0
  0
LINE
  5
239
100
AcDbEntity
  8
0
100
AcDbLine
 62
7
  6
CONTINUOUS
 10
-95.85
 20
62.0
 11
-105.0
 21
62.0
  0
INSERT
  5
23A
100
AcDbEntity
  8
0
100
AcDbBlockReference
 62
7
  6
CONTINUOUS
  2
_FILLED
 10
-110.15
 20
62.0
 41
3.0
 42
3.0
 43
3.0
  0
INSERT
  5
23B
100
AcDbEntity
  8
0
100
AcDbBlockReference
 62
7
  6
CONTINUOUS
  2
_FILLED
 10
-99.85
 20
62.0
 41
3.0
 42
3.0
 43
3.0
 50
180.0
  0
ENDBLK
  5
23C
100
AcDbEntity
  8
0
  6
BYBLOCK
 62
0
100
AcDbBlockEnd
  0
BLOCK
  5
23D
100
AcDbEntity
  8
0
100
AcDbBlockBegin
 62
7
  6
CONTINUOUS
  2
*D3
 70
65
 10
0.0
 20
0.0
  3
*D3
  1

  0
MTEXT
  5
23E
100
AcDbEntity
  8
0
100
AcDbMText
 62
7
  6
CONTINUOUS
  7
STANDARD
 71
3
 72
1
 10
-115.026520041
 20
55.75
 30
0.0
 11
1.0
 21
0.0
 31
0.0
 73
2
 44
0.9
  1
{\ftxt;\W0.0001;\H0.0001;\~}{\ftxt;\W2.0714285714;\H3.0; }{\ftxt;\W0.0001;\H0.0001;\~}
 40
3.0
 41
9.3214285714
  0
LINE
  5
23F
100
AcDbEntity
  8
0
100
AcDbLine
 62
7
  6
CONTINUOUS
 10
-110.15
 20
43.0
 11
-110.15
 21
53.5
  0
LINE
  5
240
100
AcDbEntity
  8
0
100
AcDbLine
 62
7
  6
CONTINUOUS
 10
-104.55
 20
42.2477309359
 11
-104.55
 21
53.5
  0
LINE
  5
241
100
AcDbEntity
  8
0
100
AcDbLine
 62
7
  6
CONTINUOUS
 10
-110.15
 20
52.0
 11
-121.2408057553
 21
52.0
  0
LINE
  5
242
100
AcDbEntity
  8
0
100
AcDbLine
 62
7
  6
CONTINUOUS
 10
-121.2408057553
 20
52.0
 11
-107.35
 21
52.0
  0
LINE
  5
243
100
AcDbEntity
  8
0
100
AcDbLine
 62
7
  6
CONTINUOUS
 10
-104.55
 20
52.0
 11
-100.55
 21
52.0
  0
LINE
  5
244
100
AcDbEntity
  8
0
100
AcDbLine
 62
7
  6
CONTINUOUS
 10
-100.55
 20
52.0
 11
-107.35
 21
52.0
  0
INSERT
  5
245
100
AcDbEntity
  8
0
100
AcDbBlockReference
 62
7
  6
CONTINUOUS
  2
_FILLED
 10
-110.15
 20
52.0
 41
3.0
 42
3.0
 43
3.0
  0
INSERT
  5
246
100
AcDbEntity
  8
0
100
AcDbBlockReference
 62
7
  6
CONTINUOUS
  2
_FILLED
 10
-104.55
 20
52.0
 41
3.0
 42
3.0
 43
3.0
 50
180.0
  0
ENDBLK
  5
247
100
AcDbEntity
  8
0
  6
BYBLOCK
 62
0
100
AcDbBlockEnd
  0
ENDSEC
  0
SECTION
  2
ENTITIES
  0
DIMENSION
  5
248
100
AcDbEntity
  8
0
100
AcDbDimension
 62
7
  6
CONTINUOUS
  2
*D0
 10
77.5
 20
52.0
 11
-0.4285714481
 21
52.0
 70
160
 71
2
 72
2
 41
0.9
 42
155.0
  1
{\ftxt;\W0.0001;\H0.0001;\~}{\ftxt;\W2.0;\H3.0; }{\ftxt;\W0.0001;\H0.0001;\~}
  3
DIMSTYLE_1
100
AcDbAlignedDimension
 13
-77.5
 23
42.5
 14
77.5
 24
42.5
100
AcDbRotatedDimension
  0
DIMENSION
  5
249
100
AcDbEntity
  8
0
100
AcDbDimension
 62
7
  6
CONTINUOUS
  2
*D1
 10
85.5
 20
-44.0
 11
85.5
 21
-0.4285702253
 70
160
 71
2
 72
2
 41
0.9
 42
88.0
  1
{\ftxt;\W0.0001;\H0.0001;\~}{\ftxt;\W1.5714285714;\H3.0; }{\ftxt;\W0.0001;\H0.0001;\~}
  3
DIMSTYLE_1
100
AcDbAlignedDimension
 13
76.0
 23
44.0
 14
76.0
 24
-44.0
 50
270.0
100
AcDbRotatedDimension
  0
DIMENSION
  5
24A
100
AcDbEntity
  8
0
100
AcDbDimension
 62
7
  6
CONTINUOUS
  2
*D2
 10
-99.85
 20
62.0
 11
-119.2168314514
 21
62.0
 70
160
 71
3
 72
2
 41
0.9
 42
10.3
  1
{\ftxt;\W0.0001;\H0.0001;\~}{\ftxt;\W2.6428571429;\H3.0; }{\ftxt;\W0.0001;\H0.0001;\~}
  3
DIMSTYLE_1
100
AcDbAlignedDimension
 13
-110.15
 23
42.5
 14
-99.85
 24
21.9155181297
100
AcDbRotatedDimension
  0
DIMENSION
  5
24B
100
AcDbEntity
  8
0
100
AcDbDimension
 62
7
  6
CONTINUOUS
  2
*D3
 10
-104.55
 20
52.0
 11
-118.5622359467
 21
52.0
 70
160
 71
3
 72
2
 41
0.9
 42
5.6
  1
{\ftxt;\W0.0001;\H0.0001;\~}{\ftxt;\W2.0714285714;\H3.0; }{\ftxt;\W0.0001;\H0.0001;\~}
  3
DIMSTYLE_1
100
AcDbAlignedDimension
 13
-110.15
 23
42.5
 14
-104.55
 24
41.7477309359
100
AcDbRotatedDimension
  0
LINE
  5
24C
100
AcDbEntity
  8
0
100
AcDbLine
 62
7
  6
CONTINUOUS
 10
-77.5
 20
42.5
 11
-77.5
 21
-42.5
  0
LINE
  5
24D
100
AcDbEntity
  8
0
100
AcDbLine
 62
250
  6
CONTINUOUS
 10
-77.0
 20
42.5
 11
-77.0
 21
-42.5
  0
LINE
  5
24E
100
AcDbEntity
  8
0
100
AcDbLine
 62
250
  6
CONTINUOUS
 10
-76.0
 20
-43.5
 11
-76.0
 21
-44.0
  0
LINE
  5
24F
100
AcDbEntity
  8
0
100
AcDbLine
 62
250
  6
CONTINUOUS
 10
-76.0
 20
43.5
 11
-76.0
 21
44.0
  0
LINE
  5
250
100
AcDbEntity
  8
0
100
AcDbLine
 62
250
  6
CONTINUOUS
 10
-56.825
 20
-26.225
 11
-56.825
 21
26.225
  0
LINE
  5
251
100
AcDbEntity
  8
0
100
AcDbLine
 62
7
  6
CONTINUOUS
 10
-56.525
 20
-26.225
 11
-56.525
 21
26.225
  0
LINE
  5
252
100
AcDbEntity
  8
0
100
AcDbLine
 62
250
  6
CONTINUOUS
 10
-55.925
 20
27.125
 11
-55.925
 21
26.825
  0
LINE
  5
253
100
AcDbEntity
  8
0
100
AcDbLine
 62
250
  6
CONTINUOUS
 10
-55.925
 20
-27.125
 11
-55.925
 21
-26.825
  0
LWPOLYLINE
  5
254
100
AcDbEntity
  8
0
100
AcDbPolyline
 62
7
  6
CONTINUOUS
 90
3
 70
0
 43
0.3500000006
 10
-3.0000000658
 20
54.8928560944
 10
-2.1428571696
 20
55.7499985657
 10
-2.1428571696
 20
52.750002182
  0
LINE
  5
255
100
AcDbEntity
  8
0
100
AcDbLine
 62
7
  6
CONTINUOUS
 10
-76.0
 20
-44.0
 11
76.0
 21
-44.0
  0
LINE
  5
256
100
AcDbEntity
  8
0
100
AcDbLine
 62
250
  6
CONTINUOUS
 10
-76.0
 20
-43.5
 11
76.0
 21
-43.5
  0
LINE
  5
257
100
AcDbEntity
  8
0
100
AcDbLine
 62
250
  6
CONTINUOUS
 10
77.0
 20
-42.5
 11
77.5
 21
-42.5
  0
LINE
  5
258
100
AcDbEntity
  8
0
100
AcDbLine
 62
250
  6
CONTINUOUS
 10
-77.0
 20
-42.5
 11
-77.5
 21
-42.5
  0
LINE
  5
259
100
AcDbEntity
  8
0
100
AcDbLine
 62
250
  6
CONTINUOUS
 10
55.925
 20
-27.125
 11
-55.925
 21
-27.125
  0
LINE
  5
25A
100
AcDbEntity
  8
0
100
AcDbLine
 62
7
  6
CONTINUOUS
 10
55.925
 20
-26.825
 11
-55.925
 21
-26.825
  0
LINE
  5
25B
100
AcDbEntity
  8
0
100
AcDbLine
 62
250
  6
CONTINUOUS
 10
-56.825
 20
-26.225
 11
-56.525
 21
-26.225
  0
LINE
  5
25C
100
AcDbEntity
  8
0
100
AcDbLine
 62
250
  6
CONTINUOUS
 10
56.825
 20
-26.225
 11
56.525
 21
-26.225
  0
LWPOLYLINE
  5
25D
100
AcDbEntity
  8
0
100
AcDbPolyline
 62
7
  6
CONTINUOUS
 90
4
 70
0
 43
0.3500000006
 10
84.3214251709
 20
-2.3571432495
 10
83.4642872314
 20
-2.3571432495
 10
83.0357182617
 20
-1.9285708809
 10
83.0357182617
 20
-1.2857140274
  0
LWPOLYLINE
  5
25E
100
AcDbEntity
  8
0
100
AcDbPolyline
 62
7
  6
CONTINUOUS
 90
4
 70
0
 43
0.3500000006
 10
84.3214251709
 20
-0.0000003204
 10
83.4642872314
 20
-0.0000003204
 10
83.0357182617
 20
0.4285709152
 10
83.0357182617
 20
1.0714289017
  0
LINE
  5
25F
100
AcDbEntity
  8
0
100
AcDbLine
 62
250
  6
CONTINUOUS
 10
-56.825
 20
26.225
 11
-56.525
 21
26.225
  0
LINE
  5
260
100
AcDbEntity
  8
0
100
AcDbLine
 62
250
  6
CONTINUOUS
 10
56.825
 20
26.225
 11
56.525
 21
26.225
  0
LINE
  5
261
100
AcDbEntity
  8
0
100
AcDbLine
 62
7
  6
CONTINUOUS
 10
-55.925
 20
26.825
 11
55.925
 21
26.825
  0
LINE
  5
262
100
AcDbEntity
  8
0
100
AcDbLine
 62
250
  6
CONTINUOUS
 10
-55.925
 20
27.125
 11
55.925
 21
27.125
  0
LINE
  5
263
100
AcDbEntity
  8
0
100
AcDbLine
 62
250
  6
CONTINUOUS
 10
77.0
 20
42.5
 11
77.5
 21
42.5
  0
LINE
  5
264
100
AcDbEntity
  8
0
100
AcDbLine
 62
250
  6
CONTINUOUS
 10
-77.0
 20
42.5
 11
-77.5
 21
42.5
  0
LINE
  5
265
100
AcDbEntity
  8
0
100
AcDbLine
 62
250
  6
CONTINUOUS
 10
76.0
 20
43.5
 11
-76.0
 21
43.5
  0
LINE
  5
266
100
AcDbEntity
  8
0
100
AcDbLine
 62
7
  6
CONTINUOUS
 10
76.0
 20
44.0
 11
-76.0
 21
44.0
  0
LWPOLYLINE
  5
267
100
AcDbEntity
  8
0
100
AcDbPolyline
 62
7
  6
CONTINUOUS
 90
8
 70
0
 43
0.3500000006
 10
-1.2857142735
 20
52.750002182
 10
-0.4285714127
 20
52.750002182
 10
0.0
 20
53.1785711517
 10
0.0
 20
54.035713623
 10
-0.4285714127
 20
54.4642871246
 10
-1.2857142735
 20
54.4642871246
 10
-1.2857142735
 20
55.7499985657
 10
0.0
 20
55.7499985657
  0
LWPOLYLINE
  5
268
100
AcDbEntity
  8
0
100
AcDbPolyline
 62
7
  6
CONTINUOUS
 90
8
 70
0
 43
0.3500000006
 10
0.8571428254
 20
52.750002182
 10
1.7142856507
 20
52.750002182
 10
2.1428571696
 20
53.1785711517
 10
2.1428571696
 20
54.035713623
 10
1.7142856507
 20
54.4642871246
 10
0.8571428254
 20
54.4642871246
 10
0.8571428254
 20
55.7499985657
 10
2.1428571696
 20
55.7499985657
  0
LINE
  5
269
100
AcDbEntity
  8
0
100
AcDbLine
 62
250
  6
CONTINUOUS
 10
55.925
 20
27.125
 11
55.925
 21
26.825
  0
LINE
  5
26A
100
AcDbEntity
  8
0
100
AcDbLine
 62
250
  6
CONTINUOUS
 10
55.925
 20
-27.125
 11
55.925
 21
-26.825
  0
LINE
  5
26B
100
AcDbEntity
  8
0
100
AcDbLine
 62
7
  6
CONTINUOUS
 10
56.525
 20
26.225
 11
56.525
 21
-26.225
  0
LINE
  5
26C
100
AcDbEntity
  8
0
100
AcDbLine
 62
250
  6
CONTINUOUS
 10
56.825
 20
26.225
 11
56.825
 21
-26.225
  0
LWPOLYLINE
  5
26D
100
AcDbEntity
  8
0
100
AcDbPolyline
 62
7
  6
CONTINUOUS
 90
13
 70
0
 43
0.3500000006
 10
83.0357182617
 20
0.4285709152
 10
82.8214247131
 20
0.1428575134
 10
82.1785712585
 20
0.1428575134
 10
81.7500022888
 20
0.4285709152
 10
81.7500022888
 20
1.0714289017
 10
82.1785712585
 20
1.3571423035
 10
82.8214247131
 20
1.3571423035
 10
83.0357182617
 20
1.0714289017
 10
83.4642872314
 20
1.5000001373
 10
84.3214251709
 20
1.5000001373
 10
84.7500032043
 20
1.0714289017
 10
84.7500032043
 20
0.4285709152
 10
84.3214251709
 20
-0.0000003204
  0
LWPOLYLINE
  5
26E
100
AcDbEntity
  8
0
100
AcDbPolyline
 62
7
  6
CONTINUOUS
 90
13
 70
0
 43
0.3500000006
 10
83.0357182617
 20
-1.9285708809
 10
82.8214247131
 20
-2.2142854156
 10
82.1785712585
 20
-2.2142854156
 10
81.7500022888
 20
-1.9285708809
 10
81.7500022888
 20
-1.2857140274
 10
82.1785712585
 20
-1.0000006256
 10
82.8214247131
 20
-1.0000006256
 10
83.0357182617
 20
-1.2857140274
 10
83.4642872314
 20
-0.8571427917
 10
84.3214251709
 20
-0.8571427917
 10
84.7500032043
 20
-1.2857140274
 10
84.7500032043
 20
-1.9285708809
 10
84.3214251709
 20
-2.3571432495
  0
LINE
  5
26F
100
AcDbEntity
  8
0
100
AcDbLine
 62
250
  6
CONTINUOUS
 10
76.0
 20
-43.5
 11
76.0
 21
-44.0
  0
LINE
  5
270
100
AcDbEntity
  8
0
100
AcDbLine
 62
250
  6
CONTINUOUS
 10
76.0
 20
43.5
 11
76.0
 21
44.0
  0
LINE
  5
271
100
AcDbEntity
  8
0
100
AcDbLine
 62
250
  6
CONTINUOUS
 10
77.0
 20
-42.5
 11
77.0
 21
42.5
  0
LINE
  5
272
100
AcDbEntity
  8
0
100
AcDbLine
 62
7
  6
CONTINUOUS
 10
77.5
 20
-42.5
 11
77.5
 21
42.5
  0
LWPOLYLINE
  5
273
100
AcDbEntity
  8
0
100
AcDbPolyline
 62
7
  6
CONTINUOUS
 90
3
 70
0
 43
0.3500000006
 10
-122.7525435791
 20
64.8928546143
 10
-121.8954056396
 20
65.7500016174
 10
-121.8954056396
 20
62.7500007019
  0
LWPOLYLINE
  5
274
100
AcDbEntity
  8
0
100
AcDbPolyline
 62
7
  6
CONTINUOUS
 90
10
 70
0
 43
0.3500000006
 10
-116.31223526
 20
55.7499985657
 10
-116.9550887146
 20
55.1071451111
 10
-117.383666748
 20
54.2499981079
 10
-117.383666748
 20
53.1785711517
 10
-116.9550887146
 20
52.750002182
 10
-116.31223526
 20
52.750002182
 10
-115.8836662903
 20
53.1785711517
 10
-115.8836662903
 20
54.035713623
 10
-116.31223526
 20
54.4642871246
 10
-117.2408043823
 20
54.4642871246
  0
LWPOLYLINE
  5
275
100
AcDbEntity
  8
0
100
AcDbPolyline
 62
7
  6
CONTINUOUS
 90
5
 70
0
 43
0.3500000006
 10
-116.1096882935
 20
64.4642856445
 10
-115.7525414429
 20
64.6785701294
 10
-115.7525414429
 20
65.3214326477
 10
-116.1096882935
 20
65.7500016174
 10
-116.9668262329
 20
65.7500016174
  0
LINE
  5
276
100
AcDbEntity
  8
0
100
AcDbLine
 62
7
  6
CONTINUOUS
 10
-109.65
 20
-44.0
 11
-106.45
 21
-44.0
  0
LINE
  5
277
100
AcDbEntity
  8
RACCORDO
100
AcDbLine
 62
7
  6
CONTINUOUS
 10
-104.7447646103
 20
-42.4474910634
 11
-106.4502055698
 21
-42.4921496066
  0
LINE
  5
278
100
AcDbEntity
  8
RACCORDO
100
AcDbLine
 62
250
  6
CONTINUOUS
 10
-104.7447646103
 20
-41.7477309359
 11
-106.45
 21
-41.792384096
  0
LINE
  5
279
100
AcDbEntity
  8
0
100
AcDbLine
 62
250
  6
CONTINUOUS
 10
-110.15
 20
-42.5
 11
-106.45
 21
-42.5
  0
LINE
  5
27A
100
AcDbEntity
  8
RACCORDO
100
AcDbLine
 62
250
  6
CONTINUOUS
 10
-104.55
 20
-41.7477309359
 11
-104.7447646103
 21
-41.7477309359
  0
LINE
  5
27B
100
AcDbEntity
  8
CURVE
100
AcDbLine
 62
250
  6
CONTINUOUS
 10
-107.926302
 20
-37.66486
 11
-109.302853
 21
-38.046066
  0
LINE
  5
27C
100
AcDbEntity
  8
CURVE
100
AcDbLine
 62
250
  6
CONTINUOUS
 10
-107.303015
 20
-36.699936
 11
-109.302973
 21
-36.699936
  0
LINE
  5
27D
100
AcDbEntity
  8
CURVE
100
AcDbLine
 62
250
  6
CONTINUOUS
 10
-109.302973
 20
-36.282492
 11
-107.303015
 21
-36.282492
  0
LINE
  5
27E
100
AcDbEntity
  8
CURVE
100
AcDbLine
 62
250
  6
CONTINUOUS
 10
-107.303015
 20
-35.65841
 11
-108.608872
 21
-35.568326
  0
LINE
  5
27F
100
AcDbEntity
  8
CURVE
100
AcDbLine
 62
250
  6
CONTINUOUS
 10
-109.302853
 20
-35.877194
 11
-107.303015
 21
-36.057768
  0
LINE
  5
280
100
AcDbEntity
  8
CURVE
100
AcDbLine
 62
250
  6
CONTINUOUS
 10
-109.302853
 20
-37.272011
 11
-107.926302
 21
-37.66486
  0
LINE
  5
281
100
AcDbEntity
  8
CURVE
100
AcDbLine
 62
250
  6
CONTINUOUS
 10
-107.303015
 20
-37.497679
 11
-109.302853
 21
-36.854851
  0
LWPOLYLINE
  5
282
100
AcDbEntity
  8
0
100
AcDbPolyline
 62
7
  6
CONTINUOUS
 90
3
 70
0
 43
0.3500000006
 10
-117.9668265381
 20
63.0357163696
 10
-118.0382577209
 20
62.8214318848
 10
-118.1811110229
 20
62.535716217
  0
LINE
  5
283
100
AcDbEntity
  8
CURVE
100
AcDbLine
 62
250
  6
CONTINUOUS
 10
-107.303015
 20
-34.029587
 11
-109.302853
 21
-34.216594
  0
LINE
  5
284
100
AcDbEntity
  8
CURVE
100
AcDbLine
 62
250
  6
CONTINUOUS
 10
-108.603427
 20
-34.523725
 11
-107.303015
 21
-34.437958
  0
LINE
  5
285
100
AcDbEntity
  8
CURVE
100
AcDbLine
 62
250
  6
CONTINUOUS
 10
-107.3030147347
 20
-32.1967511684
 11
-109.2794875818
 21
-32.1967511684
  0
LINE
  5
286
100
AcDbEntity
  8
CURVE
100
AcDbLine
 62
250
  6
CONTINUOUS
 10
-108.011183
 20
-33.350542
 11
-108.753348
 21
-33.14269
  0
LINE
  5
287
100
AcDbEntity
  8
CURVE
100
AcDbLine
 62
250
  6
CONTINUOUS
 10
-107.303015
 20
-33.551121
 11
-107.702254
 21
-33.435933
  0
LINE
  5
288
100
AcDbEntity
  8
CURVE
100
AcDbLine
 62
250
  6
CONTINUOUS
 10
-109.302853
 20
-33.33676
 11
-107.303015
 21
-33.964037
  0
LINE
  5
289
100
AcDbEntity
  8
CURVE
100
AcDbLine
 62
250
  6
CONTINUOUS
 10
-109.302853
 20
-34.629615
 11
-108.192537
 21
-35.047059
  0
LINE
  5
28A
100
AcDbEntity
  8
CURVE
100
AcDbLine
 62
250
  6
CONTINUOUS
 10
-107.303015
 20
-35.020066
 11
-108.603427
 21
-34.523725
  0
LWPOLYLINE
  5
28B
100
AcDbEntity
  8
0
100
AcDbPolyline
 62
7
  6
CONTINUOUS
 90
3
 70
0
 43
0.3500000006
 10
-118.3836670532
 20
53.0357133179
 10
-118.4550891724
 20
52.821428833
 10
-118.5979515381
 20
52.5357131653
  0
LINE
  5
28C
100
AcDbEntity
  8
CURVE
100
AcDbLine
 62
250
  6
CONTINUOUS
 10
-107.702254
 20
-32.867443
 11
-107.303015
 21
-32.759302
  0
LINE
  5
28D
100
AcDbEntity
  8
CURVE
100
AcDbLine
 62
250
  6
CONTINUOUS
 10
-108.753348
 20
-33.14269
 11
-108.011183
 21
-32.950869
  0
LINE
  5
28E
100
AcDbEntity
  8
CURVE
100
AcDbLine
 62
250
  6
CONTINUOUS
 10
-108.9621601761
 20
-31.7948281153
 11
-108.4131657682
 21
-31.7948281153
  0
LINE
  5
28F
100
AcDbEntity
  8
CURVE
100
AcDbLine
 62
250
  6
CONTINUOUS
 10
-108.0856406953
 20
-31.7809862819
 11
-107.3030147347
 21
-31.7809862819
  0
LINE
  5
290
100
AcDbEntity
  8
CURVE
100
AcDbLine
 62
250
  6
CONTINUOUS
 10
-108.2483384753
 20
-31.1235216885
 11
-108.2365211787
 21
-31.1235216885
  0
LINE
  5
291
100
AcDbEntity
  8
RACCORDO
100
AcDbLine
 62
7
  6
CONTINUOUS
 10
-99.85
 20
-22.9082863863
 11
-104.55
 21
-23.1546029489
  0
LINE
  5
292
100
AcDbEntity
  8
RACCORDO
100
AcDbLine
 62
250
  6
CONTINUOUS
 10
-100.2600726589
 20
-22.7323039884
 11
-104.55
 21
-22.9571295537
  0
LINE
  5
293
100
AcDbEntity
  8
RACCORDO
100
AcDbLine
 62
7
  6
CONTINUOUS
 10
-100.0453497523
 20
-20.436253283
 11
-104.55
 21
-20.4755647702
  0
LINE
  5
294
100
AcDbEntity
  8
RACCORDO
100
AcDbLine
 62
250
  6
CONTINUOUS
 10
-104.55
 20
-20.2760235853
 11
-100.2600726589
 21
-20.2385859566
  0
LINE
  5
295
100
AcDbEntity
  8
RACCORDO
100
AcDbLine
 62
250
  6
CONTINUOUS
 10
-99.85
 20
-20.6844818703
 11
-104.55
 21
-20.7252895186
  0
LINE
  5
296
100
AcDbEntity
  8
RACCORDO
100
AcDbLine
 62
250
  6
CONTINUOUS
 10
-100.2600726589
 20
-22.3614140434
 11
-104.55
 21
-22.3239764147
  0
LINE
  5
297
100
AcDbEntity
  8
RACCORDO
100
AcDbLine
 62
7
  6
CONTINUOUS
 10
-100.0453497523
 20
-22.163746717
 11
-104.55
 21
-22.1244352298
  0
LINE
  5
298
100
AcDbEntity
  8
RACCORDO
100
AcDbLine
 62
250
  6
CONTINUOUS
 10
-104.55
 20
-21.8747104814
 11
-99.85
 21
-21.9155181297
  0
LINE
  5
299
100
AcDbEntity
  8
RACCORDO
100
AcDbLine
 62
250
  6
CONTINUOUS
 10
-104.55
 20
-19.6428704463
 11
-100.2600726589
 21
-19.8676960116
  0
LINE
  5
29A
100
AcDbEntity
  8
RACCORDO
100
AcDbLine
 62
7
  6
CONTINUOUS
 10
-104.55
 20
-19.4453970511
 11
-99.85
 21
-19.6917136137
  0
LWPOLYLINE
  5
29B
100
AcDbEntity
  8
0
100
AcDbPolyline
 62
7
  6
CONTINUOUS
 90
13
 70
0
 43
0.3500000006
 10
-121.0382586365
 20
63.6071386414
 10
-121.0382586365
 20
64.8928546143
 10
-120.8239741516
 20
65.3214326477
 10
-120.3954051819
 20
65.7500016174
 10
-120.1811116333
 20
65.7500016174
 10
-119.7525426636
 20
65.3214326477
 10
-119.5382581787
 20
64.8928546143
 10
-119.5382581787
 20
63.6071386414
 10
-119.7525426636
 20
63.1785696716
 10
-120.1811116333
 20
62.7500007019
 10
-120.3954051819
 20
62.7500007019
 10
-120.8239741516
 20
63.1785696716
 10
-121.0382586365
 20
63.6071386414
  0
LINE
  5
29C
100
AcDbEntity
  8
0
100
AcDbLine
 62
7
  6
CONTINUOUS
 10
-110.15
 20
-43.5
 11
-110.15
 21
43.5
  0
LINE
  5
29D
100
AcDbEntity
  8
0
100
AcDbLine
 62
250
  6
CONTINUOUS
 10
-109.65
 20
-44.0
 11
-109.65
 21
44.0
  0
LINE
  5
29E
100
AcDbEntity
  8
CURVE
100
AcDbLine
 62
250
  6
CONTINUOUS
 10
-109.302973
 20
-36.699936
 11
-109.302973
 21
-36.282492
  0
LINE
  5
29F
100
AcDbEntity
  8
CURVE
100
AcDbLine
 62
250
  6
CONTINUOUS
 10
-109.302853
 20
-32.932933
 11
-109.302853
 21
-33.33676
  0
LINE
  5
2A0
100
AcDbEntity
  8
CURVE
100
AcDbLine
 62
250
  6
CONTINUOUS
 10
-109.302853
 20
-34.216594
 11
-109.302853
 21
-34.629615
  0
LINE
  5
2A1
100
AcDbEntity
  8
CURVE
100
AcDbLine
 62
250
  6
CONTINUOUS
 10
-109.302853
 20
-35.460095
 11
-109.302853
 21
-35.877194
  0
LINE
  5
2A2
100
AcDbEntity
  8
CURVE
100
AcDbLine
 62
250
  6
CONTINUOUS
 10
-109.302853
 20
-36.854851
 11
-109.302853
 21
-37.272011
  0
LINE
  5
2A3
100
AcDbEntity
  8
CURVE
100
AcDbLine
 62
250
  6
CONTINUOUS
 10
-109.302853
 20
-38.046066
 11
-109.302853
 21
-38.499539
  0
LINE
  5
2A4
100
AcDbEntity
  8
CURVE
100
AcDbLine
 62
250
  6
CONTINUOUS
 10
-108.4131657682
 20
-31.7948281153
 11
-108.4131657682
 21
-31.5562626914
  0
LINE
  5
2A5
100
AcDbEntity
  8
CURVE
100
AcDbLine
 62
250
  6
CONTINUOUS
 10
-108.0856406953
 20
-31.5571624855
 11
-108.0856406953
 21
-31.7809862819
  0
LINE
  5
2A6
100
AcDbEntity
  8
CURVE
100
AcDbLine
 62
250
  6
CONTINUOUS
 10
-108.011183
 20
-32.950869
 11
-108.011183
 21
-33.350542
  0
LINE
  5
2A7
100
AcDbEntity
  8
CURVE
100
AcDbLine
 62
250
  6
CONTINUOUS
 10
-107.702254
 20
-33.435933
 11
-107.702254
 21
-32.867443
  0
LINE
  5
2A8
100
AcDbEntity
  8
CURVE
100
AcDbLine
 62
250
  6
CONTINUOUS
 10
-107.303015
 20
-37.865552
 11
-107.303015
 21
-37.497679
  0
LINE
  5
2A9
100
AcDbEntity
  8
CURVE
100
AcDbLine
 62
250
  6
CONTINUOUS
 10
-107.303015
 20
-36.057768
 11
-107.303015
 21
-35.65841
  0
LINE
  5
2AA
100
AcDbEntity
  8
CURVE
100
AcDbLine
 62
250
  6
CONTINUOUS
 10
-107.303015
 20
-35.078612
 11
-107.303015
 21
-35.020066
  0
LINE
  5
2AB
100
AcDbEntity
  8
CURVE
100
AcDbLine
 62
250
  6
CONTINUOUS
 10
-107.303015
 20
-34.437958
 11
-107.303015
 21
-34.029587
  0
LINE
  5
2AC
100
AcDbEntity
  8
CURVE
100
AcDbLine
 62
250
  6
CONTINUOUS
 10
-107.303015
 20
-33.964037
 11
-107.303015
 21
-33.551121
  0
LINE
  5
2AD
100
AcDbEntity
  8
CURVE
100
AcDbLine
 62
250
  6
CONTINUOUS
 10
-107.303015
 20
-32.759302
 11
-107.303015
 21
-32.319333
  0
LINE
  5
2AE
100
AcDbEntity
  8
CURVE
100
AcDbLine
 62
250
  6
CONTINUOUS
 10
-107.303015
 20
-36.282492
 11
-107.303015
 21
-36.699936
  0
LINE
  5
2AF
100
AcDbEntity
  8
CURVE
100
AcDbLine
 62
250
  6
CONTINUOUS
 10
-107.3030147347
 20
-30.7401943813
 11
-107.3030147347
 21
-31.1417275236
  0
LINE
  5
2B0
100
AcDbEntity
  8
CURVE
100
AcDbLine
 62
250
  6
CONTINUOUS
 10
-107.3030147347
 20
-31.7809862819
 11
-107.3030147347
 21
-32.1967511684
  0
LINE
  5
2B1
100
AcDbEntity
  8
0
100
AcDbLine
 62
7
  6
CONTINUOUS
 10
-106.45
 20
-44.0
 11
-106.45
 21
44.0
  0
LINE
  5
2B2
100
AcDbEntity
  8
RACCORDO
100
AcDbLine
 62
250
  6
CONTINUOUS
 10
-104.7447646103
 20
41.7477309359
 11
-104.7447646103
 21
-41.7477309359
  0
LINE
  5
2B3
100
AcDbEntity
  8
RACCORDO
100
AcDbLine
 62
7
  6
CONTINUOUS
 10
-104.55
 20
-42.2475595984
 11
-104.55
 21
42.2475595984
  0
LINE
  5
2B4
100
AcDbEntity
  8
RACCORDO
100
AcDbLine
 62
250
  6
CONTINUOUS
 10
-102.797297406
 20
21.8900060852
 11
-102.797297406
 21
20.7099939148
  0
LINE
  5
2B5
100
AcDbEntity
  8
RACCORDO
100
AcDbLine
 62
250
  6
CONTINUOUS
 10
-102.797297406
 20
-21.8900060852
 11
-102.797297406
 21
-20.7099939148
  0
LINE
  5
2B6
100
AcDbEntity
  8
RACCORDO
100
AcDbLine
 62
250
  6
CONTINUOUS
 10
-102.7016707105
 20
21.8906319764
 11
-102.7016707105
 21
20.7093680236
  0
LINE
  5
2B7
100
AcDbEntity
  8
RACCORDO
100
AcDbLine
 62
250
  6
CONTINUOUS
 10
-102.7016707105
 20
-21.8906319764
 11
-102.7016707105
 21
-20.7093680236
  0
LINE
  5
2B8
100
AcDbEntity
  8
RACCORDO
100
AcDbLine
 62
7
  6
CONTINUOUS
 10
-100.2600726589
 20
22.7323039884
 11
-100.2600726589
 21
22.3614140434
  0
LINE
  5
2B9
100
AcDbEntity
  8
RACCORDO
100
AcDbLine
 62
7
  6
CONTINUOUS
 10
-100.2600726589
 20
20.2385859566
 11
-100.2600726589
 21
19.8676960116
  0
LINE
  5
2BA
100
AcDbEntity
  8
RACCORDO
100
AcDbLine
 62
7
  6
CONTINUOUS
 10
-100.2600726589
 20
-22.7323039884
 11
-100.2600726589
 21
-22.3614140434
  0
LINE
  5
2BB
100
AcDbEntity
  8
RACCORDO
100
AcDbLine
 62
7
  6
CONTINUOUS
 10
-100.2600726589
 20
-20.2385859566
 11
-100.2600726589
 21
-19.8676960116
  0
LINE
  5
2BC
100
AcDbEntity
  8
RACCORDO
100
AcDbLine
 62
7
  6
CONTINUOUS
 10
-99.85
 20
-19.6917136137
 11
-99.85
 21
-22.9082863863
  0
LINE
  5
2BD
100
AcDbEntity
  8
RACCORDO
100
AcDbLine
 62
7
  6
CONTINUOUS
 10
-99.85
 20
19.6917136137
 11
-99.85
 21
22.9082863863
  0
LWPOLYLINE
  5
2BE
100
AcDbEntity
  8
0
100
AcDbPolyline
 62
7
  6
CONTINUOUS
 90
10
 70
0
 43
0.3500000006
 10
-118.4550891724
 20
53.2499978027
 10
-118.3836670532
 20
53.1071445007
 10
-118.3836670532
 20
53.0357133179
 10
-118.5265203552
 20
52.892855484
 10
-118.5979515381
 20
52.892855484
 10
-118.6693736572
 20
52.9642866669
 10
-118.6693736572
 20
53.0357133179
 10
-118.5979515381
 20
53.1785711517
 10
-118.5265203552
 20
53.2499978027
 10
-118.4550891724
 20
53.2499978027
  0
LWPOLYLINE
  5
2BF
100
AcDbEntity
  8
0
100
AcDbPolyline
 62
7
  6
CONTINUOUS
 90
10
 70
0
 43
0.3500000006
 10
-118.0382577209
 20
63.2500008545
 10
-117.9668265381
 20
63.1071384888
 10
-117.9668265381
 20
63.0357163696
 10
-118.1096889038
 20
62.8928540039
 10
-118.1811110229
 20
62.8928540039
 10
-118.2525422058
 20
62.9642851868
 10
-118.2525422058
 20
63.0357163696
 10
-118.1811110229
 20
63.1785696716
 10
-118.1096889038
 20
63.2500008545
 10
-118.0382577209
 20
63.2500008545
  0
LINE
  5
2C0
100
AcDbEntity
  8
RACCORDO
100
AcDbLine
 62
7
  6
CONTINUOUS
 10
-99.85
 20
19.6917136137
 11
-104.55
 21
19.4453970511
  0
LINE
  5
2C1
100
AcDbEntity
  8
RACCORDO
100
AcDbLine
 62
250
  6
CONTINUOUS
 10
-100.2600726589
 20
19.8676960116
 11
-104.55
 21
19.6428704463
  0
LINE
  5
2C2
100
AcDbEntity
  8
RACCORDO
100
AcDbLine
 62
250
  6
CONTINUOUS
 10
-100.2600726589
 20
20.2385859566
 11
-104.55
 21
20.2760235853
  0
LINE
  5
2C3
100
AcDbEntity
  8
RACCORDO
100
AcDbLine
 62
7
  6
CONTINUOUS
 10
-100.0453497523
 20
20.436253283
 11
-104.55
 21
20.4755647702
  0
LINE
  5
2C4
100
AcDbEntity
  8
RACCORDO
100
AcDbLine
 62
250
  6
CONTINUOUS
 10
-104.55
 20
20.7252895186
 11
-99.85
 21
20.6844818703
  0
LINE
  5
2C5
100
AcDbEntity
  8
RACCORDO
100
AcDbLine
 62
7
  6
CONTINUOUS
 10
-100.0453497523
 20
22.163746717
 11
-104.55
 21
22.1244352298
  0
LINE
  5
2C6
100
AcDbEntity
  8
RACCORDO
100
AcDbLine
 62
250
  6
CONTINUOUS
 10
-104.55
 20
22.3239764147
 11
-100.2600726589
 21
22.3614140434
  0
LINE
  5
2C7
100
AcDbEntity
  8
RACCORDO
100
AcDbLine
 62
250
  6
CONTINUOUS
 10
-99.85
 20
21.9155181297
 11
-104.55
 21
21.8747104814
  0
LINE
  5
2C8
100
AcDbEntity
  8
RACCORDO
100
AcDbLine
 62
250
  6
CONTINUOUS
 10
-104.55
 20
22.9571295537
 11
-100.2600726589
 21
22.7323039884
  0
LINE
  5
2C9
100
AcDbEntity
  8
RACCORDO
100
AcDbLine
 62
7
  6
CONTINUOUS
 10
-104.55
 20
23.1546029489
 11
-99.85
 21
22.9082863863
  0
LINE
  5
2CA
100
AcDbEntity
  8
CURVE
100
AcDbLine
 62
250
  6
CONTINUOUS
 10
-108.608872
 20
-35.568326
 11
-107.303015
 21
-35.078612
  0
LINE
  5
2CB
100
AcDbEntity
  8
CURVE
100
AcDbLine
 62
250
  6
CONTINUOUS
 10
-108.192537
 20
-35.047059
 11
-109.302853
 21
-35.460095
  0
LINE
  5
2CC
100
AcDbEntity
  8
CURVE
100
AcDbLine
 62
250
  6
CONTINUOUS
 10
-107.303015
 20
-32.319333
 11
-109.302853
 21
-32.932933
  0
LINE
  5
2CD
100
AcDbEntity
  8
CURVE
100
AcDbLine
 62
250
  6
CONTINUOUS
 10
-109.302853
 20
-38.499539
 11
-107.303015
 21
-37.865552
  0
LINE
  5
2CE
100
AcDbEntity
  8
RACCORDO
100
AcDbLine
 62
250
  6
CONTINUOUS
 10
-104.55
 20
41.7477309359
 11
-104.7447646103
 21
41.7477309359
  0
LINE
  5
2CF
100
AcDbEntity
  8
0
100
AcDbLine
 62
250
  6
CONTINUOUS
 10
-110.15
 20
42.5
 11
-106.45
 21
42.5
  0
LINE
  5
2D0
100
AcDbEntity
  8
0
100
AcDbLine
 62
7
  6
CONTINUOUS
 10
-109.65
 20
44.0
 11
-106.45
 21
44.0
  0
LWPOLYLINE
  5
2D1
100
AcDbEntity
  8
0
100
AcDbPolyline
 62
7
  6
CONTINUOUS
 90
8
 70
0
 43
0.3500000006
 10
-121.240805603
 20
52.750002182
 10
-120.3836585999
 20
52.750002182
 10
-119.9550896301
 20
53.1785711517
 10
-119.9550896301
 20
54.035713623
 10
-120.3836585999
 20
54.4642871246
 10
-121.240805603
 20
54.4642871246
 10
-121.240805603
 20
55.7499985657
 10
-119.9550896301
 20
55.7499985657
  0
LWPOLYLINE
  5
2D2
100
AcDbEntity
  8
0
100
AcDbPolyline
 62
7
  6
CONTINUOUS
 90
6
 70
0
 43
0.3500000006
 10
-116.9668262329
 20
62.7500007019
 10
-115.8954038086
 20
62.7500007019
 10
-115.6811193237
 20
62.9642851868
 10
-115.6811193237
 20
64.0357166748
 10
-116.1096882935
 20
64.4642856445
 10
-116.5382572632
 20
64.4642856445
  0
LINE
  5
2D3
100
AcDbEntity
  8
RACCORDO
100
AcDbLine
 62
250
  6
CONTINUOUS
 10
-106.45
 20
41.792384096
 11
-104.7447646103
 21
41.7477309359
  0
LINE
  5
2D4
100
AcDbEntity
  8
RACCORDO
100
AcDbLine
 62
7
  6
CONTINUOUS
 10
-106.4502055698
 20
42.4921496066
 11
-104.7447646103
 21
42.4474910634
  0
ARC
  5
2D5
100
AcDbEntity
  8
0
100
AcDbCircle
 62
7
  6
CONTINUOUS
 10
-76.0
 20
-42.5
 40
1.5
100
AcDbArc
 50
180.0
 51
270.0
  0
ARC
  5
2D6
100
AcDbEntity
  8
0
100
AcDbCircle
 62
7
  6
CONTINUOUS
 10
76.0
 20
-42.5
 40
1.5
100
AcDbArc
 50
270.0
 51
360.0
  0
ARC
  5
2D7
100
AcDbEntity
  8
0
100
AcDbCircle
 62
7
  6
CONTINUOUS
 10
76.0
 20
42.5
 40
1.5
100
AcDbArc
 50
0.0
 51
90.0
  0
ARC
  5
2D8
100
AcDbEntity
  8
0
100
AcDbCircle
 62
7
  6
CONTINUOUS
 10
-76.0
 20
42.5
 40
1.5
100
AcDbArc
 50
90.0
 51
180.0
  0
ARC
  5
2D9
100
AcDbEntity
  8
RACCORDO
100
AcDbCircle
 62
7
  6
CONTINUOUS
 10
-57.675
 20
17.5
 40
1.2
100
AcDbArc
 50
343.4321988405
 51
16.5678011476
  0
ARC
  5
2DA
100
AcDbEntity
  8
RACCORDO
100
AcDbCircle
 62
7
  6
CONTINUOUS
 10
-57.675
 20
-17.5
 40
1.2
100
AcDbArc
 50
343.4321988405
 51
16.5678011476
  0
ARC
  5
2DB
100
AcDbEntity
  8
RACCORDO
100
AcDbCircle
 62
7
  6
CONTINUOUS
 10
57.675
 20
17.5
 40
1.2
100
AcDbArc
 50
163.4321988405
 51
196.5678011476
  0
ARC
  5
2DC
100
AcDbEntity
  8
RACCORDO
100
AcDbCircle
 62
7
  6
CONTINUOUS
 10
57.675
 20
-17.5
 40
1.2
100
AcDbArc
 50
163.4321988405
 51
196.5678011476
  0
ARC
  5
2DD
100
AcDbEntity
  8
RACCORDO
100
AcDbCircle
 62
250
  6
CONTINUOUS
 10
-57.675
 20
17.5
 40
1.1947025539
100
AcDbArc
 50
344.3671945029
 51
15.6328054884
  0
ARC
  5
2DE
100
AcDbEntity
  8
RACCORDO
100
AcDbCircle
 62
250
  6
CONTINUOUS
 10
-57.675
 20
-17.5
 40
1.1947025539
100
AcDbArc
 50
344.3671945029
 51
15.6328054884
  0
ARC
  5
2DF
100
AcDbEntity
  8
RACCORDO
100
AcDbCircle
 62
250
  6
CONTINUOUS
 10
57.675
 20
17.5
 40
1.1947025539
100
AcDbArc
 50
164.3671945029
 51
195.6328054884
  0
ARC
  5
2E0
100
AcDbEntity
  8
RACCORDO
100
AcDbCircle
 62
250
  6
CONTINUOUS
 10
57.675
 20
-17.5
 40
1.1947025539
100
AcDbArc
 50
164.3671945029
 51
195.6328054884
  0
ARC
  5
2E1
100
AcDbEntity
  8
0
100
AcDbCircle
 62
250
  6
CONTINUOUS
 10
-76.0
 20
42.5
 40
1.0
100
AcDbArc
 50
90.0
 51
180.0
  0
ARC
  5
2E2
100
AcDbEntity
  8
0
100
AcDbCircle
 62
250
  6
CONTINUOUS
 10
76.0
 20
42.5
 40
1.0
100
AcDbArc
 50
0.0
 51
90.0
  0
ARC
  5
2E3
100
AcDbEntity
  8
0
100
AcDbCircle
 62
250
  6
CONTINUOUS
 10
76.0
 20
-42.5
 40
1.0
100
AcDbArc
 50
270.0
 51
360.0
  0
ARC
  5
2E4
100
AcDbEntity
  8
0
100
AcDbCircle
 62
250
  6
CONTINUOUS
 10
-76.0
 20
-42.5
 40
1.0
100
AcDbArc
 50
180.0
 51
270.0
  0
ARC
  5
2E5
100
AcDbEntity
  8
0
100
AcDbCircle
 62
250
  6
CONTINUOUS
 10
55.925
 20
-26.225
 40
0.9
100
AcDbArc
 50
270.0
 51
360.0
  0
ARC
  5
2E6
100
AcDbEntity
  8
0
100
AcDbCircle
 62
250
  6
CONTINUOUS
 10
55.925
 20
26.225
 40
0.9
100
AcDbArc
 50
0.0
 51
90.0
  0
ARC
  5
2E7
100
AcDbEntity
  8
0
100
AcDbCircle
 62
250
  6
CONTINUOUS
 10
-55.925
 20
26.225
 40
0.9
100
AcDbArc
 50
90.0
 51
180.0
  0
ARC
  5
2E8
100
AcDbEntity
  8
0
100
AcDbCircle
 62
250
  6
CONTINUOUS
 10
-55.925
 20
-26.225
 40
0.9
100
AcDbArc
 50
180.0
 51
270.0
  0
ARC
  5
2E9
100
AcDbEntity
  8
0
100
AcDbCircle
 62
7
  6
CONTINUOUS
 10
-55.925
 20
-26.225
 40
0.6
100
AcDbArc
 50
180.0
 51
270.0
  0
ARC
  5
2EA
100
AcDbEntity
  8
0
100
AcDbCircle
 62
7
  6
CONTINUOUS
 10
-55.925
 20
26.225
 40
0.6
100
AcDbArc
 50
90.0
 51
180.0
  0
ARC
  5
2EB
100
AcDbEntity
  8
0
100
AcDbCircle
 62
7
  6
CONTINUOUS
 10
55.925
 20
26.225
 40
0.6
100
AcDbArc
 50
0.0
 51
90.0
  0
ARC
  5
2EC
100
AcDbEntity
  8
0
100
AcDbCircle
 62
7
  6
CONTINUOUS
 10
55.925
 20
-26.225
 40
0.6
100
AcDbArc
 50
270.0
 51
360.0
  0
ARC
  5
2ED
100
AcDbEntity
  8
0
100
AcDbCircle
 62
7
  6
CONTINUOUS
 10
-109.65
 20
43.5
 40
0.5
100
AcDbArc
 50
90.0
 51
180.0
  0
ARC
  5
2EE
100
AcDbEntity
  8
0
100
AcDbCircle
 62
7
  6
CONTINUOUS
 10
-109.65
 20
-43.5
 40
0.5
100
AcDbArc
 50
180.0
 51
270.0
  0
ARC
  5
2EF
100
AcDbEntity
  8
RACCORDO
100
AcDbCircle
 62
7
  6
CONTINUOUS
 10
-104.75
 20
42.2475595984
 40
0.2
100
AcDbArc
 50
0.0
 51
88.5
  0
ARC
  5
2F0
100
AcDbEntity
  8
RACCORDO
100
AcDbCircle
 62
7
  6
CONTINUOUS
 10
-104.75
 20
-42.2475595984
 40
0.2
100
AcDbArc
 50
271.5
 51
360.0
  0
SPLINE
  5
2F1
100
AcDbEntity
  8
CURVE
100
AcDbSpline
 62
250
  6
CONTINUOUS
 70
0
 71
3
 72
9
 73
5
 74
0
 42
0.0000001
 43
0.0000001
 44
0.0000000001
 40
0.0
 40
0.0
 40
0.0
 40
0.0
 40
0.7572692566
 40
1.0
 40
1.0
 40
1.0
 40
1.0
 10
-108.2365211787
 20
-31.1235216885
 30
0.0
 10
-108.1929809467
 20
-31.014329884
 30
0.0
 10
-108.0273619896
 20
-30.9306113076
 30
0.0
 10
-107.8805983687
 20
-30.8927947543
 30
0.0
 10
-107.8442431202
 20
-30.8828900772
 30
0.0
  0
SPLINE
  5
2F2
100
AcDbEntity
  8
CURVE
100
AcDbSpline
 62
250
  6
CONTINUOUS
 70
0
 71
3
 72
9
 73
5
 74
0
 42
0.0000001
 43
0.0000001
 44
0.0000000001
 40
0.0
 40
0.0
 40
0.0
 40
0.0
 40
0.8019701384
 40
1.0
 40
1.0
 40
1.0
 40
1.0
 10
-107.8442431203
 20
-30.8828900769
 30
0.0
 10
-107.6998777687
 20
-30.8435589694
 30
0.0
 10
-107.5191269684
 20
-30.797273308
 30
0.0
 10
-107.3386703829
 20
-30.7498783544
 30
0.0
 10
-107.3030147347
 20
-30.7401943813
 30
0.0
  0
SPLINE
  5
2F3
100
AcDbEntity
  8
CURVE
100
AcDbSpline
 62
250
  6
CONTINUOUS
 70
0
 71
3
 72
9
 73
5
 74
0
 42
0.0000001
 43
0.0000001
 44
0.0000000001
 40
0.0
 40
0.0
 40
0.0
 40
0.0
 40
0.4413785828
 40
1.0
 40
1.0
 40
1.0
 40
1.0
 10
-107.3030147347
 20
-31.1417275236
 30
0.0
 10
-107.3925642071
 20
-31.1674733565
 30
0.0
 10
-107.5946183602
 20
-31.2282508965
 30
0.0
 10
-107.7990369645
 20
-31.2827922524
 30
0.0
 10
-107.9094310064
 20
-31.3242657647
 30
0.0
  0
SPLINE
  5
2F4
100
AcDbEntity
  8
CURVE
100
AcDbSpline
 62
250
  6
CONTINUOUS
 70
0
 71
3
 72
9
 73
5
 74
0
 42
0.0000001
 43
0.0000001
 44
0.0000000001
 40
0.0
 40
0.0
 40
0.0
 40
0.0
 40
0.6440858369
 40
1.0
 40
1.0
 40
1.0
 40
1.0
 10
-107.9094310064
 20
-31.3242657647
 30
0.0
 10
-107.9710644108
 20
-31.3473960335
 30
0.0
 10
-108.0636130976
 20
-31.4161375221
 30
0.0
 10
-108.0856406953
 20
-31.5207852045
 30
0.0
 10
-108.0856406953
 20
-31.5571624855
 30
0.0
  0
SPLINE
  5
2F5
100
AcDbEntity
  8
CURVE
100
AcDbSpline
 62
250
  6
CONTINUOUS
 70
0
 71
3
 72
9
 73
5
 74
0
 42
0.0000001
 43
0.0000001
 44
0.0000000001
 40
0.0
 40
0.0
 40
0.0
 40
0.0
 40
0.7042582166
 40
1.0
 40
1.0
 40
1.0
 40
1.0
 10
-109.2794875818
 20
-32.1967511684
 30
0.0
 10
-109.3149274396
 20
-31.9558554795
 30
0.0
 10
-109.3498071434
 20
-31.6083849347
 30
0.0
 10
-109.2931748602
 20
-31.2627275241
 30
0.0
 10
-109.2584323986
 20
-31.1665618423
 30
0.0
  0
SPLINE
  5
2F6
100
AcDbEntity
  8
CURVE
100
AcDbSpline
 62
250
  6
CONTINUOUS
 70
0
 71
3
 72
17
 73
13
 74
0
 42
0.0000001
 43
0.0000001
 44
0.0000000001
 40
0.0
 40
0.0
 40
0.0
 40
0.0
 40
0.0799595168
 40
0.1896577306
 40
0.3223977561
 40
0.3986068941
 40
0.483386777
 40
0.5877249163
 40
0.678993766
 40
0.8312459613
 40
0.9440219048
 40
1.0
 40
1.0
 40
1.0
 40
1.0
 10
-109.2584323986
 20
-31.1665618423
 30
0.0
 10
-109.2471634422
 20
-31.1353245699
 30
0.0
 10
-109.2086909916
 20
-31.0655694498
 30
0.0
 10
-109.1194879598
 20
-30.964116639
 30
0.0
 10
-109.0054214184
 20
-30.8922622469
 30
0.0
 10
-108.8890295775
 20
-30.854005291
 30
0.0
 10
-108.7794923579
 20
-30.8382204826
 30
0.0
 10
-108.6622138022
 20
-30.8412156391
 30
0.0
 10
-108.5209107838
 20
-30.8730966441
 30
0.0
 10
-108.3854626919
 20
-30.9446626262
 30
0.0
 10
-108.2974719461
 20
-31.0418568898
 30
0.0
 10
-108.2513135679
 20
-31.1004647206
 30
0.0
 10
-108.2483384753
 20
-31.1235216885
 30
0.0
  0
SPLINE
  5
2F7
100
AcDbEntity
  8
CURVE
100
AcDbSpline
 62
250
  6
CONTINUOUS
 70
0
 71
3
 72
9
 73
5
 74
0
 42
0.0000001
 43
0.0000001
 44
0.0000000001
 40
0.0
 40
0.0
 40
0.0
 40
0.0
 40
0.4793791278
 40
1.0
 40
1.0
 40
1.0
 40
1.0
 10
-108.4131657682
 20
-31.5562626914
 30
0.0
 10
-108.414943584
 20
-31.4766675333
 30
0.0
 10
-108.4486273669
 20
-31.2917335024
 30
0.0
 10
-108.6374855495
 20
-31.2306578605
 30
0.0
 10
-108.7239396732
 20
-31.231991874
 30
0.0
  0
SPLINE
  5
2F8
100
AcDbEntity
  8
CURVE
100
AcDbSpline
 62
250
  6
CONTINUOUS
 70
0
 71
3
 72
9
 73
5
 74
0
 42
0.0000001
 43
0.0000001
 44
0.0000000001
 40
0.0
 40
0.0
 40
0.0
 40
0.0
 40
0.4986345247
 40
1.0
 40
1.0
 40
1.0
 40
1.0
 10
-108.7239396732
 20
-31.231991874
 30
0.0
 10
-108.7851924644
 20
-31.2329498976
 30
0.0
 10
-108.9129540387
 20
-31.2828717974
 30
0.0
 10
-108.9668324696
 20
-31.4066238111
 30
0.0
 10
-108.9739337133
 20
-31.4678085288
 30
0.0
  0
SPLINE
  5
2F9
100
AcDbEntity
  8
CURVE
100
AcDbSpline
 62
250
  6
CONTINUOUS
 70
0
 71
3
 72
9
 73
5
 74
0
 42
0.0000001
 43
0.0000001
 44
0.0000000001
 40
0.0
 40
0.0
 40
0.0
 40
0.0
 40
0.7295958313
 40
1.0
 40
1.0
 40
1.0
 40
1.0
 10
-108.9739337132
 20
-31.4678085288
 30
0.0
 10
-108.9831279281
 20
-31.5470264045
 30
0.0
 10
-108.9834823372
 20
-31.6576059819
 30
0.0
 10
-108.9671317521
 20
-31.7656922858
 30
0.0
 10
-108.9621601761
 20
-31.7948281153
 30
0.0
  0
SPLINE
  5
2FA
100
AcDbEntity
  8
RACCORDO
100
AcDbSpline
 62
250
  6
CONTINUOUS
 70
0
 71
3
 72
23
 73
19
 74
0
 42
0.0000001
 43
0.0000001
 44
0.0000000001
 40
0.0
 40
0.0
 40
0.0
 40
0.0
 40
0.1950487462
 40
0.3825945864
 40
0.5554462394
 40
0.6342536345
 40
0.7069557343
 40
0.7728476383
 40
0.8313031063
 40
0.8817536999
 40
0.923721768
 40
0.9567956204
 40
0.9698998823
 40
0.9806663286
 40
0.9890678854
 40
0.9950922599
 40
0.9987310625
 40
1.0
 40
1.0
 40
1.0
 40
1.0
 10
-104.7447646103
 20
-41.7477309359
 30
0.0
 10
-104.7444241199
 20
-41.7932300154
 30
0.0
 10
-104.743822416
 20
-41.8824784779
 30
0.0
 10
-104.7431414266
 20
-42.0120494793
 30
0.0
 10
-104.7427748557
 20
-42.1145051999
 30
0.0
 10
-104.7426254512
 20
-42.1901710402
 30
0.0
 10
-104.7425869593
 20
-42.240885665
 30
0.0
 10
-104.7426183442
 20
-42.2868530247
 30
0.0
 10
-104.7427194528
 20
-42.3276283867
 30
0.0
 10
-104.7428859743
 20
-42.3628260267
 30
0.0
 10
-104.7431224225
 20
-42.392092422
 30
0.0
 10
-104.743371506
 20
-42.4126702318
 30
0.0
 10
-104.7436375394
 20
-42.4259258237
 30
0.0
 10
-104.7437979061
 20
-42.4335066754
 30
0.0
 10
-104.7440695871
 20
-42.4392381379
 30
0.0
 10
-104.7441117445
 20
-42.4437705722
 30
0.0
 10
-104.7446026968
 20
-42.4457404399
 30
0.0
 10
-104.7444687187
 20
-42.4474825614
 30
0.0
 10
-104.7447646103
 20
-42.4474910634
 30
0.0
  0
SPLINE
  5
2FB
100
AcDbEntity
  8
RACCORDO
100
AcDbSpline
 62
250
  6
CONTINUOUS
 70
0
 71
3
 72
23
 73
19
 74
0
 42
0.0000001
 43
0.0000001
 44
0.0000000001
 40
0.0
 40
0.0
 40
0.0
 40
0.0
 40
0.0012673448
 40
0.0049025816
 40
0.0109226162
 40
0.0193202376
 40
0.0300812813
 40
0.0431759706
 40
0.0762325603
 40
0.1181870409
 40
0.1686245384
 40
0.2270718337
 40
0.2929548563
 40
0.3656492252
 40
0.4444499075
 40
0.6172916087
 40
0.804891345
 40
1.0
 40
1.0
 40
1.0
 40
1.0
 10
-104.7447646103
 20
42.4474910634
 30
0.0
 10
-104.7444690842
 20
42.4474827822
 30
0.0
 10
-104.7446023772
 20
42.4457421838
 30
0.0
 10
-104.744112083
 20
42.4437743785
 30
0.0
 10
-104.7440696789
 20
42.4392446941
 30
0.0
 10
-104.7437981933
 20
42.4335164632
 30
0.0
 10
-104.7436378348
 20
42.4259400084
 30
0.0
 10
-104.7433717512
 20
42.4126919421
 30
0.0
 10
-104.7431227169
 20
42.3921235556
 30
0.0
 10
-104.7428862638
 20
42.3628674149
 30
0.0
 10
-104.7427196221
 20
42.3276779032
 30
0.0
 10
-104.7426184338
 20
42.2869095734
 30
0.0
 10
-104.7425869503
 20
42.2409479929
 30
0.0
 10
-104.7426253657
 20
42.1902388068
 30
0.0
 10
-104.7427746163
 20
42.1145786532
 30
0.0
 10
-104.7431411884
 20
42.0121142421
 30
0.0
 10
-104.7438221738
 20
41.8825190075
 30
0.0
 10
-104.7444238767
 20
41.7932439916
 30
0.0
 10
-104.7447646103
 20
41.7477309359
 30
0.0
  0
SPLINE
  5
2FC
100
AcDbEntity
  8
RACCORDO
100
AcDbSpline
 62
250
  6
CONTINUOUS
 70
0
 71
3
 72
18
 73
14
 74
0
 42
0.0000001
 43
0.0000001
 44
0.0000000001
 40
0.0
 40
0.0
 40
0.0
 40
0.0
 40
0.0059043685
 40
0.0206668531
 40
0.0446648094
 40
0.0778131349
 40
0.1197948371
 40
0.1701978587
 40
0.2944133881
 40
0.4456176966
 40
0.6181088379
 40
0.8055006428
 40
1.0
 40
1.0
 40
1.0
 40
1.0
 10
-102.6951274702
 20
22.1406224572
 30
0.0
 10
-102.6956204545
 20
22.1406181549
 30
0.0
 10
-102.6962827851
 20
22.1383875438
 30
0.0
 10
-102.6969491838
 20
22.1352422403
 30
0.0
 10
-102.6976943007
 20
22.1289950444
 30
0.0
 10
-102.6983860965
 20
22.1208700664
 30
0.0
 10
-102.6990508283
 20
22.1103619109
 30
0.0
 10
-102.6999236361
 20
22.0923184321
 30
0.0
 10
-102.7007868149
 20
22.0651114751
 30
0.0
 10
-102.7015021461
 20
22.0277236615
 30
0.0
 10
-102.7019064786
 20
21.985048378
 30
0.0
 10
-102.701981906
 20
21.9387588095
 30
0.0
 10
-102.7018122595
 20
21.9068716713
 30
0.0
 10
-102.7016707105
 20
21.8906319764
 30
0.0
  0
SPLINE
  5
2FD
100
AcDbEntity
  8
RACCORDO
100
AcDbSpline
 62
250
  6
CONTINUOUS
 70
0
 71
3
 72
13
 73
9
 74
0
 42
0.0000001
 43
0.0000001
 44
0.0000000001
 40
0.0
 40
0.0
 40
0.0
 40
0.0
 40
0.0311730349
 40
0.0916961539
 40
0.1846209902
 40
0.3076776161
 40
0.6258046549
 40
1.0
 40
1.0
 40
1.0
 40
1.0
 10
-102.7668474918
 20
22.139996566
 30
0.0
 10
-102.7695028517
 20
22.139973393
 30
0.0
 10
-102.7755213996
 20
22.1328652132
 30
0.0
 10
-102.7800836231
 20
22.1185232588
 30
0.0
 10
-102.7855052997
 20
22.0952197335
 30
0.0
 10
-102.7917352713
 20
22.0502975786
 30
0.0
 10
-102.7966712849
 20
21.9808385271
 30
0.0
 10
-102.7975708313
 20
21.9218805745
 30
0.0
 10
-102.797297406
 20
21.8900060852
 30
0.0
  0
SPLINE
  5
2FE
100
AcDbEntity
  8
RACCORDO
100
AcDbSpline
 62
250
  6
CONTINUOUS
 70
0
 71
3
 72
13
 73
9
 74
0
 42
0.0000001
 43
0.0000001
 44
0.0000000001
 40
0.0
 40
0.0
 40
0.0
 40
0.0
 40
0.0311730347
 40
0.0916961534
 40
0.1846209892
 40
0.307677615
 40
0.6258046539
 40
1.0
 40
1.0
 40
1.0
 40
1.0
 10
-102.7668474918
 20
20.460003434
 30
0.0
 10
-102.7695028516
 20
20.460026607
 30
0.0
 10
-102.7755213996
 20
20.4671347867
 30
0.0
 10
-102.780083623
 20
20.4814767411
 30
0.0
 10
-102.7855052997
 20
20.5047802662
 30
0.0
 10
-102.7917352712
 20
20.5497024211
 30
0.0
 10
-102.7966712849
 20
20.6191614727
 30
0.0
 10
-102.7975708313
 20
20.6781194254
 30
0.0
 10
-102.797297406
 20
20.7099939148
 30
0.0
  0
SPLINE
  5
2FF
100
AcDbEntity
  8
RACCORDO
100
AcDbSpline
 62
250
  6
CONTINUOUS
 70
0
 71
3
 72
18
 73
14
 74
0
 42
0.0000001
 43
0.0000001
 44
0.0000000001
 40
0.0
 40
0.0
 40
0.0
 40
0.0
 40
0.0059043685
 40
0.020666853
 40
0.0446648092
 40
0.0778131347
 40
0.1197948368
 40
0.1701978584
 40
0.2944133876
 40
0.4456176961
 40
0.6181088375
 40
0.8055006426
 40
1.0
 40
1.0
 40
1.0
 40
1.0
 10
-102.6951274702
 20
20.4593775428
 30
0.0
 10
-102.6956204545
 20
20.4593818451
 30
0.0
 10
-102.6962827851
 20
20.4616124562
 30
0.0
 10
-102.6969491838
 20
20.4647577597
 30
0.0
 10
-102.6976943007
 20
20.4710049556
 30
0.0
 10
-102.6983860965
 20
20.4791299336
 30
0.0
 10
-102.6990508283
 20
20.489638089
 30
0.0
 10
-102.6999236361
 20
20.5076815678
 30
0.0
 10
-102.7007868149
 20
20.5348885247
 30
0.0
 10
-102.7015021461
 20
20.5722763384
 30
0.0
 10
-102.7019064786
 20
20.6149516219
 30
0.0
 10
-102.701981906
 20
20.6612411905
 30
0.0
 10
-102.7018122595
 20
20.6931283287
 30
0.0
 10
-102.7016707105
 20
20.7093680236
 30
0.0
  0
SPLINE
  5
300
100
AcDbEntity
  8
RACCORDO
100
AcDbSpline
 62
250
  6
CONTINUOUS
 70
0
 71
3
 72
13
 73
9
 74
0
 42
0.0000001
 43
0.0000001
 44
0.0000000001
 40
0.0
 40
0.0
 40
0.0
 40
0.0
 40
0.031173035
 40
0.0916961541
 40
0.1846209905
 40
0.3076776166
 40
0.6258046553
 40
1.0
 40
1.0
 40
1.0
 40
1.0
 10
-102.7668474918
 20
-22.139996566
 30
0.0
 10
-102.7695028517
 20
-22.139973393
 30
0.0
 10
-102.7755213996
 20
-22.1328652132
 30
0.0
 10
-102.7800836231
 20
-22.1185232588
 30
0.0
 10
-102.7855052998
 20
-22.0952197334
 30
0.0
 10
-102.7917352713
 20
-22.0502975785
 30
0.0
 10
-102.7966712849
 20
-21.9808385271
 30
0.0
 10
-102.7975708314
 20
-21.9218805745
 30
0.0
 10
-102.797297406
 20
-21.8900060852
 30
0.0
  0
SPLINE
  5
301
100
AcDbEntity
  8
RACCORDO
100
AcDbSpline
 62
250
  6
CONTINUOUS
 70
0
 71
3
 72
18
 73
14
 74
0
 42
0.0000001
 43
0.0000001
 44
0.0000000001
 40
0.0
 40
0.0
 40
0.0
 40
0.0
 40
0.0059043685
 40
0.020666853
 40
0.0446648092
 40
0.0778131347
 40
0.1197948368
 40
0.1701978584
 40
0.2944133876
 40
0.4456176961
 40
0.6181088375
 40
0.8055006426
 40
1.0
 40
1.0
 40
1.0
 40
1.0
 10
-102.6951274702
 20
-22.1406224572
 30
0.0
 10
-102.6956204545
 20
-22.1406181549
 30
0.0
 10
-102.6962827851
 20
-22.1383875438
 30
0.0
 10
-102.6969491838
 20
-22.1352422403
 30
0.0
 10
-102.6976943007
 20
-22.1289950444
 30
0.0
 10
-102.6983860965
 20
-22.1208700664
 30
0.0
 10
-102.6990508283
 20
-22.110361911
 30
0.0
 10
-102.6999236361
 20
-22.0923184322
 30
0.0
 10
-102.7007868149
 20
-22.0651114753
 30
0.0
 10
-102.7015021461
 20
-22.0277236616
 30
0.0
 10
-102.7019064786
 20
-21.9850483781
 30
0.0
 10
-102.701981906
 20
-21.9387588095
 30
0.0
 10
-102.7018122596
 20
-21.9068716713
 30
0.0
 10
-102.7016707105
 20
-21.8906319764
 30
0.0
  0
SPLINE
  5
302
100
AcDbEntity
  8
RACCORDO
100
AcDbSpline
 62
250
  6
CONTINUOUS
 70
0
 71
3
 72
18
 73
14
 74
0
 42
0.0000001
 43
0.0000001
 44
0.0000000001
 40
0.0
 40
0.0
 40
0.0
 40
0.0
 40
0.0059043684
 40
0.0206668528
 40
0.0446648089
 40
0.0778131342
 40
0.1197948361
 40
0.1701978575
 40
0.2944133865
 40
0.4456176948
 40
0.6181088365
 40
0.8055006423
 40
1.0
 40
1.0
 40
1.0
 40
1.0
 10
-102.6951274702
 20
-20.4593775428
 30
0.0
 10
-102.6956204545
 20
-20.4593818451
 30
0.0
 10
-102.6962827852
 20
-20.4616124562
 30
0.0
 10
-102.6969491838
 20
-20.4647577596
 30
0.0
 10
-102.6976943007
 20
-20.4710049555
 30
0.0
 10
-102.6983860965
 20
-20.4791299335
 30
0.0
 10
-102.6990508283
 20
-20.4896380888
 30
0.0
 10
-102.6999236361
 20
-20.5076815675
 30
0.0
 10
-102.7007868149
 20
-20.5348885245
 30
0.0
 10
-102.7015021462
 20
-20.5722763381
 30
0.0
 10
-102.7019064787
 20
-20.6149516217
 30
0.0
 10
-102.7019819061
 20
-20.6612411903
 30
0.0
 10
-102.7018122596
 20
-20.6931283287
 30
0.0
 10
-102.7016707105
 20
-20.7093680236
 30
0.0
  0
SPLINE
  5
303
100
AcDbEntity
  8
RACCORDO
100
AcDbSpline
 62
250
  6
CONTINUOUS
 70
0
 71
3
 72
13
 73
9
 74
0
 42
0.0000001
 43
0.0000001
 44
0.0000000001
 40
0.0
 40
0.0
 40
0.0
 40
0.0
 40
0.0311730349
 40
0.0916961539
 40
0.1846209902
 40
0.3076776161
 40
0.6258046549
 40
1.0
 40
1.0
 40
1.0
 40
1.0
 10
-102.7668474918
 20
-20.460003434
 30
0.0
 10
-102.7695028517
 20
-20.460026607
 30
0.0
 10
-102.7755213996
 20
-20.4671347868
 30
0.0
 10
-102.7800836231
 20
-20.4814767412
 30
0.0
 10
-102.7855052997
 20
-20.5047802665
 30
0.0
 10
-102.7917352713
 20
-20.5497024214
 30
0.0
 10
-102.7966712849
 20
-20.6191614729
 30
0.0
 10
-102.7975708314
 20
-20.6781194255
 30
0.0
 10
-102.797297406
 20
-20.7099939148
 30
0.0
  0
ELLIPSE
  5
304
100
AcDbEntity
  8
RACCORDO
100
AcDbEllipse
 62
7
  6
CONTINUOUS
 10
-100.0454092645
 20
21.913736678
 30
0.0
 11
0.0035772632
 21
0.250000224
 31
0.0
 40
0.7815053723
 41
-1.5524887864
 42
0.0180029887
  0
ELLIPSE
  5
305
100
AcDbEntity
  8
RACCORDO
100
AcDbEllipse
 62
7
  6
CONTINUOUS
 10
-100.0454092645
 20
20.686263322
 30
0.0
 11
-0.0035772632
 21
0.250000224
 31
0.0
 40
0.7815053723
 41
-3.1595956423
 42
-1.5891038672
  0
ELLIPSE
  5
306
100
AcDbEntity
  8
RACCORDO
100
AcDbEllipse
 62
7
  6
CONTINUOUS
 10
-100.0454092645
 20
-21.913736678
 30
0.0
 11
-0.0035772632
 21
0.250000224
 31
0.0
 40
0.7815053723
 41
-3.1595956423
 42
-1.5891038672
  0
ELLIPSE
  5
307
100
AcDbEntity
  8
RACCORDO
100
AcDbEllipse
 62
7
  6
CONTINUOUS
 10
-100.0454092645
 20
-20.686263322
 30
0.0
 11
0.0035772632
 21
0.250000224
 31
0.0
 40
0.7815053723
 41
-1.5524887864
 42
0.0180029887
  0
ELLIPSE
  5
308
100
AcDbEntity
  8
RACCORDO
100
AcDbEllipse
 62
7
  6
CONTINUOUS
 10
-100.0600726589
 20
19.8809786414
 30
0.0
 11
0.1424068942
 21
0.1500655548
 31
0.0
 40
0.9357837116
 41
2.3631878062
 42
3.919997501
  0
ELLIPSE
  5
309
100
AcDbEntity
  8
RACCORDO
100
AcDbEllipse
 62
7
  6
CONTINUOUS
 10
-100.0600726589
 20
20.2363741522
 30
0.0
 11
0.1415861621
 21
-0.1428271572
 31
0.0
 40
0.9890020976
 41
8.640545831
 42
10.2090100905
  0
ELLIPSE
  5
30A
100
AcDbEntity
  8
RACCORDO
100
AcDbEllipse
 62
7
  6
CONTINUOUS
 10
-100.0600726589
 20
22.3636258478
 30
0.0
 11
0.1415861621
 21
0.1428271572
 31
0.0
 40
0.9890020976
 41
2.3573605238
 42
3.9258247833
  0
ELLIPSE
  5
30B
100
AcDbEntity
  8
RACCORDO
100
AcDbEllipse
 62
7
  6
CONTINUOUS
 10
-100.0600726589
 20
22.7190213586
 30
0.0
 11
0.1424068942
 21
-0.1500655548
 31
0.0
 40
0.9357837116
 41
2.3631878062
 42
3.919997501
  0
ELLIPSE
  5
30C
100
AcDbEntity
  8
RACCORDO
100
AcDbEllipse
 62
7
  6
CONTINUOUS
 10
-100.0600726589
 20
-22.7190213586
 30
0.0
 11
0.1424068942
 21
0.1500655548
 31
0.0
 40
0.9357837116
 41
2.3631878062
 42
3.919997501
  0
ELLIPSE
  5
30D
100
AcDbEntity
  8
RACCORDO
100
AcDbEllipse
 62
7
  6
CONTINUOUS
 10
-100.0600726589
 20
-22.3636258478
 30
0.0
 11
0.1415861621
 21
-0.1428271572
 31
0.0
 40
0.9890020976
 41
8.640545831
 42
10.2090100905
  0
ELLIPSE
  5
30E
100
AcDbEntity
  8
RACCORDO
100
AcDbEllipse
 62
7
  6
CONTINUOUS
 10
-100.0600726589
 20
-19.8809786414
 30
0.0
 11
0.1424068942
 21
-0.1500655548
 31
0.0
 40
0.9357837116
 41
2.3631878062
 42
3.919997501
  0
ELLIPSE
  5
30F
100
AcDbEntity
  8
RACCORDO
100
AcDbEllipse
 62
7
  6
CONTINUOUS
 10
-100.0600726589
 20
-20.2363741522
 30
0.0
 11
0.1415861621
 21
0.1428271572
 31
0.0
 40
0.9890020976
 41
2.3573605238
 42
3.9258247833
  0
ENDSEC
  0
SECTION
  2
OBJECTS
  0
DICTIONARY
  5
C
100
AcDbDictionary
280
0
281
1
  3
ACAD_GROUP
350
D
  3
ACAD_MLINESTYLE
350
17
  3
ACAD_LAYOUT
350
1A
  3
ACAD_PLOTSETTINGS
350
19
  3
ACAD_PLOTSTYLENAME
350
E
  0
DICTIONARY
  5
D
102
{ACAD_REACTORS
330
C
102
}
100
AcDbDictionary
280
0
281
1
  0
ACDBDICTIONARYWDFLT
  5
E
102
{ACAD_REACTORS
330
C
102
}
100
AcDbDictionary
281
1
  3
Normal
350
F
100
AcDbDictionaryWithDefault
340
F
  0
DICTIONARY
  5
17
102
{ACAD_REACTORS
330
C
102
}
100
AcDbDictionary
280
0
281
1
  3
Standard
350
18
  0
DICTIONARY
  5
19
102
{ACAD_REACTORS
330
C
102
}
100
AcDbDictionary
281
1
  0
DICTIONARY
  5
1A
102
{ACAD_REACTORS
330
C
102
}
100
AcDbDictionary
281
1
  3
Model
350
310
  3
Layout1
350
311
  0
ACDBPLACEHOLDER
  5
F
102
{ACAD_REACTORS
330
E
102
}
  0
MLINESTYLE
  5
18
102
{ACAD_REACTORS
330
17
102
}
100
AcDbMlineStyle
  2
STANDARD
 70
0
  3

 62
256
 51
90.0
 52
90.0
 71
2
 49
0.5
 62
256
  6
BYLAYER
 49
-0.5
 62
256
  6
BYLAYER
  0
LAYOUT
  5
310
102
{ACAD_REACTORS
330
1A
102
}
100
AcDbPlotSettings
  1

  2
none_device
  4
ISO_A4_(297.00_x_210.00_MM)
  6

 40
0.0
 41
0.0
 42
0.0
 43
0.0
 44
297.0
 45
210.0
 46
0.0
 47
0.0
 48
0.0
 49
0.0
140
0.0
141
0.0
142
1.0
143
1.0
 70
1024
 72
1
 73
0
 74
0
  7

 75
0
147
1.0
148
0.0
149
0.0
100
AcDbLayout
  1
Model
 70
0
 71
0
 10
0.0
 20
0.0
 11
297.0
 21
210.0
 12
0.0
 22
0.0
 32
0.0
 14
0.0
 24
0.0
 34
0.0
 15
0.0
 25
0.0
 35
0.0
146
0.0
 13
0.0
 23
0.0
 33
0.0
 16
1.0
 26
0.0
 36
0.0
 17
0.0
 27
1.0
 37
0.0
 76
0
330
214
345
0
346
0
  0
LAYOUT
  5
311
102
{ACAD_REACTORS
330
1A
102
}
100
AcDbPlotSettings
  1

  2
none_device
  4
ISO_A4_(297.00_x_210.00_MM)
  6

 40
0.0
 41
0.0
 42
0.0
 43
0.0
 44
297.0
 45
210.0
 46
0.0
 47
0.0
 48
0.0
 49
0.0
140
0.0
141
0.0
142
1.0
143
1.0
 70
0
 72
1
 73
0
 74
0
  7

 75
0
147
1.0
148
0.0
149
0.0
100
AcDbLayout
  1
Layout1
 70
0
 71
1
 10
0.0
 20
0.0
 11
297.0
 21
210.0
 12
0.0
 22
0.0
 32
0.0
 14
0.0
 24
0.0
 34
0.0
 15
0.0
 25
0.0
 35
0.0
146
0.0
 13
0.0
 23
0.0
 33
0.0
 16
1.0
 26
0.0
 36
0.0
 17
0.0
 27
1.0
 37
0.0
 76
0
330
215
345
0
346
0
  0
ENDSEC
  0
EOF
