  0
SECTION
  2
HEADER
  9
$ACADVER
  1
AC1024
  9
$DWGCODEPAGE
  3
ANSI_1252
  9
$EXTMAX
 10
297.0
 20
210.0
 30
0.0
  9
$EXTMIN
 10
0.0
 20
0.0
 30
0.0
  9
$LIMMIN
 10
0.0
 20
0.0
  9
$LIMMAX
 10
297.0
 20
210.0
  9
$VIEWCTR
 10
148.5
 20
105.0
  9
$VIEWSIZE
 40
210.0
  9
$CLAYER
  8
0
  9
$LTSCALE
 40
16.335
  9
$CELTYPE
  6
BYLAYER
  9
$DIMSCALE
 40
1.0
  9
$DIMASZ
 40
3.0
  9
$DIMEXO
 40
0.5
  9
$DIMDLI
 40
11.286
  9
$DIMEXE
 40
1.5
  9
$DIMCEN
 40
2.673
  9
$DIMLFAC
 40
1.0
  9
$DIMBLK
  1
_FILLED
  9
$DIMALT
 70
0
  9
$DIMALTF
 40
0.0393700787
  9
$DIMTXT
 40
3.0
  9
$DIMTOL
 70
1
  9
$DIMLIM
 70
0
  9
$DIMTFAC
 40
1.0
  9
$DIMTP
 40
0.01
  9
$DIMTM
 40
0.01
  9
$DIMGAP
 40
0.625
  9
$DIMDSEP
 70
44
  9
$AUNITS
 70
0
  9
$PDMODE
 70
3
  9
$PDSIZE
 40
3.0
  9
$HANDSEED
  5
34A
  9
$TILEMODE
 70
1
  9
$MEASUREMENT
 70
1
  9
$INSUNITS
 70
4
  0
ENDSEC
  0
SECTION
  2
CLASSES
  0
CLASS
  1
ACDBDICTIONARYWDFLT
  2
AcDbDictionaryWithDefault
  3
AutoCAD 2000
 90
0
 91
1
280
0
281
0
  0
CLASS
  1
ACDBPLACEHOLDER
  2
AcDbPlaceHolder
  3
AutoCAD 2000
 90
0
 91
1
280
0
281
0
  0
CLASS
  1
LAYOUT
  2
AcDbLayout
  3
AutoCAD 2000
 90
0
 91
0
280
0
281
0
  0
ENDSEC
  0
SECTION
  2
TABLES
  0
TABLE
  2
VPORT
  5
8
100
AcDbSymbolTable
 70
2
  0
VPORT
  5
1F4
100
AcDbSymbolTableRecord
100
AcDbViewportTableRecord
  2
*ACTIVE
 70
0
 10
0.0
 20
0.0
 11
1.0
 21
1.0
 12
148.5
 22
105.0
 13
0.0
 23
0.0
 14
1.0
 24
1.0
 15
0.0
 25
0.0
 16
0.0
 26
0.0
 36
1.0
 17
0.0
 27
0.0
 37
0.0
 40
210.0
 41
1.4142857143
 42
50.0
 43
0.0
 44
0.0
 50
0.0
 51
0.0
 71
0
 72
100
 73
1
 74
1
 75
0
 76
0
 77
0
 78
0
  0
ENDTAB
  0
TABLE
  2
LTYPE
  5
5
100
AcDbSymbolTable
 70
6
  0
LTYPE
  5
14
100
AcDbSymbolTableRecord
100
AcDbLinetypeTableRecord
  2
BYBLOCK
 70
0
  3

 72
65
 73
0
 40
0.0
  0
LTYPE
  5
15
100
AcDbSymbolTableRecord
100
AcDbLinetypeTableRecord
  2
BYLAYER
 70
0
  3

 72
65
 73
0
 40
0.0
  0
LTYPE
  5
16
100
AcDbSymbolTableRecord
100
AcDbLinetypeTableRecord
  2
CONTINUOUS
 70
64
  3
Solid line
 72
65
 73
0
 40
0.0
  0
LTYPE
  5
1F5
100
AcDbSymbolTableRecord
100
AcDbLinetypeTableRecord
  2
CENTER
 70
64
  3
____ _ ____ _ ____ _ ____ _ ____ _ ____ _ ____
 72
65
 73
4
 40
0.6
 49
0.375
 74
0
 49
-0.075
 74
0
 49
0.075
 74
0
 49
-0.075
 74
0
  0
LTYPE
  5
1F6
100
AcDbSymbolTableRecord
100
AcDbLinetypeTableRecord
  2
HIDDEN
 70
64
  3
- - - - - - - - - - - - - - - - - - - -
 72
65
 73
2
 40
0.2
 49
0.1
 74
0
 49
-0.1
 74
0
  0
LTYPE
  5
1F7
100
AcDbSymbolTableRecord
100
AcDbLinetypeTableRecord
  2
PHANTOM
 70
64
  3
_____ _ _ _____ _ _ _____ _ _ _____
 72
65
 73
6
 40
0.8
 49
0.45
 74
0
 49
-0.05
 74
0
 49
0.1
 74
0
 49
-0.05
 74
0
 49
0.1
 74
0
 49
-0.05
 74
0
  0
LTYPE
  5
1F8
100
AcDbSymbolTableRecord
100
AcDbLinetypeTableRecord
  2
DOT
 70
64
  3
. . . . . . . . . . . . . . . . . . . .
 72
65
 73
2
 40
0.2
 49
0.1
 74
0
 49
-0.1
 74
0
  0
LTYPE
  5
1F9
100
AcDbSymbolTableRecord
100
AcDbLinetypeTableRecord
  2
DASHED
 70
64
  3
- - - - - - - - - - - - - - - - - - - -
 72
65
 73
2
 40
0.2
 49
0.1
 74
0
 49
-0.1
 74
0
  0
ENDTAB
  0
TABLE
  2
LAYER
  5
2
100
AcDbSymbolTable
 70
36
  0
LAYER
  5
10
100
AcDbSymbolTableRecord
100
AcDbLayerTableRecord
  2
0
 70
0
 62
7
  6
CONTINUOUS
370
-3
390
F
  0
LAYER
  5
1FA
100
AcDbSymbolTableRecord
100
AcDbLayerTableRecord
  2
DEFAULT_1
 70
0
 62
7
  6
CENTER
370
-3
390
F
  0
LAYER
  5
1FB
100
AcDbSymbolTableRecord
100
AcDbLayerTableRecord
  2
DEFAULT_2
 70
0
 62
7
  6
HIDDEN
370
-3
390
F
  0
LAYER
  5
1FC
100
AcDbSymbolTableRecord
100
AcDbLayerTableRecord
  2
DEFAULT_3
 70
0
 62
7
  6
PHANTOM
370
-3
390
F
  0
LAYER
  5
1FD
100
AcDbSymbolTableRecord
100
AcDbLayerTableRecord
  2
ASSI
 70
0
 62
7
  6
CONTINUOUS
370
-3
390
F
  0
LAYER
  5
1FE
100
AcDbSymbolTableRecord
100
AcDbLayerTableRecord
  2
COORDINATE
 70
0
 62
7
  6
CONTINUOUS
370
-3
390
F
  0
LAYER
  5
1FF
100
AcDbSymbolTableRecord
100
AcDbLayerTableRecord
  2
COPY_PUBLISH
 70
0
 62
7
  6
CONTINUOUS
370
-3
390
F
  0
LAYER
  5
200
100
AcDbSymbolTableRecord
100
AcDbLayerTableRecord
  2
COSMETICI
 70
0
 62
7
  6
CONTINUOUS
370
-3
390
F
  0
LAYER
  5
201
100
AcDbSymbolTableRecord
100
AcDbLayerTableRecord
  2
CURVE
 70
0
 62
7
  6
CONTINUOUS
370
-3
390
F
  0
LAYER
  5
202
100
AcDbSymbolTableRecord
100
AcDbLayerTableRecord
  2
DRAFT
 70
0
 62
7
  6
CONTINUOUS
370
-3
390
F
  0
LAYER
  5
203
100
AcDbSymbolTableRecord
100
AcDbLayerTableRecord
  2
IMPORT_IGES
 70
0
 62
7
  6
CONTINUOUS
370
-3
390
F
  0
LAYER
  5
204
100
AcDbSymbolTableRecord
100
AcDbLayerTableRecord
  2
INTF_1
 70
0
 62
7
  6
CONTINUOUS
370
-3
390
F
  0
LAYER
  5
205
100
AcDbSymbolTableRecord
100
AcDbLayerTableRecord
  2
INTF_11
 70
0
 62
7
  6
CONTINUOUS
370
-3
390
F
  0
LAYER
  5
206
100
AcDbSymbolTableRecord
100
AcDbLayerTableRecord
  2
INTF_13
 70
0
 62
7
  6
CONTINUOUS
370
-3
390
F
  0
LAYER
  5
207
100
AcDbSymbolTableRecord
100
AcDbLayerTableRecord
  2
INTF_2
 70
0
 62
7
  6
CONTINUOUS
370
-3
390
F
  0
LAYER
  5
208
100
AcDbSymbolTableRecord
100
AcDbLayerTableRecord
  2
NOTE
 70
0
 62
7
  6
CONTINUOUS
370
-3
390
F
  0
LAYER
  5
209
100
AcDbSymbolTableRecord
100
AcDbLayerTableRecord
  2
PIANI
 70
0
 62
7
  6
CONTINUOUS
370
-3
390
F
  0
LAYER
  5
20A
100
AcDbSymbolTableRecord
100
AcDbLayerTableRecord
  2
PUNTI
 70
0
 62
7
  6
CONTINUOUS
370
-3
390
F
  0
LAYER
  5
20B
100
AcDbSymbolTableRecord
100
AcDbLayerTableRecord
  2
RACCORDO
 70
0
 62
7
  6
CONTINUOUS
370
-3
390
F
  0
LAYER
  5
20C
100
AcDbSymbolTableRecord
100
AcDbLayerTableRecord
  2
RGB____0____0____0__
 70
0
 62
7
  6
CONTINUOUS
370
-3
390
F
  0
LAYER
  5
20D
100
AcDbSymbolTableRecord
100
AcDbLayerTableRecord
  2
SIMBOLI
 70
0
 62
7
  6
CONTINUOUS
370
-3
390
F
  0
LAYER
  5
20E
100
AcDbSymbolTableRecord
100
AcDbLayerTableRecord
  2
SMUSSO
 70
0
 62
7
  6
CONTINUOUS
370
-3
390
F
  0
LAYER
  5
20F
100
AcDbSymbolTableRecord
100
AcDbLayerTableRecord
  2
SNAPLINE
 70
0
 62
7
  6
CONTINUOUS
370
-3
390
F
  0
LAYER
  5
210
100
AcDbSymbolTableRecord
100
AcDbLayerTableRecord
  2
SUPERFICI
 70
0
 62
7
  6
CONTINUOUS
370
-3
390
F
  0
LAYER
  5
211
100
AcDbSymbolTableRecord
100
AcDbLayerTableRecord
  2
TRASH
 70
0
 62
7
  6
CONTINUOUS
370
-3
390
F
  0
ENDTAB
  0
TABLE
  2
STYLE
  5
3
100
AcDbSymbolTable
 70
1
  0
STYLE
  5
11
100
AcDbSymbolTableRecord
100
AcDbTextStyleTableRecord
  2
STANDARD
 70
0
 40
0.0
 41
0.8
 50
0.0
 71
0
 42
0.2
  3
txt
  4

  0
STYLE
  5
212
100
AcDbSymbolTableRecord
100
AcDbTextStyleTableRecord
  2
TEXTSTYLE_1
 70
0
 40
0.0
 41
0.8
 50
0.0
 71
0
 42
0.2
  3
gdt
  4

  0
ENDTAB
  0
TABLE
  2
VIEW
  5
6
100
AcDbSymbolTable
 70
0
  0
ENDTAB
  0
TABLE
  2
UCS
  5
7
100
AcDbSymbolTable
 70
0
  0
ENDTAB
  0
TABLE
  2
APPID
  5
9
100
AcDbSymbolTable
 70
1
  0
APPID
  5
213
100
AcDbSymbolTableRecord
100
AcDbRegAppTableRecord
  2
ACAD
 70
0
  0
ENDTAB
  0
TABLE
  2
BLOCK_RECORD
  5
1
100
AcDbSymbolTable
 70
0
  0
BLOCK_RECORD
  5
214
100
AcDbSymbolTableRecord
100
AcDbBlockTableRecord
  2
*Model_Space
  0
BLOCK_RECORD
  5
215
100
AcDbSymbolTableRecord
100
AcDbBlockTableRecord
  2
*Paper_Space
  0
BLOCK_RECORD
  5
216
100
AcDbSymbolTableRecord
100
AcDbBlockTableRecord
  2
_FILLED
  0
BLOCK_RECORD
  5
217
100
AcDbSymbolTableRecord
100
AcDbBlockTableRecord
  2
*D0
  0
BLOCK_RECORD
  5
218
100
AcDbSymbolTableRecord
100
AcDbBlockTableRecord
  2
*D1
  0
BLOCK_RECORD
  5
219
100
AcDbSymbolTableRecord
100
AcDbBlockTableRecord
  2
*D2
  0
BLOCK_RECORD
  5
21A
100
AcDbSymbolTableRecord
100
AcDbBlockTableRecord
  2
*D3
  0
ENDTAB
  0
TABLE
  2
DIMSTYLE
  5
A
100
AcDbSymbolTable
 70
1
100
AcDbDimStyleTable
 71
0
  0
DIMSTYLE
105
21B
100
AcDbSymbolTableRecord
100
AcDbDimStyleTableRecord
  2
STANDARD
 70
0
  3

  4

 40
1.0
 41
3.0
 42
0.5
 43
0.38
 44
1.5
 45
0.0
 46
0.0
 47
0.01
 48
0.01
140
3.0
141
0.09
142
0.0
143
25.4
144
1.0
145
0.0
146
1.0
147
0.625
 71
1
 72
0
 73
0
 74
0
 75
0
 76
0
 77
1
 78
8
 79
2
170
0
171
1
172
0
173
0
174
0
175
0
176
0
177
0
178
0
270
2
179
2
271
2
272
2
273
2
274
2
275
0
280
0
281
0
282
0
283
1
284
8
285
0
286
0
287
3
288
0
340
11
278
44
341
216
342
216
343
216
344
216
  0
DIMSTYLE
105
21C
100
AcDbSymbolTableRecord
100
AcDbDimStyleTableRecord
  2
DIMSTYLE_1
 70
0
  3

  4

 40
1.0
 41
3.0
 42
0.5
 43
0.38
 44
1.5
 45
0.0
 46
0.0
 47
0.0
 48
0.0
140
3.0
141
0.09
142
0.0
143
25.4
144
1.0
145
0.0
146
1.0
147
0.75
 71
0
 72
0
 73
0
 74
0
 75
0
 76
0
 77
1
 78
8
 79
2
170
0
171
1
172
0
173
0
174
0
175
0
176
0
177
0
178
0
270
2
179
2
271
2
272
2
273
2
274
2
275
0
280
0
281
0
282
0
283
1
284
8
285
0
286
0
287
3
288
0
340
11
278
44
341
216
342
216
343
216
344
216
  0
DIMSTYLE
105
21D
100
AcDbSymbolTableRecord
100
AcDbDimStyleTableRecord
  2
DIMSTYLE_2
 70
0
  3

  4

 40
1.0
 41
3.0
 42
0.5
 43
0.38
 44
1.5
 45
0.0
 46
0.0
 47
0.0
 48
0.0
140
3.0
141
0.09
142
0.0
143
25.4
144
1.0
145
0.0
146
1.0
147
0.75
 71
0
 72
0
 73
0
 74
0
 75
0
 76
0
 77
1
 78
8
 79
2
170
0
171
1
172
0
173
0
174
0
175
0
176
0
177
0
178
0
270
2
179
2
271
1
272
1
273
2
274
2
275
0
280
0
281
0
282
0
283
1
284
8
285
0
286
0
287
3
288
0
340
11
278
44
341
216
342
216
343
216
344
216
  0
ENDTAB
  0
ENDSEC
  0
SECTION
  2
BLOCKS
  0
BLOCK
  5
20
100
AcDbEntity
  8
0
100
AcDbBlockBegin
  2
*Model_Space
 70
0
 10
0.0
 20
0.0
 30
0.0
  3
*Model_Space
  1

  0
ENDBLK
  5
21
100
AcDbEntity
  8
0
100
AcDbBlockEnd
  0
BLOCK
  5
1C
100
AcDbEntity
  8
0
100
AcDbBlockBegin
  2
*Paper_Space
 70
0
 10
0.0
 20
0.0
 30
0.0
  3
*Paper_Space
  1

  0
ENDBLK
  5
1D
100
AcDbEntity
  8
0
100
AcDbBlockEnd
  0
BLOCK
  5
21E
100
AcDbEntity
  8
0
100
AcDbBlockBegin
  2
_FILLED
 70
64
 10
0.0
 20
0.0
  3
_FILLED
  1

  0
SOLID
  5
21F
100
AcDbEntity
  8
0
  6
BYBLOCK
 62
0
100
AcDbTrace
 10
0.0
 20
0.0
 11
-1.0
 21
0.3166666667
 12
-1.0
 22
-0.3166666667
 13
-1.0
 23
-0.3166666667
  0
ENDBLK
  5
220
100
AcDbEntity
  8
0
  6
BYBLOCK
 62
0
100
AcDbBlockEnd
  0
BLOCK
  5
221
100
AcDbEntity
  8
0
100
AcDbBlockBegin
 62
7
  6
CONTINUOUS
  2
*D0
 70
65
 10
0.0
 20
0.0
  3
*D0
  1

  0
LINE
  5
222
100
AcDbEntity
  8
0
100
AcDbLine
 62
7
  6
CONTINUOUS
 10
-61.4
 20
43.0020556979
 11
-61.4
 21
53.5
  0
LINE
  5
223
100
AcDbEntity
  8
0
100
AcDbLine
 62
7
  6
CONTINUOUS
 10
61.4
 20
43.0020556979
 11
61.4
 21
53.5
  0
LINE
  5
224
100
AcDbEntity
  8
0
100
AcDbLine
 62
7
  6
CONTINUOUS
 10
-61.4
 20
52.0
 11
0.0
 21
52.0
  0
LINE
  5
225
100
AcDbEntity
  8
0
100
AcDbLine
 62
7
  6
CONTINUOUS
 10
61.4
 20
52.0
 11
0.0
 21
52.0
  0
INSERT
  5
226
100
AcDbEntity
  8
0
100
AcDbBlockReference
 62
7
  6
CONTINUOUS
  2
_FILLED
 10
-61.4
 20
52.0
 41
3.0
 42
3.0
 43
3.0
 50
180.0
  0
INSERT
  5
227
100
AcDbEntity
  8
0
100
AcDbBlockReference
 62
7
  6
CONTINUOUS
  2
_FILLED
 10
61.4
 20
52.0
 41
3.0
 42
3.0
 43
3.0
  0
ENDBLK
  5
228
100
AcDbEntity
  8
0
  6
BYBLOCK
 62
0
100
AcDbBlockEnd
  0
BLOCK
  5
229
100
AcDbEntity
  8
0
100
AcDbBlockBegin
 62
7
  6
CONTINUOUS
  2
*D1
 70
65
 10
0.0
 20
0.0
  3
*D1
  1

  0
LINE
  5
22A
100
AcDbEntity
  8
0
100
AcDbLine
 62
7
  6
CONTINUOUS
 10
60.4020556979
 20
44.0
 11
70.9
 21
44.0
  0
LINE
  5
22B
100
AcDbEntity
  8
0
100
AcDbLine
 62
7
  6
CONTINUOUS
 10
60.4020556979
 20
-44.0
 11
70.9
 21
-44.0
  0
LINE
  5
22C
100
AcDbEntity
  8
0
100
AcDbLine
 62
7
  6
CONTINUOUS
 10
69.4
 20
44.0
 11
69.4
 21
0.0
  0
LINE
  5
22D
100
AcDbEntity
  8
0
100
AcDbLine
 62
7
  6
CONTINUOUS
 10
69.4
 20
-44.0
 11
69.4
 21
0.0
  0
INSERT
  5
22E
100
AcDbEntity
  8
0
100
AcDbBlockReference
 62
7
  6
CONTINUOUS
  2
_FILLED
 10
69.4
 20
44.0
 41
3.0
 42
3.0
 43
3.0
 50
90.0
  0
INSERT
  5
22F
100
AcDbEntity
  8
0
100
AcDbBlockReference
 62
7
  6
CONTINUOUS
  2
_FILLED
 10
69.4
 20
-44.0
 41
3.0
 42
3.0
 43
3.0
 50
270.0
  0
ENDBLK
  5
230
100
AcDbEntity
  8
0
  6
BYBLOCK
 62
0
100
AcDbBlockEnd
  0
BLOCK
  5
231
100
AcDbEntity
  8
0
100
AcDbBlockBegin
 62
7
  6
CONTINUOUS
  2
*D2
 70
65
 10
0.0
 20
0.0
  3
*D2
  1

  0
LINE
  5
232
100
AcDbEntity
  8
0
100
AcDbLine
 62
7
  6
CONTINUOUS
 10
-105.1320898173
 20
42.8329793985
 11
-105.1320898173
 21
53.4981537743
  0
LINE
  5
233
100
AcDbEntity
  8
0
100
AcDbLine
 62
7
  6
CONTINUOUS
 10
-99.4320898173
 20
42.997941481
 11
-99.4320898173
 21
53.4981537743
  0
LINE
  5
234
100
AcDbEntity
  8
0
100
AcDbLine
 62
7
  6
CONTINUOUS
 10
-105.1320898173
 20
51.9981537743
 11
-114.4010288864
 21
51.9981537743
  0
LINE
  5
235
100
AcDbEntity
  8
0
100
AcDbLine
 62
7
  6
CONTINUOUS
 10
-114.4010288864
 20
51.9981537743
 11
-102.2820898173
 21
51.9981537743
  0
LINE
  5
236
100
AcDbEntity
  8
0
100
AcDbLine
 62
7
  6
CONTINUOUS
 10
-99.4320898173
 20
51.9981537743
 11
-95.4320898173
 21
51.9981537743
  0
LINE
  5
237
100
AcDbEntity
  8
0
100
AcDbLine
 62
7
  6
CONTINUOUS
 10
-95.4320898173
 20
51.9981537743
 11
-102.2820898173
 21
51.9981537743
  0
INSERT
  5
238
100
AcDbEntity
  8
0
100
AcDbBlockReference
 62
7
  6
CONTINUOUS
  2
_FILLED
 10
-105.1320898173
 20
51.9981537743
 41
3.0
 42
3.0
 43
3.0
  0
INSERT
  5
239
100
AcDbEntity
  8
0
100
AcDbBlockReference
 62
7
  6
CONTINUOUS
  2
_FILLED
 10
-99.4320898173
 20
51.9981537743
 41
3.0
 42
3.0
 43
3.0
 50
180.0
  0
ENDBLK
  5
23A
100
AcDbEntity
  8
0
  6
BYBLOCK
 62
0
100
AcDbBlockEnd
  0
BLOCK
  5
23B
100
AcDbEntity
  8
0
100
AcDbBlockBegin
 62
7
  6
CONTINUOUS
  2
*D3
 70
65
 10
0.0
 20
0.0
  3
*D3
  1

  0
LINE
  5
23C
100
AcDbEntity
  8
0
100
AcDbLine
 62
7
  6
CONTINUOUS
 10
-105.1320898173
 20
42.8329793985
 11
-105.1320898173
 21
63.5221156847
  0
LINE
  5
23D
100
AcDbEntity
  8
0
100
AcDbLine
 62
7
  6
CONTINUOUS
 10
-94.7179101827
 20
22.0021078655
 11
-94.7179101827
 21
63.5221156847
  0
LINE
  5
23E
100
AcDbEntity
  8
0
100
AcDbLine
 62
7
  6
CONTINUOUS
 10
-105.1320898173
 20
62.0221156847
 11
-116.3646474312
 21
62.0221156847
  0
LINE
  5
23F
100
AcDbEntity
  8
0
100
AcDbLine
 62
7
  6
CONTINUOUS
 10
-116.3646474312
 20
62.0221156847
 11
-99.925
 21
62.0221156847
  0
LINE
  5
240
100
AcDbEntity
  8
0
100
AcDbLine
 62
7
  6
CONTINUOUS
 10
-94.7179101827
 20
62.0221156847
 11
-90.7179101827
 21
62.0221156847
  0
LINE
  5
241
100
AcDbEntity
  8
0
100
AcDbLine
 62
7
  6
CONTINUOUS
 10
-90.7179101827
 20
62.0221156847
 11
-99.925
 21
62.0221156847
  0
INSERT
  5
242
100
AcDbEntity
  8
0
100
AcDbBlockReference
 62
7
  6
CONTINUOUS
  2
_FILLED
 10
-105.1320898173
 20
62.0221156847
 41
3.0
 42
3.0
 43
3.0
  0
INSERT
  5
243
100
AcDbEntity
  8
0
100
AcDbBlockReference
 62
7
  6
CONTINUOUS
  2
_FILLED
 10
-94.7179101827
 20
62.0221156847
 41
3.0
 42
3.0
 43
3.0
 50
180.0
  0
ENDBLK
  5
244
100
AcDbEntity
  8
0
  6
BYBLOCK
 62
0
100
AcDbBlockEnd
  0
ENDSEC
  0
SECTION
  2
ENTITIES
  0
DIMENSION
  5
245
100
AcDbEntity
  8
0
100
AcDbDimension
 62
7
  6
CONTINUOUS
  2
*D0
 10
61.4
 20
52.0
 11
-5.25
 21
52.0
 70
160
 71
2
 72
2
 41
0.9
 42
122.8
  3
DIMSTYLE_1
100
AcDbAlignedDimension
 13
-61.4
 23
42.5020556979
 14
61.4
 24
42.5020556979
100
AcDbRotatedDimension
  0
DIMENSION
  5
246
100
AcDbEntity
  8
0
100
AcDbDimension
 62
7
  6
CONTINUOUS
  2
*D1
 10
69.4
 20
-44.0
 11
69.4
 21
-2.3571428571
 70
160
 71
2
 72
2
 41
0.9
 42
88.0
  3
DIMSTYLE_1
100
AcDbAlignedDimension
 13
59.9020556979
 23
44.0
 14
59.9020556979
 24
-44.0
 50
270.0
100
AcDbRotatedDimension
  0
DIMENSION
  5
247
100
AcDbEntity
  8
0
100
AcDbDimension
 62
7
  6
CONTINUOUS
  2
*D2
 10
-99.4320898173
 20
51.9981537743
 11
-114.4010288864
 21
51.9981537743
 70
160
 71
3
 72
2
 41
0.9
 42
5.7
  3
DIMSTYLE_1
100
AcDbAlignedDimension
 13
-105.1320898173
 23
42.3329793985
 14
-99.4320898173
 24
42.497941481
100
AcDbRotatedDimension
  0
DIMENSION
  5
248
100
AcDbEntity
  8
0
100
AcDbDimension
 62
7
  6
CONTINUOUS
  2
*D3
 10
-94.7179101827
 20
62.0221156847
 11
-116.3646474312
 21
62.0221156847
 70
160
 71
3
 72
2
 41
0.9
 42
10.4141796346
  3
DIMSTYLE_2
100
AcDbAlignedDimension
 13
-105.1320898173
 23
42.3329793985
 14
-94.7179101827
 24
21.5021078655
100
AcDbRotatedDimension
  0
LINE
  5
249
100
AcDbEntity
  8
0
100
AcDbLine
 62
7
  6
CONTINUOUS
 10
-61.4
 20
42.5020556979
 11
-61.4
 21
-42.5020556979
  0
LINE
  5
24A
100
AcDbEntity
  8
RACCORDO
100
AcDbLine
 62
250
  6
CONTINUOUS
 10
-61.2309237007
 20
42.3329793985
 11
-61.2309237007
 21
-42.3329793985
  0
LINE
  5
24B
100
AcDbEntity
  8
RACCORDO
100
AcDbLine
 62
250
  6
CONTINUOUS
 10
-60.7316089333
 20
42.3329793985
 11
-60.7316089333
 21
-42.3329793985
  0
LINE
  5
24C
100
AcDbEntity
  8
RACCORDO
100
AcDbLine
 62
250
  6
CONTINUOUS
 10
-59.7329793985
 20
-43.3316089333
 11
-59.7329793985
 21
-43.8309237007
  0
LINE
  5
24D
100
AcDbEntity
  8
RACCORDO
100
AcDbLine
 62
250
  6
CONTINUOUS
 10
-59.7329793985
 20
43.3316089333
 11
-59.7329793985
 21
43.8309237007
  0
LWPOLYLINE
  5
24E
100
AcDbEntity
  8
0
100
AcDbPolyline
 62
7
  6
CONTINUOUS
 90
3
 70
0
 43
0.3500000006
 10
-5.2499999027
 20
54.8928560944
 10
-4.3928571482
 20
55.7499985657
 10
-4.3928571482
 20
52.750002182
  0
LINE
  5
24F
100
AcDbEntity
  8
0
100
AcDbLine
 62
7
  6
CONTINUOUS
 10
-59.9020556979
 20
-44.0
 11
59.9020556979
 21
-44.0
  0
LINE
  5
250
100
AcDbEntity
  8
RACCORDO
100
AcDbLine
 62
250
  6
CONTINUOUS
 10
-59.7329793985
 20
-43.8309237007
 11
59.7329793985
 21
-43.8309237007
  0
LINE
  5
251
100
AcDbEntity
  8
RACCORDO
100
AcDbLine
 62
250
  6
CONTINUOUS
 10
-59.7329793985
 20
-43.3316089333
 11
59.7329793985
 21
-43.3316089333
  0
LINE
  5
252
100
AcDbEntity
  8
RACCORDO
100
AcDbLine
 62
250
  6
CONTINUOUS
 10
60.7316089333
 20
-42.3329793985
 11
61.2309237007
 21
-42.3329793985
  0
LINE
  5
253
100
AcDbEntity
  8
RACCORDO
100
AcDbLine
 62
250
  6
CONTINUOUS
 10
-60.7316089333
 20
-42.3329793985
 11
-61.2309237007
 21
-42.3329793985
  0
LINE
  5
254
100
AcDbEntity
  8
RACCORDO
100
AcDbLine
 62
250
  6
CONTINUOUS
 10
-34.2881957985
 20
-26.2884699386
 11
-34.2881957985
 21
26.2884699386
  0
LINE
  5
255
100
AcDbEntity
  8
RACCORDO
100
AcDbLine
 62
250
  6
CONTINUOUS
 10
-33.988298601
 20
-26.2884699386
 11
-33.988298601
 21
26.2884699386
  0
LINE
  5
256
100
AcDbEntity
  8
RACCORDO
100
AcDbLine
 62
7
  6
CONTINUOUS
 10
-33.975
 20
26.2751713375
 11
-33.975
 21
-26.2751713375
  0
LINE
  5
257
100
AcDbEntity
  8
RACCORDO
100
AcDbLine
 62
250
  6
CONTINUOUS
 10
-33.4884699386
 20
27.0881957985
 11
-33.4884699386
 21
26.788298601
  0
LINE
  5
258
100
AcDbEntity
  8
RACCORDO
100
AcDbLine
 62
250
  6
CONTINUOUS
 10
-33.4884699386
 20
-27.0881957985
 11
-33.4884699386
 21
-26.788298601
  0
LINE
  5
259
100
AcDbEntity
  8
RACCORDO
100
AcDbLine
 62
250
  6
CONTINUOUS
 10
33.4884699386
 20
-27.0881957985
 11
-33.4884699386
 21
-27.0881957985
  0
LINE
  5
25A
100
AcDbEntity
  8
RACCORDO
100
AcDbLine
 62
250
  6
CONTINUOUS
 10
33.4884699386
 20
-26.788298601
 11
-33.4884699386
 21
-26.788298601
  0
LINE
  5
25B
100
AcDbEntity
  8
RACCORDO
100
AcDbLine
 62
7
  6
CONTINUOUS
 10
-33.4751713375
 20
-26.775
 11
33.4751713375
 21
-26.775
  0
LINE
  5
25C
100
AcDbEntity
  8
RACCORDO
100
AcDbLine
 62
250
  6
CONTINUOUS
 10
-34.2881957985
 20
-26.2884699386
 11
-33.988298601
 21
-26.2884699386
  0
LINE
  5
25D
100
AcDbEntity
  8
RACCORDO
100
AcDbLine
 62
250
  6
CONTINUOUS
 10
34.2881957985
 20
-26.2884699386
 11
33.988298601
 21
-26.2884699386
  0
LWPOLYLINE
  5
25E
100
AcDbEntity
  8
0
100
AcDbPolyline
 62
7
  6
CONTINUOUS
 90
3
 70
0
 43
0.3500000006
 10
1.8928570933
 20
53.0357133179
 10
1.8214286013
 20
52.821428833
 10
1.6785714755
 20
52.5357131653
  0
LINE
  5
25F
100
AcDbEntity
  8
RACCORDO
100
AcDbLine
 62
250
  6
CONTINUOUS
 10
-61.2309237007
 20
-42.3329793985
 11
-61.4
 21
-42.5020556979
  0
LINE
  5
260
100
AcDbEntity
  8
RACCORDO
100
AcDbLine
 62
250
  6
CONTINUOUS
 10
-59.7329793985
 20
-43.8309237007
 11
-59.9020556979
 21
-44.0
  0
LINE
  5
261
100
AcDbEntity
  8
RACCORDO
100
AcDbLine
 62
250
  6
CONTINUOUS
 10
-61.2309237007
 20
42.3329793985
 11
-61.4
 21
42.5020556979
  0
LINE
  5
262
100
AcDbEntity
  8
RACCORDO
100
AcDbLine
 62
250
  6
CONTINUOUS
 10
-59.7329793985
 20
43.8309237007
 11
-59.9020556979
 21
44.0
  0
LINE
  5
263
100
AcDbEntity
  8
RACCORDO
100
AcDbLine
 62
250
  6
CONTINUOUS
 10
-33.988298601
 20
-26.2884699386
 11
-33.975
 21
-26.2751713375
  0
LINE
  5
264
100
AcDbEntity
  8
RACCORDO
100
AcDbLine
 62
250
  6
CONTINUOUS
 10
-33.4884699386
 20
-26.788298601
 11
-33.4751713375
 21
-26.775
  0
LINE
  5
265
100
AcDbEntity
  8
RACCORDO
100
AcDbLine
 62
250
  6
CONTINUOUS
 10
-33.988298601
 20
26.2884699386
 11
-33.975
 21
26.2751713375
  0
LINE
  5
266
100
AcDbEntity
  8
RACCORDO
100
AcDbLine
 62
250
  6
CONTINUOUS
 10
-33.4884699386
 20
26.788298601
 11
-33.4751713375
 21
26.775
  0
LWPOLYLINE
  5
267
100
AcDbEntity
  8
0
100
AcDbPolyline
 62
7
  6
CONTINUOUS
 90
4
 70
0
 43
0.3500000006
 10
68.2214293213
 20
-2.3571432495
 10
67.36428685
 20
-2.3571432495
 10
66.9357133484
 20
-1.9285708809
 10
66.9357133484
 20
-1.2857140274
  0
LWPOLYLINE
  5
268
100
AcDbEntity
  8
0
100
AcDbPolyline
 62
7
  6
CONTINUOUS
 90
4
 70
0
 43
0.3500000006
 10
68.2214293213
 20
-0.0000003204
 10
67.36428685
 20
-0.0000003204
 10
66.9357133484
 20
0.4285709152
 10
66.9357133484
 20
1.0714289017
  0
LWPOLYLINE
  5
269
100
AcDbEntity
  8
0
100
AcDbPolyline
 62
7
  6
CONTINUOUS
 90
4
 70
0
 43
0.3500000006
 10
2.8928572569
 20
53.1785711517
 10
2.8928572569
 20
54.035713623
 10
3.3214284925
 20
54.4642871246
 10
3.9642856293
 20
54.4642871246
  0
LINE
  5
26A
100
AcDbEntity
  8
RACCORDO
100
AcDbLine
 62
250
  6
CONTINUOUS
 10
33.4884699386
 20
26.788298601
 11
33.4751713375
 21
26.775
  0
LINE
  5
26B
100
AcDbEntity
  8
RACCORDO
100
AcDbLine
 62
250
  6
CONTINUOUS
 10
33.988298601
 20
26.2884699386
 11
33.975
 21
26.2751713375
  0
LINE
  5
26C
100
AcDbEntity
  8
RACCORDO
100
AcDbLine
 62
250
  6
CONTINUOUS
 10
33.4884699386
 20
-26.788298601
 11
33.4751713375
 21
-26.775
  0
LINE
  5
26D
100
AcDbEntity
  8
RACCORDO
100
AcDbLine
 62
250
  6
CONTINUOUS
 10
33.988298601
 20
-26.2884699386
 11
33.975
 21
-26.2751713375
  0
LINE
  5
26E
100
AcDbEntity
  8
RACCORDO
100
AcDbLine
 62
250
  6
CONTINUOUS
 10
59.7329793985
 20
43.8309237007
 11
59.9020556979
 21
44.0
  0
LINE
  5
26F
100
AcDbEntity
  8
RACCORDO
100
AcDbLine
 62
250
  6
CONTINUOUS
 10
61.2309237007
 20
42.3329793985
 11
61.4
 21
42.5020556979
  0
LINE
  5
270
100
AcDbEntity
  8
RACCORDO
100
AcDbLine
 62
250
  6
CONTINUOUS
 10
59.7329793985
 20
-43.8309237007
 11
59.9020556979
 21
-44.0
  0
LINE
  5
271
100
AcDbEntity
  8
RACCORDO
100
AcDbLine
 62
250
  6
CONTINUOUS
 10
61.2309237007
 20
-42.3329793985
 11
61.4
 21
-42.5020556979
  0
LWPOLYLINE
  5
272
100
AcDbEntity
  8
0
100
AcDbPolyline
 62
7
  6
CONTINUOUS
 90
10
 70
0
 43
0.3500000006
 10
1.8214286013
 20
53.2499978027
 10
1.8928570933
 20
53.1071445007
 10
1.8928570933
 20
53.0357133179
 10
1.7499999676
 20
52.892855484
 10
1.6785714755
 20
52.892855484
 10
1.6071428418
 20
52.9642866669
 10
1.6071428418
 20
53.0357133179
 10
1.6785714755
 20
53.1785711517
 10
1.7499999676
 20
53.2499978027
 10
1.8214286013
 20
53.2499978027
  0
LINE
  5
273
100
AcDbEntity
  8
RACCORDO
100
AcDbLine
 62
250
  6
CONTINUOUS
 10
-34.2881957985
 20
26.2884699386
 11
-33.988298601
 21
26.2884699386
  0
LINE
  5
274
100
AcDbEntity
  8
RACCORDO
100
AcDbLine
 62
250
  6
CONTINUOUS
 10
34.2881957985
 20
26.2884699386
 11
33.988298601
 21
26.2884699386
  0
LINE
  5
275
100
AcDbEntity
  8
RACCORDO
100
AcDbLine
 62
7
  6
CONTINUOUS
 10
33.4751713375
 20
26.775
 11
-33.4751713375
 21
26.775
  0
LINE
  5
276
100
AcDbEntity
  8
RACCORDO
100
AcDbLine
 62
250
  6
CONTINUOUS
 10
-33.4884699386
 20
26.788298601
 11
33.4884699386
 21
26.788298601
  0
LINE
  5
277
100
AcDbEntity
  8
RACCORDO
100
AcDbLine
 62
250
  6
CONTINUOUS
 10
-33.4884699386
 20
27.0881957985
 11
33.4884699386
 21
27.0881957985
  0
LINE
  5
278
100
AcDbEntity
  8
RACCORDO
100
AcDbLine
 62
250
  6
CONTINUOUS
 10
33.4884699386
 20
27.0881957985
 11
33.4884699386
 21
26.788298601
  0
LINE
  5
279
100
AcDbEntity
  8
RACCORDO
100
AcDbLine
 62
250
  6
CONTINUOUS
 10
33.4884699386
 20
-27.0881957985
 11
33.4884699386
 21
-26.788298601
  0
LINE
  5
27A
100
AcDbEntity
  8
RACCORDO
100
AcDbLine
 62
7
  6
CONTINUOUS
 10
33.975
 20
-26.2751713375
 11
33.975
 21
26.2751713375
  0
LINE
  5
27B
100
AcDbEntity
  8
RACCORDO
100
AcDbLine
 62
250
  6
CONTINUOUS
 10
33.988298601
 20
26.2884699386
 11
33.988298601
 21
-26.2884699386
  0
LINE
  5
27C
100
AcDbEntity
  8
RACCORDO
100
AcDbLine
 62
250
  6
CONTINUOUS
 10
34.2881957985
 20
26.2884699386
 11
34.2881957985
 21
-26.2884699386
  0
LINE
  5
27D
100
AcDbEntity
  8
RACCORDO
100
AcDbLine
 62
250
  6
CONTINUOUS
 10
60.7316089333
 20
42.3329793985
 11
61.2309237007
 21
42.3329793985
  0
LINE
  5
27E
100
AcDbEntity
  8
RACCORDO
100
AcDbLine
 62
250
  6
CONTINUOUS
 10
-60.7316089333
 20
42.3329793985
 11
-61.2309237007
 21
42.3329793985
  0
LINE
  5
27F
100
AcDbEntity
  8
RACCORDO
100
AcDbLine
 62
250
  6
CONTINUOUS
 10
59.7329793985
 20
43.3316089333
 11
-59.7329793985
 21
43.3316089333
  0
LINE
  5
280
100
AcDbEntity
  8
RACCORDO
100
AcDbLine
 62
250
  6
CONTINUOUS
 10
59.7329793985
 20
43.8309237007
 11
-59.7329793985
 21
43.8309237007
  0
LINE
  5
281
100
AcDbEntity
  8
0
100
AcDbLine
 62
7
  6
CONTINUOUS
 10
59.9020556979
 20
44.0
 11
-59.9020556979
 21
44.0
  0
LWPOLYLINE
  5
282
100
AcDbEntity
  8
0
100
AcDbPolyline
 62
7
  6
CONTINUOUS
 90
13
 70
0
 43
0.3500000006
 10
3.3214284925
 20
54.4642871246
 10
3.035714241
 20
54.6785716095
 10
3.035714241
 20
55.3214295959
 10
3.3214284925
 20
55.7499985657
 10
3.9642856293
 20
55.7499985657
 10
4.2499998808
 20
55.3214295959
 10
4.2499998808
 20
54.6785716095
 10
3.9642856293
 20
54.4642871246
 10
4.3928571482
 20
54.035713623
 10
4.3928571482
 20
53.1785711517
 10
3.9642856293
 20
52.750002182
 10
3.3214284925
 20
52.750002182
 10
2.8928572569
 20
53.1785711517
  0
LWPOLYLINE
  5
283
100
AcDbEntity
  8
0
100
AcDbPolyline
 62
7
  6
CONTINUOUS
 90
13
 70
0
 43
0.3500000006
 10
66.9357133484
 20
0.4285709152
 10
66.7214288635
 20
0.1428575134
 10
66.0785708771
 20
0.1428575134
 10
65.6500019073
 20
0.4285709152
 10
65.6500019073
 20
1.0714289017
 10
66.0785708771
 20
1.3571423035
 10
66.7214288635
 20
1.3571423035
 10
66.9357133484
 20
1.0714289017
 10
67.36428685
 20
1.5000001373
 10
68.2214293213
 20
1.5000001373
 10
68.649998291
 20
1.0714289017
 10
68.649998291
 20
0.4285709152
 10
68.2214293213
 20
-0.0000003204
  0
LWPOLYLINE
  5
284
100
AcDbEntity
  8
0
100
AcDbPolyline
 62
7
  6
CONTINUOUS
 90
13
 70
0
 43
0.3500000006
 10
66.9357133484
 20
-1.9285708809
 10
66.7214288635
 20
-2.2142854156
 10
66.0785708771
 20
-2.2142854156
 10
65.6500019073
 20
-1.9285708809
 10
65.6500019073
 20
-1.2857140274
 10
66.0785708771
 20
-1.0000006256
 10
66.7214288635
 20
-1.0000006256
 10
66.9357133484
 20
-1.2857140274
 10
67.36428685
 20
-0.8571427917
 10
68.2214293213
 20
-0.8571427917
 10
68.649998291
 20
-1.2857140274
 10
68.649998291
 20
-1.9285708809
 10
68.2214293213
 20
-2.3571432495
  0
LWPOLYLINE
  5
285
100
AcDbEntity
  8
0
100
AcDbPolyline
 62
7
  6
CONTINUOUS
 90
7
 70
0
 43
0.3500000006
 10
0.3214285684
 20
52.750002182
 10
-1.1785713937
 20
52.750002182
 10
0.3214285684
 20
54.8928560944
 10
0.3214285684
 20
55.3214295959
 10
-0.1071428532
 20
55.7499985657
 10
-0.7500000165
 20
55.7499985657
 10
-1.1785713937
 20
55.1071451111
  0
LWPOLYLINE
  5
286
100
AcDbEntity
  8
0
100
AcDbPolyline
 62
7
  6
CONTINUOUS
 90
7
 70
0
 43
0.3500000006
 10
-2.0357142191
 20
52.750002182
 10
-3.5357143936
 20
52.750002182
 10
-2.0357142191
 20
54.8928560944
 10
-2.0357142191
 20
55.3214295959
 10
-2.464285738
 20
55.7499985657
 10
-3.1071428747
 20
55.7499985657
 10
-3.5357143936
 20
55.1071451111
  0
LINE
  5
287
100
AcDbEntity
  8
RACCORDO
100
AcDbLine
 62
250
  6
CONTINUOUS
 10
59.7329793985
 20
-43.3316089333
 11
59.7329793985
 21
-43.8309237007
  0
LINE
  5
288
100
AcDbEntity
  8
RACCORDO
100
AcDbLine
 62
250
  6
CONTINUOUS
 10
59.7329793985
 20
43.3316089333
 11
59.7329793985
 21
43.8309237007
  0
LINE
  5
289
100
AcDbEntity
  8
RACCORDO
100
AcDbLine
 62
250
  6
CONTINUOUS
 10
60.7316089333
 20
-42.3329793985
 11
60.7316089333
 21
42.3329793985
  0
LINE
  5
28A
100
AcDbEntity
  8
RACCORDO
100
AcDbLine
 62
250
  6
CONTINUOUS
 10
61.2309237007
 20
-42.3329793985
 11
61.2309237007
 21
42.3329793985
  0
LINE
  5
28B
100
AcDbEntity
  8
0
100
AcDbLine
 62
7
  6
CONTINUOUS
 10
61.4
 20
-42.5020556979
 11
61.4
 21
42.5020556979
  0
LWPOLYLINE
  5
28C
100
AcDbEntity
  8
0
100
AcDbPolyline
 62
7
  6
CONTINUOUS
 90
3
 70
0
 43
0.3500000006
 10
-116.3646507568
 20
64.9149700928
 10
-115.5075037537
 20
65.7721170959
 10
-115.5075037537
 20
62.7721161804
  0
LINE
  5
28D
100
AcDbEntity
  8
RACCORDO
100
AcDbLine
 62
7
  6
CONTINUOUS
 10
-104.6582577954
 20
-43.8309237007
 11
-101.4320898173
 21
-44.0
  0
LINE
  5
28E
100
AcDbEntity
  8
RACCORDO
100
AcDbLine
 62
7
  6
CONTINUOUS
 10
-99.628599336
 20
-43.1763747358
 11
-100.9820898173
 21
-43.2
  0
LINE
  5
28F
100
AcDbEntity
  8
0
100
AcDbLine
 62
250
  6
CONTINUOUS
 10
-101.4320898173
 20
-42.5020556979
 11
-100.9820898173
 21
-42.497941481
  0
LINE
  5
290
100
AcDbEntity
  8
RACCORDO
100
AcDbLine
 62
250
  6
CONTINUOUS
 10
-99.4320898173
 20
-42.497941481
 11
-100.9820898173
 21
-42.497941481
  0
LINE
  5
291
100
AcDbEntity
  8
RACCORDO
100
AcDbLine
 62
250
  6
CONTINUOUS
 10
-105.1320898173
 20
-42.3329793985
 11
-104.6582577954
 21
-42.3329793985
  0
LINE
  5
292
100
AcDbEntity
  8
RACCORDO
100
AcDbLine
 62
250
  6
CONTINUOUS
 10
-104.6582577954
 20
-42.3329793985
 11
-101.4320898173
 21
-42.5020556979
  0
LWPOLYLINE
  5
293
100
AcDbEntity
  8
0
100
AcDbPolyline
 62
7
  6
CONTINUOUS
 90
3
 70
0
 43
0.3500000006
 10
-111.5789337158
 20
63.0578318481
 10
-111.6503648987
 20
62.8435473633
 10
-111.7932182007
 20
62.5578316956
  0
LWPOLYLINE
  5
294
100
AcDbEntity
  8
0
100
AcDbPolyline
 62
7
  6
CONTINUOUS
 90
3
 70
0
 43
0.3500000006
 10
-111.5438843079
 20
53.0338688507
 10
-111.6153154907
 20
52.8195843658
 10
-111.7581687927
 20
52.5338686981
  0
LINE
  5
295
100
AcDbEntity
  8
RACCORDO
100
AcDbLine
 62
7
  6
CONTINUOUS
 10
-99.4320898173
 20
-23.1838060007
 11
-95.1052971471
 21
-21.9838801962
  0
LINE
  5
296
100
AcDbEntity
  8
RACCORDO
100
AcDbLine
 62
7
  6
CONTINUOUS
 10
-95.0839146925
 20
-21.9779503167
 11
-95.1017427082
 21
-21.9828944631
  0
LINE
  5
297
100
AcDbEntity
  8
RACCORDO
100
AcDbLine
 62
250
  6
CONTINUOUS
 10
-99.4320898173
 20
-22.9767415744
 11
-94.9074822665
 21
-21.7219568483
  0
LINE
  5
298
100
AcDbEntity
  8
RACCORDO
100
AcDbLine
 62
250
  6
CONTINUOUS
 10
-94.8860998119
 20
-21.7160269689
 11
-94.900475482
 21
-21.720013695
  0
LINE
  5
299
100
AcDbEntity
  8
SMUSSO
100
AcDbLine
 62
7
  6
CONTINUOUS
 10
-94.7248891574
 20
-21.5040433065
 11
-94.7376870316
 21
-21.5059295827
  0
LINE
  5
29A
100
AcDbEntity
  8
RACCORDO
100
AcDbLine
 62
7
  6
CONTINUOUS
 10
-98.2101992431
 20
-20.8399092472
 11
-99.4320898173
 21
-21.0008680531
  0
LINE
  5
29B
100
AcDbEntity
  8
RACCORDO
100
AcDbLine
 62
7
  6
CONTINUOUS
 10
-98.2196681907
 20
-20.8120146271
 11
-99.4320898173
 21
-20.9715398297
  0
LINE
  5
29C
100
AcDbEntity
  8
RACCORDO
100
AcDbLine
 62
7
  6
CONTINUOUS
 10
-96.3018854576
 20
-20.0143002674
 11
-96.6282514122
 21
-20.0143251228
  0
LINE
  5
29D
100
AcDbEntity
  8
RACCORDO
100
AcDbLine
 62
7
  6
CONTINUOUS
 10
-96.6359283791
 20
-19.0143257075
 11
-96.2928679601
 21
-19.0142995806
  0
LINE
  5
29E
100
AcDbEntity
  8
RACCORDO
100
AcDbLine
 62
7
  6
CONTINUOUS
 10
-96.2928679601
 20
-19.9857004194
 11
-96.6359283791
 21
-19.9856742925
  0
LINE
  5
29F
100
AcDbEntity
  8
RACCORDO
100
AcDbLine
 62
7
  6
CONTINUOUS
 10
-96.6282514122
 20
-18.9856748772
 11
-96.3018854576
 21
-18.9856997326
  0
LINE
  5
2A0
100
AcDbEntity
  8
SMUSSO
100
AcDbLine
 62
7
  6
CONTINUOUS
 10
-94.7248891574
 20
-17.4959566935
 11
-94.7392893806
 21
-17.4957053367
  0
LINE
  5
2A1
100
AcDbEntity
  8
RACCORDO
100
AcDbLine
 62
7
  6
CONTINUOUS
 10
-99.4320898173
 20
-18.0284601703
 11
-98.2196681907
 21
-18.1879853729
  0
LINE
  5
2A2
100
AcDbEntity
  8
RACCORDO
100
AcDbLine
 62
7
  6
CONTINUOUS
 10
-99.4320898173
 20
-17.9991319469
 11
-98.2101992431
 21
-18.1600907528
  0
LWPOLYLINE
  5
2A3
100
AcDbEntity
  8
0
100
AcDbPolyline
 62
7
  6
CONTINUOUS
 90
13
 70
0
 43
0.3500000006
 10
-114.6503658142
 20
63.6292541199
 10
-114.6503658142
 20
64.9149700928
 10
-114.4360722656
 20
65.3435481262
 10
-114.0075032959
 20
65.7721170959
 10
-113.793218811
 20
65.7721170959
 10
-113.3646498413
 20
65.3435481262
 10
-113.1503653564
 20
64.9149700928
 10
-113.1503653564
 20
63.6292541199
 10
-113.3646498413
 20
63.2006851501
 10
-113.793218811
 20
62.7721161804
 10
-114.0075032959
 20
62.7721161804
 10
-114.4360722656
 20
63.2006851501
 10
-114.6503658142
 20
63.6292541199
  0
LINE
  5
2A4
100
AcDbEntity
  8
RACCORDO
100
AcDbLine
 62
7
  6
CONTINUOUS
 10
-96.6282514122
 20
18.9856748772
 11
-97.8407487252
 21
18.2855326002
  0
LINE
  5
2A5
100
AcDbEntity
  8
RACCORDO
100
AcDbLine
 62
7
  6
CONTINUOUS
 10
-96.6359283791
 20
19.0143257075
 11
-97.8501992294
 21
18.3133728881
  0
LINE
  5
2A6
100
AcDbEntity
  8
RACCORDO
100
AcDbLine
 62
250
  6
CONTINUOUS
 10
-94.900475482
 20
-17.279986305
 11
-94.8860998119
 21
-17.2839730311
  0
LINE
  5
2A7
100
AcDbEntity
  8
RACCORDO
100
AcDbLine
 62
250
  6
CONTINUOUS
 10
-94.9074822665
 20
-17.2780431517
 11
-99.4320898173
 21
-16.0232584256
  0
LINE
  5
2A8
100
AcDbEntity
  8
RACCORDO
100
AcDbLine
 62
7
  6
CONTINUOUS
 10
-95.1017427082
 20
-17.0171055369
 11
-95.0839146925
 21
-17.0220496833
  0
LINE
  5
2A9
100
AcDbEntity
  8
RACCORDO
100
AcDbLine
 62
7
  6
CONTINUOUS
 10
-95.1052971471
 20
-17.0161198038
 11
-99.4320898173
 21
-15.8161939993
  0
LINE
  5
2AA
100
AcDbEntity
  8
RACCORDO
100
AcDbLine
 62
7
  6
CONTINUOUS
 10
-97.8501992294
 20
-18.3133728881
 11
-96.6359283791
 21
-19.0143257075
  0
LINE
  5
2AB
100
AcDbEntity
  8
RACCORDO
100
AcDbLine
 62
7
  6
CONTINUOUS
 10
-97.8407487252
 20
-18.2855326002
 11
-96.6282514122
 21
-18.9856748772
  0
LINE
  5
2AC
100
AcDbEntity
  8
RACCORDO
100
AcDbLine
 62
7
  6
CONTINUOUS
 10
-95.719327136
 20
20.1665851688
 11
-94.9737350956
 21
20.6887236552
  0
LINE
  5
2AD
100
AcDbEntity
  8
RACCORDO
100
AcDbLine
 62
7
  6
CONTINUOUS
 10
-95.7283170884
 20
20.195097655
 11
-95.0021354941
 21
20.7035079669
  0
LINE
  5
2AE
100
AcDbEntity
  8
RACCORDO
100
AcDbLine
 62
250
  6
CONTINUOUS
 10
-95.0021354941
 20
18.2964920331
 11
-94.9737350956
 21
18.3112763448
  0
LINE
  5
2AF
100
AcDbEntity
  8
RACCORDO
100
AcDbLine
 62
250
  6
CONTINUOUS
 10
-94.7462716119
 20
17.8050296649
 11
-94.7179101827
 21
17.8197936905
  0
LINE
  5
2B0
100
AcDbEntity
  8
RACCORDO
100
AcDbLine
 62
250
  6
CONTINUOUS
 10
-95.0021354941
 20
-18.2964920331
 11
-94.9737350956
 21
-18.3112763448
  0
LINE
  5
2B1
100
AcDbEntity
  8
RACCORDO
100
AcDbLine
 62
250
  6
CONTINUOUS
 10
-94.7462716119
 20
-17.8050296649
 11
-94.7179101827
 21
-17.8197936905
  0
LINE
  5
2B2
100
AcDbEntity
  8
RACCORDO
100
AcDbLine
 62
7
  6
CONTINUOUS
 10
-95.0021354941
 20
-20.7035079669
 11
-95.7283170884
 21
-20.195097655
  0
LINE
  5
2B3
100
AcDbEntity
  8
RACCORDO
100
AcDbLine
 62
7
  6
CONTINUOUS
 10
-94.9737350956
 20
-20.6887236552
 11
-95.719327136
 21
-20.1665851688
  0
LWPOLYLINE
  5
2B4
100
AcDbEntity
  8
0
100
AcDbPolyline
 62
7
  6
CONTINUOUS
 90
4
 70
0
 43
0.3500000006
 10
-110.5438840027
 20
55.1052961121
 10
-110.5438840027
 20
55.7481495667
 10
-109.0438835449
 20
55.7481495667
 10
-109.9010305481
 20
52.748153183
  0
LWPOLYLINE
  5
2B5
100
AcDbEntity
  8
0
100
AcDbPolyline
 62
7
  6
CONTINUOUS
 90
2
 70
0
 43
0.3500000006
 10
-109.5789331055
 20
62.7721161804
 10
-109.5789331055
 20
64.2721166382
  0
LINE
  5
2B6
100
AcDbEntity
  8
RACCORDO
100
AcDbLine
 62
7
  6
CONTINUOUS
 10
-94.9074822665
 20
17.2780431517
 11
-94.7462716119
 21
17.490026814
  0
LINE
  5
2B7
100
AcDbEntity
  8
RACCORDO
100
AcDbLine
 62
7
  6
CONTINUOUS
 10
-94.8860998119
 20
17.2839730311
 11
-94.7292058892
 21
17.4902804147
  0
LINE
  5
2B8
100
AcDbEntity
  8
RACCORDO
100
AcDbLine
 62
7
  6
CONTINUOUS
 10
-94.7462716119
 20
-17.490026814
 11
-94.9074822665
 21
-17.2780431517
  0
LINE
  5
2B9
100
AcDbEntity
  8
RACCORDO
100
AcDbLine
 62
7
  6
CONTINUOUS
 10
-94.730286836
 20
-17.4888590256
 11
-94.8860998119
 21
-17.2839730311
  0
LINE
  5
2BA
100
AcDbEntity
  8
RACCORDO
100
AcDbLine
 62
7
  6
CONTINUOUS
 10
-105.1320898173
 20
-43.3316089333
 11
-105.1320898173
 21
43.3316089333
  0
LINE
  5
2BB
100
AcDbEntity
  8
RACCORDO
100
AcDbLine
 62
250
  6
CONTINUOUS
 10
-104.6582577954
 20
-42.3329793985
 11
-104.6582577954
 21
42.3329793985
  0
LINE
  5
2BC
100
AcDbEntity
  8
RACCORDO
100
AcDbLine
 62
250
  6
CONTINUOUS
 10
-98.2196681907
 20
20.8120146271
 11
-98.2101992431
 21
20.8399092472
  0
LINE
  5
2BD
100
AcDbEntity
  8
RACCORDO
100
AcDbLine
 62
250
  6
CONTINUOUS
 10
-97.8501992294
 20
20.6866271119
 11
-97.8407487252
 21
20.7144673998
  0
LINE
  5
2BE
100
AcDbEntity
  8
RACCORDO
100
AcDbLine
 62
250
  6
CONTINUOUS
 10
-98.2196681907
 20
-20.8120146271
 11
-98.2101992431
 21
-20.8399092472
  0
LINE
  5
2BF
100
AcDbEntity
  8
RACCORDO
100
AcDbLine
 62
250
  6
CONTINUOUS
 10
-97.8501992294
 20
-20.6866271119
 11
-97.8407487252
 21
-20.7144673998
  0
LINE
  5
2C0
100
AcDbEntity
  8
0
100
AcDbLine
 62
7
  6
CONTINUOUS
 10
-101.4320898173
 20
-44.0
 11
-101.4320898173
 21
44.0
  0
LINE
  5
2C1
100
AcDbEntity
  8
0
100
AcDbLine
 62
7
  6
CONTINUOUS
 10
-100.9820898173
 20
-43.2
 11
-100.9820898173
 21
43.2
  0
LINE
  5
2C2
100
AcDbEntity
  8
RACCORDO
100
AcDbLine
 62
250
  6
CONTINUOUS
 10
-99.628599336
 20
43.1763747358
 11
-99.628599336
 21
-43.1763747358
  0
LINE
  5
2C3
100
AcDbEntity
  8
DRAFT
100
AcDbLine
 62
7
  6
CONTINUOUS
 10
-96.6359283791
 20
19.9856742925
 11
-96.6282514122
 21
20.0143251228
  0
LINE
  5
2C4
100
AcDbEntity
  8
RACCORDO
100
AcDbLine
 62
250
  6
CONTINUOUS
 10
-96.3018854576
 20
18.9856997326
 11
-96.2928679601
 21
19.0142995806
  0
LINE
  5
2C5
100
AcDbEntity
  8
RACCORDO
100
AcDbLine
 62
250
  6
CONTINUOUS
 10
-95.7283170884
 20
18.804902345
 11
-95.719327136
 21
18.8334148312
  0
LINE
  5
2C6
100
AcDbEntity
  8
RACCORDO
100
AcDbLine
 62
250
  6
CONTINUOUS
 10
-96.3018854576
 20
-18.9856997326
 11
-96.2928679601
 21
-19.0142995806
  0
LINE
  5
2C7
100
AcDbEntity
  8
RACCORDO
100
AcDbLine
 62
250
  6
CONTINUOUS
 10
-95.7283170884
 20
-18.804902345
 11
-95.719327136
 21
-18.8334148312
  0
LINE
  5
2C8
100
AcDbEntity
  8
DRAFT
100
AcDbLine
 62
7
  6
CONTINUOUS
 10
-96.6359283791
 20
-19.9856742925
 11
-96.6282514122
 21
-20.0143251228
  0
LINE
  5
2C9
100
AcDbEntity
  8
RACCORDO
100
AcDbLine
 62
7
  6
CONTINUOUS
 10
-99.4320898173
 20
42.9764051967
 11
-99.4320898173
 21
-42.9764051967
  0
LINE
  5
2CA
100
AcDbEntity
  8
SMUSSO
100
AcDbLine
 62
7
  6
CONTINUOUS
 10
-94.7462716119
 20
-21.509973186
 11
-94.7462716119
 21
-21.1949703351
  0
LINE
  5
2CB
100
AcDbEntity
  8
SMUSSO
100
AcDbLine
 62
7
  6
CONTINUOUS
 10
-94.7462716119
 20
-17.8050296649
 11
-94.7462716119
 21
-17.490026814
  0
LINE
  5
2CC
100
AcDbEntity
  8
SMUSSO
100
AcDbLine
 62
7
  6
CONTINUOUS
 10
-94.7462716119
 20
17.490026814
 11
-94.7462716119
 21
17.8050296649
  0
LINE
  5
2CD
100
AcDbEntity
  8
SMUSSO
100
AcDbLine
 62
7
  6
CONTINUOUS
 10
-94.7462716119
 20
21.1949703351
 11
-94.7462716119
 21
21.509973186
  0
LINE
  5
2CE
100
AcDbEntity
  8
SMUSSO
100
AcDbLine
 62
7
  6
CONTINUOUS
 10
-94.7179101827
 20
-21.5021078655
 11
-94.7179101827
 21
-21.1802063095
  0
LINE
  5
2CF
100
AcDbEntity
  8
SMUSSO
100
AcDbLine
 62
7
  6
CONTINUOUS
 10
-94.7179101827
 20
-17.8197936905
 11
-94.7179101827
 21
-17.4978921345
  0
LINE
  5
2D0
100
AcDbEntity
  8
SMUSSO
100
AcDbLine
 62
7
  6
CONTINUOUS
 10
-94.7179101827
 20
17.4978921345
 11
-94.7179101827
 21
17.8197936905
  0
LINE
  5
2D1
100
AcDbEntity
  8
SMUSSO
100
AcDbLine
 62
7
  6
CONTINUOUS
 10
-94.7179101827
 20
21.1802063095
 11
-94.7179101827
 21
21.5021078655
  0
LINE
  5
2D2
100
AcDbEntity
  8
DRAFT
100
AcDbLine
 62
7
  6
CONTINUOUS
 10
-96.6359283791
 20
-19.0143257075
 11
-96.6282514122
 21
-18.9856748772
  0
LINE
  5
2D3
100
AcDbEntity
  8
RACCORDO
100
AcDbLine
 62
250
  6
CONTINUOUS
 10
-98.2196681907
 20
-18.1879853729
 11
-98.2101992431
 21
-18.1600907528
  0
LINE
  5
2D4
100
AcDbEntity
  8
RACCORDO
100
AcDbLine
 62
250
  6
CONTINUOUS
 10
-97.8501992294
 20
-18.3133728881
 11
-97.8407487252
 21
-18.2855326002
  0
LINE
  5
2D5
100
AcDbEntity
  8
RACCORDO
100
AcDbLine
 62
250
  6
CONTINUOUS
 10
-98.2196681907
 20
18.1879853729
 11
-98.2101992431
 21
18.1600907528
  0
LINE
  5
2D6
100
AcDbEntity
  8
RACCORDO
100
AcDbLine
 62
250
  6
CONTINUOUS
 10
-97.8501992294
 20
18.3133728881
 11
-97.8407487252
 21
18.2855326002
  0
LINE
  5
2D7
100
AcDbEntity
  8
DRAFT
100
AcDbLine
 62
7
  6
CONTINUOUS
 10
-96.6359283791
 20
19.0143257075
 11
-96.6282514122
 21
18.9856748772
  0
LINE
  5
2D8
100
AcDbEntity
  8
RACCORDO
100
AcDbLine
 62
250
  6
CONTINUOUS
 10
-96.3018854576
 20
-20.0143002674
 11
-96.2928679601
 21
-19.9857004194
  0
LINE
  5
2D9
100
AcDbEntity
  8
RACCORDO
100
AcDbLine
 62
250
  6
CONTINUOUS
 10
-95.7283170884
 20
-20.195097655
 11
-95.719327136
 21
-20.1665851688
  0
LINE
  5
2DA
100
AcDbEntity
  8
RACCORDO
100
AcDbLine
 62
250
  6
CONTINUOUS
 10
-96.3018854576
 20
20.0143002674
 11
-96.2928679601
 21
19.9857004194
  0
LINE
  5
2DB
100
AcDbEntity
  8
RACCORDO
100
AcDbLine
 62
250
  6
CONTINUOUS
 10
-95.7283170884
 20
20.195097655
 11
-95.719327136
 21
20.1665851688
  0
LINE
  5
2DC
100
AcDbEntity
  8
RACCORDO
100
AcDbLine
 62
7
  6
CONTINUOUS
 10
-99.4320898173
 20
15.8161939993
 11
-95.1052971471
 21
17.0161198038
  0
LINE
  5
2DD
100
AcDbEntity
  8
RACCORDO
100
AcDbLine
 62
7
  6
CONTINUOUS
 10
-95.0839146925
 20
17.0220496833
 11
-95.1017427082
 21
17.0171055369
  0
LWPOLYLINE
  5
2DE
100
AcDbEntity
  8
0
100
AcDbPolyline
 62
7
  6
CONTINUOUS
 90
10
 70
0
 43
0.3500000006
 10
-111.6153154907
 20
53.2481533356
 10
-111.5438843079
 20
53.1052955017
 10
-111.5438843079
 20
53.0338688507
 10
-111.6867466736
 20
52.8910110168
 10
-111.7581687927
 20
52.8910110168
 10
-111.8295999756
 20
52.9624376678
 10
-111.8295999756
 20
53.0338688507
 10
-111.7581687927
 20
53.1767266846
 10
-111.6867466736
 20
53.2481533356
 10
-111.6153154907
 20
53.2481533356
  0
LINE
  5
2DF
100
AcDbEntity
  8
RACCORDO
100
AcDbLine
 62
7
  6
CONTINUOUS
 10
-94.9074822665
 20
-21.7219568483
 11
-94.7462716119
 21
-21.509973186
  0
LINE
  5
2E0
100
AcDbEntity
  8
RACCORDO
100
AcDbLine
 62
7
  6
CONTINUOUS
 10
-94.8860998119
 20
-21.7160269689
 11
-94.7292058892
 21
-21.5097195853
  0
LINE
  5
2E1
100
AcDbEntity
  8
RACCORDO
100
AcDbLine
 62
7
  6
CONTINUOUS
 10
-95.719327136
 20
-18.8334148312
 11
-94.9737350956
 21
-18.3112763448
  0
LINE
  5
2E2
100
AcDbEntity
  8
RACCORDO
100
AcDbLine
 62
7
  6
CONTINUOUS
 10
-95.7283170884
 20
-18.804902345
 11
-95.0021354941
 21
-18.2964920331
  0
LINE
  5
2E3
100
AcDbEntity
  8
RACCORDO
100
AcDbLine
 62
250
  6
CONTINUOUS
 10
-99.4320898173
 20
16.0232584256
 11
-94.9074822665
 21
17.2780431517
  0
LINE
  5
2E4
100
AcDbEntity
  8
RACCORDO
100
AcDbLine
 62
250
  6
CONTINUOUS
 10
-94.8860998119
 20
17.2839730311
 11
-94.900475482
 21
17.279986305
  0
LINE
  5
2E5
100
AcDbEntity
  8
SMUSSO
100
AcDbLine
 62
7
  6
CONTINUOUS
 10
-94.7248891574
 20
17.4959566935
 11
-94.7376870316
 21
17.4940704173
  0
LINE
  5
2E6
100
AcDbEntity
  8
RACCORDO
100
AcDbLine
 62
7
  6
CONTINUOUS
 10
-98.2101992431
 20
18.1600907528
 11
-99.4320898173
 21
17.9991319469
  0
LINE
  5
2E7
100
AcDbEntity
  8
RACCORDO
100
AcDbLine
 62
7
  6
CONTINUOUS
 10
-98.2196681907
 20
18.1879853729
 11
-99.4320898173
 21
18.0284601703
  0
LINE
  5
2E8
100
AcDbEntity
  8
RACCORDO
100
AcDbLine
 62
7
  6
CONTINUOUS
 10
-95.0021354941
 20
18.2964920331
 11
-95.7283170884
 21
18.804902345
  0
LINE
  5
2E9
100
AcDbEntity
  8
RACCORDO
100
AcDbLine
 62
7
  6
CONTINUOUS
 10
-94.9737350956
 20
18.3112763448
 11
-95.719327136
 21
18.8334148312
  0
LINE
  5
2EA
100
AcDbEntity
  8
RACCORDO
100
AcDbLine
 62
7
  6
CONTINUOUS
 10
-94.7462716119
 20
21.509973186
 11
-94.9074822665
 21
21.7219568483
  0
LINE
  5
2EB
100
AcDbEntity
  8
RACCORDO
100
AcDbLine
 62
7
  6
CONTINUOUS
 10
-94.730286836
 20
21.5111409744
 11
-94.8860998119
 21
21.7160269689
  0
LWPOLYLINE
  5
2EC
100
AcDbEntity
  8
0
100
AcDbPolyline
 62
7
  6
CONTINUOUS
 90
10
 70
0
 43
0.3500000006
 10
-111.6503648987
 20
63.272116333
 10
-111.5789337158
 20
63.129263031
 10
-111.5789337158
 20
63.0578318481
 10
-111.7217870178
 20
62.9149694824
 10
-111.7932182007
 20
62.9149694824
 10
-111.8646493835
 20
62.9864006653
 10
-111.8646493835
 20
63.0578318481
 10
-111.7932182007
 20
63.2006851501
 10
-111.7217870178
 20
63.272116333
 10
-111.6503648987
 20
63.272116333
  0
LINE
  5
2ED
100
AcDbEntity
  8
0
100
AcDbLine
 62
7
  6
CONTINUOUS
 10
-101.4320898173
 20
-44.0
 11
-100.9820898173
 21
-43.2
  0
LINE
  5
2EE
100
AcDbEntity
  8
RACCORDO
100
AcDbLine
 62
7
  6
CONTINUOUS
 10
-96.6282514122
 20
-20.0143251228
 11
-97.8407487252
 21
-20.7144673998
  0
LINE
  5
2EF
100
AcDbEntity
  8
RACCORDO
100
AcDbLine
 62
7
  6
CONTINUOUS
 10
-96.6359283791
 20
-19.9856742925
 11
-97.8501992294
 21
-20.6866271119
  0
LINE
  5
2F0
100
AcDbEntity
  8
RACCORDO
100
AcDbLine
 62
250
  6
CONTINUOUS
 10
-95.0021354941
 20
-20.7035079669
 11
-94.9737350956
 21
-20.6887236552
  0
LINE
  5
2F1
100
AcDbEntity
  8
RACCORDO
100
AcDbLine
 62
7
  6
CONTINUOUS
 10
-96.3018854576
 20
18.9856997326
 11
-96.6282514122
 21
18.9856748772
  0
LINE
  5
2F2
100
AcDbEntity
  8
RACCORDO
100
AcDbLine
 62
7
  6
CONTINUOUS
 10
-96.6359283791
 20
19.9856742925
 11
-96.2928679601
 21
19.9857004194
  0
LINE
  5
2F3
100
AcDbEntity
  8
RACCORDO
100
AcDbLine
 62
7
  6
CONTINUOUS
 10
-96.2928679601
 20
19.0142995806
 11
-96.6359283791
 21
19.0143257075
  0
LINE
  5
2F4
100
AcDbEntity
  8
RACCORDO
100
AcDbLine
 62
7
  6
CONTINUOUS
 10
-96.6282514122
 20
20.0143251228
 11
-96.3018854576
 21
20.0143002674
  0
LINE
  5
2F5
100
AcDbEntity
  8
RACCORDO
100
AcDbLine
 62
7
  6
CONTINUOUS
 10
-99.4320898173
 20
20.9715398297
 11
-98.2196681907
 21
20.8120146271
  0
LINE
  5
2F6
100
AcDbEntity
  8
RACCORDO
100
AcDbLine
 62
7
  6
CONTINUOUS
 10
-99.4320898173
 20
21.0008680531
 11
-98.2101992431
 21
20.8399092472
  0
LINE
  5
2F7
100
AcDbEntity
  8
RACCORDO
100
AcDbLine
 62
250
  6
CONTINUOUS
 10
-95.0021354941
 20
20.7035079669
 11
-94.9737350956
 21
20.6887236552
  0
LINE
  5
2F8
100
AcDbEntity
  8
RACCORDO
100
AcDbLine
 62
7
  6
CONTINUOUS
 10
-97.8501992294
 20
20.6866271119
 11
-96.6359283791
 21
19.9856742925
  0
LINE
  5
2F9
100
AcDbEntity
  8
RACCORDO
100
AcDbLine
 62
7
  6
CONTINUOUS
 10
-97.8407487252
 20
20.7144673998
 11
-96.6282514122
 21
20.0143251228
  0
LINE
  5
2FA
100
AcDbEntity
  8
0
100
AcDbLine
 62
7
  6
CONTINUOUS
 10
-101.4320898173
 20
44.0
 11
-100.9820898173
 21
43.2
  0
LINE
  5
2FB
100
AcDbEntity
  8
RACCORDO
100
AcDbLine
 62
250
  6
CONTINUOUS
 10
-94.7462716119
 20
-21.1949703351
 11
-94.7179101827
 21
-21.1802063095
  0
LINE
  5
2FC
100
AcDbEntity
  8
SMUSSO
100
AcDbLine
 62
7
  6
CONTINUOUS
 10
-94.7248891574
 20
21.5040433065
 11
-94.7392893806
 21
21.5042946633
  0
LINE
  5
2FD
100
AcDbEntity
  8
RACCORDO
100
AcDbLine
 62
250
  6
CONTINUOUS
 10
-94.900475482
 20
21.720013695
 11
-94.8860998119
 21
21.7160269689
  0
LINE
  5
2FE
100
AcDbEntity
  8
RACCORDO
100
AcDbLine
 62
250
  6
CONTINUOUS
 10
-94.9074822665
 20
21.7219568483
 11
-99.4320898173
 21
22.9767415744
  0
LINE
  5
2FF
100
AcDbEntity
  8
RACCORDO
100
AcDbLine
 62
7
  6
CONTINUOUS
 10
-95.1017427082
 20
21.9828944631
 11
-95.0839146925
 21
21.9779503167
  0
LINE
  5
300
100
AcDbEntity
  8
RACCORDO
100
AcDbLine
 62
7
  6
CONTINUOUS
 10
-95.1052971471
 20
21.9838801962
 11
-99.4320898173
 21
23.1838060007
  0
LINE
  5
301
100
AcDbEntity
  8
RACCORDO
100
AcDbLine
 62
250
  6
CONTINUOUS
 10
-94.7462716119
 20
21.1949703351
 11
-94.7179101827
 21
21.1802063095
  0
LINE
  5
302
100
AcDbEntity
  8
RACCORDO
100
AcDbLine
 62
250
  6
CONTINUOUS
 10
-104.6582577954
 20
42.3329793985
 11
-101.4320898173
 21
42.5020556979
  0
LINE
  5
303
100
AcDbEntity
  8
RACCORDO
100
AcDbLine
 62
7
  6
CONTINUOUS
 10
-104.6582577954
 20
43.8309237007
 11
-101.4320898173
 21
44.0
  0
LINE
  5
304
100
AcDbEntity
  8
RACCORDO
100
AcDbLine
 62
250
  6
CONTINUOUS
 10
-105.1320898173
 20
42.3329793985
 11
-104.6582577954
 21
42.3329793985
  0
LINE
  5
305
100
AcDbEntity
  8
RACCORDO
100
AcDbLine
 62
250
  6
CONTINUOUS
 10
-99.4320898173
 20
42.497941481
 11
-100.9820898173
 21
42.497941481
  0
LWPOLYLINE
  5
306
100
AcDbEntity
  8
0
100
AcDbPolyline
 62
7
  6
CONTINUOUS
 90
8
 70
0
 43
0.3500000006
 10
-114.4010319214
 20
52.748153183
 10
-113.5438849182
 20
52.748153183
 10
-113.1153159485
 20
53.1767266846
 10
-113.1153159485
 20
54.0338691559
 10
-113.5438849182
 20
54.4624381256
 10
-114.4010319214
 20
54.4624381256
 10
-114.4010319214
 20
55.7481495667
 10
-113.1153159485
 20
55.7481495667
  0
LWPOLYLINE
  5
307
100
AcDbEntity
  8
0
100
AcDbPolyline
 62
7
  6
CONTINUOUS
 90
3
 70
0
 43
0.3500000006
 10
-109.0789329529
 20
63.414969635
 10
-110.5789334106
 20
63.414969635
 10
-109.9360799561
 20
65.7721170959
  0
LINE
  5
308
100
AcDbEntity
  8
0
100
AcDbLine
 62
250
  6
CONTINUOUS
 10
-101.4320898173
 20
42.5020556979
 11
-100.9820898173
 21
42.497941481
  0
LINE
  5
309
100
AcDbEntity
  8
RACCORDO
100
AcDbLine
 62
7
  6
CONTINUOUS
 10
-99.628599336
 20
43.1763747358
 11
-100.9820898173
 21
43.2
  0
ARC
  5
30A
100
AcDbEntity
  8
RACCORDO
100
AcDbCircle
 62
250
  6
CONTINUOUS
 10
59.7318772111
 20
42.3318772111
 40
1.4990369895
100
AcDbArc
 50
0.0421272303
 51
89.9578727686
  0
ARC
  5
30B
100
AcDbEntity
  8
RACCORDO
100
AcDbCircle
 62
250
  6
CONTINUOUS
 10
-59.7318772111
 20
42.3318772111
 40
1.4990369895
100
AcDbArc
 50
90.0421272303
 51
179.9578727686
  0
ARC
  5
30C
100
AcDbEntity
  8
RACCORDO
100
AcDbCircle
 62
250
  6
CONTINUOUS
 10
-59.7318773755
 20
-42.3318773755
 40
1.4990369895
100
AcDbArc
 50
180.0421209509
 51
269.957879048
  0
ARC
  5
30D
100
AcDbEntity
  8
RACCORDO
100
AcDbCircle
 62
250
  6
CONTINUOUS
 10
59.7318773755
 20
-42.3318773755
 40
1.4990369895
100
AcDbArc
 50
270.0421209509
 51
359.957879048
  0
ARC
  5
30E
100
AcDbEntity
  8
0
100
AcDbCircle
 62
7
  6
CONTINUOUS
 10
-59.9028117746
 20
-42.5028117746
 40
1.497180289
100
AcDbArc
 50
179.9710657627
 51
270.0289342373
  0
ARC
  5
30F
100
AcDbEntity
  8
0
100
AcDbCircle
 62
7
  6
CONTINUOUS
 10
59.9028117748
 20
-42.5028117748
 40
1.497180289
100
AcDbArc
 50
269.971065755
 51
0.028934245
  0
ARC
  5
310
100
AcDbEntity
  8
0
100
AcDbCircle
 62
7
  6
CONTINUOUS
 10
59.9028117747
 20
42.5028117747
 40
1.497180289
100
AcDbArc
 50
359.9710657552
 51
90.0289342448
  0
ARC
  5
311
100
AcDbEntity
  8
0
100
AcDbCircle
 62
7
  6
CONTINUOUS
 10
-59.9028117753
 20
42.5028117753
 40
1.4971802881
100
AcDbArc
 50
89.9710657322
 51
180.0289342678
  0
ARC
  5
312
100
AcDbEntity
  8
RACCORDO
100
AcDbCircle
 62
250
  6
CONTINUOUS
 10
-59.7334765958
 20
42.3334765958
 40
0.9981270047
100
AcDbArc
 50
89.971459393
 51
180.0285406064
  0
ARC
  5
313
100
AcDbEntity
  8
RACCORDO
100
AcDbCircle
 62
250
  6
CONTINUOUS
 10
59.7334765958
 20
42.3334765958
 40
0.9981270048
100
AcDbArc
 50
359.9714593939
 51
90.0285406056
  0
ARC
  5
314
100
AcDbEntity
  8
RACCORDO
100
AcDbCircle
 62
250
  6
CONTINUOUS
 10
-59.733476596
 20
-42.333476596
 40
0.9981270044
100
AcDbArc
 50
179.9714593823
 51
270.0285406171
  0
ARC
  5
315
100
AcDbEntity
  8
RACCORDO
100
AcDbCircle
 62
250
  6
CONTINUOUS
 10
59.733476596
 20
-42.333476596
 40
0.9981270044
100
AcDbArc
 50
269.9714593821
 51
0.0285406174
  0
ARC
  5
316
100
AcDbEntity
  8
RACCORDO
100
AcDbCircle
 62
250
  6
CONTINUOUS
 10
33.4885711423
 20
26.2885711422
 40
0.7996235894
100
AcDbArc
 50
359.9927484177
 51
90.0072515833
  0
ARC
  5
317
100
AcDbEntity
  8
RACCORDO
100
AcDbCircle
 62
250
  6
CONTINUOUS
 10
33.4885711422
 20
-26.2885711422
 40
0.7996235895
100
AcDbArc
 50
269.9927484216
 51
0.0072515794
  0
ARC
  5
318
100
AcDbEntity
  8
RACCORDO
100
AcDbCircle
 62
250
  6
CONTINUOUS
 10
-33.488580155
 20
26.288580155
 40
0.7996125032
100
AcDbArc
 50
89.9921025317
 51
180.0078974685
  0
ARC
  5
319
100
AcDbEntity
  8
RACCORDO
100
AcDbCircle
 62
250
  6
CONTINUOUS
 10
-33.488580155
 20
-26.288580155
 40
0.7996125032
100
AcDbArc
 50
179.9921025317
 51
270.0078974685
  0
ARC
  5
31A
100
AcDbEntity
  8
RACCORDO
100
AcDbCircle
 62
250
  6
CONTINUOUS
 10
33.4888141502
 20
26.288814151
 40
0.4994830744
100
AcDbArc
 50
359.9605146801
 51
90.0394851367
  0
ARC
  5
31B
100
AcDbEntity
  8
RACCORDO
100
AcDbCircle
 62
250
  6
CONTINUOUS
 10
33.488814151
 20
-26.2888141502
 40
0.4994830744
100
AcDbArc
 50
269.9605146801
 51
0.0394851367
  0
ARC
  5
31C
100
AcDbEntity
  8
RACCORDO
100
AcDbCircle
 62
250
  6
CONTINUOUS
 10
-33.4888266177
 20
26.2888266169
 40
0.4994677424
100
AcDbArc
 50
89.9590835972
 51
180.0409162181
  0
ARC
  5
31D
100
AcDbEntity
  8
RACCORDO
100
AcDbCircle
 62
250
  6
CONTINUOUS
 10
-33.4888266169
 20
-26.2888266177
 40
0.4994677424
100
AcDbArc
 50
179.9590835972
 51
270.0409162181
  0
ARC
  5
31E
100
AcDbEntity
  8
RACCORDO
100
AcDbCircle
 62
7
  6
CONTINUOUS
 10
-104.6320898173
 20
43.3316089333
 40
0.5
100
AcDbArc
 50
93.0
 51
180.0
  0
ARC
  5
31F
100
AcDbEntity
  8
RACCORDO
100
AcDbCircle
 62
7
  6
CONTINUOUS
 10
-104.6320898173
 20
-43.3316089333
 40
0.5
100
AcDbArc
 50
180.0
 51
267.0
  0
ARC
  5
320
100
AcDbEntity
  8
RACCORDO
100
AcDbCircle
 62
7
  6
CONTINUOUS
 10
-99.6320898173
 20
-42.9764051967
 40
0.2
100
AcDbArc
 50
271.0
 51
360.0
  0
ARC
  5
321
100
AcDbEntity
  8
RACCORDO
100
AcDbCircle
 62
7
  6
CONTINUOUS
 10
-99.6320898173
 20
42.9764051967
 40
0.2
100
AcDbArc
 50
0.0
 51
89.0
  0
SPLINE
  5
322
100
AcDbEntity
  8
RACCORDO
100
AcDbSpline
 62
250
  6
CONTINUOUS
 70
0
 71
3
 72
23
 73
19
 74
0
 42
0.0000001
 43
0.0000001
 44
0.0000000001
 40
0.0
 40
0.0
 40
0.0
 40
0.0
 40
0.1949531941
 40
0.3823852713
 40
0.5551386012
 40
0.6339032406
 40
0.7065636397
 40
0.7724266798
 40
0.8308535131
 40
0.881288966
 40
0.9232501741
 40
0.9563373221
 40
0.9694542301
 40
0.9802470589
 40
0.9886891737
 40
0.9947697376
 40
0.9985003766
 40
1.0
 40
1.0
 40
1.0
 40
1.0
 10
-104.6582577954
 20
42.3329793985
 30
0.0
 10
-104.6599535177
 20
42.4303578543
 30
0.0
 10
-104.6629503098
 20
42.6213638965
 30
0.0
 10
-104.6663427374
 20
42.8986755639
 30
0.0
 10
-104.6681682125
 20
43.1179560373
 30
0.0
 10
-104.6689129284
 20
43.2799050769
 30
0.0
 10
-104.6691041773
 20
43.3884560776
 30
0.0
 10
-104.6689474858
 20
43.4868474421
 30
0.0
 10
-104.668445066
 20
43.5741331223
 30
0.0
 10
-104.6676089661
 20
43.6494795579
 30
0.0
 10
-104.6664490294
 20
43.7121483605
 30
0.0
 10
-104.6651657066
 20
43.7561978787
 30
0.0
 10
-104.6639066792
 20
43.7846117624
 30
0.0
 10
-104.6629665575
 20
43.8008170501
 30
0.0
 10
-104.6619786587
 20
43.8132447389
 30
0.0
 10
-104.6609332867
 20
43.822724024
 30
0.0
 10
-104.6599437787
 20
43.8275294462
 30
0.0
 10
-104.6590059164
 20
43.8308840622
 30
0.0
 10
-104.6582577954
 20
43.8309237007
 30
0.0
  0
SPLINE
  5
323
100
AcDbEntity
  8
RACCORDO
100
AcDbSpline
 62
250
  6
CONTINUOUS
 70
0
 71
3
 72
23
 73
19
 74
0
 42
0.0000001
 43
0.0000001
 44
0.0000000001
 40
0.0
 40
0.0
 40
0.0
 40
0.0
 40
0.001499418
 40
0.0052295721
 40
0.0113095029
 40
0.0197508411
 40
0.0305420105
 40
0.0436568914
 40
0.0767410717
 40
0.118697932
 40
0.1691313635
 40
0.2275557366
 40
0.2934171956
 40
0.3660755838
 40
0.4448381544
 40
0.6175924288
 40
0.8050364697
 40
1.0
 40
1.0
 40
1.0
 40
1.0
 10
-104.6582577954
 20
-43.8309237007
 30
0.0
 10
-104.6590058162
 20
-43.8308841096
 30
0.0
 10
-104.6599437886
 20
-43.8275300107
 30
0.0
 10
-104.6609331252
 20
-43.8227251182
 30
0.0
 10
-104.6619785049
 20
-43.8132468403
 30
0.0
 10
-104.6629662808
 20
-43.8008206548
 30
0.0
 10
-104.6639064428
 20
-43.7846176166
 30
0.0
 10
-104.665165487
 20
-43.7562070534
 30
0.0
 10
-104.6664486101
 20
-43.7121622004
 30
0.0
 10
-104.6676087578
 20
-43.649498065
 30
0.0
 10
-104.668444829
 20
-43.5741560378
 30
0.0
 10
-104.6689474346
 20
-43.4868733856
 30
0.0
 10
-104.6691041755
 20
-43.388485042
 30
0.0
 10
-104.6689130063
 20
-43.2799368665
 30
0.0
 10
-104.6681684713
 20
-43.1179893881
 30
0.0
 10
-104.6663430378
 20
-42.8987034932
 30
0.0
 10
-104.6629505379
 20
-42.6213802066
 30
0.0
 10
-104.6599536764
 20
-42.4303630185
 30
0.0
 10
-104.6582577954
 20
-42.3329793985
 30
0.0
  0
ELLIPSE
  5
324
100
AcDbEntity
  8
RACCORDO
100
AcDbEllipse
 62
7
  6
CONTINUOUS
 10
-33.4748286038
 20
26.2748286038
 30
0.0
 11
0.35379574
 21
-0.35379574
 31
0.0
 40
0.999315002
 41
2.3565371065
 42
3.9266482006
  0
ELLIPSE
  5
325
100
AcDbEntity
  8
RACCORDO
100
AcDbEllipse
 62
7
  6
CONTINUOUS
 10
33.4748286038
 20
26.2748286038
 30
0.0
 11
-0.35379574
 21
-0.35379574
 31
0.0
 40
0.999315002
 41
2.3565371065
 42
3.9266482006
  0
ELLIPSE
  5
326
100
AcDbEntity
  8
RACCORDO
100
AcDbEllipse
 62
7
  6
CONTINUOUS
 10
33.4748286038
 20
-26.2748286038
 30
0.0
 11
-0.35379574
 21
0.35379574
 31
0.0
 40
0.999315002
 41
2.3565371065
 42
3.9266482006
  0
ELLIPSE
  5
327
100
AcDbEntity
  8
RACCORDO
100
AcDbEllipse
 62
7
  6
CONTINUOUS
 10
-33.4748286038
 20
-26.2748286038
 30
0.0
 11
0.35379574
 21
0.35379574
 31
0.0
 40
0.999315002
 41
2.3565371065
 42
3.9266482006
  0
ELLIPSE
  5
328
100
AcDbEntity
  8
RACCORDO
100
AcDbEllipse
 62
7
  6
CONTINUOUS
 10
-98.3502176303
 20
19.1794756089
 30
0.0
 11
0.6834624321
 21
-0.7300969116
 31
0.0
 40
0.9999021658
 41
-0.6215488028
 42
-0.2288648691
  0
ELLIPSE
  5
329
100
AcDbEntity
  8
RACCORDO
100
AcDbEllipse
 62
7
  6
CONTINUOUS
 10
-98.3502176303
 20
-19.8205243911
 30
0.0
 11
0.6834624321
 21
-0.7300969116
 31
0.0
 40
0.9999021658
 41
-0.6215488028
 42
-0.2288648691
  0
ELLIPSE
  5
32A
100
AcDbEntity
  8
RACCORDO
100
AcDbEllipse
 62
7
  6
CONTINUOUS
 10
-98.3502176303
 20
-19.1794756089
 30
0.0
 11
0.6834624322
 21
0.7300969116
 31
0.0
 40
0.9999021658
 41
0.2288648691
 42
0.6215488029
  0
ELLIPSE
  5
32B
100
AcDbEntity
  8
RACCORDO
100
AcDbEllipse
 62
7
  6
CONTINUOUS
 10
-98.3502176303
 20
19.8205243911
 30
0.0
 11
0.6834624322
 21
0.7300969115
 31
0.0
 40
0.9999021658
 41
0.2288648692
 42
0.6215488029
  0
ELLIPSE
  5
32C
100
AcDbEntity
  8
RACCORDO
100
AcDbEllipse
 62
7
  6
CONTINUOUS
 10
-95.3178873365
 20
21.1802063095
 30
0.0
 11
-0.0
 21
0.6000061909
 31
0.0
 40
0.9999516053
 41
-2.5306877724
 42
-1.5707963268
  0
ELLIPSE
  5
32D
100
AcDbEntity
  8
RACCORDO
100
AcDbEllipse
 62
7
  6
CONTINUOUS
 10
-96.2928919712
 20
20.9857384959
 30
0.0
 11
0.3568044359
 21
0.9342305227
 31
0.0
 40
0.9999217833
 41
-2.7767159862
 42
-2.1658747591
  0
ELLIPSE
  5
32E
100
AcDbEntity
  8
RACCORDO
100
AcDbEllipse
 62
7
  6
CONTINUOUS
 10
-96.2928919712
 20
18.0142615041
 30
0.0
 11
-0.3568044359
 21
0.9342305227
 31
0.0
 40
0.9999217833
 41
-0.9757178945
 42
-0.3648766675
  0
ELLIPSE
  5
32F
100
AcDbEntity
  8
RACCORDO
100
AcDbEllipse
 62
7
  6
CONTINUOUS
 10
-95.3178873365
 20
17.8197936905
 30
0.0
 11
0.0
 21
0.6000061909
 31
0.0
 40
0.9999516053
 41
-1.5707963268
 42
-0.6109048812
  0
ELLIPSE
  5
330
100
AcDbEntity
  8
RACCORDO
100
AcDbEllipse
 62
7
  6
CONTINUOUS
 10
-96.2928919712
 20
-20.9857384959
 30
0.0
 11
-0.3568044359
 21
0.9342305227
 31
0.0
 40
0.9999217833
 41
-0.9757178945
 42
-0.3648766674
  0
ELLIPSE
  5
331
100
AcDbEntity
  8
RACCORDO
100
AcDbEllipse
 62
7
  6
CONTINUOUS
 10
-95.3178873365
 20
-21.1802063095
 30
0.0
 11
0.0
 21
0.6000061909
 31
0.0
 40
0.9999516053
 41
-1.5707963268
 42
-0.6109048812
  0
ELLIPSE
  5
332
100
AcDbEntity
  8
RACCORDO
100
AcDbEllipse
 62
7
  6
CONTINUOUS
 10
-95.3178873365
 20
-17.8197936905
 30
0.0
 11
0.0
 21
0.6000061909
 31
0.0
 40
0.9999516053
 41
-2.5306877724
 42
-1.5707963268
  0
ELLIPSE
  5
333
100
AcDbEntity
  8
RACCORDO
100
AcDbEllipse
 62
7
  6
CONTINUOUS
 10
-96.2928919712
 20
-18.0142615041
 30
0.0
 11
0.3568044359
 21
0.9342305227
 31
0.0
 40
0.9999217833
 41
-2.7767159861
 42
-2.1658747591
  0
ELLIPSE
  5
334
100
AcDbEntity
  8
RACCORDO
100
AcDbEllipse
 62
7
  6
CONTINUOUS
 10
-94.8838877727
 20
21.7149294996
 30
0.0
 11
-0.2000326326
 21
0.2630204253
 31
0.0
 40
0.0033178925
 41
1.5281421852
 42
1.5641004425
  0
ELLIPSE
  5
335
100
AcDbEntity
  8
RACCORDO
100
AcDbEllipse
 62
7
  6
CONTINUOUS
 10
-94.9052702272
 20
17.2791406209
 30
0.0
 11
0.2000326326
 21
0.2630204253
 31
0.0
 40
0.0033178925
 41
-4.7056930961
 42
-3.1372288366
  0
ELLIPSE
  5
336
100
AcDbEntity
  8
RACCORDO
100
AcDbEllipse
 62
7
  6
CONTINUOUS
 10
-94.8838877727
 20
17.2850705004
 30
0.0
 11
0.2000326326
 21
0.2630204253
 31
0.0
 40
0.0033178925
 41
-4.0006821675
 42
-3.1372288366
  0
ELLIPSE
  5
337
100
AcDbEntity
  8
RACCORDO
100
AcDbEllipse
 62
7
  6
CONTINUOUS
 10
-98.3407421658
 20
19.1515617908
 30
0.0
 11
0.3522534199
 21
0.9359525224
 31
0.0
 40
0.9999250355
 41
-2.6506877208
 42
-2.2580037871
  0
ELLIPSE
  5
338
100
AcDbEntity
  8
RACCORDO
100
AcDbEllipse
 62
7
  6
CONTINUOUS
 10
-98.3407421658
 20
-19.8484382092
 30
0.0
 11
0.3522534199
 21
0.9359525224
 31
0.0
 40
0.9999250355
 41
-2.6506877208
 42
-2.2580037871
  0
ELLIPSE
  5
339
100
AcDbEntity
  8
RACCORDO
100
AcDbEllipse
 62
7
  6
CONTINUOUS
 10
-98.3407421658
 20
-19.1515617908
 30
0.0
 11
-0.3522534199
 21
0.9359525224
 31
0.0
 40
0.9999250355
 41
-0.8835888665
 42
-0.4909049327
  0
ELLIPSE
  5
33A
100
AcDbEntity
  8
RACCORDO
100
AcDbEllipse
 62
7
  6
CONTINUOUS
 10
-98.3407421658
 20
19.8484382092
 30
0.0
 11
-0.3522534199
 21
0.9359525224
 31
0.0
 40
0.9999250355
 41
-0.8835888665
 42
-0.4909049327
  0
ELLIPSE
  5
33B
100
AcDbEntity
  8
RACCORDO
100
AcDbEllipse
 62
7
  6
CONTINUOUS
 10
-96.3019094698
 20
21.0143383476
 30
0.0
 11
0.6700822476
 21
-0.7423990616
 31
0.0
 40
0.9998993095
 41
-0.7342704796
 42
-0.1234292526
  0
ELLIPSE
  5
33C
100
AcDbEntity
  8
RACCORDO
100
AcDbEllipse
 62
7
  6
CONTINUOUS
 10
-95.3463401591
 20
21.1950179115
 30
0.0
 11
0.5684908895
 21
-0.1921198012
 31
0.0
 40
0.9998692942
 41
-0.6340339821
 42
0.3258574635
  0
ELLIPSE
  5
33D
100
AcDbEntity
  8
RACCORDO
100
AcDbEllipse
 62
7
  6
CONTINUOUS
 10
-95.3463401591
 20
17.8049820885
 30
0.0
 11
0.5684908895
 21
0.1921198012
 31
0.0
 40
0.9998692942
 41
-0.3258574635
 42
0.6340339821
  0
ELLIPSE
  5
33E
100
AcDbEntity
  8
RACCORDO
100
AcDbEllipse
 62
7
  6
CONTINUOUS
 10
-96.3019094698
 20
17.9856616524
 30
0.0
 11
0.6700822476
 21
0.7423990616
 31
0.0
 40
0.9998993095
 41
0.1234292526
 42
0.7342704796
  0
ELLIPSE
  5
33F
100
AcDbEntity
  8
RACCORDO
100
AcDbEllipse
 62
7
  6
CONTINUOUS
 10
-95.3463401591
 20
-21.1950179115
 30
0.0
 11
0.5684908895
 21
0.1921198011
 31
0.0
 40
0.9998692942
 41
-0.3258574635
 42
0.6340339821
  0
ELLIPSE
  5
340
100
AcDbEntity
  8
RACCORDO
100
AcDbEllipse
 62
7
  6
CONTINUOUS
 10
-96.3019094698
 20
-21.0143383476
 30
0.0
 11
0.6700822476
 21
0.7423990616
 31
0.0
 40
0.9998993095
 41
0.1234292525
 42
0.7342704796
  0
ELLIPSE
  5
341
100
AcDbEntity
  8
RACCORDO
100
AcDbEllipse
 62
7
  6
CONTINUOUS
 10
-96.3019094698
 20
-17.9856616524
 30
0.0
 11
0.6700822476
 21
-0.7423990616
 31
0.0
 40
0.9998993095
 41
-0.7342704796
 42
-0.1234292525
  0
ELLIPSE
  5
342
100
AcDbEntity
  8
RACCORDO
100
AcDbEllipse
 62
7
  6
CONTINUOUS
 10
-95.3463401591
 20
-17.8049820885
 30
0.0
 11
0.5684908895
 21
-0.1921198012
 31
0.0
 40
0.9998692942
 41
-0.6340339821
 42
0.3258574635
  0
ELLIPSE
  5
343
100
AcDbEntity
  8
RACCORDO
100
AcDbEllipse
 62
7
  6
CONTINUOUS
 10
-94.9052702272
 20
-21.7208593791
 30
0.0
 11
0.2000326326
 21
0.2630204253
 31
0.0
 40
0.0033178925
 41
-4.7056930961
 42
-3.1372288366
  0
ELLIPSE
  5
344
100
AcDbEntity
  8
RACCORDO
100
AcDbEllipse
 62
7
  6
CONTINUOUS
 10
-94.8838877727
 20
-21.7149294996
 30
0.0
 11
0.2000326326
 21
0.2630204253
 31
0.0
 40
0.0033178925
 41
-4.0006821676
 42
-3.1372288366
  0
ELLIPSE
  5
345
100
AcDbEntity
  8
RACCORDO
100
AcDbEllipse
 62
7
  6
CONTINUOUS
 10
-94.9052702272
 20
-17.2791406209
 30
0.0
 11
-0.2000326326
 21
0.2630204253
 31
0.0
 40
0.0033178925
 41
-0.004363817
 42
1.5641004425
  0
ELLIPSE
  5
346
100
AcDbEntity
  8
RACCORDO
100
AcDbEllipse
 62
7
  6
CONTINUOUS
 10
-94.8838877727
 20
-17.2850705004
 30
0.0
 11
-0.2000326326
 21
0.2630204253
 31
0.0
 40
0.0033178925
 41
1.5281421852
 42
1.5641004425
  0
ELLIPSE
  5
347
100
AcDbEntity
  8
RACCORDO
100
AcDbEllipse
 62
7
  6
CONTINUOUS
 10
-94.9052702272
 20
21.7208593791
 30
0.0
 11
-0.2000326326
 21
0.2630204253
 31
0.0
 40
0.0033178925
 41
-0.004363817
 42
1.5641004425
  0
ENDSEC
  0
SECTION
  2
OBJECTS
  0
DICTIONARY
  5
C
100
AcDbDictionary
280
0
281
1
  3
ACAD_GROUP
350
D
  3
ACAD_MLINESTYLE
350
17
  3
ACAD_LAYOUT
350
1A
  3
ACAD_PLOTSETTINGS
350
19
  3
ACAD_PLOTSTYLENAME
350
E
  0
DICTIONARY
  5
D
102
{ACAD_REACTORS
330
C
102
}
100
AcDbDictionary
280
0
281
1
  0
ACDBDICTIONARYWDFLT
  5
E
102
{ACAD_REACTORS
330
C
102
}
100
AcDbDictionary
281
1
  3
Normal
350
F
100
AcDbDictionaryWithDefault
340
F
  0
DICTIONARY
  5
17
102
{ACAD_REACTORS
330
C
102
}
100
AcDbDictionary
280
0
281
1
  3
Standard
350
18
  0
DICTIONARY
  5
19
102
{ACAD_REACTORS
330
C
102
}
100
AcDbDictionary
281
1
  0
DICTIONARY
  5
1A
102
{ACAD_REACTORS
330
C
102
}
100
AcDbDictionary
281
1
  3
Model
350
348
  3
Layout1
350
349
  0
ACDBPLACEHOLDER
  5
F
102
{ACAD_REACTORS
330
E
102
}
  0
MLINESTYLE
  5
18
102
{ACAD_REACTORS
330
17
102
}
100
AcDbMlineStyle
  2
STANDARD
 70
0
  3

 62
256
 51
90.0
 52
90.0
 71
2
 49
0.5
 62
256
  6
BYLAYER
 49
-0.5
 62
256
  6
BYLAYER
  0
LAYOUT
  5
348
102
{ACAD_REACTORS
330
1A
102
}
100
AcDbPlotSettings
  1

  2
none_device
  4
ISO_A4_(297.00_x_210.00_MM)
  6

 40
0.0
 41
0.0
 42
0.0
 43
0.0
 44
297.0
 45
210.0
 46
0.0
 47
0.0
 48
0.0
 49
0.0
140
0.0
141
0.0
142
1.0
143
1.0
 70
1024
 72
1
 73
0
 74
0
  7

 75
0
147
1.0
148
0.0
149
0.0
100
AcDbLayout
  1
Model
 70
0
 71
0
 10
0.0
 20
0.0
 11
297.0
 21
210.0
 12
0.0
 22
0.0
 32
0.0
 14
0.0
 24
0.0
 34
0.0
 15
0.0
 25
0.0
 35
0.0
146
0.0
 13
0.0
 23
0.0
 33
0.0
 16
1.0
 26
0.0
 36
0.0
 17
0.0
 27
1.0
 37
0.0
 76
0
330
214
345
0
346
0
  0
LAYOUT
  5
349
102
{ACAD_REACTORS
330
1A
102
}
100
AcDbPlotSettings
  1

  2
none_device
  4
ISO_A4_(297.00_x_210.00_MM)
  6

 40
0.0
 41
0.0
 42
0.0
 43
0.0
 44
297.0
 45
210.0
 46
0.0
 47
0.0
 48
0.0
 49
0.0
140
0.0
141
0.0
142
1.0
143
1.0
 70
0
 72
1
 73
0
 74
0
  7

 75
0
147
1.0
148
0.0
149
0.0
100
AcDbLayout
  1
Layout1
 70
0
 71
1
 10
0.0
 20
0.0
 11
297.0
 21
210.0
 12
0.0
 22
0.0
 32
0.0
 14
0.0
 24
0.0
 34
0.0
 15
0.0
 25
0.0
 35
0.0
146
0.0
 13
0.0
 23
0.0
 33
0.0
 16
1.0
 26
0.0
 36
0.0
 17
0.0
 27
1.0
 37
0.0
 76
0
330
215
345
0
346
0
  0
ENDSEC
  0
EOF
