  0
SECTION
  2
HEADER
  9
$ACADVER
  1
AC1024
  9
$DWGCODEPAGE
  3
ANSI_1252
  9
$EXTMAX
 10
297.0
 20
210.0
 30
0.0
  9
$EXTMIN
 10
0.0
 20
0.0
 30
0.0
  9
$LIMMIN
 10
0.0
 20
0.0
  9
$LIMMAX
 10
297.0
 20
210.0
  9
$VIEWCTR
 10
148.5
 20
105.0
  9
$VIEWSIZE
 40
210.0
  9
$CLAYER
  8
0
  9
$LTSCALE
 40
16.335
  9
$CELTYPE
  6
BYLAYER
  9
$DIMSCALE
 40
1.0
  9
$DIMASZ
 40
3.0
  9
$DIMEXO
 40
0.5
  9
$DIMDLI
 40
11.286
  9
$DIMEXE
 40
1.5
  9
$DIMCEN
 40
2.673
  9
$DIMLFAC
 40
1.0
  9
$DIMBLK
  1
_FILLED
  9
$DIMALT
 70
0
  9
$DIMALTF
 40
0.0393700787
  9
$DIMTXT
 40
3.0
  9
$DIMTOL
 70
1
  9
$DIMLIM
 70
0
  9
$DIMTFAC
 40
1.0
  9
$DIMTP
 40
0.01
  9
$DIMTM
 40
0.01
  9
$DIMGAP
 40
0.625
  9
$DIMDSEP
 70
44
  9
$AUNITS
 70
0
  9
$PDMODE
 70
3
  9
$PDSIZE
 40
3.0
  9
$HANDSEED
  5
328
  9
$TILEMODE
 70
1
  9
$MEASUREMENT
 70
1
  9
$INSUNITS
 70
4
  0
ENDSEC
  0
SECTION
  2
CLASSES
  0
CLASS
  1
ACDBDICTIONARYWDFLT
  2
AcDbDictionaryWithDefault
  3
AutoCAD 2000
 90
0
 91
1
280
0
281
0
  0
CLASS
  1
ACDBPLACEHOLDER
  2
AcDbPlaceHolder
  3
AutoCAD 2000
 90
0
 91
1
280
0
281
0
  0
CLASS
  1
LAYOUT
  2
AcDbLayout
  3
AutoCAD 2000
 90
0
 91
0
280
0
281
0
  0
ENDSEC
  0
SECTION
  2
TABLES
  0
TABLE
  2
VPORT
  5
8
100
AcDbSymbolTable
 70
2
  0
VPORT
  5
1F4
100
AcDbSymbolTableRecord
100
AcDbViewportTableRecord
  2
*ACTIVE
 70
0
 10
0.0
 20
0.0
 11
1.0
 21
1.0
 12
148.5
 22
105.0
 13
0.0
 23
0.0
 14
1.0
 24
1.0
 15
0.0
 25
0.0
 16
0.0
 26
0.0
 36
1.0
 17
0.0
 27
0.0
 37
0.0
 40
210.0
 41
1.4142857143
 42
50.0
 43
0.0
 44
0.0
 50
0.0
 51
0.0
 71
0
 72
100
 73
1
 74
1
 75
0
 76
0
 77
0
 78
0
  0
ENDTAB
  0
TABLE
  2
LTYPE
  5
5
100
AcDbSymbolTable
 70
6
  0
LTYPE
  5
14
100
AcDbSymbolTableRecord
100
AcDbLinetypeTableRecord
  2
BYBLOCK
 70
0
  3

 72
65
 73
0
 40
0.0
  0
LTYPE
  5
15
100
AcDbSymbolTableRecord
100
AcDbLinetypeTableRecord
  2
BYLAYER
 70
0
  3

 72
65
 73
0
 40
0.0
  0
LTYPE
  5
16
100
AcDbSymbolTableRecord
100
AcDbLinetypeTableRecord
  2
CONTINUOUS
 70
64
  3
Solid line
 72
65
 73
0
 40
0.0
  0
LTYPE
  5
1F5
100
AcDbSymbolTableRecord
100
AcDbLinetypeTableRecord
  2
CENTER
 70
64
  3
____ _ ____ _ ____ _ ____ _ ____ _ ____ _ ____
 72
65
 73
4
 40
0.6
 49
0.375
 74
0
 49
-0.075
 74
0
 49
0.075
 74
0
 49
-0.075
 74
0
  0
LTYPE
  5
1F6
100
AcDbSymbolTableRecord
100
AcDbLinetypeTableRecord
  2
HIDDEN
 70
64
  3
- - - - - - - - - - - - - - - - - - - -
 72
65
 73
2
 40
0.2
 49
0.1
 74
0
 49
-0.1
 74
0
  0
LTYPE
  5
1F7
100
AcDbSymbolTableRecord
100
AcDbLinetypeTableRecord
  2
PHANTOM
 70
64
  3
_____ _ _ _____ _ _ _____ _ _ _____
 72
65
 73
6
 40
0.8
 49
0.45
 74
0
 49
-0.05
 74
0
 49
0.1
 74
0
 49
-0.05
 74
0
 49
0.1
 74
0
 49
-0.05
 74
0
  0
LTYPE
  5
1F8
100
AcDbSymbolTableRecord
100
AcDbLinetypeTableRecord
  2
DOT
 70
64
  3
. . . . . . . . . . . . . . . . . . . .
 72
65
 73
2
 40
0.2
 49
0.1
 74
0
 49
-0.1
 74
0
  0
LTYPE
  5
1F9
100
AcDbSymbolTableRecord
100
AcDbLinetypeTableRecord
  2
DASHED
 70
64
  3
- - - - - - - - - - - - - - - - - - - -
 72
65
 73
2
 40
0.2
 49
0.1
 74
0
 49
-0.1
 74
0
  0
ENDTAB
  0
TABLE
  2
LAYER
  5
2
100
AcDbSymbolTable
 70
36
  0
LAYER
  5
10
100
AcDbSymbolTableRecord
100
AcDbLayerTableRecord
  2
0
 70
0
 62
7
  6
CONTINUOUS
370
-3
390
F
  0
LAYER
  5
1FA
100
AcDbSymbolTableRecord
100
AcDbLayerTableRecord
  2
DEFAULT_1
 70
0
 62
7
  6
CENTER
370
-3
390
F
  0
LAYER
  5
1FB
100
AcDbSymbolTableRecord
100
AcDbLayerTableRecord
  2
DEFAULT_2
 70
0
 62
7
  6
HIDDEN
370
-3
390
F
  0
LAYER
  5
1FC
100
AcDbSymbolTableRecord
100
AcDbLayerTableRecord
  2
DEFAULT_3
 70
0
 62
7
  6
PHANTOM
370
-3
390
F
  0
LAYER
  5
1FD
100
AcDbSymbolTableRecord
100
AcDbLayerTableRecord
  2
ASSI
 70
0
 62
7
  6
CONTINUOUS
370
-3
390
F
  0
LAYER
  5
1FE
100
AcDbSymbolTableRecord
100
AcDbLayerTableRecord
  2
COORDINATE
 70
0
 62
7
  6
CONTINUOUS
370
-3
390
F
  0
LAYER
  5
1FF
100
AcDbSymbolTableRecord
100
AcDbLayerTableRecord
  2
COPY_PUBLISH
 70
0
 62
7
  6
CONTINUOUS
370
-3
390
F
  0
LAYER
  5
200
100
AcDbSymbolTableRecord
100
AcDbLayerTableRecord
  2
COSMETICI
 70
0
 62
7
  6
CONTINUOUS
370
-3
390
F
  0
LAYER
  5
201
100
AcDbSymbolTableRecord
100
AcDbLayerTableRecord
  2
CURVE
 70
0
 62
7
  6
CONTINUOUS
370
-3
390
F
  0
LAYER
  5
202
100
AcDbSymbolTableRecord
100
AcDbLayerTableRecord
  2
DRAFT
 70
0
 62
7
  6
CONTINUOUS
370
-3
390
F
  0
LAYER
  5
203
100
AcDbSymbolTableRecord
100
AcDbLayerTableRecord
  2
IMPORT_IGES
 70
0
 62
7
  6
CONTINUOUS
370
-3
390
F
  0
LAYER
  5
204
100
AcDbSymbolTableRecord
100
AcDbLayerTableRecord
  2
INTF_1
 70
0
 62
7
  6
CONTINUOUS
370
-3
390
F
  0
LAYER
  5
205
100
AcDbSymbolTableRecord
100
AcDbLayerTableRecord
  2
INTF_11
 70
0
 62
7
  6
CONTINUOUS
370
-3
390
F
  0
LAYER
  5
206
100
AcDbSymbolTableRecord
100
AcDbLayerTableRecord
  2
INTF_13
 70
0
 62
7
  6
CONTINUOUS
370
-3
390
F
  0
LAYER
  5
207
100
AcDbSymbolTableRecord
100
AcDbLayerTableRecord
  2
INTF_2
 70
0
 62
7
  6
CONTINUOUS
370
-3
390
F
  0
LAYER
  5
208
100
AcDbSymbolTableRecord
100
AcDbLayerTableRecord
  2
NOTE
 70
0
 62
7
  6
CONTINUOUS
370
-3
390
F
  0
LAYER
  5
209
100
AcDbSymbolTableRecord
100
AcDbLayerTableRecord
  2
PIANI
 70
0
 62
7
  6
CONTINUOUS
370
-3
390
F
  0
LAYER
  5
20A
100
AcDbSymbolTableRecord
100
AcDbLayerTableRecord
  2
PUNTI
 70
0
 62
7
  6
CONTINUOUS
370
-3
390
F
  0
LAYER
  5
20B
100
AcDbSymbolTableRecord
100
AcDbLayerTableRecord
  2
RACCORDO
 70
0
 62
7
  6
CONTINUOUS
370
-3
390
F
  0
LAYER
  5
20C
100
AcDbSymbolTableRecord
100
AcDbLayerTableRecord
  2
SIMBOLI
 70
0
 62
7
  6
CONTINUOUS
370
-3
390
F
  0
LAYER
  5
20D
100
AcDbSymbolTableRecord
100
AcDbLayerTableRecord
  2
SMUSSO
 70
0
 62
7
  6
CONTINUOUS
370
-3
390
F
  0
LAYER
  5
20E
100
AcDbSymbolTableRecord
100
AcDbLayerTableRecord
  2
SNAPLINE
 70
0
 62
7
  6
CONTINUOUS
370
-3
390
F
  0
LAYER
  5
20F
100
AcDbSymbolTableRecord
100
AcDbLayerTableRecord
  2
SUPERFICI
 70
0
 62
7
  6
CONTINUOUS
370
-3
390
F
  0
LAYER
  5
210
100
AcDbSymbolTableRecord
100
AcDbLayerTableRecord
  2
TRASH
 70
0
 62
7
  6
CONTINUOUS
370
-3
390
F
  0
ENDTAB
  0
TABLE
  2
STYLE
  5
3
100
AcDbSymbolTable
 70
1
  0
STYLE
  5
11
100
AcDbSymbolTableRecord
100
AcDbTextStyleTableRecord
  2
STANDARD
 70
0
 40
0.0
 41
0.8
 50
0.0
 71
0
 42
0.2
  3
txt
  4

  0
STYLE
  5
211
100
AcDbSymbolTableRecord
100
AcDbTextStyleTableRecord
  2
TEXTSTYLE_1
 70
0
 40
0.0
 41
0.8
 50
0.0
 71
0
 42
0.2
  3
gdt
  4

  0
ENDTAB
  0
TABLE
  2
VIEW
  5
6
100
AcDbSymbolTable
 70
0
  0
ENDTAB
  0
TABLE
  2
UCS
  5
7
100
AcDbSymbolTable
 70
0
  0
ENDTAB
  0
TABLE
  2
APPID
  5
9
100
AcDbSymbolTable
 70
1
  0
APPID
  5
212
100
AcDbSymbolTableRecord
100
AcDbRegAppTableRecord
  2
ACAD
 70
0
  0
ENDTAB
  0
TABLE
  2
BLOCK_RECORD
  5
1
100
AcDbSymbolTable
 70
0
  0
BLOCK_RECORD
  5
213
100
AcDbSymbolTableRecord
100
AcDbBlockTableRecord
  2
*Model_Space
  0
BLOCK_RECORD
  5
214
100
AcDbSymbolTableRecord
100
AcDbBlockTableRecord
  2
*Paper_Space
  0
BLOCK_RECORD
  5
215
100
AcDbSymbolTableRecord
100
AcDbBlockTableRecord
  2
_FILLED
  0
BLOCK_RECORD
  5
216
100
AcDbSymbolTableRecord
100
AcDbBlockTableRecord
  2
*D0
  0
BLOCK_RECORD
  5
217
100
AcDbSymbolTableRecord
100
AcDbBlockTableRecord
  2
*D1
  0
BLOCK_RECORD
  5
218
100
AcDbSymbolTableRecord
100
AcDbBlockTableRecord
  2
*D2
  0
BLOCK_RECORD
  5
219
100
AcDbSymbolTableRecord
100
AcDbBlockTableRecord
  2
*D3
  0
ENDTAB
  0
TABLE
  2
DIMSTYLE
  5
A
100
AcDbSymbolTable
 70
1
100
AcDbDimStyleTable
 71
0
  0
DIMSTYLE
105
21A
100
AcDbSymbolTableRecord
100
AcDbDimStyleTableRecord
  2
STANDARD
 70
0
  3

  4

 40
1.0
 41
3.0
 42
0.5
 43
0.38
 44
1.5
 45
0.0
 46
0.0
 47
0.01
 48
0.01
140
3.0
141
0.09
142
0.0
143
25.4
144
1.0
145
0.0
146
1.0
147
0.625
 71
1
 72
0
 73
0
 74
0
 75
0
 76
0
 77
1
 78
8
 79
2
170
0
171
1
172
0
173
0
174
0
175
0
176
0
177
0
178
0
270
2
179
2
271
2
272
2
273
2
274
2
275
0
280
0
281
0
282
0
283
1
284
8
285
0
286
0
287
3
288
0
340
11
278
44
341
215
342
215
343
215
344
215
  0
DIMSTYLE
105
21B
100
AcDbSymbolTableRecord
100
AcDbDimStyleTableRecord
  2
DIMSTYLE_1
 70
0
  3

  4

 40
1.0
 41
3.0
 42
0.5
 43
0.38
 44
1.5
 45
0.0
 46
0.0
 47
0.0
 48
0.0
140
3.0
141
0.09
142
0.0
143
25.4
144
1.0
145
0.0
146
1.0
147
0.75
 71
0
 72
0
 73
0
 74
0
 75
0
 76
0
 77
1
 78
8
 79
2
170
0
171
1
172
0
173
0
174
0
175
0
176
0
177
0
178
0
270
2
179
2
271
2
272
2
273
2
274
2
275
0
280
0
281
0
282
0
283
1
284
8
285
0
286
0
287
3
288
0
340
11
278
44
341
215
342
215
343
215
344
215
  0
ENDTAB
  0
ENDSEC
  0
SECTION
  2
BLOCKS
  0
BLOCK
  5
20
100
AcDbEntity
  8
0
100
AcDbBlockBegin
  2
*Model_Space
 70
0
 10
0.0
 20
0.0
 30
0.0
  3
*Model_Space
  1

  0
ENDBLK
  5
21
100
AcDbEntity
  8
0
100
AcDbBlockEnd
  0
BLOCK
  5
1C
100
AcDbEntity
  8
0
100
AcDbBlockBegin
  2
*Paper_Space
 70
0
 10
0.0
 20
0.0
 30
0.0
  3
*Paper_Space
  1

  0
ENDBLK
  5
1D
100
AcDbEntity
  8
0
100
AcDbBlockEnd
  0
BLOCK
  5
21C
100
AcDbEntity
  8
0
100
AcDbBlockBegin
  2
_FILLED
 70
64
 10
0.0
 20
0.0
  3
_FILLED
  1

  0
SOLID
  5
21D
100
AcDbEntity
  8
0
  6
BYBLOCK
 62
0
100
AcDbTrace
 10
0.0
 20
0.0
 11
-1.0
 21
0.3166666667
 12
-1.0
 22
-0.3166666667
 13
-1.0
 23
-0.3166666667
  0
ENDBLK
  5
21E
100
AcDbEntity
  8
0
  6
BYBLOCK
 62
0
100
AcDbBlockEnd
  0
BLOCK
  5
21F
100
AcDbEntity
  8
0
100
AcDbBlockBegin
 62
7
  6
CONTINUOUS
  2
*D0
 70
65
 10
0.0
 20
0.0
  3
*D0
  1

  0
LINE
  5
220
100
AcDbEntity
  8
0
100
AcDbLine
 62
7
  6
CONTINUOUS
 10
-73.3
 20
43.0020556979
 11
-73.3
 21
53.5
  0
LINE
  5
221
100
AcDbEntity
  8
0
100
AcDbLine
 62
7
  6
CONTINUOUS
 10
73.3
 20
43.0020556979
 11
73.3
 21
53.5
  0
LINE
  5
222
100
AcDbEntity
  8
0
100
AcDbLine
 62
7
  6
CONTINUOUS
 10
-73.3
 20
52.0
 11
0.0
 21
52.0
  0
LINE
  5
223
100
AcDbEntity
  8
0
100
AcDbLine
 62
7
  6
CONTINUOUS
 10
73.3
 20
52.0
 11
0.0
 21
52.0
  0
INSERT
  5
224
100
AcDbEntity
  8
0
100
AcDbBlockReference
 62
7
  6
CONTINUOUS
  2
_FILLED
 10
-73.3
 20
52.0
 41
3.0
 42
3.0
 43
3.0
 50
180.0
  0
INSERT
  5
225
100
AcDbEntity
  8
0
100
AcDbBlockReference
 62
7
  6
CONTINUOUS
  2
_FILLED
 10
73.3
 20
52.0
 41
3.0
 42
3.0
 43
3.0
 50
0.0
  0
ENDBLK
  5
226
100
AcDbEntity
  8
0
  6
BYBLOCK
 62
0
100
AcDbBlockEnd
  0
BLOCK
  5
227
100
AcDbEntity
  8
0
100
AcDbBlockBegin
 62
7
  6
CONTINUOUS
  2
*D1
 70
65
 10
0.0
 20
0.0
  3
*D1
  1

  0
LINE
  5
228
100
AcDbEntity
  8
0
100
AcDbLine
 62
7
  6
CONTINUOUS
 10
72.3020556979
 20
44.0
 11
82.8
 21
44.0
  0
LINE
  5
229
100
AcDbEntity
  8
0
100
AcDbLine
 62
7
  6
CONTINUOUS
 10
72.3020556979
 20
-44.0
 11
82.8
 21
-44.0
  0
LINE
  5
22A
100
AcDbEntity
  8
0
100
AcDbLine
 62
7
  6
CONTINUOUS
 10
81.3
 20
44.0
 11
81.3
 21
0.0
  0
LINE
  5
22B
100
AcDbEntity
  8
0
100
AcDbLine
 62
7
  6
CONTINUOUS
 10
81.3
 20
-44.0
 11
81.3
 21
0.0
  0
INSERT
  5
22C
100
AcDbEntity
  8
0
100
AcDbBlockReference
 62
7
  6
CONTINUOUS
  2
_FILLED
 10
81.3
 20
44.0
 41
3.0
 42
3.0
 43
3.0
 50
90.0
  0
INSERT
  5
22D
100
AcDbEntity
  8
0
100
AcDbBlockReference
 62
7
  6
CONTINUOUS
  2
_FILLED
 10
81.3
 20
-44.0
 41
3.0
 42
3.0
 43
3.0
 50
270.0
  0
ENDBLK
  5
22E
100
AcDbEntity
  8
0
  6
BYBLOCK
 62
0
100
AcDbBlockEnd
  0
BLOCK
  5
22F
100
AcDbEntity
  8
0
100
AcDbBlockBegin
 62
7
  6
CONTINUOUS
  2
*D2
 70
65
 10
0.0
 20
0.0
  3
*D2
  1

  0
LINE
  5
230
100
AcDbEntity
  8
0
100
AcDbLine
 62
7
  6
CONTINUOUS
 10
-117.025
 20
42.8329793985
 11
-117.025
 21
53.4742266783
  0
LINE
  5
231
100
AcDbEntity
  8
0
100
AcDbLine
 62
7
  6
CONTINUOUS
 10
-111.325
 20
42.396615605
 11
-111.325
 21
53.4742266783
  0
LINE
  5
232
100
AcDbEntity
  8
0
100
AcDbLine
 62
7
  6
CONTINUOUS
 10
-117.025
 20
51.9742266783
 11
-126.3192910302
 21
51.9742266783
  0
LINE
  5
233
100
AcDbEntity
  8
0
100
AcDbLine
 62
7
  6
CONTINUOUS
 10
-126.3192910302
 20
51.9742266783
 11
-114.175
 21
51.9742266783
  0
LINE
  5
234
100
AcDbEntity
  8
0
100
AcDbLine
 62
7
  6
CONTINUOUS
 10
-111.325
 20
51.9742266783
 11
-107.325
 21
51.9742266783
  0
LINE
  5
235
100
AcDbEntity
  8
0
100
AcDbLine
 62
7
  6
CONTINUOUS
 10
-107.325
 20
51.9742266783
 11
-114.175
 21
51.9742266783
  0
INSERT
  5
236
100
AcDbEntity
  8
0
100
AcDbBlockReference
 62
7
  6
CONTINUOUS
  2
_FILLED
 10
-117.025
 20
51.9742266783
 41
3.0
 42
3.0
 43
3.0
  0
INSERT
  5
237
100
AcDbEntity
  8
0
100
AcDbBlockReference
 62
7
  6
CONTINUOUS
  2
_FILLED
 10
-111.325
 20
51.9742266783
 41
3.0
 42
3.0
 43
3.0
 50
180.0
  0
ENDBLK
  5
238
100
AcDbEntity
  8
0
  6
BYBLOCK
 62
0
100
AcDbBlockEnd
  0
BLOCK
  5
239
100
AcDbEntity
  8
0
100
AcDbBlockBegin
 62
7
  6
CONTINUOUS
  2
*D3
 70
65
 10
0.0
 20
0.0
  3
*D3
  1

  0
LINE
  5
23A
100
AcDbEntity
  8
0
100
AcDbLine
 62
7
  6
CONTINUOUS
 10
-117.025
 20
42.8329793985
 11
-117.025
 21
63.485623882
  0
LINE
  5
23B
100
AcDbEntity
  8
0
100
AcDbLine
 62
7
  6
CONTINUOUS
 10
-106.625
 20
22.0041689945
 11
-106.625
 21
63.485623882
  0
LINE
  5
23C
100
AcDbEntity
  8
0
100
AcDbLine
 62
7
  6
CONTINUOUS
 10
-117.025
 20
61.985623882
 11
-128.3274653186
 21
61.985623882
  0
LINE
  5
23D
100
AcDbEntity
  8
0
100
AcDbLine
 62
7
  6
CONTINUOUS
 10
-128.3274653186
 20
61.985623882
 11
-111.825
 21
61.985623882
  0
LINE
  5
23E
100
AcDbEntity
  8
0
100
AcDbLine
 62
7
  6
CONTINUOUS
 10
-106.625
 20
61.985623882
 11
-102.625
 21
61.985623882
  0
LINE
  5
23F
100
AcDbEntity
  8
0
100
AcDbLine
 62
7
  6
CONTINUOUS
 10
-102.625
 20
61.985623882
 11
-111.825
 21
61.985623882
  0
INSERT
  5
240
100
AcDbEntity
  8
0
100
AcDbBlockReference
 62
7
  6
CONTINUOUS
  2
_FILLED
 10
-117.025
 20
61.985623882
 41
3.0
 42
3.0
 43
3.0
  0
INSERT
  5
241
100
AcDbEntity
  8
0
100
AcDbBlockReference
 62
7
  6
CONTINUOUS
  2
_FILLED
 10
-106.625
 20
61.985623882
 41
3.0
 42
3.0
 43
3.0
 50
180.0
  0
ENDBLK
  5
242
100
AcDbEntity
  8
0
  6
BYBLOCK
 62
0
100
AcDbBlockEnd
  0
ENDSEC
  0
SECTION
  2
ENTITIES
  0
DIMENSION
  5
243
100
AcDbEntity
  8
0
100
AcDbDimension
 62
7
  6
CONTINUOUS
  2
*D0
 10
73.3
 20
52.0
 11
-5.25
 21
52.0
 70
160
 71
2
 72
2
 41
0.9
 42
146.6
  3
DIMSTYLE_1
100
AcDbAlignedDimension
 13
-73.3
 23
42.5020556979
 14
73.3
 24
42.5020556979
100
AcDbRotatedDimension
  0
DIMENSION
  5
244
100
AcDbEntity
  8
0
100
AcDbDimension
 62
7
  6
CONTINUOUS
  2
*D1
 10
81.3
 20
-44.0
 11
81.3
 21
-2.3571428571
 70
160
 71
2
 72
2
 41
0.9
 42
88.0
  3
DIMSTYLE_1
100
AcDbAlignedDimension
 13
71.8020556979
 23
44.0
 14
71.8020556979
 24
-44.0
 50
270.0
100
AcDbRotatedDimension
  0
DIMENSION
  5
245
100
AcDbEntity
  8
0
100
AcDbDimension
 62
7
  6
CONTINUOUS
  2
*D2
 10
-111.325
 20
51.9742266783
 11
-126.3192910302
 21
51.9742266783
 70
160
 71
3
 72
2
 41
0.9
 42
5.7
  3
DIMSTYLE_1
100
AcDbAlignedDimension
 13
-117.025
 23
42.3329793985
 14
-111.325
 24
41.896615605
100
AcDbRotatedDimension
  0
DIMENSION
  5
246
100
AcDbEntity
  8
0
100
AcDbDimension
 62
7
  6
CONTINUOUS
  2
*D3
 10
-106.625
 20
61.985623882
 11
-128.3274653186
 21
61.985623882
 70
160
 71
3
 72
2
 41
0.9
 42
10.4
  3
DIMSTYLE_1
100
AcDbAlignedDimension
 13
-117.025
 23
42.3329793985
 14
-106.625
 24
21.5041689945
100
AcDbRotatedDimension
  0
LINE
  5
247
100
AcDbEntity
  8
0
100
AcDbLine
 62
7
  6
CONTINUOUS
 10
-73.3
 20
42.5020556979
 11
-73.3
 21
-42.5020556979
  0
LINE
  5
248
100
AcDbEntity
  8
RACCORDO
100
AcDbLine
 62
250
  6
CONTINUOUS
 10
-73.1309237007
 20
42.3329793985
 11
-73.1309237007
 21
-42.3329793985
  0
LINE
  5
249
100
AcDbEntity
  8
RACCORDO
100
AcDbLine
 62
250
  6
CONTINUOUS
 10
-72.6316089333
 20
42.3329793985
 11
-72.6316089333
 21
-42.3329793985
  0
LINE
  5
24A
100
AcDbEntity
  8
RACCORDO
100
AcDbLine
 62
250
  6
CONTINUOUS
 10
-71.6329793985
 20
-43.3316089333
 11
-71.6329793985
 21
-43.8309237007
  0
LINE
  5
24B
100
AcDbEntity
  8
RACCORDO
100
AcDbLine
 62
250
  6
CONTINUOUS
 10
-71.6329793985
 20
43.3316089333
 11
-71.6329793985
 21
43.8309237007
  0
LINE
  5
24C
100
AcDbEntity
  8
RACCORDO
100
AcDbLine
 62
250
  6
CONTINUOUS
 10
-45.5337732309
 20
-26.2838950748
 11
-45.5337732309
 21
26.2838950748
  0
LINE
  5
24D
100
AcDbEntity
  8
RACCORDO
100
AcDbLine
 62
250
  6
CONTINUOUS
 10
-45.2338189223
 20
-26.2838950748
 11
-45.2338189223
 21
26.2838950748
  0
LINE
  5
24E
100
AcDbEntity
  8
RACCORDO
100
AcDbLine
 62
7
  6
CONTINUOUS
 10
-45.225
 20
26.2750761524
 11
-45.225
 21
-26.2750761524
  0
LINE
  5
24F
100
AcDbEntity
  8
RACCORDO
100
AcDbLine
 62
250
  6
CONTINUOUS
 10
-44.7338950748
 20
27.0837732309
 11
-44.7338950748
 21
26.7838189223
  0
LINE
  5
250
100
AcDbEntity
  8
RACCORDO
100
AcDbLine
 62
250
  6
CONTINUOUS
 10
-44.7338950748
 20
-27.0837732309
 11
-44.7338950748
 21
-26.7838189223
  0
LWPOLYLINE
  5
251
100
AcDbEntity
  8
0
100
AcDbPolyline
 62
7
  6
CONTINUOUS
 90
3
 70
0
 43
0.3500000006
 10
-5.2499999027
 20
54.8928560944
 10
-4.3928571482
 20
55.7499985657
 10
-4.3928571482
 20
52.750002182
  0
LWPOLYLINE
  5
252
100
AcDbEntity
  8
0
100
AcDbPolyline
 62
7
  6
CONTINUOUS
 90
10
 70
0
 43
0.3500000006
 10
-0.1071428532
 20
55.7499985657
 10
-0.7500000165
 20
55.1071451111
 10
-1.1785713937
 20
54.2499981079
 10
-1.1785713937
 20
53.1785711517
 10
-0.7500000165
 20
52.750002182
 10
-0.1071428532
 20
52.750002182
 10
0.3214285684
 20
53.1785711517
 10
0.3214285684
 20
54.035713623
 10
-0.1071428532
 20
54.4642871246
 10
-1.035714268
 20
54.4642871246
  0
LINE
  5
253
100
AcDbEntity
  8
0
100
AcDbLine
 62
7
  6
CONTINUOUS
 10
-71.8020556979
 20
-44.0
 11
71.8020556979
 21
-44.0
  0
LINE
  5
254
100
AcDbEntity
  8
RACCORDO
100
AcDbLine
 62
250
  6
CONTINUOUS
 10
-71.6329793985
 20
-43.8309237007
 11
71.6329793985
 21
-43.8309237007
  0
LINE
  5
255
100
AcDbEntity
  8
RACCORDO
100
AcDbLine
 62
250
  6
CONTINUOUS
 10
-71.6329793985
 20
-43.3316089333
 11
71.6329793985
 21
-43.3316089333
  0
LINE
  5
256
100
AcDbEntity
  8
RACCORDO
100
AcDbLine
 62
250
  6
CONTINUOUS
 10
72.6316089333
 20
-42.3329793985
 11
73.1309237007
 21
-42.3329793985
  0
LINE
  5
257
100
AcDbEntity
  8
RACCORDO
100
AcDbLine
 62
250
  6
CONTINUOUS
 10
-72.6316089333
 20
-42.3329793985
 11
-73.1309237007
 21
-42.3329793985
  0
LWPOLYLINE
  5
258
100
AcDbEntity
  8
0
100
AcDbPolyline
 62
7
  6
CONTINUOUS
 90
10
 70
0
 43
0.3500000006
 10
3.9642856293
 20
55.7499985657
 10
3.3214284925
 20
55.1071451111
 10
2.8928572569
 20
54.2499981079
 10
2.8928572569
 20
53.1785711517
 10
3.3214284925
 20
52.750002182
 10
3.9642856293
 20
52.750002182
 10
4.3928571482
 20
53.1785711517
 10
4.3928571482
 20
54.035713623
 10
3.9642856293
 20
54.4642871246
 10
3.035714241
 20
54.4642871246
  0
LINE
  5
259
100
AcDbEntity
  8
RACCORDO
100
AcDbLine
 62
250
  6
CONTINUOUS
 10
44.7338950748
 20
-27.0837732309
 11
-44.7338950748
 21
-27.0837732309
  0
LINE
  5
25A
100
AcDbEntity
  8
RACCORDO
100
AcDbLine
 62
250
  6
CONTINUOUS
 10
44.7338950748
 20
-26.7838189223
 11
-44.7338950748
 21
-26.7838189223
  0
LINE
  5
25B
100
AcDbEntity
  8
RACCORDO
100
AcDbLine
 62
7
  6
CONTINUOUS
 10
-44.7250761524
 20
-26.775
 11
44.7250761524
 21
-26.775
  0
LINE
  5
25C
100
AcDbEntity
  8
RACCORDO
100
AcDbLine
 62
250
  6
CONTINUOUS
 10
-45.5337732309
 20
-26.2838950748
 11
-45.2338189223
 21
-26.2838950748
  0
LINE
  5
25D
100
AcDbEntity
  8
RACCORDO
100
AcDbLine
 62
250
  6
CONTINUOUS
 10
45.5337732309
 20
-26.2838950748
 11
45.2338189223
 21
-26.2838950748
  0
LINE
  5
25E
100
AcDbEntity
  8
RACCORDO
100
AcDbLine
 62
250
  6
CONTINUOUS
 10
-73.1309237007
 20
-42.3329793985
 11
-73.3
 21
-42.5020556979
  0
LINE
  5
25F
100
AcDbEntity
  8
RACCORDO
100
AcDbLine
 62
250
  6
CONTINUOUS
 10
-71.6329793985
 20
-43.8309237007
 11
-71.8020556979
 21
-44.0
  0
LINE
  5
260
100
AcDbEntity
  8
RACCORDO
100
AcDbLine
 62
250
  6
CONTINUOUS
 10
-73.1309237007
 20
42.3329793985
 11
-73.3
 21
42.5020556979
  0
LINE
  5
261
100
AcDbEntity
  8
RACCORDO
100
AcDbLine
 62
250
  6
CONTINUOUS
 10
-71.6329793985
 20
43.8309237007
 11
-71.8020556979
 21
44.0
  0
LWPOLYLINE
  5
262
100
AcDbEntity
  8
0
100
AcDbPolyline
 62
7
  6
CONTINUOUS
 90
3
 70
0
 43
0.3500000006
 10
1.8928570933
 20
53.0357133179
 10
1.8214286013
 20
52.821428833
 10
1.6785714755
 20
52.5357131653
  0
LINE
  5
263
100
AcDbEntity
  8
RACCORDO
100
AcDbLine
 62
250
  6
CONTINUOUS
 10
-45.2338189223
 20
-26.2838950748
 11
-45.225
 21
-26.2750761524
  0
LINE
  5
264
100
AcDbEntity
  8
RACCORDO
100
AcDbLine
 62
250
  6
CONTINUOUS
 10
-44.7338950748
 20
-26.7838189223
 11
-44.7250761524
 21
-26.775
  0
LINE
  5
265
100
AcDbEntity
  8
RACCORDO
100
AcDbLine
 62
250
  6
CONTINUOUS
 10
-45.2338189223
 20
26.2838950748
 11
-45.225
 21
26.2750761524
  0
LINE
  5
266
100
AcDbEntity
  8
RACCORDO
100
AcDbLine
 62
250
  6
CONTINUOUS
 10
-44.7338950748
 20
26.7838189223
 11
-44.7250761524
 21
26.775
  0
LWPOLYLINE
  5
267
100
AcDbEntity
  8
0
100
AcDbPolyline
 62
7
  6
CONTINUOUS
 90
2
 70
0
 43
0.3500000006
 10
-2.5357143717
 20
52.750002182
 10
-2.5357143717
 20
54.2499981079
  0
LWPOLYLINE
  5
268
100
AcDbEntity
  8
0
100
AcDbPolyline
 62
7
  6
CONTINUOUS
 90
4
 70
0
 43
0.3500000006
 10
80.1214329529
 20
-2.3571432495
 10
79.2642859497
 20
-2.3571432495
 10
78.83571698
 20
-1.9285708809
 10
78.83571698
 20
-1.2857140274
  0
LWPOLYLINE
  5
269
100
AcDbEntity
  8
0
100
AcDbPolyline
 62
7
  6
CONTINUOUS
 90
4
 70
0
 43
0.3500000006
 10
80.1214329529
 20
-0.0000003204
 10
79.2642859497
 20
-0.0000003204
 10
78.83571698
 20
0.4285709152
 10
78.83571698
 20
1.0714289017
  0
LINE
  5
26A
100
AcDbEntity
  8
RACCORDO
100
AcDbLine
 62
250
  6
CONTINUOUS
 10
44.7338950748
 20
26.7838189223
 11
44.7250761524
 21
26.775
  0
LINE
  5
26B
100
AcDbEntity
  8
RACCORDO
100
AcDbLine
 62
250
  6
CONTINUOUS
 10
45.2338189223
 20
26.2838950748
 11
45.225
 21
26.2750761524
  0
LINE
  5
26C
100
AcDbEntity
  8
RACCORDO
100
AcDbLine
 62
250
  6
CONTINUOUS
 10
44.7338950748
 20
-26.7838189223
 11
44.7250761524
 21
-26.775
  0
LINE
  5
26D
100
AcDbEntity
  8
RACCORDO
100
AcDbLine
 62
250
  6
CONTINUOUS
 10
45.2338189223
 20
-26.2838950748
 11
45.225
 21
-26.2750761524
  0
LINE
  5
26E
100
AcDbEntity
  8
RACCORDO
100
AcDbLine
 62
250
  6
CONTINUOUS
 10
71.6329793985
 20
43.8309237007
 11
71.8020556979
 21
44.0
  0
LINE
  5
26F
100
AcDbEntity
  8
RACCORDO
100
AcDbLine
 62
250
  6
CONTINUOUS
 10
73.1309237007
 20
42.3329793985
 11
73.3
 21
42.5020556979
  0
LINE
  5
270
100
AcDbEntity
  8
RACCORDO
100
AcDbLine
 62
250
  6
CONTINUOUS
 10
71.6329793985
 20
-43.8309237007
 11
71.8020556979
 21
-44.0
  0
LINE
  5
271
100
AcDbEntity
  8
RACCORDO
100
AcDbLine
 62
250
  6
CONTINUOUS
 10
73.1309237007
 20
-42.3329793985
 11
73.3
 21
-42.5020556979
  0
LINE
  5
272
100
AcDbEntity
  8
RACCORDO
100
AcDbLine
 62
250
  6
CONTINUOUS
 10
-45.5337732309
 20
26.2838950748
 11
-45.2338189223
 21
26.2838950748
  0
LINE
  5
273
100
AcDbEntity
  8
RACCORDO
100
AcDbLine
 62
250
  6
CONTINUOUS
 10
45.5337732309
 20
26.2838950748
 11
45.2338189223
 21
26.2838950748
  0
LINE
  5
274
100
AcDbEntity
  8
RACCORDO
100
AcDbLine
 62
7
  6
CONTINUOUS
 10
44.7250761524
 20
26.775
 11
-44.7250761524
 21
26.775
  0
LINE
  5
275
100
AcDbEntity
  8
RACCORDO
100
AcDbLine
 62
250
  6
CONTINUOUS
 10
-44.7338950748
 20
26.7838189223
 11
44.7338950748
 21
26.7838189223
  0
LINE
  5
276
100
AcDbEntity
  8
RACCORDO
100
AcDbLine
 62
250
  6
CONTINUOUS
 10
-44.7338950748
 20
27.0837732309
 11
44.7338950748
 21
27.0837732309
  0
LWPOLYLINE
  5
277
100
AcDbEntity
  8
0
100
AcDbPolyline
 62
7
  6
CONTINUOUS
 90
10
 70
0
 43
0.3500000006
 10
1.8214286013
 20
53.2499978027
 10
1.8928570933
 20
53.1071445007
 10
1.8928570933
 20
53.0357133179
 10
1.7499999676
 20
52.892855484
 10
1.6785714755
 20
52.892855484
 10
1.6071428418
 20
52.9642866669
 10
1.6071428418
 20
53.0357133179
 10
1.6785714755
 20
53.1785711517
 10
1.7499999676
 20
53.2499978027
 10
1.8214286013
 20
53.2499978027
  0
LINE
  5
278
100
AcDbEntity
  8
RACCORDO
100
AcDbLine
 62
250
  6
CONTINUOUS
 10
44.7338950748
 20
27.0837732309
 11
44.7338950748
 21
26.7838189223
  0
LINE
  5
279
100
AcDbEntity
  8
RACCORDO
100
AcDbLine
 62
250
  6
CONTINUOUS
 10
44.7338950748
 20
-27.0837732309
 11
44.7338950748
 21
-26.7838189223
  0
LINE
  5
27A
100
AcDbEntity
  8
RACCORDO
100
AcDbLine
 62
7
  6
CONTINUOUS
 10
45.225
 20
-26.2750761524
 11
45.225
 21
26.2750761524
  0
LINE
  5
27B
100
AcDbEntity
  8
RACCORDO
100
AcDbLine
 62
250
  6
CONTINUOUS
 10
45.2338189223
 20
26.2838950748
 11
45.2338189223
 21
-26.2838950748
  0
LINE
  5
27C
100
AcDbEntity
  8
RACCORDO
100
AcDbLine
 62
250
  6
CONTINUOUS
 10
45.5337732309
 20
26.2838950748
 11
45.5337732309
 21
-26.2838950748
  0
LINE
  5
27D
100
AcDbEntity
  8
RACCORDO
100
AcDbLine
 62
250
  6
CONTINUOUS
 10
72.6316089333
 20
42.3329793985
 11
73.1309237007
 21
42.3329793985
  0
LINE
  5
27E
100
AcDbEntity
  8
RACCORDO
100
AcDbLine
 62
250
  6
CONTINUOUS
 10
-72.6316089333
 20
42.3329793985
 11
-73.1309237007
 21
42.3329793985
  0
LINE
  5
27F
100
AcDbEntity
  8
RACCORDO
100
AcDbLine
 62
250
  6
CONTINUOUS
 10
71.6329793985
 20
43.3316089333
 11
-71.6329793985
 21
43.3316089333
  0
LINE
  5
280
100
AcDbEntity
  8
RACCORDO
100
AcDbLine
 62
250
  6
CONTINUOUS
 10
71.6329793985
 20
43.8309237007
 11
-71.6329793985
 21
43.8309237007
  0
LINE
  5
281
100
AcDbEntity
  8
0
100
AcDbLine
 62
7
  6
CONTINUOUS
 10
71.8020556979
 20
44.0
 11
-71.8020556979
 21
44.0
  0
LWPOLYLINE
  5
282
100
AcDbEntity
  8
0
100
AcDbPolyline
 62
7
  6
CONTINUOUS
 90
3
 70
0
 43
0.3500000006
 10
-2.0357142191
 20
53.3928556366
 10
-3.5357143936
 20
53.3928556366
 10
-2.8928572569
 20
55.7499985657
  0
LWPOLYLINE
  5
283
100
AcDbEntity
  8
0
100
AcDbPolyline
 62
7
  6
CONTINUOUS
 90
13
 70
0
 43
0.3500000006
 10
78.83571698
 20
0.4285709152
 10
78.6214324951
 20
0.1428575134
 10
77.9785699768
 20
0.1428575134
 10
77.5500010071
 20
0.4285709152
 10
77.5500010071
 20
1.0714289017
 10
77.9785699768
 20
1.3571423035
 10
78.6214324951
 20
1.3571423035
 10
78.83571698
 20
1.0714289017
 10
79.2642859497
 20
1.5000001373
 10
80.1214329529
 20
1.5000001373
 10
80.5500019226
 20
1.0714289017
 10
80.5500019226
 20
0.4285709152
 10
80.1214329529
 20
-0.0000003204
  0
LWPOLYLINE
  5
284
100
AcDbEntity
  8
0
100
AcDbPolyline
 62
7
  6
CONTINUOUS
 90
13
 70
0
 43
0.3500000006
 10
78.83571698
 20
-1.9285708809
 10
78.6214324951
 20
-2.2142854156
 10
77.9785699768
 20
-2.2142854156
 10
77.5500010071
 20
-1.9285708809
 10
77.5500010071
 20
-1.2857140274
 10
77.9785699768
 20
-1.0000006256
 10
78.6214324951
 20
-1.0000006256
 10
78.83571698
 20
-1.2857140274
 10
79.2642859497
 20
-0.8571427917
 10
80.1214329529
 20
-0.8571427917
 10
80.5500019226
 20
-1.2857140274
 10
80.5500019226
 20
-1.9285708809
 10
80.1214329529
 20
-2.3571432495
  0
LINE
  5
285
100
AcDbEntity
  8
RACCORDO
100
AcDbLine
 62
250
  6
CONTINUOUS
 10
71.6329793985
 20
-43.3316089333
 11
71.6329793985
 21
-43.8309237007
  0
LINE
  5
286
100
AcDbEntity
  8
RACCORDO
100
AcDbLine
 62
250
  6
CONTINUOUS
 10
71.6329793985
 20
43.3316089333
 11
71.6329793985
 21
43.8309237007
  0
LINE
  5
287
100
AcDbEntity
  8
RACCORDO
100
AcDbLine
 62
250
  6
CONTINUOUS
 10
72.6316089333
 20
-42.3329793985
 11
72.6316089333
 21
42.3329793985
  0
LINE
  5
288
100
AcDbEntity
  8
RACCORDO
100
AcDbLine
 62
250
  6
CONTINUOUS
 10
73.1309237007
 20
-42.3329793985
 11
73.1309237007
 21
42.3329793985
  0
LINE
  5
289
100
AcDbEntity
  8
0
100
AcDbLine
 62
7
  6
CONTINUOUS
 10
73.3
 20
-42.5020556979
 11
73.3
 21
42.5020556979
  0
LWPOLYLINE
  5
28A
100
AcDbEntity
  8
0
100
AcDbPolyline
 62
7
  6
CONTINUOUS
 90
3
 70
0
 43
0.3500000006
 10
-128.3274659729
 20
64.8784795532
 10
-127.4703189697
 20
65.7356265564
 10
-127.4703189697
 20
62.7356256409
  0
LINE
  5
28B
100
AcDbEntity
  8
RACCORDO
100
AcDbLine
 62
7
  6
CONTINUOUS
 10
-116.5511679781
 20
-43.8309237007
 11
-113.325
 21
-44.0
  0
LINE
  5
28C
100
AcDbEntity
  8
RACCORDO
100
AcDbLine
 62
7
  6
CONTINUOUS
 10
-111.5215095187
 20
-43.1763747358
 11
-112.875
 21
-43.2
  0
LINE
  5
28D
100
AcDbEntity
  8
0
100
AcDbLine
 62
250
  6
CONTINUOUS
 10
-113.325
 20
-42.5020556979
 11
-112.875
 21
-42.497941481
  0
LINE
  5
28E
100
AcDbEntity
  8
RACCORDO
100
AcDbLine
 62
250
  6
CONTINUOUS
 10
-111.325
 20
-42.497941481
 11
-112.875
 21
-42.497941481
  0
LINE
  5
28F
100
AcDbEntity
  8
RACCORDO
100
AcDbLine
 62
250
  6
CONTINUOUS
 10
-117.025
 20
-42.3329793985
 11
-116.5511679781
 21
-42.3329793985
  0
LINE
  5
290
100
AcDbEntity
  8
RACCORDO
100
AcDbLine
 62
250
  6
CONTINUOUS
 10
-116.5511679781
 20
-42.3329793985
 11
-113.325
 21
-42.5020556979
  0
LWPOLYLINE
  5
291
100
AcDbEntity
  8
0
100
AcDbPolyline
 62
7
  6
CONTINUOUS
 90
3
 70
0
 43
0.3500000006
 10
-123.5417489319
 20
63.0213413086
 10
-123.6131801147
 20
62.8070568237
 10
-123.7560334167
 20
62.521341156
  0
LWPOLYLINE
  5
292
100
AcDbEntity
  8
0
100
AcDbPolyline
 62
7
  6
CONTINUOUS
 90
3
 70
0
 43
0.3500000006
 10
-123.4621513367
 20
53.0099406281
 10
-123.5335734558
 20
52.7956561432
 10
-123.6764358215
 20
52.5099404755
  0
LINE
  5
293
100
AcDbEntity
  8
RACCORDO
100
AcDbLine
 62
7
  6
CONTINUOUS
 10
-111.325
 20
-23.1838060007
 11
-106.987529002
 21
-21.9809188338
  0
LINE
  5
294
100
AcDbEntity
  8
RACCORDO
100
AcDbLine
 62
250
  6
CONTINUOUS
 10
-111.325
 20
-22.9767415744
 11
-106.787995415
 21
-21.7185188465
  0
LINE
  5
295
100
AcDbEntity
  8
RACCORDO
100
AcDbLine
 62
7
  6
CONTINUOUS
 10
-110.1031094257
 20
-20.8399092472
 11
-111.325
 21
-21.0008680531
  0
LINE
  5
296
100
AcDbEntity
  8
RACCORDO
100
AcDbLine
 62
7
  6
CONTINUOUS
 10
-110.1125783734
 20
-20.8120146271
 11
-111.325
 21
-20.9715398297
  0
LINE
  5
297
100
AcDbEntity
  8
RACCORDO
100
AcDbLine
 62
7
  6
CONTINUOUS
 10
-108.1947956403
 20
-20.0143002674
 11
-108.5211615949
 21
-20.0143251228
  0
LINE
  5
298
100
AcDbEntity
  8
RACCORDO
100
AcDbLine
 62
7
  6
CONTINUOUS
 10
-108.5288385618
 20
-19.0143257075
 11
-108.1857781428
 21
-19.0142995806
  0
LINE
  5
299
100
AcDbEntity
  8
RACCORDO
100
AcDbLine
 62
7
  6
CONTINUOUS
 10
-108.1857781428
 20
-19.9857004194
 11
-108.5288385618
 21
-19.9856742925
  0
LINE
  5
29A
100
AcDbEntity
  8
RACCORDO
100
AcDbLine
 62
7
  6
CONTINUOUS
 10
-108.5211615949
 20
-18.9856748772
 11
-108.1947956403
 21
-18.9856997326
  0
LINE
  5
29B
100
AcDbEntity
  8
RACCORDO
100
AcDbLine
 62
7
  6
CONTINUOUS
 10
-111.325
 20
-18.0284601703
 11
-110.1125783734
 21
-18.1879853729
  0
LINE
  5
29C
100
AcDbEntity
  8
RACCORDO
100
AcDbLine
 62
7
  6
CONTINUOUS
 10
-111.325
 20
-17.9991319469
 11
-110.1031094257
 21
-18.1600907528
  0
LWPOLYLINE
  5
29D
100
AcDbEntity
  8
0
100
AcDbPolyline
 62
7
  6
CONTINUOUS
 90
13
 70
0
 43
0.3500000006
 10
-126.6131810303
 20
63.5927635803
 10
-126.6131810303
 20
64.8784795532
 10
-126.3988965454
 20
65.3070485229
 10
-125.970318512
 20
65.7356265564
 10
-125.7560340271
 20
65.7356265564
 10
-125.3274650574
 20
65.3070485229
 10
-125.1131805725
 20
64.8784795532
 10
-125.1131805725
 20
63.5927635803
 10
-125.3274650574
 20
63.1641946106
 10
-125.7560340271
 20
62.7356256409
 10
-125.970318512
 20
62.7356256409
 10
-126.3988965454
 20
63.1641946106
 10
-126.6131810303
 20
63.5927635803
  0
LINE
  5
29E
100
AcDbEntity
  8
RACCORDO
100
AcDbLine
 62
7
  6
CONTINUOUS
 10
-108.5211615949
 20
18.9856748772
 11
-109.7336589078
 21
18.2855326002
  0
LINE
  5
29F
100
AcDbEntity
  8
RACCORDO
100
AcDbLine
 62
7
  6
CONTINUOUS
 10
-108.5288385618
 20
19.0143257075
 11
-109.7431094121
 21
18.3133728881
  0
LINE
  5
2A0
100
AcDbEntity
  8
RACCORDO
100
AcDbLine
 62
250
  6
CONTINUOUS
 10
-106.787995415
 20
-17.2814811535
 11
-111.325
 21
-16.0232584256
  0
LINE
  5
2A1
100
AcDbEntity
  8
RACCORDO
100
AcDbLine
 62
7
  6
CONTINUOUS
 10
-106.987529002
 20
-17.0190811662
 11
-111.325
 21
-15.8161939993
  0
LINE
  5
2A2
100
AcDbEntity
  8
RACCORDO
100
AcDbLine
 62
7
  6
CONTINUOUS
 10
-109.7431094121
 20
-18.3133728881
 11
-108.5288385618
 21
-19.0143257075
  0
LINE
  5
2A3
100
AcDbEntity
  8
RACCORDO
100
AcDbLine
 62
7
  6
CONTINUOUS
 10
-109.7336589078
 20
-18.2855326002
 11
-108.5211615949
 21
-18.9856748772
  0
LINE
  5
2A4
100
AcDbEntity
  8
RACCORDO
100
AcDbLine
 62
7
  6
CONTINUOUS
 10
-107.6122373187
 20
20.1665851688
 11
-106.8808672422
 21
20.6787640065
  0
LINE
  5
2A5
100
AcDbEntity
  8
RACCORDO
100
AcDbLine
 62
7
  6
CONTINUOUS
 10
-107.6212272711
 20
20.195097655
 11
-106.8808672422
 21
20.7134344954
  0
LINE
  5
2A6
100
AcDbEntity
  8
RACCORDO
100
AcDbLine
 62
7
  6
CONTINUOUS
 10
-106.8808672422
 20
-20.7134344954
 11
-107.6212272711
 21
-20.195097655
  0
LINE
  5
2A7
100
AcDbEntity
  8
RACCORDO
100
AcDbLine
 62
7
  6
CONTINUOUS
 10
-106.8808672422
 20
-20.6787640065
 11
-107.6122373187
 21
-20.1665851688
  0
LWPOLYLINE
  5
2A8
100
AcDbEntity
  8
0
100
AcDbPolyline
 62
7
  6
CONTINUOUS
 90
4
 70
0
 43
0.3500000006
 10
-122.4621510315
 20
55.0813678894
 10
-122.4621510315
 20
55.7242258759
 10
-120.9621505737
 20
55.7242258759
 10
-121.8192885132
 20
52.7242249603
  0
LWPOLYLINE
  5
2A9
100
AcDbEntity
  8
0
100
AcDbPolyline
 62
7
  6
CONTINUOUS
 90
2
 70
0
 43
0.3500000006
 10
-121.5417483215
 20
62.7356256409
 10
-121.5417483215
 20
64.2356260986
  0
LINE
  5
2AA
100
AcDbEntity
  8
RACCORDO
100
AcDbLine
 62
7
  6
CONTINUOUS
 10
-106.625
 20
17.4958310055
 11
-106.987529002
 21
17.0190811662
  0
LINE
  5
2AB
100
AcDbEntity
  8
RACCORDO
100
AcDbLine
 62
7
  6
CONTINUOUS
 10
-106.625
 20
-17.4958310055
 11
-106.987529002
 21
-17.0190811662
  0
LINE
  5
2AC
100
AcDbEntity
  8
RACCORDO
100
AcDbLine
 62
7
  6
CONTINUOUS
 10
-117.025
 20
-43.3316089333
 11
-117.025
 21
43.3316089333
  0
LINE
  5
2AD
100
AcDbEntity
  8
RACCORDO
100
AcDbLine
 62
250
  6
CONTINUOUS
 10
-116.5511679781
 20
-42.3329793985
 11
-116.5511679781
 21
42.3329793985
  0
LINE
  5
2AE
100
AcDbEntity
  8
RACCORDO
100
AcDbLine
 62
250
  6
CONTINUOUS
 10
-110.1125783734
 20
20.8120146271
 11
-110.1031094257
 21
20.8399092472
  0
LINE
  5
2AF
100
AcDbEntity
  8
RACCORDO
100
AcDbLine
 62
250
  6
CONTINUOUS
 10
-109.7431094121
 20
20.6866271119
 11
-109.7336589078
 21
20.7144673998
  0
LINE
  5
2B0
100
AcDbEntity
  8
RACCORDO
100
AcDbLine
 62
250
  6
CONTINUOUS
 10
-110.1125783734
 20
-20.8120146271
 11
-110.1031094257
 21
-20.8399092472
  0
LINE
  5
2B1
100
AcDbEntity
  8
RACCORDO
100
AcDbLine
 62
250
  6
CONTINUOUS
 10
-109.7431094121
 20
-20.6866271119
 11
-109.7336589078
 21
-20.7144673998
  0
LINE
  5
2B2
100
AcDbEntity
  8
0
100
AcDbLine
 62
7
  6
CONTINUOUS
 10
-113.325
 20
-44.0
 11
-113.325
 21
44.0
  0
LINE
  5
2B3
100
AcDbEntity
  8
0
100
AcDbLine
 62
7
  6
CONTINUOUS
 10
-112.875
 20
-43.2
 11
-112.875
 21
43.2
  0
LINE
  5
2B4
100
AcDbEntity
  8
RACCORDO
100
AcDbLine
 62
250
  6
CONTINUOUS
 10
-111.5215095187
 20
43.1763747358
 11
-111.5215095187
 21
-43.1763747358
  0
LINE
  5
2B5
100
AcDbEntity
  8
DRAFT
100
AcDbLine
 62
7
  6
CONTINUOUS
 10
-108.5288385618
 20
19.9856742925
 11
-108.5211615949
 21
20.0143251228
  0
LINE
  5
2B6
100
AcDbEntity
  8
RACCORDO
100
AcDbLine
 62
250
  6
CONTINUOUS
 10
-108.1947956403
 20
18.9856997326
 11
-108.1857781428
 21
19.0142995806
  0
LINE
  5
2B7
100
AcDbEntity
  8
RACCORDO
100
AcDbLine
 62
250
  6
CONTINUOUS
 10
-107.6212272711
 20
18.804902345
 11
-107.6122373187
 21
18.8334148312
  0
LINE
  5
2B8
100
AcDbEntity
  8
RACCORDO
100
AcDbLine
 62
250
  6
CONTINUOUS
 10
-108.1947956403
 20
-18.9856997326
 11
-108.1857781428
 21
-19.0142995806
  0
LINE
  5
2B9
100
AcDbEntity
  8
RACCORDO
100
AcDbLine
 62
250
  6
CONTINUOUS
 10
-107.6212272711
 20
-18.804902345
 11
-107.6122373187
 21
-18.8334148312
  0
LINE
  5
2BA
100
AcDbEntity
  8
DRAFT
100
AcDbLine
 62
7
  6
CONTINUOUS
 10
-108.5288385618
 20
-19.9856742925
 11
-108.5211615949
 21
-20.0143251228
  0
LINE
  5
2BB
100
AcDbEntity
  8
RACCORDO
100
AcDbLine
 62
7
  6
CONTINUOUS
 10
-111.325
 20
42.9764051967
 11
-111.325
 21
-42.9764051967
  0
LINE
  5
2BC
100
AcDbEntity
  8
RACCORDO
100
AcDbLine
 62
250
  6
CONTINUOUS
 10
-106.8808672422
 20
20.7134344954
 11
-106.8808672422
 21
20.6787640065
  0
LINE
  5
2BD
100
AcDbEntity
  8
RACCORDO
100
AcDbLine
 62
250
  6
CONTINUOUS
 10
-106.8808672422
 20
-18.2865655046
 11
-106.8808672422
 21
-18.3212359935
  0
LINE
  5
2BE
100
AcDbEntity
  8
RACCORDO
100
AcDbLine
 62
250
  6
CONTINUOUS
 10
-106.8808672422
 20
-20.7134344954
 11
-106.8808672422
 21
-20.6787640065
  0
LINE
  5
2BF
100
AcDbEntity
  8
RACCORDO
100
AcDbLine
 62
250
  6
CONTINUOUS
 10
-106.8808672422
 20
18.2865655046
 11
-106.8808672422
 21
18.3212359935
  0
LINE
  5
2C0
100
AcDbEntity
  8
SMUSSO
100
AcDbLine
 62
7
  6
CONTINUOUS
 10
-106.625
 20
-21.5041689945
 11
-106.625
 21
-21.2049390001
  0
LINE
  5
2C1
100
AcDbEntity
  8
SMUSSO
100
AcDbLine
 62
7
  6
CONTINUOUS
 10
-106.625
 20
-17.7950609999
 11
-106.625
 21
-17.4958310055
  0
LINE
  5
2C2
100
AcDbEntity
  8
SMUSSO
100
AcDbLine
 62
7
  6
CONTINUOUS
 10
-106.625
 20
17.4958310055
 11
-106.625
 21
17.7950609999
  0
LINE
  5
2C3
100
AcDbEntity
  8
SMUSSO
100
AcDbLine
 62
7
  6
CONTINUOUS
 10
-106.625
 20
21.2049390001
 11
-106.625
 21
21.5041689945
  0
LINE
  5
2C4
100
AcDbEntity
  8
DRAFT
100
AcDbLine
 62
7
  6
CONTINUOUS
 10
-108.5288385618
 20
-19.0143257075
 11
-108.5211615949
 21
-18.9856748772
  0
LINE
  5
2C5
100
AcDbEntity
  8
RACCORDO
100
AcDbLine
 62
250
  6
CONTINUOUS
 10
-110.1125783734
 20
-18.1879853729
 11
-110.1031094257
 21
-18.1600907528
  0
LINE
  5
2C6
100
AcDbEntity
  8
RACCORDO
100
AcDbLine
 62
250
  6
CONTINUOUS
 10
-109.7431094121
 20
-18.3133728881
 11
-109.7336589078
 21
-18.2855326002
  0
LINE
  5
2C7
100
AcDbEntity
  8
RACCORDO
100
AcDbLine
 62
250
  6
CONTINUOUS
 10
-110.1125783734
 20
18.1879853729
 11
-110.1031094257
 21
18.1600907528
  0
LINE
  5
2C8
100
AcDbEntity
  8
RACCORDO
100
AcDbLine
 62
250
  6
CONTINUOUS
 10
-109.7431094121
 20
18.3133728881
 11
-109.7336589078
 21
18.2855326002
  0
LINE
  5
2C9
100
AcDbEntity
  8
DRAFT
100
AcDbLine
 62
7
  6
CONTINUOUS
 10
-108.5288385618
 20
19.0143257075
 11
-108.5211615949
 21
18.9856748772
  0
LINE
  5
2CA
100
AcDbEntity
  8
RACCORDO
100
AcDbLine
 62
250
  6
CONTINUOUS
 10
-108.1947956403
 20
-20.0143002674
 11
-108.1857781428
 21
-19.9857004194
  0
LINE
  5
2CB
100
AcDbEntity
  8
RACCORDO
100
AcDbLine
 62
250
  6
CONTINUOUS
 10
-107.6212272711
 20
-20.195097655
 11
-107.6122373187
 21
-20.1665851688
  0
LINE
  5
2CC
100
AcDbEntity
  8
RACCORDO
100
AcDbLine
 62
250
  6
CONTINUOUS
 10
-108.1947956403
 20
20.0143002674
 11
-108.1857781428
 21
19.9857004194
  0
LINE
  5
2CD
100
AcDbEntity
  8
RACCORDO
100
AcDbLine
 62
250
  6
CONTINUOUS
 10
-107.6212272711
 20
20.195097655
 11
-107.6122373187
 21
20.1665851688
  0
LINE
  5
2CE
100
AcDbEntity
  8
RACCORDO
100
AcDbLine
 62
7
  6
CONTINUOUS
 10
-111.325
 20
15.8161939993
 11
-106.987529002
 21
17.0190811662
  0
LWPOLYLINE
  5
2CF
100
AcDbEntity
  8
0
100
AcDbPolyline
 62
7
  6
CONTINUOUS
 90
10
 70
0
 43
0.3500000006
 10
-123.5335734558
 20
53.2242251129
 10
-123.4621513367
 20
53.0813672791
 10
-123.4621513367
 20
53.0099406281
 10
-123.6050046387
 20
52.8670827942
 10
-123.6764358215
 20
52.8670827942
 10
-123.7478579407
 20
52.9385139771
 10
-123.7478579407
 20
53.0099406281
 10
-123.6764358215
 20
53.1527984619
 10
-123.6050046387
 20
53.2242251129
 10
-123.5335734558
 20
53.2242251129
  0
LINE
  5
2D0
100
AcDbEntity
  8
RACCORDO
100
AcDbLine
 62
7
  6
CONTINUOUS
 10
-106.625
 20
-21.5041689945
 11
-106.987529002
 21
-21.9809188338
  0
LINE
  5
2D1
100
AcDbEntity
  8
RACCORDO
100
AcDbLine
 62
7
  6
CONTINUOUS
 10
-107.6122373187
 20
-18.8334148312
 11
-106.8808672422
 21
-18.3212359935
  0
LINE
  5
2D2
100
AcDbEntity
  8
RACCORDO
100
AcDbLine
 62
7
  6
CONTINUOUS
 10
-107.6212272711
 20
-18.804902345
 11
-106.8808672422
 21
-18.2865655046
  0
LINE
  5
2D3
100
AcDbEntity
  8
RACCORDO
100
AcDbLine
 62
250
  6
CONTINUOUS
 10
-111.325
 20
16.0232584256
 11
-106.787995415
 21
17.2814811535
  0
LINE
  5
2D4
100
AcDbEntity
  8
RACCORDO
100
AcDbLine
 62
7
  6
CONTINUOUS
 10
-110.1031094257
 20
18.1600907528
 11
-111.325
 21
17.9991319469
  0
LINE
  5
2D5
100
AcDbEntity
  8
RACCORDO
100
AcDbLine
 62
7
  6
CONTINUOUS
 10
-110.1125783734
 20
18.1879853729
 11
-111.325
 21
18.0284601703
  0
LINE
  5
2D6
100
AcDbEntity
  8
RACCORDO
100
AcDbLine
 62
7
  6
CONTINUOUS
 10
-106.8808672422
 20
18.2865655046
 11
-107.6212272711
 21
18.804902345
  0
LINE
  5
2D7
100
AcDbEntity
  8
RACCORDO
100
AcDbLine
 62
7
  6
CONTINUOUS
 10
-106.8808672422
 20
18.3212359935
 11
-107.6122373187
 21
18.8334148312
  0
LINE
  5
2D8
100
AcDbEntity
  8
RACCORDO
100
AcDbLine
 62
7
  6
CONTINUOUS
 10
-106.625
 20
21.5041689945
 11
-106.987529002
 21
21.9809188338
  0
LWPOLYLINE
  5
2D9
100
AcDbEntity
  8
0
100
AcDbPolyline
 62
7
  6
CONTINUOUS
 90
10
 70
0
 43
0.3500000006
 10
-123.6131801147
 20
63.2356257935
 10
-123.5417489319
 20
63.0927634277
 10
-123.5417489319
 20
63.0213413086
 10
-123.6846112976
 20
62.8784789429
 10
-123.7560334167
 20
62.8784789429
 10
-123.8274645996
 20
62.9499101257
 10
-123.8274645996
 20
63.0213413086
 10
-123.7560334167
 20
63.1641946106
 10
-123.6846112976
 20
63.2356257935
 10
-123.6131801147
 20
63.2356257935
  0
LINE
  5
2DA
100
AcDbEntity
  8
0
100
AcDbLine
 62
7
  6
CONTINUOUS
 10
-113.325
 20
-44.0
 11
-112.875
 21
-43.2
  0
LINE
  5
2DB
100
AcDbEntity
  8
RACCORDO
100
AcDbLine
 62
7
  6
CONTINUOUS
 10
-108.5211615949
 20
-20.0143251228
 11
-109.7336589078
 21
-20.7144673998
  0
LINE
  5
2DC
100
AcDbEntity
  8
RACCORDO
100
AcDbLine
 62
7
  6
CONTINUOUS
 10
-108.5288385618
 20
-19.9856742925
 11
-109.7431094121
 21
-20.6866271119
  0
LINE
  5
2DD
100
AcDbEntity
  8
RACCORDO
100
AcDbLine
 62
7
  6
CONTINUOUS
 10
-108.1947956403
 20
18.9856997326
 11
-108.5211615949
 21
18.9856748772
  0
LINE
  5
2DE
100
AcDbEntity
  8
RACCORDO
100
AcDbLine
 62
7
  6
CONTINUOUS
 10
-108.5288385618
 20
19.9856742925
 11
-108.1857781428
 21
19.9857004194
  0
LINE
  5
2DF
100
AcDbEntity
  8
RACCORDO
100
AcDbLine
 62
7
  6
CONTINUOUS
 10
-108.1857781428
 20
19.0142995806
 11
-108.5288385618
 21
19.0143257075
  0
LINE
  5
2E0
100
AcDbEntity
  8
RACCORDO
100
AcDbLine
 62
7
  6
CONTINUOUS
 10
-108.5211615949
 20
20.0143251228
 11
-108.1947956403
 21
20.0143002674
  0
LINE
  5
2E1
100
AcDbEntity
  8
RACCORDO
100
AcDbLine
 62
7
  6
CONTINUOUS
 10
-111.325
 20
20.9715398297
 11
-110.1125783734
 21
20.8120146271
  0
LINE
  5
2E2
100
AcDbEntity
  8
RACCORDO
100
AcDbLine
 62
7
  6
CONTINUOUS
 10
-111.325
 20
21.0008680531
 11
-110.1031094257
 21
20.8399092472
  0
LINE
  5
2E3
100
AcDbEntity
  8
RACCORDO
100
AcDbLine
 62
7
  6
CONTINUOUS
 10
-109.7431094121
 20
20.6866271119
 11
-108.5288385618
 21
19.9856742925
  0
LINE
  5
2E4
100
AcDbEntity
  8
RACCORDO
100
AcDbLine
 62
7
  6
CONTINUOUS
 10
-109.7336589078
 20
20.7144673998
 11
-108.5211615949
 21
20.0143251228
  0
LINE
  5
2E5
100
AcDbEntity
  8
0
100
AcDbLine
 62
7
  6
CONTINUOUS
 10
-113.325
 20
44.0
 11
-112.875
 21
43.2
  0
LINE
  5
2E6
100
AcDbEntity
  8
RACCORDO
100
AcDbLine
 62
250
  6
CONTINUOUS
 10
-106.787995415
 20
21.7185188465
 11
-111.325
 21
22.9767415744
  0
LINE
  5
2E7
100
AcDbEntity
  8
RACCORDO
100
AcDbLine
 62
7
  6
CONTINUOUS
 10
-106.987529002
 20
21.9809188338
 11
-111.325
 21
23.1838060007
  0
LINE
  5
2E8
100
AcDbEntity
  8
RACCORDO
100
AcDbLine
 62
250
  6
CONTINUOUS
 10
-116.5511679781
 20
42.3329793985
 11
-113.325
 21
42.5020556979
  0
LINE
  5
2E9
100
AcDbEntity
  8
RACCORDO
100
AcDbLine
 62
7
  6
CONTINUOUS
 10
-116.5511679781
 20
43.8309237007
 11
-113.325
 21
44.0
  0
LINE
  5
2EA
100
AcDbEntity
  8
RACCORDO
100
AcDbLine
 62
250
  6
CONTINUOUS
 10
-117.025
 20
42.3329793985
 11
-116.5511679781
 21
42.3329793985
  0
LINE
  5
2EB
100
AcDbEntity
  8
RACCORDO
100
AcDbLine
 62
250
  6
CONTINUOUS
 10
-111.325
 20
42.497941481
 11
-112.875
 21
42.497941481
  0
LWPOLYLINE
  5
2EC
100
AcDbEntity
  8
0
100
AcDbPolyline
 62
7
  6
CONTINUOUS
 90
8
 70
0
 43
0.3500000006
 10
-126.3192898865
 20
52.7242249603
 10
-125.462151947
 20
52.7242249603
 10
-125.0335739136
 20
53.1527984619
 10
-125.0335739136
 20
54.0099409332
 10
-125.462151947
 20
54.4385144348
 10
-126.3192898865
 20
54.4385144348
 10
-126.3192898865
 20
55.7242258759
 10
-125.0335739136
 20
55.7242258759
  0
LWPOLYLINE
  5
2ED
100
AcDbEntity
  8
0
100
AcDbPolyline
 62
7
  6
CONTINUOUS
 90
3
 70
0
 43
0.3500000006
 10
-121.0417481689
 20
63.3784790955
 10
-122.5417486267
 20
63.3784790955
 10
-121.8988951721
 20
65.7356265564
  0
LINE
  5
2EE
100
AcDbEntity
  8
0
100
AcDbLine
 62
250
  6
CONTINUOUS
 10
-113.325
 20
42.5020556979
 11
-112.875
 21
42.497941481
  0
LINE
  5
2EF
100
AcDbEntity
  8
RACCORDO
100
AcDbLine
 62
7
  6
CONTINUOUS
 10
-111.5215095187
 20
43.1763747358
 11
-112.875
 21
43.2
  0
ARC
  5
2F0
100
AcDbEntity
  8
RACCORDO
100
AcDbCircle
 62
250
  6
CONTINUOUS
 10
71.6318847546
 20
42.3318847547
 40
1.4990282578
100
AcDbArc
 50
0.0418391125
 51
89.9581608825
  0
ARC
  5
2F1
100
AcDbEntity
  8
RACCORDO
100
AcDbCircle
 62
250
  6
CONTINUOUS
 10
-71.6318847547
 20
42.3318847546
 40
1.4990282578
100
AcDbArc
 50
90.0418391125
 51
179.9581608825
  0
ARC
  5
2F2
100
AcDbEntity
  8
RACCORDO
100
AcDbCircle
 62
250
  6
CONTINUOUS
 10
-71.6318849232
 20
-42.3318849234
 40
1.4990282578
100
AcDbArc
 50
180.0418326724
 51
269.9581673227
  0
ARC
  5
2F3
100
AcDbEntity
  8
RACCORDO
100
AcDbCircle
 62
250
  6
CONTINUOUS
 10
71.6318849234
 20
-42.3318849232
 40
1.4990282578
100
AcDbArc
 50
270.0418326724
 51
359.9581673227
  0
ARC
  5
2F4
100
AcDbEntity
  8
0
100
AcDbCircle
 62
7
  6
CONTINUOUS
 10
71.8028117748
 20
-42.5028117748
 40
1.497180289
100
AcDbArc
 50
269.9710657544
 51
0.0289342456
  0
ARC
  5
2F5
100
AcDbEntity
  8
0
100
AcDbCircle
 62
7
  6
CONTINUOUS
 10
71.8028117748
 20
42.5028117748
 40
1.497180289
100
AcDbArc
 50
359.9710657544
 51
90.0289342456
  0
ARC
  5
2F6
100
AcDbEntity
  8
0
100
AcDbCircle
 62
7
  6
CONTINUOUS
 10
-71.802811775
 20
42.502811775
 40
1.4971802886
100
AcDbArc
 50
89.971065747
 51
180.028934253
  0
ARC
  5
2F7
100
AcDbEntity
  8
0
100
AcDbCircle
 62
7
  6
CONTINUOUS
 10
-71.802811775
 20
-42.502811775
 40
1.4971802885
100
AcDbArc
 50
179.9710657459
 51
270.0289342541
  0
ARC
  5
2F8
100
AcDbEntity
  8
RACCORDO
100
AcDbCircle
 62
250
  6
CONTINUOUS
 10
71.6334800427
 20
42.3334800427
 40
0.9981233445
100
AcDbArc
 50
359.9712614317
 51
90.0287385677
  0
ARC
  5
2F9
100
AcDbEntity
  8
RACCORDO
100
AcDbCircle
 62
250
  6
CONTINUOUS
 10
-71.6334800429
 20
-42.3334800429
 40
0.9981233441
100
AcDbArc
 50
179.9712614207
 51
270.0287385788
  0
ARC
  5
2FA
100
AcDbEntity
  8
RACCORDO
100
AcDbCircle
 62
250
  6
CONTINUOUS
 10
-71.6334800428
 20
42.3334800428
 40
0.9981233444
100
AcDbArc
 50
89.9712614274
 51
180.0287385721
  0
ARC
  5
2FB
100
AcDbEntity
  8
RACCORDO
100
AcDbCircle
 62
250
  6
CONTINUOUS
 10
71.6334800429
 20
-42.3334800429
 40
0.9981233442
100
AcDbArc
 50
269.9712614215
 51
0.0287385779
  0
ARC
  5
2FC
100
AcDbEntity
  8
RACCORDO
100
AcDbCircle
 62
250
  6
CONTINUOUS
 10
44.7339440448
 20
26.2839440448
 40
0.7998277141
100
AcDbArc
 50
359.9964920297
 51
90.0035079704
  0
ARC
  5
2FD
100
AcDbEntity
  8
RACCORDO
100
AcDbCircle
 62
250
  6
CONTINUOUS
 10
-44.7339438616
 20
26.2839438616
 40
0.7998277141
100
AcDbArc
 50
89.9965051517
 51
180.0034948484
  0
ARC
  5
2FE
100
AcDbEntity
  8
RACCORDO
100
AcDbCircle
 62
250
  6
CONTINUOUS
 10
-44.7339438616
 20
-26.2839438616
 40
0.7998277141
100
AcDbArc
 50
179.9965051517
 51
270.0034948484
  0
ARC
  5
2FF
100
AcDbEntity
  8
RACCORDO
100
AcDbCircle
 62
250
  6
CONTINUOUS
 10
44.7339440448
 20
-26.2839440448
 40
0.7998277141
100
AcDbArc
 50
269.9964920297
 51
0.0035079704
  0
ARC
  5
300
100
AcDbEntity
  8
RACCORDO
100
AcDbCircle
 62
250
  6
CONTINUOUS
 10
44.7340482223
 20
26.2840482223
 40
0.4997700581
100
AcDbArc
 50
359.9824422142
 51
90.0175577785
  0
ARC
  5
301
100
AcDbEntity
  8
RACCORDO
100
AcDbCircle
 62
250
  6
CONTINUOUS
 10
44.7340482223
 20
-26.2840482222
 40
0.4997700581
100
AcDbArc
 50
269.9824422186
 51
0.0175577741
  0
ARC
  5
302
100
AcDbEntity
  8
RACCORDO
100
AcDbCircle
 62
250
  6
CONTINUOUS
 10
-44.7340537825
 20
26.2840537825
 40
0.4997632191
100
AcDbArc
 50
89.9818045629
 51
180.0181954293
  0
ARC
  5
303
100
AcDbEntity
  8
RACCORDO
100
AcDbCircle
 62
250
  6
CONTINUOUS
 10
-44.7340537825
 20
-26.2840537825
 40
0.4997632191
100
AcDbArc
 50
179.9818045629
 51
270.0181954293
  0
ARC
  5
304
100
AcDbEntity
  8
RACCORDO
100
AcDbCircle
 62
7
  6
CONTINUOUS
 10
-116.525
 20
43.3316089333
 40
0.5
100
AcDbArc
 50
93.0
 51
180.0
  0
ARC
  5
305
100
AcDbEntity
  8
RACCORDO
100
AcDbCircle
 62
7
  6
CONTINUOUS
 10
-116.525
 20
-43.3316089333
 40
0.5
100
AcDbArc
 50
180.0
 51
267.0
  0
ARC
  5
306
100
AcDbEntity
  8
RACCORDO
100
AcDbCircle
 62
7
  6
CONTINUOUS
 10
-111.525
 20
-42.9764051967
 40
0.2
100
AcDbArc
 50
271.0
 51
360.0
  0
ARC
  5
307
100
AcDbEntity
  8
RACCORDO
100
AcDbCircle
 62
7
  6
CONTINUOUS
 10
-111.525
 20
42.9764051967
 40
0.2
100
AcDbArc
 50
0.0
 51
89.0
  0
SPLINE
  5
308
100
AcDbEntity
  8
RACCORDO
100
AcDbSpline
 62
250
  6
CONTINUOUS
 70
0
 71
3
 72
23
 73
19
 74
0
 42
0.0000001
 43
0.0000001
 44
0.0000000001
 40
0.0
 40
0.0
 40
0.0
 40
0.0
 40
0.0014990165
 40
0.0052285958
 40
0.0113087017
 40
0.0197506123
 40
0.0305400069
 40
0.0436534339
 40
0.076737203
 40
0.1186911912
 40
0.1691206232
 40
0.2275436391
 40
0.2933985095
 40
0.3660555919
 40
0.4448121863
 40
0.6175585605
 40
0.8050108447
 40
1.0
 40
1.0
 40
1.0
 40
1.0
 10
-116.5511679781
 20
-43.8309237007
 30
0.0
 10
-116.5519158052
 20
-43.8308842437
 30
0.0
 10
-116.5528542922
 20
-43.8275310015
 30
0.0
 10
-116.5538432678
 20
-43.8227263306
 30
0.0
 10
-116.5548887831
 20
-43.8132479839
 30
0.0
 10
-116.555876322
 20
-43.8008222907
 30
0.0
 10
-116.5568167857
 20
-43.784620614
 30
0.0
 10
-116.5580757211
 20
-43.7562118543
 30
0.0
 10
-116.5593583998
 20
-43.7121693559
 30
0.0
 10
-116.5605187373
 20
-43.6495088573
 30
0.0
 10
-116.561355125
 20
-43.5741709366
 30
0.0
 10
-116.5618573653
 20
-43.4868942413
 30
0.0
 10
-116.5620144953
 20
-43.3885105111
 30
0.0
 10
-116.5618232376
 20
-43.2799692541
 30
0.0
 10
-116.5610790566
 20
-43.1180293433
 30
0.0
 10
-116.5592535066
 20
-42.898746242
 30
0.0
 10
-116.5558612888
 20
-42.621409951
 30
0.0
 10
-116.5528639412
 20
-42.4303758301
 30
0.0
 10
-116.5511679781
 20
-42.3329793985
 30
0.0
  0
SPLINE
  5
309
100
AcDbEntity
  8
RACCORDO
100
AcDbSpline
 62
250
  6
CONTINUOUS
 70
0
 71
3
 72
23
 73
19
 74
0
 42
0.0000001
 43
0.0000001
 44
0.0000000001
 40
0.0
 40
0.0
 40
0.0
 40
0.0
 40
0.1949507484
 40
0.3823763617
 40
0.5551247296
 40
0.6338860899
 40
0.7065482685
 40
0.7724091617
 40
0.8308366348
 40
0.8812733455
 40
0.9232358371
 40
0.9563284546
 40
0.9694472211
 40
0.9802419235
 40
0.9886865713
 40
0.9947687776
 40
0.9985001813
 40
1.0
 40
1.0
 40
1.0
 40
1.0
 10
-116.5511679781
 20
42.3329793985
 30
0.0
 10
-116.5528632772
 20
42.4303566424
 30
0.0
 10
-116.5558608258
 20
42.6213582263
 30
0.0
 10
-116.5592524241
 20
42.8986629815
 30
0.0
 10
-116.5610785496
 20
43.1179361092
 30
0.0
 10
-116.561822904
 20
43.279881927
 30
0.0
 10
-116.5620144713
 20
43.3884311084
 30
0.0
 10
-116.5618576968
 20
43.4868226117
 30
0.0
 10
-116.5613555344
 20
43.5741081706
 30
0.0
 10
-116.5605195383
 20
43.6494562002
 30
0.0
 10
-116.5593594823
 20
43.7121290022
 30
0.0
 10
-116.558076588
 20
43.7561828422
 30
0.0
 10
-116.5568175027
 20
43.7846013191
 30
0.0
 10
-116.5558772082
 20
43.8008097518
 30
0.0
 10
-116.5548893397
 20
43.8132403996
 30
0.0
 10
-116.5538438394
 20
43.8227223256
 30
0.0
 10
-116.5528542742
 20
43.8275287988
 30
0.0
 10
-116.5519161995
 20
43.8308841122
 30
0.0
 10
-116.5511679781
 20
43.8309237007
 30
0.0
  0
ELLIPSE
  5
30A
100
AcDbEntity
  8
RACCORDO
100
AcDbEllipse
 62
7
  6
CONTINUOUS
 10
-44.724923836
 20
26.274923836
 30
0.0
 11
0.3536610946
 21
-0.3536610946
 31
0.0
 40
0.9996954599
 41
2.3563467834
 42
3.9268385237
  0
ELLIPSE
  5
30B
100
AcDbEntity
  8
RACCORDO
100
AcDbEllipse
 62
7
  6
CONTINUOUS
 10
44.724923836
 20
26.274923836
 30
0.0
 11
-0.3536610946
 21
-0.3536610946
 31
0.0
 40
0.9996954599
 41
2.3563467834
 42
3.9268385237
  0
ELLIPSE
  5
30C
100
AcDbEntity
  8
RACCORDO
100
AcDbEllipse
 62
7
  6
CONTINUOUS
 10
44.724923836
 20
-26.274923836
 30
0.0
 11
-0.3536610946
 21
0.3536610946
 31
0.0
 40
0.9996954599
 41
2.3563467834
 42
3.9268385237
  0
ELLIPSE
  5
30D
100
AcDbEntity
  8
RACCORDO
100
AcDbEllipse
 62
7
  6
CONTINUOUS
 10
-44.724923836
 20
-26.274923836
 30
0.0
 11
0.3536610946
 21
0.3536610946
 31
0.0
 40
0.9996954599
 41
2.3563467834
 42
3.9268385237
  0
ELLIPSE
  5
30E
100
AcDbEntity
  8
RACCORDO
100
AcDbEllipse
 62
7
  6
CONTINUOUS
 10
-110.2431278129
 20
19.1794756089
 30
0.0
 11
0.6834624322
 21
-0.7300969116
 31
0.0
 40
0.9999021658
 41
-0.6215488028
 42
-0.2288648691
  0
ELLIPSE
  5
30F
100
AcDbEntity
  8
RACCORDO
100
AcDbEllipse
 62
7
  6
CONTINUOUS
 10
-110.2431278129
 20
-19.8205243911
 30
0.0
 11
0.6834624321
 21
-0.7300969116
 31
0.0
 40
0.9999021658
 41
-0.6215488028
 42
-0.2288648691
  0
ELLIPSE
  5
310
100
AcDbEntity
  8
RACCORDO
100
AcDbEllipse
 62
7
  6
CONTINUOUS
 10
-110.2431278129
 20
-19.1794756089
 30
0.0
 11
0.6834624322
 21
0.7300969116
 31
0.0
 40
0.9999021658
 41
0.2288648691
 42
0.6215488029
  0
ELLIPSE
  5
311
100
AcDbEntity
  8
RACCORDO
100
AcDbEllipse
 62
7
  6
CONTINUOUS
 10
-110.2431278129
 20
19.8205243911
 30
0.0
 11
0.6834624322
 21
0.7300969116
 31
0.0
 40
0.9999021658
 41
0.2288648692
 42
0.6215488029
  0
ELLIPSE
  5
312
100
AcDbEntity
  8
RACCORDO
100
AcDbEllipse
 62
7
  6
CONTINUOUS
 10
-107.225
 20
21.170260305
 30
0.0
 11
0.293647852
 21
0.5232882412
 31
0.0
 40
0.9998910868
 41
-2.0193374768
 42
-1.0593797267
  0
ELLIPSE
  5
313
100
AcDbEntity
  8
RACCORDO
100
AcDbEllipse
 62
7
  6
CONTINUOUS
 10
-108.1858021539
 20
20.9857384959
 30
0.0
 11
0.3568044359
 21
0.9342305227
 31
0.0
 40
0.9999217833
 41
-2.7767159861
 42
-2.1658747591
  0
ELLIPSE
  5
314
100
AcDbEntity
  8
RACCORDO
100
AcDbEllipse
 62
7
  6
CONTINUOUS
 10
-108.1858021539
 20
18.0142615041
 30
0.0
 11
-0.356804436
 21
0.9342305227
 31
0.0
 40
0.9999217833
 41
-0.9757178946
 42
-0.3648766676
  0
ELLIPSE
  5
315
100
AcDbEntity
  8
RACCORDO
100
AcDbEllipse
 62
7
  6
CONTINUOUS
 10
-107.225
 20
17.829739695
 30
0.0
 11
-0.2936478519
 21
0.5232882412
 31
0.0
 40
0.9998910868
 41
-2.0822129268
 42
-1.1222551767
  0
ELLIPSE
  5
316
100
AcDbEntity
  8
RACCORDO
100
AcDbEllipse
 62
7
  6
CONTINUOUS
 10
-108.1858021539
 20
-20.9857384959
 30
0.0
 11
-0.356804436
 21
0.9342305227
 31
0.0
 40
0.9999217833
 41
-0.9757178946
 42
-0.3648766675
  0
ELLIPSE
  5
317
100
AcDbEntity
  8
RACCORDO
100
AcDbEllipse
 62
7
  6
CONTINUOUS
 10
-107.225
 20
-21.170260305
 30
0.0
 11
-0.2936478519
 21
0.5232882412
 31
0.0
 40
0.9998910868
 41
-2.0822129268
 42
-1.1222551767
  0
ELLIPSE
  5
318
100
AcDbEntity
  8
RACCORDO
100
AcDbEllipse
 62
7
  6
CONTINUOUS
 10
-107.225
 20
-17.829739695
 30
0.0
 11
0.2936478519
 21
0.5232882412
 31
0.0
 40
0.9998910868
 41
-2.0193374769
 42
-1.0593797268
  0
ELLIPSE
  5
319
100
AcDbEntity
  8
RACCORDO
100
AcDbEllipse
 62
7
  6
CONTINUOUS
 10
-108.1858021539
 20
-18.0142615041
 30
0.0
 11
0.356804436
 21
0.9342305227
 31
0.0
 40
0.9999217833
 41
-2.776715986
 42
-2.165874759
  0
ELLIPSE
  5
31A
100
AcDbEntity
  8
RACCORDO
100
AcDbEllipse
 62
7
  6
CONTINUOUS
 10
-108.1948196525
 20
21.0143383476
 30
0.0
 11
0.6700822476
 21
-0.7423990616
 31
0.0
 40
0.9998993095
 41
-0.7342704795
 42
-0.1234292525
  0
ELLIPSE
  5
31B
100
AcDbEntity
  8
RACCORDO
100
AcDbEllipse
 62
7
  6
CONTINUOUS
 10
-107.225
 20
21.2049947833
 30
0.0
 11
-0.2936478519
 21
0.5232882412
 31
0.0
 40
0.9998910868
 41
-3.0421706768
 42
-2.0822129267
  0
ELLIPSE
  5
31C
100
AcDbEntity
  8
RACCORDO
100
AcDbEllipse
 62
7
  6
CONTINUOUS
 10
-107.225
 20
17.7950052167
 30
0.0
 11
0.2936478519
 21
0.5232882412
 31
0.0
 40
0.9998910868
 41
-1.0593797269
 42
-0.0994219768
  0
ELLIPSE
  5
31D
100
AcDbEntity
  8
RACCORDO
100
AcDbEllipse
 62
7
  6
CONTINUOUS
 10
-108.1948196525
 20
17.9856616524
 30
0.0
 11
0.6700822477
 21
0.7423990616
 31
0.0
 40
0.9998993095
 41
0.1234292526
 42
0.7342704796
  0
ELLIPSE
  5
31E
100
AcDbEntity
  8
RACCORDO
100
AcDbEllipse
 62
7
  6
CONTINUOUS
 10
-107.225
 20
-21.2049947833
 30
0.0
 11
0.2936478519
 21
0.5232882412
 31
0.0
 40
0.9998910868
 41
-1.0593797267
 42
-0.0994219766
  0
ELLIPSE
  5
31F
100
AcDbEntity
  8
RACCORDO
100
AcDbEllipse
 62
7
  6
CONTINUOUS
 10
-108.1948196525
 20
-21.0143383476
 30
0.0
 11
0.6700822476
 21
0.7423990616
 31
0.0
 40
0.9998993095
 41
0.1234292525
 42
0.7342704795
  0
ELLIPSE
  5
320
100
AcDbEntity
  8
RACCORDO
100
AcDbEllipse
 62
7
  6
CONTINUOUS
 10
-108.1948196525
 20
-17.9856616524
 30
0.0
 11
0.6700822477
 21
-0.7423990616
 31
0.0
 40
0.9998993095
 41
-0.7342704796
 42
-0.1234292526
  0
ELLIPSE
  5
321
100
AcDbEntity
  8
RACCORDO
100
AcDbEllipse
 62
7
  6
CONTINUOUS
 10
-107.225
 20
-17.7950052167
 30
0.0
 11
-0.2936478519
 21
0.5232882412
 31
0.0
 40
0.9998910868
 41
-3.0421706769
 42
-2.0822129268
  0
ELLIPSE
  5
322
100
AcDbEntity
  8
RACCORDO
100
AcDbEllipse
 62
7
  6
CONTINUOUS
 10
-110.2336523485
 20
19.1515617908
 30
0.0
 11
0.35225342
 21
0.9359525223
 31
0.0
 40
0.9999250355
 41
-2.6506877207
 42
-2.258003787
  0
ELLIPSE
  5
323
100
AcDbEntity
  8
RACCORDO
100
AcDbEllipse
 62
7
  6
CONTINUOUS
 10
-110.2336523485
 20
-19.8484382092
 30
0.0
 11
0.3522534199
 21
0.9359525224
 31
0.0
 40
0.9999250355
 41
-2.6506877208
 42
-2.2580037871
  0
ELLIPSE
  5
324
100
AcDbEntity
  8
RACCORDO
100
AcDbEllipse
 62
7
  6
CONTINUOUS
 10
-110.2336523485
 20
-19.1515617908
 30
0.0
 11
-0.35225342
 21
0.9359525224
 31
0.0
 40
0.9999250355
 41
-0.8835888665
 42
-0.4909049328
  0
ELLIPSE
  5
325
100
AcDbEntity
  8
RACCORDO
100
AcDbEllipse
 62
7
  6
CONTINUOUS
 10
-110.2336523485
 20
19.8484382092
 30
0.0
 11
-0.35225342
 21
0.9359525223
 31
0.0
 40
0.9999250355
 41
-0.8835888666
 42
-0.4909049329
  0
ENDSEC
  0
SECTION
  2
OBJECTS
  0
DICTIONARY
  5
C
100
AcDbDictionary
280
0
281
1
  3
ACAD_GROUP
350
D
  3
ACAD_MLINESTYLE
350
17
  3
ACAD_LAYOUT
350
1A
  3
ACAD_PLOTSETTINGS
350
19
  3
ACAD_PLOTSTYLENAME
350
E
  0
DICTIONARY
  5
D
102
{ACAD_REACTORS
330
C
102
}
100
AcDbDictionary
280
0
281
1
  0
ACDBDICTIONARYWDFLT
  5
E
102
{ACAD_REACTORS
330
C
102
}
100
AcDbDictionary
281
1
  3
Normal
350
F
100
AcDbDictionaryWithDefault
340
F
  0
DICTIONARY
  5
17
102
{ACAD_REACTORS
330
C
102
}
100
AcDbDictionary
280
0
281
1
  3
Standard
350
18
  0
DICTIONARY
  5
19
102
{ACAD_REACTORS
330
C
102
}
100
AcDbDictionary
281
1
  0
DICTIONARY
  5
1A
102
{ACAD_REACTORS
330
C
102
}
100
AcDbDictionary
281
1
  3
Model
350
326
  3
Layout1
350
327
  0
ACDBPLACEHOLDER
  5
F
102
{ACAD_REACTORS
330
E
102
}
  0
MLINESTYLE
  5
18
102
{ACAD_REACTORS
330
17
102
}
100
AcDbMlineStyle
  2
STANDARD
 70
0
  3

 62
256
 51
90.0
 52
90.0
 71
2
 49
0.5
 62
256
  6
BYLAYER
 49
-0.5
 62
256
  6
BYLAYER
  0
LAYOUT
  5
326
102
{ACAD_REACTORS
330
1A
102
}
100
AcDbPlotSettings
  1

  2
none_device
  4
ISO_A4_(297.00_x_210.00_MM)
  6

 40
0.0
 41
0.0
 42
0.0
 43
0.0
 44
297.0
 45
210.0
 46
0.0
 47
0.0
 48
0.0
 49
0.0
140
0.0
141
0.0
142
1.0
143
1.0
 70
1024
 72
1
 73
0
 74
0
  7

 75
0
147
1.0
148
0.0
149
0.0
100
AcDbLayout
  1
Model
 70
0
 71
0
 10
0.0
 20
0.0
 11
297.0
 21
210.0
 12
0.0
 22
0.0
 32
0.0
 14
0.0
 24
0.0
 34
0.0
 15
0.0
 25
0.0
 35
0.0
146
0.0
 13
0.0
 23
0.0
 33
0.0
 16
1.0
 26
0.0
 36
0.0
 17
0.0
 27
1.0
 37
0.0
 76
0
330
213
345
0
346
0
  0
LAYOUT
  5
327
102
{ACAD_REACTORS
330
1A
102
}
100
AcDbPlotSettings
  1

  2
none_device
  4
ISO_A4_(297.00_x_210.00_MM)
  6

 40
0.0
 41
0.0
 42
0.0
 43
0.0
 44
297.0
 45
210.0
 46
0.0
 47
0.0
 48
0.0
 49
0.0
140
0.0
141
0.0
142
1.0
143
1.0
 70
0
 72
1
 73
0
 74
0
  7

 75
0
147
1.0
148
0.0
149
0.0
100
AcDbLayout
  1
Layout1
 70
0
 71
1
 10
0.0
 20
0.0
 11
297.0
 21
210.0
 12
0.0
 22
0.0
 32
0.0
 14
0.0
 24
0.0
 34
0.0
 15
0.0
 25
0.0
 35
0.0
146
0.0
 13
0.0
 23
0.0
 33
0.0
 16
1.0
 26
0.0
 36
0.0
 17
0.0
 27
1.0
 37
0.0
 76
0
330
214
345
0
346
0
  0
ENDSEC
  0
EOF
