  0
SECTION
  2
HEADER
  9
$ACADVER
  1
AC1024
  9
$DWGCODEPAGE
  3
ANSI_1252
  9
$EXTMAX
 10
297.0
 20
210.0
 30
0.0
  9
$EXTMIN
 10
0.0
 20
0.0
 30
0.0
  9
$LIMMIN
 10
0.0
 20
0.0
  9
$LIMMAX
 10
297.0
 20
210.0
  9
$VIEWCTR
 10
148.5
 20
105.0
  9
$VIEWSIZE
 40
210.0
  9
$CLAYER
  8
0
  9
$LTSCALE
 40
16.335
  9
$CELTYPE
  6
BYLAYER
  9
$DIMSCALE
 40
1.0
  9
$DIMASZ
 40
3.0
  9
$DIMEXO
 40
0.5
  9
$DIMDLI
 40
11.286
  9
$DIMEXE
 40
1.5
  9
$DIMCEN
 40
2.673
  9
$DIMLFAC
 40
1.0
  9
$DIMBLK
  1
_FILLED
  9
$DIMALT
 70
0
  9
$DIMALTF
 40
0.0393700787
  9
$DIMTXT
 40
3.0
  9
$DIMTOL
 70
1
  9
$DIMLIM
 70
0
  9
$DIMTFAC
 40
1.0
  9
$DIMTP
 40
0.01
  9
$DIMTM
 40
0.01
  9
$DIMGAP
 40
0.625
  9
$DIMDSEP
 70
44
  9
$AUNITS
 70
0
  9
$PDMODE
 70
3
  9
$PDSIZE
 40
3.0
  9
$HANDSEED
  5
317
  9
$TILEMODE
 70
1
  9
$MEASUREMENT
 70
1
  9
$INSUNITS
 70
4
  0
ENDSEC
  0
SECTION
  2
CLASSES
  0
CLASS
  1
ACDBDICTIONARYWDFLT
  2
AcDbDictionaryWithDefault
  3
AutoCAD 2000
 90
0
 91
1
280
0
281
0
  0
CLASS
  1
ACDBPLACEHOLDER
  2
AcDbPlaceHolder
  3
AutoCAD 2000
 90
0
 91
1
280
0
281
0
  0
CLASS
  1
LAYOUT
  2
AcDbLayout
  3
AutoCAD 2000
 90
0
 91
0
280
0
281
0
  0
ENDSEC
  0
SECTION
  2
TABLES
  0
TABLE
  2
VPORT
  5
8
100
AcDbSymbolTable
 70
2
  0
VPORT
  5
1F4
100
AcDbSymbolTableRecord
100
AcDbViewportTableRecord
  2
*ACTIVE
 70
0
 10
0.0
 20
0.0
 11
1.0
 21
1.0
 12
148.5
 22
105.0
 13
0.0
 23
0.0
 14
1.0
 24
1.0
 15
0.0
 25
0.0
 16
0.0
 26
0.0
 36
1.0
 17
0.0
 27
0.0
 37
0.0
 40
210.0
 41
1.4142857143
 42
50.0
 43
0.0
 44
0.0
 50
0.0
 51
0.0
 71
0
 72
100
 73
1
 74
1
 75
0
 76
0
 77
0
 78
0
  0
ENDTAB
  0
TABLE
  2
LTYPE
  5
5
100
AcDbSymbolTable
 70
6
  0
LTYPE
  5
14
100
AcDbSymbolTableRecord
100
AcDbLinetypeTableRecord
  2
BYBLOCK
 70
0
  3

 72
65
 73
0
 40
0.0
  0
LTYPE
  5
15
100
AcDbSymbolTableRecord
100
AcDbLinetypeTableRecord
  2
BYLAYER
 70
0
  3

 72
65
 73
0
 40
0.0
  0
LTYPE
  5
16
100
AcDbSymbolTableRecord
100
AcDbLinetypeTableRecord
  2
CONTINUOUS
 70
64
  3
Solid line
 72
65
 73
0
 40
0.0
  0
LTYPE
  5
1F5
100
AcDbSymbolTableRecord
100
AcDbLinetypeTableRecord
  2
CENTER
 70
64
  3
____ _ ____ _ ____ _ ____ _ ____ _ ____ _ ____
 72
65
 73
4
 40
0.6
 49
0.375
 74
0
 49
-0.075
 74
0
 49
0.075
 74
0
 49
-0.075
 74
0
  0
LTYPE
  5
1F6
100
AcDbSymbolTableRecord
100
AcDbLinetypeTableRecord
  2
HIDDEN
 70
64
  3
- - - - - - - - - - - - - - - - - - - -
 72
65
 73
2
 40
0.2
 49
0.1
 74
0
 49
-0.1
 74
0
  0
LTYPE
  5
1F7
100
AcDbSymbolTableRecord
100
AcDbLinetypeTableRecord
  2
PHANTOM
 70
64
  3
_____ _ _ _____ _ _ _____ _ _ _____
 72
65
 73
6
 40
0.8
 49
0.45
 74
0
 49
-0.05
 74
0
 49
0.1
 74
0
 49
-0.05
 74
0
 49
0.1
 74
0
 49
-0.05
 74
0
  0
LTYPE
  5
1F8
100
AcDbSymbolTableRecord
100
AcDbLinetypeTableRecord
  2
DOT
 70
64
  3
. . . . . . . . . . . . . . . . . . . .
 72
65
 73
2
 40
0.2
 49
0.1
 74
0
 49
-0.1
 74
0
  0
LTYPE
  5
1F9
100
AcDbSymbolTableRecord
100
AcDbLinetypeTableRecord
  2
DASHED
 70
64
  3
- - - - - - - - - - - - - - - - - - - -
 72
65
 73
2
 40
0.2
 49
0.1
 74
0
 49
-0.1
 74
0
  0
ENDTAB
  0
TABLE
  2
LAYER
  5
2
100
AcDbSymbolTable
 70
36
  0
LAYER
  5
10
100
AcDbSymbolTableRecord
100
AcDbLayerTableRecord
  2
0
 70
0
 62
7
  6
CONTINUOUS
370
-3
390
F
  0
LAYER
  5
1FA
100
AcDbSymbolTableRecord
100
AcDbLayerTableRecord
  2
DEFAULT_1
 70
0
 62
7
  6
CENTER
370
-3
390
F
  0
LAYER
  5
1FB
100
AcDbSymbolTableRecord
100
AcDbLayerTableRecord
  2
DEFAULT_2
 70
0
 62
7
  6
HIDDEN
370
-3
390
F
  0
LAYER
  5
1FC
100
AcDbSymbolTableRecord
100
AcDbLayerTableRecord
  2
DEFAULT_3
 70
0
 62
7
  6
PHANTOM
370
-3
390
F
  0
LAYER
  5
1FD
100
AcDbSymbolTableRecord
100
AcDbLayerTableRecord
  2
ASSI
 70
0
 62
7
  6
CONTINUOUS
370
-3
390
F
  0
LAYER
  5
1FE
100
AcDbSymbolTableRecord
100
AcDbLayerTableRecord
  2
COORDINATE
 70
0
 62
7
  6
CONTINUOUS
370
-3
390
F
  0
LAYER
  5
1FF
100
AcDbSymbolTableRecord
100
AcDbLayerTableRecord
  2
COPY_PUBLISH
 70
0
 62
7
  6
CONTINUOUS
370
-3
390
F
  0
LAYER
  5
200
100
AcDbSymbolTableRecord
100
AcDbLayerTableRecord
  2
COSMETICI
 70
0
 62
7
  6
CONTINUOUS
370
-3
390
F
  0
LAYER
  5
201
100
AcDbSymbolTableRecord
100
AcDbLayerTableRecord
  2
CURVE
 70
0
 62
7
  6
CONTINUOUS
370
-3
390
F
  0
LAYER
  5
202
100
AcDbSymbolTableRecord
100
AcDbLayerTableRecord
  2
DRAFT
 70
0
 62
7
  6
CONTINUOUS
370
-3
390
F
  0
LAYER
  5
203
100
AcDbSymbolTableRecord
100
AcDbLayerTableRecord
  2
IMPORT_IGES
 70
0
 62
7
  6
CONTINUOUS
370
-3
390
F
  0
LAYER
  5
204
100
AcDbSymbolTableRecord
100
AcDbLayerTableRecord
  2
INTF_1
 70
0
 62
7
  6
CONTINUOUS
370
-3
390
F
  0
LAYER
  5
205
100
AcDbSymbolTableRecord
100
AcDbLayerTableRecord
  2
INTF_11
 70
0
 62
7
  6
CONTINUOUS
370
-3
390
F
  0
LAYER
  5
206
100
AcDbSymbolTableRecord
100
AcDbLayerTableRecord
  2
INTF_13
 70
0
 62
7
  6
CONTINUOUS
370
-3
390
F
  0
LAYER
  5
207
100
AcDbSymbolTableRecord
100
AcDbLayerTableRecord
  2
INTF_2
 70
0
 62
7
  6
CONTINUOUS
370
-3
390
F
  0
LAYER
  5
208
100
AcDbSymbolTableRecord
100
AcDbLayerTableRecord
  2
NOTE
 70
0
 62
7
  6
CONTINUOUS
370
-3
390
F
  0
LAYER
  5
209
100
AcDbSymbolTableRecord
100
AcDbLayerTableRecord
  2
PIANI
 70
0
 62
7
  6
CONTINUOUS
370
-3
390
F
  0
LAYER
  5
20A
100
AcDbSymbolTableRecord
100
AcDbLayerTableRecord
  2
PUNTI
 70
0
 62
7
  6
CONTINUOUS
370
-3
390
F
  0
LAYER
  5
20B
100
AcDbSymbolTableRecord
100
AcDbLayerTableRecord
  2
RACCORDO
 70
0
 62
7
  6
CONTINUOUS
370
-3
390
F
  0
LAYER
  5
20C
100
AcDbSymbolTableRecord
100
AcDbLayerTableRecord
  2
SIMBOLI
 70
0
 62
7
  6
CONTINUOUS
370
-3
390
F
  0
LAYER
  5
20D
100
AcDbSymbolTableRecord
100
AcDbLayerTableRecord
  2
SMUSSO
 70
0
 62
7
  6
CONTINUOUS
370
-3
390
F
  0
LAYER
  5
20E
100
AcDbSymbolTableRecord
100
AcDbLayerTableRecord
  2
SNAPLINE
 70
0
 62
7
  6
CONTINUOUS
370
-3
390
F
  0
LAYER
  5
20F
100
AcDbSymbolTableRecord
100
AcDbLayerTableRecord
  2
SUPERFICI
 70
0
 62
7
  6
CONTINUOUS
370
-3
390
F
  0
LAYER
  5
210
100
AcDbSymbolTableRecord
100
AcDbLayerTableRecord
  2
TRASH
 70
0
 62
7
  6
CONTINUOUS
370
-3
390
F
  0
ENDTAB
  0
TABLE
  2
STYLE
  5
3
100
AcDbSymbolTable
 70
1
  0
STYLE
  5
11
100
AcDbSymbolTableRecord
100
AcDbTextStyleTableRecord
  2
STANDARD
 70
0
 40
0.0
 41
0.8
 50
0.0
 71
0
 42
0.2
  3
txt
  4

  0
STYLE
  5
211
100
AcDbSymbolTableRecord
100
AcDbTextStyleTableRecord
  2
TEXTSTYLE_1
 70
0
 40
0.0
 41
0.8
 50
0.0
 71
0
 42
0.2
  3
gdt
  4

  0
ENDTAB
  0
TABLE
  2
VIEW
  5
6
100
AcDbSymbolTable
 70
0
  0
ENDTAB
  0
TABLE
  2
UCS
  5
7
100
AcDbSymbolTable
 70
0
  0
ENDTAB
  0
TABLE
  2
APPID
  5
9
100
AcDbSymbolTable
 70
1
  0
APPID
  5
212
100
AcDbSymbolTableRecord
100
AcDbRegAppTableRecord
  2
ACAD
 70
0
  0
ENDTAB
  0
TABLE
  2
BLOCK_RECORD
  5
1
100
AcDbSymbolTable
 70
0
  0
BLOCK_RECORD
  5
213
100
AcDbSymbolTableRecord
100
AcDbBlockTableRecord
  2
*Model_Space
  0
BLOCK_RECORD
  5
214
100
AcDbSymbolTableRecord
100
AcDbBlockTableRecord
  2
*Paper_Space
  0
BLOCK_RECORD
  5
215
100
AcDbSymbolTableRecord
100
AcDbBlockTableRecord
  2
_FILLED
  0
BLOCK_RECORD
  5
216
100
AcDbSymbolTableRecord
100
AcDbBlockTableRecord
  2
*D0
  0
BLOCK_RECORD
  5
217
100
AcDbSymbolTableRecord
100
AcDbBlockTableRecord
  2
*D1
  0
BLOCK_RECORD
  5
218
100
AcDbSymbolTableRecord
100
AcDbBlockTableRecord
  2
*D2
  0
BLOCK_RECORD
  5
219
100
AcDbSymbolTableRecord
100
AcDbBlockTableRecord
  2
*D3
  0
ENDTAB
  0
TABLE
  2
DIMSTYLE
  5
A
100
AcDbSymbolTable
 70
1
100
AcDbDimStyleTable
 71
0
  0
DIMSTYLE
105
21A
100
AcDbSymbolTableRecord
100
AcDbDimStyleTableRecord
  2
STANDARD
 70
0
  3

  4

 40
1.0
 41
3.0
 42
0.5
 43
0.38
 44
1.5
 45
0.0
 46
0.0
 47
0.01
 48
0.01
140
3.0
141
0.09
142
0.0
143
25.4
144
1.0
145
0.0
146
1.0
147
0.625
 71
1
 72
0
 73
0
 74
0
 75
0
 76
0
 77
1
 78
8
 79
2
170
0
171
1
172
0
173
0
174
0
175
0
176
0
177
0
178
0
270
2
179
2
271
2
272
2
273
2
274
2
275
0
280
0
281
0
282
0
283
1
284
8
285
0
286
0
287
3
288
0
340
11
278
44
341
215
342
215
343
215
344
215
  0
DIMSTYLE
105
21B
100
AcDbSymbolTableRecord
100
AcDbDimStyleTableRecord
  2
DIMSTYLE_1
 70
0
  3

  4

 40
1.0
 41
3.0
 42
0.5
 43
0.38
 44
1.5
 45
0.0
 46
0.0
 47
0.0
 48
0.0
140
3.0
141
0.09
142
0.0
143
25.4
144
1.0
145
0.0
146
1.0
147
0.75
 71
0
 72
0
 73
0
 74
0
 75
0
 76
0
 77
1
 78
8
 79
2
170
0
171
1
172
0
173
0
174
0
175
0
176
0
177
0
178
0
270
2
179
2
271
2
272
2
273
2
274
2
275
0
280
0
281
0
282
0
283
1
284
8
285
0
286
0
287
3
288
0
340
11
278
44
341
215
342
215
343
215
344
215
  0
ENDTAB
  0
ENDSEC
  0
SECTION
  2
BLOCKS
  0
BLOCK
  5
20
100
AcDbEntity
  8
0
100
AcDbBlockBegin
  2
*Model_Space
 70
0
 10
0.0
 20
0.0
 30
0.0
  3
*Model_Space
  1

  0
ENDBLK
  5
21
100
AcDbEntity
  8
0
100
AcDbBlockEnd
  0
BLOCK
  5
1C
100
AcDbEntity
  8
0
100
AcDbBlockBegin
  2
*Paper_Space
 70
0
 10
0.0
 20
0.0
 30
0.0
  3
*Paper_Space
  1

  0
ENDBLK
  5
1D
100
AcDbEntity
  8
0
100
AcDbBlockEnd
  0
BLOCK
  5
21C
100
AcDbEntity
  8
0
100
AcDbBlockBegin
  2
_FILLED
 70
64
 10
0.0
 20
0.0
  3
_FILLED
  1

  0
SOLID
  5
21D
100
AcDbEntity
  8
0
  6
BYBLOCK
 62
0
100
AcDbTrace
 10
0.0
 20
0.0
 11
-1.0
 21
0.3166666667
 12
-1.0
 22
-0.3166666667
 13
-1.0
 23
-0.3166666667
  0
ENDBLK
  5
21E
100
AcDbEntity
  8
0
  6
BYBLOCK
 62
0
100
AcDbBlockEnd
  0
BLOCK
  5
21F
100
AcDbEntity
  8
0
100
AcDbBlockBegin
 62
7
  6
CONTINUOUS
  2
*D0
 70
65
 10
0.0
 20
0.0
  3
*D0
  1

  0
LINE
  5
220
100
AcDbEntity
  8
0
100
AcDbLine
 62
7
  6
CONTINUOUS
 10
-104.25
 20
43.0020556979
 11
-104.25
 21
53.5
  0
LINE
  5
221
100
AcDbEntity
  8
0
100
AcDbLine
 62
7
  6
CONTINUOUS
 10
104.25
 20
43.0020556979
 11
104.25
 21
53.5
  0
LINE
  5
222
100
AcDbEntity
  8
0
100
AcDbLine
 62
7
  6
CONTINUOUS
 10
-104.25
 20
52.0
 11
0.0
 21
52.0
  0
LINE
  5
223
100
AcDbEntity
  8
0
100
AcDbLine
 62
7
  6
CONTINUOUS
 10
104.25
 20
52.0
 11
0.0
 21
52.0
  0
INSERT
  5
224
100
AcDbEntity
  8
0
100
AcDbBlockReference
 62
7
  6
CONTINUOUS
  2
_FILLED
 10
-104.25
 20
52.0
 41
3.0
 42
3.0
 43
3.0
 50
180.0
  0
INSERT
  5
225
100
AcDbEntity
  8
0
100
AcDbBlockReference
 62
7
  6
CONTINUOUS
  2
_FILLED
 10
104.25
 20
52.0
 41
3.0
 42
3.0
 43
3.0
  0
ENDBLK
  5
226
100
AcDbEntity
  8
0
  6
BYBLOCK
 62
0
100
AcDbBlockEnd
  0
BLOCK
  5
227
100
AcDbEntity
  8
0
100
AcDbBlockBegin
 62
7
  6
CONTINUOUS
  2
*D1
 70
65
 10
0.0
 20
0.0
  3
*D1
  1

  0
LINE
  5
228
100
AcDbEntity
  8
0
100
AcDbLine
 62
7
  6
CONTINUOUS
 10
103.2520556979
 20
44.0
 11
113.75
 21
44.0
  0
LINE
  5
229
100
AcDbEntity
  8
0
100
AcDbLine
 62
7
  6
CONTINUOUS
 10
103.2520556979
 20
-44.0
 11
113.75
 21
-44.0
  0
LINE
  5
22A
100
AcDbEntity
  8
0
100
AcDbLine
 62
7
  6
CONTINUOUS
 10
112.25
 20
44.0
 11
112.25
 21
0.0
  0
LINE
  5
22B
100
AcDbEntity
  8
0
100
AcDbLine
 62
7
  6
CONTINUOUS
 10
112.25
 20
-44.0
 11
112.25
 21
0.0
  0
INSERT
  5
22C
100
AcDbEntity
  8
0
100
AcDbBlockReference
 62
7
  6
CONTINUOUS
  2
_FILLED
 10
112.25
 20
44.0
 41
3.0
 42
3.0
 43
3.0
 50
90.0
  0
INSERT
  5
22D
100
AcDbEntity
  8
0
100
AcDbBlockReference
 62
7
  6
CONTINUOUS
  2
_FILLED
 10
112.25
 20
-44.0
 41
3.0
 42
3.0
 43
3.0
 50
270.0
  0
ENDBLK
  5
22E
100
AcDbEntity
  8
0
  6
BYBLOCK
 62
0
100
AcDbBlockEnd
  0
BLOCK
  5
22F
100
AcDbEntity
  8
0
100
AcDbBlockBegin
 62
7
  6
CONTINUOUS
  2
*D2
 70
65
 10
0.0
 20
0.0
  3
*D2
  1

  0
LINE
  5
230
100
AcDbEntity
  8
0
100
AcDbLine
 62
7
  6
CONTINUOUS
 10
-156.8657746939
 20
42.7700900634
 11
-156.8657746939
 21
53.5052565705
  0
LINE
  5
231
100
AcDbEntity
  8
0
100
AcDbLine
 62
7
  6
CONTINUOUS
 10
-148.9657746939
 20
42.997941481
 11
-148.9657746939
 21
53.5052565705
  0
LINE
  5
232
100
AcDbEntity
  8
0
100
AcDbLine
 62
7
  6
CONTINUOUS
 10
-156.8657746939
 20
52.0052565705
 11
-167.0976337605
 21
52.0052565705
  0
LINE
  5
233
100
AcDbEntity
  8
0
100
AcDbLine
 62
7
  6
CONTINUOUS
 10
-167.0976337605
 20
52.0052565705
 11
-152.9157746939
 21
52.0052565705
  0
LINE
  5
234
100
AcDbEntity
  8
0
100
AcDbLine
 62
7
  6
CONTINUOUS
 10
-148.9657746939
 20
52.0052565705
 11
-144.9657746939
 21
52.0052565705
  0
LINE
  5
235
100
AcDbEntity
  8
0
100
AcDbLine
 62
7
  6
CONTINUOUS
 10
-144.9657746939
 20
52.0052565705
 11
-152.9157746939
 21
52.0052565705
  0
INSERT
  5
236
100
AcDbEntity
  8
0
100
AcDbBlockReference
 62
7
  6
CONTINUOUS
  2
_FILLED
 10
-156.8657746939
 20
52.0052565705
 41
3.0
 42
3.0
 43
3.0
  0
INSERT
  5
237
100
AcDbEntity
  8
0
100
AcDbBlockReference
 62
7
  6
CONTINUOUS
  2
_FILLED
 10
-148.9657746939
 20
52.0052565705
 41
3.0
 42
3.0
 43
3.0
 50
180.0
  0
ENDBLK
  5
238
100
AcDbEntity
  8
0
  6
BYBLOCK
 62
0
100
AcDbBlockEnd
  0
BLOCK
  5
239
100
AcDbEntity
  8
0
100
AcDbBlockBegin
 62
7
  6
CONTINUOUS
  2
*D3
 70
65
 10
0.0
 20
0.0
  3
*D3
  1

  0
LINE
  5
23A
100
AcDbEntity
  8
0
100
AcDbLine
 62
7
  6
CONTINUOUS
 10
-156.8657746939
 20
42.7700900634
 11
-156.8657746939
 21
63.5076659569
  0
LINE
  5
23B
100
AcDbEntity
  8
0
100
AcDbLine
 62
7
  6
CONTINUOUS
 10
-146.4657746939
 20
15.6541689945
 11
-146.4657746939
 21
63.5076659569
  0
LINE
  5
23C
100
AcDbEntity
  8
0
100
AcDbLine
 62
7
  6
CONTINUOUS
 10
-156.8657746939
 20
62.0076659569
 11
-168.6377791468
 21
62.0076659569
  0
LINE
  5
23D
100
AcDbEntity
  8
0
100
AcDbLine
 62
7
  6
CONTINUOUS
 10
-168.6377791468
 20
62.0076659569
 11
-151.6657746939
 21
62.0076659569
  0
LINE
  5
23E
100
AcDbEntity
  8
0
100
AcDbLine
 62
7
  6
CONTINUOUS
 10
-146.4657746939
 20
62.0076659569
 11
-142.4657746939
 21
62.0076659569
  0
LINE
  5
23F
100
AcDbEntity
  8
0
100
AcDbLine
 62
7
  6
CONTINUOUS
 10
-142.4657746939
 20
62.0076659569
 11
-151.6657746939
 21
62.0076659569
  0
INSERT
  5
240
100
AcDbEntity
  8
0
100
AcDbBlockReference
 62
7
  6
CONTINUOUS
  2
_FILLED
 10
-156.8657746939
 20
62.0076659569
 41
3.0
 42
3.0
 43
3.0
  0
INSERT
  5
241
100
AcDbEntity
  8
0
100
AcDbBlockReference
 62
7
  6
CONTINUOUS
  2
_FILLED
 10
-146.4657746939
 20
62.0076659569
 41
3.0
 42
3.0
 43
3.0
 50
180.0
  0
ENDBLK
  5
242
100
AcDbEntity
  8
0
  6
BYBLOCK
 62
0
100
AcDbBlockEnd
  0
ENDSEC
  0
SECTION
  2
ENTITIES
  0
DIMENSION
  5
243
100
AcDbEntity
  8
0
100
AcDbDimension
 62
7
  6
CONTINUOUS
  2
*D0
 10
104.25
 20
52.0
 11
-5.4642857143
 21
52.0
 70
160
 71
2
 72
2
 41
0.9
 42
208.5
  3
DIMSTYLE_1
100
AcDbAlignedDimension
 13
-104.25
 23
42.5020556979
 14
104.25
 24
42.5020556979
100
AcDbRotatedDimension
  0
DIMENSION
  5
244
100
AcDbEntity
  8
0
100
AcDbDimension
 62
7
  6
CONTINUOUS
  2
*D1
 10
112.25
 20
-44.0
 11
112.25
 21
-2.3571428571
 70
160
 71
2
 72
2
 41
0.9
 42
88.0
  3
DIMSTYLE_1
100
AcDbAlignedDimension
 13
102.7520556979
 23
44.0
 14
102.7520556979
 24
-44.0
 50
270.0
100
AcDbRotatedDimension
  0
DIMENSION
  5
245
100
AcDbEntity
  8
0
100
AcDbDimension
 62
7
  6
CONTINUOUS
  2
*D2
 10
-148.9657746939
 20
52.0052565705
 11
-167.0976337605
 21
52.0052565705
 70
160
 71
3
 72
2
 41
0.9
 42
7.9
  3
DIMSTYLE_1
100
AcDbAlignedDimension
 13
-156.8657746939
 23
42.2700900634
 14
-148.9657746939
 24
42.497941481
100
AcDbRotatedDimension
  0
DIMENSION
  5
246
100
AcDbEntity
  8
0
100
AcDbDimension
 62
7
  6
CONTINUOUS
  2
*D3
 10
-146.4657746939
 20
62.0076659569
 11
-168.6377791468
 21
62.0076659569
 70
160
 71
3
 72
2
 41
0.9
 42
10.4
  3
DIMSTYLE_1
100
AcDbAlignedDimension
 13
-156.8657746939
 23
42.2700900634
 14
-146.4657746939
 24
15.1541689945
100
AcDbRotatedDimension
  0
LINE
  5
247
100
AcDbEntity
  8
0
100
AcDbLine
 62
7
  6
CONTINUOUS
 10
-104.25
 20
42.5020556979
 11
-104.25
 21
-42.5020556979
  0
LINE
  5
248
100
AcDbEntity
  8
RACCORDO
100
AcDbLine
 62
250
  6
CONTINUOUS
 10
-104.0180343655
 20
42.2700900634
 11
-104.0180343655
 21
-42.2700900634
  0
LINE
  5
249
100
AcDbEntity
  8
RACCORDO
100
AcDbLine
 62
250
  6
CONTINUOUS
 10
-103.5187195982
 20
42.2700900634
 11
-103.5187195982
 21
-42.2700900634
  0
LINE
  5
24A
100
AcDbEntity
  8
RACCORDO
100
AcDbLine
 62
250
  6
CONTINUOUS
 10
-102.5200900634
 20
-43.2687195982
 11
-102.5200900634
 21
-43.7680343655
  0
LINE
  5
24B
100
AcDbEntity
  8
RACCORDO
100
AcDbLine
 62
250
  6
CONTINUOUS
 10
-102.5200900634
 20
43.2687195982
 11
-102.5200900634
 21
43.7680343655
  0
LINE
  5
24C
100
AcDbEntity
  8
RACCORDO
100
AcDbLine
 62
250
  6
CONTINUOUS
 10
-79.2837732309
 20
-26.2838950748
 11
-79.2837732309
 21
26.2838950748
  0
LINE
  5
24D
100
AcDbEntity
  8
RACCORDO
100
AcDbLine
 62
250
  6
CONTINUOUS
 10
-78.9838189223
 20
-26.2838950748
 11
-78.9838189223
 21
26.2838950748
  0
LINE
  5
24E
100
AcDbEntity
  8
RACCORDO
100
AcDbLine
 62
7
  6
CONTINUOUS
 10
-78.975
 20
26.2750761524
 11
-78.975
 21
-26.2750761524
  0
LINE
  5
24F
100
AcDbEntity
  8
RACCORDO
100
AcDbLine
 62
250
  6
CONTINUOUS
 10
-78.4838950748
 20
27.0837732309
 11
-78.4838950748
 21
26.7838189223
  0
LINE
  5
250
100
AcDbEntity
  8
RACCORDO
100
AcDbLine
 62
250
  6
CONTINUOUS
 10
-78.4838950748
 20
-27.0837732309
 11
-78.4838950748
 21
-26.7838189223
  0
LINE
  5
251
100
AcDbEntity
  8
RACCORDO
100
AcDbLine
 62
250
  6
CONTINUOUS
 10
-104.0180343655
 20
-42.2700900634
 11
-104.25
 21
-42.5020556979
  0
LINE
  5
252
100
AcDbEntity
  8
RACCORDO
100
AcDbLine
 62
250
  6
CONTINUOUS
 10
-102.5200900634
 20
-43.7680343655
 11
-102.7520556979
 21
-44.0
  0
LINE
  5
253
100
AcDbEntity
  8
RACCORDO
100
AcDbLine
 62
250
  6
CONTINUOUS
 10
-78.9838189223
 20
-26.2838950748
 11
-78.975
 21
-26.2750761524
  0
LINE
  5
254
100
AcDbEntity
  8
0
100
AcDbLine
 62
7
  6
CONTINUOUS
 10
-102.7520556979
 20
-44.0
 11
102.7520556979
 21
-44.0
  0
LINE
  5
255
100
AcDbEntity
  8
RACCORDO
100
AcDbLine
 62
250
  6
CONTINUOUS
 10
-102.5200900634
 20
-43.7680343655
 11
102.5200900634
 21
-43.7680343655
  0
LINE
  5
256
100
AcDbEntity
  8
RACCORDO
100
AcDbLine
 62
250
  6
CONTINUOUS
 10
-102.5200900634
 20
-43.2687195982
 11
102.5200900634
 21
-43.2687195982
  0
LINE
  5
257
100
AcDbEntity
  8
RACCORDO
100
AcDbLine
 62
250
  6
CONTINUOUS
 10
103.5187195982
 20
-42.2700900634
 11
104.0180343655
 21
-42.2700900634
  0
LINE
  5
258
100
AcDbEntity
  8
RACCORDO
100
AcDbLine
 62
250
  6
CONTINUOUS
 10
-103.5187195982
 20
-42.2700900634
 11
-104.0180343655
 21
-42.2700900634
  0
LINE
  5
259
100
AcDbEntity
  8
RACCORDO
100
AcDbLine
 62
250
  6
CONTINUOUS
 10
-104.0180343655
 20
42.2700900634
 11
-104.25
 21
42.5020556979
  0
LINE
  5
25A
100
AcDbEntity
  8
RACCORDO
100
AcDbLine
 62
250
  6
CONTINUOUS
 10
-102.5200900634
 20
43.7680343655
 11
-102.7520556979
 21
44.0
  0
LINE
  5
25B
100
AcDbEntity
  8
RACCORDO
100
AcDbLine
 62
250
  6
CONTINUOUS
 10
-78.9838189223
 20
26.2838950748
 11
-78.975
 21
26.2750761524
  0
LINE
  5
25C
100
AcDbEntity
  8
RACCORDO
100
AcDbLine
 62
250
  6
CONTINUOUS
 10
-78.4838950748
 20
-26.7838189223
 11
-78.4750761524
 21
-26.775
  0
LINE
  5
25D
100
AcDbEntity
  8
RACCORDO
100
AcDbLine
 62
250
  6
CONTINUOUS
 10
-78.4838950748
 20
26.7838189223
 11
-78.4750761524
 21
26.775
  0
LINE
  5
25E
100
AcDbEntity
  8
RACCORDO
100
AcDbLine
 62
250
  6
CONTINUOUS
 10
78.4838950748
 20
-27.0837732309
 11
-78.4838950748
 21
-27.0837732309
  0
LINE
  5
25F
100
AcDbEntity
  8
RACCORDO
100
AcDbLine
 62
250
  6
CONTINUOUS
 10
78.4838950748
 20
-26.7838189223
 11
-78.4838950748
 21
-26.7838189223
  0
LINE
  5
260
100
AcDbEntity
  8
RACCORDO
100
AcDbLine
 62
7
  6
CONTINUOUS
 10
-78.4750761524
 20
-26.775
 11
78.4750761524
 21
-26.775
  0
LINE
  5
261
100
AcDbEntity
  8
RACCORDO
100
AcDbLine
 62
250
  6
CONTINUOUS
 10
-79.2837732309
 20
-26.2838950748
 11
-78.9838189223
 21
-26.2838950748
  0
LINE
  5
262
100
AcDbEntity
  8
RACCORDO
100
AcDbLine
 62
250
  6
CONTINUOUS
 10
79.2837732309
 20
-26.2838950748
 11
78.9838189223
 21
-26.2838950748
  0
LWPOLYLINE
  5
263
100
AcDbEntity
  8
0
100
AcDbPolyline
 62
7
  6
CONTINUOUS
 90
3
 70
0
 43
0.3500000006
 10
2.3214286122
 20
53.0357133179
 10
2.2499999785
 20
52.821428833
 10
2.1071428528
 20
52.5357131653
  0
LWPOLYLINE
  5
264
100
AcDbEntity
  8
0
100
AcDbPolyline
 62
7
  6
CONTINUOUS
 90
13
 70
0
 43
0.3500000006
 10
-3.1071428747
 20
53.6071446533
 10
-3.1071428747
 20
54.8928560944
 10
-2.8928572569
 20
55.3214295959
 10
-2.464285738
 20
55.7499985657
 10
-2.2499999785
 20
55.7499985657
 10
-1.8214286013
 20
55.3214295959
 10
-1.6071428418
 20
54.8928560944
 10
-1.6071428418
 20
53.6071446533
 10
-1.8214286013
 20
53.1785711517
 10
-2.2499999785
 20
52.750002182
 10
-2.464285738
 20
52.750002182
 10
-2.8928572569
 20
53.1785711517
 10
-3.1071428747
 20
53.6071446533
  0
LWPOLYLINE
  5
265
100
AcDbEntity
  8
0
100
AcDbPolyline
 62
7
  6
CONTINUOUS
 90
4
 70
0
 43
0.3500000006
 10
-0.7500000165
 20
53.1785711517
 10
-0.7500000165
 20
54.035713623
 10
-0.3214285684
 20
54.4642871246
 10
0.3214285684
 20
54.4642871246
  0
LWPOLYLINE
  5
266
100
AcDbEntity
  8
0
100
AcDbPolyline
 62
7
  6
CONTINUOUS
 90
4
 70
0
 43
0.3500000006
 10
111.0714288025
 20
-2.3571432495
 10
110.2142817993
 20
-2.3571432495
 10
109.7857128296
 20
-1.9285708809
 10
109.7857128296
 20
-1.2857140274
  0
LWPOLYLINE
  5
267
100
AcDbEntity
  8
0
100
AcDbPolyline
 62
7
  6
CONTINUOUS
 90
4
 70
0
 43
0.3500000006
 10
111.0714288025
 20
-0.0000003204
 10
110.2142817993
 20
-0.0000003204
 10
109.7857128296
 20
0.4285709152
 10
109.7857128296
 20
1.0714289017
  0
LINE
  5
268
100
AcDbEntity
  8
RACCORDO
100
AcDbLine
 62
250
  6
CONTINUOUS
 10
-79.2837732309
 20
26.2838950748
 11
-78.9838189223
 21
26.2838950748
  0
LINE
  5
269
100
AcDbEntity
  8
RACCORDO
100
AcDbLine
 62
250
  6
CONTINUOUS
 10
79.2837732309
 20
26.2838950748
 11
78.9838189223
 21
26.2838950748
  0
LINE
  5
26A
100
AcDbEntity
  8
RACCORDO
100
AcDbLine
 62
7
  6
CONTINUOUS
 10
78.4750761524
 20
26.775
 11
-78.4750761524
 21
26.775
  0
LINE
  5
26B
100
AcDbEntity
  8
RACCORDO
100
AcDbLine
 62
250
  6
CONTINUOUS
 10
-78.4838950748
 20
26.7838189223
 11
78.4838950748
 21
26.7838189223
  0
LINE
  5
26C
100
AcDbEntity
  8
RACCORDO
100
AcDbLine
 62
250
  6
CONTINUOUS
 10
-78.4838950748
 20
27.0837732309
 11
78.4838950748
 21
27.0837732309
  0
LWPOLYLINE
  5
26D
100
AcDbEntity
  8
0
100
AcDbPolyline
 62
7
  6
CONTINUOUS
 90
10
 70
0
 43
0.3500000006
 10
2.2499999785
 20
53.2499978027
 10
2.3214286122
 20
53.1071445007
 10
2.3214286122
 20
53.0357133179
 10
2.1785714865
 20
52.892855484
 10
2.1071428528
 20
52.892855484
 10
2.0357142191
 20
52.9642866669
 10
2.0357142191
 20
53.0357133179
 10
2.1071428528
 20
53.1785711517
 10
2.1785714865
 20
53.2499978027
 10
2.2499999785
 20
53.2499978027
  0
LINE
  5
26E
100
AcDbEntity
  8
RACCORDO
100
AcDbLine
 62
250
  6
CONTINUOUS
 10
78.4838950748
 20
26.7838189223
 11
78.4750761524
 21
26.775
  0
LINE
  5
26F
100
AcDbEntity
  8
RACCORDO
100
AcDbLine
 62
250
  6
CONTINUOUS
 10
78.9838189223
 20
26.2838950748
 11
78.975
 21
26.2750761524
  0
LINE
  5
270
100
AcDbEntity
  8
RACCORDO
100
AcDbLine
 62
250
  6
CONTINUOUS
 10
78.4838950748
 20
-26.7838189223
 11
78.4750761524
 21
-26.775
  0
LINE
  5
271
100
AcDbEntity
  8
RACCORDO
100
AcDbLine
 62
250
  6
CONTINUOUS
 10
78.9838189223
 20
-26.2838950748
 11
78.975
 21
-26.2750761524
  0
LINE
  5
272
100
AcDbEntity
  8
RACCORDO
100
AcDbLine
 62
250
  6
CONTINUOUS
 10
102.5200900634
 20
43.7680343655
 11
102.7520556979
 21
44.0
  0
LINE
  5
273
100
AcDbEntity
  8
RACCORDO
100
AcDbLine
 62
250
  6
CONTINUOUS
 10
104.0180343655
 20
42.2700900634
 11
104.25
 21
42.5020556979
  0
LINE
  5
274
100
AcDbEntity
  8
RACCORDO
100
AcDbLine
 62
250
  6
CONTINUOUS
 10
103.5187195982
 20
42.2700900634
 11
104.0180343655
 21
42.2700900634
  0
LINE
  5
275
100
AcDbEntity
  8
RACCORDO
100
AcDbLine
 62
250
  6
CONTINUOUS
 10
-103.5187195982
 20
42.2700900634
 11
-104.0180343655
 21
42.2700900634
  0
LINE
  5
276
100
AcDbEntity
  8
RACCORDO
100
AcDbLine
 62
250
  6
CONTINUOUS
 10
102.5200900634
 20
43.2687195982
 11
-102.5200900634
 21
43.2687195982
  0
LINE
  5
277
100
AcDbEntity
  8
RACCORDO
100
AcDbLine
 62
250
  6
CONTINUOUS
 10
102.5200900634
 20
43.7680343655
 11
-102.5200900634
 21
43.7680343655
  0
LINE
  5
278
100
AcDbEntity
  8
0
100
AcDbLine
 62
7
  6
CONTINUOUS
 10
102.7520556979
 20
44.0
 11
-102.7520556979
 21
44.0
  0
LWPOLYLINE
  5
279
100
AcDbEntity
  8
0
100
AcDbPolyline
 62
7
  6
CONTINUOUS
 90
13
 70
0
 43
0.3500000006
 10
-0.3214285684
 20
54.4642871246
 10
-0.6071428907
 20
54.6785716095
 10
-0.6071428907
 20
55.3214295959
 10
-0.3214285684
 20
55.7499985657
 10
0.3214285684
 20
55.7499985657
 10
0.6071428907
 20
55.3214295959
 10
0.6071428907
 20
54.6785716095
 10
0.3214285684
 20
54.4642871246
 10
0.7500000165
 20
54.035713623
 10
0.7500000165
 20
53.1785711517
 10
0.3214285684
 20
52.750002182
 10
-0.3214285684
 20
52.750002182
 10
-0.7500000165
 20
53.1785711517
  0
LINE
  5
27A
100
AcDbEntity
  8
RACCORDO
100
AcDbLine
 62
250
  6
CONTINUOUS
 10
102.5200900634
 20
-43.7680343655
 11
102.7520556979
 21
-44.0
  0
LINE
  5
27B
100
AcDbEntity
  8
RACCORDO
100
AcDbLine
 62
250
  6
CONTINUOUS
 10
104.0180343655
 20
-42.2700900634
 11
104.25
 21
-42.5020556979
  0
LWPOLYLINE
  5
27C
100
AcDbEntity
  8
0
100
AcDbPolyline
 62
7
  6
CONTINUOUS
 90
8
 70
0
 43
0.3500000006
 10
3.3214284925
 20
52.750002182
 10
4.1785715303
 20
52.750002182
 10
4.607142766
 20
53.1785711517
 10
4.607142766
 20
54.035713623
 10
4.1785715303
 20
54.4642871246
 10
3.3214284925
 20
54.4642871246
 10
3.3214284925
 20
55.7499985657
 10
4.607142766
 20
55.7499985657
  0
LWPOLYLINE
  5
27D
100
AcDbEntity
  8
0
100
AcDbPolyline
 62
7
  6
CONTINUOUS
 90
7
 70
0
 43
0.3500000006
 10
-3.9642856293
 20
52.750002182
 10
-5.4642855206
 20
52.750002182
 10
-3.9642856293
 20
54.8928560944
 10
-3.9642856293
 20
55.3214295959
 10
-4.3928571482
 20
55.7499985657
 10
-5.0357142849
 20
55.7499985657
 10
-5.4642855206
 20
55.1071451111
  0
LINE
  5
27E
100
AcDbEntity
  8
RACCORDO
100
AcDbLine
 62
250
  6
CONTINUOUS
 10
78.4838950748
 20
27.0837732309
 11
78.4838950748
 21
26.7838189223
  0
LINE
  5
27F
100
AcDbEntity
  8
RACCORDO
100
AcDbLine
 62
250
  6
CONTINUOUS
 10
78.4838950748
 20
-27.0837732309
 11
78.4838950748
 21
-26.7838189223
  0
LINE
  5
280
100
AcDbEntity
  8
RACCORDO
100
AcDbLine
 62
7
  6
CONTINUOUS
 10
78.975
 20
-26.2750761524
 11
78.975
 21
26.2750761524
  0
LINE
  5
281
100
AcDbEntity
  8
RACCORDO
100
AcDbLine
 62
250
  6
CONTINUOUS
 10
78.9838189223
 20
26.2838950748
 11
78.9838189223
 21
-26.2838950748
  0
LINE
  5
282
100
AcDbEntity
  8
RACCORDO
100
AcDbLine
 62
250
  6
CONTINUOUS
 10
79.2837732309
 20
26.2838950748
 11
79.2837732309
 21
-26.2838950748
  0
LWPOLYLINE
  5
283
100
AcDbEntity
  8
0
100
AcDbPolyline
 62
7
  6
CONTINUOUS
 90
13
 70
0
 43
0.3500000006
 10
109.7857128296
 20
0.4285709152
 10
109.5714283447
 20
0.1428575134
 10
108.9285748901
 20
0.1428575134
 10
108.4999968567
 20
0.4285709152
 10
108.4999968567
 20
1.0714289017
 10
108.9285748901
 20
1.3571423035
 10
109.5714283447
 20
1.3571423035
 10
109.7857128296
 20
1.0714289017
 10
110.2142817993
 20
1.5000001373
 10
111.0714288025
 20
1.5000001373
 10
111.4999977722
 20
1.0714289017
 10
111.4999977722
 20
0.4285709152
 10
111.0714288025
 20
-0.0000003204
  0
LWPOLYLINE
  5
284
100
AcDbEntity
  8
0
100
AcDbPolyline
 62
7
  6
CONTINUOUS
 90
13
 70
0
 43
0.3500000006
 10
109.7857128296
 20
-1.9285708809
 10
109.5714283447
 20
-2.2142854156
 10
108.9285748901
 20
-2.2142854156
 10
108.4999968567
 20
-1.9285708809
 10
108.4999968567
 20
-1.2857140274
 10
108.9285748901
 20
-1.0000006256
 10
109.5714283447
 20
-1.0000006256
 10
109.7857128296
 20
-1.2857140274
 10
110.2142817993
 20
-0.8571427917
 10
111.0714288025
 20
-0.8571427917
 10
111.4999977722
 20
-1.2857140274
 10
111.4999977722
 20
-1.9285708809
 10
111.0714288025
 20
-2.3571432495
  0
LINE
  5
285
100
AcDbEntity
  8
RACCORDO
100
AcDbLine
 62
250
  6
CONTINUOUS
 10
102.5200900634
 20
-43.2687195982
 11
102.5200900634
 21
-43.7680343655
  0
LINE
  5
286
100
AcDbEntity
  8
RACCORDO
100
AcDbLine
 62
250
  6
CONTINUOUS
 10
102.5200900634
 20
43.2687195982
 11
102.5200900634
 21
43.7680343655
  0
LINE
  5
287
100
AcDbEntity
  8
RACCORDO
100
AcDbLine
 62
250
  6
CONTINUOUS
 10
103.5187195982
 20
-42.2700900634
 11
103.5187195982
 21
42.2700900634
  0
LINE
  5
288
100
AcDbEntity
  8
RACCORDO
100
AcDbLine
 62
250
  6
CONTINUOUS
 10
104.0180343655
 20
-42.2700900634
 11
104.0180343655
 21
42.2700900634
  0
LINE
  5
289
100
AcDbEntity
  8
0
100
AcDbLine
 62
7
  6
CONTINUOUS
 10
104.25
 20
-42.5020556979
 11
104.25
 21
42.5020556979
  0
LWPOLYLINE
  5
28A
100
AcDbEntity
  8
0
100
AcDbPolyline
 62
7
  6
CONTINUOUS
 90
3
 70
0
 43
0.3500000006
 10
-168.6377746582
 20
64.900522522
 10
-167.7806367188
 20
65.7576695251
 10
-167.7806367188
 20
62.7576686096
  0
LWPOLYLINE
  5
28B
100
AcDbEntity
  8
0
100
AcDbPolyline
 62
7
  6
CONTINUOUS
 90
10
 70
0
 43
0.3500000006
 10
-162.5976386719
 20
52.7552546082
 10
-161.740482605
 20
53.6124016113
 10
-161.5261981201
 20
54.4695440826
 10
-161.5261981201
 20
55.326686554
 10
-161.9547852173
 20
55.7552555237
 10
-162.5976386719
 20
55.7552555237
 10
-163.0262076416
 20
55.326686554
 10
-163.0262076416
 20
54.4695440826
 10
-162.5976386719
 20
54.0409705811
 10
-161.6690604858
 20
54.0409705811
  0
LINE
  5
28C
100
AcDbEntity
  8
RACCORDO
100
AcDbLine
 62
7
  6
CONTINUOUS
 10
-156.391942672
 20
-43.7680343655
 11
-151.9657746939
 21
-44.0
  0
LINE
  5
28D
100
AcDbEntity
  8
RACCORDO
100
AcDbLine
 62
7
  6
CONTINUOUS
 10
-149.1622842126
 20
-43.1589196708
 11
-151.5157746939
 21
-43.2
  0
LINE
  5
28E
100
AcDbEntity
  8
0
100
AcDbLine
 62
250
  6
CONTINUOUS
 10
-151.9657746939
 20
-42.5020556979
 11
-151.5157746939
 21
-42.497941481
  0
LINE
  5
28F
100
AcDbEntity
  8
RACCORDO
100
AcDbLine
 62
250
  6
CONTINUOUS
 10
-148.9657746939
 20
-42.497941481
 11
-151.5157746939
 21
-42.497941481
  0
LINE
  5
290
100
AcDbEntity
  8
RACCORDO
100
AcDbLine
 62
250
  6
CONTINUOUS
 10
-156.8657746939
 20
-42.2700900634
 11
-156.391942672
 21
-42.2700900634
  0
LINE
  5
291
100
AcDbEntity
  8
RACCORDO
100
AcDbLine
 62
250
  6
CONTINUOUS
 10
-156.391942672
 20
-42.2700900634
 11
-151.9657746939
 21
-42.5020556979
  0
LWPOLYLINE
  5
292
100
AcDbEntity
  8
0
100
AcDbPolyline
 62
7
  6
CONTINUOUS
 90
3
 70
0
 43
0.3500000006
 10
-163.8520576172
 20
63.0433842773
 10
-163.9234978638
 20
62.8290907288
 10
-164.0663421021
 20
62.5433841248
  0
LINE
  5
293
100
AcDbEntity
  8
0
100
AcDbLine
 62
7
  6
CONTINUOUS
 10
-156.8657746939
 20
-31.5801797807
 11
-157.0157746939
 21
-31.5801797807
  0
LINE
  5
294
100
AcDbEntity
  8
0
100
AcDbLine
 62
250
  6
CONTINUOUS
 10
-156.8657746939
 20
-30.9036074326
 11
-157.0157746939
 21
-30.9036074326
  0
LINE
  5
295
100
AcDbEntity
  8
0
100
AcDbLine
 62
7
  6
CONTINUOUS
 10
-156.8657746939
 20
-30.4133253901
 11
-157.0157746939
 21
-30.4133253901
  0
LINE
  5
296
100
AcDbEntity
  8
0
100
AcDbLine
 62
7
  6
CONTINUOUS
 10
-156.8657746939
 20
-30.3985541322
 11
-157.0157746939
 21
-30.3985541322
  0
LWPOLYLINE
  5
297
100
AcDbEntity
  8
0
100
AcDbPolyline
 62
7
  6
CONTINUOUS
 90
3
 70
0
 43
0.3500000006
 10
-164.0262079468
 20
53.0409702759
 10
-164.0976300659
 20
52.826685791
 10
-164.2404924316
 20
52.5409701233
  0
LINE
  5
298
100
AcDbEntity
  8
0
100
AcDbLine
 62
250
  6
CONTINUOUS
 10
-156.8657746939
 20
-29.1359677442
 11
-157.0157746939
 21
-29.1359677442
  0
LINE
  5
299
100
AcDbEntity
  8
0
100
AcDbLine
 62
7
  6
CONTINUOUS
 10
-156.8657746939
 20
-29.051114715
 11
-157.0157746939
 21
-29.051114715
  0
LWPOLYLINE
  5
29A
100
AcDbEntity
  8
0
100
AcDbPolyline
 62
7
  6
CONTINUOUS
 90
4
 70
0
 43
0.3500000006
 10
-167.0976309814
 20
55.1123975372
 10
-167.0976309814
 20
55.7552555237
 10
-165.5976395874
 20
55.7552555237
 10
-166.4547775269
 20
52.7552546082
  0
LWPOLYLINE
  5
29B
100
AcDbEntity
  8
0
100
AcDbPolyline
 62
7
  6
CONTINUOUS
 90
13
 70
0
 43
0.3500000006
 10
-166.9234987793
 20
63.6148065491
 10
-166.9234987793
 20
64.900522522
 10
-166.7092142944
 20
65.3290914917
 10
-166.2806453247
 20
65.7576695251
 10
-166.0663427124
 20
65.7576695251
 10
-165.6377737427
 20
65.3290914917
 10
-165.4234892578
 20
64.900522522
 10
-165.4234892578
 20
63.6148065491
 10
-165.6377737427
 20
63.1862375793
 10
-166.0663427124
 20
62.7576686096
 10
-166.2806453247
 20
62.7576686096
 10
-166.7092142944
 20
63.1862375793
 10
-166.9234987793
 20
63.6148065491
  0
LINE
  5
29C
100
AcDbEntity
  8
RACCORDO
100
AcDbLine
 62
7
  6
CONTINUOUS
 10
-148.9657746939
 20
-16.2236920038
 11
-146.8283036959
 21
-15.6309188338
  0
LINE
  5
29D
100
AcDbEntity
  8
RACCORDO
100
AcDbLine
 62
250
  6
CONTINUOUS
 10
-148.9657746939
 20
-16.0166275775
 11
-146.6287701089
 21
-15.3685188465
  0
LINE
  5
29E
100
AcDbEntity
  8
RACCORDO
100
AcDbLine
 62
7
  6
CONTINUOUS
 10
-148.0355703342
 20
-13.6643002674
 11
-148.3619362888
 21
-13.6643251228
  0
LINE
  5
29F
100
AcDbEntity
  8
RACCORDO
100
AcDbLine
 62
7
  6
CONTINUOUS
 10
-148.3696132557
 20
-12.6643257075
 11
-148.0265528367
 21
-12.6642995806
  0
LINE
  5
2A0
100
AcDbEntity
  8
RACCORDO
100
AcDbLine
 62
7
  6
CONTINUOUS
 10
-148.0265528367
 20
-13.6357004194
 11
-148.3696132557
 21
-13.6356742925
  0
LINE
  5
2A1
100
AcDbEntity
  8
RACCORDO
100
AcDbLine
 62
7
  6
CONTINUOUS
 10
-148.3619362888
 20
-12.6356748772
 11
-148.0355703342
 21
-12.6356997326
  0
LWPOLYLINE
  5
2A2
100
AcDbEntity
  8
0
100
AcDbPolyline
 62
7
  6
CONTINUOUS
 90
2
 70
0
 43
0.3500000006
 10
-161.8520570068
 20
62.7576686096
 10
-161.8520570068
 20
64.2576690674
  0
LINE
  5
2A3
100
AcDbEntity
  8
RACCORDO
100
AcDbLine
 62
7
  6
CONTINUOUS
 10
-147.4530120126
 20
13.8165851688
 11
-146.7216419361
 21
14.3287640065
  0
LINE
  5
2A4
100
AcDbEntity
  8
RACCORDO
100
AcDbLine
 62
7
  6
CONTINUOUS
 10
-147.462001965
 20
13.845097655
 11
-146.7216419361
 21
14.3634344954
  0
LINE
  5
2A5
100
AcDbEntity
  8
RACCORDO
100
AcDbLine
 62
7
  6
CONTINUOUS
 10
-148.3619362888
 20
12.6356748772
 11
-148.9657746939
 21
12.2869955099
  0
LINE
  5
2A6
100
AcDbEntity
  8
RACCORDO
100
AcDbLine
 62
7
  6
CONTINUOUS
 10
-148.3696132557
 20
12.6643257075
 11
-148.9657746939
 21
12.320184167
  0
LINE
  5
2A7
100
AcDbEntity
  8
RACCORDO
100
AcDbLine
 62
250
  6
CONTINUOUS
 10
-146.6287701089
 20
-10.9314811535
 11
-148.9657746939
 21
-10.2833724225
  0
LINE
  5
2A8
100
AcDbEntity
  8
RACCORDO
100
AcDbLine
 62
7
  6
CONTINUOUS
 10
-146.8283036959
 20
-10.6690811662
 11
-148.9657746939
 21
-10.0763079962
  0
LINE
  5
2A9
100
AcDbEntity
  8
RACCORDO
100
AcDbLine
 62
7
  6
CONTINUOUS
 10
-148.9657746939
 20
-12.320184167
 11
-148.3696132557
 21
-12.6643257075
  0
LINE
  5
2AA
100
AcDbEntity
  8
RACCORDO
100
AcDbLine
 62
7
  6
CONTINUOUS
 10
-148.9657746939
 20
-12.2869955099
 11
-148.3619362888
 21
-12.6356748772
  0
LINE
  5
2AB
100
AcDbEntity
  8
RACCORDO
100
AcDbLine
 62
7
  6
CONTINUOUS
 10
-146.7216419361
 20
-14.3634344954
 11
-147.462001965
 21
-13.845097655
  0
LINE
  5
2AC
100
AcDbEntity
  8
RACCORDO
100
AcDbLine
 62
7
  6
CONTINUOUS
 10
-146.7216419361
 20
-14.3287640065
 11
-147.4530120126
 21
-13.8165851688
  0
LINE
  5
2AD
100
AcDbEntity
  8
0
100
AcDbLine
 62
7
  6
CONTINUOUS
 10
-157.0157746939
 20
-31.5801797807
 11
-157.0157746939
 21
-29.051114715
  0
LINE
  5
2AE
100
AcDbEntity
  8
RACCORDO
100
AcDbLine
 62
7
  6
CONTINUOUS
 10
-156.8657746939
 20
-43.2687195982
 11
-156.8657746939
 21
43.2687195982
  0
LINE
  5
2AF
100
AcDbEntity
  8
RACCORDO
100
AcDbLine
 62
250
  6
CONTINUOUS
 10
-156.391942672
 20
-42.2700900634
 11
-156.391942672
 21
42.2700900634
  0
LINE
  5
2B0
100
AcDbEntity
  8
0
100
AcDbLine
 62
7
  6
CONTINUOUS
 10
-151.9657746939
 20
-44.0
 11
-151.9657746939
 21
44.0
  0
LINE
  5
2B1
100
AcDbEntity
  8
0
100
AcDbLine
 62
7
  6
CONTINUOUS
 10
-151.5157746939
 20
-43.2
 11
-151.5157746939
 21
43.2
  0
LINE
  5
2B2
100
AcDbEntity
  8
DRAFT
100
AcDbLine
 62
7
  6
CONTINUOUS
 10
-148.3696132557
 20
13.6356742925
 11
-148.3619362888
 21
13.6643251228
  0
LINE
  5
2B3
100
AcDbEntity
  8
RACCORDO
100
AcDbLine
 62
250
  6
CONTINUOUS
 10
-148.0355703342
 20
12.6356997326
 11
-148.0265528367
 21
12.6642995806
  0
LINE
  5
2B4
100
AcDbEntity
  8
RACCORDO
100
AcDbLine
 62
250
  6
CONTINUOUS
 10
-147.462001965
 20
12.454902345
 11
-147.4530120126
 21
12.4834148312
  0
LINE
  5
2B5
100
AcDbEntity
  8
RACCORDO
100
AcDbLine
 62
7
  6
CONTINUOUS
 10
-146.4657746939
 20
11.1458310055
 11
-146.8283036959
 21
10.6690811662
  0
LINE
  5
2B6
100
AcDbEntity
  8
RACCORDO
100
AcDbLine
 62
7
  6
CONTINUOUS
 10
-146.4657746939
 20
-11.1458310055
 11
-146.8283036959
 21
-10.6690811662
  0
LINE
  5
2B7
100
AcDbEntity
  8
RACCORDO
100
AcDbLine
 62
250
  6
CONTINUOUS
 10
-148.0355703342
 20
-12.6356997326
 11
-148.0265528367
 21
-12.6642995806
  0
LINE
  5
2B8
100
AcDbEntity
  8
RACCORDO
100
AcDbLine
 62
250
  6
CONTINUOUS
 10
-147.462001965
 20
-12.454902345
 11
-147.4530120126
 21
-12.4834148312
  0
LINE
  5
2B9
100
AcDbEntity
  8
DRAFT
100
AcDbLine
 62
7
  6
CONTINUOUS
 10
-148.3696132557
 20
-13.6356742925
 11
-148.3619362888
 21
-13.6643251228
  0
LINE
  5
2BA
100
AcDbEntity
  8
RACCORDO
100
AcDbLine
 62
250
  6
CONTINUOUS
 10
-149.1622842126
 20
43.1589196708
 11
-149.1622842126
 21
-43.1589196708
  0
LINE
  5
2BB
100
AcDbEntity
  8
RACCORDO
100
AcDbLine
 62
7
  6
CONTINUOUS
 10
-148.9657746939
 20
42.9589501318
 11
-148.9657746939
 21
-42.9589501318
  0
LINE
  5
2BC
100
AcDbEntity
  8
RACCORDO
100
AcDbLine
 62
250
  6
CONTINUOUS
 10
-146.7216419361
 20
14.3634344954
 11
-146.7216419361
 21
14.3287640065
  0
LINE
  5
2BD
100
AcDbEntity
  8
RACCORDO
100
AcDbLine
 62
250
  6
CONTINUOUS
 10
-146.7216419361
 20
-11.9365655046
 11
-146.7216419361
 21
-11.9712359935
  0
LINE
  5
2BE
100
AcDbEntity
  8
RACCORDO
100
AcDbLine
 62
250
  6
CONTINUOUS
 10
-146.7216419361
 20
-14.3634344954
 11
-146.7216419361
 21
-14.3287640065
  0
LINE
  5
2BF
100
AcDbEntity
  8
RACCORDO
100
AcDbLine
 62
250
  6
CONTINUOUS
 10
-146.7216419361
 20
11.9365655046
 11
-146.7216419361
 21
11.9712359935
  0
LINE
  5
2C0
100
AcDbEntity
  8
SMUSSO
100
AcDbLine
 62
7
  6
CONTINUOUS
 10
-146.4657746939
 20
-15.1541689945
 11
-146.4657746939
 21
-14.8549390001
  0
LINE
  5
2C1
100
AcDbEntity
  8
SMUSSO
100
AcDbLine
 62
7
  6
CONTINUOUS
 10
-146.4657746939
 20
-11.4450609999
 11
-146.4657746939
 21
-11.1458310055
  0
LINE
  5
2C2
100
AcDbEntity
  8
SMUSSO
100
AcDbLine
 62
7
  6
CONTINUOUS
 10
-146.4657746939
 20
11.1458310055
 11
-146.4657746939
 21
11.4450609999
  0
LINE
  5
2C3
100
AcDbEntity
  8
SMUSSO
100
AcDbLine
 62
7
  6
CONTINUOUS
 10
-146.4657746939
 20
14.8549390001
 11
-146.4657746939
 21
15.1541689945
  0
LINE
  5
2C4
100
AcDbEntity
  8
DRAFT
100
AcDbLine
 62
7
  6
CONTINUOUS
 10
-148.3696132557
 20
-12.6643257075
 11
-148.3619362888
 21
-12.6356748772
  0
LINE
  5
2C5
100
AcDbEntity
  8
RACCORDO
100
AcDbLine
 62
250
  6
CONTINUOUS
 10
-148.0355703342
 20
-13.6643002674
 11
-148.0265528367
 21
-13.6357004194
  0
LINE
  5
2C6
100
AcDbEntity
  8
RACCORDO
100
AcDbLine
 62
250
  6
CONTINUOUS
 10
-147.462001965
 20
-13.845097655
 11
-147.4530120126
 21
-13.8165851688
  0
LINE
  5
2C7
100
AcDbEntity
  8
RACCORDO
100
AcDbLine
 62
7
  6
CONTINUOUS
 10
-148.9657746939
 20
10.0763079962
 11
-146.8283036959
 21
10.6690811662
  0
LINE
  5
2C8
100
AcDbEntity
  8
RACCORDO
100
AcDbLine
 62
250
  6
CONTINUOUS
 10
-148.9657746939
 20
10.2833724225
 11
-146.6287701089
 21
10.9314811535
  0
LINE
  5
2C9
100
AcDbEntity
  8
RACCORDO
100
AcDbLine
 62
250
  6
CONTINUOUS
 10
-148.0355703342
 20
13.6643002674
 11
-148.0265528367
 21
13.6357004194
  0
LINE
  5
2CA
100
AcDbEntity
  8
RACCORDO
100
AcDbLine
 62
250
  6
CONTINUOUS
 10
-147.462001965
 20
13.845097655
 11
-147.4530120126
 21
13.8165851688
  0
LINE
  5
2CB
100
AcDbEntity
  8
DRAFT
100
AcDbLine
 62
7
  6
CONTINUOUS
 10
-148.3696132557
 20
12.6643257075
 11
-148.3619362888
 21
12.6356748772
  0
LINE
  5
2CC
100
AcDbEntity
  8
RACCORDO
100
AcDbLine
 62
7
  6
CONTINUOUS
 10
-146.4657746939
 20
-15.1541689945
 11
-146.8283036959
 21
-15.6309188338
  0
LINE
  5
2CD
100
AcDbEntity
  8
RACCORDO
100
AcDbLine
 62
7
  6
CONTINUOUS
 10
-147.4530120126
 20
-12.4834148312
 11
-146.7216419361
 21
-11.9712359935
  0
LINE
  5
2CE
100
AcDbEntity
  8
RACCORDO
100
AcDbLine
 62
7
  6
CONTINUOUS
 10
-147.462001965
 20
-12.454902345
 11
-146.7216419361
 21
-11.9365655046
  0
LINE
  5
2CF
100
AcDbEntity
  8
RACCORDO
100
AcDbLine
 62
7
  6
CONTINUOUS
 10
-148.3619362888
 20
-13.6643251228
 11
-148.9657746939
 21
-14.0130044901
  0
LINE
  5
2D0
100
AcDbEntity
  8
RACCORDO
100
AcDbLine
 62
7
  6
CONTINUOUS
 10
-148.3696132557
 20
-13.6356742925
 11
-148.9657746939
 21
-13.979815833
  0
LINE
  5
2D1
100
AcDbEntity
  8
RACCORDO
100
AcDbLine
 62
7
  6
CONTINUOUS
 10
-148.0355703342
 20
12.6356997326
 11
-148.3619362888
 21
12.6356748772
  0
LINE
  5
2D2
100
AcDbEntity
  8
RACCORDO
100
AcDbLine
 62
7
  6
CONTINUOUS
 10
-148.3696132557
 20
13.6356742925
 11
-148.0265528367
 21
13.6357004194
  0
LINE
  5
2D3
100
AcDbEntity
  8
RACCORDO
100
AcDbLine
 62
7
  6
CONTINUOUS
 10
-148.0265528367
 20
12.6642995806
 11
-148.3696132557
 21
12.6643257075
  0
LINE
  5
2D4
100
AcDbEntity
  8
RACCORDO
100
AcDbLine
 62
7
  6
CONTINUOUS
 10
-148.3619362888
 20
13.6643251228
 11
-148.0355703342
 21
13.6643002674
  0
LINE
  5
2D5
100
AcDbEntity
  8
RACCORDO
100
AcDbLine
 62
7
  6
CONTINUOUS
 10
-148.9657746939
 20
13.979815833
 11
-148.3696132557
 21
13.6356742925
  0
LINE
  5
2D6
100
AcDbEntity
  8
RACCORDO
100
AcDbLine
 62
7
  6
CONTINUOUS
 10
-148.9657746939
 20
14.0130044901
 11
-148.3619362888
 21
13.6643251228
  0
LINE
  5
2D7
100
AcDbEntity
  8
RACCORDO
100
AcDbLine
 62
7
  6
CONTINUOUS
 10
-146.7216419361
 20
11.9365655046
 11
-147.462001965
 21
12.454902345
  0
LINE
  5
2D8
100
AcDbEntity
  8
RACCORDO
100
AcDbLine
 62
7
  6
CONTINUOUS
 10
-146.7216419361
 20
11.9712359935
 11
-147.4530120126
 21
12.4834148312
  0
LINE
  5
2D9
100
AcDbEntity
  8
RACCORDO
100
AcDbLine
 62
7
  6
CONTINUOUS
 10
-146.4657746939
 20
15.1541689945
 11
-146.8283036959
 21
15.6309188338
  0
LWPOLYLINE
  5
2DA
100
AcDbEntity
  8
0
100
AcDbPolyline
 62
7
  6
CONTINUOUS
 90
10
 70
0
 43
0.3500000006
 10
-164.0976300659
 20
53.2552547607
 10
-164.0262079468
 20
53.1124014587
 10
-164.0262079468
 20
53.0409702759
 10
-164.1690703125
 20
52.898112442
 10
-164.2404924316
 20
52.898112442
 10
-164.3119145508
 20
52.9695436249
 10
-164.3119145508
 20
53.0409702759
 10
-164.2404924316
 20
53.1838281097
 10
-164.1690703125
 20
53.2552547607
 10
-164.0976300659
 20
53.2552547607
  0
LINE
  5
2DB
100
AcDbEntity
  8
RACCORDO
100
AcDbLine
 62
250
  6
CONTINUOUS
 10
-146.6287701089
 20
15.3685188465
 11
-148.9657746939
 21
16.0166275775
  0
LINE
  5
2DC
100
AcDbEntity
  8
RACCORDO
100
AcDbLine
 62
7
  6
CONTINUOUS
 10
-146.8283036959
 20
15.6309188338
 11
-148.9657746939
 21
16.2236920038
  0
LWPOLYLINE
  5
2DD
100
AcDbEntity
  8
0
100
AcDbPolyline
 62
7
  6
CONTINUOUS
 90
10
 70
0
 43
0.3500000006
 10
-163.9234978638
 20
63.2576687622
 10
-163.8520576172
 20
63.1148063965
 10
-163.8520576172
 20
63.0433842773
 10
-163.9949199829
 20
62.9005219116
 10
-164.0663421021
 20
62.9005219116
 10
-164.1377823486
 20
62.9719530945
 10
-164.1377823486
 20
63.0433842773
 10
-164.0663421021
 20
63.1862375793
 10
-163.9949199829
 20
63.2576687622
 10
-163.9234978638
 20
63.2576687622
  0
LINE
  5
2DE
100
AcDbEntity
  8
0
100
AcDbLine
 62
7
  6
CONTINUOUS
 10
-151.9657746939
 20
-44.0
 11
-151.5157746939
 21
-43.2
  0
LINE
  5
2DF
100
AcDbEntity
  8
0
100
AcDbLine
 62
7
  6
CONTINUOUS
 10
-151.9657746939
 20
44.0
 11
-151.5157746939
 21
43.2
  0
LINE
  5
2E0
100
AcDbEntity
  8
RACCORDO
100
AcDbLine
 62
250
  6
CONTINUOUS
 10
-156.391942672
 20
42.2700900634
 11
-151.9657746939
 21
42.5020556979
  0
LINE
  5
2E1
100
AcDbEntity
  8
RACCORDO
100
AcDbLine
 62
7
  6
CONTINUOUS
 10
-156.391942672
 20
43.7680343655
 11
-151.9657746939
 21
44.0
  0
LINE
  5
2E2
100
AcDbEntity
  8
RACCORDO
100
AcDbLine
 62
250
  6
CONTINUOUS
 10
-156.8657746939
 20
42.2700900634
 11
-156.391942672
 21
42.2700900634
  0
LINE
  5
2E3
100
AcDbEntity
  8
RACCORDO
100
AcDbLine
 62
250
  6
CONTINUOUS
 10
-148.9657746939
 20
42.497941481
 11
-151.5157746939
 21
42.497941481
  0
LWPOLYLINE
  5
2E4
100
AcDbEntity
  8
0
100
AcDbPolyline
 62
7
  6
CONTINUOUS
 90
3
 70
0
 43
0.3500000006
 10
-161.352065918
 20
63.4005220642
 10
-162.852057312
 20
63.4005220642
 10
-162.2092038574
 20
65.7576695251
  0
LINE
  5
2E5
100
AcDbEntity
  8
0
100
AcDbLine
 62
250
  6
CONTINUOUS
 10
-151.9657746939
 20
42.5020556979
 11
-151.5157746939
 21
42.497941481
  0
LINE
  5
2E6
100
AcDbEntity
  8
RACCORDO
100
AcDbLine
 62
7
  6
CONTINUOUS
 10
-149.1622842126
 20
43.1589196708
 11
-151.5157746939
 21
43.2
  0
ARC
  5
2E7
100
AcDbEntity
  8
RACCORDO
100
AcDbCircle
 62
250
  6
CONTINUOUS
 10
-102.5189961367
 20
-42.2689961367
 40
1.4990274731
100
AcDbArc
 50
180.0418117231
 51
269.9581882755
  0
ARC
  5
2E8
100
AcDbEntity
  8
RACCORDO
100
AcDbCircle
 62
250
  6
CONTINUOUS
 10
102.5189961367
 20
-42.2689961367
 40
1.4990274731
100
AcDbArc
 50
270.0418117231
 51
359.9581882755
  0
ARC
  5
2E9
100
AcDbEntity
  8
RACCORDO
100
AcDbCircle
 62
250
  6
CONTINUOUS
 10
102.5189959672
 20
42.2689959672
 40
1.4990274731
100
AcDbArc
 50
0.0418181957
 51
89.9581818029
  0
ARC
  5
2EA
100
AcDbEntity
  8
RACCORDO
100
AcDbCircle
 62
250
  6
CONTINUOUS
 10
-102.5189959672
 20
42.2689959672
 40
1.4990274731
100
AcDbArc
 50
90.0418181957
 51
179.9581818029
  0
ARC
  5
2EB
100
AcDbEntity
  8
0
100
AcDbCircle
 62
7
  6
CONTINUOUS
 10
-102.7528117749
 20
42.5028117749
 40
1.4971802889
100
AcDbArc
 50
89.9710657504
 51
180.0289342496
  0
ARC
  5
2EC
100
AcDbEntity
  8
0
100
AcDbCircle
 62
7
  6
CONTINUOUS
 10
102.7528117747
 20
42.5028117747
 40
1.4971802891
100
AcDbArc
 50
359.9710657585
 51
90.0289342415
  0
ARC
  5
2ED
100
AcDbEntity
  8
0
100
AcDbCircle
 62
7
  6
CONTINUOUS
 10
-102.752811775
 20
-42.502811775
 40
1.4971802885
100
AcDbArc
 50
179.9710657457
 51
270.0289342543
  0
ARC
  5
2EE
100
AcDbEntity
  8
0
100
AcDbCircle
 62
7
  6
CONTINUOUS
 10
102.752811775
 20
-42.502811775
 40
1.4971802886
100
AcDbArc
 50
269.971065747
 51
0.028934253
  0
ARC
  5
2EF
100
AcDbEntity
  8
RACCORDO
100
AcDbCircle
 62
250
  6
CONTINUOUS
 10
102.5205908187
 20
42.2705908187
 40
0.9981231959
100
AcDbArc
 50
359.9712550495
 51
90.0287449506
  0
ARC
  5
2F0
100
AcDbEntity
  8
RACCORDO
100
AcDbCircle
 62
250
  6
CONTINUOUS
 10
-102.5205908189
 20
-42.2705908189
 40
0.9981231955
100
AcDbArc
 50
179.9712550367
 51
270.0287449635
  0
ARC
  5
2F1
100
AcDbEntity
  8
RACCORDO
100
AcDbCircle
 62
250
  6
CONTINUOUS
 10
-102.5205908189
 20
42.2705908189
 40
0.9981231955
100
AcDbArc
 50
89.9712550358
 51
180.0287449644
  0
ARC
  5
2F2
100
AcDbEntity
  8
RACCORDO
100
AcDbCircle
 62
250
  6
CONTINUOUS
 10
102.5205908188
 20
-42.2705908188
 40
0.9981231958
100
AcDbArc
 50
269.9712550418
 51
0.0287449584
  0
ARC
  5
2F3
100
AcDbEntity
  8
RACCORDO
100
AcDbCircle
 62
250
  6
CONTINUOUS
 10
78.4839437212
 20
-26.2839437212
 40
0.7998278546
100
AcDbArc
 50
269.9965152153
 51
0.0034847846
  0
ARC
  5
2F4
100
AcDbEntity
  8
RACCORDO
100
AcDbCircle
 62
250
  6
CONTINUOUS
 10
78.4839439285
 20
26.2839439285
 40
0.7998278546
100
AcDbArc
 50
359.9965003645
 51
90.0034996354
  0
ARC
  5
2F5
100
AcDbEntity
  8
RACCORDO
100
AcDbCircle
 62
250
  6
CONTINUOUS
 10
-78.4839439285
 20
26.2839439285
 40
0.7998278546
100
AcDbArc
 50
89.9965003645
 51
180.0034996354
  0
ARC
  5
2F6
100
AcDbEntity
  8
RACCORDO
100
AcDbCircle
 62
250
  6
CONTINUOUS
 10
-78.4839437212
 20
-26.2839437212
 40
0.7998278546
100
AcDbArc
 50
179.9965152153
 51
270.0034847846
  0
ARC
  5
2F7
100
AcDbEntity
  8
RACCORDO
100
AcDbCircle
 62
250
  6
CONTINUOUS
 10
-78.4840481883
 20
26.2840481879
 40
0.499770097
100
AcDbArc
 50
89.9824460918
 51
180.0175538273
  0
ARC
  5
2F8
100
AcDbEntity
  8
RACCORDO
100
AcDbCircle
 62
250
  6
CONTINUOUS
 10
78.4840481879
 20
26.2840481883
 40
0.499770097
100
AcDbArc
 50
359.9824460913
 51
90.0175538278
  0
ARC
  5
2F9
100
AcDbEntity
  8
RACCORDO
100
AcDbCircle
 62
250
  6
CONTINUOUS
 10
78.4840537087
 20
-26.2840537083
 40
0.499763307
100
AcDbArc
 50
269.9818130095
 51
0.0181869103
  0
ARC
  5
2FA
100
AcDbEntity
  8
RACCORDO
100
AcDbCircle
 62
250
  6
CONTINUOUS
 10
-78.4840537083
 20
-26.2840537087
 40
0.499763307
100
AcDbArc
 50
179.9818130095
 51
270.0181869102
  0
ARC
  5
2FB
100
AcDbEntity
  8
RACCORDO
100
AcDbCircle
 62
7
  6
CONTINUOUS
 10
-156.3657746939
 20
43.2687195982
 40
0.5
100
AcDbArc
 50
93.0
 51
180.0
  0
ARC
  5
2FC
100
AcDbEntity
  8
RACCORDO
100
AcDbCircle
 62
7
  6
CONTINUOUS
 10
-156.3657746939
 20
-43.2687195982
 40
0.5
100
AcDbArc
 50
180.0
 51
267.0
  0
ARC
  5
2FD
100
AcDbEntity
  8
RACCORDO
100
AcDbCircle
 62
7
  6
CONTINUOUS
 10
-149.1657746939
 20
42.9589501318
 40
0.2
100
AcDbArc
 50
0.0
 51
89.0
  0
ARC
  5
2FE
100
AcDbEntity
  8
RACCORDO
100
AcDbCircle
 62
7
  6
CONTINUOUS
 10
-149.1657746939
 20
-42.9589501318
 40
0.2
100
AcDbArc
 50
271.0
 51
360.0
  0
SPLINE
  5
2FF
100
AcDbEntity
  8
RACCORDO
100
AcDbSpline
 62
250
  6
CONTINUOUS
 70
0
 71
3
 72
23
 73
19
 74
0
 42
0.0000001
 43
0.0000001
 44
0.0000000001
 40
0.0
 40
0.0
 40
0.0
 40
0.0
 40
0.001499005
 40
0.0052286032
 40
0.0113088911
 40
0.0197513006
 40
0.0305414728
 40
0.0436557038
 40
0.0767415976
 40
0.1186980673
 40
0.1691312215
 40
0.2275579278
 40
0.2934168422
 40
0.3660787425
 40
0.444840671
 40
0.6175936668
 40
0.8050354829
 40
1.0
 40
1.0
 40
1.0
 40
1.0
 10
-156.391942672
 20
-43.7680343655
 30
0.0
 10
-156.3926904924
 20
-43.7679948905
 30
0.0
 10
-156.39362899
 20
-43.7646416916
 30
0.0
 10
-156.3946179975
 20
-43.7598369048
 30
0.0
 10
-156.3956635443
 20
-43.7503582101
 30
0.0
 10
-156.396651093
 20
-43.7379317923
 30
0.0
 10
-156.3975915594
 20
-43.7217290714
 30
0.0
 10
-156.398850547
 20
-43.6933184621
 30
0.0
 10
-156.4001332539
 20
-43.6492732595
 30
0.0
 10
-156.4012936257
 20
-43.5866086004
 30
0.0
 10
-156.4021299189
 20
-43.5112657351
 30
0.0
 10
-156.4026321479
 20
-43.4239833164
 30
0.0
 10
-156.4027892044
 20
-43.325593315
 30
0.0
 10
-156.4025977852
 20
-43.2170449663
 30
0.0
 10
-156.4018535305
 20
-43.0550966757
 30
0.0
 10
-156.400027595
 20
-42.8358128345
 30
0.0
 10
-156.396635807
 20
-42.5584907685
 30
0.0
 10
-156.393638121
 20
-42.3674741935
 30
0.0
 10
-156.391942672
 20
-42.2700900634
 30
0.0
  0
SPLINE
  5
300
100
AcDbEntity
  8
RACCORDO
100
AcDbSpline
 62
250
  6
CONTINUOUS
 70
0
 71
3
 72
23
 73
19
 74
0
 42
0.0000001
 43
0.0000001
 44
0.0000000001
 40
0.0
 40
0.0
 40
0.0
 40
0.0
 40
0.1949536889
 40
0.3823866343
 40
0.5551401033
 40
0.6339034012
 40
0.7065668557
 40
0.7724276433
 40
0.8308556658
 40
0.8812912074
 40
0.9232501416
 40
0.9563389336
 40
0.9694547374
 40
0.9802465675
 40
0.988689888
 40
0.9947707429
 40
0.9985007978
 40
1.0
 40
1.0
 40
1.0
 40
1.0
 10
-156.391942672
 20
42.2700900634
 30
0.0
 10
-156.3936379572
 20
42.3674687838
 30
0.0
 10
-156.3966356496
 20
42.5584755118
 30
0.0
 10
-156.4000272821
 20
42.8357879679
 30
0.0
 10
-156.4018533775
 20
43.0550682914
 30
0.0
 10
-156.4025976825
 20
43.217018275
 30
0.0
 10
-156.402789196
 20
43.3255690172
 30
0.0
 10
-156.4026322537
 20
43.4239613864
 30
0.0
 10
-156.4021300334
 20
43.5112465889
 30
0.0
 10
-156.4012938888
 20
43.5865925358
 30
0.0
 10
-156.4001335593
 20
43.6492610658
 30
0.0
 10
-156.3988508203
 20
43.6933097358
 30
0.0
 10
-156.3975917636
 20
43.7217234003
 30
0.0
 10
-156.3966513413
 20
43.7379282095
 30
0.0
 10
-156.395663715
 20
43.7503561642
 30
0.0
 10
-156.3946181525
 20
43.7598358855
 30
0.0
 10
-156.3936289834
 20
43.7646411528
 30
0.0
 10
-156.3926905889
 20
43.7679948497
 30
0.0
 10
-156.391942672
 20
43.7680343655
 30
0.0
  0
ELLIPSE
  5
301
100
AcDbEntity
  8
RACCORDO
100
AcDbEllipse
 62
7
  6
CONTINUOUS
 10
-78.474923836
 20
26.274923836
 30
0.0
 11
0.3536610946
 21
-0.3536610946
 31
0.0
 40
0.9996954599
 41
2.3563467834
 42
3.9268385237
  0
ELLIPSE
  5
302
100
AcDbEntity
  8
RACCORDO
100
AcDbEllipse
 62
7
  6
CONTINUOUS
 10
78.474923836
 20
26.274923836
 30
0.0
 11
-0.3536610946
 21
-0.3536610946
 31
0.0
 40
0.9996954599
 41
2.3563467834
 42
3.9268385237
  0
ELLIPSE
  5
303
100
AcDbEntity
  8
RACCORDO
100
AcDbEllipse
 62
7
  6
CONTINUOUS
 10
78.474923836
 20
-26.274923836
 30
0.0
 11
-0.3536610946
 21
0.3536610946
 31
0.0
 40
0.9996954599
 41
2.3563467834
 42
3.9268385237
  0
ELLIPSE
  5
304
100
AcDbEntity
  8
RACCORDO
100
AcDbEllipse
 62
7
  6
CONTINUOUS
 10
-78.474923836
 20
-26.274923836
 30
0.0
 11
0.3536610946
 21
0.3536610946
 31
0.0
 40
0.9996954599
 41
2.3563467834
 42
3.9268385237
  0
ELLIPSE
  5
305
100
AcDbEntity
  8
RACCORDO
100
AcDbEllipse
 62
7
  6
CONTINUOUS
 10
-147.0657746939
 20
14.820260305
 30
0.0
 11
0.2936478519
 21
0.5232882412
 31
0.0
 40
0.9998910868
 41
-2.0193374769
 42
-1.0593797268
  0
ELLIPSE
  5
306
100
AcDbEntity
  8
RACCORDO
100
AcDbEllipse
 62
7
  6
CONTINUOUS
 10
-148.0265768478
 20
14.6357384959
 30
0.0
 11
0.3568044359
 21
0.9342305227
 31
0.0
 40
0.9999217833
 41
-2.7767159861
 42
-2.1658747591
  0
ELLIPSE
  5
307
100
AcDbEntity
  8
RACCORDO
100
AcDbEllipse
 62
7
  6
CONTINUOUS
 10
-148.0265768478
 20
11.6642615041
 30
0.0
 11
-0.356804436
 21
0.9342305227
 31
0.0
 40
0.9999217833
 41
-0.9757178946
 42
-0.3648766675
  0
ELLIPSE
  5
308
100
AcDbEntity
  8
RACCORDO
100
AcDbEllipse
 62
7
  6
CONTINUOUS
 10
-147.0657746939
 20
11.479739695
 30
0.0
 11
-0.293647852
 21
0.5232882412
 31
0.0
 40
0.9998910868
 41
-2.0822129269
 42
-1.1222551768
  0
ELLIPSE
  5
309
100
AcDbEntity
  8
RACCORDO
100
AcDbEllipse
 62
7
  6
CONTINUOUS
 10
-148.0265768478
 20
-14.6357384959
 30
0.0
 11
-0.3568044361
 21
0.9342305226
 31
0.0
 40
0.9999217833
 41
-0.9757178947
 42
-0.3648766677
  0
ELLIPSE
  5
30A
100
AcDbEntity
  8
RACCORDO
100
AcDbEllipse
 62
7
  6
CONTINUOUS
 10
-147.0657746939
 20
-14.820260305
 30
0.0
 11
-0.293647852
 21
0.5232882411
 31
0.0
 40
0.9998910868
 41
-2.0822129269
 42
-1.1222551768
  0
ELLIPSE
  5
30B
100
AcDbEntity
  8
RACCORDO
100
AcDbEllipse
 62
7
  6
CONTINUOUS
 10
-147.0657746939
 20
-11.479739695
 30
0.0
 11
0.2936478519
 21
0.5232882412
 31
0.0
 40
0.9998910868
 41
-2.0193374769
 42
-1.0593797268
  0
ELLIPSE
  5
30C
100
AcDbEntity
  8
RACCORDO
100
AcDbEllipse
 62
7
  6
CONTINUOUS
 10
-148.0265768478
 20
-11.6642615041
 30
0.0
 11
0.356804436
 21
0.9342305227
 31
0.0
 40
0.9999217833
 41
-2.776715986
 42
-2.165874759
  0
ELLIPSE
  5
30D
100
AcDbEntity
  8
RACCORDO
100
AcDbEllipse
 62
7
  6
CONTINUOUS
 10
-148.0355943464
 20
14.6643383476
 30
0.0
 11
0.6700822476
 21
-0.7423990616
 31
0.0
 40
0.9998993095
 41
-0.7342704796
 42
-0.1234292526
  0
ELLIPSE
  5
30E
100
AcDbEntity
  8
RACCORDO
100
AcDbEllipse
 62
7
  6
CONTINUOUS
 10
-147.0657746939
 20
14.8549947833
 30
0.0
 11
-0.293647852
 21
0.5232882411
 31
0.0
 40
0.9998910868
 41
-3.0421706771
 42
-2.082212927
  0
ELLIPSE
  5
30F
100
AcDbEntity
  8
RACCORDO
100
AcDbEllipse
 62
7
  6
CONTINUOUS
 10
-147.0657746939
 20
11.4450052167
 30
0.0
 11
0.2936478519
 21
0.5232882412
 31
0.0
 40
0.9998910868
 41
-1.0593797269
 42
-0.0994219767
  0
ELLIPSE
  5
310
100
AcDbEntity
  8
RACCORDO
100
AcDbEllipse
 62
7
  6
CONTINUOUS
 10
-148.0355943464
 20
11.6356616524
 30
0.0
 11
0.6700822476
 21
0.7423990617
 31
0.0
 40
0.9998993095
 41
0.1234292525
 42
0.7342704795
  0
ELLIPSE
  5
311
100
AcDbEntity
  8
RACCORDO
100
AcDbEllipse
 62
7
  6
CONTINUOUS
 10
-147.0657746939
 20
-14.8549947833
 30
0.0
 11
0.293647852
 21
0.5232882412
 31
0.0
 40
0.9998910868
 41
-1.0593797267
 42
-0.0994219766
  0
ELLIPSE
  5
312
100
AcDbEntity
  8
RACCORDO
100
AcDbEllipse
 62
7
  6
CONTINUOUS
 10
-148.0355943464
 20
-14.6643383476
 30
0.0
 11
0.6700822476
 21
0.7423990616
 31
0.0
 40
0.9998993095
 41
0.1234292525
 42
0.7342704796
  0
ELLIPSE
  5
313
100
AcDbEntity
  8
RACCORDO
100
AcDbEllipse
 62
7
  6
CONTINUOUS
 10
-148.0355943464
 20
-11.6356616524
 30
0.0
 11
0.6700822475
 21
-0.7423990617
 31
0.0
 40
0.9998993095
 41
-0.7342704794
 42
-0.1234292524
  0
ELLIPSE
  5
314
100
AcDbEntity
  8
RACCORDO
100
AcDbEllipse
 62
7
  6
CONTINUOUS
 10
-147.0657746939
 20
-11.4450052167
 30
0.0
 11
-0.293647852
 21
0.5232882412
 31
0.0
 40
0.9998910868
 41
-3.042170677
 42
-2.0822129269
  0
ENDSEC
  0
SECTION
  2
OBJECTS
  0
DICTIONARY
  5
C
100
AcDbDictionary
280
0
281
1
  3
ACAD_GROUP
350
D
  3
ACAD_MLINESTYLE
350
17
  3
ACAD_LAYOUT
350
1A
  3
ACAD_PLOTSETTINGS
350
19
  3
ACAD_PLOTSTYLENAME
350
E
  0
DICTIONARY
  5
D
102
{ACAD_REACTORS
330
C
102
}
100
AcDbDictionary
280
0
281
1
  0
ACDBDICTIONARYWDFLT
  5
E
102
{ACAD_REACTORS
330
C
102
}
100
AcDbDictionary
281
1
  3
Normal
350
F
100
AcDbDictionaryWithDefault
340
F
  0
DICTIONARY
  5
17
102
{ACAD_REACTORS
330
C
102
}
100
AcDbDictionary
280
0
281
1
  3
Standard
350
18
  0
DICTIONARY
  5
19
102
{ACAD_REACTORS
330
C
102
}
100
AcDbDictionary
281
1
  0
DICTIONARY
  5
1A
102
{ACAD_REACTORS
330
C
102
}
100
AcDbDictionary
281
1
  3
Model
350
315
  3
Layout1
350
316
  0
ACDBPLACEHOLDER
  5
F
102
{ACAD_REACTORS
330
E
102
}
  0
MLINESTYLE
  5
18
102
{ACAD_REACTORS
330
17
102
}
100
AcDbMlineStyle
  2
STANDARD
 70
0
  3

 62
256
 51
90.0
 52
90.0
 71
2
 49
0.5
 62
256
  6
BYLAYER
 49
-0.5
 62
256
  6
BYLAYER
  0
LAYOUT
  5
315
102
{ACAD_REACTORS
330
1A
102
}
100
AcDbPlotSettings
  1

  2
none_device
  4
ISO_A4_(297.00_x_210.00_MM)
  6

 40
0.0
 41
0.0
 42
0.0
 43
0.0
 44
297.0
 45
210.0
 46
0.0
 47
0.0
 48
0.0
 49
0.0
140
0.0
141
0.0
142
1.0
143
1.0
 70
1024
 72
1
 73
0
 74
0
  7

 75
0
147
1.0
148
0.0
149
0.0
100
AcDbLayout
  1
Model
 70
0
 71
0
 10
0.0
 20
0.0
 11
297.0
 21
210.0
 12
0.0
 22
0.0
 32
0.0
 14
0.0
 24
0.0
 34
0.0
 15
0.0
 25
0.0
 35
0.0
146
0.0
 13
0.0
 23
0.0
 33
0.0
 16
1.0
 26
0.0
 36
0.0
 17
0.0
 27
1.0
 37
0.0
 76
0
330
213
345
0
346
0
  0
LAYOUT
  5
316
102
{ACAD_REACTORS
330
1A
102
}
100
AcDbPlotSettings
  1

  2
none_device
  4
ISO_A4_(297.00_x_210.00_MM)
  6

 40
0.0
 41
0.0
 42
0.0
 43
0.0
 44
297.0
 45
210.0
 46
0.0
 47
0.0
 48
0.0
 49
0.0
140
0.0
141
0.0
142
1.0
143
1.0
 70
0
 72
1
 73
0
 74
0
  7

 75
0
147
1.0
148
0.0
149
0.0
100
AcDbLayout
  1
Layout1
 70
0
 71
1
 10
0.0
 20
0.0
 11
297.0
 21
210.0
 12
0.0
 22
0.0
 32
0.0
 14
0.0
 24
0.0
 34
0.0
 15
0.0
 25
0.0
 35
0.0
146
0.0
 13
0.0
 23
0.0
 33
0.0
 16
1.0
 26
0.0
 36
0.0
 17
0.0
 27
1.0
 37
0.0
 76
0
330
214
345
0
346
0
  0
ENDSEC
  0
EOF
