  0
SECTION
  2
HEADER
  9
$ACADVER
  1
AC1024
  9
$DWGCODEPAGE
  3
ANSI_1252
  9
$EXTMAX
 10
420.0
 20
297.0
 30
0.0
  9
$EXTMIN
 10
0.0
 20
0.0
 30
0.0
  9
$LIMMIN
 10
0.0
 20
0.0
  9
$LIMMAX
 10
420.0
 20
297.0
  9
$VIEWCTR
 10
210.0
 20
148.5
  9
$VIEWSIZE
 40
297.0
  9
$CLAYER
  8
0
  9
$LTSCALE
 40
23.1
  9
$CELTYPE
  6
BYLAYER
  9
$DIMSCALE
 40
1.0
  9
$DIMASZ
 40
3.0
  9
$DIMEXO
 40
0.5
  9
$DIMDLI
 40
15.96
  9
$DIMEXE
 40
1.5
  9
$DIMCEN
 40
3.78
  9
$DIMLFAC
 40
1.0
  9
$DIMBLK
  1
_FILLED
  9
$DIMALT
 70
0
  9
$DIMALTF
 40
0.0393700787
  9
$DIMTXT
 40
3.0
  9
$DIMTOL
 70
1
  9
$DIMLIM
 70
0
  9
$DIMTFAC
 40
1.0
  9
$DIMTP
 40
0.01
  9
$DIMTM
 40
0.01
  9
$DIMGAP
 40
0.625
  9
$DIMDSEP
 70
44
  9
$AUNITS
 70
0
  9
$PDMODE
 70
3
  9
$PDSIZE
 40
3.0
  9
$HANDSEED
  5
4E8
  9
$TILEMODE
 70
1
  9
$MEASUREMENT
 70
1
  9
$INSUNITS
 70
4
  0
ENDSEC
  0
SECTION
  2
CLASSES
  0
CLASS
  1
ACDBDICTIONARYWDFLT
  2
AcDbDictionaryWithDefault
  3
AutoCAD 2000
 90
0
 91
1
280
0
281
0
  0
CLASS
  1
ACDBPLACEHOLDER
  2
AcDbPlaceHolder
  3
AutoCAD 2000
 90
0
 91
1
280
0
281
0
  0
CLASS
  1
LAYOUT
  2
AcDbLayout
  3
AutoCAD 2000
 90
0
 91
0
280
0
281
0
  0
ENDSEC
  0
SECTION
  2
TABLES
  0
TABLE
  2
VPORT
  5
8
100
AcDbSymbolTable
 70
2
  0
VPORT
  5
1F4
100
AcDbSymbolTableRecord
100
AcDbViewportTableRecord
  2
*ACTIVE
 70
0
 10
0.0
 20
0.0
 11
1.0
 21
1.0
 12
210.0
 22
148.5
 13
0.0
 23
0.0
 14
1.0
 24
1.0
 15
0.0
 25
0.0
 16
0.0
 26
0.0
 36
1.0
 17
0.0
 27
0.0
 37
0.0
 40
297.0
 41
1.4141414141
 42
50.0
 43
0.0
 44
0.0
 50
0.0
 51
0.0
 71
0
 72
100
 73
1
 74
1
 75
0
 76
0
 77
0
 78
0
  0
ENDTAB
  0
TABLE
  2
LTYPE
  5
5
100
AcDbSymbolTable
 70
6
  0
LTYPE
  5
14
100
AcDbSymbolTableRecord
100
AcDbLinetypeTableRecord
  2
BYBLOCK
 70
0
  3

 72
65
 73
0
 40
0.0
  0
LTYPE
  5
15
100
AcDbSymbolTableRecord
100
AcDbLinetypeTableRecord
  2
BYLAYER
 70
0
  3

 72
65
 73
0
 40
0.0
  0
LTYPE
  5
16
100
AcDbSymbolTableRecord
100
AcDbLinetypeTableRecord
  2
CONTINUOUS
 70
64
  3
Solid line
 72
65
 73
0
 40
0.0
  0
LTYPE
  5
1F5
100
AcDbSymbolTableRecord
100
AcDbLinetypeTableRecord
  2
CENTER
 70
64
  3
____ _ ____ _ ____ _ ____ _ ____ _ ____ _ ____
 72
65
 73
4
 40
0.6
 49
0.375
 74
0
 49
-0.075
 74
0
 49
0.075
 74
0
 49
-0.075
 74
0
  0
LTYPE
  5
1F6
100
AcDbSymbolTableRecord
100
AcDbLinetypeTableRecord
  2
HIDDEN
 70
64
  3
- - - - - - - - - - - - - - - - - - - -
 72
65
 73
2
 40
0.2
 49
0.1
 74
0
 49
-0.1
 74
0
  0
LTYPE
  5
1F7
100
AcDbSymbolTableRecord
100
AcDbLinetypeTableRecord
  2
PHANTOM
 70
64
  3
_____ _ _ _____ _ _ _____ _ _ _____
 72
65
 73
6
 40
0.8
 49
0.45
 74
0
 49
-0.05
 74
0
 49
0.1
 74
0
 49
-0.05
 74
0
 49
0.1
 74
0
 49
-0.05
 74
0
  0
LTYPE
  5
1F8
100
AcDbSymbolTableRecord
100
AcDbLinetypeTableRecord
  2
DOT
 70
64
  3
. . . . . . . . . . . . . . . . . . . .
 72
65
 73
2
 40
0.2
 49
0.1
 74
0
 49
-0.1
 74
0
  0
LTYPE
  5
1F9
100
AcDbSymbolTableRecord
100
AcDbLinetypeTableRecord
  2
DASHED
 70
64
  3
- - - - - - - - - - - - - - - - - - - -
 72
65
 73
2
 40
0.2
 49
0.1
 74
0
 49
-0.1
 74
0
  0
ENDTAB
  0
TABLE
  2
LAYER
  5
2
100
AcDbSymbolTable
 70
36
  0
LAYER
  5
10
100
AcDbSymbolTableRecord
100
AcDbLayerTableRecord
  2
0
 70
0
 62
7
  6
CONTINUOUS
370
-3
390
F
  0
LAYER
  5
1FA
100
AcDbSymbolTableRecord
100
AcDbLayerTableRecord
  2
DEFAULT_1
 70
0
 62
7
  6
CENTER
370
-3
390
F
  0
LAYER
  5
1FB
100
AcDbSymbolTableRecord
100
AcDbLayerTableRecord
  2
DEFAULT_2
 70
0
 62
7
  6
HIDDEN
370
-3
390
F
  0
LAYER
  5
1FC
100
AcDbSymbolTableRecord
100
AcDbLayerTableRecord
  2
DEFAULT_3
 70
0
 62
7
  6
PHANTOM
370
-3
390
F
  0
LAYER
  5
1FD
100
AcDbSymbolTableRecord
100
AcDbLayerTableRecord
  2
ASSI
 70
0
 62
7
  6
CONTINUOUS
370
-3
390
F
  0
LAYER
  5
1FE
100
AcDbSymbolTableRecord
100
AcDbLayerTableRecord
  2
COORDINATE
 70
0
 62
7
  6
CONTINUOUS
370
-3
390
F
  0
LAYER
  5
1FF
100
AcDbSymbolTableRecord
100
AcDbLayerTableRecord
  2
COPY_PUBLISH
 70
0
 62
7
  6
CONTINUOUS
370
-3
390
F
  0
LAYER
  5
200
100
AcDbSymbolTableRecord
100
AcDbLayerTableRecord
  2
COSMETICI
 70
0
 62
7
  6
CONTINUOUS
370
-3
390
F
  0
LAYER
  5
201
100
AcDbSymbolTableRecord
100
AcDbLayerTableRecord
  2
CURVE
 70
0
 62
7
  6
CONTINUOUS
370
-3
390
F
  0
LAYER
  5
202
100
AcDbSymbolTableRecord
100
AcDbLayerTableRecord
  2
DRAFT
 70
0
 62
7
  6
CONTINUOUS
370
-3
390
F
  0
LAYER
  5
203
100
AcDbSymbolTableRecord
100
AcDbLayerTableRecord
  2
IMPORT_IGES
 70
0
 62
7
  6
CONTINUOUS
370
-3
390
F
  0
LAYER
  5
204
100
AcDbSymbolTableRecord
100
AcDbLayerTableRecord
  2
INTF_1
 70
0
 62
7
  6
CONTINUOUS
370
-3
390
F
  0
LAYER
  5
205
100
AcDbSymbolTableRecord
100
AcDbLayerTableRecord
  2
INTF_11
 70
0
 62
7
  6
CONTINUOUS
370
-3
390
F
  0
LAYER
  5
206
100
AcDbSymbolTableRecord
100
AcDbLayerTableRecord
  2
INTF_13
 70
0
 62
7
  6
CONTINUOUS
370
-3
390
F
  0
LAYER
  5
207
100
AcDbSymbolTableRecord
100
AcDbLayerTableRecord
  2
INTF_2
 70
0
 62
7
  6
CONTINUOUS
370
-3
390
F
  0
LAYER
  5
208
100
AcDbSymbolTableRecord
100
AcDbLayerTableRecord
  2
INTF_4
 70
0
 62
7
  6
CONTINUOUS
370
-3
390
F
  0
LAYER
  5
209
100
AcDbSymbolTableRecord
100
AcDbLayerTableRecord
  2
NOTE
 70
0
 62
7
  6
CONTINUOUS
370
-3
390
F
  0
LAYER
  5
20A
100
AcDbSymbolTableRecord
100
AcDbLayerTableRecord
  2
PIANI
 70
0
 62
7
  6
CONTINUOUS
370
-3
390
F
  0
LAYER
  5
20B
100
AcDbSymbolTableRecord
100
AcDbLayerTableRecord
  2
PUNTI
 70
0
 62
7
  6
CONTINUOUS
370
-3
390
F
  0
LAYER
  5
20C
100
AcDbSymbolTableRecord
100
AcDbLayerTableRecord
  2
RACCORDO
 70
0
 62
7
  6
CONTINUOUS
370
-3
390
F
  0
LAYER
  5
20D
100
AcDbSymbolTableRecord
100
AcDbLayerTableRecord
  2
RGB____0____0____0__
 70
0
 62
7
  6
CONTINUOUS
370
-3
390
F
  0
LAYER
  5
20E
100
AcDbSymbolTableRecord
100
AcDbLayerTableRecord
  2
SCRITTE
 70
0
 62
7
  6
CONTINUOUS
370
-3
390
F
  0
LAYER
  5
20F
100
AcDbSymbolTableRecord
100
AcDbLayerTableRecord
  2
SIMBOLI
 70
0
 62
7
  6
CONTINUOUS
370
-3
390
F
  0
LAYER
  5
210
100
AcDbSymbolTableRecord
100
AcDbLayerTableRecord
  2
SMUSSO
 70
0
 62
7
  6
CONTINUOUS
370
-3
390
F
  0
LAYER
  5
211
100
AcDbSymbolTableRecord
100
AcDbLayerTableRecord
  2
SNAPLINE
 70
0
 62
7
  6
CONTINUOUS
370
-3
390
F
  0
LAYER
  5
212
100
AcDbSymbolTableRecord
100
AcDbLayerTableRecord
  2
SUPERFICI
 70
0
 62
7
  6
CONTINUOUS
370
-3
390
F
  0
LAYER
  5
213
100
AcDbSymbolTableRecord
100
AcDbLayerTableRecord
  2
TRASH
 70
0
 62
7
  6
CONTINUOUS
370
-3
390
F
  0
ENDTAB
  0
TABLE
  2
STYLE
  5
3
100
AcDbSymbolTable
 70
1
  0
STYLE
  5
11
100
AcDbSymbolTableRecord
100
AcDbTextStyleTableRecord
  2
STANDARD
 70
0
 40
0.0
 41
0.8
 50
0.0
 71
0
 42
0.2
  3
txt
  4

  0
STYLE
  5
214
100
AcDbSymbolTableRecord
100
AcDbTextStyleTableRecord
  2
TEXTSTYLE_1
 70
0
 40
0.0
 41
0.8
 50
0.0
 71
0
 42
0.2
  3
gdt
  4

  0
ENDTAB
  0
TABLE
  2
VIEW
  5
6
100
AcDbSymbolTable
 70
0
  0
ENDTAB
  0
TABLE
  2
UCS
  5
7
100
AcDbSymbolTable
 70
0
  0
ENDTAB
  0
TABLE
  2
APPID
  5
9
100
AcDbSymbolTable
 70
1
  0
APPID
  5
215
100
AcDbSymbolTableRecord
100
AcDbRegAppTableRecord
  2
ACAD
 70
0
  0
ENDTAB
  0
TABLE
  2
BLOCK_RECORD
  5
1
100
AcDbSymbolTable
 70
0
  0
BLOCK_RECORD
  5
216
100
AcDbSymbolTableRecord
100
AcDbBlockTableRecord
  2
*Model_Space
  0
BLOCK_RECORD
  5
217
100
AcDbSymbolTableRecord
100
AcDbBlockTableRecord
  2
*Paper_Space
  0
BLOCK_RECORD
  5
218
100
AcDbSymbolTableRecord
100
AcDbBlockTableRecord
  2
_FILLED
  0
BLOCK_RECORD
  5
219
100
AcDbSymbolTableRecord
100
AcDbBlockTableRecord
  2
*D0
  0
BLOCK_RECORD
  5
21A
100
AcDbSymbolTableRecord
100
AcDbBlockTableRecord
  2
*D1
  0
BLOCK_RECORD
  5
21B
100
AcDbSymbolTableRecord
100
AcDbBlockTableRecord
  2
*D2
  0
ENDTAB
  0
TABLE
  2
DIMSTYLE
  5
A
100
AcDbSymbolTable
 70
1
100
AcDbDimStyleTable
 71
0
  0
DIMSTYLE
105
21C
100
AcDbSymbolTableRecord
100
AcDbDimStyleTableRecord
  2
STANDARD
 70
0
  3

  4

 40
1.0
 41
3.0
 42
0.5
 43
0.38
 44
1.5
 45
0.0
 46
0.0
 47
0.01
 48
0.01
140
3.0
141
0.09
142
0.0
143
25.4
144
1.0
145
0.0
146
1.0
147
0.625
 71
1
 72
0
 73
0
 74
0
 75
0
 76
0
 77
1
 78
8
 79
2
170
0
171
1
172
0
173
0
174
0
175
0
176
0
177
0
178
0
270
2
179
2
271
2
272
2
273
2
274
2
275
0
280
0
281
0
282
0
283
1
284
8
285
0
286
0
287
3
288
0
340
11
278
44
341
218
342
218
343
218
344
218
  0
DIMSTYLE
105
21D
100
AcDbSymbolTableRecord
100
AcDbDimStyleTableRecord
  2
DIMSTYLE_1
 70
0
  3

  4

 40
1.0
 41
3.0
 42
0.5
 43
0.38
 44
1.5
 45
0.0
 46
0.0
 47
0.0
 48
0.0
140
3.0
141
0.09
142
0.0
143
25.4
144
1.0
145
0.0
146
1.0
147
0.75
 71
0
 72
0
 73
0
 74
0
 75
0
 76
0
 77
1
 78
8
 79
2
170
0
171
1
172
0
173
0
174
0
175
0
176
0
177
0
178
0
270
2
179
2
271
2
272
2
273
2
274
2
275
0
280
0
281
0
282
0
283
1
284
8
285
0
286
0
287
3
288
0
340
11
278
44
341
218
342
218
343
218
344
218
  0
ENDTAB
  0
ENDSEC
  0
SECTION
  2
BLOCKS
  0
BLOCK
  5
20
100
AcDbEntity
  8
0
100
AcDbBlockBegin
  2
*Model_Space
 70
0
 10
0.0
 20
0.0
 30
0.0
  3
*Model_Space
  1

  0
ENDBLK
  5
21
100
AcDbEntity
  8
0
100
AcDbBlockEnd
  0
BLOCK
  5
1C
100
AcDbEntity
  8
0
100
AcDbBlockBegin
  2
*Paper_Space
 70
0
 10
0.0
 20
0.0
 30
0.0
  3
*Paper_Space
  1

  0
ENDBLK
  5
1D
100
AcDbEntity
  8
0
100
AcDbBlockEnd
  0
BLOCK
  5
21E
100
AcDbEntity
  8
0
100
AcDbBlockBegin
  2
_FILLED
 70
64
 10
0.0
 20
0.0
  3
_FILLED
  1

  0
SOLID
  5
21F
100
AcDbEntity
  8
0
  6
BYBLOCK
 62
0
100
AcDbTrace
 10
0.0
 20
0.0
 11
-1.0
 21
0.3166666667
 12
-1.0
 22
-0.3166666667
 13
-1.0
 23
-0.3166666667
  0
ENDBLK
  5
220
100
AcDbEntity
  8
0
  6
BYBLOCK
 62
0
100
AcDbBlockEnd
  0
BLOCK
  5
221
100
AcDbEntity
  8
0
100
AcDbBlockBegin
 62
7
  6
CONTINUOUS
  2
*D0
 70
65
 10
0.0
 20
0.0
  3
*D0
  1

  0
MTEXT
  5
222
100
AcDbEntity
  8
0
100
AcDbMText
 62
7
  6
CONTINUOUS
  7
STANDARD
 71
2
 72
1
 10
243.3093994778
 20
214.890502611
 30
0.0
 11
1.0
 21
0.0
 31
0.0
 73
2
 44
0.9
  1
{\ftxt;\W0.0001;\H0.0001;\~}{\ftxt;\W2.2142857143;\H3.0; }{\ftxt;\W0.0001;\H0.0001;\~}
 40
3.0
 41
9.9642857143
  0
LINE
  5
223
100
AcDbEntity
  8
0
100
AcDbLine
 62
7
  6
CONTINUOUS
 10
91.8093994778
 20
202.1425583088
 11
91.8093994778
 21
212.640502611
  0
LINE
  5
224
100
AcDbEntity
  8
0
100
AcDbLine
 62
7
  6
CONTINUOUS
 10
394.8093994778
 20
202.1425583088
 11
394.8093994778
 21
212.640502611
  0
LINE
  5
225
100
AcDbEntity
  8
0
100
AcDbLine
 62
7
  6
CONTINUOUS
 10
91.8093994778
 20
211.140502611
 11
243.3093994778
 21
211.140502611
  0
LINE
  5
226
100
AcDbEntity
  8
0
100
AcDbLine
 62
7
  6
CONTINUOUS
 10
394.8093994778
 20
211.140502611
 11
243.3093994778
 21
211.140502611
  0
INSERT
  5
227
100
AcDbEntity
  8
0
100
AcDbBlockReference
 62
7
  6
CONTINUOUS
  2
_FILLED
 10
91.8093994778
 20
211.140502611
 41
3.0
 42
3.0
 43
3.0
 50
180.0
  0
INSERT
  5
228
100
AcDbEntity
  8
0
100
AcDbBlockReference
 62
7
  6
CONTINUOUS
  2
_FILLED
 10
394.8093994778
 20
211.140502611
 41
3.0
 42
3.0
 43
3.0
  0
ENDBLK
  5
229
100
AcDbEntity
  8
0
  6
BYBLOCK
 62
0
100
AcDbBlockEnd
  0
BLOCK
  5
22A
100
AcDbEntity
  8
0
100
AcDbBlockBegin
 62
7
  6
CONTINUOUS
  2
*D1
 70
65
 10
0.0
 20
0.0
  3
*D1
  1

  0
MTEXT
  5
22B
100
AcDbEntity
  8
0
100
AcDbMText
 62
7
  6
CONTINUOUS
  7
STANDARD
 71
2
 72
1
 10
399.0593994778
 20
159.140502611
 30
0.0
 11
0.0
 21
1.0
 31
0.0
 73
2
 44
0.9
  1
{\ftxt;\W0.0001;\H0.0001;\~}{\ftxt;\W1.5714285714;\H3.0; }{\ftxt;\W0.0001;\H0.0001;\~}
 40
3.0
 41
7.0714285714
  0
LINE
  5
22C
100
AcDbEntity
  8
0
100
AcDbLine
 62
7
  6
CONTINUOUS
 10
393.8114551757
 20
203.140502611
 11
404.3093994778
 21
203.140502611
  0
LINE
  5
22D
100
AcDbEntity
  8
0
100
AcDbLine
 62
7
  6
CONTINUOUS
 10
393.8114551757
 20
115.140502611
 11
404.3093994778
 21
115.140502611
  0
LINE
  5
22E
100
AcDbEntity
  8
0
100
AcDbLine
 62
7
  6
CONTINUOUS
 10
402.8093994778
 20
203.140502611
 11
402.8093994778
 21
159.140502611
  0
LINE
  5
22F
100
AcDbEntity
  8
0
100
AcDbLine
 62
7
  6
CONTINUOUS
 10
402.8093994778
 20
115.140502611
 11
402.8093994778
 21
159.140502611
  0
INSERT
  5
230
100
AcDbEntity
  8
0
100
AcDbBlockReference
 62
7
  6
CONTINUOUS
  2
_FILLED
 10
402.8093994778
 20
203.140502611
 41
3.0
 42
3.0
 43
3.0
 50
90.0
  0
INSERT
  5
231
100
AcDbEntity
  8
0
100
AcDbBlockReference
 62
7
  6
CONTINUOUS
  2
_FILLED
 10
402.8093994778
 20
115.140502611
 41
3.0
 42
3.0
 43
3.0
 50
270.0
  0
ENDBLK
  5
232
100
AcDbEntity
  8
0
  6
BYBLOCK
 62
0
100
AcDbBlockEnd
  0
BLOCK
  5
233
100
AcDbEntity
  8
0
100
AcDbBlockBegin
 62
7
  6
CONTINUOUS
  2
*D2
 70
65
 10
0.0
 20
0.0
  3
*D2
  1

  0
MTEXT
  5
234
100
AcDbEntity
  8
0
100
AcDbMText
 62
7
  6
CONTINUOUS
  7
STANDARD
 71
2
 72
1
 10
58.719810705
 20
214.890502611
 30
0.0
 11
1.0
 21
0.0
 31
0.0
 73
2
 44
0.9
  1
{\ftxt;\W0.0001;\H0.0001;\~}{\ftxt;\W2.1428571429;\H3.0; }{\ftxt;\W0.0001;\H0.0001;\~}
 40
3.0
 41
9.6428571429
  0
LINE
  5
235
100
AcDbEntity
  8
0
100
AcDbLine
 62
7
  6
CONTINUOUS
 10
62.669810705
 20
202.138444092
 11
62.669810705
 21
212.640502611
  0
LINE
  5
236
100
AcDbEntity
  8
0
100
AcDbLine
 62
7
  6
CONTINUOUS
 10
54.769810705
 20
201.9105926744
 11
54.769810705
 21
212.640502611
  0
LINE
  5
237
100
AcDbEntity
  8
0
100
AcDbLine
 62
7
  6
CONTINUOUS
 10
62.669810705
 20
211.140502611
 11
66.669810705
 21
211.140502611
  0
LINE
  5
238
100
AcDbEntity
  8
0
100
AcDbLine
 62
7
  6
CONTINUOUS
 10
66.669810705
 20
211.140502611
 11
58.719810705
 21
211.140502611
  0
LINE
  5
239
100
AcDbEntity
  8
0
100
AcDbLine
 62
7
  6
CONTINUOUS
 10
54.769810705
 20
211.140502611
 11
50.769810705
 21
211.140502611
  0
LINE
  5
23A
100
AcDbEntity
  8
0
100
AcDbLine
 62
7
  6
CONTINUOUS
 10
50.769810705
 20
211.140502611
 11
58.719810705
 21
211.140502611
  0
INSERT
  5
23B
100
AcDbEntity
  8
0
100
AcDbBlockReference
 62
7
  6
CONTINUOUS
  2
_FILLED
 10
62.669810705
 20
211.140502611
 41
3.0
 42
3.0
 43
3.0
 50
180.0
  0
INSERT
  5
23C
100
AcDbEntity
  8
0
100
AcDbBlockReference
 62
7
  6
CONTINUOUS
  2
_FILLED
 10
54.769810705
 20
211.140502611
 41
3.0
 42
3.0
 43
3.0
  0
ENDBLK
  5
23D
100
AcDbEntity
  8
0
  6
BYBLOCK
 62
0
100
AcDbBlockEnd
  0
ENDSEC
  0
SECTION
  2
ENTITIES
  0
DIMENSION
  5
23E
100
AcDbEntity
  8
0
100
AcDbDimension
 62
7
  6
CONTINUOUS
  2
*D0
 10
394.8093994778
 20
211.140502611
 11
242.8808166504
 21
211.140502611
 70
160
 71
2
 72
2
 41
0.9
 42
303.0
  1
{\ftxt;\W0.0001;\H0.0001;\~}{\ftxt;\W2.2142857143;\H3.0; }{\ftxt;\W0.0001;\H0.0001;\~}
  3
DIMSTYLE_1
100
AcDbAlignedDimension
 13
91.8093994778
 23
201.6425583088
 14
394.8093994778
 24
201.6425583088
100
AcDbRotatedDimension
  0
DIMENSION
  5
23F
100
AcDbEntity
  8
0
100
AcDbDimension
 62
7
  6
CONTINUOUS
  2
*D1
 10
402.8093994778
 20
115.140502611
 11
402.8093994778
 21
158.7119345192
 70
160
 71
2
 72
2
 41
0.9
 42
88.0
  1
{\ftxt;\W0.0001;\H0.0001;\~}{\ftxt;\W1.5714285714;\H3.0; }{\ftxt;\W0.0001;\H0.0001;\~}
  3
DIMSTYLE_1
100
AcDbAlignedDimension
 13
393.3114551757
 23
203.140502611
 14
393.3114551757
 24
115.140502611
 50
270.0
100
AcDbRotatedDimension
  0
DIMENSION
  5
240
100
AcDbEntity
  8
0
100
AcDbDimension
 62
7
  6
CONTINUOUS
  2
*D2
 10
54.769810705
 20
211.140502611
 11
58.2912364197
 21
211.140502611
 70
160
 71
2
 72
2
 41
0.9
 42
7.9
  1
{\ftxt;\W0.0001;\H0.0001;\~}{\ftxt;\W2.1428571429;\H3.0; }{\ftxt;\W0.0001;\H0.0001;\~}
  3
DIMSTYLE_1
100
AcDbAlignedDimension
 13
62.669810705
 23
201.638444092
 14
54.769810705
 24
201.4105926744
 50
180.0
100
AcDbRotatedDimension
  0
LWPOLYLINE
  5
241
100
AcDbEntity
  8
RACCORDO
100
AcDbPolyline
 62
250
  6
CONTINUOUS
 90
34
 70
0
 10
92.5406798797
 20
116.8704125476
 10
92.5419199769
 20
116.8222009015
 10
92.5453345927
 20
116.7745882225
 10
92.5509237269
 20
116.7275745104
 10
92.5587022902
 20
116.6811673768
 10
92.568655372
 20
116.6353592102
 10
92.5807382409
 20
116.5901271764
 10
92.5949768629
 20
116.5453461355
 10
92.6113452719
 20
116.5011412274
 10
92.6297208389
 20
116.457865038
 10
92.6501100751
 20
116.4155491689
 10
92.6725064692
 20
116.3741620186
 10
92.6967678585
 20
116.3339613687
 10
92.722908705
 20
116.29494923
 10
92.7509145467
 20
116.2571235918
 10
92.7805998344
 20
116.2207362033
 10
92.8119742585
 20
116.1857979593
 10
92.8450281286
 20
116.152297965
 10
92.8795468245
 20
116.1204552854
 10
92.9155497591
 20
116.0902754753
 10
92.9530175194
 20
116.0617529799
 10
92.9916772462
 20
116.0350901999
 10
93.0314273516
 20
116.0103386065
 10
93.0723694235
 20
115.9874467284
 10
93.114535367
 20
115.9664625519
 10
93.1580077931
 20
115.9473256539
 10
93.2027040908
 20
115.9300964575
 10
93.2484083312
 20
115.9150042178
 10
93.2951988822
 20
115.9020513672
 10
93.342997376
 20
115.8912354733
 10
93.3913527794
 20
115.8827784951
 10
93.4401147481
 20
115.8767544187
 10
93.4894336264
 20
115.873089258
 10
93.5393094144
 20
115.8717830128
  0
LWPOLYLINE
  5
242
100
AcDbEntity
  8
ASSI
100
AcDbPolyline
 62
250
  6
CONTINUOUS
 90
34
 70
0
 10
92.5406798797
 20
116.8704125476
 10
92.5419199769
 20
116.8222009015
 10
92.5453345927
 20
116.7745882225
 10
92.5509237269
 20
116.7275745104
 10
92.5587022902
 20
116.6811673768
 10
92.568655372
 20
116.6353592102
 10
92.5807382409
 20
116.5901271764
 10
92.5949768629
 20
116.5453461355
 10
92.6113452719
 20
116.5011412274
 10
92.6297208389
 20
116.457865038
 10
92.6501100751
 20
116.4155491689
 10
92.6725064692
 20
116.3741620186
 10
92.6967678585
 20
116.3339613687
 10
92.722908705
 20
116.29494923
 10
92.7509145467
 20
116.2571235918
 10
92.7805998344
 20
116.2207362033
 10
92.8119742585
 20
116.1857979593
 10
92.8450281286
 20
116.152297965
 10
92.8795468245
 20
116.1204552854
 10
92.9155497591
 20
116.0902754753
 10
92.9530175194
 20
116.0617529799
 10
92.9916772462
 20
116.0350901999
 10
93.0314273516
 20
116.0103386065
 10
93.0723694235
 20
115.9874467284
 10
93.114535367
 20
115.9664625519
 10
93.1580077931
 20
115.9473256539
 10
93.2027040908
 20
115.9300964575
 10
93.2484083312
 20
115.9150042178
 10
93.2951988822
 20
115.9020513672
 10
93.342997376
 20
115.8912354733
 10
93.3913527794
 20
115.8827784951
 10
93.4401147481
 20
115.8767544187
 10
93.4894336264
 20
115.873089258
 10
93.5393094144
 20
115.8717830128
  0
LWPOLYLINE
  5
243
100
AcDbEntity
  8
RACCORDO
100
AcDbPolyline
 62
250
  6
CONTINUOUS
 90
34
 70
0
 10
92.0413651123
 20
116.8704125476
 10
92.0431588838
 20
116.7984118781
 10
92.0483650919
 20
116.727000548
 10
92.0569119665
 20
116.6563365822
 10
92.0686896135
 20
116.5867327518
 10
92.0836296662
 20
116.5181698115
 10
92.1017807579
 20
116.4503125919
 10
92.1231766391
 20
116.3831271041
 10
92.1477336378
 20
116.3169550414
 10
92.1753683902
 20
116.2520331228
 10
92.2059988499
 20
116.1885392101
 10
92.2395692864
 20
116.1265750379
 10
92.2760165753
 20
116.0662552739
 10
92.3152660813
 20
116.0077056775
 10
92.3572268413
 20
115.9510638177
 10
92.4018046835
 20
115.8964576703
 10
92.4488991368
 20
115.8440101795
 10
92.4984081213
 20
115.793834711
 10
92.5502269906
 20
115.7460381153
 10
92.6042551059
 20
115.7007163059
 10
92.6603616117
 20
115.6579818063
 10
92.7183860679
 20
115.6179539318
 10
92.7780465253
 20
115.5808059307
 10
92.8393513001
 20
115.5465122205
 10
92.9025991804
 20
115.5149383905
 10
92.9678054594
 20
115.4861578567
 10
93.0347264139
 20
115.460358212
 10
93.1032960695
 20
115.4376383353
 10
93.1734699496
 20
115.4180981125
 10
93.2450141517
 20
115.4018869675
 10
93.3175615162
 20
115.389148516
 10
93.3908735909
 20
115.3799636818
 10
93.464848637
 20
115.3743843614
 10
93.5393094144
 20
115.3724682454
  0
LWPOLYLINE
  5
244
100
AcDbEntity
  8
ASSI
100
AcDbPolyline
 62
250
  6
CONTINUOUS
 90
34
 70
0
 10
92.0413651123
 20
116.8704125476
 10
92.0431588838
 20
116.7984118781
 10
92.0483650919
 20
116.727000548
 10
92.0569119665
 20
116.6563365822
 10
92.0686896135
 20
116.5867327518
 10
92.0836296662
 20
116.5181698115
 10
92.1017807579
 20
116.4503125919
 10
92.1231766391
 20
116.3831271041
 10
92.1477336378
 20
116.3169550414
 10
92.1753683902
 20
116.2520331228
 10
92.2059988499
 20
116.1885392101
 10
92.2395692864
 20
116.1265750379
 10
92.2760165753
 20
116.0662552739
 10
92.3152660813
 20
116.0077056775
 10
92.3572268413
 20
115.9510638177
 10
92.4018046835
 20
115.8964576703
 10
92.4488991368
 20
115.8440101795
 10
92.4984081213
 20
115.793834711
 10
92.5502269906
 20
115.7460381153
 10
92.6042551059
 20
115.7007163059
 10
92.6603616117
 20
115.6579818063
 10
92.7183860679
 20
115.6179539318
 10
92.7780465253
 20
115.5808059307
 10
92.8393513001
 20
115.5465122205
 10
92.9025991804
 20
115.5149383905
 10
92.9678054594
 20
115.4861578567
 10
93.0347264139
 20
115.460358212
 10
93.1032960695
 20
115.4376383353
 10
93.1734699496
 20
115.4180981125
 10
93.2450141517
 20
115.4018869675
 10
93.3175615162
 20
115.389148516
 10
93.3908735909
 20
115.3799636818
 10
93.464848637
 20
115.3743843614
 10
93.5393094144
 20
115.3724682454
  0
LWPOLYLINE
  5
245
100
AcDbEntity
  8
0
100
AcDbPolyline
 62
7
  6
CONTINUOUS
 90
34
 70
0
 10
91.8093994778
 20
116.6384469131
 10
91.8110854906
 20
116.5672863545
 10
91.8161571408
 20
116.4961384781
 10
91.8246249604
 20
116.4251649778
 10
91.8365077264
 20
116.354443656
 10
91.8517923274
 20
116.2842257003
 10
91.8703933247
 20
116.2149265246
 10
91.8922406474
 20
116.1467393803
 10
91.9172799744
 20
116.0797746719
 10
91.9453844693
 20
116.0143035821
 10
91.9763718885
 20
115.9506299089
 10
92.0102140588
 20
115.8887033474
 10
92.0470429139
 20
115.8282776534
 10
92.0868980015
 20
115.7693642621
 10
92.1296286359
 20
115.7122573484
 10
92.1751159769
 20
115.6571557156
 10
92.2233146745
 20
115.6041506836
 10
92.2740892836
 20
115.5534248986
 10
92.3271413999
 20
115.5052765753
 10
92.3823002835
 20
115.4598317388
 10
92.4394635602
 20
115.4171462686
 10
92.4983939488
 20
115.3773635269
 10
92.5587759379
 20
115.3406388853
 10
92.6206121839
 20
115.3069152274
 10
92.6841615254
 20
115.2760480915
 10
92.7494607432
 20
115.2480665723
 10
92.8162177318
 20
115.2231421358
 10
92.8842161609
 20
115.2013809441
 10
92.9533628148
 20
115.1828371253
 10
93.0234523158
 20
115.1675893106
 10
93.0940828714
 20
115.1557250756
 10
93.165008863
 20
115.1472628229
 10
93.2361495772
 20
115.1421902525
 10
93.3073437799
 20
115.140502611
  0
LWPOLYLINE
  5
246
100
AcDbEntity
  8
ASSI
100
AcDbPolyline
 62
7
  6
CONTINUOUS
 90
34
 70
0
 10
91.8093994778
 20
116.6384469131
 10
91.8110854906
 20
116.5672863545
 10
91.8161571408
 20
116.4961384781
 10
91.8246249604
 20
116.4251649778
 10
91.8365077264
 20
116.354443656
 10
91.8517923274
 20
116.2842257003
 10
91.8703933247
 20
116.2149265246
 10
91.8922406474
 20
116.1467393803
 10
91.9172799744
 20
116.0797746719
 10
91.9453844693
 20
116.0143035821
 10
91.9763718885
 20
115.9506299089
 10
92.0102140588
 20
115.8887033474
 10
92.0470429139
 20
115.8282776534
 10
92.0868980015
 20
115.7693642621
 10
92.1296286359
 20
115.7122573484
 10
92.1751159769
 20
115.6571557156
 10
92.2233146745
 20
115.6041506836
 10
92.2740892836
 20
115.5534248986
 10
92.3271413999
 20
115.5052765753
 10
92.3823002835
 20
115.4598317388
 10
92.4394635602
 20
115.4171462686
 10
92.4983939488
 20
115.3773635269
 10
92.5587759379
 20
115.3406388853
 10
92.6206121839
 20
115.3069152274
 10
92.6841615254
 20
115.2760480915
 10
92.7494607432
 20
115.2480665723
 10
92.8162177318
 20
115.2231421358
 10
92.8842161609
 20
115.2013809441
 10
92.9533628148
 20
115.1828371253
 10
93.0234523158
 20
115.1675893106
 10
93.0940828714
 20
115.1557250756
 10
93.165008863
 20
115.1472628229
 10
93.2361495772
 20
115.1421902525
 10
93.3073437799
 20
115.140502611
  0
LINE
  5
247
100
AcDbEntity
  8
0
100
AcDbLine
 62
7
  6
CONTINUOUS
 10
91.8093994778
 20
201.6425583088
 11
91.8093994778
 21
116.6384469131
  0
LINE
  5
248
100
AcDbEntity
  8
ASSI
100
AcDbLine
 62
7
  6
CONTINUOUS
 10
91.8093994778
 20
201.6425583088
 11
91.8093994778
 21
116.6384469131
  0
LINE
  5
249
100
AcDbEntity
  8
RACCORDO
100
AcDbLine
 62
250
  6
CONTINUOUS
 10
92.0413651123
 20
201.4105926744
 11
92.0413651123
 21
116.8704125476
  0
LINE
  5
24A
100
AcDbEntity
  8
ASSI
100
AcDbLine
 62
250
  6
CONTINUOUS
 10
92.0413651123
 20
201.4105926744
 11
92.0413651123
 21
116.8704125476
  0
LINE
  5
24B
100
AcDbEntity
  8
RACCORDO
100
AcDbLine
 62
250
  6
CONTINUOUS
 10
92.5406798797
 20
201.4105926744
 11
92.5406798797
 21
116.8704125476
  0
LINE
  5
24C
100
AcDbEntity
  8
ASSI
100
AcDbLine
 62
250
  6
CONTINUOUS
 10
92.5406798797
 20
201.4105926744
 11
92.5406798797
 21
116.8704125476
  0
LINE
  5
24D
100
AcDbEntity
  8
RACCORDO
100
AcDbLine
 62
250
  6
CONTINUOUS
 10
93.5393094144
 20
115.8717830128
 11
93.5393094144
 21
115.3724682454
  0
LINE
  5
24E
100
AcDbEntity
  8
ASSI
100
AcDbLine
 62
250
  6
CONTINUOUS
 10
93.5393094144
 20
115.8717830128
 11
93.5393094144
 21
115.3724682454
  0
LINE
  5
24F
100
AcDbEntity
  8
RACCORDO
100
AcDbLine
 62
250
  6
CONTINUOUS
 10
93.5393094144
 20
202.4092222091
 11
93.5393094144
 21
202.9085369765
  0
LINE
  5
250
100
AcDbEntity
  8
ASSI
100
AcDbLine
 62
250
  6
CONTINUOUS
 10
93.5393094144
 20
202.4092222091
 11
93.5393094144
 21
202.9085369765
  0
LINE
  5
251
100
AcDbEntity
  8
RACCORDO
100
AcDbLine
 62
250
  6
CONTINUOUS
 10
113.7756262469
 20
132.8566075362
 11
113.7756262469
 21
185.4243976857
  0
LINE
  5
252
100
AcDbEntity
  8
ASSI
100
AcDbLine
 62
250
  6
CONTINUOUS
 10
113.7756262469
 20
132.8566075362
 11
113.7756262469
 21
185.4243976857
  0
LINE
  5
253
100
AcDbEntity
  8
RACCORDO
100
AcDbLine
 62
250
  6
CONTINUOUS
 10
114.0755805555
 20
132.8566075362
 11
114.0755805555
 21
185.4243976857
  0
LINE
  5
254
100
AcDbEntity
  8
ASSI
100
AcDbLine
 62
250
  6
CONTINUOUS
 10
114.0755805555
 20
132.8566075362
 11
114.0755805555
 21
185.4243976857
  0
LINE
  5
255
100
AcDbEntity
  8
RACCORDO
100
AcDbLine
 62
7
  6
CONTINUOUS
 10
114.0843994778
 20
185.4155787634
 11
114.0843994778
 21
132.8654264585
  0
LINE
  5
256
100
AcDbEntity
  8
ASSI
100
AcDbLine
 62
7
  6
CONTINUOUS
 10
114.0843994778
 20
185.4155787634
 11
114.0843994778
 21
132.8654264585
  0
LINE
  5
257
100
AcDbEntity
  8
RACCORDO
100
AcDbLine
 62
250
  6
CONTINUOUS
 10
114.5755044031
 20
186.2242758418
 11
114.5755044031
 21
185.9243215333
  0
LINE
  5
258
100
AcDbEntity
  8
ASSI
100
AcDbLine
 62
250
  6
CONTINUOUS
 10
114.5755044031
 20
186.2242758418
 11
114.5755044031
 21
185.9243215333
  0
LINE
  5
259
100
AcDbEntity
  8
RACCORDO
100
AcDbLine
 62
250
  6
CONTINUOUS
 10
114.5755044031
 20
132.0567293801
 11
114.5755044031
 21
132.3566836886
  0
LINE
  5
25A
100
AcDbEntity
  8
ASSI
100
AcDbLine
 62
250
  6
CONTINUOUS
 10
114.5755044031
 20
132.0567293801
 11
114.5755044031
 21
132.3566836886
  0
LWPOLYLINE
  5
25B
100
AcDbEntity
  8
RACCORDO
100
AcDbPolyline
 62
250
  6
CONTINUOUS
 90
28
 70
0
 10
113.7756262469
 20
185.4243976857
 10
113.7769125609
 20
185.4701693291
 10
113.7808186194
 20
185.5156466151
 10
113.7873444226
 20
185.5608295439
 10
113.7965305005
 20
185.6059221772
 10
113.8083363231
 20
185.6507204533
 10
113.8226402998
 20
185.6946121861
 10
113.8394905339
 20
185.7375599031
 10
113.8588389223
 20
185.7796010769
 10
113.8804195644
 20
185.8202359397
 10
113.9042203826
 20
185.859388097
 10
113.9302534545
 20
185.8971339433
 10
113.9582891137
 20
185.933202894
 10
113.9883372664
 20
185.9675966382
 10
114.0203880064
 20
186.0003134869
 10
114.0541819484
 20
186.0310777882
 10
114.0896383884
 20
186.0598501419
 10
114.1268380305
 20
186.0866699484
 10
114.1657636009
 20
186.1113797563
 10
114.2065396351
 20
186.1340645313
 10
114.2490415977
 20
186.1546393077
 10
114.2928786096
 20
186.1726917373
 10
114.3382037312
 20
186.1881931297
 10
114.384863902
 20
186.2011721754
 10
114.4320090608
 20
186.2113025972
 10
114.4793558536
 20
186.218475636
 10
114.5271876344
 20
186.2228000509
 10
114.5755044031
 20
186.2242758418
  0
LWPOLYLINE
  5
25C
100
AcDbEntity
  8
ASSI
100
AcDbPolyline
 62
250
  6
CONTINUOUS
 90
28
 70
0
 10
113.7756262469
 20
185.4243976857
 10
113.7769125609
 20
185.4701693291
 10
113.7808186194
 20
185.5156466151
 10
113.7873444226
 20
185.5608295439
 10
113.7965305005
 20
185.6059221772
 10
113.8083363231
 20
185.6507204533
 10
113.8226402998
 20
185.6946121861
 10
113.8394905339
 20
185.7375599031
 10
113.8588389223
 20
185.7796010769
 10
113.8804195644
 20
185.8202359397
 10
113.9042203826
 20
185.859388097
 10
113.9302534545
 20
185.8971339433
 10
113.9582891137
 20
185.933202894
 10
113.9883372664
 20
185.9675966382
 10
114.0203880064
 20
186.0003134869
 10
114.0541819484
 20
186.0310777882
 10
114.0896383884
 20
186.0598501419
 10
114.1268380305
 20
186.0866699484
 10
114.1657636009
 20
186.1113797563
 10
114.2065396351
 20
186.1340645313
 10
114.2490415977
 20
186.1546393077
 10
114.2928786096
 20
186.1726917373
 10
114.3382037312
 20
186.1881931297
 10
114.384863902
 20
186.2011721754
 10
114.4320090608
 20
186.2113025972
 10
114.4793558536
 20
186.218475636
 10
114.5271876344
 20
186.2228000509
 10
114.5755044031
 20
186.2242758418
  0
LWPOLYLINE
  5
25D
100
AcDbEntity
  8
RACCORDO
100
AcDbPolyline
 62
250
  6
CONTINUOUS
 90
28
 70
0
 10
114.0755805555
 20
185.4243976857
 10
114.0763852668
 20
185.4528509412
 10
114.0788187903
 20
185.4813104062
 10
114.0828901746
 20
185.5096818365
 10
114.0886109218
 20
185.5379039335
 10
114.095974953
 20
185.5658447579
 10
114.1049388534
 20
185.5933072346
 10
114.1154669725
 20
185.620188728
 10
114.1275267374
 20
185.6464118166
 10
114.1410431452
 20
185.6718298278
 10
114.155936464
 20
185.6963280909
 10
114.172166078
 20
185.7198716265
 10
114.1897076067
 20
185.7424381815
 10
114.2085059737
 20
185.7639596378
 10
114.2284946875
 20
185.7843624281
 10
114.249640402
 20
185.8036102166
 10
114.2718301401
 20
185.8215998237
 10
114.2950378649
 20
185.8383097734
 10
114.3193825052
 20
185.8537953772
 10
114.344880848
 20
185.8680065032
 10
114.3713984309
 20
185.8808088852
 10
114.3988369018
 20
185.8921078455
 10
114.4271854489
 20
185.901848102
 10
114.4562881494
 20
185.9099260514
 10
114.4858049111
 20
185.9162281617
 10
114.51554504
 20
185.9207254174
 10
114.5454810146
 20
185.9234251597
 10
114.5755044031
 20
185.9243215333
  0
LWPOLYLINE
  5
25E
100
AcDbEntity
  8
ASSI
100
AcDbPolyline
 62
250
  6
CONTINUOUS
 90
28
 70
0
 10
114.0755805555
 20
185.4243976857
 10
114.0763852668
 20
185.4528509412
 10
114.0788187903
 20
185.4813104062
 10
114.0828901746
 20
185.5096818365
 10
114.0886109218
 20
185.5379039335
 10
114.095974953
 20
185.5658447579
 10
114.1049388534
 20
185.5933072346
 10
114.1154669725
 20
185.620188728
 10
114.1275267374
 20
185.6464118166
 10
114.1410431452
 20
185.6718298278
 10
114.155936464
 20
185.6963280909
 10
114.172166078
 20
185.7198716265
 10
114.1897076067
 20
185.7424381815
 10
114.2085059737
 20
185.7639596378
 10
114.2284946875
 20
185.7843624281
 10
114.249640402
 20
185.8036102166
 10
114.2718301401
 20
185.8215998237
 10
114.2950378649
 20
185.8383097734
 10
114.3193825052
 20
185.8537953772
 10
114.344880848
 20
185.8680065032
 10
114.3713984309
 20
185.8808088852
 10
114.3988369018
 20
185.8921078455
 10
114.4271854489
 20
185.901848102
 10
114.4562881494
 20
185.9099260514
 10
114.4858049111
 20
185.9162281617
 10
114.51554504
 20
185.9207254174
 10
114.5454810146
 20
185.9234251597
 10
114.5755044031
 20
185.9243215333
  0
LINE
  5
25F
100
AcDbEntity
  8
RACCORDO
100
AcDbLine
 62
250
  6
CONTINUOUS
 10
159.0432945526
 20
186.2242758418
 11
159.0432945526
 21
185.9243215333
  0
LINE
  5
260
100
AcDbEntity
  8
ASSI
100
AcDbLine
 62
250
  6
CONTINUOUS
 10
159.0432945526
 20
186.2242758418
 11
159.0432945526
 21
185.9243215333
  0
LINE
  5
261
100
AcDbEntity
  8
RACCORDO
100
AcDbLine
 62
250
  6
CONTINUOUS
 10
159.0432945526
 20
132.0567293801
 11
159.0432945526
 21
132.3566836886
  0
LINE
  5
262
100
AcDbEntity
  8
ASSI
100
AcDbLine
 62
250
  6
CONTINUOUS
 10
159.0432945526
 20
132.0567293801
 11
159.0432945526
 21
132.3566836886
  0
LINE
  5
263
100
AcDbEntity
  8
RACCORDO
100
AcDbLine
 62
7
  6
CONTINUOUS
 10
159.5343994778
 20
132.8654264585
 11
159.5343994778
 21
185.4155787634
  0
LINE
  5
264
100
AcDbEntity
  8
ASSI
100
AcDbLine
 62
7
  6
CONTINUOUS
 10
159.5343994778
 20
132.8654264585
 11
159.5343994778
 21
185.4155787634
  0
LINE
  5
265
100
AcDbEntity
  8
RACCORDO
100
AcDbLine
 62
250
  6
CONTINUOUS
 10
159.5432184001
 20
185.4243976857
 11
159.5432184001
 21
132.8566075362
  0
LINE
  5
266
100
AcDbEntity
  8
ASSI
100
AcDbLine
 62
250
  6
CONTINUOUS
 10
159.5432184001
 20
185.4243976857
 11
159.5432184001
 21
132.8566075362
  0
LINE
  5
267
100
AcDbEntity
  8
RACCORDO
100
AcDbLine
 62
250
  6
CONTINUOUS
 10
159.8431727087
 20
185.4243976857
 11
159.8431727087
 21
132.8566075362
  0
LINE
  5
268
100
AcDbEntity
  8
ASSI
100
AcDbLine
 62
250
  6
CONTINUOUS
 10
159.8431727087
 20
185.4243976857
 11
159.8431727087
 21
132.8566075362
  0
LWPOLYLINE
  5
269
100
AcDbEntity
  8
RACCORDO
100
AcDbPolyline
 62
250
  6
CONTINUOUS
 90
28
 70
0
 10
159.5432184001
 20
132.8566075362
 10
159.5424136888
 20
132.8281542807
 10
159.5399801653
 20
132.7996948158
 10
159.535908781
 20
132.7713233854
 10
159.5301880339
 20
132.7431012884
 10
159.5228240026
 20
132.715160464
 10
159.5138601022
 20
132.6876979874
 10
159.5033319831
 20
132.6608164939
 10
159.4912722182
 20
132.6345934053
 10
159.4777558104
 20
132.6091753941
 10
159.4628624916
 20
132.584677131
 10
159.4466328777
 20
132.5611335954
 10
159.4290913489
 20
132.5385670405
 10
159.4102929819
 20
132.5170455841
 10
159.3903042681
 20
132.4966427939
 10
159.3691585536
 20
132.4773950054
 10
159.3469688155
 20
132.4594053982
 10
159.3237610907
 20
132.4426954485
 10
159.2994164504
 20
132.4272098447
 10
159.2739181076
 20
132.4129987187
 10
159.2474005248
 20
132.4001963367
 10
159.2199620538
 20
132.3888973765
 10
159.1916135067
 20
132.3791571199
 10
159.1625108062
 20
132.3710791705
 10
159.1329940445
 20
132.3647770603
 10
159.1032539156
 20
132.3602798045
 10
159.073317941
 20
132.3575800623
 10
159.0432945526
 20
132.3566836886
  0
LWPOLYLINE
  5
26A
100
AcDbEntity
  8
ASSI
100
AcDbPolyline
 62
250
  6
CONTINUOUS
 90
28
 70
0
 10
159.5432184001
 20
132.8566075362
 10
159.5424136888
 20
132.8281542807
 10
159.5399801653
 20
132.7996948158
 10
159.535908781
 20
132.7713233854
 10
159.5301880339
 20
132.7431012884
 10
159.5228240026
 20
132.715160464
 10
159.5138601022
 20
132.6876979874
 10
159.5033319831
 20
132.6608164939
 10
159.4912722182
 20
132.6345934053
 10
159.4777558104
 20
132.6091753941
 10
159.4628624916
 20
132.584677131
 10
159.4466328777
 20
132.5611335954
 10
159.4290913489
 20
132.5385670405
 10
159.4102929819
 20
132.5170455841
 10
159.3903042681
 20
132.4966427939
 10
159.3691585536
 20
132.4773950054
 10
159.3469688155
 20
132.4594053982
 10
159.3237610907
 20
132.4426954485
 10
159.2994164504
 20
132.4272098447
 10
159.2739181076
 20
132.4129987187
 10
159.2474005248
 20
132.4001963367
 10
159.2199620538
 20
132.3888973765
 10
159.1916135067
 20
132.3791571199
 10
159.1625108062
 20
132.3710791705
 10
159.1329940445
 20
132.3647770603
 10
159.1032539156
 20
132.3602798045
 10
159.073317941
 20
132.3575800623
 10
159.0432945526
 20
132.3566836886
  0
LWPOLYLINE
  5
26B
100
AcDbEntity
  8
RACCORDO
100
AcDbPolyline
 62
250
  6
CONTINUOUS
 90
28
 70
0
 10
159.8431727087
 20
132.8566075362
 10
159.8418863947
 20
132.8108358928
 10
159.8379803362
 20
132.7653586068
 10
159.831454533
 20
132.7201756781
 10
159.8222684551
 20
132.6750830447
 10
159.8104626325
 20
132.6302847687
 10
159.7961586558
 20
132.5863930358
 10
159.7793084217
 20
132.5434453188
 10
159.7599600333
 20
132.501404145
 10
159.7383793912
 20
132.4607692822
 10
159.7145785731
 20
132.4216171249
 10
159.6885455011
 20
132.3838712786
 10
159.6605098419
 20
132.3478023279
 10
159.6304616892
 20
132.3134085837
 10
159.5984109492
 20
132.2806917351
 10
159.5646170072
 20
132.2499274338
 10
159.5291605672
 20
132.22115508
 10
159.4919609252
 20
132.1943352735
 10
159.4530353547
 20
132.1696254656
 10
159.4122593205
 20
132.1469406907
 10
159.3697573579
 20
132.1263659143
 10
159.3259203461
 20
132.1083134847
 10
159.2805952244
 20
132.0928120922
 10
159.2339350536
 20
132.0798330465
 10
159.1867898948
 20
132.0697026247
 10
159.139443102
 20
132.0625295859
 10
159.0916113212
 20
132.058205171
 10
159.0432945526
 20
132.0567293801
  0
LWPOLYLINE
  5
26C
100
AcDbEntity
  8
ASSI
100
AcDbPolyline
 62
250
  6
CONTINUOUS
 90
28
 70
0
 10
159.8431727087
 20
132.8566075362
 10
159.8418863947
 20
132.8108358928
 10
159.8379803362
 20
132.7653586068
 10
159.831454533
 20
132.7201756781
 10
159.8222684551
 20
132.6750830447
 10
159.8104626325
 20
132.6302847687
 10
159.7961586558
 20
132.5863930358
 10
159.7793084217
 20
132.5434453188
 10
159.7599600333
 20
132.501404145
 10
159.7383793912
 20
132.4607692822
 10
159.7145785731
 20
132.4216171249
 10
159.6885455011
 20
132.3838712786
 10
159.6605098419
 20
132.3478023279
 10
159.6304616892
 20
132.3134085837
 10
159.5984109492
 20
132.2806917351
 10
159.5646170072
 20
132.2499274338
 10
159.5291605672
 20
132.22115508
 10
159.4919609252
 20
132.1943352735
 10
159.4530353547
 20
132.1696254656
 10
159.4122593205
 20
132.1469406907
 10
159.3697573579
 20
132.1263659143
 10
159.3259203461
 20
132.1083134847
 10
159.2805952244
 20
132.0928120922
 10
159.2339350536
 20
132.0798330465
 10
159.1867898948
 20
132.0697026247
 10
159.139443102
 20
132.0625295859
 10
159.0916113212
 20
132.058205171
 10
159.0432945526
 20
132.0567293801
  0
LINE
  5
26D
100
AcDbEntity
  8
RACCORDO
100
AcDbLine
 62
250
  6
CONTINUOUS
 10
159.0432945526
 20
185.9243215333
 11
159.0344756302
 21
185.915502611
  0
LINE
  5
26E
100
AcDbEntity
  8
ASSI
100
AcDbLine
 62
250
  6
CONTINUOUS
 10
159.0432945526
 20
185.9243215333
 11
159.0344756302
 21
185.915502611
  0
LINE
  5
26F
100
AcDbEntity
  8
RACCORDO
100
AcDbLine
 62
250
  6
CONTINUOUS
 10
159.5432184001
 20
185.4243976857
 11
159.5343994778
 21
185.4155787634
  0
LINE
  5
270
100
AcDbEntity
  8
ASSI
100
AcDbLine
 62
250
  6
CONTINUOUS
 10
159.5432184001
 20
185.4243976857
 11
159.5343994778
 21
185.4155787634
  0
LINE
  5
271
100
AcDbEntity
  8
RACCORDO
100
AcDbLine
 62
250
  6
CONTINUOUS
 10
92.0413651123
 20
116.8704125476
 11
91.8093994778
 21
116.6384469131
  0
LINE
  5
272
100
AcDbEntity
  8
ASSI
100
AcDbLine
 62
250
  6
CONTINUOUS
 10
92.0413651123
 20
116.8704125476
 11
91.8093994778
 21
116.6384469131
  0
LINE
  5
273
100
AcDbEntity
  8
RACCORDO
100
AcDbLine
 62
250
  6
CONTINUOUS
 10
93.5393094144
 20
115.3724682454
 11
93.3073437799
 21
115.140502611
  0
LINE
  5
274
100
AcDbEntity
  8
ASSI
100
AcDbLine
 62
250
  6
CONTINUOUS
 10
93.5393094144
 20
115.3724682454
 11
93.3073437799
 21
115.140502611
  0
LINE
  5
275
100
AcDbEntity
  8
RACCORDO
100
AcDbLine
 62
250
  6
CONTINUOUS
 10
114.0755805555
 20
132.8566075362
 11
114.0843994778
 21
132.8654264585
  0
LINE
  5
276
100
AcDbEntity
  8
ASSI
100
AcDbLine
 62
250
  6
CONTINUOUS
 10
114.0755805555
 20
132.8566075362
 11
114.0843994778
 21
132.8654264585
  0
LINE
  5
277
100
AcDbEntity
  8
RACCORDO
100
AcDbLine
 62
250
  6
CONTINUOUS
 10
159.0432945526
 20
132.3566836886
 11
159.0344756302
 21
132.365502611
  0
LINE
  5
278
100
AcDbEntity
  8
ASSI
100
AcDbLine
 62
250
  6
CONTINUOUS
 10
159.0432945526
 20
132.3566836886
 11
159.0344756302
 21
132.365502611
  0
LINE
  5
279
100
AcDbEntity
  8
RACCORDO
100
AcDbLine
 62
250
  6
CONTINUOUS
 10
159.5432184001
 20
132.8566075362
 11
159.5343994778
 21
132.8654264585
  0
LINE
  5
27A
100
AcDbEntity
  8
ASSI
100
AcDbLine
 62
250
  6
CONTINUOUS
 10
159.5432184001
 20
132.8566075362
 11
159.5343994778
 21
132.8654264585
  0
LINE
  5
27B
100
AcDbEntity
  8
RACCORDO
100
AcDbLine
 62
250
  6
CONTINUOUS
 10
92.0413651123
 20
201.4105926744
 11
91.8093994778
 21
201.6425583088
  0
LINE
  5
27C
100
AcDbEntity
  8
ASSI
100
AcDbLine
 62
250
  6
CONTINUOUS
 10
92.0413651123
 20
201.4105926744
 11
91.8093994778
 21
201.6425583088
  0
LINE
  5
27D
100
AcDbEntity
  8
RACCORDO
100
AcDbLine
 62
250
  6
CONTINUOUS
 10
93.5393094144
 20
202.9085369765
 11
93.3073437799
 21
203.140502611
  0
LINE
  5
27E
100
AcDbEntity
  8
ASSI
100
AcDbLine
 62
250
  6
CONTINUOUS
 10
93.5393094144
 20
202.9085369765
 11
93.3073437799
 21
203.140502611
  0
LINE
  5
27F
100
AcDbEntity
  8
RACCORDO
100
AcDbLine
 62
250
  6
CONTINUOUS
 10
114.0755805555
 20
185.4243976857
 11
114.0843994778
 21
185.4155787634
  0
LINE
  5
280
100
AcDbEntity
  8
ASSI
100
AcDbLine
 62
250
  6
CONTINUOUS
 10
114.0755805555
 20
185.4243976857
 11
114.0843994778
 21
185.4155787634
  0
LINE
  5
281
100
AcDbEntity
  8
RACCORDO
100
AcDbLine
 62
250
  6
CONTINUOUS
 10
114.5755044031
 20
132.3566836886
 11
114.5843233254
 21
132.365502611
  0
LINE
  5
282
100
AcDbEntity
  8
ASSI
100
AcDbLine
 62
250
  6
CONTINUOUS
 10
114.5755044031
 20
132.3566836886
 11
114.5843233254
 21
132.365502611
  0
LINE
  5
283
100
AcDbEntity
  8
RACCORDO
100
AcDbLine
 62
250
  6
CONTINUOUS
 10
114.5755044031
 20
185.9243215333
 11
114.5843233254
 21
185.915502611
  0
LINE
  5
284
100
AcDbEntity
  8
ASSI
100
AcDbLine
 62
250
  6
CONTINUOUS
 10
114.5755044031
 20
185.9243215333
 11
114.5843233254
 21
185.915502611
  0
LINE
  5
285
100
AcDbEntity
  8
RACCORDO
100
AcDbLine
 62
250
  6
CONTINUOUS
 10
184.7756262469
 20
132.8566075362
 11
184.7756262469
 21
185.4243976857
  0
LINE
  5
286
100
AcDbEntity
  8
ASSI
100
AcDbLine
 62
250
  6
CONTINUOUS
 10
184.7756262469
 20
132.8566075362
 11
184.7756262469
 21
185.4243976857
  0
LINE
  5
287
100
AcDbEntity
  8
RACCORDO
100
AcDbLine
 62
250
  6
CONTINUOUS
 10
185.0755805555
 20
132.8566075362
 11
185.0755805555
 21
185.4243976857
  0
LINE
  5
288
100
AcDbEntity
  8
ASSI
100
AcDbLine
 62
250
  6
CONTINUOUS
 10
185.0755805555
 20
132.8566075362
 11
185.0755805555
 21
185.4243976857
  0
LINE
  5
289
100
AcDbEntity
  8
RACCORDO
100
AcDbLine
 62
7
  6
CONTINUOUS
 10
185.0843994778
 20
185.4155787634
 11
185.0843994778
 21
132.8654264585
  0
LINE
  5
28A
100
AcDbEntity
  8
ASSI
100
AcDbLine
 62
7
  6
CONTINUOUS
 10
185.0843994778
 20
185.4155787634
 11
185.0843994778
 21
132.8654264585
  0
LINE
  5
28B
100
AcDbEntity
  8
RACCORDO
100
AcDbLine
 62
250
  6
CONTINUOUS
 10
185.5755044031
 20
186.2242758418
 11
185.5755044031
 21
185.9243215333
  0
LINE
  5
28C
100
AcDbEntity
  8
ASSI
100
AcDbLine
 62
250
  6
CONTINUOUS
 10
185.5755044031
 20
186.2242758418
 11
185.5755044031
 21
185.9243215333
  0
LINE
  5
28D
100
AcDbEntity
  8
RACCORDO
100
AcDbLine
 62
250
  6
CONTINUOUS
 10
185.5755044031
 20
132.0567293801
 11
185.5755044031
 21
132.3566836886
  0
LINE
  5
28E
100
AcDbEntity
  8
ASSI
100
AcDbLine
 62
250
  6
CONTINUOUS
 10
185.5755044031
 20
132.0567293801
 11
185.5755044031
 21
132.3566836886
  0
LWPOLYLINE
  5
28F
100
AcDbEntity
  8
RACCORDO
100
AcDbPolyline
 62
250
  6
CONTINUOUS
 90
28
 70
0
 10
184.7756262469
 20
185.4243976857
 10
184.7769125609
 20
185.4701693291
 10
184.7808186194
 20
185.5156466151
 10
184.7873444226
 20
185.5608295439
 10
184.7965305005
 20
185.6059221772
 10
184.8083363231
 20
185.6507204533
 10
184.8226402998
 20
185.6946121861
 10
184.8394905339
 20
185.7375599031
 10
184.8588389223
 20
185.7796010769
 10
184.8804195644
 20
185.8202359397
 10
184.9042203826
 20
185.859388097
 10
184.9302534545
 20
185.8971339433
 10
184.9582891137
 20
185.933202894
 10
184.9883372664
 20
185.9675966382
 10
185.0203880064
 20
186.0003134869
 10
185.0541819484
 20
186.0310777882
 10
185.0896383884
 20
186.0598501419
 10
185.1268380305
 20
186.0866699484
 10
185.1657636009
 20
186.1113797563
 10
185.2065396351
 20
186.1340645313
 10
185.2490415977
 20
186.1546393077
 10
185.2928786096
 20
186.1726917373
 10
185.3382037312
 20
186.1881931297
 10
185.384863902
 20
186.2011721754
 10
185.4320090608
 20
186.2113025972
 10
185.4793558536
 20
186.218475636
 10
185.5271876344
 20
186.2228000509
 10
185.5755044031
 20
186.2242758418
  0
LWPOLYLINE
  5
290
100
AcDbEntity
  8
ASSI
100
AcDbPolyline
 62
250
  6
CONTINUOUS
 90
28
 70
0
 10
184.7756262469
 20
185.4243976857
 10
184.7769125609
 20
185.4701693291
 10
184.7808186194
 20
185.5156466151
 10
184.7873444226
 20
185.5608295439
 10
184.7965305005
 20
185.6059221772
 10
184.8083363231
 20
185.6507204533
 10
184.8226402998
 20
185.6946121861
 10
184.8394905339
 20
185.7375599031
 10
184.8588389223
 20
185.7796010769
 10
184.8804195644
 20
185.8202359397
 10
184.9042203826
 20
185.859388097
 10
184.9302534545
 20
185.8971339433
 10
184.9582891137
 20
185.933202894
 10
184.9883372664
 20
185.9675966382
 10
185.0203880064
 20
186.0003134869
 10
185.0541819484
 20
186.0310777882
 10
185.0896383884
 20
186.0598501419
 10
185.1268380305
 20
186.0866699484
 10
185.1657636009
 20
186.1113797563
 10
185.2065396351
 20
186.1340645313
 10
185.2490415977
 20
186.1546393077
 10
185.2928786096
 20
186.1726917373
 10
185.3382037312
 20
186.1881931297
 10
185.384863902
 20
186.2011721754
 10
185.4320090608
 20
186.2113025972
 10
185.4793558536
 20
186.218475636
 10
185.5271876344
 20
186.2228000509
 10
185.5755044031
 20
186.2242758418
  0
LWPOLYLINE
  5
291
100
AcDbEntity
  8
RACCORDO
100
AcDbPolyline
 62
250
  6
CONTINUOUS
 90
28
 70
0
 10
185.0755805555
 20
185.4243976857
 10
185.0763852668
 20
185.4528509412
 10
185.0788187903
 20
185.4813104062
 10
185.0828901746
 20
185.5096818365
 10
185.0886109218
 20
185.5379039335
 10
185.095974953
 20
185.5658447579
 10
185.1049388534
 20
185.5933072346
 10
185.1154669725
 20
185.620188728
 10
185.1275267374
 20
185.6464118166
 10
185.1410431452
 20
185.6718298278
 10
185.155936464
 20
185.6963280909
 10
185.172166078
 20
185.7198716265
 10
185.1897076067
 20
185.7424381815
 10
185.2085059737
 20
185.7639596378
 10
185.2284946875
 20
185.7843624281
 10
185.249640402
 20
185.8036102166
 10
185.2718301401
 20
185.8215998237
 10
185.2950378649
 20
185.8383097734
 10
185.3193825052
 20
185.8537953772
 10
185.344880848
 20
185.8680065032
 10
185.3713984309
 20
185.8808088852
 10
185.3988369018
 20
185.8921078455
 10
185.4271854489
 20
185.901848102
 10
185.4562881494
 20
185.9099260514
 10
185.4858049111
 20
185.9162281617
 10
185.51554504
 20
185.9207254174
 10
185.5454810146
 20
185.9234251597
 10
185.5755044031
 20
185.9243215333
  0
LWPOLYLINE
  5
292
100
AcDbEntity
  8
ASSI
100
AcDbPolyline
 62
250
  6
CONTINUOUS
 90
28
 70
0
 10
185.0755805555
 20
185.4243976857
 10
185.0763852668
 20
185.4528509412
 10
185.0788187903
 20
185.4813104062
 10
185.0828901746
 20
185.5096818365
 10
185.0886109218
 20
185.5379039335
 10
185.095974953
 20
185.5658447579
 10
185.1049388534
 20
185.5933072346
 10
185.1154669725
 20
185.620188728
 10
185.1275267374
 20
185.6464118166
 10
185.1410431452
 20
185.6718298278
 10
185.155936464
 20
185.6963280909
 10
185.172166078
 20
185.7198716265
 10
185.1897076067
 20
185.7424381815
 10
185.2085059737
 20
185.7639596378
 10
185.2284946875
 20
185.7843624281
 10
185.249640402
 20
185.8036102166
 10
185.2718301401
 20
185.8215998237
 10
185.2950378649
 20
185.8383097734
 10
185.3193825052
 20
185.8537953772
 10
185.344880848
 20
185.8680065032
 10
185.3713984309
 20
185.8808088852
 10
185.3988369018
 20
185.8921078455
 10
185.4271854489
 20
185.901848102
 10
185.4562881494
 20
185.9099260514
 10
185.4858049111
 20
185.9162281617
 10
185.51554504
 20
185.9207254174
 10
185.5454810146
 20
185.9234251597
 10
185.5755044031
 20
185.9243215333
  0
LWPOLYLINE
  5
293
100
AcDbEntity
  8
0
100
AcDbPolyline
 62
7
  6
CONTINUOUS
 90
5
 70
0
 43
0.3499999917
 10
240.8451086426
 20
213.6047937012
 10
241.2022521973
 20
213.819074707
 10
241.2022521973
 20
214.4619433594
 10
240.8451086426
 20
214.8905053711
 10
239.9879589844
 20
214.8905053711
  0
LWPOLYLINE
  5
294
100
AcDbEntity
  8
0
100
AcDbPolyline
 62
7
  6
CONTINUOUS
 90
5
 70
0
 43
0.3499999917
 10
245.3451123047
 20
213.6047937012
 10
245.7022558594
 20
213.819074707
 10
245.7022558594
 20
214.4619433594
 10
245.3451123047
 20
214.8905053711
 10
244.4879626465
 20
214.8905053711
  0
LWPOLYLINE
  5
295
100
AcDbEntity
  8
RACCORDO
100
AcDbPolyline
 62
250
  6
CONTINUOUS
 90
34
 70
0
 10
393.0794895412
 20
115.8717830128
 10
393.1277011873
 20
115.8730231101
 10
393.1753138663
 20
115.8764377258
 10
393.2223275783
 20
115.8820268601
 10
393.268734712
 20
115.8898054234
 10
393.3145428786
 20
115.8997585052
 10
393.3597749124
 20
115.9118413741
 10
393.4045559533
 20
115.926079996
 10
393.4487608614
 20
115.9424484051
 10
393.4920370507
 20
115.9608239721
 10
393.5343529199
 20
115.9812132083
 10
393.5757400702
 20
116.0036096024
 10
393.6159407201
 20
116.0278709916
 10
393.6549528588
 20
116.0540118382
 10
393.692778497
 20
116.0820176798
 10
393.7291658855
 20
116.1117029675
 10
393.7641041295
 20
116.1430773917
 10
393.7976041238
 20
116.1761312618
 10
393.8294468034
 20
116.2106499577
 10
393.8596266135
 20
116.2466528923
 10
393.8881491088
 20
116.2841206526
 10
393.9148118889
 20
116.3227803794
 10
393.9395634823
 20
116.3625304848
 10
393.9624553604
 20
116.4034725567
 10
393.9834395369
 20
116.4456385001
 10
394.0025764349
 20
116.4891109263
 10
394.0198056313
 20
116.533807224
 10
394.0348978709
 20
116.5795114643
 10
394.0478507216
 20
116.6263020154
 10
394.0586666154
 20
116.6741005091
 10
394.0671235937
 20
116.7224559125
 10
394.07314767
 20
116.7712178812
 10
394.0768128308
 20
116.8205367596
 10
394.078119076
 20
116.8704125476
  0
LWPOLYLINE
  5
296
100
AcDbEntity
  8
ASSI
100
AcDbPolyline
 62
250
  6
CONTINUOUS
 90
34
 70
0
 10
393.0794895412
 20
115.8717830128
 10
393.1277011873
 20
115.8730231101
 10
393.1753138663
 20
115.8764377258
 10
393.2223275783
 20
115.8820268601
 10
393.268734712
 20
115.8898054234
 10
393.3145428786
 20
115.8997585052
 10
393.3597749124
 20
115.9118413741
 10
393.4045559533
 20
115.926079996
 10
393.4487608614
 20
115.9424484051
 10
393.4920370507
 20
115.9608239721
 10
393.5343529199
 20
115.9812132083
 10
393.5757400702
 20
116.0036096024
 10
393.6159407201
 20
116.0278709916
 10
393.6549528588
 20
116.0540118382
 10
393.692778497
 20
116.0820176798
 10
393.7291658855
 20
116.1117029675
 10
393.7641041295
 20
116.1430773917
 10
393.7976041238
 20
116.1761312618
 10
393.8294468034
 20
116.2106499577
 10
393.8596266135
 20
116.2466528923
 10
393.8881491088
 20
116.2841206526
 10
393.9148118889
 20
116.3227803794
 10
393.9395634823
 20
116.3625304848
 10
393.9624553604
 20
116.4034725567
 10
393.9834395369
 20
116.4456385001
 10
394.0025764349
 20
116.4891109263
 10
394.0198056313
 20
116.533807224
 10
394.0348978709
 20
116.5795114643
 10
394.0478507216
 20
116.6263020154
 10
394.0586666154
 20
116.6741005091
 10
394.0671235937
 20
116.7224559125
 10
394.07314767
 20
116.7712178812
 10
394.0768128308
 20
116.8205367596
 10
394.078119076
 20
116.8704125476
  0
LWPOLYLINE
  5
297
100
AcDbEntity
  8
RACCORDO
100
AcDbPolyline
 62
250
  6
CONTINUOUS
 90
34
 70
0
 10
393.0794895412
 20
115.3724682454
 10
393.1514902107
 20
115.374262017
 10
393.2229015407
 20
115.379468225
 10
393.2935655066
 20
115.3880150997
 10
393.363169337
 20
115.3997927466
 10
393.4317322773
 20
115.4147327993
 10
393.4995894968
 20
115.4328838911
 10
393.5667749847
 20
115.4542797723
 10
393.6329470474
 20
115.4788367709
 10
393.697868966
 20
115.5064715233
 10
393.7613628787
 20
115.537101983
 10
393.8233270509
 20
115.5706724196
 10
393.8836468149
 20
115.6071197085
 10
393.9421964113
 20
115.6463692145
 10
393.9988382711
 20
115.6883299745
 10
394.0534444185
 20
115.7329078167
 10
394.1058919093
 20
115.78000227
 10
394.1560673778
 20
115.8295112544
 10
394.2038639735
 20
115.8813301238
 10
394.2491857829
 20
115.935358239
 10
394.2919202825
 20
115.9914647449
 10
394.3319481569
 20
116.049489201
 10
394.3690961581
 20
116.1091496585
 10
394.4033898683
 20
116.1704544332
 10
394.4349636983
 20
116.2337023135
 10
394.4637442321
 20
116.2989085926
 10
394.4895438767
 20
116.365829547
 10
394.5122637535
 20
116.4343992026
 10
394.5318039763
 20
116.5045730827
 10
394.5480151212
 20
116.5761172848
 10
394.5607535728
 20
116.6486646494
 10
394.569938407
 20
116.7219767241
 10
394.5755177274
 20
116.7959517701
 10
394.5774338433
 20
116.8704125476
  0
LWPOLYLINE
  5
298
100
AcDbEntity
  8
ASSI
100
AcDbPolyline
 62
250
  6
CONTINUOUS
 90
34
 70
0
 10
393.0794895412
 20
115.3724682454
 10
393.1514902107
 20
115.374262017
 10
393.2229015407
 20
115.379468225
 10
393.2935655066
 20
115.3880150997
 10
393.363169337
 20
115.3997927466
 10
393.4317322773
 20
115.4147327993
 10
393.4995894968
 20
115.4328838911
 10
393.5667749847
 20
115.4542797723
 10
393.6329470474
 20
115.4788367709
 10
393.697868966
 20
115.5064715233
 10
393.7613628787
 20
115.537101983
 10
393.8233270509
 20
115.5706724196
 10
393.8836468149
 20
115.6071197085
 10
393.9421964113
 20
115.6463692145
 10
393.9988382711
 20
115.6883299745
 10
394.0534444185
 20
115.7329078167
 10
394.1058919093
 20
115.78000227
 10
394.1560673778
 20
115.8295112544
 10
394.2038639735
 20
115.8813301238
 10
394.2491857829
 20
115.935358239
 10
394.2919202825
 20
115.9914647449
 10
394.3319481569
 20
116.049489201
 10
394.3690961581
 20
116.1091496585
 10
394.4033898683
 20
116.1704544332
 10
394.4349636983
 20
116.2337023135
 10
394.4637442321
 20
116.2989085926
 10
394.4895438767
 20
116.365829547
 10
394.5122637535
 20
116.4343992026
 10
394.5318039763
 20
116.5045730827
 10
394.5480151212
 20
116.5761172848
 10
394.5607535728
 20
116.6486646494
 10
394.569938407
 20
116.7219767241
 10
394.5755177274
 20
116.7959517701
 10
394.5774338433
 20
116.8704125476
  0
LWPOLYLINE
  5
299
100
AcDbEntity
  8
0
100
AcDbPolyline
 62
7
  6
CONTINUOUS
 90
34
 70
0
 10
393.3114551757
 20
115.140502611
 10
393.3826157342
 20
115.1421886238
 10
393.4537636107
 20
115.1472602739
 10
393.5247371109
 20
115.1557280935
 10
393.5954584327
 20
115.1676108595
 10
393.6656763885
 20
115.1828954605
 10
393.7349755642
 20
115.2014964579
 10
393.8031627085
 20
115.2233437805
 10
393.8701274169
 20
115.2483831075
 10
393.9355985067
 20
115.2764876024
 10
393.9992721798
 20
115.3074750217
 10
394.0611987414
 20
115.3413171919
 10
394.1216244353
 20
115.378146047
 10
394.1805378266
 20
115.4180011347
 10
394.2376447404
 20
115.4607317691
 10
394.2927463732
 20
115.5062191101
 10
394.3457514052
 20
115.5544178077
 10
394.3964771902
 20
115.6051924167
 10
394.4446255135
 20
115.658244533
 10
394.49007035
 20
115.7134034167
 10
394.5327558202
 20
115.7705666934
 10
394.5725385619
 20
115.8294970819
 10
394.6092632035
 20
115.8898790711
 10
394.6429868614
 20
115.9517153171
 10
394.6738539972
 20
116.0152646585
 10
394.7018355165
 20
116.0805638764
 10
394.726759953
 20
116.1473208649
 10
394.7485211447
 20
116.2153192941
 10
394.7670649635
 20
116.284465948
 10
394.7823127781
 20
116.354555449
 10
394.7941770131
 20
116.4251860046
 10
394.8026392658
 20
116.4961119961
 10
394.8077118363
 20
116.5672527103
 10
394.8093994778
 20
116.6384469131
  0
LWPOLYLINE
  5
29A
100
AcDbEntity
  8
ASSI
100
AcDbPolyline
 62
7
  6
CONTINUOUS
 90
34
 70
0
 10
393.3114551757
 20
115.140502611
 10
393.3826157342
 20
115.1421886238
 10
393.4537636107
 20
115.1472602739
 10
393.5247371109
 20
115.1557280935
 10
393.5954584327
 20
115.1676108595
 10
393.6656763885
 20
115.1828954605
 10
393.7349755642
 20
115.2014964579
 10
393.8031627085
 20
115.2233437805
 10
393.8701274169
 20
115.2483831075
 10
393.9355985067
 20
115.2764876024
 10
393.9992721798
 20
115.3074750217
 10
394.0611987414
 20
115.3413171919
 10
394.1216244353
 20
115.378146047
 10
394.1805378266
 20
115.4180011347
 10
394.2376447404
 20
115.4607317691
 10
394.2927463732
 20
115.5062191101
 10
394.3457514052
 20
115.5544178077
 10
394.3964771902
 20
115.6051924167
 10
394.4446255135
 20
115.658244533
 10
394.49007035
 20
115.7134034167
 10
394.5327558202
 20
115.7705666934
 10
394.5725385619
 20
115.8294970819
 10
394.6092632035
 20
115.8898790711
 10
394.6429868614
 20
115.9517153171
 10
394.6738539972
 20
116.0152646585
 10
394.7018355165
 20
116.0805638764
 10
394.726759953
 20
116.1473208649
 10
394.7485211447
 20
116.2153192941
 10
394.7670649635
 20
116.284465948
 10
394.7823127781
 20
116.354555449
 10
394.7941770131
 20
116.4251860046
 10
394.8026392658
 20
116.4961119961
 10
394.8077118363
 20
116.5672527103
 10
394.8093994778
 20
116.6384469131
  0
LINE
  5
29B
100
AcDbEntity
  8
0
100
AcDbLine
 62
7
  6
CONTINUOUS
 10
93.3073437799
 20
115.140502611
 11
393.3114551757
 21
115.140502611
  0
LINE
  5
29C
100
AcDbEntity
  8
ASSI
100
AcDbLine
 62
7
  6
CONTINUOUS
 10
93.3073437799
 20
115.140502611
 11
393.3114551757
 21
115.140502611
  0
LINE
  5
29D
100
AcDbEntity
  8
RACCORDO
100
AcDbLine
 62
250
  6
CONTINUOUS
 10
93.5393094144
 20
115.3724682454
 11
393.0794895412
 21
115.3724682454
  0
LINE
  5
29E
100
AcDbEntity
  8
ASSI
100
AcDbLine
 62
250
  6
CONTINUOUS
 10
93.5393094144
 20
115.3724682454
 11
393.0794895412
 21
115.3724682454
  0
LINE
  5
29F
100
AcDbEntity
  8
RACCORDO
100
AcDbLine
 62
250
  6
CONTINUOUS
 10
93.5393094144
 20
115.8717830128
 11
393.0794895412
 21
115.8717830128
  0
LINE
  5
2A0
100
AcDbEntity
  8
ASSI
100
AcDbLine
 62
250
  6
CONTINUOUS
 10
93.5393094144
 20
115.8717830128
 11
393.0794895412
 21
115.8717830128
  0
LINE
  5
2A1
100
AcDbEntity
  8
RACCORDO
100
AcDbLine
 62
250
  6
CONTINUOUS
 10
92.5406798797
 20
116.8704125476
 11
92.0413651123
 21
116.8704125476
  0
LINE
  5
2A2
100
AcDbEntity
  8
ASSI
100
AcDbLine
 62
250
  6
CONTINUOUS
 10
92.5406798797
 20
116.8704125476
 11
92.0413651123
 21
116.8704125476
  0
LINE
  5
2A3
100
AcDbEntity
  8
RACCORDO
100
AcDbLine
 62
250
  6
CONTINUOUS
 10
394.078119076
 20
116.8704125476
 11
394.5774338433
 21
116.8704125476
  0
LINE
  5
2A4
100
AcDbEntity
  8
ASSI
100
AcDbLine
 62
250
  6
CONTINUOUS
 10
394.078119076
 20
116.8704125476
 11
394.5774338433
 21
116.8704125476
  0
LINE
  5
2A5
100
AcDbEntity
  8
SCRITTE
100
AcDbLine
 62
250
  6
CONTINUOUS
 10
394.744255822
 20
122.440566611
 11
394.6394424646
 21
122.440566611
  0
LINE
  5
2A6
100
AcDbEntity
  8
SCRITTE
100
AcDbLine
 62
250
  6
CONTINUOUS
 10
394.6394424646
 20
122.858010611
 11
394.744255822
 21
122.858010611
  0
LINE
  5
2A7
100
AcDbEntity
  8
SCRITTE
100
AcDbLine
 62
250
  6
CONTINUOUS
 10
394.7442558359
 20
126.9437514426
 11
394.6406732832
 21
126.9437514426
  0
LINE
  5
2A8
100
AcDbEntity
  8
SCRITTE
100
AcDbLine
 62
250
  6
CONTINUOUS
 10
394.6573037079
 20
127.3456744956
 11
394.6860752856
 21
127.3456744956
  0
LINE
  5
2A9
100
AcDbEntity
  8
SCRITTE
100
AcDbLine
 62
250
  6
CONTINUOUS
 10
394.7032401473
 20
127.3595163291
 11
394.7442558359
 21
127.3595163291
  0
LINE
  5
2AA
100
AcDbEntity
  8
SCRITTE
100
AcDbLine
 62
250
  6
CONTINUOUS
 10
394.694713518
 20
128.0169809225
 11
394.6953328363
 21
128.0169809225
  0
LWPOLYLINE
  5
2AB
100
AcDbEntity
  8
RACCORDO
100
AcDbPolyline
 62
250
  6
CONTINUOUS
 90
28
 70
0
 10
114.5755044031
 20
132.0567293801
 10
114.5297327597
 20
132.058015694
 10
114.4842554736
 20
132.0619217526
 10
114.4390725449
 20
132.0684475558
 10
114.3939799115
 20
132.0776336337
 10
114.3491816355
 20
132.0894394562
 10
114.3052899026
 20
132.1037434329
 10
114.2623421857
 20
132.1205936671
 10
114.2203010118
 20
132.1399420554
 10
114.1796661491
 20
132.1615226976
 10
114.1405139917
 20
132.1853235157
 10
114.1027681455
 20
132.2113565877
 10
114.0666991947
 20
132.2393922469
 10
114.0323054505
 20
132.2694403996
 10
113.9995886019
 20
132.3014911396
 10
113.9688243006
 20
132.3352850815
 10
113.9400519468
 20
132.3707415216
 10
113.9132321404
 20
132.4079411636
 10
113.8885223325
 20
132.4468667341
 10
113.8658375575
 20
132.4876427683
 10
113.8452627811
 20
132.5301447309
 10
113.8272103515
 20
132.5739817427
 10
113.811708959
 20
132.6193068644
 10
113.7987299133
 20
132.6659670352
 10
113.7885994916
 20
132.7131121939
 10
113.7814264528
 20
132.7604589868
 10
113.7771020379
 20
132.8082907676
 10
113.7756262469
 20
132.8566075362
  0
LWPOLYLINE
  5
2AC
100
AcDbEntity
  8
ASSI
100
AcDbPolyline
 62
250
  6
CONTINUOUS
 90
28
 70
0
 10
114.5755044031
 20
132.0567293801
 10
114.5297327597
 20
132.058015694
 10
114.4842554736
 20
132.0619217526
 10
114.4390725449
 20
132.0684475558
 10
114.3939799115
 20
132.0776336337
 10
114.3491816355
 20
132.0894394562
 10
114.3052899026
 20
132.1037434329
 10
114.2623421857
 20
132.1205936671
 10
114.2203010118
 20
132.1399420554
 10
114.1796661491
 20
132.1615226976
 10
114.1405139917
 20
132.1853235157
 10
114.1027681455
 20
132.2113565877
 10
114.0666991947
 20
132.2393922469
 10
114.0323054505
 20
132.2694403996
 10
113.9995886019
 20
132.3014911396
 10
113.9688243006
 20
132.3352850815
 10
113.9400519468
 20
132.3707415216
 10
113.9132321404
 20
132.4079411636
 10
113.8885223325
 20
132.4468667341
 10
113.8658375575
 20
132.4876427683
 10
113.8452627811
 20
132.5301447309
 10
113.8272103515
 20
132.5739817427
 10
113.811708959
 20
132.6193068644
 10
113.7987299133
 20
132.6659670352
 10
113.7885994916
 20
132.7131121939
 10
113.7814264528
 20
132.7604589868
 10
113.7771020379
 20
132.8082907676
 10
113.7756262469
 20
132.8566075362
  0
LWPOLYLINE
  5
2AD
100
AcDbEntity
  8
RACCORDO
100
AcDbPolyline
 62
250
  6
CONTINUOUS
 90
28
 70
0
 10
114.5755044031
 20
132.3566836886
 10
114.5470511476
 20
132.3574883999
 10
114.5185916826
 20
132.3599219234
 10
114.4902202523
 20
132.3639933078
 10
114.4619981552
 20
132.3697140549
 10
114.4340573308
 20
132.3770780861
 10
114.4065948542
 20
132.3860419866
 10
114.3797133608
 20
132.3965701056
 10
114.3534902722
 20
132.4086298706
 10
114.328072261
 20
132.4221462784
 10
114.3035739979
 20
132.4370395972
 10
114.2800304623
 20
132.4532692111
 10
114.2574639073
 20
132.4708107398
 10
114.2359424509
 20
132.4896091069
 10
114.2155396607
 20
132.5095978207
 10
114.1962918722
 20
132.5307435352
 10
114.1783022651
 20
132.5529332733
 10
114.1615923153
 20
132.5761409981
 10
114.1461067115
 20
132.6004856384
 10
114.1318955856
 20
132.6259839811
 10
114.1190932035
 20
132.652501564
 10
114.1077942433
 20
132.679940035
 10
114.0980539868
 20
132.708288582
 10
114.0899760374
 20
132.7373912826
 10
114.0836739271
 20
132.7669080443
 10
114.0791766714
 20
132.7966481731
 10
114.0764769291
 20
132.8265841478
 10
114.0755805555
 20
132.8566075362
  0
LWPOLYLINE
  5
2AE
100
AcDbEntity
  8
ASSI
100
AcDbPolyline
 62
250
  6
CONTINUOUS
 90
28
 70
0
 10
114.5755044031
 20
132.3566836886
 10
114.5470511476
 20
132.3574883999
 10
114.5185916826
 20
132.3599219234
 10
114.4902202523
 20
132.3639933078
 10
114.4619981552
 20
132.3697140549
 10
114.4340573308
 20
132.3770780861
 10
114.4065948542
 20
132.3860419866
 10
114.3797133608
 20
132.3965701056
 10
114.3534902722
 20
132.4086298706
 10
114.328072261
 20
132.4221462784
 10
114.3035739979
 20
132.4370395972
 10
114.2800304623
 20
132.4532692111
 10
114.2574639073
 20
132.4708107398
 10
114.2359424509
 20
132.4896091069
 10
114.2155396607
 20
132.5095978207
 10
114.1962918722
 20
132.5307435352
 10
114.1783022651
 20
132.5529332733
 10
114.1615923153
 20
132.5761409981
 10
114.1461067115
 20
132.6004856384
 10
114.1318955856
 20
132.6259839811
 10
114.1190932035
 20
132.652501564
 10
114.1077942433
 20
132.679940035
 10
114.0980539868
 20
132.708288582
 10
114.0899760374
 20
132.7373912826
 10
114.0836739271
 20
132.7669080443
 10
114.0791766714
 20
132.7966481731
 10
114.0764769291
 20
132.8265841478
 10
114.0755805555
 20
132.8566075362
  0
LINE
  5
2AF
100
AcDbEntity
  8
RACCORDO
100
AcDbLine
 62
250
  6
CONTINUOUS
 10
230.0432945526
 20
185.9243215333
 11
230.0344756302
 21
185.915502611
  0
LINE
  5
2B0
100
AcDbEntity
  8
ASSI
100
AcDbLine
 62
250
  6
CONTINUOUS
 10
230.0432945526
 20
185.9243215333
 11
230.0344756302
 21
185.915502611
  0
LINE
  5
2B1
100
AcDbEntity
  8
RACCORDO
100
AcDbLine
 62
250
  6
CONTINUOUS
 10
230.5432184001
 20
185.4243976857
 11
230.5343994778
 21
185.4155787634
  0
LINE
  5
2B2
100
AcDbEntity
  8
ASSI
100
AcDbLine
 62
250
  6
CONTINUOUS
 10
230.5432184001
 20
185.4243976857
 11
230.5343994778
 21
185.4155787634
  0
LINE
  5
2B3
100
AcDbEntity
  8
RACCORDO
100
AcDbLine
 62
250
  6
CONTINUOUS
 10
185.0755805555
 20
132.8566075362
 11
185.0843994778
 21
132.8654264585
  0
LINE
  5
2B4
100
AcDbEntity
  8
ASSI
100
AcDbLine
 62
250
  6
CONTINUOUS
 10
185.0755805555
 20
132.8566075362
 11
185.0843994778
 21
132.8654264585
  0
LINE
  5
2B5
100
AcDbEntity
  8
RACCORDO
100
AcDbLine
 62
250
  6
CONTINUOUS
 10
185.5755044031
 20
132.3566836886
 11
185.5843233254
 21
132.365502611
  0
LINE
  5
2B6
100
AcDbEntity
  8
ASSI
100
AcDbLine
 62
250
  6
CONTINUOUS
 10
185.5755044031
 20
132.3566836886
 11
185.5843233254
 21
132.365502611
  0
LINE
  5
2B7
100
AcDbEntity
  8
RACCORDO
100
AcDbLine
 62
250
  6
CONTINUOUS
 10
372.0432945526
 20
132.0567293801
 11
327.5755044031
 21
132.0567293801
  0
LINE
  5
2B8
100
AcDbEntity
  8
ASSI
100
AcDbLine
 62
250
  6
CONTINUOUS
 10
372.0432945526
 20
132.0567293801
 11
327.5755044031
 21
132.0567293801
  0
LINE
  5
2B9
100
AcDbEntity
  8
RACCORDO
100
AcDbLine
 62
250
  6
CONTINUOUS
 10
301.0432945526
 20
132.0567293801
 11
256.5755044031
 21
132.0567293801
  0
LINE
  5
2BA
100
AcDbEntity
  8
ASSI
100
AcDbLine
 62
250
  6
CONTINUOUS
 10
301.0432945526
 20
132.0567293801
 11
256.5755044031
 21
132.0567293801
  0
LINE
  5
2BB
100
AcDbEntity
  8
RACCORDO
100
AcDbLine
 62
250
  6
CONTINUOUS
 10
230.0432945526
 20
132.0567293801
 11
185.5755044031
 21
132.0567293801
  0
LINE
  5
2BC
100
AcDbEntity
  8
ASSI
100
AcDbLine
 62
250
  6
CONTINUOUS
 10
230.0432945526
 20
132.0567293801
 11
185.5755044031
 21
132.0567293801
  0
LINE
  5
2BD
100
AcDbEntity
  8
RACCORDO
100
AcDbLine
 62
250
  6
CONTINUOUS
 10
159.0432945526
 20
132.0567293801
 11
114.5755044031
 21
132.0567293801
  0
LINE
  5
2BE
100
AcDbEntity
  8
ASSI
100
AcDbLine
 62
250
  6
CONTINUOUS
 10
159.0432945526
 20
132.0567293801
 11
114.5755044031
 21
132.0567293801
  0
LINE
  5
2BF
100
AcDbEntity
  8
RACCORDO
100
AcDbLine
 62
250
  6
CONTINUOUS
 10
372.0432945526
 20
132.3566836886
 11
327.5755044031
 21
132.3566836886
  0
LINE
  5
2C0
100
AcDbEntity
  8
ASSI
100
AcDbLine
 62
250
  6
CONTINUOUS
 10
372.0432945526
 20
132.3566836886
 11
327.5755044031
 21
132.3566836886
  0
LINE
  5
2C1
100
AcDbEntity
  8
RACCORDO
100
AcDbLine
 62
250
  6
CONTINUOUS
 10
301.0432945526
 20
132.3566836886
 11
256.5755044031
 21
132.3566836886
  0
LINE
  5
2C2
100
AcDbEntity
  8
ASSI
100
AcDbLine
 62
250
  6
CONTINUOUS
 10
301.0432945526
 20
132.3566836886
 11
256.5755044031
 21
132.3566836886
  0
LINE
  5
2C3
100
AcDbEntity
  8
RACCORDO
100
AcDbLine
 62
250
  6
CONTINUOUS
 10
230.0432945526
 20
132.3566836886
 11
185.5755044031
 21
132.3566836886
  0
LINE
  5
2C4
100
AcDbEntity
  8
ASSI
100
AcDbLine
 62
250
  6
CONTINUOUS
 10
230.0432945526
 20
132.3566836886
 11
185.5755044031
 21
132.3566836886
  0
LINE
  5
2C5
100
AcDbEntity
  8
RACCORDO
100
AcDbLine
 62
250
  6
CONTINUOUS
 10
159.0432945526
 20
132.3566836886
 11
114.5755044031
 21
132.3566836886
  0
LINE
  5
2C6
100
AcDbEntity
  8
ASSI
100
AcDbLine
 62
250
  6
CONTINUOUS
 10
159.0432945526
 20
132.3566836886
 11
114.5755044031
 21
132.3566836886
  0
LINE
  5
2C7
100
AcDbEntity
  8
RACCORDO
100
AcDbLine
 62
7
  6
CONTINUOUS
 10
114.5843233254
 20
132.365502611
 11
159.0344756302
 21
132.365502611
  0
LINE
  5
2C8
100
AcDbEntity
  8
ASSI
100
AcDbLine
 62
7
  6
CONTINUOUS
 10
114.5843233254
 20
132.365502611
 11
159.0344756302
 21
132.365502611
  0
LINE
  5
2C9
100
AcDbEntity
  8
RACCORDO
100
AcDbLine
 62
7
  6
CONTINUOUS
 10
185.5843233254
 20
132.365502611
 11
230.0344756302
 21
132.365502611
  0
LINE
  5
2CA
100
AcDbEntity
  8
ASSI
100
AcDbLine
 62
7
  6
CONTINUOUS
 10
185.5843233254
 20
132.365502611
 11
230.0344756302
 21
132.365502611
  0
LINE
  5
2CB
100
AcDbEntity
  8
RACCORDO
100
AcDbLine
 62
7
  6
CONTINUOUS
 10
256.5843233254
 20
132.365502611
 11
301.0344756302
 21
132.365502611
  0
LINE
  5
2CC
100
AcDbEntity
  8
ASSI
100
AcDbLine
 62
7
  6
CONTINUOUS
 10
256.5843233254
 20
132.365502611
 11
301.0344756302
 21
132.365502611
  0
LINE
  5
2CD
100
AcDbEntity
  8
RACCORDO
100
AcDbLine
 62
7
  6
CONTINUOUS
 10
327.5843233254
 20
132.365502611
 11
372.0344756302
 21
132.365502611
  0
LINE
  5
2CE
100
AcDbEntity
  8
ASSI
100
AcDbLine
 62
7
  6
CONTINUOUS
 10
327.5843233254
 20
132.365502611
 11
372.0344756302
 21
132.365502611
  0
LINE
  5
2CF
100
AcDbEntity
  8
RACCORDO
100
AcDbLine
 62
250
  6
CONTINUOUS
 10
372.8431727087
 20
132.8566075362
 11
372.5432184001
 21
132.8566075362
  0
LINE
  5
2D0
100
AcDbEntity
  8
ASSI
100
AcDbLine
 62
250
  6
CONTINUOUS
 10
372.8431727087
 20
132.8566075362
 11
372.5432184001
 21
132.8566075362
  0
LINE
  5
2D1
100
AcDbEntity
  8
RACCORDO
100
AcDbLine
 62
250
  6
CONTINUOUS
 10
301.8431727087
 20
132.8566075362
 11
301.5432184001
 21
132.8566075362
  0
LINE
  5
2D2
100
AcDbEntity
  8
ASSI
100
AcDbLine
 62
250
  6
CONTINUOUS
 10
301.8431727087
 20
132.8566075362
 11
301.5432184001
 21
132.8566075362
  0
LINE
  5
2D3
100
AcDbEntity
  8
RACCORDO
100
AcDbLine
 62
250
  6
CONTINUOUS
 10
230.8431727087
 20
132.8566075362
 11
230.5432184001
 21
132.8566075362
  0
LINE
  5
2D4
100
AcDbEntity
  8
ASSI
100
AcDbLine
 62
250
  6
CONTINUOUS
 10
230.8431727087
 20
132.8566075362
 11
230.5432184001
 21
132.8566075362
  0
LINE
  5
2D5
100
AcDbEntity
  8
RACCORDO
100
AcDbLine
 62
250
  6
CONTINUOUS
 10
159.8431727087
 20
132.8566075362
 11
159.5432184001
 21
132.8566075362
  0
LINE
  5
2D6
100
AcDbEntity
  8
ASSI
100
AcDbLine
 62
250
  6
CONTINUOUS
 10
159.8431727087
 20
132.8566075362
 11
159.5432184001
 21
132.8566075362
  0
LINE
  5
2D7
100
AcDbEntity
  8
RACCORDO
100
AcDbLine
 62
250
  6
CONTINUOUS
 10
113.7756262469
 20
132.8566075362
 11
114.0755805555
 21
132.8566075362
  0
LINE
  5
2D8
100
AcDbEntity
  8
ASSI
100
AcDbLine
 62
250
  6
CONTINUOUS
 10
113.7756262469
 20
132.8566075362
 11
114.0755805555
 21
132.8566075362
  0
LINE
  5
2D9
100
AcDbEntity
  8
RACCORDO
100
AcDbLine
 62
250
  6
CONTINUOUS
 10
184.7756262469
 20
132.8566075362
 11
185.0755805555
 21
132.8566075362
  0
LINE
  5
2DA
100
AcDbEntity
  8
ASSI
100
AcDbLine
 62
250
  6
CONTINUOUS
 10
184.7756262469
 20
132.8566075362
 11
185.0755805555
 21
132.8566075362
  0
LINE
  5
2DB
100
AcDbEntity
  8
RACCORDO
100
AcDbLine
 62
250
  6
CONTINUOUS
 10
255.7756262469
 20
132.8566075362
 11
256.0755805555
 21
132.8566075362
  0
LINE
  5
2DC
100
AcDbEntity
  8
ASSI
100
AcDbLine
 62
250
  6
CONTINUOUS
 10
255.7756262469
 20
132.8566075362
 11
256.0755805555
 21
132.8566075362
  0
LINE
  5
2DD
100
AcDbEntity
  8
RACCORDO
100
AcDbLine
 62
250
  6
CONTINUOUS
 10
326.7756262469
 20
132.8566075362
 11
327.0755805555
 21
132.8566075362
  0
LINE
  5
2DE
100
AcDbEntity
  8
ASSI
100
AcDbLine
 62
250
  6
CONTINUOUS
 10
326.7756262469
 20
132.8566075362
 11
327.0755805555
 21
132.8566075362
  0
LWPOLYLINE
  5
2DF
100
AcDbEntity
  8
RACCORDO
100
AcDbPolyline
 62
250
  6
CONTINUOUS
 90
28
 70
0
 10
185.5755044031
 20
132.0567293801
 10
185.5297327597
 20
132.058015694
 10
185.4842554736
 20
132.0619217526
 10
185.4390725449
 20
132.0684475558
 10
185.3939799115
 20
132.0776336337
 10
185.3491816355
 20
132.0894394562
 10
185.3052899026
 20
132.1037434329
 10
185.2623421857
 20
132.1205936671
 10
185.2203010118
 20
132.1399420554
 10
185.1796661491
 20
132.1615226976
 10
185.1405139917
 20
132.1853235157
 10
185.1027681455
 20
132.2113565877
 10
185.0666991947
 20
132.2393922469
 10
185.0323054505
 20
132.2694403996
 10
184.9995886019
 20
132.3014911396
 10
184.9688243006
 20
132.3352850815
 10
184.9400519468
 20
132.3707415216
 10
184.9132321404
 20
132.4079411636
 10
184.8885223325
 20
132.4468667341
 10
184.8658375575
 20
132.4876427683
 10
184.8452627811
 20
132.5301447309
 10
184.8272103515
 20
132.5739817427
 10
184.811708959
 20
132.6193068644
 10
184.7987299133
 20
132.6659670352
 10
184.7885994916
 20
132.7131121939
 10
184.7814264528
 20
132.7604589868
 10
184.7771020379
 20
132.8082907676
 10
184.7756262469
 20
132.8566075362
  0
LWPOLYLINE
  5
2E0
100
AcDbEntity
  8
ASSI
100
AcDbPolyline
 62
250
  6
CONTINUOUS
 90
28
 70
0
 10
185.5755044031
 20
132.0567293801
 10
185.5297327597
 20
132.058015694
 10
185.4842554736
 20
132.0619217526
 10
185.4390725449
 20
132.0684475558
 10
185.3939799115
 20
132.0776336337
 10
185.3491816355
 20
132.0894394562
 10
185.3052899026
 20
132.1037434329
 10
185.2623421857
 20
132.1205936671
 10
185.2203010118
 20
132.1399420554
 10
185.1796661491
 20
132.1615226976
 10
185.1405139917
 20
132.1853235157
 10
185.1027681455
 20
132.2113565877
 10
185.0666991947
 20
132.2393922469
 10
185.0323054505
 20
132.2694403996
 10
184.9995886019
 20
132.3014911396
 10
184.9688243006
 20
132.3352850815
 10
184.9400519468
 20
132.3707415216
 10
184.9132321404
 20
132.4079411636
 10
184.8885223325
 20
132.4468667341
 10
184.8658375575
 20
132.4876427683
 10
184.8452627811
 20
132.5301447309
 10
184.8272103515
 20
132.5739817427
 10
184.811708959
 20
132.6193068644
 10
184.7987299133
 20
132.6659670352
 10
184.7885994916
 20
132.7131121939
 10
184.7814264528
 20
132.7604589868
 10
184.7771020379
 20
132.8082907676
 10
184.7756262469
 20
132.8566075362
  0
LWPOLYLINE
  5
2E1
100
AcDbEntity
  8
RACCORDO
100
AcDbPolyline
 62
250
  6
CONTINUOUS
 90
28
 70
0
 10
256.5755044031
 20
132.0567293801
 10
256.5297327597
 20
132.058015694
 10
256.4842554736
 20
132.0619217526
 10
256.4390725449
 20
132.0684475558
 10
256.3939799115
 20
132.0776336337
 10
256.3491816355
 20
132.0894394562
 10
256.3052899026
 20
132.1037434329
 10
256.2623421857
 20
132.1205936671
 10
256.2203010118
 20
132.1399420554
 10
256.1796661491
 20
132.1615226976
 10
256.1405139917
 20
132.1853235157
 10
256.1027681455
 20
132.2113565877
 10
256.0666991947
 20
132.2393922469
 10
256.0323054505
 20
132.2694403996
 10
255.9995886019
 20
132.3014911396
 10
255.9688243006
 20
132.3352850815
 10
255.9400519468
 20
132.3707415216
 10
255.9132321404
 20
132.4079411636
 10
255.8885223325
 20
132.4468667341
 10
255.8658375575
 20
132.4876427683
 10
255.8452627811
 20
132.5301447309
 10
255.8272103515
 20
132.5739817427
 10
255.811708959
 20
132.6193068644
 10
255.7987299133
 20
132.6659670352
 10
255.7885994916
 20
132.7131121939
 10
255.7814264528
 20
132.7604589868
 10
255.7771020379
 20
132.8082907676
 10
255.7756262469
 20
132.8566075362
  0
LWPOLYLINE
  5
2E2
100
AcDbEntity
  8
ASSI
100
AcDbPolyline
 62
250
  6
CONTINUOUS
 90
28
 70
0
 10
256.5755044031
 20
132.0567293801
 10
256.5297327597
 20
132.058015694
 10
256.4842554736
 20
132.0619217526
 10
256.4390725449
 20
132.0684475558
 10
256.3939799115
 20
132.0776336337
 10
256.3491816355
 20
132.0894394562
 10
256.3052899026
 20
132.1037434329
 10
256.2623421857
 20
132.1205936671
 10
256.2203010118
 20
132.1399420554
 10
256.1796661491
 20
132.1615226976
 10
256.1405139917
 20
132.1853235157
 10
256.1027681455
 20
132.2113565877
 10
256.0666991947
 20
132.2393922469
 10
256.0323054505
 20
132.2694403996
 10
255.9995886019
 20
132.3014911396
 10
255.9688243006
 20
132.3352850815
 10
255.9400519468
 20
132.3707415216
 10
255.9132321404
 20
132.4079411636
 10
255.8885223325
 20
132.4468667341
 10
255.8658375575
 20
132.4876427683
 10
255.8452627811
 20
132.5301447309
 10
255.8272103515
 20
132.5739817427
 10
255.811708959
 20
132.6193068644
 10
255.7987299133
 20
132.6659670352
 10
255.7885994916
 20
132.7131121939
 10
255.7814264528
 20
132.7604589868
 10
255.7771020379
 20
132.8082907676
 10
255.7756262469
 20
132.8566075362
  0
LWPOLYLINE
  5
2E3
100
AcDbEntity
  8
RACCORDO
100
AcDbPolyline
 62
250
  6
CONTINUOUS
 90
28
 70
0
 10
327.5755044031
 20
132.0567293801
 10
327.5297327597
 20
132.058015694
 10
327.4842554736
 20
132.0619217526
 10
327.4390725449
 20
132.0684475558
 10
327.3939799115
 20
132.0776336337
 10
327.3491816355
 20
132.0894394562
 10
327.3052899026
 20
132.1037434329
 10
327.2623421857
 20
132.1205936671
 10
327.2203010118
 20
132.1399420554
 10
327.1796661491
 20
132.1615226976
 10
327.1405139917
 20
132.1853235157
 10
327.1027681455
 20
132.2113565877
 10
327.0666991947
 20
132.2393922469
 10
327.0323054505
 20
132.2694403996
 10
326.9995886019
 20
132.3014911396
 10
326.9688243006
 20
132.3352850815
 10
326.9400519468
 20
132.3707415216
 10
326.9132321404
 20
132.4079411636
 10
326.8885223325
 20
132.4468667341
 10
326.8658375575
 20
132.4876427683
 10
326.8452627811
 20
132.5301447309
 10
326.8272103515
 20
132.5739817427
 10
326.811708959
 20
132.6193068644
 10
326.7987299133
 20
132.6659670352
 10
326.7885994916
 20
132.7131121939
 10
326.7814264528
 20
132.7604589868
 10
326.7771020379
 20
132.8082907676
 10
326.7756262469
 20
132.8566075362
  0
LWPOLYLINE
  5
2E4
100
AcDbEntity
  8
ASSI
100
AcDbPolyline
 62
250
  6
CONTINUOUS
 90
28
 70
0
 10
327.5755044031
 20
132.0567293801
 10
327.5297327597
 20
132.058015694
 10
327.4842554736
 20
132.0619217526
 10
327.4390725449
 20
132.0684475558
 10
327.3939799115
 20
132.0776336337
 10
327.3491816355
 20
132.0894394562
 10
327.3052899026
 20
132.1037434329
 10
327.2623421857
 20
132.1205936671
 10
327.2203010118
 20
132.1399420554
 10
327.1796661491
 20
132.1615226976
 10
327.1405139917
 20
132.1853235157
 10
327.1027681455
 20
132.2113565877
 10
327.0666991947
 20
132.2393922469
 10
327.0323054505
 20
132.2694403996
 10
326.9995886019
 20
132.3014911396
 10
326.9688243006
 20
132.3352850815
 10
326.9400519468
 20
132.3707415216
 10
326.9132321404
 20
132.4079411636
 10
326.8885223325
 20
132.4468667341
 10
326.8658375575
 20
132.4876427683
 10
326.8452627811
 20
132.5301447309
 10
326.8272103515
 20
132.5739817427
 10
326.811708959
 20
132.6193068644
 10
326.7987299133
 20
132.6659670352
 10
326.7885994916
 20
132.7131121939
 10
326.7814264528
 20
132.7604589868
 10
326.7771020379
 20
132.8082907676
 10
326.7756262469
 20
132.8566075362
  0
LWPOLYLINE
  5
2E5
100
AcDbEntity
  8
RACCORDO
100
AcDbPolyline
 62
250
  6
CONTINUOUS
 90
28
 70
0
 10
185.5755044031
 20
132.3566836886
 10
185.5470511476
 20
132.3574883999
 10
185.5185916826
 20
132.3599219234
 10
185.4902202523
 20
132.3639933078
 10
185.4619981552
 20
132.3697140549
 10
185.4340573308
 20
132.3770780861
 10
185.4065948542
 20
132.3860419866
 10
185.3797133608
 20
132.3965701056
 10
185.3534902722
 20
132.4086298706
 10
185.328072261
 20
132.4221462784
 10
185.3035739979
 20
132.4370395972
 10
185.2800304623
 20
132.4532692111
 10
185.2574639073
 20
132.4708107398
 10
185.2359424509
 20
132.4896091069
 10
185.2155396607
 20
132.5095978207
 10
185.1962918722
 20
132.5307435352
 10
185.1783022651
 20
132.5529332733
 10
185.1615923153
 20
132.5761409981
 10
185.1461067115
 20
132.6004856384
 10
185.1318955856
 20
132.6259839811
 10
185.1190932035
 20
132.652501564
 10
185.1077942433
 20
132.679940035
 10
185.0980539868
 20
132.708288582
 10
185.0899760374
 20
132.7373912826
 10
185.0836739271
 20
132.7669080443
 10
185.0791766714
 20
132.7966481731
 10
185.0764769291
 20
132.8265841478
 10
185.0755805555
 20
132.8566075362
  0
LWPOLYLINE
  5
2E6
100
AcDbEntity
  8
ASSI
100
AcDbPolyline
 62
250
  6
CONTINUOUS
 90
28
 70
0
 10
185.5755044031
 20
132.3566836886
 10
185.5470511476
 20
132.3574883999
 10
185.5185916826
 20
132.3599219234
 10
185.4902202523
 20
132.3639933078
 10
185.4619981552
 20
132.3697140549
 10
185.4340573308
 20
132.3770780861
 10
185.4065948542
 20
132.3860419866
 10
185.3797133608
 20
132.3965701056
 10
185.3534902722
 20
132.4086298706
 10
185.328072261
 20
132.4221462784
 10
185.3035739979
 20
132.4370395972
 10
185.2800304623
 20
132.4532692111
 10
185.2574639073
 20
132.4708107398
 10
185.2359424509
 20
132.4896091069
 10
185.2155396607
 20
132.5095978207
 10
185.1962918722
 20
132.5307435352
 10
185.1783022651
 20
132.5529332733
 10
185.1615923153
 20
132.5761409981
 10
185.1461067115
 20
132.6004856384
 10
185.1318955856
 20
132.6259839811
 10
185.1190932035
 20
132.652501564
 10
185.1077942433
 20
132.679940035
 10
185.0980539868
 20
132.708288582
 10
185.0899760374
 20
132.7373912826
 10
185.0836739271
 20
132.7669080443
 10
185.0791766714
 20
132.7966481731
 10
185.0764769291
 20
132.8265841478
 10
185.0755805555
 20
132.8566075362
  0
LWPOLYLINE
  5
2E7
100
AcDbEntity
  8
RACCORDO
100
AcDbPolyline
 62
250
  6
CONTINUOUS
 90
28
 70
0
 10
256.5755044031
 20
132.3566836886
 10
256.5470511476
 20
132.3574883999
 10
256.5185916826
 20
132.3599219234
 10
256.4902202523
 20
132.3639933078
 10
256.4619981552
 20
132.3697140549
 10
256.4340573308
 20
132.3770780861
 10
256.4065948542
 20
132.3860419866
 10
256.3797133608
 20
132.3965701056
 10
256.3534902722
 20
132.4086298706
 10
256.328072261
 20
132.4221462784
 10
256.3035739979
 20
132.4370395972
 10
256.2800304623
 20
132.4532692111
 10
256.2574639073
 20
132.4708107398
 10
256.2359424509
 20
132.4896091069
 10
256.2155396607
 20
132.5095978207
 10
256.1962918722
 20
132.5307435352
 10
256.1783022651
 20
132.5529332733
 10
256.1615923153
 20
132.5761409981
 10
256.1461067115
 20
132.6004856384
 10
256.1318955856
 20
132.6259839811
 10
256.1190932035
 20
132.652501564
 10
256.1077942433
 20
132.679940035
 10
256.0980539868
 20
132.708288582
 10
256.0899760374
 20
132.7373912826
 10
256.0836739271
 20
132.7669080443
 10
256.0791766714
 20
132.7966481731
 10
256.0764769291
 20
132.8265841478
 10
256.0755805555
 20
132.8566075362
  0
LWPOLYLINE
  5
2E8
100
AcDbEntity
  8
ASSI
100
AcDbPolyline
 62
250
  6
CONTINUOUS
 90
28
 70
0
 10
256.5755044031
 20
132.3566836886
 10
256.5470511476
 20
132.3574883999
 10
256.5185916826
 20
132.3599219234
 10
256.4902202523
 20
132.3639933078
 10
256.4619981552
 20
132.3697140549
 10
256.4340573308
 20
132.3770780861
 10
256.4065948542
 20
132.3860419866
 10
256.3797133608
 20
132.3965701056
 10
256.3534902722
 20
132.4086298706
 10
256.328072261
 20
132.4221462784
 10
256.3035739979
 20
132.4370395972
 10
256.2800304623
 20
132.4532692111
 10
256.2574639073
 20
132.4708107398
 10
256.2359424509
 20
132.4896091069
 10
256.2155396607
 20
132.5095978207
 10
256.1962918722
 20
132.5307435352
 10
256.1783022651
 20
132.5529332733
 10
256.1615923153
 20
132.5761409981
 10
256.1461067115
 20
132.6004856384
 10
256.1318955856
 20
132.6259839811
 10
256.1190932035
 20
132.652501564
 10
256.1077942433
 20
132.679940035
 10
256.0980539868
 20
132.708288582
 10
256.0899760374
 20
132.7373912826
 10
256.0836739271
 20
132.7669080443
 10
256.0791766714
 20
132.7966481731
 10
256.0764769291
 20
132.8265841478
 10
256.0755805555
 20
132.8566075362
  0
LWPOLYLINE
  5
2E9
100
AcDbEntity
  8
RACCORDO
100
AcDbPolyline
 62
250
  6
CONTINUOUS
 90
28
 70
0
 10
327.5755044031
 20
132.3566836886
 10
327.5470511476
 20
132.3574883999
 10
327.5185916826
 20
132.3599219234
 10
327.4902202523
 20
132.3639933078
 10
327.4619981552
 20
132.3697140549
 10
327.4340573308
 20
132.3770780861
 10
327.4065948542
 20
132.3860419866
 10
327.3797133608
 20
132.3965701056
 10
327.3534902722
 20
132.4086298706
 10
327.328072261
 20
132.4221462784
 10
327.3035739979
 20
132.4370395972
 10
327.2800304623
 20
132.4532692111
 10
327.2574639073
 20
132.4708107398
 10
327.2359424509
 20
132.4896091069
 10
327.2155396607
 20
132.5095978207
 10
327.1962918722
 20
132.5307435352
 10
327.1783022651
 20
132.5529332733
 10
327.1615923153
 20
132.5761409981
 10
327.1461067115
 20
132.6004856384
 10
327.1318955856
 20
132.6259839811
 10
327.1190932035
 20
132.652501564
 10
327.1077942433
 20
132.679940035
 10
327.0980539868
 20
132.708288582
 10
327.0899760374
 20
132.7373912826
 10
327.0836739271
 20
132.7669080443
 10
327.0791766714
 20
132.7966481731
 10
327.0764769291
 20
132.8265841478
 10
327.0755805555
 20
132.8566075362
  0
LWPOLYLINE
  5
2EA
100
AcDbEntity
  8
ASSI
100
AcDbPolyline
 62
250
  6
CONTINUOUS
 90
28
 70
0
 10
327.5755044031
 20
132.3566836886
 10
327.5470511476
 20
132.3574883999
 10
327.5185916826
 20
132.3599219234
 10
327.4902202523
 20
132.3639933078
 10
327.4619981552
 20
132.3697140549
 10
327.4340573308
 20
132.3770780861
 10
327.4065948542
 20
132.3860419866
 10
327.3797133608
 20
132.3965701056
 10
327.3534902722
 20
132.4086298706
 10
327.328072261
 20
132.4221462784
 10
327.3035739979
 20
132.4370395972
 10
327.2800304623
 20
132.4532692111
 10
327.2574639073
 20
132.4708107398
 10
327.2359424509
 20
132.4896091069
 10
327.2155396607
 20
132.5095978207
 10
327.1962918722
 20
132.5307435352
 10
327.1783022651
 20
132.5529332733
 10
327.1615923153
 20
132.5761409981
 10
327.1461067115
 20
132.6004856384
 10
327.1318955856
 20
132.6259839811
 10
327.1190932035
 20
132.652501564
 10
327.1077942433
 20
132.679940035
 10
327.0980539868
 20
132.708288582
 10
327.0899760374
 20
132.7373912826
 10
327.0836739271
 20
132.7669080443
 10
327.0791766714
 20
132.7966481731
 10
327.0764769291
 20
132.8265841478
 10
327.0755805555
 20
132.8566075362
  0
LINE
  5
2EB
100
AcDbEntity
  8
RACCORDO
100
AcDbLine
 62
250
  6
CONTINUOUS
 10
230.0432945526
 20
132.3566836886
 11
230.0344756302
 21
132.365502611
  0
LINE
  5
2EC
100
AcDbEntity
  8
ASSI
100
AcDbLine
 62
250
  6
CONTINUOUS
 10
230.0432945526
 20
132.3566836886
 11
230.0344756302
 21
132.365502611
  0
LINE
  5
2ED
100
AcDbEntity
  8
RACCORDO
100
AcDbLine
 62
250
  6
CONTINUOUS
 10
230.5432184001
 20
132.8566075362
 11
230.5343994778
 21
132.8654264585
  0
LINE
  5
2EE
100
AcDbEntity
  8
ASSI
100
AcDbLine
 62
250
  6
CONTINUOUS
 10
230.5432184001
 20
132.8566075362
 11
230.5343994778
 21
132.8654264585
  0
LINE
  5
2EF
100
AcDbEntity
  8
RACCORDO
100
AcDbLine
 62
250
  6
CONTINUOUS
 10
185.0755805555
 20
185.4243976857
 11
185.0843994778
 21
185.4155787634
  0
LINE
  5
2F0
100
AcDbEntity
  8
ASSI
100
AcDbLine
 62
250
  6
CONTINUOUS
 10
185.0755805555
 20
185.4243976857
 11
185.0843994778
 21
185.4155787634
  0
LINE
  5
2F1
100
AcDbEntity
  8
RACCORDO
100
AcDbLine
 62
250
  6
CONTINUOUS
 10
185.5755044031
 20
185.9243215333
 11
185.5843233254
 21
185.915502611
  0
LINE
  5
2F2
100
AcDbEntity
  8
ASSI
100
AcDbLine
 62
250
  6
CONTINUOUS
 10
185.5755044031
 20
185.9243215333
 11
185.5843233254
 21
185.915502611
  0
LINE
  5
2F3
100
AcDbEntity
  8
RACCORDO
100
AcDbLine
 62
250
  6
CONTINUOUS
 10
230.0432945526
 20
186.2242758418
 11
230.0432945526
 21
185.9243215333
  0
LINE
  5
2F4
100
AcDbEntity
  8
ASSI
100
AcDbLine
 62
250
  6
CONTINUOUS
 10
230.0432945526
 20
186.2242758418
 11
230.0432945526
 21
185.9243215333
  0
LINE
  5
2F5
100
AcDbEntity
  8
RACCORDO
100
AcDbLine
 62
250
  6
CONTINUOUS
 10
230.0432945526
 20
132.0567293801
 11
230.0432945526
 21
132.3566836886
  0
LINE
  5
2F6
100
AcDbEntity
  8
ASSI
100
AcDbLine
 62
250
  6
CONTINUOUS
 10
230.0432945526
 20
132.0567293801
 11
230.0432945526
 21
132.3566836886
  0
LINE
  5
2F7
100
AcDbEntity
  8
RACCORDO
100
AcDbLine
 62
7
  6
CONTINUOUS
 10
230.5343994778
 20
132.8654264585
 11
230.5343994778
 21
185.4155787634
  0
LINE
  5
2F8
100
AcDbEntity
  8
ASSI
100
AcDbLine
 62
7
  6
CONTINUOUS
 10
230.5343994778
 20
132.8654264585
 11
230.5343994778
 21
185.4155787634
  0
LINE
  5
2F9
100
AcDbEntity
  8
RACCORDO
100
AcDbLine
 62
250
  6
CONTINUOUS
 10
230.5432184001
 20
185.4243976857
 11
230.5432184001
 21
132.8566075362
  0
LINE
  5
2FA
100
AcDbEntity
  8
ASSI
100
AcDbLine
 62
250
  6
CONTINUOUS
 10
230.5432184001
 20
185.4243976857
 11
230.5432184001
 21
132.8566075362
  0
LINE
  5
2FB
100
AcDbEntity
  8
RACCORDO
100
AcDbLine
 62
250
  6
CONTINUOUS
 10
230.8431727087
 20
185.4243976857
 11
230.8431727087
 21
132.8566075362
  0
LINE
  5
2FC
100
AcDbEntity
  8
ASSI
100
AcDbLine
 62
250
  6
CONTINUOUS
 10
230.8431727087
 20
185.4243976857
 11
230.8431727087
 21
132.8566075362
  0
LWPOLYLINE
  5
2FD
100
AcDbEntity
  8
RACCORDO
100
AcDbPolyline
 62
250
  6
CONTINUOUS
 90
28
 70
0
 10
230.8431727087
 20
132.8566075362
 10
230.8418863947
 20
132.8108358928
 10
230.8379803362
 20
132.7653586068
 10
230.831454533
 20
132.7201756781
 10
230.8222684551
 20
132.6750830447
 10
230.8104626325
 20
132.6302847687
 10
230.7961586558
 20
132.5863930358
 10
230.7793084217
 20
132.5434453188
 10
230.7599600333
 20
132.501404145
 10
230.7383793912
 20
132.4607692822
 10
230.7145785731
 20
132.4216171249
 10
230.6885455011
 20
132.3838712786
 10
230.6605098419
 20
132.3478023279
 10
230.6304616892
 20
132.3134085837
 10
230.5984109492
 20
132.2806917351
 10
230.5646170072
 20
132.2499274338
 10
230.5291605672
 20
132.22115508
 10
230.4919609252
 20
132.1943352735
 10
230.4530353547
 20
132.1696254656
 10
230.4122593205
 20
132.1469406907
 10
230.3697573579
 20
132.1263659143
 10
230.3259203461
 20
132.1083134847
 10
230.2805952244
 20
132.0928120922
 10
230.2339350536
 20
132.0798330465
 10
230.1867898948
 20
132.0697026247
 10
230.139443102
 20
132.0625295859
 10
230.0916113212
 20
132.058205171
 10
230.0432945526
 20
132.0567293801
  0
LWPOLYLINE
  5
2FE
100
AcDbEntity
  8
ASSI
100
AcDbPolyline
 62
250
  6
CONTINUOUS
 90
28
 70
0
 10
230.8431727087
 20
132.8566075362
 10
230.8418863947
 20
132.8108358928
 10
230.8379803362
 20
132.7653586068
 10
230.831454533
 20
132.7201756781
 10
230.8222684551
 20
132.6750830447
 10
230.8104626325
 20
132.6302847687
 10
230.7961586558
 20
132.5863930358
 10
230.7793084217
 20
132.5434453188
 10
230.7599600333
 20
132.501404145
 10
230.7383793912
 20
132.4607692822
 10
230.7145785731
 20
132.4216171249
 10
230.6885455011
 20
132.3838712786
 10
230.6605098419
 20
132.3478023279
 10
230.6304616892
 20
132.3134085837
 10
230.5984109492
 20
132.2806917351
 10
230.5646170072
 20
132.2499274338
 10
230.5291605672
 20
132.22115508
 10
230.4919609252
 20
132.1943352735
 10
230.4530353547
 20
132.1696254656
 10
230.4122593205
 20
132.1469406907
 10
230.3697573579
 20
132.1263659143
 10
230.3259203461
 20
132.1083134847
 10
230.2805952244
 20
132.0928120922
 10
230.2339350536
 20
132.0798330465
 10
230.1867898948
 20
132.0697026247
 10
230.139443102
 20
132.0625295859
 10
230.0916113212
 20
132.058205171
 10
230.0432945526
 20
132.0567293801
  0
LWPOLYLINE
  5
2FF
100
AcDbEntity
  8
RACCORDO
100
AcDbPolyline
 62
250
  6
CONTINUOUS
 90
28
 70
0
 10
230.5432184001
 20
132.8566075362
 10
230.5424136888
 20
132.8281542807
 10
230.5399801653
 20
132.7996948158
 10
230.535908781
 20
132.7713233854
 10
230.5301880339
 20
132.7431012884
 10
230.5228240026
 20
132.715160464
 10
230.5138601022
 20
132.6876979874
 10
230.5033319831
 20
132.6608164939
 10
230.4912722182
 20
132.6345934053
 10
230.4777558104
 20
132.6091753941
 10
230.4628624916
 20
132.584677131
 10
230.4466328777
 20
132.5611335954
 10
230.4290913489
 20
132.5385670405
 10
230.4102929819
 20
132.5170455841
 10
230.3903042681
 20
132.4966427939
 10
230.3691585536
 20
132.4773950054
 10
230.3469688155
 20
132.4594053982
 10
230.3237610907
 20
132.4426954485
 10
230.2994164504
 20
132.4272098447
 10
230.2739181076
 20
132.4129987187
 10
230.2474005248
 20
132.4001963367
 10
230.2199620538
 20
132.3888973765
 10
230.1916135067
 20
132.3791571199
 10
230.1625108062
 20
132.3710791705
 10
230.1329940445
 20
132.3647770603
 10
230.1032539156
 20
132.3602798045
 10
230.073317941
 20
132.3575800623
 10
230.0432945526
 20
132.3566836886
  0
LWPOLYLINE
  5
300
100
AcDbEntity
  8
ASSI
100
AcDbPolyline
 62
250
  6
CONTINUOUS
 90
28
 70
0
 10
230.5432184001
 20
132.8566075362
 10
230.5424136888
 20
132.8281542807
 10
230.5399801653
 20
132.7996948158
 10
230.535908781
 20
132.7713233854
 10
230.5301880339
 20
132.7431012884
 10
230.5228240026
 20
132.715160464
 10
230.5138601022
 20
132.6876979874
 10
230.5033319831
 20
132.6608164939
 10
230.4912722182
 20
132.6345934053
 10
230.4777558104
 20
132.6091753941
 10
230.4628624916
 20
132.584677131
 10
230.4466328777
 20
132.5611335954
 10
230.4290913489
 20
132.5385670405
 10
230.4102929819
 20
132.5170455841
 10
230.3903042681
 20
132.4966427939
 10
230.3691585536
 20
132.4773950054
 10
230.3469688155
 20
132.4594053982
 10
230.3237610907
 20
132.4426954485
 10
230.2994164504
 20
132.4272098447
 10
230.2739181076
 20
132.4129987187
 10
230.2474005248
 20
132.4001963367
 10
230.2199620538
 20
132.3888973765
 10
230.1916135067
 20
132.3791571199
 10
230.1625108062
 20
132.3710791705
 10
230.1329940445
 20
132.3647770603
 10
230.1032539156
 20
132.3602798045
 10
230.073317941
 20
132.3575800623
 10
230.0432945526
 20
132.3566836886
  0
LWPOLYLINE
  5
301
100
AcDbEntity
  8
0
100
AcDbPolyline
 62
7
  6
CONTINUOUS
 90
13
 70
0
 43
0.3499999917
 10
242.1308203125
 20
212.747644043
 10
242.1308203125
 20
214.0333557129
 10
242.3451013184
 20
214.4619433594
 10
242.7736889648
 20
214.8905053711
 10
242.9879699707
 20
214.8905053711
 10
243.4165319824
 20
214.4619433594
 10
243.630838623
 20
214.0333557129
 10
243.630838623
 20
212.747644043
 10
243.4165319824
 20
212.3190820312
 10
242.9879699707
 20
211.8904943848
 10
242.7736889648
 20
211.8904943848
 10
242.3451013184
 20
212.3190820312
 10
242.1308203125
 20
212.747644043
  0
LWPOLYLINE
  5
302
100
AcDbEntity
  8
0
100
AcDbPolyline
 62
7
  6
CONTINUOUS
 90
4
 70
0
 43
0.3499999917
 10
401.6308190918
 20
156.7833618164
 10
400.7736950684
 20
156.7833618164
 10
400.3451074219
 20
157.2119366455
 10
400.3451074219
 20
157.8547924805
  0
LWPOLYLINE
  5
303
100
AcDbEntity
  8
0
100
AcDbPolyline
 62
7
  6
CONTINUOUS
 90
4
 70
0
 43
0.3499999917
 10
401.6308190918
 20
159.1405041504
 10
400.7736950684
 20
159.1405041504
 10
400.3451074219
 20
159.5690789795
 10
400.3451074219
 20
160.2119348145
  0
LWPOLYLINE
  5
304
100
AcDbEntity
  8
RACCORDO
100
AcDbPolyline
 62
250
  6
CONTINUOUS
 90
28
 70
0
 10
255.7756262469
 20
185.4243976857
 10
255.7769125609
 20
185.4701693291
 10
255.7808186194
 20
185.5156466151
 10
255.7873444226
 20
185.5608295439
 10
255.7965305005
 20
185.6059221772
 10
255.8083363231
 20
185.6507204533
 10
255.8226402998
 20
185.6946121861
 10
255.8394905339
 20
185.7375599031
 10
255.8588389223
 20
185.7796010769
 10
255.8804195644
 20
185.8202359397
 10
255.9042203826
 20
185.859388097
 10
255.9302534545
 20
185.8971339433
 10
255.9582891137
 20
185.933202894
 10
255.9883372664
 20
185.9675966382
 10
256.0203880064
 20
186.0003134869
 10
256.0541819484
 20
186.0310777882
 10
256.0896383884
 20
186.0598501419
 10
256.1268380305
 20
186.0866699484
 10
256.1657636009
 20
186.1113797563
 10
256.2065396351
 20
186.1340645313
 10
256.2490415977
 20
186.1546393077
 10
256.2928786096
 20
186.1726917373
 10
256.3382037312
 20
186.1881931297
 10
256.384863902
 20
186.2011721754
 10
256.4320090608
 20
186.2113025972
 10
256.4793558536
 20
186.218475636
 10
256.5271876344
 20
186.2228000509
 10
256.5755044031
 20
186.2242758418
  0
LWPOLYLINE
  5
305
100
AcDbEntity
  8
ASSI
100
AcDbPolyline
 62
250
  6
CONTINUOUS
 90
28
 70
0
 10
255.7756262469
 20
185.4243976857
 10
255.7769125609
 20
185.4701693291
 10
255.7808186194
 20
185.5156466151
 10
255.7873444226
 20
185.5608295439
 10
255.7965305005
 20
185.6059221772
 10
255.8083363231
 20
185.6507204533
 10
255.8226402998
 20
185.6946121861
 10
255.8394905339
 20
185.7375599031
 10
255.8588389223
 20
185.7796010769
 10
255.8804195644
 20
185.8202359397
 10
255.9042203826
 20
185.859388097
 10
255.9302534545
 20
185.8971339433
 10
255.9582891137
 20
185.933202894
 10
255.9883372664
 20
185.9675966382
 10
256.0203880064
 20
186.0003134869
 10
256.0541819484
 20
186.0310777882
 10
256.0896383884
 20
186.0598501419
 10
256.1268380305
 20
186.0866699484
 10
256.1657636009
 20
186.1113797563
 10
256.2065396351
 20
186.1340645313
 10
256.2490415977
 20
186.1546393077
 10
256.2928786096
 20
186.1726917373
 10
256.3382037312
 20
186.1881931297
 10
256.384863902
 20
186.2011721754
 10
256.4320090608
 20
186.2113025972
 10
256.4793558536
 20
186.218475636
 10
256.5271876344
 20
186.2228000509
 10
256.5755044031
 20
186.2242758418
  0
LINE
  5
306
100
AcDbEntity
  8
RACCORDO
100
AcDbLine
 62
250
  6
CONTINUOUS
 10
255.7756262469
 20
132.8566075362
 11
255.7756262469
 21
185.4243976857
  0
LINE
  5
307
100
AcDbEntity
  8
ASSI
100
AcDbLine
 62
250
  6
CONTINUOUS
 10
255.7756262469
 20
132.8566075362
 11
255.7756262469
 21
185.4243976857
  0
LINE
  5
308
100
AcDbEntity
  8
RACCORDO
100
AcDbLine
 62
250
  6
CONTINUOUS
 10
256.0755805555
 20
132.8566075362
 11
256.0755805555
 21
185.4243976857
  0
LINE
  5
309
100
AcDbEntity
  8
ASSI
100
AcDbLine
 62
250
  6
CONTINUOUS
 10
256.0755805555
 20
132.8566075362
 11
256.0755805555
 21
185.4243976857
  0
LINE
  5
30A
100
AcDbEntity
  8
RACCORDO
100
AcDbLine
 62
7
  6
CONTINUOUS
 10
256.0843994778
 20
185.4155787634
 11
256.0843994778
 21
132.8654264585
  0
LINE
  5
30B
100
AcDbEntity
  8
ASSI
100
AcDbLine
 62
7
  6
CONTINUOUS
 10
256.0843994778
 20
185.4155787634
 11
256.0843994778
 21
132.8654264585
  0
LINE
  5
30C
100
AcDbEntity
  8
RACCORDO
100
AcDbLine
 62
250
  6
CONTINUOUS
 10
256.5755044031
 20
186.2242758418
 11
256.5755044031
 21
185.9243215333
  0
LINE
  5
30D
100
AcDbEntity
  8
ASSI
100
AcDbLine
 62
250
  6
CONTINUOUS
 10
256.5755044031
 20
186.2242758418
 11
256.5755044031
 21
185.9243215333
  0
LINE
  5
30E
100
AcDbEntity
  8
RACCORDO
100
AcDbLine
 62
250
  6
CONTINUOUS
 10
256.5755044031
 20
132.0567293801
 11
256.5755044031
 21
132.3566836886
  0
LINE
  5
30F
100
AcDbEntity
  8
ASSI
100
AcDbLine
 62
250
  6
CONTINUOUS
 10
256.5755044031
 20
132.0567293801
 11
256.5755044031
 21
132.3566836886
  0
LWPOLYLINE
  5
310
100
AcDbEntity
  8
RACCORDO
100
AcDbPolyline
 62
250
  6
CONTINUOUS
 90
28
 70
0
 10
256.0755805555
 20
185.4243976857
 10
256.0763852668
 20
185.4528509412
 10
256.0788187903
 20
185.4813104062
 10
256.0828901746
 20
185.5096818365
 10
256.0886109218
 20
185.5379039335
 10
256.095974953
 20
185.5658447579
 10
256.1049388534
 20
185.5933072346
 10
256.1154669725
 20
185.620188728
 10
256.1275267374
 20
185.6464118166
 10
256.1410431452
 20
185.6718298278
 10
256.155936464
 20
185.6963280909
 10
256.172166078
 20
185.7198716265
 10
256.1897076067
 20
185.7424381815
 10
256.2085059737
 20
185.7639596378
 10
256.2284946875
 20
185.7843624281
 10
256.249640402
 20
185.8036102166
 10
256.2718301401
 20
185.8215998237
 10
256.2950378649
 20
185.8383097734
 10
256.3193825052
 20
185.8537953772
 10
256.344880848
 20
185.8680065032
 10
256.3713984309
 20
185.8808088852
 10
256.3988369018
 20
185.8921078455
 10
256.4271854489
 20
185.901848102
 10
256.4562881494
 20
185.9099260514
 10
256.4858049111
 20
185.9162281617
 10
256.51554504
 20
185.9207254174
 10
256.5454810146
 20
185.9234251597
 10
256.5755044031
 20
185.9243215333
  0
LWPOLYLINE
  5
311
100
AcDbEntity
  8
ASSI
100
AcDbPolyline
 62
250
  6
CONTINUOUS
 90
28
 70
0
 10
256.0755805555
 20
185.4243976857
 10
256.0763852668
 20
185.4528509412
 10
256.0788187903
 20
185.4813104062
 10
256.0828901746
 20
185.5096818365
 10
256.0886109218
 20
185.5379039335
 10
256.095974953
 20
185.5658447579
 10
256.1049388534
 20
185.5933072346
 10
256.1154669725
 20
185.620188728
 10
256.1275267374
 20
185.6464118166
 10
256.1410431452
 20
185.6718298278
 10
256.155936464
 20
185.6963280909
 10
256.172166078
 20
185.7198716265
 10
256.1897076067
 20
185.7424381815
 10
256.2085059737
 20
185.7639596378
 10
256.2284946875
 20
185.7843624281
 10
256.249640402
 20
185.8036102166
 10
256.2718301401
 20
185.8215998237
 10
256.2950378649
 20
185.8383097734
 10
256.3193825052
 20
185.8537953772
 10
256.344880848
 20
185.8680065032
 10
256.3713984309
 20
185.8808088852
 10
256.3988369018
 20
185.8921078455
 10
256.4271854489
 20
185.901848102
 10
256.4562881494
 20
185.9099260514
 10
256.4858049111
 20
185.9162281617
 10
256.51554504
 20
185.9207254174
 10
256.5454810146
 20
185.9234251597
 10
256.5755044031
 20
185.9243215333
  0
LINE
  5
312
100
AcDbEntity
  8
RACCORDO
100
AcDbLine
 62
250
  6
CONTINUOUS
 10
301.0432945526
 20
185.9243215333
 11
301.0344756302
 21
185.915502611
  0
LINE
  5
313
100
AcDbEntity
  8
ASSI
100
AcDbLine
 62
250
  6
CONTINUOUS
 10
301.0432945526
 20
185.9243215333
 11
301.0344756302
 21
185.915502611
  0
LINE
  5
314
100
AcDbEntity
  8
RACCORDO
100
AcDbLine
 62
250
  6
CONTINUOUS
 10
301.0432945526
 20
132.3566836886
 11
301.0344756302
 21
132.365502611
  0
LINE
  5
315
100
AcDbEntity
  8
ASSI
100
AcDbLine
 62
250
  6
CONTINUOUS
 10
301.0432945526
 20
132.3566836886
 11
301.0344756302
 21
132.365502611
  0
LINE
  5
316
100
AcDbEntity
  8
RACCORDO
100
AcDbLine
 62
250
  6
CONTINUOUS
 10
301.5432184001
 20
185.4243976857
 11
301.5343994778
 21
185.4155787634
  0
LINE
  5
317
100
AcDbEntity
  8
ASSI
100
AcDbLine
 62
250
  6
CONTINUOUS
 10
301.5432184001
 20
185.4243976857
 11
301.5343994778
 21
185.4155787634
  0
LINE
  5
318
100
AcDbEntity
  8
RACCORDO
100
AcDbLine
 62
250
  6
CONTINUOUS
 10
256.0755805555
 20
132.8566075362
 11
256.0843994778
 21
132.8654264585
  0
LINE
  5
319
100
AcDbEntity
  8
ASSI
100
AcDbLine
 62
250
  6
CONTINUOUS
 10
256.0755805555
 20
132.8566075362
 11
256.0843994778
 21
132.8654264585
  0
LINE
  5
31A
100
AcDbEntity
  8
RACCORDO
100
AcDbLine
 62
250
  6
CONTINUOUS
 10
256.5755044031
 20
132.3566836886
 11
256.5843233254
 21
132.365502611
  0
LINE
  5
31B
100
AcDbEntity
  8
ASSI
100
AcDbLine
 62
250
  6
CONTINUOUS
 10
256.5755044031
 20
132.3566836886
 11
256.5843233254
 21
132.365502611
  0
LINE
  5
31C
100
AcDbEntity
  8
RACCORDO
100
AcDbLine
 62
250
  6
CONTINUOUS
 10
372.8431727087
 20
185.4243976857
 11
372.5432184001
 21
185.4243976857
  0
LINE
  5
31D
100
AcDbEntity
  8
ASSI
100
AcDbLine
 62
250
  6
CONTINUOUS
 10
372.8431727087
 20
185.4243976857
 11
372.5432184001
 21
185.4243976857
  0
LINE
  5
31E
100
AcDbEntity
  8
RACCORDO
100
AcDbLine
 62
250
  6
CONTINUOUS
 10
301.8431727087
 20
185.4243976857
 11
301.5432184001
 21
185.4243976857
  0
LINE
  5
31F
100
AcDbEntity
  8
ASSI
100
AcDbLine
 62
250
  6
CONTINUOUS
 10
301.8431727087
 20
185.4243976857
 11
301.5432184001
 21
185.4243976857
  0
LINE
  5
320
100
AcDbEntity
  8
RACCORDO
100
AcDbLine
 62
250
  6
CONTINUOUS
 10
230.8431727087
 20
185.4243976857
 11
230.5432184001
 21
185.4243976857
  0
LINE
  5
321
100
AcDbEntity
  8
ASSI
100
AcDbLine
 62
250
  6
CONTINUOUS
 10
230.8431727087
 20
185.4243976857
 11
230.5432184001
 21
185.4243976857
  0
LINE
  5
322
100
AcDbEntity
  8
RACCORDO
100
AcDbLine
 62
250
  6
CONTINUOUS
 10
159.8431727087
 20
185.4243976857
 11
159.5432184001
 21
185.4243976857
  0
LINE
  5
323
100
AcDbEntity
  8
ASSI
100
AcDbLine
 62
250
  6
CONTINUOUS
 10
159.8431727087
 20
185.4243976857
 11
159.5432184001
 21
185.4243976857
  0
LINE
  5
324
100
AcDbEntity
  8
RACCORDO
100
AcDbLine
 62
250
  6
CONTINUOUS
 10
113.7756262469
 20
185.4243976857
 11
114.0755805555
 21
185.4243976857
  0
LINE
  5
325
100
AcDbEntity
  8
ASSI
100
AcDbLine
 62
250
  6
CONTINUOUS
 10
113.7756262469
 20
185.4243976857
 11
114.0755805555
 21
185.4243976857
  0
LINE
  5
326
100
AcDbEntity
  8
RACCORDO
100
AcDbLine
 62
250
  6
CONTINUOUS
 10
184.7756262469
 20
185.4243976857
 11
185.0755805555
 21
185.4243976857
  0
LINE
  5
327
100
AcDbEntity
  8
ASSI
100
AcDbLine
 62
250
  6
CONTINUOUS
 10
184.7756262469
 20
185.4243976857
 11
185.0755805555
 21
185.4243976857
  0
LINE
  5
328
100
AcDbEntity
  8
RACCORDO
100
AcDbLine
 62
250
  6
CONTINUOUS
 10
255.7756262469
 20
185.4243976857
 11
256.0755805555
 21
185.4243976857
  0
LINE
  5
329
100
AcDbEntity
  8
ASSI
100
AcDbLine
 62
250
  6
CONTINUOUS
 10
255.7756262469
 20
185.4243976857
 11
256.0755805555
 21
185.4243976857
  0
LINE
  5
32A
100
AcDbEntity
  8
RACCORDO
100
AcDbLine
 62
250
  6
CONTINUOUS
 10
326.7756262469
 20
185.4243976857
 11
327.0755805555
 21
185.4243976857
  0
LINE
  5
32B
100
AcDbEntity
  8
ASSI
100
AcDbLine
 62
250
  6
CONTINUOUS
 10
326.7756262469
 20
185.4243976857
 11
327.0755805555
 21
185.4243976857
  0
LINE
  5
32C
100
AcDbEntity
  8
RACCORDO
100
AcDbLine
 62
7
  6
CONTINUOUS
 10
372.0344756302
 20
185.915502611
 11
327.5843233254
 21
185.915502611
  0
LINE
  5
32D
100
AcDbEntity
  8
ASSI
100
AcDbLine
 62
7
  6
CONTINUOUS
 10
372.0344756302
 20
185.915502611
 11
327.5843233254
 21
185.915502611
  0
LINE
  5
32E
100
AcDbEntity
  8
RACCORDO
100
AcDbLine
 62
7
  6
CONTINUOUS
 10
301.0344756302
 20
185.915502611
 11
256.5843233254
 21
185.915502611
  0
LINE
  5
32F
100
AcDbEntity
  8
ASSI
100
AcDbLine
 62
7
  6
CONTINUOUS
 10
301.0344756302
 20
185.915502611
 11
256.5843233254
 21
185.915502611
  0
LINE
  5
330
100
AcDbEntity
  8
RACCORDO
100
AcDbLine
 62
7
  6
CONTINUOUS
 10
230.0344756302
 20
185.915502611
 11
185.5843233254
 21
185.915502611
  0
LINE
  5
331
100
AcDbEntity
  8
ASSI
100
AcDbLine
 62
7
  6
CONTINUOUS
 10
230.0344756302
 20
185.915502611
 11
185.5843233254
 21
185.915502611
  0
LINE
  5
332
100
AcDbEntity
  8
RACCORDO
100
AcDbLine
 62
7
  6
CONTINUOUS
 10
159.0344756302
 20
185.915502611
 11
114.5843233254
 21
185.915502611
  0
LINE
  5
333
100
AcDbEntity
  8
ASSI
100
AcDbLine
 62
7
  6
CONTINUOUS
 10
159.0344756302
 20
185.915502611
 11
114.5843233254
 21
185.915502611
  0
LINE
  5
334
100
AcDbEntity
  8
RACCORDO
100
AcDbLine
 62
250
  6
CONTINUOUS
 10
114.5755044031
 20
185.9243215333
 11
159.0432945526
 21
185.9243215333
  0
LINE
  5
335
100
AcDbEntity
  8
ASSI
100
AcDbLine
 62
250
  6
CONTINUOUS
 10
114.5755044031
 20
185.9243215333
 11
159.0432945526
 21
185.9243215333
  0
LINE
  5
336
100
AcDbEntity
  8
RACCORDO
100
AcDbLine
 62
250
  6
CONTINUOUS
 10
185.5755044031
 20
185.9243215333
 11
230.0432945526
 21
185.9243215333
  0
LINE
  5
337
100
AcDbEntity
  8
ASSI
100
AcDbLine
 62
250
  6
CONTINUOUS
 10
185.5755044031
 20
185.9243215333
 11
230.0432945526
 21
185.9243215333
  0
LINE
  5
338
100
AcDbEntity
  8
RACCORDO
100
AcDbLine
 62
250
  6
CONTINUOUS
 10
256.5755044031
 20
185.9243215333
 11
301.0432945526
 21
185.9243215333
  0
LINE
  5
339
100
AcDbEntity
  8
ASSI
100
AcDbLine
 62
250
  6
CONTINUOUS
 10
256.5755044031
 20
185.9243215333
 11
301.0432945526
 21
185.9243215333
  0
LINE
  5
33A
100
AcDbEntity
  8
RACCORDO
100
AcDbLine
 62
250
  6
CONTINUOUS
 10
327.5755044031
 20
185.9243215333
 11
372.0432945526
 21
185.9243215333
  0
LINE
  5
33B
100
AcDbEntity
  8
ASSI
100
AcDbLine
 62
250
  6
CONTINUOUS
 10
327.5755044031
 20
185.9243215333
 11
372.0432945526
 21
185.9243215333
  0
LINE
  5
33C
100
AcDbEntity
  8
RACCORDO
100
AcDbLine
 62
250
  6
CONTINUOUS
 10
114.5755044031
 20
186.2242758418
 11
159.0432945526
 21
186.2242758418
  0
LINE
  5
33D
100
AcDbEntity
  8
ASSI
100
AcDbLine
 62
250
  6
CONTINUOUS
 10
114.5755044031
 20
186.2242758418
 11
159.0432945526
 21
186.2242758418
  0
LINE
  5
33E
100
AcDbEntity
  8
RACCORDO
100
AcDbLine
 62
250
  6
CONTINUOUS
 10
185.5755044031
 20
186.2242758418
 11
230.0432945526
 21
186.2242758418
  0
LINE
  5
33F
100
AcDbEntity
  8
ASSI
100
AcDbLine
 62
250
  6
CONTINUOUS
 10
185.5755044031
 20
186.2242758418
 11
230.0432945526
 21
186.2242758418
  0
LINE
  5
340
100
AcDbEntity
  8
RACCORDO
100
AcDbLine
 62
250
  6
CONTINUOUS
 10
256.5755044031
 20
186.2242758418
 11
301.0432945526
 21
186.2242758418
  0
LINE
  5
341
100
AcDbEntity
  8
ASSI
100
AcDbLine
 62
250
  6
CONTINUOUS
 10
256.5755044031
 20
186.2242758418
 11
301.0432945526
 21
186.2242758418
  0
LINE
  5
342
100
AcDbEntity
  8
RACCORDO
100
AcDbLine
 62
250
  6
CONTINUOUS
 10
327.5755044031
 20
186.2242758418
 11
372.0432945526
 21
186.2242758418
  0
LINE
  5
343
100
AcDbEntity
  8
ASSI
100
AcDbLine
 62
250
  6
CONTINUOUS
 10
327.5755044031
 20
186.2242758418
 11
372.0432945526
 21
186.2242758418
  0
LWPOLYLINE
  5
344
100
AcDbEntity
  8
RACCORDO
100
AcDbPolyline
 62
250
  6
CONTINUOUS
 90
28
 70
0
 10
159.0432945526
 20
186.2242758418
 10
159.0890661959
 20
186.2229895279
 10
159.134543482
 20
186.2190834693
 10
159.1797264107
 20
186.2125576662
 10
159.2248190441
 20
186.2033715882
 10
159.2696173201
 20
186.1915657657
 10
159.313509053
 20
186.177261789
 10
159.35645677
 20
186.1604115548
 10
159.3984979438
 20
186.1410631665
 10
159.4391328065
 20
186.1194825243
 10
159.4782849639
 20
186.0956817062
 10
159.5160308102
 20
186.0696486343
 10
159.5520997609
 20
186.0416129751
 10
159.5864935051
 20
186.0115648223
 10
159.6192103537
 20
185.9795140824
 10
159.649974655
 20
185.9457201404
 10
159.6787470088
 20
185.9102637004
 10
159.7055668153
 20
185.8730640583
 10
159.7302766231
 20
185.8341384878
 10
159.7529613981
 20
185.7933624537
 10
159.7735361745
 20
185.750860491
 10
159.7915886041
 20
185.7070234792
 10
159.8070899966
 20
185.6616983576
 10
159.8200690423
 20
185.6150381867
 10
159.830199464
 20
185.567893028
 10
159.8373725028
 20
185.5205462351
 10
159.8416969177
 20
185.4727144544
 10
159.8431727087
 20
185.4243976857
  0
LWPOLYLINE
  5
345
100
AcDbEntity
  8
ASSI
100
AcDbPolyline
 62
250
  6
CONTINUOUS
 90
28
 70
0
 10
159.0432945526
 20
186.2242758418
 10
159.0890661959
 20
186.2229895279
 10
159.134543482
 20
186.2190834693
 10
159.1797264107
 20
186.2125576662
 10
159.2248190441
 20
186.2033715882
 10
159.2696173201
 20
186.1915657657
 10
159.313509053
 20
186.177261789
 10
159.35645677
 20
186.1604115548
 10
159.3984979438
 20
186.1410631665
 10
159.4391328065
 20
186.1194825243
 10
159.4782849639
 20
186.0956817062
 10
159.5160308102
 20
186.0696486343
 10
159.5520997609
 20
186.0416129751
 10
159.5864935051
 20
186.0115648223
 10
159.6192103537
 20
185.9795140824
 10
159.649974655
 20
185.9457201404
 10
159.6787470088
 20
185.9102637004
 10
159.7055668153
 20
185.8730640583
 10
159.7302766231
 20
185.8341384878
 10
159.7529613981
 20
185.7933624537
 10
159.7735361745
 20
185.750860491
 10
159.7915886041
 20
185.7070234792
 10
159.8070899966
 20
185.6616983576
 10
159.8200690423
 20
185.6150381867
 10
159.830199464
 20
185.567893028
 10
159.8373725028
 20
185.5205462351
 10
159.8416969177
 20
185.4727144544
 10
159.8431727087
 20
185.4243976857
  0
LWPOLYLINE
  5
346
100
AcDbEntity
  8
RACCORDO
100
AcDbPolyline
 62
250
  6
CONTINUOUS
 90
28
 70
0
 10
230.0432945526
 20
186.2242758418
 10
230.0890661959
 20
186.2229895279
 10
230.134543482
 20
186.2190834693
 10
230.1797264107
 20
186.2125576662
 10
230.2248190441
 20
186.2033715882
 10
230.2696173201
 20
186.1915657657
 10
230.313509053
 20
186.177261789
 10
230.35645677
 20
186.1604115548
 10
230.3984979438
 20
186.1410631665
 10
230.4391328065
 20
186.1194825243
 10
230.4782849639
 20
186.0956817062
 10
230.5160308102
 20
186.0696486343
 10
230.5520997609
 20
186.0416129751
 10
230.5864935051
 20
186.0115648223
 10
230.6192103537
 20
185.9795140824
 10
230.649974655
 20
185.9457201404
 10
230.6787470088
 20
185.9102637004
 10
230.7055668153
 20
185.8730640583
 10
230.7302766231
 20
185.8341384878
 10
230.7529613981
 20
185.7933624537
 10
230.7735361745
 20
185.750860491
 10
230.7915886041
 20
185.7070234792
 10
230.8070899966
 20
185.6616983576
 10
230.8200690423
 20
185.6150381867
 10
230.830199464
 20
185.567893028
 10
230.8373725028
 20
185.5205462351
 10
230.8416969177
 20
185.4727144544
 10
230.8431727087
 20
185.4243976857
  0
LWPOLYLINE
  5
347
100
AcDbEntity
  8
ASSI
100
AcDbPolyline
 62
250
  6
CONTINUOUS
 90
28
 70
0
 10
230.0432945526
 20
186.2242758418
 10
230.0890661959
 20
186.2229895279
 10
230.134543482
 20
186.2190834693
 10
230.1797264107
 20
186.2125576662
 10
230.2248190441
 20
186.2033715882
 10
230.2696173201
 20
186.1915657657
 10
230.313509053
 20
186.177261789
 10
230.35645677
 20
186.1604115548
 10
230.3984979438
 20
186.1410631665
 10
230.4391328065
 20
186.1194825243
 10
230.4782849639
 20
186.0956817062
 10
230.5160308102
 20
186.0696486343
 10
230.5520997609
 20
186.0416129751
 10
230.5864935051
 20
186.0115648223
 10
230.6192103537
 20
185.9795140824
 10
230.649974655
 20
185.9457201404
 10
230.6787470088
 20
185.9102637004
 10
230.7055668153
 20
185.8730640583
 10
230.7302766231
 20
185.8341384878
 10
230.7529613981
 20
185.7933624537
 10
230.7735361745
 20
185.750860491
 10
230.7915886041
 20
185.7070234792
 10
230.8070899966
 20
185.6616983576
 10
230.8200690423
 20
185.6150381867
 10
230.830199464
 20
185.567893028
 10
230.8373725028
 20
185.5205462351
 10
230.8416969177
 20
185.4727144544
 10
230.8431727087
 20
185.4243976857
  0
LWPOLYLINE
  5
348
100
AcDbEntity
  8
RACCORDO
100
AcDbPolyline
 62
250
  6
CONTINUOUS
 90
28
 70
0
 10
301.0432945526
 20
186.2242758418
 10
301.0890661959
 20
186.2229895279
 10
301.134543482
 20
186.2190834693
 10
301.1797264107
 20
186.2125576662
 10
301.2248190441
 20
186.2033715882
 10
301.2696173201
 20
186.1915657657
 10
301.313509053
 20
186.177261789
 10
301.35645677
 20
186.1604115548
 10
301.3984979438
 20
186.1410631665
 10
301.4391328065
 20
186.1194825243
 10
301.4782849639
 20
186.0956817062
 10
301.5160308102
 20
186.0696486343
 10
301.5520997609
 20
186.0416129751
 10
301.5864935051
 20
186.0115648223
 10
301.6192103537
 20
185.9795140824
 10
301.649974655
 20
185.9457201404
 10
301.6787470088
 20
185.9102637004
 10
301.7055668153
 20
185.8730640583
 10
301.7302766231
 20
185.8341384878
 10
301.7529613981
 20
185.7933624537
 10
301.7735361745
 20
185.750860491
 10
301.7915886041
 20
185.7070234792
 10
301.8070899966
 20
185.6616983576
 10
301.8200690423
 20
185.6150381867
 10
301.830199464
 20
185.567893028
 10
301.8373725028
 20
185.5205462351
 10
301.8416969177
 20
185.4727144544
 10
301.8431727087
 20
185.4243976857
  0
LWPOLYLINE
  5
349
100
AcDbEntity
  8
ASSI
100
AcDbPolyline
 62
250
  6
CONTINUOUS
 90
28
 70
0
 10
301.0432945526
 20
186.2242758418
 10
301.0890661959
 20
186.2229895279
 10
301.134543482
 20
186.2190834693
 10
301.1797264107
 20
186.2125576662
 10
301.2248190441
 20
186.2033715882
 10
301.2696173201
 20
186.1915657657
 10
301.313509053
 20
186.177261789
 10
301.35645677
 20
186.1604115548
 10
301.3984979438
 20
186.1410631665
 10
301.4391328065
 20
186.1194825243
 10
301.4782849639
 20
186.0956817062
 10
301.5160308102
 20
186.0696486343
 10
301.5520997609
 20
186.0416129751
 10
301.5864935051
 20
186.0115648223
 10
301.6192103537
 20
185.9795140824
 10
301.649974655
 20
185.9457201404
 10
301.6787470088
 20
185.9102637004
 10
301.7055668153
 20
185.8730640583
 10
301.7302766231
 20
185.8341384878
 10
301.7529613981
 20
185.7933624537
 10
301.7735361745
 20
185.750860491
 10
301.7915886041
 20
185.7070234792
 10
301.8070899966
 20
185.6616983576
 10
301.8200690423
 20
185.6150381867
 10
301.830199464
 20
185.567893028
 10
301.8373725028
 20
185.5205462351
 10
301.8416969177
 20
185.4727144544
 10
301.8431727087
 20
185.4243976857
  0
LWPOLYLINE
  5
34A
100
AcDbEntity
  8
RACCORDO
100
AcDbPolyline
 62
250
  6
CONTINUOUS
 90
28
 70
0
 10
372.0432945526
 20
186.2242758418
 10
372.0890661959
 20
186.2229895279
 10
372.134543482
 20
186.2190834693
 10
372.1797264107
 20
186.2125576662
 10
372.2248190441
 20
186.2033715882
 10
372.2696173201
 20
186.1915657657
 10
372.313509053
 20
186.177261789
 10
372.35645677
 20
186.1604115548
 10
372.3984979438
 20
186.1410631665
 10
372.4391328065
 20
186.1194825243
 10
372.4782849639
 20
186.0956817062
 10
372.5160308102
 20
186.0696486343
 10
372.5520997609
 20
186.0416129751
 10
372.5864935051
 20
186.0115648223
 10
372.6192103537
 20
185.9795140824
 10
372.649974655
 20
185.9457201404
 10
372.6787470088
 20
185.9102637004
 10
372.7055668153
 20
185.8730640583
 10
372.7302766231
 20
185.8341384878
 10
372.7529613981
 20
185.7933624537
 10
372.7735361745
 20
185.750860491
 10
372.7915886041
 20
185.7070234792
 10
372.8070899966
 20
185.6616983576
 10
372.8200690423
 20
185.6150381867
 10
372.830199464
 20
185.567893028
 10
372.8373725028
 20
185.5205462351
 10
372.8416969177
 20
185.4727144544
 10
372.8431727087
 20
185.4243976857
  0
LWPOLYLINE
  5
34B
100
AcDbEntity
  8
ASSI
100
AcDbPolyline
 62
250
  6
CONTINUOUS
 90
28
 70
0
 10
372.0432945526
 20
186.2242758418
 10
372.0890661959
 20
186.2229895279
 10
372.134543482
 20
186.2190834693
 10
372.1797264107
 20
186.2125576662
 10
372.2248190441
 20
186.2033715882
 10
372.2696173201
 20
186.1915657657
 10
372.313509053
 20
186.177261789
 10
372.35645677
 20
186.1604115548
 10
372.3984979438
 20
186.1410631665
 10
372.4391328065
 20
186.1194825243
 10
372.4782849639
 20
186.0956817062
 10
372.5160308102
 20
186.0696486343
 10
372.5520997609
 20
186.0416129751
 10
372.5864935051
 20
186.0115648223
 10
372.6192103537
 20
185.9795140824
 10
372.649974655
 20
185.9457201404
 10
372.6787470088
 20
185.9102637004
 10
372.7055668153
 20
185.8730640583
 10
372.7302766231
 20
185.8341384878
 10
372.7529613981
 20
185.7933624537
 10
372.7735361745
 20
185.750860491
 10
372.7915886041
 20
185.7070234792
 10
372.8070899966
 20
185.6616983576
 10
372.8200690423
 20
185.6150381867
 10
372.830199464
 20
185.567893028
 10
372.8373725028
 20
185.5205462351
 10
372.8416969177
 20
185.4727144544
 10
372.8431727087
 20
185.4243976857
  0
LWPOLYLINE
  5
34C
100
AcDbEntity
  8
RACCORDO
100
AcDbPolyline
 62
250
  6
CONTINUOUS
 90
28
 70
0
 10
159.0432945526
 20
185.9243215333
 10
159.071747808
 20
185.923516822
 10
159.100207273
 20
185.9210832985
 10
159.1285787034
 20
185.9170119142
 10
159.1568008004
 20
185.911291167
 10
159.1847416248
 20
185.9039271358
 10
159.2122041014
 20
185.8949632354
 10
159.2390855949
 20
185.8844351163
 10
159.2653086834
 20
185.8723753514
 10
159.2907266947
 20
185.8588589436
 10
159.3152249577
 20
185.8439656248
 10
159.3387684934
 20
185.8277360108
 10
159.3613350483
 20
185.8101944821
 10
159.3828565047
 20
185.7913961151
 10
159.4032592949
 20
185.7714074012
 10
159.4225070834
 20
185.7502616867
 10
159.4404966905
 20
185.7280719487
 10
159.4572066403
 20
185.7048642238
 10
159.4726922441
 20
185.6805195835
 10
159.48690337
 20
185.6550212408
 10
159.4997057521
 20
185.6285036579
 10
159.5110047123
 20
185.601065187
 10
159.5207449689
 20
185.5727166399
 10
159.5288229182
 20
185.5436139393
 10
159.5351250285
 20
185.5140971776
 10
159.5396222843
 20
185.4843570488
 10
159.5423220265
 20
185.4544210742
 10
159.5432184001
 20
185.4243976857
  0
LWPOLYLINE
  5
34D
100
AcDbEntity
  8
ASSI
100
AcDbPolyline
 62
250
  6
CONTINUOUS
 90
28
 70
0
 10
159.0432945526
 20
185.9243215333
 10
159.071747808
 20
185.923516822
 10
159.100207273
 20
185.9210832985
 10
159.1285787034
 20
185.9170119142
 10
159.1568008004
 20
185.911291167
 10
159.1847416248
 20
185.9039271358
 10
159.2122041014
 20
185.8949632354
 10
159.2390855949
 20
185.8844351163
 10
159.2653086834
 20
185.8723753514
 10
159.2907266947
 20
185.8588589436
 10
159.3152249577
 20
185.8439656248
 10
159.3387684934
 20
185.8277360108
 10
159.3613350483
 20
185.8101944821
 10
159.3828565047
 20
185.7913961151
 10
159.4032592949
 20
185.7714074012
 10
159.4225070834
 20
185.7502616867
 10
159.4404966905
 20
185.7280719487
 10
159.4572066403
 20
185.7048642238
 10
159.4726922441
 20
185.6805195835
 10
159.48690337
 20
185.6550212408
 10
159.4997057521
 20
185.6285036579
 10
159.5110047123
 20
185.601065187
 10
159.5207449689
 20
185.5727166399
 10
159.5288229182
 20
185.5436139393
 10
159.5351250285
 20
185.5140971776
 10
159.5396222843
 20
185.4843570488
 10
159.5423220265
 20
185.4544210742
 10
159.5432184001
 20
185.4243976857
  0
LWPOLYLINE
  5
34E
100
AcDbEntity
  8
RACCORDO
100
AcDbPolyline
 62
250
  6
CONTINUOUS
 90
28
 70
0
 10
230.0432945526
 20
185.9243215333
 10
230.071747808
 20
185.923516822
 10
230.100207273
 20
185.9210832985
 10
230.1285787034
 20
185.9170119142
 10
230.1568008004
 20
185.911291167
 10
230.1847416248
 20
185.9039271358
 10
230.2122041014
 20
185.8949632354
 10
230.2390855949
 20
185.8844351163
 10
230.2653086834
 20
185.8723753514
 10
230.2907266947
 20
185.8588589436
 10
230.3152249577
 20
185.8439656248
 10
230.3387684934
 20
185.8277360108
 10
230.3613350483
 20
185.8101944821
 10
230.3828565047
 20
185.7913961151
 10
230.4032592949
 20
185.7714074012
 10
230.4225070834
 20
185.7502616867
 10
230.4404966905
 20
185.7280719487
 10
230.4572066403
 20
185.7048642238
 10
230.4726922441
 20
185.6805195835
 10
230.48690337
 20
185.6550212408
 10
230.4997057521
 20
185.6285036579
 10
230.5110047123
 20
185.601065187
 10
230.5207449689
 20
185.5727166399
 10
230.5288229182
 20
185.5436139393
 10
230.5351250285
 20
185.5140971776
 10
230.5396222843
 20
185.4843570488
 10
230.5423220265
 20
185.4544210742
 10
230.5432184001
 20
185.4243976857
  0
LWPOLYLINE
  5
34F
100
AcDbEntity
  8
ASSI
100
AcDbPolyline
 62
250
  6
CONTINUOUS
 90
28
 70
0
 10
230.0432945526
 20
185.9243215333
 10
230.071747808
 20
185.923516822
 10
230.100207273
 20
185.9210832985
 10
230.1285787034
 20
185.9170119142
 10
230.1568008004
 20
185.911291167
 10
230.1847416248
 20
185.9039271358
 10
230.2122041014
 20
185.8949632354
 10
230.2390855949
 20
185.8844351163
 10
230.2653086834
 20
185.8723753514
 10
230.2907266947
 20
185.8588589436
 10
230.3152249577
 20
185.8439656248
 10
230.3387684934
 20
185.8277360108
 10
230.3613350483
 20
185.8101944821
 10
230.3828565047
 20
185.7913961151
 10
230.4032592949
 20
185.7714074012
 10
230.4225070834
 20
185.7502616867
 10
230.4404966905
 20
185.7280719487
 10
230.4572066403
 20
185.7048642238
 10
230.4726922441
 20
185.6805195835
 10
230.48690337
 20
185.6550212408
 10
230.4997057521
 20
185.6285036579
 10
230.5110047123
 20
185.601065187
 10
230.5207449689
 20
185.5727166399
 10
230.5288229182
 20
185.5436139393
 10
230.5351250285
 20
185.5140971776
 10
230.5396222843
 20
185.4843570488
 10
230.5423220265
 20
185.4544210742
 10
230.5432184001
 20
185.4243976857
  0
LWPOLYLINE
  5
350
100
AcDbEntity
  8
RACCORDO
100
AcDbPolyline
 62
250
  6
CONTINUOUS
 90
28
 70
0
 10
301.0432945526
 20
185.9243215333
 10
301.071747808
 20
185.923516822
 10
301.100207273
 20
185.9210832985
 10
301.1285787034
 20
185.9170119142
 10
301.1568008004
 20
185.911291167
 10
301.1847416248
 20
185.9039271358
 10
301.2122041014
 20
185.8949632354
 10
301.2390855949
 20
185.8844351163
 10
301.2653086834
 20
185.8723753514
 10
301.2907266947
 20
185.8588589436
 10
301.3152249577
 20
185.8439656248
 10
301.3387684934
 20
185.8277360108
 10
301.3613350483
 20
185.8101944821
 10
301.3828565047
 20
185.7913961151
 10
301.4032592949
 20
185.7714074012
 10
301.4225070834
 20
185.7502616867
 10
301.4404966905
 20
185.7280719487
 10
301.4572066403
 20
185.7048642238
 10
301.4726922441
 20
185.6805195835
 10
301.48690337
 20
185.6550212408
 10
301.4997057521
 20
185.6285036579
 10
301.5110047123
 20
185.601065187
 10
301.5207449689
 20
185.5727166399
 10
301.5288229182
 20
185.5436139393
 10
301.5351250285
 20
185.5140971776
 10
301.5396222843
 20
185.4843570488
 10
301.5423220265
 20
185.4544210742
 10
301.5432184001
 20
185.4243976857
  0
LWPOLYLINE
  5
351
100
AcDbEntity
  8
ASSI
100
AcDbPolyline
 62
250
  6
CONTINUOUS
 90
28
 70
0
 10
301.0432945526
 20
185.9243215333
 10
301.071747808
 20
185.923516822
 10
301.100207273
 20
185.9210832985
 10
301.1285787034
 20
185.9170119142
 10
301.1568008004
 20
185.911291167
 10
301.1847416248
 20
185.9039271358
 10
301.2122041014
 20
185.8949632354
 10
301.2390855949
 20
185.8844351163
 10
301.2653086834
 20
185.8723753514
 10
301.2907266947
 20
185.8588589436
 10
301.3152249577
 20
185.8439656248
 10
301.3387684934
 20
185.8277360108
 10
301.3613350483
 20
185.8101944821
 10
301.3828565047
 20
185.7913961151
 10
301.4032592949
 20
185.7714074012
 10
301.4225070834
 20
185.7502616867
 10
301.4404966905
 20
185.7280719487
 10
301.4572066403
 20
185.7048642238
 10
301.4726922441
 20
185.6805195835
 10
301.48690337
 20
185.6550212408
 10
301.4997057521
 20
185.6285036579
 10
301.5110047123
 20
185.601065187
 10
301.5207449689
 20
185.5727166399
 10
301.5288229182
 20
185.5436139393
 10
301.5351250285
 20
185.5140971776
 10
301.5396222843
 20
185.4843570488
 10
301.5423220265
 20
185.4544210742
 10
301.5432184001
 20
185.4243976857
  0
LWPOLYLINE
  5
352
100
AcDbEntity
  8
RACCORDO
100
AcDbPolyline
 62
250
  6
CONTINUOUS
 90
28
 70
0
 10
372.0432945526
 20
185.9243215333
 10
372.071747808
 20
185.923516822
 10
372.100207273
 20
185.9210832985
 10
372.1285787034
 20
185.9170119142
 10
372.1568008004
 20
185.911291167
 10
372.1847416248
 20
185.9039271358
 10
372.2122041014
 20
185.8949632354
 10
372.2390855949
 20
185.8844351163
 10
372.2653086834
 20
185.8723753514
 10
372.2907266947
 20
185.8588589436
 10
372.3152249577
 20
185.8439656248
 10
372.3387684934
 20
185.8277360108
 10
372.3613350483
 20
185.8101944821
 10
372.3828565047
 20
185.7913961151
 10
372.4032592949
 20
185.7714074012
 10
372.4225070834
 20
185.7502616867
 10
372.4404966905
 20
185.7280719487
 10
372.4572066403
 20
185.7048642238
 10
372.4726922441
 20
185.6805195835
 10
372.48690337
 20
185.6550212408
 10
372.4997057521
 20
185.6285036579
 10
372.5110047123
 20
185.601065187
 10
372.5207449689
 20
185.5727166399
 10
372.5288229182
 20
185.5436139393
 10
372.5351250285
 20
185.5140971776
 10
372.5396222843
 20
185.4843570488
 10
372.5423220265
 20
185.4544210742
 10
372.5432184001
 20
185.4243976857
  0
LWPOLYLINE
  5
353
100
AcDbEntity
  8
ASSI
100
AcDbPolyline
 62
250
  6
CONTINUOUS
 90
28
 70
0
 10
372.0432945526
 20
185.9243215333
 10
372.071747808
 20
185.923516822
 10
372.100207273
 20
185.9210832985
 10
372.1285787034
 20
185.9170119142
 10
372.1568008004
 20
185.911291167
 10
372.1847416248
 20
185.9039271358
 10
372.2122041014
 20
185.8949632354
 10
372.2390855949
 20
185.8844351163
 10
372.2653086834
 20
185.8723753514
 10
372.2907266947
 20
185.8588589436
 10
372.3152249577
 20
185.8439656248
 10
372.3387684934
 20
185.8277360108
 10
372.3613350483
 20
185.8101944821
 10
372.3828565047
 20
185.7913961151
 10
372.4032592949
 20
185.7714074012
 10
372.4225070834
 20
185.7502616867
 10
372.4404966905
 20
185.7280719487
 10
372.4572066403
 20
185.7048642238
 10
372.4726922441
 20
185.6805195835
 10
372.48690337
 20
185.6550212408
 10
372.4997057521
 20
185.6285036579
 10
372.5110047123
 20
185.601065187
 10
372.5207449689
 20
185.5727166399
 10
372.5288229182
 20
185.5436139393
 10
372.5351250285
 20
185.5140971776
 10
372.5396222843
 20
185.4843570488
 10
372.5423220265
 20
185.4544210742
 10
372.5432184001
 20
185.4243976857
  0
LINE
  5
354
100
AcDbEntity
  8
RACCORDO
100
AcDbLine
 62
250
  6
CONTINUOUS
 10
301.5432184001
 20
132.8566075362
 11
301.5343994778
 21
132.8654264585
  0
LINE
  5
355
100
AcDbEntity
  8
ASSI
100
AcDbLine
 62
250
  6
CONTINUOUS
 10
301.5432184001
 20
132.8566075362
 11
301.5343994778
 21
132.8654264585
  0
LINE
  5
356
100
AcDbEntity
  8
RACCORDO
100
AcDbLine
 62
250
  6
CONTINUOUS
 10
256.0755805555
 20
185.4243976857
 11
256.0843994778
 21
185.4155787634
  0
LINE
  5
357
100
AcDbEntity
  8
ASSI
100
AcDbLine
 62
250
  6
CONTINUOUS
 10
256.0755805555
 20
185.4243976857
 11
256.0843994778
 21
185.4155787634
  0
LINE
  5
358
100
AcDbEntity
  8
RACCORDO
100
AcDbLine
 62
250
  6
CONTINUOUS
 10
256.5755044031
 20
185.9243215333
 11
256.5843233254
 21
185.915502611
  0
LINE
  5
359
100
AcDbEntity
  8
ASSI
100
AcDbLine
 62
250
  6
CONTINUOUS
 10
256.5755044031
 20
185.9243215333
 11
256.5843233254
 21
185.915502611
  0
LINE
  5
35A
100
AcDbEntity
  8
RACCORDO
100
AcDbLine
 62
250
  6
CONTINUOUS
 10
92.5406798797
 20
201.4105926744
 11
92.0413651123
 21
201.4105926744
  0
LINE
  5
35B
100
AcDbEntity
  8
ASSI
100
AcDbLine
 62
250
  6
CONTINUOUS
 10
92.5406798797
 20
201.4105926744
 11
92.0413651123
 21
201.4105926744
  0
LINE
  5
35C
100
AcDbEntity
  8
RACCORDO
100
AcDbLine
 62
250
  6
CONTINUOUS
 10
394.078119076
 20
201.4105926744
 11
394.5774338433
 21
201.4105926744
  0
LINE
  5
35D
100
AcDbEntity
  8
ASSI
100
AcDbLine
 62
250
  6
CONTINUOUS
 10
394.078119076
 20
201.4105926744
 11
394.5774338433
 21
201.4105926744
  0
LINE
  5
35E
100
AcDbEntity
  8
RACCORDO
100
AcDbLine
 62
250
  6
CONTINUOUS
 10
393.0794895412
 20
202.4092222091
 11
93.5393094144
 21
202.4092222091
  0
LINE
  5
35F
100
AcDbEntity
  8
ASSI
100
AcDbLine
 62
250
  6
CONTINUOUS
 10
393.0794895412
 20
202.4092222091
 11
93.5393094144
 21
202.4092222091
  0
LWPOLYLINE
  5
360
100
AcDbEntity
  8
RACCORDO
100
AcDbPolyline
 62
250
  6
CONTINUOUS
 90
34
 70
0
 10
93.5393094144
 20
202.4092222091
 10
93.4910977683
 20
202.4079821119
 10
93.4434850893
 20
202.4045674961
 10
93.3964713773
 20
202.3989783618
 10
93.3500642436
 20
202.3911997986
 10
93.304256077
 20
202.3812467168
 10
93.2590240432
 20
202.3691638479
 10
93.2142430023
 20
202.3549252259
 10
93.1700380942
 20
202.3385568168
 10
93.1267619049
 20
202.3201812498
 10
93.0844460357
 20
202.2997920137
 10
93.0430588854
 20
202.2773956196
 10
93.0028582355
 20
202.2531342303
 10
92.9638460968
 20
202.2269933838
 10
92.9260204586
 20
202.1989875421
 10
92.8896330701
 20
202.1693022544
 10
92.8546948261
 20
202.1379278303
 10
92.8211948318
 20
202.1048739601
 10
92.7893521522
 20
202.0703552642
 10
92.7591723421
 20
202.0343523297
 10
92.7306498468
 20
201.9968845694
 10
92.7039870667
 20
201.9582248425
 10
92.6792354733
 20
201.9184747372
 10
92.6563435952
 20
201.8775326652
 10
92.6353594187
 20
201.8353667218
 10
92.6162225207
 20
201.7918942956
 10
92.5989933243
 20
201.747197998
 10
92.5839010847
 20
201.7014937576
 10
92.570948234
 20
201.6547032065
 10
92.5601323402
 20
201.6069047128
 10
92.5516753619
 20
201.5585493094
 10
92.5456512856
 20
201.5097873407
 10
92.5419861248
 20
201.4604684624
 10
92.5406798797
 20
201.4105926744
  0
LWPOLYLINE
  5
361
100
AcDbEntity
  8
ASSI
100
AcDbPolyline
 62
250
  6
CONTINUOUS
 90
34
 70
0
 10
93.5393094144
 20
202.4092222091
 10
93.4910977683
 20
202.4079821119
 10
93.4434850893
 20
202.4045674961
 10
93.3964713773
 20
202.3989783618
 10
93.3500642436
 20
202.3911997986
 10
93.304256077
 20
202.3812467168
 10
93.2590240432
 20
202.3691638479
 10
93.2142430023
 20
202.3549252259
 10
93.1700380942
 20
202.3385568168
 10
93.1267619049
 20
202.3201812498
 10
93.0844460357
 20
202.2997920137
 10
93.0430588854
 20
202.2773956196
 10
93.0028582355
 20
202.2531342303
 10
92.9638460968
 20
202.2269933838
 10
92.9260204586
 20
202.1989875421
 10
92.8896330701
 20
202.1693022544
 10
92.8546948261
 20
202.1379278303
 10
92.8211948318
 20
202.1048739601
 10
92.7893521522
 20
202.0703552642
 10
92.7591723421
 20
202.0343523297
 10
92.7306498468
 20
201.9968845694
 10
92.7039870667
 20
201.9582248425
 10
92.6792354733
 20
201.9184747372
 10
92.6563435952
 20
201.8775326652
 10
92.6353594187
 20
201.8353667218
 10
92.6162225207
 20
201.7918942956
 10
92.5989933243
 20
201.747197998
 10
92.5839010847
 20
201.7014937576
 10
92.570948234
 20
201.6547032065
 10
92.5601323402
 20
201.6069047128
 10
92.5516753619
 20
201.5585493094
 10
92.5456512856
 20
201.5097873407
 10
92.5419861248
 20
201.4604684624
 10
92.5406798797
 20
201.4105926744
  0
LWPOLYLINE
  5
362
100
AcDbEntity
  8
RACCORDO
100
AcDbPolyline
 62
250
  6
CONTINUOUS
 90
34
 70
0
 10
93.5393094144
 20
202.9085369765
 10
93.467308745
 20
202.9067432049
 10
93.3958974149
 20
202.9015369969
 10
93.325233449
 20
202.8929901223
 10
93.2556296186
 20
202.8812124753
 10
93.1870666783
 20
202.8662724226
 10
93.1192094588
 20
202.8481213308
 10
93.0520239709
 20
202.8267254497
 10
92.9858519082
 20
202.802168451
 10
92.9209299896
 20
202.7745336986
 10
92.8574360769
 20
202.7439032389
 10
92.7954719047
 20
202.7103328023
 10
92.7351521407
 20
202.6738855135
 10
92.6766025444
 20
202.6346360075
 10
92.6199606845
 20
202.5926752474
 10
92.5653545371
 20
202.5480974053
 10
92.5129070464
 20
202.501002952
 10
92.4627315778
 20
202.4514939675
 10
92.4149349821
 20
202.3996750982
 10
92.3696131727
 20
202.3456469829
 10
92.3268786731
 20
202.2895404771
 10
92.2868507987
 20
202.2315160209
 10
92.2497027976
 20
202.1718555635
 10
92.2154090874
 20
202.1105507887
 10
92.1838352573
 20
202.0473029084
 10
92.1550547235
 20
201.9820966293
 10
92.1292550789
 20
201.9151756749
 10
92.1065352021
 20
201.8466060193
 10
92.0869949794
 20
201.7764321392
 10
92.0707838344
 20
201.7048879371
 10
92.0580453828
 20
201.6323405725
 10
92.0488605486
 20
201.5590284978
 10
92.0432812282
 20
201.4850534518
 10
92.0413651123
 20
201.4105926744
  0
LWPOLYLINE
  5
363
100
AcDbEntity
  8
ASSI
100
AcDbPolyline
 62
250
  6
CONTINUOUS
 90
34
 70
0
 10
93.5393094144
 20
202.9085369765
 10
93.467308745
 20
202.9067432049
 10
93.3958974149
 20
202.9015369969
 10
93.325233449
 20
202.8929901223
 10
93.2556296186
 20
202.8812124753
 10
93.1870666783
 20
202.8662724226
 10
93.1192094588
 20
202.8481213308
 10
93.0520239709
 20
202.8267254497
 10
92.9858519082
 20
202.802168451
 10
92.9209299896
 20
202.7745336986
 10
92.8574360769
 20
202.7439032389
 10
92.7954719047
 20
202.7103328023
 10
92.7351521407
 20
202.6738855135
 10
92.6766025444
 20
202.6346360075
 10
92.6199606845
 20
202.5926752474
 10
92.5653545371
 20
202.5480974053
 10
92.5129070464
 20
202.501002952
 10
92.4627315778
 20
202.4514939675
 10
92.4149349821
 20
202.3996750982
 10
92.3696131727
 20
202.3456469829
 10
92.3268786731
 20
202.2895404771
 10
92.2868507987
 20
202.2315160209
 10
92.2497027976
 20
202.1718555635
 10
92.2154090874
 20
202.1105507887
 10
92.1838352573
 20
202.0473029084
 10
92.1550547235
 20
201.9820966293
 10
92.1292550789
 20
201.9151756749
 10
92.1065352021
 20
201.8466060193
 10
92.0869949794
 20
201.7764321392
 10
92.0707838344
 20
201.7048879371
 10
92.0580453828
 20
201.6323405725
 10
92.0488605486
 20
201.5590284978
 10
92.0432812282
 20
201.4850534518
 10
92.0413651123
 20
201.4105926744
  0
LWPOLYLINE
  5
364
100
AcDbEntity
  8
0
100
AcDbPolyline
 62
7
  6
CONTINUOUS
 90
34
 70
0
 10
93.3073437799
 20
203.140502611
 10
93.2361832214
 20
203.1388165981
 10
93.1650353449
 20
203.133744948
 10
93.0940618447
 20
203.1252771284
 10
93.0233405229
 20
203.1133943624
 10
92.9531225671
 20
203.0981097614
 10
92.8838233914
 20
203.0795087641
 10
92.8156362471
 20
203.0576614414
 10
92.7486715387
 20
203.0326221144
 10
92.6832004489
 20
203.0045176195
 10
92.6195267758
 20
202.9735302002
 10
92.5576002142
 20
202.93968803
 10
92.4971745203
 20
202.9028591749
 10
92.438261129
 20
202.8630040872
 10
92.3811542152
 20
202.8202734528
 10
92.3260525824
 20
202.7747861119
 10
92.2730475504
 20
202.7265874143
 10
92.2223217654
 20
202.6758128052
 10
92.1741734421
 20
202.6227606889
 10
92.1287286056
 20
202.5676018053
 10
92.0860431354
 20
202.5104385285
 10
92.0462603937
 20
202.45150814
 10
92.0095357521
 20
202.3911261509
 10
91.9758120943
 20
202.3292899049
 10
91.9449449584
 20
202.2657405634
 10
91.9169634391
 20
202.2004413455
 10
91.8920390026
 20
202.133684357
 10
91.8702778109
 20
202.0656859279
 10
91.8517339921
 20
201.996539274
 10
91.8364861775
 20
201.926449773
 10
91.8246219425
 20
201.8558192174
 10
91.8161596898
 20
201.7848932258
 10
91.8110871193
 20
201.7137525116
 10
91.8093994778
 20
201.6425583088
  0
LWPOLYLINE
  5
365
100
AcDbEntity
  8
ASSI
100
AcDbPolyline
 62
7
  6
CONTINUOUS
 90
34
 70
0
 10
93.3073437799
 20
203.140502611
 10
93.2361832214
 20
203.1388165981
 10
93.1650353449
 20
203.133744948
 10
93.0940618447
 20
203.1252771284
 10
93.0233405229
 20
203.1133943624
 10
92.9531225671
 20
203.0981097614
 10
92.8838233914
 20
203.0795087641
 10
92.8156362471
 20
203.0576614414
 10
92.7486715387
 20
203.0326221144
 10
92.6832004489
 20
203.0045176195
 10
92.6195267758
 20
202.9735302002
 10
92.5576002142
 20
202.93968803
 10
92.4971745203
 20
202.9028591749
 10
92.438261129
 20
202.8630040872
 10
92.3811542152
 20
202.8202734528
 10
92.3260525824
 20
202.7747861119
 10
92.2730475504
 20
202.7265874143
 10
92.2223217654
 20
202.6758128052
 10
92.1741734421
 20
202.6227606889
 10
92.1287286056
 20
202.5676018053
 10
92.0860431354
 20
202.5104385285
 10
92.0462603937
 20
202.45150814
 10
92.0095357521
 20
202.3911261509
 10
91.9758120943
 20
202.3292899049
 10
91.9449449584
 20
202.2657405634
 10
91.9169634391
 20
202.2004413455
 10
91.8920390026
 20
202.133684357
 10
91.8702778109
 20
202.0656859279
 10
91.8517339921
 20
201.996539274
 10
91.8364861775
 20
201.926449773
 10
91.8246219425
 20
201.8558192174
 10
91.8161596898
 20
201.7848932258
 10
91.8110871193
 20
201.7137525116
 10
91.8093994778
 20
201.6425583088
  0
LINE
  5
366
100
AcDbEntity
  8
RACCORDO
100
AcDbLine
 62
250
  6
CONTINUOUS
 10
393.0794895412
 20
202.9085369765
 11
93.5393094144
 21
202.9085369765
  0
LINE
  5
367
100
AcDbEntity
  8
ASSI
100
AcDbLine
 62
250
  6
CONTINUOUS
 10
393.0794895412
 20
202.9085369765
 11
93.5393094144
 21
202.9085369765
  0
LINE
  5
368
100
AcDbEntity
  8
0
100
AcDbLine
 62
7
  6
CONTINUOUS
 10
393.3114551757
 20
203.140502611
 11
93.3073437799
 21
203.140502611
  0
LINE
  5
369
100
AcDbEntity
  8
ASSI
100
AcDbLine
 62
7
  6
CONTINUOUS
 10
393.3114551757
 20
203.140502611
 11
93.3073437799
 21
203.140502611
  0
LWPOLYLINE
  5
36A
100
AcDbEntity
  8
0
100
AcDbPolyline
 62
7
  6
CONTINUOUS
 90
6
 70
0
 43
0.3499999917
 10
239.9879589844
 20
211.8904943848
 10
241.0593896484
 20
211.8904943848
 10
241.2736962891
 20
212.1048010254
 10
241.2736962891
 20
213.1762060547
 10
240.8451086426
 20
213.6047937012
 10
240.4165466309
 20
213.6047937012
  0
LWPOLYLINE
  5
36B
100
AcDbEntity
  8
0
100
AcDbPolyline
 62
7
  6
CONTINUOUS
 90
6
 70
0
 43
0.3499999917
 10
244.4879626465
 20
211.8904943848
 10
245.5593933105
 20
211.8904943848
 10
245.7736743164
 20
212.1048010254
 10
245.7736743164
 20
213.1762060547
 10
245.3451123047
 20
213.6047937012
 10
244.916550293
 20
213.6047937012
  0
LINE
  5
36C
100
AcDbEntity
  8
RACCORDO
100
AcDbLine
 62
250
  6
CONTINUOUS
 10
301.0432945526
 20
186.2242758418
 11
301.0432945526
 21
185.9243215333
  0
LINE
  5
36D
100
AcDbEntity
  8
ASSI
100
AcDbLine
 62
250
  6
CONTINUOUS
 10
301.0432945526
 20
186.2242758418
 11
301.0432945526
 21
185.9243215333
  0
LINE
  5
36E
100
AcDbEntity
  8
RACCORDO
100
AcDbLine
 62
250
  6
CONTINUOUS
 10
301.0432945526
 20
132.0567293801
 11
301.0432945526
 21
132.3566836886
  0
LINE
  5
36F
100
AcDbEntity
  8
ASSI
100
AcDbLine
 62
250
  6
CONTINUOUS
 10
301.0432945526
 20
132.0567293801
 11
301.0432945526
 21
132.3566836886
  0
LINE
  5
370
100
AcDbEntity
  8
RACCORDO
100
AcDbLine
 62
7
  6
CONTINUOUS
 10
301.5343994778
 20
132.8654264585
 11
301.5343994778
 21
185.4155787634
  0
LINE
  5
371
100
AcDbEntity
  8
ASSI
100
AcDbLine
 62
7
  6
CONTINUOUS
 10
301.5343994778
 20
132.8654264585
 11
301.5343994778
 21
185.4155787634
  0
LINE
  5
372
100
AcDbEntity
  8
RACCORDO
100
AcDbLine
 62
250
  6
CONTINUOUS
 10
301.5432184001
 20
185.4243976857
 11
301.5432184001
 21
132.8566075362
  0
LINE
  5
373
100
AcDbEntity
  8
ASSI
100
AcDbLine
 62
250
  6
CONTINUOUS
 10
301.5432184001
 20
185.4243976857
 11
301.5432184001
 21
132.8566075362
  0
LINE
  5
374
100
AcDbEntity
  8
RACCORDO
100
AcDbLine
 62
250
  6
CONTINUOUS
 10
301.8431727087
 20
185.4243976857
 11
301.8431727087
 21
132.8566075362
  0
LINE
  5
375
100
AcDbEntity
  8
ASSI
100
AcDbLine
 62
250
  6
CONTINUOUS
 10
301.8431727087
 20
185.4243976857
 11
301.8431727087
 21
132.8566075362
  0
LWPOLYLINE
  5
376
100
AcDbEntity
  8
RACCORDO
100
AcDbPolyline
 62
250
  6
CONTINUOUS
 90
28
 70
0
 10
301.8431727087
 20
132.8566075362
 10
301.8418863947
 20
132.8108358928
 10
301.8379803362
 20
132.7653586068
 10
301.831454533
 20
132.7201756781
 10
301.8222684551
 20
132.6750830447
 10
301.8104626325
 20
132.6302847687
 10
301.7961586558
 20
132.5863930358
 10
301.7793084217
 20
132.5434453188
 10
301.7599600333
 20
132.501404145
 10
301.7383793912
 20
132.4607692822
 10
301.7145785731
 20
132.4216171249
 10
301.6885455011
 20
132.3838712786
 10
301.6605098419
 20
132.3478023279
 10
301.6304616892
 20
132.3134085837
 10
301.5984109492
 20
132.2806917351
 10
301.5646170072
 20
132.2499274338
 10
301.5291605672
 20
132.22115508
 10
301.4919609252
 20
132.1943352735
 10
301.4530353547
 20
132.1696254656
 10
301.4122593205
 20
132.1469406907
 10
301.3697573579
 20
132.1263659143
 10
301.3259203461
 20
132.1083134847
 10
301.2805952244
 20
132.0928120922
 10
301.2339350536
 20
132.0798330465
 10
301.1867898948
 20
132.0697026247
 10
301.139443102
 20
132.0625295859
 10
301.0916113212
 20
132.058205171
 10
301.0432945526
 20
132.0567293801
  0
LWPOLYLINE
  5
377
100
AcDbEntity
  8
ASSI
100
AcDbPolyline
 62
250
  6
CONTINUOUS
 90
28
 70
0
 10
301.8431727087
 20
132.8566075362
 10
301.8418863947
 20
132.8108358928
 10
301.8379803362
 20
132.7653586068
 10
301.831454533
 20
132.7201756781
 10
301.8222684551
 20
132.6750830447
 10
301.8104626325
 20
132.6302847687
 10
301.7961586558
 20
132.5863930358
 10
301.7793084217
 20
132.5434453188
 10
301.7599600333
 20
132.501404145
 10
301.7383793912
 20
132.4607692822
 10
301.7145785731
 20
132.4216171249
 10
301.6885455011
 20
132.3838712786
 10
301.6605098419
 20
132.3478023279
 10
301.6304616892
 20
132.3134085837
 10
301.5984109492
 20
132.2806917351
 10
301.5646170072
 20
132.2499274338
 10
301.5291605672
 20
132.22115508
 10
301.4919609252
 20
132.1943352735
 10
301.4530353547
 20
132.1696254656
 10
301.4122593205
 20
132.1469406907
 10
301.3697573579
 20
132.1263659143
 10
301.3259203461
 20
132.1083134847
 10
301.2805952244
 20
132.0928120922
 10
301.2339350536
 20
132.0798330465
 10
301.1867898948
 20
132.0697026247
 10
301.139443102
 20
132.0625295859
 10
301.0916113212
 20
132.058205171
 10
301.0432945526
 20
132.0567293801
  0
LWPOLYLINE
  5
378
100
AcDbEntity
  8
RACCORDO
100
AcDbPolyline
 62
250
  6
CONTINUOUS
 90
28
 70
0
 10
301.5432184001
 20
132.8566075362
 10
301.5424136888
 20
132.8281542807
 10
301.5399801653
 20
132.7996948158
 10
301.535908781
 20
132.7713233854
 10
301.5301880339
 20
132.7431012884
 10
301.5228240026
 20
132.715160464
 10
301.5138601022
 20
132.6876979874
 10
301.5033319831
 20
132.6608164939
 10
301.4912722182
 20
132.6345934053
 10
301.4777558104
 20
132.6091753941
 10
301.4628624916
 20
132.584677131
 10
301.4466328777
 20
132.5611335954
 10
301.4290913489
 20
132.5385670405
 10
301.4102929819
 20
132.5170455841
 10
301.3903042681
 20
132.4966427939
 10
301.3691585536
 20
132.4773950054
 10
301.3469688155
 20
132.4594053982
 10
301.3237610907
 20
132.4426954485
 10
301.2994164504
 20
132.4272098447
 10
301.2739181076
 20
132.4129987187
 10
301.2474005248
 20
132.4001963367
 10
301.2199620538
 20
132.3888973765
 10
301.1916135067
 20
132.3791571199
 10
301.1625108062
 20
132.3710791705
 10
301.1329940445
 20
132.3647770603
 10
301.1032539156
 20
132.3602798045
 10
301.073317941
 20
132.3575800623
 10
301.0432945526
 20
132.3566836886
  0
LWPOLYLINE
  5
379
100
AcDbEntity
  8
ASSI
100
AcDbPolyline
 62
250
  6
CONTINUOUS
 90
28
 70
0
 10
301.5432184001
 20
132.8566075362
 10
301.5424136888
 20
132.8281542807
 10
301.5399801653
 20
132.7996948158
 10
301.535908781
 20
132.7713233854
 10
301.5301880339
 20
132.7431012884
 10
301.5228240026
 20
132.715160464
 10
301.5138601022
 20
132.6876979874
 10
301.5033319831
 20
132.6608164939
 10
301.4912722182
 20
132.6345934053
 10
301.4777558104
 20
132.6091753941
 10
301.4628624916
 20
132.584677131
 10
301.4466328777
 20
132.5611335954
 10
301.4290913489
 20
132.5385670405
 10
301.4102929819
 20
132.5170455841
 10
301.3903042681
 20
132.4966427939
 10
301.3691585536
 20
132.4773950054
 10
301.3469688155
 20
132.4594053982
 10
301.3237610907
 20
132.4426954485
 10
301.2994164504
 20
132.4272098447
 10
301.2739181076
 20
132.4129987187
 10
301.2474005248
 20
132.4001963367
 10
301.2199620538
 20
132.3888973765
 10
301.1916135067
 20
132.3791571199
 10
301.1625108062
 20
132.3710791705
 10
301.1329940445
 20
132.3647770603
 10
301.1032539156
 20
132.3602798045
 10
301.073317941
 20
132.3575800623
 10
301.0432945526
 20
132.3566836886
  0
LINE
  5
37A
100
AcDbEntity
  8
RACCORDO
100
AcDbLine
 62
250
  6
CONTINUOUS
 10
372.0432945526
 20
185.9243215333
 11
372.0344756302
 21
185.915502611
  0
LINE
  5
37B
100
AcDbEntity
  8
ASSI
100
AcDbLine
 62
250
  6
CONTINUOUS
 10
372.0432945526
 20
185.9243215333
 11
372.0344756302
 21
185.915502611
  0
LINE
  5
37C
100
AcDbEntity
  8
RACCORDO
100
AcDbLine
 62
250
  6
CONTINUOUS
 10
372.5432184001
 20
185.4243976857
 11
372.5343994778
 21
185.4155787634
  0
LINE
  5
37D
100
AcDbEntity
  8
ASSI
100
AcDbLine
 62
250
  6
CONTINUOUS
 10
372.5432184001
 20
185.4243976857
 11
372.5343994778
 21
185.4155787634
  0
LINE
  5
37E
100
AcDbEntity
  8
RACCORDO
100
AcDbLine
 62
250
  6
CONTINUOUS
 10
393.0794895412
 20
202.9085369765
 11
393.3114551757
 21
203.140502611
  0
LINE
  5
37F
100
AcDbEntity
  8
ASSI
100
AcDbLine
 62
250
  6
CONTINUOUS
 10
393.0794895412
 20
202.9085369765
 11
393.3114551757
 21
203.140502611
  0
LINE
  5
380
100
AcDbEntity
  8
RACCORDO
100
AcDbLine
 62
250
  6
CONTINUOUS
 10
372.0432945526
 20
132.3566836886
 11
372.0344756302
 21
132.365502611
  0
LINE
  5
381
100
AcDbEntity
  8
ASSI
100
AcDbLine
 62
250
  6
CONTINUOUS
 10
372.0432945526
 20
132.3566836886
 11
372.0344756302
 21
132.365502611
  0
LINE
  5
382
100
AcDbEntity
  8
RACCORDO
100
AcDbLine
 62
250
  6
CONTINUOUS
 10
372.5432184001
 20
132.8566075362
 11
372.5343994778
 21
132.8654264585
  0
LINE
  5
383
100
AcDbEntity
  8
ASSI
100
AcDbLine
 62
250
  6
CONTINUOUS
 10
372.5432184001
 20
132.8566075362
 11
372.5343994778
 21
132.8654264585
  0
LINE
  5
384
100
AcDbEntity
  8
RACCORDO
100
AcDbLine
 62
250
  6
CONTINUOUS
 10
393.0794895412
 20
115.3724682454
 11
393.3114551757
 21
115.140502611
  0
LINE
  5
385
100
AcDbEntity
  8
ASSI
100
AcDbLine
 62
250
  6
CONTINUOUS
 10
393.0794895412
 20
115.3724682454
 11
393.3114551757
 21
115.140502611
  0
LINE
  5
386
100
AcDbEntity
  8
RACCORDO
100
AcDbLine
 62
250
  6
CONTINUOUS
 10
326.7756262469
 20
132.8566075362
 11
326.7756262469
 21
185.4243976857
  0
LINE
  5
387
100
AcDbEntity
  8
ASSI
100
AcDbLine
 62
250
  6
CONTINUOUS
 10
326.7756262469
 20
132.8566075362
 11
326.7756262469
 21
185.4243976857
  0
LINE
  5
388
100
AcDbEntity
  8
RACCORDO
100
AcDbLine
 62
250
  6
CONTINUOUS
 10
327.0755805555
 20
132.8566075362
 11
327.0755805555
 21
185.4243976857
  0
LINE
  5
389
100
AcDbEntity
  8
ASSI
100
AcDbLine
 62
250
  6
CONTINUOUS
 10
327.0755805555
 20
132.8566075362
 11
327.0755805555
 21
185.4243976857
  0
LINE
  5
38A
100
AcDbEntity
  8
RACCORDO
100
AcDbLine
 62
7
  6
CONTINUOUS
 10
327.0843994778
 20
185.4155787634
 11
327.0843994778
 21
132.8654264585
  0
LINE
  5
38B
100
AcDbEntity
  8
ASSI
100
AcDbLine
 62
7
  6
CONTINUOUS
 10
327.0843994778
 20
185.4155787634
 11
327.0843994778
 21
132.8654264585
  0
LINE
  5
38C
100
AcDbEntity
  8
RACCORDO
100
AcDbLine
 62
250
  6
CONTINUOUS
 10
327.5755044031
 20
186.2242758418
 11
327.5755044031
 21
185.9243215333
  0
LINE
  5
38D
100
AcDbEntity
  8
ASSI
100
AcDbLine
 62
250
  6
CONTINUOUS
 10
327.5755044031
 20
186.2242758418
 11
327.5755044031
 21
185.9243215333
  0
LINE
  5
38E
100
AcDbEntity
  8
RACCORDO
100
AcDbLine
 62
250
  6
CONTINUOUS
 10
327.5755044031
 20
132.0567293801
 11
327.5755044031
 21
132.3566836886
  0
LINE
  5
38F
100
AcDbEntity
  8
ASSI
100
AcDbLine
 62
250
  6
CONTINUOUS
 10
327.5755044031
 20
132.0567293801
 11
327.5755044031
 21
132.3566836886
  0
LWPOLYLINE
  5
390
100
AcDbEntity
  8
RACCORDO
100
AcDbPolyline
 62
250
  6
CONTINUOUS
 90
28
 70
0
 10
326.7756262469
 20
185.4243976857
 10
326.7769125609
 20
185.4701693291
 10
326.7808186194
 20
185.5156466151
 10
326.7873444226
 20
185.5608295439
 10
326.7965305005
 20
185.6059221772
 10
326.8083363231
 20
185.6507204533
 10
326.8226402998
 20
185.6946121861
 10
326.8394905339
 20
185.7375599031
 10
326.8588389223
 20
185.7796010769
 10
326.8804195644
 20
185.8202359397
 10
326.9042203826
 20
185.859388097
 10
326.9302534545
 20
185.8971339433
 10
326.9582891137
 20
185.933202894
 10
326.9883372664
 20
185.9675966382
 10
327.0203880064
 20
186.0003134869
 10
327.0541819484
 20
186.0310777882
 10
327.0896383884
 20
186.0598501419
 10
327.1268380305
 20
186.0866699484
 10
327.1657636009
 20
186.1113797563
 10
327.2065396351
 20
186.1340645313
 10
327.2490415977
 20
186.1546393077
 10
327.2928786096
 20
186.1726917373
 10
327.3382037312
 20
186.1881931297
 10
327.384863902
 20
186.2011721754
 10
327.4320090608
 20
186.2113025972
 10
327.4793558536
 20
186.218475636
 10
327.5271876344
 20
186.2228000509
 10
327.5755044031
 20
186.2242758418
  0
LWPOLYLINE
  5
391
100
AcDbEntity
  8
ASSI
100
AcDbPolyline
 62
250
  6
CONTINUOUS
 90
28
 70
0
 10
326.7756262469
 20
185.4243976857
 10
326.7769125609
 20
185.4701693291
 10
326.7808186194
 20
185.5156466151
 10
326.7873444226
 20
185.5608295439
 10
326.7965305005
 20
185.6059221772
 10
326.8083363231
 20
185.6507204533
 10
326.8226402998
 20
185.6946121861
 10
326.8394905339
 20
185.7375599031
 10
326.8588389223
 20
185.7796010769
 10
326.8804195644
 20
185.8202359397
 10
326.9042203826
 20
185.859388097
 10
326.9302534545
 20
185.8971339433
 10
326.9582891137
 20
185.933202894
 10
326.9883372664
 20
185.9675966382
 10
327.0203880064
 20
186.0003134869
 10
327.0541819484
 20
186.0310777882
 10
327.0896383884
 20
186.0598501419
 10
327.1268380305
 20
186.0866699484
 10
327.1657636009
 20
186.1113797563
 10
327.2065396351
 20
186.1340645313
 10
327.2490415977
 20
186.1546393077
 10
327.2928786096
 20
186.1726917373
 10
327.3382037312
 20
186.1881931297
 10
327.384863902
 20
186.2011721754
 10
327.4320090608
 20
186.2113025972
 10
327.4793558536
 20
186.218475636
 10
327.5271876344
 20
186.2228000509
 10
327.5755044031
 20
186.2242758418
  0
LWPOLYLINE
  5
392
100
AcDbEntity
  8
RACCORDO
100
AcDbPolyline
 62
250
  6
CONTINUOUS
 90
28
 70
0
 10
327.0755805555
 20
185.4243976857
 10
327.0763852668
 20
185.4528509412
 10
327.0788187903
 20
185.4813104062
 10
327.0828901746
 20
185.5096818365
 10
327.0886109218
 20
185.5379039335
 10
327.095974953
 20
185.5658447579
 10
327.1049388534
 20
185.5933072346
 10
327.1154669725
 20
185.620188728
 10
327.1275267374
 20
185.6464118166
 10
327.1410431452
 20
185.6718298278
 10
327.155936464
 20
185.6963280909
 10
327.172166078
 20
185.7198716265
 10
327.1897076067
 20
185.7424381815
 10
327.2085059737
 20
185.7639596378
 10
327.2284946875
 20
185.7843624281
 10
327.249640402
 20
185.8036102166
 10
327.2718301401
 20
185.8215998237
 10
327.2950378649
 20
185.8383097734
 10
327.3193825052
 20
185.8537953772
 10
327.344880848
 20
185.8680065032
 10
327.3713984309
 20
185.8808088852
 10
327.3988369018
 20
185.8921078455
 10
327.4271854489
 20
185.901848102
 10
327.4562881494
 20
185.9099260514
 10
327.4858049111
 20
185.9162281617
 10
327.51554504
 20
185.9207254174
 10
327.5454810146
 20
185.9234251597
 10
327.5755044031
 20
185.9243215333
  0
LWPOLYLINE
  5
393
100
AcDbEntity
  8
ASSI
100
AcDbPolyline
 62
250
  6
CONTINUOUS
 90
28
 70
0
 10
327.0755805555
 20
185.4243976857
 10
327.0763852668
 20
185.4528509412
 10
327.0788187903
 20
185.4813104062
 10
327.0828901746
 20
185.5096818365
 10
327.0886109218
 20
185.5379039335
 10
327.095974953
 20
185.5658447579
 10
327.1049388534
 20
185.5933072346
 10
327.1154669725
 20
185.620188728
 10
327.1275267374
 20
185.6464118166
 10
327.1410431452
 20
185.6718298278
 10
327.155936464
 20
185.6963280909
 10
327.172166078
 20
185.7198716265
 10
327.1897076067
 20
185.7424381815
 10
327.2085059737
 20
185.7639596378
 10
327.2284946875
 20
185.7843624281
 10
327.249640402
 20
185.8036102166
 10
327.2718301401
 20
185.8215998237
 10
327.2950378649
 20
185.8383097734
 10
327.3193825052
 20
185.8537953772
 10
327.344880848
 20
185.8680065032
 10
327.3713984309
 20
185.8808088852
 10
327.3988369018
 20
185.8921078455
 10
327.4271854489
 20
185.901848102
 10
327.4562881494
 20
185.9099260514
 10
327.4858049111
 20
185.9162281617
 10
327.51554504
 20
185.9207254174
 10
327.5454810146
 20
185.9234251597
 10
327.5755044031
 20
185.9243215333
  0
LINE
  5
394
100
AcDbEntity
  8
RACCORDO
100
AcDbLine
 62
250
  6
CONTINUOUS
 10
394.5774338433
 20
201.4105926744
 11
394.8093994778
 21
201.6425583088
  0
LINE
  5
395
100
AcDbEntity
  8
ASSI
100
AcDbLine
 62
250
  6
CONTINUOUS
 10
394.5774338433
 20
201.4105926744
 11
394.8093994778
 21
201.6425583088
  0
LINE
  5
396
100
AcDbEntity
  8
RACCORDO
100
AcDbLine
 62
250
  6
CONTINUOUS
 10
327.0755805555
 20
132.8566075362
 11
327.0843994778
 21
132.8654264585
  0
LINE
  5
397
100
AcDbEntity
  8
ASSI
100
AcDbLine
 62
250
  6
CONTINUOUS
 10
327.0755805555
 20
132.8566075362
 11
327.0843994778
 21
132.8654264585
  0
LINE
  5
398
100
AcDbEntity
  8
RACCORDO
100
AcDbLine
 62
250
  6
CONTINUOUS
 10
327.5755044031
 20
132.3566836886
 11
327.5843233254
 21
132.365502611
  0
LINE
  5
399
100
AcDbEntity
  8
ASSI
100
AcDbLine
 62
250
  6
CONTINUOUS
 10
327.5755044031
 20
132.3566836886
 11
327.5843233254
 21
132.365502611
  0
LINE
  5
39A
100
AcDbEntity
  8
RACCORDO
100
AcDbLine
 62
250
  6
CONTINUOUS
 10
394.5774338433
 20
116.8704125476
 11
394.8093994778
 21
116.6384469131
  0
LINE
  5
39B
100
AcDbEntity
  8
ASSI
100
AcDbLine
 62
250
  6
CONTINUOUS
 10
394.5774338433
 20
116.8704125476
 11
394.8093994778
 21
116.6384469131
  0
LINE
  5
39C
100
AcDbEntity
  8
RACCORDO
100
AcDbLine
 62
250
  6
CONTINUOUS
 10
327.0755805555
 20
185.4243976857
 11
327.0843994778
 21
185.4155787634
  0
LINE
  5
39D
100
AcDbEntity
  8
ASSI
100
AcDbLine
 62
250
  6
CONTINUOUS
 10
327.0755805555
 20
185.4243976857
 11
327.0843994778
 21
185.4155787634
  0
LINE
  5
39E
100
AcDbEntity
  8
RACCORDO
100
AcDbLine
 62
250
  6
CONTINUOUS
 10
327.5755044031
 20
185.9243215333
 11
327.5843233254
 21
185.915502611
  0
LINE
  5
39F
100
AcDbEntity
  8
ASSI
100
AcDbLine
 62
250
  6
CONTINUOUS
 10
327.5755044031
 20
185.9243215333
 11
327.5843233254
 21
185.915502611
  0
LWPOLYLINE
  5
3A0
100
AcDbEntity
  8
SCRITTE
100
AcDbPolyline
 62
250
  6
CONTINUOUS
 90
24
 70
0
 10
394.6697883154
 20
127.908510737
 10
394.6693957688
 20
127.9082787772
 10
394.6690053791
 20
127.9078193373
 10
394.6686170037
 20
127.9071346153
 10
394.6682305003
 20
127.9062268092
 10
394.6678457264
 20
127.905098117
 10
394.6674625394
 20
127.9037507369
 10
394.6670807971
 20
127.9021868668
 10
394.6667003568
 20
127.9004087048
 10
394.66632117
 20
127.8984180718
 10
394.6659435642
 20
127.8962152803
 10
394.6655679605
 20
127.8938002656
 10
394.6651947802
 20
127.891172963
 10
394.6648244446
 20
127.888333308
 10
394.6644573748
 20
127.8852812357
 10
394.6640939922
 20
127.8820166816
 10
394.6637347181
 20
127.878539581
 10
394.6633799928
 20
127.874849864
 10
394.6630303339
 20
127.8709474398
 10
394.662686278
 20
127.8668322123
 10
394.6623483618
 20
127.8625040854
 10
394.6620171219
 20
127.8579629631
 10
394.661693095
 20
127.8532087493
 10
394.6610688267
 20
127.8430606631
  0
LINE
  5
3A1
100
AcDbEntity
  8
SCRITTE
100
AcDbLine
 62
250
  6
CONTINUOUS
 10
394.744255822
 20
123.482092611
 11
394.6758187566
 21
123.572176611
  0
LINE
  5
3A2
100
AcDbEntity
  8
SCRITTE
100
AcDbLine
 62
250
  6
CONTINUOUS
 10
394.6394487535
 20
123.263308611
 11
394.744255822
 21
123.082734611
  0
LWPOLYLINE
  5
3A3
100
AcDbEntity
  8
0
100
AcDbPolyline
 62
7
  6
CONTINUOUS
 90
13
 70
0
 43
0.3499999917
 10
400.3451074219
 20
159.5690789795
 10
400.130826416
 20
159.2833538818
 10
399.4879833984
 20
159.2833538818
 10
399.059395752
 20
159.5690789795
 10
399.059395752
 20
160.2119348145
 10
399.4879833984
 20
160.4976470947
 10
400.130826416
 20
160.4976470947
 10
400.3451074219
 20
160.2119348145
 10
400.7736950684
 20
160.6404968262
 10
401.6308190918
 20
160.6404968262
 10
402.0594067383
 20
160.2119348145
 10
402.0594067383
 20
159.5690789795
 10
401.6308190918
 20
159.1405041504
  0
LWPOLYLINE
  5
3A4
100
AcDbEntity
  8
0
100
AcDbPolyline
 62
7
  6
CONTINUOUS
 90
13
 70
0
 43
0.3499999917
 10
400.3451074219
 20
157.2119366455
 10
400.130826416
 20
156.9262115479
 10
399.4879833984
 20
156.9262115479
 10
399.059395752
 20
157.2119366455
 10
399.059395752
 20
157.8547924805
 10
399.4879833984
 20
158.1405047607
 10
400.130826416
 20
158.1405047607
 10
400.3451074219
 20
157.8547924805
 10
400.7736950684
 20
158.2833544922
 10
401.6308190918
 20
158.2833544922
 10
402.0594067383
 20
157.8547924805
 10
402.0594067383
 20
157.2119366455
 10
401.6308190918
 20
156.7833618164
  0
LINE
  5
3A5
100
AcDbEntity
  8
RACCORDO
100
AcDbLine
 62
250
  6
CONTINUOUS
 10
372.0432945526
 20
186.2242758418
 11
372.0432945526
 21
185.9243215333
  0
LINE
  5
3A6
100
AcDbEntity
  8
ASSI
100
AcDbLine
 62
250
  6
CONTINUOUS
 10
372.0432945526
 20
186.2242758418
 11
372.0432945526
 21
185.9243215333
  0
LINE
  5
3A7
100
AcDbEntity
  8
RACCORDO
100
AcDbLine
 62
250
  6
CONTINUOUS
 10
372.0432945526
 20
132.0567293801
 11
372.0432945526
 21
132.3566836886
  0
LINE
  5
3A8
100
AcDbEntity
  8
ASSI
100
AcDbLine
 62
250
  6
CONTINUOUS
 10
372.0432945526
 20
132.0567293801
 11
372.0432945526
 21
132.3566836886
  0
LINE
  5
3A9
100
AcDbEntity
  8
RACCORDO
100
AcDbLine
 62
7
  6
CONTINUOUS
 10
372.5343994778
 20
132.8654264585
 11
372.5343994778
 21
185.4155787634
  0
LINE
  5
3AA
100
AcDbEntity
  8
ASSI
100
AcDbLine
 62
7
  6
CONTINUOUS
 10
372.5343994778
 20
132.8654264585
 11
372.5343994778
 21
185.4155787634
  0
LINE
  5
3AB
100
AcDbEntity
  8
RACCORDO
100
AcDbLine
 62
250
  6
CONTINUOUS
 10
372.5432184001
 20
185.4243976857
 11
372.5432184001
 21
132.8566075362
  0
LINE
  5
3AC
100
AcDbEntity
  8
ASSI
100
AcDbLine
 62
250
  6
CONTINUOUS
 10
372.5432184001
 20
185.4243976857
 11
372.5432184001
 21
132.8566075362
  0
LINE
  5
3AD
100
AcDbEntity
  8
RACCORDO
100
AcDbLine
 62
250
  6
CONTINUOUS
 10
372.8431727087
 20
185.4243976857
 11
372.8431727087
 21
132.8566075362
  0
LINE
  5
3AE
100
AcDbEntity
  8
ASSI
100
AcDbLine
 62
250
  6
CONTINUOUS
 10
372.8431727087
 20
185.4243976857
 11
372.8431727087
 21
132.8566075362
  0
LWPOLYLINE
  5
3AF
100
AcDbEntity
  8
RACCORDO
100
AcDbPolyline
 62
250
  6
CONTINUOUS
 90
28
 70
0
 10
372.8431727087
 20
132.8566075362
 10
372.8418863947
 20
132.8108358928
 10
372.8379803362
 20
132.7653586068
 10
372.831454533
 20
132.7201756781
 10
372.8222684551
 20
132.6750830447
 10
372.8104626325
 20
132.6302847687
 10
372.7961586558
 20
132.5863930358
 10
372.7793084217
 20
132.5434453188
 10
372.7599600333
 20
132.501404145
 10
372.7383793912
 20
132.4607692822
 10
372.7145785731
 20
132.4216171249
 10
372.6885455011
 20
132.3838712786
 10
372.6605098419
 20
132.3478023279
 10
372.6304616892
 20
132.3134085837
 10
372.5984109492
 20
132.2806917351
 10
372.5646170072
 20
132.2499274338
 10
372.5291605672
 20
132.22115508
 10
372.4919609252
 20
132.1943352735
 10
372.4530353547
 20
132.1696254656
 10
372.4122593205
 20
132.1469406907
 10
372.3697573579
 20
132.1263659143
 10
372.3259203461
 20
132.1083134847
 10
372.2805952244
 20
132.0928120922
 10
372.2339350536
 20
132.0798330465
 10
372.1867898948
 20
132.0697026247
 10
372.139443102
 20
132.0625295859
 10
372.0916113212
 20
132.058205171
 10
372.0432945526
 20
132.0567293801
  0
LWPOLYLINE
  5
3B0
100
AcDbEntity
  8
ASSI
100
AcDbPolyline
 62
250
  6
CONTINUOUS
 90
28
 70
0
 10
372.8431727087
 20
132.8566075362
 10
372.8418863947
 20
132.8108358928
 10
372.8379803362
 20
132.7653586068
 10
372.831454533
 20
132.7201756781
 10
372.8222684551
 20
132.6750830447
 10
372.8104626325
 20
132.6302847687
 10
372.7961586558
 20
132.5863930358
 10
372.7793084217
 20
132.5434453188
 10
372.7599600333
 20
132.501404145
 10
372.7383793912
 20
132.4607692822
 10
372.7145785731
 20
132.4216171249
 10
372.6885455011
 20
132.3838712786
 10
372.6605098419
 20
132.3478023279
 10
372.6304616892
 20
132.3134085837
 10
372.5984109492
 20
132.2806917351
 10
372.5646170072
 20
132.2499274338
 10
372.5291605672
 20
132.22115508
 10
372.4919609252
 20
132.1943352735
 10
372.4530353547
 20
132.1696254656
 10
372.4122593205
 20
132.1469406907
 10
372.3697573579
 20
132.1263659143
 10
372.3259203461
 20
132.1083134847
 10
372.2805952244
 20
132.0928120922
 10
372.2339350536
 20
132.0798330465
 10
372.1867898948
 20
132.0697026247
 10
372.139443102
 20
132.0625295859
 10
372.0916113212
 20
132.058205171
 10
372.0432945526
 20
132.0567293801
  0
LWPOLYLINE
  5
3B1
100
AcDbEntity
  8
RACCORDO
100
AcDbPolyline
 62
250
  6
CONTINUOUS
 90
28
 70
0
 10
372.5432184001
 20
132.8566075362
 10
372.5424136888
 20
132.8281542807
 10
372.5399801653
 20
132.7996948158
 10
372.535908781
 20
132.7713233854
 10
372.5301880339
 20
132.7431012884
 10
372.5228240026
 20
132.715160464
 10
372.5138601022
 20
132.6876979874
 10
372.5033319831
 20
132.6608164939
 10
372.4912722182
 20
132.6345934053
 10
372.4777558104
 20
132.6091753941
 10
372.4628624916
 20
132.584677131
 10
372.4466328777
 20
132.5611335954
 10
372.4290913489
 20
132.5385670405
 10
372.4102929819
 20
132.5170455841
 10
372.3903042681
 20
132.4966427939
 10
372.3691585536
 20
132.4773950054
 10
372.3469688155
 20
132.4594053982
 10
372.3237610907
 20
132.4426954485
 10
372.2994164504
 20
132.4272098447
 10
372.2739181076
 20
132.4129987187
 10
372.2474005248
 20
132.4001963367
 10
372.2199620538
 20
132.3888973765
 10
372.1916135067
 20
132.3791571199
 10
372.1625108062
 20
132.3710791705
 10
372.1329940445
 20
132.3647770603
 10
372.1032539156
 20
132.3602798045
 10
372.073317941
 20
132.3575800623
 10
372.0432945526
 20
132.3566836886
  0
LWPOLYLINE
  5
3B2
100
AcDbEntity
  8
ASSI
100
AcDbPolyline
 62
250
  6
CONTINUOUS
 90
28
 70
0
 10
372.5432184001
 20
132.8566075362
 10
372.5424136888
 20
132.8281542807
 10
372.5399801653
 20
132.7996948158
 10
372.535908781
 20
132.7713233854
 10
372.5301880339
 20
132.7431012884
 10
372.5228240026
 20
132.715160464
 10
372.5138601022
 20
132.6876979874
 10
372.5033319831
 20
132.6608164939
 10
372.4912722182
 20
132.6345934053
 10
372.4777558104
 20
132.6091753941
 10
372.4628624916
 20
132.584677131
 10
372.4466328777
 20
132.5611335954
 10
372.4290913489
 20
132.5385670405
 10
372.4102929819
 20
132.5170455841
 10
372.3903042681
 20
132.4966427939
 10
372.3691585536
 20
132.4773950054
 10
372.3469688155
 20
132.4594053982
 10
372.3237610907
 20
132.4426954485
 10
372.2994164504
 20
132.4272098447
 10
372.2739181076
 20
132.4129987187
 10
372.2474005248
 20
132.4001963367
 10
372.2199620538
 20
132.3888973765
 10
372.1916135067
 20
132.3791571199
 10
372.1625108062
 20
132.3710791705
 10
372.1329940445
 20
132.3647770603
 10
372.1032539156
 20
132.3602798045
 10
372.073317941
 20
132.3575800623
 10
372.0432945526
 20
132.3566836886
  0
LWPOLYLINE
  5
3B3
100
AcDbEntity
  8
SCRITTE
100
AcDbPolyline
 62
250
  6
CONTINUOUS
 90
25
 70
0
 10
394.6801723844
 20
127.8511148689
 10
394.6798471275
 20
127.8553298151
 10
394.6795146665
 20
127.859383952
 10
394.6791749044
 20
127.863281009
 10
394.6788275921
 20
127.8670263728
 10
394.6784724807
 20
127.8706254301
 10
394.6781093723
 20
127.8740823524
 10
394.6777382737
 20
127.8773964509
 10
394.6773592427
 20
127.8805658219
 10
394.6769723373
 20
127.8835885614
 10
394.6765206077
 20
127.8868606391
 10
394.6760588507
 20
127.8899329247
 10
394.6755872485
 20
127.8927996318
 10
394.675105983
 20
127.8954549736
 10
394.6746152364
 20
127.8978931635
 10
394.6741151906
 20
127.900108415
 10
394.6736060278
 20
127.9020949414
 10
394.6731531481
 20
127.903639806
 10
394.6726933902
 20
127.9049942204
 10
394.672226717
 20
127.9061472826
 10
394.6717530911
 20
127.9070880905
 10
394.6712724752
 20
127.907805742
 10
394.6707848322
 20
127.9082893349
 10
394.6702901247
 20
127.9085279673
 10
394.6697883154
 20
127.908510737
  0
LINE
  5
3B4
100
AcDbEntity
  8
SCRITTE
100
AcDbLine
 62
250
  6
CONTINUOUS
 10
394.6807990885
 20
127.8422158065
 11
394.6801723844
 21
127.8511148689
  0
LINE
  5
3B5
100
AcDbEntity
  8
SCRITTE
100
AcDbLine
 62
250
  6
CONTINUOUS
 10
394.6867730012
 20
128.1944658395
 11
394.6879749707
 21
128.1766855843
  0
LINE
  5
3B6
100
AcDbEntity
  8
SCRITTE
100
AcDbLine
 62
250
  6
CONTINUOUS
 10
394.6813896613
 20
127.8327218227
 11
394.6807990885
 21
127.8422158065
  0
LINE
  5
3B7
100
AcDbEntity
  8
SCRITTE
100
AcDbLine
 62
250
  6
CONTINUOUS
 10
394.6879749707
 20
128.1766855843
 11
394.6890457779
 21
128.1588378595
  0
LINE
  5
3B8
100
AcDbEntity
  8
SCRITTE
100
AcDbLine
 62
250
  6
CONTINUOUS
 10
394.6890457779
 20
128.1588378595
 11
394.6900050866
 21
128.1411725097
  0
LINE
  5
3B9
100
AcDbEntity
  8
SCRITTE
100
AcDbLine
 62
250
  6
CONTINUOUS
 10
394.6819396686
 20
127.8226755053
 11
394.6813896613
 21
127.8327218227
  0
LINE
  5
3BA
100
AcDbEntity
  8
SCRITTE
100
AcDbLine
 62
250
  6
CONTINUOUS
 10
394.6900050866
 20
128.1411725097
 11
394.6912709463
 21
128.1155439261
  0
LINE
  5
3BB
100
AcDbEntity
  8
SCRITTE
100
AcDbLine
 62
250
  6
CONTINUOUS
 10
394.6824800746
 20
127.8113524103
 11
394.6819396686
 21
127.8226755053
  0
LINE
  5
3BC
100
AcDbEntity
  8
SCRITTE
100
AcDbLine
 62
250
  6
CONTINUOUS
 10
394.6912709463
 20
128.1155439261
 11
394.6931895935
 21
128.0725476553
  0
LINE
  5
3BD
100
AcDbEntity
  8
SCRITTE
100
AcDbLine
 62
250
  6
CONTINUOUS
 10
394.6830010481
 20
127.7986713489
 11
394.6824800746
 21
127.8113524103
  0
LINE
  5
3BE
100
AcDbEntity
  8
SCRITTE
100
AcDbLine
 62
250
  6
CONTINUOUS
 10
394.6931895935
 20
128.0725476553
 11
394.6938418464
 21
128.0560847997
  0
LINE
  5
3BF
100
AcDbEntity
  8
SCRITTE
100
AcDbLine
 62
250
  6
CONTINUOUS
 10
394.6834695076
 20
127.7853776198
 11
394.6830010481
 21
127.7986713489
  0
LINE
  5
3C0
100
AcDbEntity
  8
SCRITTE
100
AcDbLine
 62
250
  6
CONTINUOUS
 10
394.6938418464
 20
128.0560847997
 11
394.6942054369
 21
128.0449277221
  0
LINE
  5
3C1
100
AcDbEntity
  8
SCRITTE
100
AcDbLine
 62
250
  6
CONTINUOUS
 10
394.6838904502
 20
127.771480315
 11
394.6834695076
 21
127.7853776198
  0
LWPOLYLINE
  5
3C2
100
AcDbEntity
  8
RACCORDO
100
AcDbPolyline
 62
250
  6
CONTINUOUS
 90
34
 70
0
 10
394.078119076
 20
201.4105926744
 10
394.0768789787
 20
201.4588043204
 10
394.073464363
 20
201.5064169995
 10
394.0678752287
 20
201.5534307115
 10
394.0600966654
 20
201.5998378451
 10
394.0501435836
 20
201.6456460118
 10
394.0380607147
 20
201.6908780455
 10
394.0238220927
 20
201.7356590865
 10
394.0074536837
 20
201.7798639946
 10
393.9890781167
 20
201.8231401839
 10
393.9686888805
 20
201.865456053
 10
393.9462924864
 20
201.9068432034
 10
393.9220310971
 20
201.9470438533
 10
393.8958902506
 20
201.9860559919
 10
393.8678844089
 20
202.0238816302
 10
393.8381991212
 20
202.0602690187
 10
393.8068246971
 20
202.0952072627
 10
393.773770827
 20
202.128707257
 10
393.7392521311
 20
202.1605499366
 10
393.7032491965
 20
202.1907297466
 10
393.6657814362
 20
202.219252242
 10
393.6271217094
 20
202.2459150221
 10
393.587371604
 20
202.2706666154
 10
393.5464295321
 20
202.2935584935
 10
393.5042635886
 20
202.3145426701
 10
393.4607911625
 20
202.333679568
 10
393.4160948648
 20
202.3509087645
 10
393.3703906245
 20
202.3660010041
 10
393.3236000734
 20
202.3789538548
 10
393.2758015796
 20
202.3897697486
 10
393.2274461763
 20
202.3982267268
 10
393.1786842076
 20
202.4042508032
 10
393.1293653292
 20
202.407915964
 10
393.0794895412
 20
202.4092222091
  0
LWPOLYLINE
  5
3C3
100
AcDbEntity
  8
ASSI
100
AcDbPolyline
 62
250
  6
CONTINUOUS
 90
34
 70
0
 10
394.078119076
 20
201.4105926744
 10
394.0768789787
 20
201.4588043204
 10
394.073464363
 20
201.5064169995
 10
394.0678752287
 20
201.5534307115
 10
394.0600966654
 20
201.5998378451
 10
394.0501435836
 20
201.6456460118
 10
394.0380607147
 20
201.6908780455
 10
394.0238220927
 20
201.7356590865
 10
394.0074536837
 20
201.7798639946
 10
393.9890781167
 20
201.8231401839
 10
393.9686888805
 20
201.865456053
 10
393.9462924864
 20
201.9068432034
 10
393.9220310971
 20
201.9470438533
 10
393.8958902506
 20
201.9860559919
 10
393.8678844089
 20
202.0238816302
 10
393.8381991212
 20
202.0602690187
 10
393.8068246971
 20
202.0952072627
 10
393.773770827
 20
202.128707257
 10
393.7392521311
 20
202.1605499366
 10
393.7032491965
 20
202.1907297466
 10
393.6657814362
 20
202.219252242
 10
393.6271217094
 20
202.2459150221
 10
393.587371604
 20
202.2706666154
 10
393.5464295321
 20
202.2935584935
 10
393.5042635886
 20
202.3145426701
 10
393.4607911625
 20
202.333679568
 10
393.4160948648
 20
202.3509087645
 10
393.3703906245
 20
202.3660010041
 10
393.3236000734
 20
202.3789538548
 10
393.2758015796
 20
202.3897697486
 10
393.2274461763
 20
202.3982267268
 10
393.1786842076
 20
202.4042508032
 10
393.1293653292
 20
202.407915964
 10
393.0794895412
 20
202.4092222091
  0
LWPOLYLINE
  5
3C4
100
AcDbEntity
  8
RACCORDO
100
AcDbPolyline
 62
250
  6
CONTINUOUS
 90
34
 70
0
 10
394.5774338433
 20
201.4105926744
 10
394.5756400718
 20
201.4825933438
 10
394.5704338638
 20
201.5540046739
 10
394.5618869891
 20
201.6246686397
 10
394.5501093422
 20
201.6942724701
 10
394.5351692894
 20
201.7628354104
 10
394.5170181977
 20
201.83069263
 10
394.4956223165
 20
201.8978781179
 10
394.4710653178
 20
201.9640501806
 10
394.4434305654
 20
202.0289720991
 10
394.4128001058
 20
202.0924660118
 10
394.3792296692
 20
202.154430184
 10
394.3427823803
 20
202.214749948
 10
394.3035328743
 20
202.2732995444
 10
394.2615721143
 20
202.3299414043
 10
394.2169942721
 20
202.3845475516
 10
394.1698998188
 20
202.4369950424
 10
394.1203908344
 20
202.487170511
 10
394.068571965
 20
202.5349671066
 10
394.0145438497
 20
202.580288916
 10
393.9584373439
 20
202.6230234156
 10
393.9004128877
 20
202.6630512901
 10
393.8407524303
 20
202.7001992912
 10
393.7794476556
 20
202.7344930014
 10
393.7161997753
 20
202.7660668315
 10
393.6509934962
 20
202.7948473653
 10
393.5840725418
 20
202.8206470099
 10
393.5155028861
 20
202.8433668867
 10
393.4453290061
 20
202.8629071094
 10
393.373784804
 20
202.8791182544
 10
393.3012374394
 20
202.891856706
 10
393.2279253647
 20
202.9010415401
 10
393.1539503187
 20
202.9066208605
 10
393.0794895412
 20
202.9085369765
  0
LWPOLYLINE
  5
3C5
100
AcDbEntity
  8
ASSI
100
AcDbPolyline
 62
250
  6
CONTINUOUS
 90
34
 70
0
 10
394.5774338433
 20
201.4105926744
 10
394.5756400718
 20
201.4825933438
 10
394.5704338638
 20
201.5540046739
 10
394.5618869891
 20
201.6246686397
 10
394.5501093422
 20
201.6942724701
 10
394.5351692894
 20
201.7628354104
 10
394.5170181977
 20
201.83069263
 10
394.4956223165
 20
201.8978781179
 10
394.4710653178
 20
201.9640501806
 10
394.4434305654
 20
202.0289720991
 10
394.4128001058
 20
202.0924660118
 10
394.3792296692
 20
202.154430184
 10
394.3427823803
 20
202.214749948
 10
394.3035328743
 20
202.2732995444
 10
394.2615721143
 20
202.3299414043
 10
394.2169942721
 20
202.3845475516
 10
394.1698998188
 20
202.4369950424
 10
394.1203908344
 20
202.487170511
 10
394.068571965
 20
202.5349671066
 10
394.0145438497
 20
202.580288916
 10
393.9584373439
 20
202.6230234156
 10
393.9004128877
 20
202.6630512901
 10
393.8407524303
 20
202.7001992912
 10
393.7794476556
 20
202.7344930014
 10
393.7161997753
 20
202.7660668315
 10
393.6509934962
 20
202.7948473653
 10
393.5840725418
 20
202.8206470099
 10
393.5155028861
 20
202.8433668867
 10
393.4453290061
 20
202.8629071094
 10
393.373784804
 20
202.8791182544
 10
393.3012374394
 20
202.891856706
 10
393.2279253647
 20
202.9010415401
 10
393.1539503187
 20
202.9066208605
 10
393.0794895412
 20
202.9085369765
  0
LINE
  5
3C6
100
AcDbEntity
  8
SCRITTE
100
AcDbLine
 62
250
  6
CONTINUOUS
 10
394.6843274455
 20
127.7545144929
 11
394.6838904502
 21
127.771480315
  0
LWPOLYLINE
  5
3C7
100
AcDbEntity
  8
0
100
AcDbPolyline
 62
7
  6
CONTINUOUS
 90
34
 70
0
 10
394.8093994778
 20
201.6425583088
 10
394.807713465
 20
201.7137188674
 10
394.8026418149
 20
201.7848667438
 10
394.7941739953
 20
201.8558402441
 10
394.7822912293
 20
201.9265615659
 10
394.7670066283
 20
201.9967795217
 10
394.7484056309
 20
202.0660786974
 10
394.7265583083
 20
202.1342658417
 10
394.7015189812
 20
202.2012305501
 10
394.6734144864
 20
202.2667016398
 10
394.6424270671
 20
202.330375313
 10
394.6085848969
 20
202.3923018746
 10
394.5717560418
 20
202.4527275685
 10
394.5319009541
 20
202.5116409598
 10
394.4891703197
 20
202.5687478735
 10
394.4436829787
 20
202.6238495063
 10
394.3954842811
 20
202.6768545383
 10
394.344709672
 20
202.7275803234
 10
394.2916575557
 20
202.7757286467
 10
394.2364986721
 20
202.8211734832
 10
394.1793353954
 20
202.8638589533
 10
394.1204050068
 20
202.903641695
 10
394.0600230177
 20
202.9403663366
 10
393.9981867717
 20
202.9740899945
 10
393.9346374302
 20
203.0049571304
 10
393.8693382124
 20
203.0329386496
 10
393.8025812238
 20
203.0578630862
 10
393.7345827947
 20
203.0796242779
 10
393.6654361408
 20
203.0981680966
 10
393.5953466398
 20
203.1134159113
 10
393.5247160842
 20
203.1252801463
 10
393.4537900926
 20
203.133742399
 10
393.3826493784
 20
203.1388149695
 10
393.3114551757
 20
203.140502611
  0
LWPOLYLINE
  5
3C8
100
AcDbEntity
  8
ASSI
100
AcDbPolyline
 62
7
  6
CONTINUOUS
 90
34
 70
0
 10
394.8093994778
 20
201.6425583088
 10
394.807713465
 20
201.7137188674
 10
394.8026418149
 20
201.7848667438
 10
394.7941739953
 20
201.8558402441
 10
394.7822912293
 20
201.9265615659
 10
394.7670066283
 20
201.9967795217
 10
394.7484056309
 20
202.0660786974
 10
394.7265583083
 20
202.1342658417
 10
394.7015189812
 20
202.2012305501
 10
394.6734144864
 20
202.2667016398
 10
394.6424270671
 20
202.330375313
 10
394.6085848969
 20
202.3923018746
 10
394.5717560418
 20
202.4527275685
 10
394.5319009541
 20
202.5116409598
 10
394.4891703197
 20
202.5687478735
 10
394.4436829787
 20
202.6238495063
 10
394.3954842811
 20
202.6768545383
 10
394.344709672
 20
202.7275803234
 10
394.2916575557
 20
202.7757286467
 10
394.2364986721
 20
202.8211734832
 10
394.1793353954
 20
202.8638589533
 10
394.1204050068
 20
202.903641695
 10
394.0600230177
 20
202.9403663366
 10
393.9981867717
 20
202.9740899945
 10
393.9346374302
 20
203.0049571304
 10
393.8693382124
 20
203.0329386496
 10
393.8025812238
 20
203.0578630862
 10
393.7345827947
 20
203.0796242779
 10
393.6654361408
 20
203.0981680966
 10
393.5953466398
 20
203.1134159113
 10
393.5247160842
 20
203.1252801463
 10
393.4537900926
 20
203.133742399
 10
393.3826493784
 20
203.1388149695
 10
393.3114551757
 20
203.140502611
  0
LWPOLYLINE
  5
3C9
100
AcDbEntity
  8
SCRITTE
100
AcDbPolyline
 62
250
  6
CONTINUOUS
 90
5
 70
0
 10
394.6942054369
 20
128.0449277221
 10
394.6944827228
 20
128.0337737395
 10
394.6945850752
 20
128.0281960289
 10
394.6946622702
 20
128.0225963924
 10
394.694713518
 20
128.0169809225
  0
LINE
  5
3CA
100
AcDbEntity
  8
SCRITTE
100
AcDbLine
 62
250
  6
CONTINUOUS
 10
394.6848824004
 20
127.7275594752
 11
394.6843274455
 21
127.7545144929
  0
LINE
  5
3CB
100
AcDbEntity
  8
SCRITTE
100
AcDbLine
 62
250
  6
CONTINUOUS
 10
394.6854002394
 20
127.6930636491
 11
394.6848824004
 21
127.7275594752
  0
LINE
  5
3CC
100
AcDbEntity
  8
SCRITTE
100
AcDbLine
 62
250
  6
CONTINUOUS
 10
394.6857617807
 20
127.6568252487
 11
394.6854002394
 21
127.6930636491
  0
LINE
  5
3CD
100
AcDbEntity
  8
SCRITTE
100
AcDbLine
 62
250
  6
CONTINUOUS
 10
394.6565253336
 20
127.4565524973
 11
394.6573037079
 21
127.3456744956
  0
LINE
  5
3CE
100
AcDbEntity
  8
SCRITTE
100
AcDbLine
 62
250
  6
CONTINUOUS
 10
394.6406732832
 20
126.9437514426
 11
394.6385207913
 21
127.3132740882
  0
LINE
  5
3CF
100
AcDbEntity
  8
SCRITTE
100
AcDbLine
 62
250
  6
CONTINUOUS
 10
394.6860301484
 20
127.606143524
 11
394.6857617807
 21
127.6568252487
  0
LINE
  5
3D0
100
AcDbEntity
  8
SCRITTE
100
AcDbLine
 62
250
  6
CONTINUOUS
 10
394.6563146526
 20
127.5514825574
 11
394.6565253336
 21
127.4565524973
  0
LINE
  5
3D1
100
AcDbEntity
  8
RACCORDO
100
AcDbLine
 62
250
  6
CONTINUOUS
 10
393.0794895412
 20
115.8717830128
 11
393.0794895412
 21
115.3724682454
  0
LINE
  5
3D2
100
AcDbEntity
  8
ASSI
100
AcDbLine
 62
250
  6
CONTINUOUS
 10
393.0794895412
 20
115.8717830128
 11
393.0794895412
 21
115.3724682454
  0
LINE
  5
3D3
100
AcDbEntity
  8
RACCORDO
100
AcDbLine
 62
250
  6
CONTINUOUS
 10
393.0794895412
 20
202.4092222091
 11
393.0794895412
 21
202.9085369765
  0
LINE
  5
3D4
100
AcDbEntity
  8
ASSI
100
AcDbLine
 62
250
  6
CONTINUOUS
 10
393.0794895412
 20
202.4092222091
 11
393.0794895412
 21
202.9085369765
  0
LINE
  5
3D5
100
AcDbEntity
  8
RACCORDO
100
AcDbLine
 62
250
  6
CONTINUOUS
 10
394.078119076
 20
116.8704125476
 11
394.078119076
 21
201.4105926744
  0
LINE
  5
3D6
100
AcDbEntity
  8
ASSI
100
AcDbLine
 62
250
  6
CONTINUOUS
 10
394.078119076
 20
116.8704125476
 11
394.078119076
 21
201.4105926744
  0
LINE
  5
3D7
100
AcDbEntity
  8
RACCORDO
100
AcDbLine
 62
250
  6
CONTINUOUS
 10
394.5774338433
 20
116.8704125476
 11
394.5774338433
 21
201.4105926744
  0
LINE
  5
3D8
100
AcDbEntity
  8
ASSI
100
AcDbLine
 62
250
  6
CONTINUOUS
 10
394.5774338433
 20
116.8704125476
 11
394.5774338433
 21
201.4105926744
  0
LINE
  5
3D9
100
AcDbEntity
  8
SCRITTE
100
AcDbLine
 62
250
  6
CONTINUOUS
 10
394.6394487535
 20
126.207569611
 11
394.6394487535
 21
125.803742611
  0
LINE
  5
3DA
100
AcDbEntity
  8
SCRITTE
100
AcDbLine
 62
250
  6
CONTINUOUS
 10
394.6394487535
 20
124.923908611
 11
394.6394487535
 21
124.510887611
  0
LINE
  5
3DB
100
AcDbEntity
  8
SCRITTE
100
AcDbLine
 62
250
  6
CONTINUOUS
 10
394.6394487535
 20
123.680407611
 11
394.6394487535
 21
123.263308611
  0
LINE
  5
3DC
100
AcDbEntity
  8
SCRITTE
100
AcDbLine
 62
250
  6
CONTINUOUS
 10
394.6394487535
 20
122.285651611
 11
394.6394487535
 21
121.868491611
  0
LINE
  5
3DD
100
AcDbEntity
  8
SCRITTE
100
AcDbLine
 62
250
  6
CONTINUOUS
 10
394.6394487535
 20
121.094436611
 11
394.6394487535
 21
120.640963611
  0
LINE
  5
3DE
100
AcDbEntity
  8
SCRITTE
100
AcDbLine
 62
250
  6
CONTINUOUS
 10
394.6394424646
 20
122.440566611
 11
394.6394424646
 21
122.858010611
  0
LINE
  5
3DF
100
AcDbEntity
  8
SCRITTE
100
AcDbLine
 62
250
  6
CONTINUOUS
 10
394.6860752856
 20
127.3456744956
 11
394.6860301484
 21
127.606143524
  0
LINE
  5
3E0
100
AcDbEntity
  8
SCRITTE
100
AcDbLine
 62
250
  6
CONTINUOUS
 10
394.7071423098
 20
126.189633611
 11
394.7071423098
 21
125.789960611
  0
LINE
  5
3E1
100
AcDbEntity
  8
SCRITTE
100
AcDbLine
 62
250
  6
CONTINUOUS
 10
394.7233325926
 20
125.704569611
 11
394.7233325926
 21
126.273059611
  0
LINE
  5
3E2
100
AcDbEntity
  8
SCRITTE
100
AcDbLine
 62
250
  6
CONTINUOUS
 10
394.7442558359
 20
128.4003082296
 11
394.7442558359
 21
127.9987750874
  0
LINE
  5
3E3
100
AcDbEntity
  8
SCRITTE
100
AcDbLine
 62
250
  6
CONTINUOUS
 10
394.7442558359
 20
127.3595163291
 11
394.7442558359
 21
126.9437514426
  0
LINE
  5
3E4
100
AcDbEntity
  8
SCRITTE
100
AcDbLine
 62
250
  6
CONTINUOUS
 10
394.744255822
 20
122.858010611
 11
394.744255822
 21
122.440566611
  0
LINE
  5
3E5
100
AcDbEntity
  8
SCRITTE
100
AcDbLine
 62
250
  6
CONTINUOUS
 10
394.744255822
 20
121.274950611
 11
394.744255822
 21
121.642823611
  0
LINE
  5
3E6
100
AcDbEntity
  8
SCRITTE
100
AcDbLine
 62
250
  6
CONTINUOUS
 10
394.744255822
 20
123.082734611
 11
394.744255822
 21
123.482092611
  0
LINE
  5
3E7
100
AcDbEntity
  8
SCRITTE
100
AcDbLine
 62
250
  6
CONTINUOUS
 10
394.744255822
 20
124.061890611
 11
394.744255822
 21
124.120436611
  0
LINE
  5
3E8
100
AcDbEntity
  8
SCRITTE
100
AcDbLine
 62
250
  6
CONTINUOUS
 10
394.744255822
 20
124.702544611
 11
394.744255822
 21
125.110915611
  0
LINE
  5
3E9
100
AcDbEntity
  8
SCRITTE
100
AcDbLine
 62
250
  6
CONTINUOUS
 10
394.744255822
 20
125.176465611
 11
394.744255822
 21
125.589381611
  0
LINE
  5
3EA
100
AcDbEntity
  8
SCRITTE
100
AcDbLine
 62
250
  6
CONTINUOUS
 10
394.744255822
 20
126.381200611
 11
394.744255822
 21
126.821169611
  0
LINE
  5
3EB
100
AcDbEntity
  8
0
100
AcDbLine
 62
7
  6
CONTINUOUS
 10
394.8093994778
 20
116.6384469131
 11
394.8093994778
 21
201.6425583088
  0
LINE
  5
3EC
100
AcDbEntity
  8
ASSI
100
AcDbLine
 62
7
  6
CONTINUOUS
 10
394.8093994778
 20
116.6384469131
 11
394.8093994778
 21
201.6425583088
  0
LINE
  5
3ED
100
AcDbEntity
  8
SCRITTE
100
AcDbLine
 62
250
  6
CONTINUOUS
 10
394.6385207913
 20
127.3132740882
 11
394.638285767
 21
127.5652984878
  0
LINE
  5
3EE
100
AcDbEntity
  8
SCRITTE
100
AcDbLine
 62
250
  6
CONTINUOUS
 10
394.7032894932
 20
127.6051636614
 11
394.7032401473
 21
127.3595163291
  0
LINE
  5
3EF
100
AcDbEntity
  8
SCRITTE
100
AcDbLine
 62
250
  6
CONTINUOUS
 10
394.6565235883
 20
127.6419789112
 11
394.6563146526
 21
127.5514825574
  0
LINE
  5
3F0
100
AcDbEntity
  8
SCRITTE
100
AcDbLine
 62
250
  6
CONTINUOUS
 10
394.638285767
 20
127.5652984878
 11
394.6390306108
 21
127.7466319622
  0
LINE
  5
3F1
100
AcDbEntity
  8
SCRITTE
100
AcDbLine
 62
250
  6
CONTINUOUS
 10
394.6568124918
 20
127.6892865779
 11
394.6565235883
 21
127.6419789112
  0
LINE
  5
3F2
100
AcDbEntity
  8
SCRITTE
100
AcDbLine
 62
250
  6
CONTINUOUS
 10
394.7034673372
 20
127.6297918365
 11
394.7032894932
 21
127.6051636614
  0
LINE
  5
3F3
100
AcDbEntity
  8
SCRITTE
100
AcDbLine
 62
250
  6
CONTINUOUS
 10
394.6390306108
 20
127.7466319622
 11
394.6401363933
 21
127.8666966576
  0
LINE
  5
3F4
100
AcDbEntity
  8
SCRITTE
100
AcDbLine
 62
250
  6
CONTINUOUS
 10
394.6570879749
 20
127.7134315762
 11
394.6568124918
 21
127.6892865779
  0
LINE
  5
3F5
100
AcDbEntity
  8
SCRITTE
100
AcDbLine
 62
250
  6
CONTINUOUS
 10
394.7037636976
 20
127.6530673666
 11
394.7034673372
 21
127.6297918365
  0
LINE
  5
3F6
100
AcDbEntity
  8
SCRITTE
100
AcDbLine
 62
250
  6
CONTINUOUS
 10
394.6401363933
 20
127.8666966576
 11
394.6414054014
 21
127.9535079406
  0
LINE
  5
3F7
100
AcDbEntity
  8
SCRITTE
100
AcDbLine
 62
250
  6
CONTINUOUS
 10
394.6574641558
 20
127.7367587807
 11
394.6570879749
 21
127.7134315762
  0
LINE
  5
3F8
100
AcDbEntity
  8
SCRITTE
100
AcDbLine
 62
250
  6
CONTINUOUS
 10
394.704074979
 20
127.6703556929
 11
394.7037636976
 21
127.6530673666
  0
LINE
  5
3F9
100
AcDbEntity
  8
SCRITTE
100
AcDbLine
 62
250
  6
CONTINUOUS
 10
394.6414054014
 20
127.9535079406
 11
394.642231703
 21
127.9955389039
  0
LINE
  5
3FA
100
AcDbEntity
  8
SCRITTE
100
AcDbLine
 62
250
  6
CONTINUOUS
 10
394.6579376472
 20
127.7593009884
 11
394.6574641558
 21
127.7367587807
  0
LINE
  5
3FB
100
AcDbEntity
  8
SCRITTE
100
AcDbLine
 62
250
  6
CONTINUOUS
 10
394.7044649176
 20
127.687172351
 11
394.704074979
 21
127.6703556929
  0
LINE
  5
3FC
100
AcDbEntity
  8
SCRITTE
100
AcDbLine
 62
250
  6
CONTINUOUS
 10
394.6953328363
 20
128.0169809225
 11
394.6957964626
 21
128.0364285913
  0
LINE
  5
3FD
100
AcDbEntity
  8
SCRITTE
100
AcDbLine
 62
250
  6
CONTINUOUS
 10
394.6585069292
 20
127.7808860343
 11
394.6579376472
 21
127.7593009884
  0
LINE
  5
3FE
100
AcDbEntity
  8
SCRITTE
100
AcDbLine
 62
250
  6
CONTINUOUS
 10
394.642231703
 20
127.9955389039
 11
394.6431279752
 21
128.029400576
  0
LINE
  5
3FF
100
AcDbEntity
  8
SCRITTE
100
AcDbLine
 62
250
  6
CONTINUOUS
 10
394.7049304069
 20
127.7032653205
 11
394.7044649176
 21
127.687172351
  0
LINE
  5
400
100
AcDbEntity
  8
SCRITTE
100
AcDbLine
 62
250
  6
CONTINUOUS
 10
394.6957964626
 20
128.0364285913
 11
394.6963752995
 21
128.0556757009
  0
LINE
  5
401
100
AcDbEntity
  8
SCRITTE
100
AcDbLine
 62
250
  6
CONTINUOUS
 10
394.6589391476
 20
127.7946339843
 11
394.6585069292
 21
127.7808860343
  0
LINE
  5
402
100
AcDbEntity
  8
SCRITTE
100
AcDbLine
 62
250
  6
CONTINUOUS
 10
394.6431279752
 20
128.029400576
 11
394.6443070572
 21
128.0652981053
  0
LINE
  5
403
100
AcDbEntity
  8
SCRITTE
100
AcDbLine
 62
250
  6
CONTINUOUS
 10
394.6963752995
 20
128.0556757009
 11
394.696830676
 21
128.0684253142
  0
LINE
  5
404
100
AcDbEntity
  8
SCRITTE
100
AcDbLine
 62
250
  6
CONTINUOUS
 10
394.6594129406
 20
127.8077911329
 11
394.6589391476
 21
127.7946339843
  0
LINE
  5
405
100
AcDbEntity
  8
SCRITTE
100
AcDbLine
 62
250
  6
CONTINUOUS
 10
394.7054673782
 20
127.7185226363
 11
394.7049304069
 21
127.7032653205
  0
LINE
  5
406
100
AcDbEntity
  8
SCRITTE
100
AcDbLine
 62
250
  6
CONTINUOUS
 10
394.6443070572
 20
128.0652981053
 11
394.6452499775
 21
128.0899360785
  0
LINE
  5
407
100
AcDbEntity
  8
SCRITTE
100
AcDbLine
 62
250
  6
CONTINUOUS
 10
394.7058632851
 20
127.7282709042
 11
394.7054673782
 21
127.7185226363
  0
LINE
  5
408
100
AcDbEntity
  8
SCRITTE
100
AcDbLine
 62
250
  6
CONTINUOUS
 10
394.696830676
 20
128.0684253142
 11
394.6973449525
 21
128.081099562
  0
LINE
  5
409
100
AcDbEntity
  8
SCRITTE
100
AcDbLine
 62
250
  6
CONTINUOUS
 10
394.6599269017
 20
127.8202917334
 11
394.6594129406
 21
127.8077911329
  0
LINE
  5
40A
100
AcDbEntity
  8
SCRITTE
100
AcDbLine
 62
250
  6
CONTINUOUS
 10
394.6452499775
 20
128.0899360785
 11
394.646310018
 21
128.1145212054
  0
LINE
  5
40B
100
AcDbEntity
  8
SCRITTE
100
AcDbLine
 62
250
  6
CONTINUOUS
 10
394.7062882989
 20
127.7376963789
 11
394.7058632851
 21
127.7282709042
  0
LINE
  5
40C
100
AcDbEntity
  8
SCRITTE
100
AcDbLine
 62
250
  6
CONTINUOUS
 10
394.6973449525
 20
128.081099562
 11
394.6979169331
 21
128.0936070999
  0
LINE
  5
40D
100
AcDbEntity
  8
SCRITTE
100
AcDbLine
 62
250
  6
CONTINUOUS
 10
394.6604794055
 20
127.8320701291
 11
394.6599269017
 21
127.8202917334
  0
LINE
  5
40E
100
AcDbEntity
  8
SCRITTE
100
AcDbLine
 62
250
  6
CONTINUOUS
 10
394.646310018
 20
128.1145212054
 11
394.6474808332
 21
128.1385614953
  0
LINE
  5
40F
100
AcDbEntity
  8
SCRITTE
100
AcDbLine
 62
250
  6
CONTINUOUS
 10
394.7067413633
 20
127.746790834
 11
394.7062882989
 21
127.7376963789
  0
LINE
  5
410
100
AcDbEntity
  8
SCRITTE
100
AcDbLine
 62
250
  6
CONTINUOUS
 10
394.6979169331
 20
128.0936070999
 11
394.6985440329
 21
128.1058433035
  0
LINE
  5
411
100
AcDbEntity
  8
SCRITTE
100
AcDbLine
 62
250
  6
CONTINUOUS
 10
394.6610688267
 20
127.8430606631
 11
394.6604794055
 21
127.8320701291
  0
LINE
  5
412
100
AcDbEntity
  8
SCRITTE
100
AcDbLine
 62
250
  6
CONTINUOUS
 10
394.7072213096
 20
127.7555438957
 11
394.7067413633
 21
127.746790834
  0
LINE
  5
413
100
AcDbEntity
  8
SCRITTE
100
AcDbLine
 62
250
  6
CONTINUOUS
 10
394.6474808332
 20
128.1385614953
 11
394.6487600499
 21
128.1617407877
  0
LINE
  5
414
100
AcDbEntity
  8
SCRITTE
100
AcDbLine
 62
250
  6
CONTINUOUS
 10
394.6985440329
 20
128.1058433035
 11
394.6992220144
 21
128.1177301996
  0
LINE
  5
415
100
AcDbEntity
  8
SCRITTE
100
AcDbLine
 62
250
  6
CONTINUOUS
 10
394.70772652
 20
127.7639399201
 11
394.7072213096
 21
127.7555438957
  0
LINE
  5
416
100
AcDbEntity
  8
SCRITTE
100
AcDbLine
 62
250
  6
CONTINUOUS
 10
394.6992220144
 20
128.1177301996
 11
394.6999472429
 21
128.1292146159
  0
LWPOLYLINE
  5
417
100
AcDbEntity
  8
SCRITTE
100
AcDbPolyline
 62
250
  6
CONTINUOUS
 90
47
 70
0
 10
394.6487600499
 20
128.1617407877
 10
394.6501462878
 20
128.1837868797
 10
394.6508786709
 20
128.1942993216
 10
394.6516346672
 20
128.2044228431
 10
394.6524114794
 20
128.2141198747
 10
394.6532063104
 20
128.2233528468
 10
394.6540163631
 20
128.2320841899
 10
394.6548388404
 20
128.2402763345
 10
394.6556711635
 20
128.2478989625
 10
394.6565116271
 20
128.2549507631
 10
394.6573587444
 20
128.2614376769
 10
394.6582110284
 20
128.2673656446
 10
394.6590669925
 20
128.2727406067
 10
394.6599251496
 20
128.2775685041
 10
394.6609554758
 20
128.2826531635
 10
394.6619826682
 20
128.2869985306
 10
394.6630025757
 20
128.2906445321
 10
394.6640110476
 20
128.2936310945
 10
394.6650039329
 20
128.2959981444
 10
394.6659776268
 20
128.2977849543
 10
394.6669307082
 20
128.2990281808
 10
394.6678623019
 20
128.2997638264
 10
394.6687715328
 20
128.3000278938
 10
394.6696575258
 20
128.2998563854
 10
394.670519646
 20
128.299282848
 10
394.6713582196
 20
128.2983310045
 10
394.6721738131
 20
128.2970221218
 10
394.6729669931
 20
128.2953774669
 10
394.673738326
 20
128.2934183069
 10
394.6746727331
 20
128.290557373
 10
394.6755755978
 20
128.2872671325
 10
394.6764486286
 20
128.2835764636
 10
394.6772935338
 20
128.2795142445
 10
394.6781117572
 20
128.2751094488
 10
394.6789036828
 20
128.2703914333
 10
394.6796694299
 20
128.2653896501
 10
394.6804091178
 20
128.2601335514
 10
394.6811229014
 20
128.2546518201
 10
394.6818110787
 20
128.2489700615
 10
394.6824739829
 20
128.2431131115
 10
394.6831119476
 20
128.237105806
 10
394.68372538
 20
128.2309710336
 10
394.6843149835
 20
128.2247238938
 10
394.6848815352
 20
128.2183775386
 10
394.6854258121
 20
128.2119451202
 10
394.6861180547
 20
128.2032567392
 10
394.6867730012
 20
128.1944658395
  0
LINE
  5
418
100
AcDbEntity
  8
SCRITTE
100
AcDbLine
 62
250
  6
CONTINUOUS
 10
394.7083229168
 20
127.7729374452
 11
394.70772652
 21
127.7639399201
  0
LINE
  5
419
100
AcDbEntity
  8
SCRITTE
100
AcDbLine
 62
250
  6
CONTINUOUS
 10
394.6999472429
 20
128.1292146159
 11
394.7007201473
 21
128.1403159324
  0
LINE
  5
41A
100
AcDbEntity
  8
SCRITTE
100
AcDbLine
 62
250
  6
CONTINUOUS
 10
394.7007201473
 20
128.1403159324
 11
394.7015415206
 21
128.1510616771
  0
LWPOLYLINE
  5
41B
100
AcDbEntity
  8
SCRITTE
100
AcDbPolyline
 62
250
  6
CONTINUOUS
 90
18
 70
0
 10
394.7015415206
 20
128.1510616771
 10
394.7024095486
 20
128.1614394174
 10
394.7029256042
 20
128.1671964562
 10
394.7034558783
 20
128.172826367
 10
394.7040001605
 20
128.1783295083
 10
394.7045582403
 20
128.1837062385
 10
394.7051299074
 20
128.1889569162
 10
394.7057149513
 20
128.1940818997
 10
394.7063131616
 20
128.1990815475
 10
394.7069243041
 20
128.2039561307
 10
394.7075480499
 20
128.2087055702
 10
394.7081840463
 20
128.2133296997
 10
394.7088319405
 20
128.2178283529
 10
394.70949138
 20
128.2222013633
 10
394.7101620118
 20
128.2264485647
 10
394.7108434834
 20
128.2305697906
 10
394.71165178
 20
128.235226481
 10
394.7124738901
 20
128.2397594211
  0
LWPOLYLINE
  5
41C
100
AcDbEntity
  8
SCRITTE
100
AcDbPolyline
 62
250
  6
CONTINUOUS
 90
12
 70
0
 10
394.7124749058
 20
127.8162368463
 10
394.712144456
 20
127.8137952488
 10
394.7118198983
 20
127.8112467985
 10
394.7115005823
 20
127.8085890835
 10
394.7111858572
 20
127.8058196922
 10
394.7108750722
 20
127.8029362128
 10
394.7104914278
 20
127.7991690947
 10
394.7101133752
 20
127.7952232861
 10
394.7097413663
 20
127.7911021276
 10
394.7093758528
 20
127.7868089599
 10
394.7090172909
 20
127.7823473694
 10
394.7083229168
 20
127.7729374452
  0
LINE
  5
41D
100
AcDbEntity
  8
SCRITTE
100
AcDbLine
 62
250
  6
CONTINUOUS
 10
394.6758187566
 20
123.572176611
 11
394.744255822
 21
124.061890611
  0
LINE
  5
41E
100
AcDbEntity
  8
SCRITTE
100
AcDbLine
 62
250
  6
CONTINUOUS
 10
394.6976379494
 20
124.093443611
 11
394.6394487535
 21
123.680407611
  0
LINE
  5
41F
100
AcDbEntity
  8
SCRITTE
100
AcDbLine
 62
250
  6
CONTINUOUS
 10
394.6394487535
 20
120.640963611
 11
394.744255822
 21
121.274950611
  0
LINE
  5
420
100
AcDbEntity
  8
SCRITTE
100
AcDbLine
 62
250
  6
CONTINUOUS
 10
394.744255822
 20
126.821169611
 11
394.6394487535
 21
126.207569611
  0
LWPOLYLINE
  5
421
100
AcDbEntity
  8
SCRITTE
100
AcDbPolyline
 62
250
  6
CONTINUOUS
 90
7
 70
0
 10
394.7208231737
 20
127.8692423315
 10
394.7193839071
 20
127.8608716611
 10
394.7179629402
 20
127.8523551937
 10
394.7165609149
 20
127.8436632039
 10
394.7151784728
 20
127.8347659663
 10
394.7138162559
 20
127.8256337556
 10
394.7124749058
 20
127.8162368463
  0
LINE
  5
422
100
AcDbEntity
  8
SCRITTE
100
AcDbLine
 62
250
  6
CONTINUOUS
 10
394.7240012788
 20
127.8870263055
 11
394.7208231737
 21
127.8692423315
  0
LINE
  5
423
100
AcDbEntity
  8
SCRITTE
100
AcDbLine
 62
250
  6
CONTINUOUS
 10
394.7442558359
 20
127.9987750874
 11
394.7310950611
 21
127.9255654319
  0
LINE
  5
424
100
AcDbEntity
  8
SCRITTE
100
AcDbLine
 62
250
  6
CONTINUOUS
 10
394.7310950611
 20
127.9255654319
 11
394.7240012788
 21
127.8870263055
  0
LINE
  5
425
100
AcDbEntity
  8
SCRITTE
100
AcDbLine
 62
250
  6
CONTINUOUS
 10
394.7115907345
 20
121.475642611
 11
394.6394487535
 21
121.094436611
  0
LINE
  5
426
100
AcDbEntity
  8
SCRITTE
100
AcDbLine
 62
250
  6
CONTINUOUS
 10
394.7124738901
 20
128.2397594211
 11
394.7141577095
 21
128.2486458214
  0
LINE
  5
427
100
AcDbEntity
  8
SCRITTE
100
AcDbLine
 62
250
  6
CONTINUOUS
 10
394.7233325926
 20
126.273059611
 11
394.744255822
 21
126.381200611
  0
LINE
  5
428
100
AcDbEntity
  8
SCRITTE
100
AcDbLine
 62
250
  6
CONTINUOUS
 10
394.7141577095
 20
128.2486458214
 11
394.7232029672
 21
128.2949864785
  0
LINE
  5
429
100
AcDbEntity
  8
SCRITTE
100
AcDbLine
 62
250
  6
CONTINUOUS
 10
394.7396971352
 20
128.3771317181
 11
394.7442558359
 21
128.4003082296
  0
LINE
  5
42A
100
AcDbEntity
  8
SCRITTE
100
AcDbLine
 62
250
  6
CONTINUOUS
 10
394.7232029672
 20
128.2949864785
 11
394.7396971352
 21
128.3771317181
  0
LINE
  5
42B
100
AcDbEntity
  8
SCRITTE
100
AcDbLine
 62
250
  6
CONTINUOUS
 10
394.6682470903
 20
125.997812611
 11
394.7071423098
 21
126.189633611
  0
LINE
  5
42C
100
AcDbEntity
  8
SCRITTE
100
AcDbLine
 62
250
  6
CONTINUOUS
 10
394.744255822
 20
125.110915611
 11
394.6394487535
 21
124.923908611
  0
LINE
  5
42D
100
AcDbEntity
  8
SCRITTE
100
AcDbLine
 62
250
  6
CONTINUOUS
 10
394.676104117
 20
124.616777611
 11
394.744255822
 21
124.702544611
  0
LINE
  5
42E
100
AcDbEntity
  8
SCRITTE
100
AcDbLine
 62
250
  6
CONTINUOUS
 10
394.7071423098
 20
125.789960611
 11
394.6682470903
 21
125.997812611
  0
LINE
  5
42F
100
AcDbEntity
  8
SCRITTE
100
AcDbLine
 62
250
  6
CONTINUOUS
 10
394.6394487535
 20
121.868491611
 11
394.7115907345
 21
121.475642611
  0
LINE
  5
430
100
AcDbEntity
  8
SCRITTE
100
AcDbLine
 62
250
  6
CONTINUOUS
 10
394.744255822
 20
125.589381611
 11
394.7233325926
 21
125.704569611
  0
LINE
  5
431
100
AcDbEntity
  8
SCRITTE
100
AcDbLine
 62
250
  6
CONTINUOUS
 10
394.6394487535
 20
125.803742611
 11
394.744255822
 21
125.176465611
  0
LINE
  5
432
100
AcDbEntity
  8
SCRITTE
100
AcDbLine
 62
250
  6
CONTINUOUS
 10
394.744255822
 20
121.642823611
 11
394.6394487535
 21
122.285651611
  0
LINE
  5
433
100
AcDbEntity
  8
SCRITTE
100
AcDbLine
 62
250
  6
CONTINUOUS
 10
394.6394487535
 20
124.510887611
 11
394.6976379494
 21
124.093443611
  0
LINE
  5
434
100
AcDbEntity
  8
SCRITTE
100
AcDbLine
 62
250
  6
CONTINUOUS
 10
394.744255822
 20
124.120436611
 11
394.676104117
 21
124.616777611
  0
LINE
  5
435
100
AcDbEntity
  8
RACCORDO
100
AcDbLine
 62
7
  6
CONTINUOUS
 10
55.2436427268
 20
115.3724682454
 11
59.669810705
 21
115.140502611
  0
LINE
  5
436
100
AcDbEntity
  8
ASSI
100
AcDbLine
 62
7
  6
CONTINUOUS
 10
55.2436427268
 20
115.3724682454
 11
59.669810705
 21
115.140502611
  0
LINE
  5
437
100
AcDbEntity
  8
RACCORDO
100
AcDbLine
 62
7
  6
CONTINUOUS
 10
62.4802778962
 20
115.9750800329
 11
60.0681525553
 21
115.8486659005
  0
LINE
  5
438
100
AcDbEntity
  8
ASSI
100
AcDbLine
 62
7
  6
CONTINUOUS
 10
62.4802778962
 20
115.9750800329
 11
60.0681525553
 21
115.8486659005
  0
LINE
  5
439
100
AcDbEntity
  8
0
100
AcDbLine
 62
250
  6
CONTINUOUS
 10
59.669810705
 20
116.6384469131
 11
60.0681525553
 21
116.6420888348
  0
LINE
  5
43A
100
AcDbEntity
  8
ASSI
100
AcDbLine
 62
250
  6
CONTINUOUS
 10
59.669810705
 20
116.6384469131
 11
60.0681525553
 21
116.6420888348
  0
LINE
  5
43B
100
AcDbEntity
  8
RACCORDO
100
AcDbLine
 62
250
  6
CONTINUOUS
 10
62.669810705
 20
116.64256113
 11
60.0681525553
 21
116.64256113
  0
LINE
  5
43C
100
AcDbEntity
  8
ASSI
100
AcDbLine
 62
250
  6
CONTINUOUS
 10
62.669810705
 20
116.64256113
 11
60.0681525553
 21
116.64256113
  0
LINE
  5
43D
100
AcDbEntity
  8
RACCORDO
100
AcDbLine
 62
250
  6
CONTINUOUS
 10
54.769810705
 20
116.8704125476
 11
55.2436427268
 21
116.8704125476
  0
LINE
  5
43E
100
AcDbEntity
  8
ASSI
100
AcDbLine
 62
250
  6
CONTINUOUS
 10
54.769810705
 20
116.8704125476
 11
55.2436427268
 21
116.8704125476
  0
LINE
  5
43F
100
AcDbEntity
  8
RACCORDO
100
AcDbLine
 62
250
  6
CONTINUOUS
 10
55.2436427268
 20
116.8704125476
 11
59.669810705
 21
116.6384469131
  0
LINE
  5
440
100
AcDbEntity
  8
ASSI
100
AcDbLine
 62
250
  6
CONTINUOUS
 10
55.2436427268
 20
116.8704125476
 11
59.669810705
 21
116.6384469131
  0
LWPOLYLINE
  5
441
100
AcDbEntity
  8
0
100
AcDbPolyline
 62
7
  6
CONTINUOUS
 90
10
 70
0
 43
0.3499999917
 10
60.005526123
 20
211.8904943848
 10
60.8626693726
 20
212.747644043
 10
61.0769503784
 20
213.6047937012
 10
61.0769503784
 20
214.4619433594
 10
60.648381958
 20
214.8905053711
 10
60.005526123
 20
214.8905053711
 10
59.5769512939
 20
214.4619433594
 10
59.5769512939
 20
213.6047937012
 10
60.005526123
 20
213.1762060547
 10
60.9340942383
 20
213.1762060547
  0
LINE
  5
442
100
AcDbEntity
  8
SCRITTE
100
AcDbLine
 62
250
  6
CONTINUOUS
 10
57.803508705
 20
121.475642611
 11
56.426957705
 21
121.094436611
  0
LINE
  5
443
100
AcDbEntity
  8
SCRITTE
100
AcDbLine
 62
250
  6
CONTINUOUS
 10
58.426795705
 20
122.440566611
 11
56.426837705
 21
122.440566611
  0
LINE
  5
444
100
AcDbEntity
  8
SCRITTE
100
AcDbLine
 62
250
  6
CONTINUOUS
 10
56.426837705
 20
122.858010611
 11
58.426795705
 21
122.858010611
  0
LINE
  5
445
100
AcDbEntity
  8
SCRITTE
100
AcDbLine
 62
250
  6
CONTINUOUS
 10
58.426795705
 20
123.482092611
 11
57.120938705
 21
123.572176611
  0
LINE
  5
446
100
AcDbEntity
  8
SCRITTE
100
AcDbLine
 62
250
  6
CONTINUOUS
 10
56.426957705
 20
123.263308611
 11
58.426795705
 21
123.082734611
  0
LINE
  5
447
100
AcDbEntity
  8
SCRITTE
100
AcDbLine
 62
250
  6
CONTINUOUS
 10
56.426957705
 20
121.868491611
 11
57.803508705
 21
121.475642611
  0
LINE
  5
448
100
AcDbEntity
  8
SCRITTE
100
AcDbLine
 62
250
  6
CONTINUOUS
 10
58.426795705
 20
121.642823611
 11
56.426957705
 21
122.285651611
  0
LINE
  5
449
100
AcDbEntity
  8
SCRITTE
100
AcDbLine
 62
250
  6
CONTINUOUS
 10
58.426795705
 20
125.110915611
 11
56.426957705
 21
124.923908611
  0
LINE
  5
44A
100
AcDbEntity
  8
SCRITTE
100
AcDbLine
 62
250
  6
CONTINUOUS
 10
57.126383705
 20
124.616777611
 11
58.426795705
 21
124.702544611
  0
LINE
  5
44B
100
AcDbEntity
  8
SCRITTE
100
AcDbLine
 62
250
  6
CONTINUOUS
 10
58.4267959702
 20
126.9437514426
 11
56.4503231231
 21
126.9437514426
  0
LINE
  5
44C
100
AcDbEntity
  8
SCRITTE
100
AcDbLine
 62
250
  6
CONTINUOUS
 10
57.718627705
 20
125.789960611
 11
56.976462705
 21
125.997812611
  0
LINE
  5
44D
100
AcDbEntity
  8
SCRITTE
100
AcDbLine
 62
250
  6
CONTINUOUS
 10
58.426795705
 20
125.589381611
 11
58.027556705
 21
125.704569611
  0
LINE
  5
44E
100
AcDbEntity
  8
SCRITTE
100
AcDbLine
 62
250
  6
CONTINUOUS
 10
56.426957705
 20
125.803742611
 11
58.426795705
 21
125.176465611
  0
LINE
  5
44F
100
AcDbEntity
  8
SCRITTE
100
AcDbLine
 62
250
  6
CONTINUOUS
 10
56.426957705
 20
124.510887611
 11
57.537273705
 21
124.093443611
  0
LINE
  5
450
100
AcDbEntity
  8
SCRITTE
100
AcDbLine
 62
250
  6
CONTINUOUS
 10
58.426795705
 20
124.120436611
 11
57.126383705
 21
124.616777611
  0
LWPOLYLINE
  5
451
100
AcDbEntity
  8
SCRITTE
100
AcDbPolyline
 62
250
  6
CONTINUOUS
 90
11
 70
0
 10
58.1412717667
 20
127.9157353624
 10
58.0735775726
 20
127.8965216846
 10
58.0403159963
 20
127.8870263055
 10
58.0074739146
 20
127.8774969303
 10
57.9796741387
 20
127.8692423315
 10
57.9522112961
 20
127.8608716611
 10
57.9250976331
 20
127.8523551937
 10
57.8983453957
 20
127.8436632039
 10
57.8719668301
 20
127.8347659663
 10
57.8459741824
 20
127.8256337556
 10
57.8203796988
 20
127.8162368463
  0
LINE
  5
452
100
AcDbEntity
  8
SCRITTE
100
AcDbLine
 62
250
  6
CONTINUOUS
 10
58.027556705
 20
126.273059611
 11
58.426795705
 21
126.381200611
  0
LINE
  5
453
100
AcDbEntity
  8
SCRITTE
100
AcDbLine
 62
250
  6
CONTINUOUS
 10
57.8363019081
 20
128.2442165536
 11
57.9788740617
 21
128.2827317464
  0
LINE
  5
454
100
AcDbEntity
  8
SCRITTE
100
AcDbLine
 62
250
  6
CONTINUOUS
 10
58.3398107787
 20
128.3771317181
 11
58.4267959702
 21
128.4003082296
  0
LINE
  5
455
100
AcDbEntity
  8
SCRITTE
100
AcDbLine
 62
250
  6
CONTINUOUS
 10
57.9788740617
 20
128.2827317464
 11
58.161840625
 21
128.3308230982
  0
LINE
  5
456
100
AcDbEntity
  8
SCRITTE
100
AcDbLine
 62
250
  6
CONTINUOUS
 10
58.161840625
 20
128.3308230982
 11
58.3398107787
 21
128.3771317181
  0
LINE
  5
457
100
AcDbEntity
  8
SCRITTE
100
AcDbLine
 62
250
  6
CONTINUOUS
 10
56.976462705
 20
125.997812611
 11
57.718627705
 21
126.189633611
  0
LWPOLYLINE
  5
458
100
AcDbEntity
  8
SCRITTE
100
AcDbPolyline
 62
250
  6
CONTINUOUS
 90
49
 70
0
 10
57.0058710318
 20
127.908510737
 10
56.9983807965
 20
127.9082787772
 10
56.9909317166
 20
127.9078193373
 10
56.9835210736
 20
127.9071346153
 10
56.9761461492
 20
127.9062268092
 10
56.9688042251
 20
127.905098117
 10
56.9614925829
 20
127.9037507369
 10
56.9542085044
 20
127.9021868668
 10
56.9469492711
 20
127.9004087048
 10
56.9397139575
 20
127.8984180718
 10
56.9325088089
 20
127.8962152803
 10
56.9253418633
 20
127.8938002656
 10
56.918221159
 20
127.891172963
 10
56.9111547338
 20
127.888333308
 10
56.9041506258
 20
127.8852812357
 10
56.8972168732
 20
127.8820166816
 10
56.890361514
 20
127.878539581
 10
56.8835929533
 20
127.874849864
 10
56.8769210641
 20
127.8709474398
 10
56.8703560865
 20
127.8668322123
 10
56.8639082606
 20
127.8625040854
 10
56.8575878264
 20
127.8579629631
 10
56.8514050241
 20
127.8532087493
 10
56.8453700937
 20
127.848241348
 10
56.8394932753
 20
127.8430606631
 10
56.8337837485
 20
127.8376679824
 10
56.8282464506
 20
127.8320701291
 10
56.8228852586
 20
127.8262753104
 10
56.8177040493
 20
127.8202917334
 10
56.8127066997
 20
127.8141276052
 10
56.8078970865
 20
127.8077911329
 10
56.8032790868
 20
127.8012905235
 10
56.7988565774
 20
127.7946339843
 10
56.7946329131
 20
127.7878297335
 10
56.7906093602
 20
127.7808860343
 10
56.786786663
 20
127.7738111608
 10
56.7831655655
 20
127.7666133874
 10
56.779746812
 20
127.7593009884
 10
56.7765311468
 20
127.7518822381
 10
56.7735193141
 20
127.7443654108
 10
56.7707120579
 20
127.7367587807
 10
56.7681104525
 20
127.7290687243
 10
56.7657168918
 20
127.721294027
 10
56.7635340993
 20
127.7134315762
 10
56.7615647988
 20
127.7054782594
 10
56.7598117141
 20
127.6974309641
 10
56.7582775688
 20
127.6892865779
 10
56.7569650867
 20
127.681041988
 10
56.7558769916
 20
127.6726940822
  0
LINE
  5
459
100
AcDbEntity
  8
SCRITTE
100
AcDbLine
 62
250
  6
CONTINUOUS
 10
56.7676505289
 20
127.3456744956
 11
57.3166449368
 21
127.3456744956
  0
LINE
  5
45A
100
AcDbEntity
  8
SCRITTE
100
AcDbLine
 62
250
  6
CONTINUOUS
 10
57.6441700097
 20
127.3595163291
 11
58.4267959702
 21
127.3595163291
  0
LINE
  5
45B
100
AcDbEntity
  8
SCRITTE
100
AcDbLine
 62
250
  6
CONTINUOUS
 10
57.4814722296
 20
128.0169809225
 11
57.4932895262
 21
128.0169809225
  0
LWPOLYLINE
  5
45C
100
AcDbEntity
  8
RACCORDO
100
AcDbPolyline
 62
250
  6
CONTINUOUS
 90
10
 70
0
 10
55.2436427268
 20
115.3724682454
 10
55.2424251408
 20
115.374262017
 10
55.2412718699
 20
115.379468225
 10
55.2401874347
 20
115.3880150997
 10
55.2391812529
 20
115.3997927466
 10
55.2382499475
 20
115.4147327993
 10
55.2373821456
 20
115.4328838911
 10
55.2365830872
 20
115.4542797723
 10
55.2358610422
 20
115.4788367709
 10
55.2352119337
 20
115.5064715233
  0
LWPOLYLINE
  5
45D
100
AcDbEntity
  8
ASSI
100
AcDbPolyline
 62
250
  6
CONTINUOUS
 90
10
 70
0
 10
55.2436427268
 20
115.3724682454
 10
55.2424251408
 20
115.374262017
 10
55.2412718699
 20
115.379468225
 10
55.2401874347
 20
115.3880150997
 10
55.2391812529
 20
115.3997927466
 10
55.2382499475
 20
115.4147327993
 10
55.2373821456
 20
115.4328838911
 10
55.2365830872
 20
115.4542797723
 10
55.2358610422
 20
115.4788367709
 10
55.2352119337
 20
115.5064715233
  0
LWPOLYLINE
  5
45E
100
AcDbEntity
  8
0
100
AcDbPolyline
 62
7
  6
CONTINUOUS
 90
3
 70
0
 43
0.3499999917
 10
58.5769519043
 20
212.1762194824
 10
58.5055270386
 20
211.9619384766
 10
58.3626708984
 20
211.6762133789
  0
LWPOLYLINE
  5
45F
100
AcDbEntity
  8
SCRITTE
100
AcDbPolyline
 62
250
  6
CONTINUOUS
 90
33
 70
0
 10
56.4503231231
 20
126.9437514426
 10
56.4440370919
 20
126.9873978824
 10
56.4381325796
 20
127.0303919872
 10
56.432632368
 20
127.0727353379
 10
56.4275592387
 20
127.1144295156
 10
56.4229359733
 20
127.1554761014
 10
56.4187830714
 20
127.1958775504
 10
56.4151119043
 20
127.2356398142
 10
56.411931561
 20
127.2747697183
 10
56.4092511309
 20
127.3132740882
 10
56.4070797031
 20
127.3511597494
 10
56.4054241311
 20
127.3884308966
 10
56.4042823259
 20
127.4250811998
 10
56.4036499629
 20
127.4611016982
 10
56.4035227174
 20
127.4964834309
 10
56.4038962647
 20
127.5312174369
 10
56.4047665996
 20
127.5652984878
 10
56.4061309946
 20
127.5987362856
 10
56.4079870415
 20
127.6315442643
 10
56.4103323324
 20
127.6637358583
 10
56.413164459
 20
127.6953245018
 10
56.4158971006
 20
127.7211928667
 10
56.418979067
 20
127.7466319622
 10
56.4224232748
 20
127.7716219048
 10
56.4262426406
 20
127.7961428113
 10
56.4304500811
 20
127.8201747985
 10
56.4350585129
 20
127.843697983
 10
56.4400786539
 20
127.8666966576
 10
56.4455124265
 20
127.8891718184
 10
56.4513595543
 20
127.9111286377
 10
56.4576197612
 20
127.9325722877
 10
56.4642927706
 20
127.9535079406
 10
56.4713783063
 20
127.9739407686
  0
LINE
  5
460
100
AcDbEntity
  8
RACCORDO
100
AcDbLine
 62
250
  6
CONTINUOUS
 10
55.2352119337
 20
115.5064715233
 11
55.2341459516
 21
115.5706724196
  0
LINE
  5
461
100
AcDbEntity
  8
ASSI
100
AcDbLine
 62
250
  6
CONTINUOUS
 10
55.2352119337
 20
115.5064715233
 11
55.2341459516
 21
115.5706724196
  0
LINE
  5
462
100
AcDbEntity
  8
RACCORDO
100
AcDbLine
 62
250
  6
CONTINUOUS
 10
55.2436427268
 20
201.4105926744
 11
55.2373821456
 21
201.83069263
  0
LINE
  5
463
100
AcDbEntity
  8
ASSI
100
AcDbLine
 62
250
  6
CONTINUOUS
 10
55.2436427268
 20
201.4105926744
 11
55.2373821456
 21
201.83069263
  0
LINE
  5
464
100
AcDbEntity
  8
RACCORDO
100
AcDbLine
 62
250
  6
CONTINUOUS
 10
55.2341459516
 20
115.5706724196
 11
55.2333932572
 21
115.6463692145
  0
LINE
  5
465
100
AcDbEntity
  8
ASSI
100
AcDbLine
 62
250
  6
CONTINUOUS
 10
55.2341459516
 20
115.5706724196
 11
55.2333932572
 21
115.6463692145
  0
LINE
  5
466
100
AcDbEntity
  8
RACCORDO
100
AcDbLine
 62
250
  6
CONTINUOUS
 10
55.2373821456
 20
201.83069263
 11
55.2341459516
 21
202.154430184
  0
LINE
  5
467
100
AcDbEntity
  8
ASSI
100
AcDbLine
 62
250
  6
CONTINUOUS
 10
55.2373821456
 20
201.83069263
 11
55.2341459516
 21
202.154430184
  0
LINE
  5
468
100
AcDbEntity
  8
RACCORDO
100
AcDbLine
 62
250
  6
CONTINUOUS
 10
55.2341459516
 20
202.154430184
 11
55.2329641755
 21
202.3845475516
  0
LINE
  5
469
100
AcDbEntity
  8
ASSI
100
AcDbLine
 62
250
  6
CONTINUOUS
 10
55.2341459516
 20
202.154430184
 11
55.2329641755
 21
202.3845475516
  0
LINE
  5
46A
100
AcDbEntity
  8
RACCORDO
100
AcDbLine
 62
250
  6
CONTINUOUS
 10
55.2333932572
 20
115.6463692145
 11
55.2328704074
 21
115.78000227
  0
LINE
  5
46B
100
AcDbEntity
  8
ASSI
100
AcDbLine
 62
250
  6
CONTINUOUS
 10
55.2333932572
 20
115.6463692145
 11
55.2328704074
 21
115.78000227
  0
LINE
  5
46C
100
AcDbEntity
  8
RACCORDO
100
AcDbLine
 62
7
  6
CONTINUOUS
 10
54.769810705
 20
115.8717830128
 11
54.769810705
 21
202.4092222091
  0
LINE
  5
46D
100
AcDbEntity
  8
ASSI
100
AcDbLine
 62
7
  6
CONTINUOUS
 10
54.769810705
 20
115.8717830128
 11
54.769810705
 21
202.4092222091
  0
LINE
  5
46E
100
AcDbEntity
  8
RACCORDO
100
AcDbLine
 62
250
  6
CONTINUOUS
 10
55.2436427268
 20
116.8704125476
 11
55.2436427268
 21
201.4105926744
  0
LINE
  5
46F
100
AcDbEntity
  8
ASSI
100
AcDbLine
 62
250
  6
CONTINUOUS
 10
55.2436427268
 20
116.8704125476
 11
55.2436427268
 21
201.4105926744
  0
LWPOLYLINE
  5
470
100
AcDbEntity
  8
0
100
AcDbPolyline
 62
7
  6
CONTINUOUS
 90
4
 70
0
 43
0.3499999917
 10
55.5055224609
 20
214.2476367187
 10
55.5055224609
 20
214.8905053711
 10
57.0055279541
 20
214.8905053711
 10
56.1483847046
 20
211.8904943848
  0
LINE
  5
471
100
AcDbEntity
  8
RACCORDO
100
AcDbLine
 62
250
  6
CONTINUOUS
 10
55.2329641755
 20
202.3845475516
 11
55.2329294124
 21
202.5349671066
  0
LINE
  5
472
100
AcDbEntity
  8
ASSI
100
AcDbLine
 62
250
  6
CONTINUOUS
 10
55.2329641755
 20
202.3845475516
 11
55.2329294124
 21
202.5349671066
  0
LINE
  5
473
100
AcDbEntity
  8
RACCORDO
100
AcDbLine
 62
250
  6
CONTINUOUS
 10
55.2328704074
 20
115.78000227
 11
55.2330805095
 21
115.935358239
  0
LINE
  5
474
100
AcDbEntity
  8
ASSI
100
AcDbLine
 62
250
  6
CONTINUOUS
 10
55.2328704074
 20
115.78000227
 11
55.2330805095
 21
115.935358239
  0
LINE
  5
475
100
AcDbEntity
  8
RACCORDO
100
AcDbLine
 62
250
  6
CONTINUOUS
 10
55.2329294124
 20
202.5349671066
 11
55.2333125002
 21
202.6230234156
  0
LINE
  5
476
100
AcDbEntity
  8
ASSI
100
AcDbLine
 62
250
  6
CONTINUOUS
 10
55.2329294124
 20
202.5349671066
 11
55.2333125002
 21
202.6230234156
  0
LINE
  5
477
100
AcDbEntity
  8
RACCORDO
100
AcDbLine
 62
250
  6
CONTINUOUS
 10
55.2330805095
 20
115.935358239
 11
55.2344903703
 21
116.1704544332
  0
LINE
  5
478
100
AcDbEntity
  8
ASSI
100
AcDbLine
 62
250
  6
CONTINUOUS
 10
55.2330805095
 20
115.935358239
 11
55.2344903703
 21
116.1704544332
  0
LINE
  5
479
100
AcDbEntity
  8
RACCORDO
100
AcDbLine
 62
250
  6
CONTINUOUS
 10
55.2333125002
 20
202.6230234156
 11
55.2340207314
 21
202.7001992912
  0
LINE
  5
47A
100
AcDbEntity
  8
ASSI
100
AcDbLine
 62
250
  6
CONTINUOUS
 10
55.2333125002
 20
202.6230234156
 11
55.2340207314
 21
202.7001992912
  0
LINE
  5
47B
100
AcDbEntity
  8
RACCORDO
100
AcDbLine
 62
250
  6
CONTINUOUS
 10
55.2344903703
 20
116.1704544332
 11
55.2380682547
 21
116.5045730827
  0
LINE
  5
47C
100
AcDbEntity
  8
ASSI
100
AcDbLine
 62
250
  6
CONTINUOUS
 10
55.2344903703
 20
116.1704544332
 11
55.2380682547
 21
116.5045730827
  0
LINE
  5
47D
100
AcDbEntity
  8
RACCORDO
100
AcDbLine
 62
250
  6
CONTINUOUS
 10
55.2380682547
 20
116.5045730827
 11
55.2436427268
 21
116.8704125476
  0
LINE
  5
47E
100
AcDbEntity
  8
ASSI
100
AcDbLine
 62
250
  6
CONTINUOUS
 10
55.2380682547
 20
116.5045730827
 11
55.2436427268
 21
116.8704125476
  0
LWPOLYLINE
  5
47F
100
AcDbEntity
  8
RACCORDO
100
AcDbPolyline
 62
250
  6
CONTINUOUS
 90
11
 70
0
 10
55.2340207314
 20
202.7001992912
 10
55.2350402507
 20
202.7660668315
 10
55.2356738311
 20
202.7948473653
 10
55.2363893605
 20
202.8206470099
 10
55.2371879269
 20
202.8433668867
 10
55.2380682547
 20
202.8629071094
 10
55.239030096
 20
202.8791182544
 10
55.2400736373
 20
202.891856706
 10
55.2411945901
 20
202.9010415401
 10
55.2423863751
 20
202.9066208605
 10
55.2436427268
 20
202.9085369765
  0
LWPOLYLINE
  5
480
100
AcDbEntity
  8
ASSI
100
AcDbPolyline
 62
250
  6
CONTINUOUS
 90
11
 70
0
 10
55.2340207314
 20
202.7001992912
 10
55.2350402507
 20
202.7660668315
 10
55.2356738311
 20
202.7948473653
 10
55.2363893605
 20
202.8206470099
 10
55.2371879269
 20
202.8433668867
 10
55.2380682547
 20
202.8629071094
 10
55.239030096
 20
202.8791182544
 10
55.2400736373
 20
202.891856706
 10
55.2411945901
 20
202.9010415401
 10
55.2423863751
 20
202.9066208605
 10
55.2436427268
 20
202.9085369765
  0
LWPOLYLINE
  5
481
100
AcDbEntity
  8
SCRITTE
100
AcDbPolyline
 62
250
  6
CONTINUOUS
 90
59
 70
0
 10
57.3166449368
 20
127.5842399196
 10
57.3163040183
 20
127.5953032208
 10
57.3157836681
 20
127.606143524
 10
57.3150888137
 20
127.6167558342
 10
57.3142243828
 20
127.6271351566
 10
57.3131953029
 20
127.6372764964
 10
57.3120065016
 20
127.6471748587
 10
57.3106629065
 20
127.6568252487
 10
57.3091682756
 20
127.6662260536
 10
57.3075216887
 20
127.6753891897
 10
57.3057210561
 20
127.6843299555
 10
57.3037642881
 20
127.6930636491
 10
57.301649295
 20
127.7016055692
 10
57.299373987
 20
127.7099710139
 10
57.2969362744
 20
127.7181752819
 10
57.2938833308
 20
127.7275594752
 10
57.2905977951
 20
127.7367444895
 10
57.2870709705
 20
127.7457297028
 10
57.2832941599
 20
127.7545144929
 10
57.2792586665
 20
127.7630982377
 10
57.2749557932
 20
127.771480315
 10
57.2710471375
 20
127.7785038461
 10
57.2669237311
 20
127.7853776198
 10
57.2625736553
 20
127.7921004995
 10
57.2579849913
 20
127.7986713489
 10
57.2531458204
 20
127.8050890313
 10
57.2480442239
 20
127.8113524103
 10
57.242668283
 20
127.8174603494
 10
57.2377326637
 20
127.8226755053
 10
57.2325863702
 20
127.8277646929
 10
57.2272378986
 20
127.8327218227
 10
57.221695745
 20
127.8375408053
 10
57.2159690987
 20
127.8422158065
 10
57.2100699221
 20
127.8467420135
 10
57.204010871
 20
127.8511148689
 10
57.1978046012
 20
127.8553298151
 10
57.1914608671
 20
127.859383952
 10
57.1849778191
 20
127.863281009
 10
57.1783507058
 20
127.8670263728
 10
57.1715747764
 20
127.8706254301
 10
57.1646462556
 20
127.8740823524
 10
57.1575652722
 20
127.8773964509
 10
57.1503329306
 20
127.8805658219
 10
57.1429503354
 20
127.8835885614
 10
57.1343308209
 20
127.8868606391
 10
57.1255199734
 20
127.8899329247
 10
57.1165212666
 20
127.8927996318
 10
57.1073381745
 20
127.8954549736
 10
57.0979741709
 20
127.8978931635
 10
57.0884327295
 20
127.900108415
 10
57.0787173243
 20
127.9020949414
 10
57.0700758645
 20
127.903639806
 10
57.0613031621
 20
127.9049942204
 10
57.052398506
 20
127.9061472826
 10
57.0433611852
 20
127.9070880905
 10
57.0341904885
 20
127.907805742
 10
57.0248857048
 20
127.9082893349
 10
57.0154461229
 20
127.9085279673
 10
57.0058710318
 20
127.908510737
  0
LINE
  5
482
100
AcDbEntity
  8
SCRITTE
100
AcDbLine
 62
250
  6
CONTINUOUS
 10
56.426837705
 20
122.440566611
 11
56.426837705
 21
122.858010611
  0
LINE
  5
483
100
AcDbEntity
  8
SCRITTE
100
AcDbLine
 62
250
  6
CONTINUOUS
 10
56.426957705
 20
126.207569611
 11
56.426957705
 21
125.803742611
  0
LINE
  5
484
100
AcDbEntity
  8
SCRITTE
100
AcDbLine
 62
250
  6
CONTINUOUS
 10
56.426957705
 20
124.923908611
 11
56.426957705
 21
124.510887611
  0
LINE
  5
485
100
AcDbEntity
  8
SCRITTE
100
AcDbLine
 62
250
  6
CONTINUOUS
 10
56.426957705
 20
123.680407611
 11
56.426957705
 21
123.263308611
  0
LINE
  5
486
100
AcDbEntity
  8
SCRITTE
100
AcDbLine
 62
250
  6
CONTINUOUS
 10
56.426957705
 20
122.285651611
 11
56.426957705
 21
121.868491611
  0
LINE
  5
487
100
AcDbEntity
  8
SCRITTE
100
AcDbLine
 62
250
  6
CONTINUOUS
 10
56.426957705
 20
121.094436611
 11
56.426957705
 21
120.640963611
  0
LINE
  5
488
100
AcDbEntity
  8
SCRITTE
100
AcDbLine
 62
250
  6
CONTINUOUS
 10
57.3166449368
 20
127.3456744956
 11
57.3166449368
 21
127.5842399196
  0
LINE
  5
489
100
AcDbEntity
  8
SCRITTE
100
AcDbLine
 62
250
  6
CONTINUOUS
 10
57.6441700097
 20
127.5833401254
 11
57.6441700097
 21
127.3595163291
  0
LINE
  5
48A
100
AcDbEntity
  8
SCRITTE
100
AcDbLine
 62
250
  6
CONTINUOUS
 10
57.718627705
 20
126.189633611
 11
57.718627705
 21
125.789960611
  0
LINE
  5
48B
100
AcDbEntity
  8
SCRITTE
100
AcDbLine
 62
250
  6
CONTINUOUS
 10
58.027556705
 20
125.704569611
 11
58.027556705
 21
126.273059611
  0
LINE
  5
48C
100
AcDbEntity
  8
SCRITTE
100
AcDbLine
 62
250
  6
CONTINUOUS
 10
58.426795705
 20
122.858010611
 11
58.426795705
 21
122.440566611
  0
LINE
  5
48D
100
AcDbEntity
  8
SCRITTE
100
AcDbLine
 62
250
  6
CONTINUOUS
 10
58.426795705
 20
121.274950611
 11
58.426795705
 21
121.642823611
  0
LINE
  5
48E
100
AcDbEntity
  8
SCRITTE
100
AcDbLine
 62
250
  6
CONTINUOUS
 10
58.426795705
 20
123.082734611
 11
58.426795705
 21
123.482092611
  0
LINE
  5
48F
100
AcDbEntity
  8
SCRITTE
100
AcDbLine
 62
250
  6
CONTINUOUS
 10
58.426795705
 20
124.061890611
 11
58.426795705
 21
124.120436611
  0
LINE
  5
490
100
AcDbEntity
  8
SCRITTE
100
AcDbLine
 62
250
  6
CONTINUOUS
 10
58.426795705
 20
124.702544611
 11
58.426795705
 21
125.110915611
  0
LINE
  5
491
100
AcDbEntity
  8
SCRITTE
100
AcDbLine
 62
250
  6
CONTINUOUS
 10
58.426795705
 20
125.176465611
 11
58.426795705
 21
125.589381611
  0
LINE
  5
492
100
AcDbEntity
  8
SCRITTE
100
AcDbLine
 62
250
  6
CONTINUOUS
 10
58.426795705
 20
126.381200611
 11
58.426795705
 21
126.821169611
  0
LINE
  5
493
100
AcDbEntity
  8
SCRITTE
100
AcDbLine
 62
250
  6
CONTINUOUS
 10
58.4267959702
 20
128.4003082296
 11
58.4267959702
 21
127.9987750874
  0
LINE
  5
494
100
AcDbEntity
  8
SCRITTE
100
AcDbLine
 62
250
  6
CONTINUOUS
 10
58.4267959702
 20
127.3595163291
 11
58.4267959702
 21
126.9437514426
  0
LINE
  5
495
100
AcDbEntity
  8
0
100
AcDbLine
 62
7
  6
CONTINUOUS
 10
60.0681524739
 20
202.4323393257
 11
60.0681687187
 21
202.43099269
  0
LINE
  5
496
100
AcDbEntity
  8
ASSI
100
AcDbLine
 62
7
  6
CONTINUOUS
 10
60.0681524739
 20
202.4323393257
 11
60.0681687187
 21
202.43099269
  0
LINE
  5
497
100
AcDbEntity
  8
0
100
AcDbLine
 62
7
  6
CONTINUOUS
 10
59.669810705
 20
115.140502611
 11
59.669810705
 21
203.140502611
  0
LINE
  5
498
100
AcDbEntity
  8
ASSI
100
AcDbLine
 62
7
  6
CONTINUOUS
 10
59.669810705
 20
115.140502611
 11
59.669810705
 21
203.140502611
  0
LINE
  5
499
100
AcDbEntity
  8
0
100
AcDbLine
 62
7
  6
CONTINUOUS
 10
60.0681687187
 20
202.43099269
 11
60.0682886589
 21
116.0646090524
  0
LINE
  5
49A
100
AcDbEntity
  8
ASSI
100
AcDbLine
 62
7
  6
CONTINUOUS
 10
60.0681687187
 20
202.43099269
 11
60.0682886589
 21
116.0646090524
  0
LINE
  5
49B
100
AcDbEntity
  8
0
100
AcDbLine
 62
7
  6
CONTINUOUS
 10
60.0682886589
 20
116.0646090524
 11
60.0682619795
 21
115.9329802266
  0
LINE
  5
49C
100
AcDbEntity
  8
ASSI
100
AcDbLine
 62
7
  6
CONTINUOUS
 10
60.0682886589
 20
116.0646090524
 11
60.0682619795
 21
115.9329802266
  0
LWPOLYLINE
  5
49D
100
AcDbEntity
  8
0
100
AcDbPolyline
 62
7
  6
CONTINUOUS
 90
3
 70
0
 10
60.0682619795
 20
115.9329802266
 10
60.0681687089
 20
115.8500115241
 10
60.0681524739
 20
115.8486658962
  0
LWPOLYLINE
  5
49E
100
AcDbEntity
  8
ASSI
100
AcDbPolyline
 62
7
  6
CONTINUOUS
 90
3
 70
0
 10
60.0682619795
 20
115.9329802266
 10
60.0681687089
 20
115.8500115241
 10
60.0681524739
 20
115.8486658962
  0
LWPOLYLINE
  5
49F
100
AcDbEntity
  8
SCRITTE
100
AcDbPolyline
 62
250
  6
CONTINUOUS
 90
24
 70
0
 10
56.7558769918
 20
127.6726940822
 10
56.7542089601
 20
127.6573455704
 10
56.7527649607
 20
127.6419789112
 10
56.7515444712
 20
127.6265969423
 10
56.7505469694
 20
127.6112025017
 10
56.7497719329
 20
127.595798427
 10
56.7492188395
 20
127.5803875563
 10
56.7488871669
 20
127.5649727273
 10
56.7487782296
 20
127.5514825574
 10
56.7488383831
 20
127.5379863604
 10
56.7490675928
 20
127.5244789671
 10
56.7494658242
 20
127.5109552082
 10
56.7500338238
 20
127.4974092795
 10
56.7507754623
 20
127.4838328373
 10
56.7516953917
 20
127.4702169028
 10
56.752798264
 20
127.4565524973
 10
56.7540867197
 20
127.4428334811
 10
56.7555553541
 20
127.4290650707
 10
56.7571967513
 20
127.4152553217
 10
56.7590034954
 20
127.4014122899
 10
56.7609668408
 20
127.3875410003
 10
56.7630727237
 20
127.3736343561
 10
56.7653057509
 20
127.3596822303
 10
56.7676505289
 20
127.3456744956
  0
LINE
  5
4A0
100
AcDbEntity
  8
RACCORDO
100
AcDbLine
 62
250
  6
CONTINUOUS
 10
62.4802778962
 20
202.305925189
 11
62.4802778962
 21
115.9750800329
  0
LINE
  5
4A1
100
AcDbEntity
  8
ASSI
100
AcDbLine
 62
250
  6
CONTINUOUS
 10
62.4802778962
 20
202.305925189
 11
62.4802778962
 21
115.9750800329
  0
LINE
  5
4A2
100
AcDbEntity
  8
RACCORDO
100
AcDbLine
 62
7
  6
CONTINUOUS
 10
62.669810705
 20
202.1061992821
 11
62.669810705
 21
116.1758103731
  0
LINE
  5
4A3
100
AcDbEntity
  8
ASSI
100
AcDbLine
 62
7
  6
CONTINUOUS
 10
62.669810705
 20
202.1061992821
 11
62.669810705
 21
116.1758103731
  0
LWPOLYLINE
  5
4A4
100
AcDbEntity
  8
SCRITTE
100
AcDbPolyline
 62
250
  6
CONTINUOUS
 90
87
 70
0
 10
56.4713783063
 20
127.9739407686
 10
56.4754623242
 20
127.9846530232
 10
56.4800595449
 20
127.9955389039
 10
56.4851930698
 20
128.0066146381
 10
56.490886
 20
128.017896453
 10
56.497161437
 20
128.029400576
 10
56.504042482
 20
128.0411432344
 10
56.5115454688
 20
128.0531267853
 10
56.5196596618
 20
128.0652981053
 10
56.5283675577
 20
128.0775902009
 10
56.5376516531
 20
128.0899360785
 10
56.547494445
 20
128.1022687445
 10
56.5578784301
 20
128.1145212054
 10
56.5687884736
 20
128.1266319624
 10
56.5802189151
 20
128.1385614953
 10
56.5921664623
 20
128.1502757788
 10
56.6046278232
 20
128.1617407877
 10
56.6175997057
 20
128.1729224964
 10
56.6310788178
 20
128.1837868797
 10
56.6450535207
 20
128.1942993216
 10
56.6594787884
 20
128.2044228431
 10
56.6743012484
 20
128.2141198747
 10
56.6894675281
 20
128.2233528468
 10
56.7049242549
 20
128.2320841899
 10
56.7206180562
 20
128.2402763345
 10
56.7364997264
 20
128.2478989625
 10
56.7525367273
 20
128.2549507631
 10
56.7687006879
 20
128.2614376769
 10
56.784963237
 20
128.2673656446
 10
56.8012960036
 20
128.2727406067
 10
56.8176706164
 20
128.2775685041
 10
56.8373304127
 20
128.2826531635
 10
56.8569304099
 20
128.2869985306
 10
56.876391405
 20
128.2906445321
 10
56.8956341946
 20
128.2936310945
 10
56.9145795755
 20
128.2959981444
 10
56.933158762
 20
128.2977849543
 10
56.9513446381
 20
128.2990281808
 10
56.9691205051
 20
128.2997638264
 10
56.9864696644
 20
128.3000278938
 10
57.0033754174
 20
128.2998563854
 10
57.0198256503
 20
128.299282848
 10
57.0358265878
 20
128.2983310045
 10
57.0513890396
 20
128.2970221218
 10
57.0665238153
 20
128.2953774669
 10
57.0812417243
 20
128.2934183069
 10
57.0990712742
 20
128.290557373
 10
57.1162989591
 20
128.2872671325
 10
57.1329573783
 20
128.2835764636
 10
57.149079131
 20
128.2795142445
 10
57.1646917624
 20
128.2751094488
 10
57.1798026025
 20
128.2703914333
 10
57.1944139275
 20
128.2653896501
 10
57.2085280135
 20
128.2601335514
 10
57.2221478176
 20
128.2546518201
 10
57.2352790214
 20
128.2489700615
 10
57.2479279874
 20
128.2431131115
 10
57.2601010783
 20
128.237105806
 10
57.2718060675
 20
128.2309710336
 10
57.2830563725
 20
128.2247238938
 10
57.2938668215
 20
128.2183775386
 10
57.3042522431
 20
128.2119451202
 10
57.3174610202
 20
128.2032567392
 10
57.3299581425
 20
128.1944658395
 10
57.341761198
 20
128.1855995223
 10
57.3528930882
 20
128.1766855843
 10
57.3633979679
 20
128.167754605
 10
57.3733253053
 20
128.1588378595
 10
57.3827226662
 20
128.1499666654
 10
57.3916300067
 20
128.1411725097
 10
57.4000853806
 20
128.1324869217
 10
57.4081257925
 20
128.1239384759
 10
57.4157840492
 20
128.1155439261
 10
57.4230919085
 20
128.1073170708
 10
57.4334646124
 20
128.0953108915
 10
57.443215712
 20
128.0837130701
 10
57.4523940179
 20
128.0725476553
 10
57.4567391723
 20
128.0670806673
 10
57.4608975944
 20
128.0616126408
 10
57.4648397455
 20
128.0560847997
 10
57.4684920927
 20
128.0505128981
 10
57.471777464
 20
128.0449277221
 10
57.4746481237
 20
128.0393456563
 10
57.4770683944
 20
128.0337737395
 10
57.4790213945
 20
128.0281960289
 10
57.4804943638
 20
128.0225963924
 10
57.4814722296
 20
128.0169809225
  0
LWPOLYLINE
  5
4A5
100
AcDbEntity
  8
SCRITTE
100
AcDbPolyline
 62
250
  6
CONTINUOUS
 90
42
 70
0
 10
57.4932895262
 20
128.0169809225
 10
57.496005347
 20
128.0234917361
 10
57.4989520041
 20
128.0299730153
 10
57.5021360438
 20
128.0364285913
 10
57.5055640125
 20
128.0428622956
 10
57.5092428299
 20
128.0492774953
 10
57.5131809102
 20
128.0556757009
 10
57.5173870411
 20
128.0620579585
 10
57.5218700103
 20
128.0684253142
 10
57.5266362776
 20
128.0747763214
 10
57.5316829905
 20
128.081099562
 10
57.5370049687
 20
128.0873811252
 10
57.5425970318
 20
128.0936070999
 10
57.5484530139
 20
128.0997644083
 10
57.5545628084
 20
128.1058433035
 10
57.5609153228
 20
128.1118348719
 10
57.5674994652
 20
128.1177301996
 10
57.5743065662
 20
128.1235226401
 10
57.581337649
 20
128.1292146159
 10
57.5885961595
 20
128.1348108167
 10
57.5960855439
 20
128.1403159324
 10
57.6038076935
 20
128.1457334039
 10
57.611758281
 20
128.1510616771
 10
57.6199314246
 20
128.1562979492
 10
57.6283212422
 20
128.1614394174
 10
57.6381681693
 20
128.1671964562
 10
57.6482864017
 20
128.172826367
 10
57.6586719243
 20
128.1783295083
 10
57.6693207219
 20
128.1837062385
 10
57.6802287795
 20
128.1889569162
 10
57.691392082
 20
128.1940818997
 10
57.7028066142
 20
128.1990815475
 10
57.7144679086
 20
128.2039561307
 10
57.7263696877
 20
128.2087055702
 10
57.7385052215
 20
128.2133296997
 10
57.7508677801
 20
128.2178283529
 10
57.7634506335
 20
128.2222013633
 10
57.7762470518
 20
128.2264485647
 10
57.789250305
 20
128.2305697906
 10
57.8046735218
 20
128.235226481
 10
57.8203603181
 20
128.2397594211
 10
57.8363019081
 20
128.2442165536
  0
LINE
  5
4A6
100
AcDbEntity
  8
0
100
AcDbLine
 62
7
  6
CONTINUOUS
 10
59.669810705
 20
115.140502611
 11
60.0681525553
 21
115.8486659005
  0
LINE
  5
4A7
100
AcDbEntity
  8
ASSI
100
AcDbLine
 62
7
  6
CONTINUOUS
 10
59.669810705
 20
115.140502611
 11
60.0681525553
 21
115.8486659005
  0
LINE
  5
4A8
100
AcDbEntity
  8
0
100
AcDbLine
 62
7
  6
CONTINUOUS
 10
59.669810705
 20
203.140502611
 11
60.0681525553
 21
202.4323393215
  0
LINE
  5
4A9
100
AcDbEntity
  8
ASSI
100
AcDbLine
 62
7
  6
CONTINUOUS
 10
59.669810705
 20
203.140502611
 11
60.0681525553
 21
202.4323393215
  0
LWPOLYLINE
  5
4AA
100
AcDbEntity
  8
0
100
AcDbPolyline
 62
7
  6
CONTINUOUS
 90
10
 70
0
 43
0.3499999917
 10
58.5055270386
 20
212.3905004883
 10
58.5769519043
 20
212.2476379395
 10
58.5769519043
 20
212.1762194824
 10
58.4340957642
 20
212.0333569336
 10
58.3626708984
 20
212.0333569336
 10
58.291239624
 20
212.1048010254
 10
58.291239624
 20
212.1762194824
 10
58.3626708984
 20
212.3190820312
 10
58.4340957642
 20
212.3905004883
 10
58.5055270386
 20
212.3905004883
  0
LWPOLYLINE
  5
4AB
100
AcDbEntity
  8
SCRITTE
100
AcDbPolyline
 62
250
  6
CONTINUOUS
 90
48
 70
0
 10
57.8203796988
 20
127.8162368463
 10
57.8140743394
 20
127.8137952488
 10
57.8078814111
 20
127.8112467985
 10
57.8017884981
 20
127.8085890835
 10
57.7957831847
 20
127.8058196922
 10
57.789853055
 20
127.8029362128
 10
57.7825326842
 20
127.7991690947
 10
57.7753190105
 20
127.7952232861
 10
57.7682206564
 20
127.7911021276
 10
57.7612462438
 20
127.7868089599
 10
57.7544044748
 20
127.7823473694
 10
57.7477043698
 20
127.777721926
 10
57.7411550288
 20
127.7729374452
 10
57.734765552
 20
127.7679987429
 10
57.7297750992
 20
127.7639399201
 10
57.7248969102
 20
127.7597875976
 10
57.7201351113
 20
127.7555438957
 10
57.7154938293
 20
127.7512109344
 10
57.7109771906
 20
127.746790834
 10
57.7065890539
 20
127.7422855499
 10
57.7023322067
 20
127.7376963789
 10
57.6982091686
 20
127.733024453
 10
57.6942224591
 20
127.7282709042
 10
57.6903745978
 20
127.7234368646
 10
57.6866681052
 20
127.7185226363
 10
57.6831055054
 20
127.7135252014
 10
57.6796893232
 20
127.7084407121
 10
57.6764220836
 20
127.7032653205
 10
57.6733063113
 20
127.6979951787
 10
57.6703446252
 20
127.6926285762
 10
57.6675400186
 20
127.687172351
 10
57.6648955786
 20
127.6816354785
 10
57.6624143923
 20
127.676026934
 10
57.660099547
 20
127.6703556929
 10
57.6579532415
 20
127.6646311683
 10
57.6559741211
 20
127.6588645252
 10
57.6541599428
 20
127.6530673666
 10
57.6525084638
 20
127.6472512952
 10
57.6510174411
 20
127.6414279139
 10
57.6496842889
 20
127.635607101
 10
57.6485050497
 20
127.6297918365
 10
57.6474754232
 20
127.6239833755
 10
57.6465911093
 20
127.6181829734
 10
57.6458478075
 20
127.6123918854
 10
57.6451115842
 20
127.6051636614
 10
57.6445875153
 20
127.5979281569
 10
57.6442741431
 20
127.5906615766
 10
57.6441700097
 20
127.5833401254
  0
LWPOLYLINE
  5
4AC
100
AcDbEntity
  8
SCRITTE
100
AcDbPolyline
 62
250
  6
CONTINUOUS
 90
4
 70
0
 10
58.3897516063
 20
127.9880653529
 10
58.2104326687
 20
127.9355850469
 10
58.1756734274
 20
127.9255654319
 10
58.1412717667
 20
127.9157353624
  0
LINE
  5
4AD
100
AcDbEntity
  8
SCRITTE
100
AcDbLine
 62
250
  6
CONTINUOUS
 10
58.4267959702
 20
127.9987750874
 11
58.3897516063
 21
127.9880653529
  0
LINE
  5
4AE
100
AcDbEntity
  8
SCRITTE
100
AcDbLine
 62
250
  6
CONTINUOUS
 10
57.120938705
 20
123.572176611
 11
58.426795705
 21
124.061890611
  0
LINE
  5
4AF
100
AcDbEntity
  8
SCRITTE
100
AcDbLine
 62
250
  6
CONTINUOUS
 10
57.537273705
 20
124.093443611
 11
56.426957705
 21
123.680407611
  0
LINE
  5
4B0
100
AcDbEntity
  8
SCRITTE
100
AcDbLine
 62
250
  6
CONTINUOUS
 10
58.426795705
 20
126.821169611
 11
56.426957705
 21
126.207569611
  0
LINE
  5
4B1
100
AcDbEntity
  8
SCRITTE
100
AcDbLine
 62
250
  6
CONTINUOUS
 10
56.426957705
 20
120.640963611
 11
58.426795705
 21
121.274950611
  0
LINE
  5
4B2
100
AcDbEntity
  8
RACCORDO
100
AcDbLine
 62
250
  6
CONTINUOUS
 10
55.2436427268
 20
201.4105926744
 11
59.669810705
 21
201.6425583088
  0
LINE
  5
4B3
100
AcDbEntity
  8
ASSI
100
AcDbLine
 62
250
  6
CONTINUOUS
 10
55.2436427268
 20
201.4105926744
 11
59.669810705
 21
201.6425583088
  0
LINE
  5
4B4
100
AcDbEntity
  8
RACCORDO
100
AcDbLine
 62
7
  6
CONTINUOUS
 10
55.2436427268
 20
202.9085369765
 11
59.669810705
 21
203.140502611
  0
LINE
  5
4B5
100
AcDbEntity
  8
ASSI
100
AcDbLine
 62
7
  6
CONTINUOUS
 10
55.2436427268
 20
202.9085369765
 11
59.669810705
 21
203.140502611
  0
LINE
  5
4B6
100
AcDbEntity
  8
RACCORDO
100
AcDbLine
 62
250
  6
CONTINUOUS
 10
54.769810705
 20
201.4105926744
 11
55.2436427268
 21
201.4105926744
  0
LINE
  5
4B7
100
AcDbEntity
  8
ASSI
100
AcDbLine
 62
250
  6
CONTINUOUS
 10
54.769810705
 20
201.4105926744
 11
55.2436427268
 21
201.4105926744
  0
LINE
  5
4B8
100
AcDbEntity
  8
RACCORDO
100
AcDbLine
 62
250
  6
CONTINUOUS
 10
62.669810705
 20
201.638444092
 11
60.0681525553
 21
201.638444092
  0
LINE
  5
4B9
100
AcDbEntity
  8
ASSI
100
AcDbLine
 62
250
  6
CONTINUOUS
 10
62.669810705
 20
201.638444092
 11
60.0681525553
 21
201.638444092
  0
LINE
  5
4BA
100
AcDbEntity
  8
0
100
AcDbLine
 62
250
  6
CONTINUOUS
 10
59.669810705
 20
201.6425583088
 11
60.0681525553
 21
201.6389163871
  0
LINE
  5
4BB
100
AcDbEntity
  8
ASSI
100
AcDbLine
 62
250
  6
CONTINUOUS
 10
59.669810705
 20
201.6425583088
 11
60.0681525553
 21
201.6389163871
  0
LINE
  5
4BC
100
AcDbEntity
  8
RACCORDO
100
AcDbLine
 62
7
  6
CONTINUOUS
 10
62.4802778962
 20
202.305925189
 11
60.0681525553
 21
202.4323393215
  0
LINE
  5
4BD
100
AcDbEntity
  8
ASSI
100
AcDbLine
 62
7
  6
CONTINUOUS
 10
62.4802778962
 20
202.305925189
 11
60.0681525553
 21
202.4323393215
  0
ARC
  5
4BE
100
AcDbEntity
  8
RACCORDO
100
AcDbCircle
 62
7
  6
CONTINUOUS
 10
55.269810705
 20
202.4092222091
 40
0.5
100
AcDbArc
 50
93.0
 51
180.0
  0
ARC
  5
4BF
100
AcDbEntity
  8
RACCORDO
100
AcDbCircle
 62
7
  6
CONTINUOUS
 10
55.269810705
 20
115.8717830128
 40
0.5
100
AcDbArc
 50
180.0
 51
267.0
  0
ARC
  5
4C0
100
AcDbEntity
  8
ASSI
100
AcDbCircle
 62
7
  6
CONTINUOUS
 10
55.269810705
 20
202.4092222091
 40
0.5
100
AcDbArc
 50
93.0
 51
180.0
  0
ARC
  5
4C1
100
AcDbEntity
  8
ASSI
100
AcDbCircle
 62
7
  6
CONTINUOUS
 10
55.269810705
 20
115.8717830128
 40
0.5
100
AcDbArc
 50
180.0
 51
267.0
  0
ARC
  5
4C2
100
AcDbEntity
  8
RACCORDO
100
AcDbCircle
 62
7
  6
CONTINUOUS
 10
62.469810705
 20
116.1748059399
 40
0.2
100
AcDbArc
 50
273.0
 51
360.0
  0
ARC
  5
4C3
100
AcDbEntity
  8
RACCORDO
100
AcDbCircle
 62
7
  6
CONTINUOUS
 10
62.469810705
 20
202.1061992821
 40
0.2
100
AcDbArc
 50
0.0
 51
87.0
  0
ARC
  5
4C4
100
AcDbEntity
  8
ASSI
100
AcDbCircle
 62
7
  6
CONTINUOUS
 10
62.469810705
 20
116.1748059399
 40
0.2
100
AcDbArc
 50
273.0
 51
360.0
  0
ARC
  5
4C5
100
AcDbEntity
  8
ASSI
100
AcDbCircle
 62
7
  6
CONTINUOUS
 10
62.469810705
 20
202.1061992821
 40
0.2
100
AcDbArc
 50
0.0
 51
87.0
  0
ELLIPSE
  5
4C6
100
AcDbEntity
  8
RACCORDO
100
AcDbEllipse
 62
7
  6
CONTINUOUS
 10
114.5844756418
 20
132.865578775
 30
0.0
 11
0.3536610946
 21
0.3536610946
 31
0.0
 40
0.9996954599
 41
2.3563467834
 42
3.9268385237
  0
ELLIPSE
  5
4C7
100
AcDbEntity
  8
RACCORDO
100
AcDbEllipse
 62
7
  6
CONTINUOUS
 10
159.0343233138
 20
132.865578775
 30
0.0
 11
-0.3536610946
 21
0.3536610946
 31
0.0
 40
0.9996954599
 41
2.3563467834
 42
3.9268385237
  0
ELLIPSE
  5
4C8
100
AcDbEntity
  8
RACCORDO
100
AcDbEllipse
 62
7
  6
CONTINUOUS
 10
159.0343233138
 20
185.4154264469
 30
0.0
 11
-0.3536610946
 21
-0.3536610946
 31
0.0
 40
0.9996954599
 41
2.3563467834
 42
3.9268385237
  0
ELLIPSE
  5
4C9
100
AcDbEntity
  8
RACCORDO
100
AcDbEllipse
 62
7
  6
CONTINUOUS
 10
114.5844756418
 20
185.4154264469
 30
0.0
 11
0.3536610946
 21
-0.3536610946
 31
0.0
 40
0.9996954599
 41
2.3563467834
 42
3.9268385237
  0
ELLIPSE
  5
4CA
100
AcDbEntity
  8
RACCORDO
100
AcDbEllipse
 62
7
  6
CONTINUOUS
 10
301.0343233138
 20
185.4154264469
 30
0.0
 11
-0.3536610946
 21
-0.3536610946
 31
0.0
 40
0.9996954599
 41
2.3563467834
 42
3.9268385237
  0
ELLIPSE
  5
4CB
100
AcDbEntity
  8
RACCORDO
100
AcDbEllipse
 62
7
  6
CONTINUOUS
 10
256.5844756418
 20
185.4154264469
 30
0.0
 11
0.3536610946
 21
-0.3536610946
 31
0.0
 40
0.9996954599
 41
2.3563467834
 42
3.9268385237
  0
ELLIPSE
  5
4CC
100
AcDbEntity
  8
RACCORDO
100
AcDbEllipse
 62
7
  6
CONTINUOUS
 10
256.5844756418
 20
132.865578775
 30
0.0
 11
0.3536610946
 21
0.3536610946
 31
0.0
 40
0.9996954599
 41
2.3563467834
 42
3.9268385237
  0
ELLIPSE
  5
4CD
100
AcDbEntity
  8
RACCORDO
100
AcDbEllipse
 62
7
  6
CONTINUOUS
 10
301.0343233138
 20
132.865578775
 30
0.0
 11
-0.3536610946
 21
0.3536610946
 31
0.0
 40
0.9996954599
 41
2.3563467834
 42
3.9268385237
  0
ELLIPSE
  5
4CE
100
AcDbEntity
  8
RACCORDO
100
AcDbEllipse
 62
7
  6
CONTINUOUS
 10
230.0343233138
 20
185.4154264469
 30
0.0
 11
-0.3536610946
 21
-0.3536610946
 31
0.0
 40
0.9996954599
 41
2.3563467834
 42
3.9268385237
  0
ELLIPSE
  5
4CF
100
AcDbEntity
  8
RACCORDO
100
AcDbEllipse
 62
7
  6
CONTINUOUS
 10
185.5844756418
 20
185.4154264469
 30
0.0
 11
0.3536610946
 21
-0.3536610946
 31
0.0
 40
0.9996954599
 41
2.3563467834
 42
3.9268385237
  0
ELLIPSE
  5
4D0
100
AcDbEntity
  8
RACCORDO
100
AcDbEllipse
 62
7
  6
CONTINUOUS
 10
185.5844756418
 20
132.865578775
 30
0.0
 11
0.3536610946
 21
0.3536610946
 31
0.0
 40
0.9996954599
 41
2.3563467834
 42
3.9268385237
  0
ELLIPSE
  5
4D1
100
AcDbEntity
  8
RACCORDO
100
AcDbEllipse
 62
7
  6
CONTINUOUS
 10
230.0343233138
 20
132.865578775
 30
0.0
 11
-0.3536610946
 21
0.3536610946
 31
0.0
 40
0.9996954599
 41
2.3563467834
 42
3.9268385237
  0
ELLIPSE
  5
4D2
100
AcDbEntity
  8
RACCORDO
100
AcDbEllipse
 62
7
  6
CONTINUOUS
 10
372.0343233138
 20
185.4154264469
 30
0.0
 11
-0.3536610946
 21
-0.3536610946
 31
0.0
 40
0.9996954599
 41
2.3563467834
 42
3.9268385237
  0
ELLIPSE
  5
4D3
100
AcDbEntity
  8
RACCORDO
100
AcDbEllipse
 62
7
  6
CONTINUOUS
 10
327.5844756418
 20
185.4154264469
 30
0.0
 11
0.3536610946
 21
-0.3536610946
 31
0.0
 40
0.9996954599
 41
2.3563467834
 42
3.9268385237
  0
ELLIPSE
  5
4D4
100
AcDbEntity
  8
RACCORDO
100
AcDbEllipse
 62
7
  6
CONTINUOUS
 10
327.5844756418
 20
132.865578775
 30
0.0
 11
0.3536610946
 21
0.3536610946
 31
0.0
 40
0.9996954599
 41
2.3563467834
 42
3.9268385237
  0
ELLIPSE
  5
4D5
100
AcDbEntity
  8
RACCORDO
100
AcDbEllipse
 62
7
  6
CONTINUOUS
 10
372.0343233138
 20
132.865578775
 30
0.0
 11
-0.3536610946
 21
0.3536610946
 31
0.0
 40
0.9996954599
 41
2.3563467834
 42
3.9268385237
  0
ELLIPSE
  5
4D6
100
AcDbEntity
  8
ASSI
100
AcDbEllipse
 62
7
  6
CONTINUOUS
 10
114.5844756418
 20
132.865578775
 30
0.0
 11
0.3536610946
 21
0.3536610946
 31
0.0
 40
0.9996954599
 41
2.3563467834
 42
3.9268385237
  0
ELLIPSE
  5
4D7
100
AcDbEntity
  8
ASSI
100
AcDbEllipse
 62
7
  6
CONTINUOUS
 10
159.0343233138
 20
132.865578775
 30
0.0
 11
-0.3536610946
 21
0.3536610946
 31
0.0
 40
0.9996954599
 41
2.3563467834
 42
3.9268385237
  0
ELLIPSE
  5
4D8
100
AcDbEntity
  8
ASSI
100
AcDbEllipse
 62
7
  6
CONTINUOUS
 10
159.0343233138
 20
185.4154264469
 30
0.0
 11
-0.3536610946
 21
-0.3536610946
 31
0.0
 40
0.9996954599
 41
2.3563467834
 42
3.9268385237
  0
ELLIPSE
  5
4D9
100
AcDbEntity
  8
ASSI
100
AcDbEllipse
 62
7
  6
CONTINUOUS
 10
114.5844756418
 20
185.4154264469
 30
0.0
 11
0.3536610946
 21
-0.3536610946
 31
0.0
 40
0.9996954599
 41
2.3563467834
 42
3.9268385237
  0
ELLIPSE
  5
4DA
100
AcDbEntity
  8
ASSI
100
AcDbEllipse
 62
7
  6
CONTINUOUS
 10
301.0343233138
 20
185.4154264469
 30
0.0
 11
-0.3536610946
 21
-0.3536610946
 31
0.0
 40
0.9996954599
 41
2.3563467834
 42
3.9268385237
  0
ELLIPSE
  5
4DB
100
AcDbEntity
  8
ASSI
100
AcDbEllipse
 62
7
  6
CONTINUOUS
 10
256.5844756418
 20
185.4154264469
 30
0.0
 11
0.3536610946
 21
-0.3536610946
 31
0.0
 40
0.9996954599
 41
2.3563467834
 42
3.9268385237
  0
ELLIPSE
  5
4DC
100
AcDbEntity
  8
ASSI
100
AcDbEllipse
 62
7
  6
CONTINUOUS
 10
256.5844756418
 20
132.865578775
 30
0.0
 11
0.3536610946
 21
0.3536610946
 31
0.0
 40
0.9996954599
 41
2.3563467834
 42
3.9268385237
  0
ELLIPSE
  5
4DD
100
AcDbEntity
  8
ASSI
100
AcDbEllipse
 62
7
  6
CONTINUOUS
 10
301.0343233138
 20
132.865578775
 30
0.0
 11
-0.3536610946
 21
0.3536610946
 31
0.0
 40
0.9996954599
 41
2.3563467834
 42
3.9268385237
  0
ELLIPSE
  5
4DE
100
AcDbEntity
  8
ASSI
100
AcDbEllipse
 62
7
  6
CONTINUOUS
 10
230.0343233138
 20
185.4154264469
 30
0.0
 11
-0.3536610946
 21
-0.3536610946
 31
0.0
 40
0.9996954599
 41
2.3563467834
 42
3.9268385237
  0
ELLIPSE
  5
4DF
100
AcDbEntity
  8
ASSI
100
AcDbEllipse
 62
7
  6
CONTINUOUS
 10
185.5844756418
 20
185.4154264469
 30
0.0
 11
0.3536610946
 21
-0.3536610946
 31
0.0
 40
0.9996954599
 41
2.3563467834
 42
3.9268385237
  0
ELLIPSE
  5
4E0
100
AcDbEntity
  8
ASSI
100
AcDbEllipse
 62
7
  6
CONTINUOUS
 10
185.5844756418
 20
132.865578775
 30
0.0
 11
0.3536610946
 21
0.3536610946
 31
0.0
 40
0.9996954599
 41
2.3563467834
 42
3.9268385237
  0
ELLIPSE
  5
4E1
100
AcDbEntity
  8
ASSI
100
AcDbEllipse
 62
7
  6
CONTINUOUS
 10
230.0343233138
 20
132.865578775
 30
0.0
 11
-0.3536610946
 21
0.3536610946
 31
0.0
 40
0.9996954599
 41
2.3563467834
 42
3.9268385237
  0
ELLIPSE
  5
4E2
100
AcDbEntity
  8
ASSI
100
AcDbEllipse
 62
7
  6
CONTINUOUS
 10
372.0343233138
 20
185.4154264469
 30
0.0
 11
-0.3536610946
 21
-0.3536610946
 31
0.0
 40
0.9996954599
 41
2.3563467834
 42
3.9268385237
  0
ELLIPSE
  5
4E3
100
AcDbEntity
  8
ASSI
100
AcDbEllipse
 62
7
  6
CONTINUOUS
 10
327.5844756418
 20
185.4154264469
 30
0.0
 11
0.3536610946
 21
-0.3536610946
 31
0.0
 40
0.9996954599
 41
2.3563467834
 42
3.9268385237
  0
ELLIPSE
  5
4E4
100
AcDbEntity
  8
ASSI
100
AcDbEllipse
 62
7
  6
CONTINUOUS
 10
327.5844756418
 20
132.865578775
 30
0.0
 11
0.3536610946
 21
0.3536610946
 31
0.0
 40
0.9996954599
 41
2.3563467834
 42
3.9268385237
  0
ELLIPSE
  5
4E5
100
AcDbEntity
  8
ASSI
100
AcDbEllipse
 62
7
  6
CONTINUOUS
 10
372.0343233138
 20
132.865578775
 30
0.0
 11
-0.3536610946
 21
0.3536610946
 31
0.0
 40
0.9996954599
 41
2.3563467834
 42
3.9268385237
  0
ENDSEC
  0
SECTION
  2
OBJECTS
  0
DICTIONARY
  5
C
100
AcDbDictionary
280
0
281
1
  3
ACAD_GROUP
350
D
  3
ACAD_MLINESTYLE
350
17
  3
ACAD_LAYOUT
350
1A
  3
ACAD_PLOTSETTINGS
350
19
  3
ACAD_PLOTSTYLENAME
350
E
  0
DICTIONARY
  5
D
102
{ACAD_REACTORS
330
C
102
}
100
AcDbDictionary
280
0
281
1
  0
ACDBDICTIONARYWDFLT
  5
E
102
{ACAD_REACTORS
330
C
102
}
100
AcDbDictionary
281
1
  3
Normal
350
F
100
AcDbDictionaryWithDefault
340
F
  0
DICTIONARY
  5
17
102
{ACAD_REACTORS
330
C
102
}
100
AcDbDictionary
280
0
281
1
  3
Standard
350
18
  0
DICTIONARY
  5
19
102
{ACAD_REACTORS
330
C
102
}
100
AcDbDictionary
281
1
  0
DICTIONARY
  5
1A
102
{ACAD_REACTORS
330
C
102
}
100
AcDbDictionary
281
1
  3
Model
350
4E6
  3
Layout1
350
4E7
  0
ACDBPLACEHOLDER
  5
F
102
{ACAD_REACTORS
330
E
102
}
  0
MLINESTYLE
  5
18
102
{ACAD_REACTORS
330
17
102
}
100
AcDbMlineStyle
  2
STANDARD
 70
0
  3

 62
256
 51
90.0
 52
90.0
 71
2
 49
0.5
 62
256
  6
BYLAYER
 49
-0.5
 62
256
  6
BYLAYER
  0
LAYOUT
  5
4E6
102
{ACAD_REACTORS
330
1A
102
}
100
AcDbPlotSettings
  1

  2
none_device
  4
ISO_A3_(420.00_x_297.00_MM)
  6

 40
0.0
 41
0.0
 42
0.0
 43
0.0
 44
420.0
 45
297.0
 46
0.0
 47
0.0
 48
0.0
 49
0.0
140
0.0
141
0.0
142
1.0
143
1.0
 70
1024
 72
1
 73
0
 74
0
  7

 75
0
147
1.0
148
0.0
149
0.0
100
AcDbLayout
  1
Model
 70
0
 71
0
 10
0.0
 20
0.0
 11
420.0
 21
297.0
 12
0.0
 22
0.0
 32
0.0
 14
0.0
 24
0.0
 34
0.0
 15
0.0
 25
0.0
 35
0.0
146
0.0
 13
0.0
 23
0.0
 33
0.0
 16
1.0
 26
0.0
 36
0.0
 17
0.0
 27
1.0
 37
0.0
 76
0
330
216
345
0
346
0
  0
LAYOUT
  5
4E7
102
{ACAD_REACTORS
330
1A
102
}
100
AcDbPlotSettings
  1

  2
none_device
  4
ISO_A3_(420.00_x_297.00_MM)
  6

 40
0.0
 41
0.0
 42
0.0
 43
0.0
 44
420.0
 45
297.0
 46
0.0
 47
0.0
 48
0.0
 49
0.0
140
0.0
141
0.0
142
1.0
143
1.0
 70
0
 72
1
 73
0
 74
0
  7

 75
0
147
1.0
148
0.0
149
0.0
100
AcDbLayout
  1
Layout1
 70
0
 71
1
 10
0.0
 20
0.0
 11
420.0
 21
297.0
 12
0.0
 22
0.0
 32
0.0
 14
0.0
 24
0.0
 34
0.0
 15
0.0
 25
0.0
 35
0.0
146
0.0
 13
0.0
 23
0.0
 33
0.0
 16
1.0
 26
0.0
 36
0.0
 17
0.0
 27
1.0
 37
0.0
 76
0
330
217
345
0
346
0
  0
ENDSEC
  0
EOF
