  0
SECTION
  2
HEADER
  9
$ACADVER
  1
AC1024
  9
$DWGCODEPAGE
  3
ANSI_1252
  9
$EXTMAX
 10
420.0
 20
297.0
 30
0.0
  9
$EXTMIN
 10
0.0
 20
0.0
 30
0.0
  9
$LIMMIN
 10
0.0
 20
0.0
  9
$LIMMAX
 10
420.0
 20
297.0
  9
$VIEWCTR
 10
210.0
 20
148.5
  9
$VIEWSIZE
 40
297.0
  9
$CLAYER
  8
0
  9
$LTSCALE
 40
23.1
  9
$CELTYPE
  6
BYLAYER
  9
$DIMSCALE
 40
1.0
  9
$DIMASZ
 40
3.0
  9
$DIMEXO
 40
0.5
  9
$DIMDLI
 40
15.96
  9
$DIMEXE
 40
1.5
  9
$DIMCEN
 40
3.78
  9
$DIMLFAC
 40
1.0
  9
$DIMBLK
  1
_FILLED
  9
$DIMALT
 70
0
  9
$DIMALTF
 40
0.0393700787
  9
$DIMTXT
 40
3.0
  9
$DIMTOL
 70
1
  9
$DIMLIM
 70
0
  9
$DIMTFAC
 40
1.0
  9
$DIMTP
 40
0.01
  9
$DIMTM
 40
0.01
  9
$DIMGAP
 40
0.625
  9
$DIMDSEP
 70
44
  9
$AUNITS
 70
0
  9
$PDMODE
 70
3
  9
$PDSIZE
 40
3.0
  9
$HANDSEED
  5
3B2
  9
$TILEMODE
 70
1
  9
$MEASUREMENT
 70
1
  9
$INSUNITS
 70
4
  0
ENDSEC
  0
SECTION
  2
CLASSES
  0
CLASS
  1
ACDBDICTIONARYWDFLT
  2
AcDbDictionaryWithDefault
  3
AutoCAD 2000
 90
0
 91
1
280
0
281
0
  0
CLASS
  1
ACDBPLACEHOLDER
  2
AcDbPlaceHolder
  3
AutoCAD 2000
 90
0
 91
1
280
0
281
0
  0
CLASS
  1
LAYOUT
  2
AcDbLayout
  3
AutoCAD 2000
 90
0
 91
0
280
0
281
0
  0
ENDSEC
  0
SECTION
  2
TABLES
  0
TABLE
  2
VPORT
  5
8
100
AcDbSymbolTable
 70
2
  0
VPORT
  5
1F4
100
AcDbSymbolTableRecord
100
AcDbViewportTableRecord
  2
*ACTIVE
 70
0
 10
0.0
 20
0.0
 11
1.0
 21
1.0
 12
210.0
 22
148.5
 13
0.0
 23
0.0
 14
1.0
 24
1.0
 15
0.0
 25
0.0
 16
0.0
 26
0.0
 36
1.0
 17
0.0
 27
0.0
 37
0.0
 40
297.0
 41
1.4141414141
 42
50.0
 43
0.0
 44
0.0
 50
0.0
 51
0.0
 71
0
 72
100
 73
1
 74
1
 75
0
 76
0
 77
0
 78
0
  0
ENDTAB
  0
TABLE
  2
LTYPE
  5
5
100
AcDbSymbolTable
 70
6
  0
LTYPE
  5
14
100
AcDbSymbolTableRecord
100
AcDbLinetypeTableRecord
  2
BYBLOCK
 70
0
  3

 72
65
 73
0
 40
0.0
  0
LTYPE
  5
15
100
AcDbSymbolTableRecord
100
AcDbLinetypeTableRecord
  2
BYLAYER
 70
0
  3

 72
65
 73
0
 40
0.0
  0
LTYPE
  5
16
100
AcDbSymbolTableRecord
100
AcDbLinetypeTableRecord
  2
CONTINUOUS
 70
64
  3
Solid line
 72
65
 73
0
 40
0.0
  0
LTYPE
  5
1F5
100
AcDbSymbolTableRecord
100
AcDbLinetypeTableRecord
  2
CENTER
 70
64
  3
____ _ ____ _ ____ _ ____ _ ____ _ ____ _ ____
 72
65
 73
4
 40
0.6
 49
0.375
 74
0
 49
-0.075
 74
0
 49
0.075
 74
0
 49
-0.075
 74
0
  0
LTYPE
  5
1F6
100
AcDbSymbolTableRecord
100
AcDbLinetypeTableRecord
  2
HIDDEN
 70
64
  3
- - - - - - - - - - - - - - - - - - - -
 72
65
 73
2
 40
0.2
 49
0.1
 74
0
 49
-0.1
 74
0
  0
LTYPE
  5
1F7
100
AcDbSymbolTableRecord
100
AcDbLinetypeTableRecord
  2
PHANTOM
 70
64
  3
_____ _ _ _____ _ _ _____ _ _ _____
 72
65
 73
6
 40
0.8
 49
0.45
 74
0
 49
-0.05
 74
0
 49
0.1
 74
0
 49
-0.05
 74
0
 49
0.1
 74
0
 49
-0.05
 74
0
  0
LTYPE
  5
1F8
100
AcDbSymbolTableRecord
100
AcDbLinetypeTableRecord
  2
DOT
 70
64
  3
. . . . . . . . . . . . . . . . . . . .
 72
65
 73
2
 40
0.2
 49
0.1
 74
0
 49
-0.1
 74
0
  0
LTYPE
  5
1F9
100
AcDbSymbolTableRecord
100
AcDbLinetypeTableRecord
  2
DASHED
 70
64
  3
- - - - - - - - - - - - - - - - - - - -
 72
65
 73
2
 40
0.2
 49
0.1
 74
0
 49
-0.1
 74
0
  0
ENDTAB
  0
TABLE
  2
LAYER
  5
2
100
AcDbSymbolTable
 70
36
  0
LAYER
  5
10
100
AcDbSymbolTableRecord
100
AcDbLayerTableRecord
  2
0
 70
0
 62
7
  6
CONTINUOUS
370
-3
390
F
  0
LAYER
  5
1FA
100
AcDbSymbolTableRecord
100
AcDbLayerTableRecord
  2
DEFAULT_1
 70
0
 62
7
  6
CENTER
370
-3
390
F
  0
LAYER
  5
1FB
100
AcDbSymbolTableRecord
100
AcDbLayerTableRecord
  2
DEFAULT_2
 70
0
 62
7
  6
HIDDEN
370
-3
390
F
  0
LAYER
  5
1FC
100
AcDbSymbolTableRecord
100
AcDbLayerTableRecord
  2
DEFAULT_3
 70
0
 62
7
  6
PHANTOM
370
-3
390
F
  0
LAYER
  5
1FD
100
AcDbSymbolTableRecord
100
AcDbLayerTableRecord
  2
ASSI
 70
0
 62
7
  6
CONTINUOUS
370
-3
390
F
  0
LAYER
  5
1FE
100
AcDbSymbolTableRecord
100
AcDbLayerTableRecord
  2
COORDINATE
 70
0
 62
7
  6
CONTINUOUS
370
-3
390
F
  0
LAYER
  5
1FF
100
AcDbSymbolTableRecord
100
AcDbLayerTableRecord
  2
COPY_PUBLISH
 70
0
 62
7
  6
CONTINUOUS
370
-3
390
F
  0
LAYER
  5
200
100
AcDbSymbolTableRecord
100
AcDbLayerTableRecord
  2
COSMETICI
 70
0
 62
7
  6
CONTINUOUS
370
-3
390
F
  0
LAYER
  5
201
100
AcDbSymbolTableRecord
100
AcDbLayerTableRecord
  2
CURVE
 70
0
 62
7
  6
CONTINUOUS
370
-3
390
F
  0
LAYER
  5
202
100
AcDbSymbolTableRecord
100
AcDbLayerTableRecord
  2
DRAFT
 70
0
 62
7
  6
CONTINUOUS
370
-3
390
F
  0
LAYER
  5
203
100
AcDbSymbolTableRecord
100
AcDbLayerTableRecord
  2
IMPORT_IGES
 70
0
 62
7
  6
CONTINUOUS
370
-3
390
F
  0
LAYER
  5
204
100
AcDbSymbolTableRecord
100
AcDbLayerTableRecord
  2
INTF_1
 70
0
 62
7
  6
CONTINUOUS
370
-3
390
F
  0
LAYER
  5
205
100
AcDbSymbolTableRecord
100
AcDbLayerTableRecord
  2
INTF_11
 70
0
 62
7
  6
CONTINUOUS
370
-3
390
F
  0
LAYER
  5
206
100
AcDbSymbolTableRecord
100
AcDbLayerTableRecord
  2
INTF_13
 70
0
 62
7
  6
CONTINUOUS
370
-3
390
F
  0
LAYER
  5
207
100
AcDbSymbolTableRecord
100
AcDbLayerTableRecord
  2
INTF_2
 70
0
 62
7
  6
CONTINUOUS
370
-3
390
F
  0
LAYER
  5
208
100
AcDbSymbolTableRecord
100
AcDbLayerTableRecord
  2
NOTE
 70
0
 62
7
  6
CONTINUOUS
370
-3
390
F
  0
LAYER
  5
209
100
AcDbSymbolTableRecord
100
AcDbLayerTableRecord
  2
PIANI
 70
0
 62
7
  6
CONTINUOUS
370
-3
390
F
  0
LAYER
  5
20A
100
AcDbSymbolTableRecord
100
AcDbLayerTableRecord
  2
PUNTI
 70
0
 62
7
  6
CONTINUOUS
370
-3
390
F
  0
LAYER
  5
20B
100
AcDbSymbolTableRecord
100
AcDbLayerTableRecord
  2
RACCORDO
 70
0
 62
7
  6
CONTINUOUS
370
-3
390
F
  0
LAYER
  5
20C
100
AcDbSymbolTableRecord
100
AcDbLayerTableRecord
  2
SIMBOLI
 70
0
 62
7
  6
CONTINUOUS
370
-3
390
F
  0
LAYER
  5
20D
100
AcDbSymbolTableRecord
100
AcDbLayerTableRecord
  2
SMUSSO
 70
0
 62
7
  6
CONTINUOUS
370
-3
390
F
  0
LAYER
  5
20E
100
AcDbSymbolTableRecord
100
AcDbLayerTableRecord
  2
SNAPLINE
 70
0
 62
7
  6
CONTINUOUS
370
-3
390
F
  0
LAYER
  5
20F
100
AcDbSymbolTableRecord
100
AcDbLayerTableRecord
  2
SUPERFICI
 70
0
 62
7
  6
CONTINUOUS
370
-3
390
F
  0
LAYER
  5
210
100
AcDbSymbolTableRecord
100
AcDbLayerTableRecord
  2
TRASH
 70
0
 62
7
  6
CONTINUOUS
370
-3
390
F
  0
ENDTAB
  0
TABLE
  2
STYLE
  5
3
100
AcDbSymbolTable
 70
1
  0
STYLE
  5
11
100
AcDbSymbolTableRecord
100
AcDbTextStyleTableRecord
  2
STANDARD
 70
0
 40
0.0
 41
0.8
 50
0.0
 71
0
 42
0.2
  3
txt
  4

  0
STYLE
  5
211
100
AcDbSymbolTableRecord
100
AcDbTextStyleTableRecord
  2
TEXTSTYLE_1
 70
0
 40
0.0
 41
0.8
 50
0.0
 71
0
 42
0.2
  3
gdt
  4

  0
ENDTAB
  0
TABLE
  2
VIEW
  5
6
100
AcDbSymbolTable
 70
0
  0
ENDTAB
  0
TABLE
  2
UCS
  5
7
100
AcDbSymbolTable
 70
0
  0
ENDTAB
  0
TABLE
  2
APPID
  5
9
100
AcDbSymbolTable
 70
1
  0
APPID
  5
212
100
AcDbSymbolTableRecord
100
AcDbRegAppTableRecord
  2
ACAD
 70
0
  0
ENDTAB
  0
TABLE
  2
BLOCK_RECORD
  5
1
100
AcDbSymbolTable
 70
0
  0
BLOCK_RECORD
  5
213
100
AcDbSymbolTableRecord
100
AcDbBlockTableRecord
  2
*Model_Space
  0
BLOCK_RECORD
  5
214
100
AcDbSymbolTableRecord
100
AcDbBlockTableRecord
  2
*Paper_Space
  0
BLOCK_RECORD
  5
215
100
AcDbSymbolTableRecord
100
AcDbBlockTableRecord
  2
_FILLED
  0
BLOCK_RECORD
  5
216
100
AcDbSymbolTableRecord
100
AcDbBlockTableRecord
  2
*D0
  0
BLOCK_RECORD
  5
217
100
AcDbSymbolTableRecord
100
AcDbBlockTableRecord
  2
*D1
  0
BLOCK_RECORD
  5
218
100
AcDbSymbolTableRecord
100
AcDbBlockTableRecord
  2
*D2
  0
ENDTAB
  0
TABLE
  2
DIMSTYLE
  5
A
100
AcDbSymbolTable
 70
1
100
AcDbDimStyleTable
 71
0
  0
DIMSTYLE
105
219
100
AcDbSymbolTableRecord
100
AcDbDimStyleTableRecord
  2
STANDARD
 70
0
  3

  4

 40
1.0
 41
3.0
 42
0.5
 43
0.38
 44
1.5
 45
0.0
 46
0.0
 47
0.01
 48
0.01
140
3.0
141
0.09
142
0.0
143
25.4
144
1.0
145
0.0
146
1.0
147
0.625
 71
1
 72
0
 73
0
 74
0
 75
0
 76
0
 77
1
 78
8
 79
2
170
0
171
1
172
0
173
0
174
0
175
0
176
0
177
0
178
0
270
2
179
2
271
2
272
2
273
2
274
2
275
0
280
0
281
0
282
0
283
1
284
8
285
0
286
0
287
3
288
0
340
11
278
44
341
215
342
215
343
215
344
215
  0
DIMSTYLE
105
21A
100
AcDbSymbolTableRecord
100
AcDbDimStyleTableRecord
  2
DIMSTYLE_1
 70
0
  3

  4

 40
1.0
 41
3.0
 42
0.5
 43
0.38
 44
1.5
 45
0.0
 46
0.0
 47
0.0
 48
0.0
140
3.0
141
0.09
142
0.0
143
25.4
144
1.0
145
0.0
146
1.0
147
0.75
 71
0
 72
0
 73
0
 74
0
 75
0
 76
0
 77
1
 78
8
 79
2
170
0
171
1
172
0
173
0
174
0
175
0
176
0
177
0
178
0
270
2
179
2
271
2
272
2
273
2
274
2
275
0
280
0
281
0
282
0
283
1
284
8
285
0
286
0
287
3
288
0
340
11
278
44
341
215
342
215
343
215
344
215
  0
ENDTAB
  0
ENDSEC
  0
SECTION
  2
BLOCKS
  0
BLOCK
  5
20
100
AcDbEntity
  8
0
100
AcDbBlockBegin
  2
*Model_Space
 70
0
 10
0.0
 20
0.0
 30
0.0
  3
*Model_Space
  1

  0
ENDBLK
  5
21
100
AcDbEntity
  8
0
100
AcDbBlockEnd
  0
BLOCK
  5
1C
100
AcDbEntity
  8
0
100
AcDbBlockBegin
  2
*Paper_Space
 70
0
 10
0.0
 20
0.0
 30
0.0
  3
*Paper_Space
  1

  0
ENDBLK
  5
1D
100
AcDbEntity
  8
0
100
AcDbBlockEnd
  0
BLOCK
  5
21B
100
AcDbEntity
  8
0
100
AcDbBlockBegin
  2
_FILLED
 70
64
 10
0.0
 20
0.0
  3
_FILLED
  1

  0
SOLID
  5
21C
100
AcDbEntity
  8
0
  6
BYBLOCK
 62
0
100
AcDbTrace
 10
0.0
 20
0.0
 11
-1.0
 21
0.3166666667
 12
-1.0
 22
-0.3166666667
 13
-1.0
 23
-0.3166666667
  0
ENDBLK
  5
21D
100
AcDbEntity
  8
0
  6
BYBLOCK
 62
0
100
AcDbBlockEnd
  0
BLOCK
  5
21E
100
AcDbEntity
  8
0
100
AcDbBlockBegin
 62
7
  6
CONTINUOUS
  2
*D0
 70
65
 10
0.0
 20
0.0
  3
*D0
  1

  0
MTEXT
  5
21F
100
AcDbEntity
  8
0
100
AcDbMText
 62
7
  6
CONTINUOUS
  7
STANDARD
 71
2
 72
1
 10
243.7720300261
 20
197.3105417755
 30
0.0
 11
1.0
 21
0.0
 31
0.0
 73
2
 44
0.9
  1
{\ftxt;\W0.0001;\H0.0001;\~}{\ftxt;\W2.2142857143;\H3.0; }{\ftxt;\W0.0001;\H0.0001;\~}
 40
3.0
 41
9.9642857143
  0
LINE
  5
220
100
AcDbEntity
  8
0
100
AcDbLine
 62
7
  6
CONTINUOUS
 10
92.2720300261
 20
186.0605417755
 11
92.2720300261
 21
195.0605417755
  0
LINE
  5
221
100
AcDbEntity
  8
0
100
AcDbLine
 62
7
  6
CONTINUOUS
 10
395.2720300261
 20
186.0605417755
 11
395.2720300261
 21
195.0605417755
  0
LINE
  5
222
100
AcDbEntity
  8
0
100
AcDbLine
 62
7
  6
CONTINUOUS
 10
92.2720300261
 20
193.5605417755
 11
243.7720300261
 21
193.5605417755
  0
LINE
  5
223
100
AcDbEntity
  8
0
100
AcDbLine
 62
7
  6
CONTINUOUS
 10
395.2720300261
 20
193.5605417755
 11
243.7720300261
 21
193.5605417755
  0
INSERT
  5
224
100
AcDbEntity
  8
0
100
AcDbBlockReference
 62
7
  6
CONTINUOUS
  2
_FILLED
 10
92.2720300261
 20
193.5605417755
 41
3.0
 42
3.0
 43
3.0
 50
180.0
  0
INSERT
  5
225
100
AcDbEntity
  8
0
100
AcDbBlockReference
 62
7
  6
CONTINUOUS
  2
_FILLED
 10
395.2720300261
 20
193.5605417755
 41
3.0
 42
3.0
 43
3.0
  0
ENDBLK
  5
226
100
AcDbEntity
  8
0
  6
BYBLOCK
 62
0
100
AcDbBlockEnd
  0
BLOCK
  5
227
100
AcDbEntity
  8
0
100
AcDbBlockBegin
 62
7
  6
CONTINUOUS
  2
*D1
 70
65
 10
0.0
 20
0.0
  3
*D1
  1

  0
MTEXT
  5
228
100
AcDbEntity
  8
0
100
AcDbMText
 62
7
  6
CONTINUOUS
  7
STANDARD
 71
2
 72
1
 10
399.5220300261
 20
141.5605417755
 30
0.0
 11
0.0
 21
1.0
 31
0.0
 73
2
 44
0.9
  1
{\ftxt;\W0.0001;\H0.0001;\~}{\ftxt;\W1.5714285714;\H3.0; }{\ftxt;\W0.0001;\H0.0001;\~}
 40
3.0
 41
7.0714285714
  0
LINE
  5
229
100
AcDbEntity
  8
0
100
AcDbLine
 62
7
  6
CONTINUOUS
 10
395.7720300261
 20
185.5605417755
 11
404.7720300261
 21
185.5605417755
  0
LINE
  5
22A
100
AcDbEntity
  8
0
100
AcDbLine
 62
7
  6
CONTINUOUS
 10
395.7720300261
 20
97.5605417755
 11
404.7720300261
 21
97.5605417755
  0
LINE
  5
22B
100
AcDbEntity
  8
0
100
AcDbLine
 62
7
  6
CONTINUOUS
 10
403.2720300261
 20
185.5605417755
 11
403.2720300261
 21
141.5605417755
  0
LINE
  5
22C
100
AcDbEntity
  8
0
100
AcDbLine
 62
7
  6
CONTINUOUS
 10
403.2720300261
 20
97.5605417755
 11
403.2720300261
 21
141.5605417755
  0
INSERT
  5
22D
100
AcDbEntity
  8
0
100
AcDbBlockReference
 62
7
  6
CONTINUOUS
  2
_FILLED
 10
403.2720300261
 20
185.5605417755
 41
3.0
 42
3.0
 43
3.0
 50
90.0
  0
INSERT
  5
22E
100
AcDbEntity
  8
0
100
AcDbBlockReference
 62
7
  6
CONTINUOUS
  2
_FILLED
 10
403.2720300261
 20
97.5605417755
 41
3.0
 42
3.0
 43
3.0
 50
270.0
  0
ENDBLK
  5
22F
100
AcDbEntity
  8
0
  6
BYBLOCK
 62
0
100
AcDbBlockEnd
  0
BLOCK
  5
230
100
AcDbEntity
  8
0
100
AcDbBlockBegin
 62
7
  6
CONTINUOUS
  2
*D2
 70
65
 10
0.0
 20
0.0
  3
*D2
  1

  0
MTEXT
  5
231
100
AcDbEntity
  8
0
100
AcDbMText
 62
7
  6
CONTINUOUS
  7
STANDARD
 71
2
 72
1
 10
65.1966383812
 20
197.3105417755
 30
0.0
 11
1.0
 21
0.0
 31
0.0
 73
2
 44
0.9
  1
{\ftxt;\W0.0001;\H0.0001;\~}{\ftxt;\W2.1428571429;\H3.0; }{\ftxt;\W0.0001;\H0.0001;\~}
 40
3.0
 41
9.6428571429
  0
LINE
  5
232
100
AcDbEntity
  8
0
100
AcDbLine
 62
7
  6
CONTINUOUS
 10
61.2966383812
 20
185.5605417755
 11
61.2966383812
 21
195.0605417755
  0
LINE
  5
233
100
AcDbEntity
  8
0
100
AcDbLine
 62
7
  6
CONTINUOUS
 10
69.0966383812
 20
183.7820867898
 11
69.0966383812
 21
195.0605417755
  0
LINE
  5
234
100
AcDbEntity
  8
0
100
AcDbLine
 62
7
  6
CONTINUOUS
 10
61.2966383812
 20
193.5605417755
 11
57.2966383812
 21
193.5605417755
  0
LINE
  5
235
100
AcDbEntity
  8
0
100
AcDbLine
 62
7
  6
CONTINUOUS
 10
57.2966383812
 20
193.5605417755
 11
65.1966383812
 21
193.5605417755
  0
LINE
  5
236
100
AcDbEntity
  8
0
100
AcDbLine
 62
7
  6
CONTINUOUS
 10
69.0966383812
 20
193.5605417755
 11
73.0966383812
 21
193.5605417755
  0
LINE
  5
237
100
AcDbEntity
  8
0
100
AcDbLine
 62
7
  6
CONTINUOUS
 10
73.0966383812
 20
193.5605417755
 11
65.1966383812
 21
193.5605417755
  0
INSERT
  5
238
100
AcDbEntity
  8
0
100
AcDbBlockReference
 62
7
  6
CONTINUOUS
  2
_FILLED
 10
61.2966383812
 20
193.5605417755
 41
3.0
 42
3.0
 43
3.0
  0
INSERT
  5
239
100
AcDbEntity
  8
0
100
AcDbBlockReference
 62
7
  6
CONTINUOUS
  2
_FILLED
 10
69.0966383812
 20
193.5605417755
 41
3.0
 42
3.0
 43
3.0
 50
180.0
  0
ENDBLK
  5
23A
100
AcDbEntity
  8
0
  6
BYBLOCK
 62
0
100
AcDbBlockEnd
  0
ENDSEC
  0
SECTION
  2
ENTITIES
  0
DIMENSION
  5
23B
100
AcDbEntity
  8
0
100
AcDbDimension
 62
7
  6
CONTINUOUS
  2
*D0
 10
395.2720300261
 20
193.5605417755
 11
243.3434472656
 21
193.5605417755
 70
160
 71
2
 72
2
 41
0.9
 42
303.0
  1
{\ftxt;\W0.0001;\H0.0001;\~}{\ftxt;\W2.2142857143;\H3.0; }{\ftxt;\W0.0001;\H0.0001;\~}
  3
DIMSTYLE_1
100
AcDbAlignedDimension
 13
92.2720300261
 23
185.5605417755
 14
395.2720300261
 24
185.5605417755
100
AcDbRotatedDimension
  0
DIMENSION
  5
23C
100
AcDbEntity
  8
0
100
AcDbDimension
 62
7
  6
CONTINUOUS
  2
*D1
 10
403.2720300261
 20
97.5605417755
 11
403.2720300261
 21
141.1319737506
 70
160
 71
2
 72
2
 41
0.9
 42
88.0
  1
{\ftxt;\W0.0001;\H0.0001;\~}{\ftxt;\W1.5714285714;\H3.0; }{\ftxt;\W0.0001;\H0.0001;\~}
  3
DIMSTYLE_1
100
AcDbAlignedDimension
 13
395.2720300261
 23
185.5605417755
 14
395.2720300261
 24
97.5605417755
 50
270.0
100
AcDbRotatedDimension
  0
DIMENSION
  5
23D
100
AcDbEntity
  8
0
100
AcDbDimension
 62
7
  6
CONTINUOUS
  2
*D2
 10
69.0966383812
 20
193.5605417755
 11
64.768065033
 21
193.5605417755
 70
160
 71
2
 72
2
 41
0.9
 42
7.8
  1
{\ftxt;\W0.0001;\H0.0001;\~}{\ftxt;\W2.1428571429;\H3.0; }{\ftxt;\W0.0001;\H0.0001;\~}
  3
DIMSTYLE_1
100
AcDbAlignedDimension
 13
61.2966383812
 23
185.0605417755
 14
69.0966383812
 24
183.2820867898
100
AcDbRotatedDimension
  0
LINE
  5
23E
100
AcDbEntity
  8
RACCORDO
100
AcDbLine
 62
7
  6
CONTINUOUS
 10
92.2720300261
 20
185.5605417755
 11
92.2720300261
 21
97.5605417755
  0
LINE
  5
23F
100
AcDbEntity
  8
0
100
AcDbLine
 62
7
  6
CONTINUOUS
 10
92.2720300261
 20
185.5605417755
 11
92.2720300261
 21
97.5605417755
  0
LINE
  5
240
100
AcDbEntity
  8
RACCORDO
100
AcDbLine
 62
250
  6
CONTINUOUS
 10
92.7720300261
 20
185.0605417755
 11
92.7720300261
 21
98.0605417755
  0
LINE
  5
241
100
AcDbEntity
  8
0
100
AcDbLine
 62
250
  6
CONTINUOUS
 10
92.7720300261
 20
185.0605417755
 11
92.7720300261
 21
98.0605417755
  0
LINE
  5
242
100
AcDbEntity
  8
RACCORDO
100
AcDbLine
 62
250
  6
CONTINUOUS
 10
114.1970300261
 20
115.3355417755
 11
114.1970300261
 21
167.7855417755
  0
LINE
  5
243
100
AcDbEntity
  8
0
100
AcDbLine
 62
250
  6
CONTINUOUS
 10
114.1970300261
 20
115.3355417755
 11
114.1970300261
 21
167.7855417755
  0
LINE
  5
244
100
AcDbEntity
  8
RACCORDO
100
AcDbLine
 62
7
  6
CONTINUOUS
 10
114.4970300261
 20
115.3355417755
 11
114.4970300261
 21
167.7855417755
  0
LINE
  5
245
100
AcDbEntity
  8
0
100
AcDbLine
 62
7
  6
CONTINUOUS
 10
114.4970300261
 20
115.3355417755
 11
114.4970300261
 21
167.7855417755
  0
LINE
  5
246
100
AcDbEntity
  8
RACCORDO
100
AcDbLine
 62
250
  6
CONTINUOUS
 10
115.0970300261
 20
168.6855417755
 11
115.0970300261
 21
168.3855417755
  0
LINE
  5
247
100
AcDbEntity
  8
0
100
AcDbLine
 62
250
  6
CONTINUOUS
 10
115.0970300261
 20
168.6855417755
 11
115.0970300261
 21
168.3855417755
  0
LINE
  5
248
100
AcDbEntity
  8
RACCORDO
100
AcDbLine
 62
250
  6
CONTINUOUS
 10
115.0970300261
 20
114.4355417755
 11
115.0970300261
 21
114.7355417755
  0
LINE
  5
249
100
AcDbEntity
  8
0
100
AcDbLine
 62
250
  6
CONTINUOUS
 10
115.0970300261
 20
114.4355417755
 11
115.0970300261
 21
114.7355417755
  0
LINE
  5
24A
100
AcDbEntity
  8
RACCORDO
100
AcDbLine
 62
250
  6
CONTINUOUS
 10
159.4470300261
 20
168.6855417755
 11
159.4470300261
 21
168.3855417755
  0
LINE
  5
24B
100
AcDbEntity
  8
0
100
AcDbLine
 62
250
  6
CONTINUOUS
 10
159.4470300261
 20
168.6855417755
 11
159.4470300261
 21
168.3855417755
  0
LINE
  5
24C
100
AcDbEntity
  8
RACCORDO
100
AcDbLine
 62
250
  6
CONTINUOUS
 10
159.4470300261
 20
114.4355417755
 11
159.4470300261
 21
114.7355417755
  0
LINE
  5
24D
100
AcDbEntity
  8
0
100
AcDbLine
 62
250
  6
CONTINUOUS
 10
159.4470300261
 20
114.4355417755
 11
159.4470300261
 21
114.7355417755
  0
LINE
  5
24E
100
AcDbEntity
  8
RACCORDO
100
AcDbLine
 62
7
  6
CONTINUOUS
 10
160.0470300261
 20
167.7855417755
 11
160.0470300261
 21
115.3355417755
  0
LINE
  5
24F
100
AcDbEntity
  8
0
100
AcDbLine
 62
7
  6
CONTINUOUS
 10
160.0470300261
 20
167.7855417755
 11
160.0470300261
 21
115.3355417755
  0
LINE
  5
250
100
AcDbEntity
  8
RACCORDO
100
AcDbLine
 62
250
  6
CONTINUOUS
 10
160.3470300261
 20
167.7855417755
 11
160.3470300261
 21
115.3355417755
  0
LINE
  5
251
100
AcDbEntity
  8
0
100
AcDbLine
 62
250
  6
CONTINUOUS
 10
160.3470300261
 20
167.7855417755
 11
160.3470300261
 21
115.3355417755
  0
LWPOLYLINE
  5
252
100
AcDbEntity
  8
RACCORDO
100
AcDbPolyline
 62
7
  6
CONTINUOUS
 90
10
 70
0
 10
160.0470300261
 20
160.0312376045
 10
160.0383597542
 20
159.9995705987
 10
160.0303801486
 20
159.9602935795
 10
160.0250405477
 20
159.920571457
 10
160.0223647775
 20
159.8805814757
 10
160.0223647775
 20
159.8405020752
 10
160.0250405477
 20
159.8005120939
 10
160.0303801486
 20
159.7607899714
 10
160.0383597542
 20
159.7215129521
 10
160.0470300261
 20
159.6898459464
  0
LWPOLYLINE
  5
253
100
AcDbEntity
  8
RACCORDO
100
AcDbPolyline
 62
7
  6
CONTINUOUS
 90
10
 70
0
 10
160.0470300261
 20
123.4312376045
 10
160.0383597542
 20
123.3995705987
 10
160.0303801486
 20
123.3602935795
 10
160.0250405477
 20
123.320571457
 10
160.0223647775
 20
123.2805814757
 10
160.0223647775
 20
123.2405020752
 10
160.0250405477
 20
123.2005120939
 10
160.0303801486
 20
123.1607899714
 10
160.0383597542
 20
123.1215129521
 10
160.0470300261
 20
123.0898459464
  0
LINE
  5
254
100
AcDbEntity
  8
RACCORDO
100
AcDbLine
 62
7
  6
CONTINUOUS
 10
92.6151624612
 20
97.9035683801
 11
92.2836368554
 21
97.5721345181
  0
LINE
  5
255
100
AcDbEntity
  8
0
100
AcDbLine
 62
7
  6
CONTINUOUS
 10
92.6151624612
 20
97.9035683801
 11
92.2836368554
 21
97.5721345181
  0
LWPOLYLINE
  5
256
100
AcDbEntity
  8
RACCORDO
100
AcDbPolyline
 62
7
  6
CONTINUOUS
 90
5
 70
0
 10
92.2836368554
 20
97.5721345181
 10
92.278474683
 20
97.5669864324
 10
92.2747920317
 20
97.56336918
 10
92.2726438127
 20
97.561239105
 10
92.2720300261
 20
97.5605417755
  0
LWPOLYLINE
  5
257
100
AcDbEntity
  8
0
100
AcDbPolyline
 62
7
  6
CONTINUOUS
 90
5
 70
0
 10
92.2836368554
 20
97.5721345181
 10
92.278474683
 20
97.5669864324
 10
92.2747920317
 20
97.56336918
 10
92.2726438127
 20
97.561239105
 10
92.2720300261
 20
97.5605417755
  0
LWPOLYLINE
  5
258
100
AcDbEntity
  8
RACCORDO
100
AcDbPolyline
 62
7
  6
CONTINUOUS
 90
3
 70
0
 10
92.7720300261
 20
98.0605417755
 10
92.7307097033
 20
98.0195664215
 10
92.6151624612
 20
97.9035683801
  0
LWPOLYLINE
  5
259
100
AcDbEntity
  8
0
100
AcDbPolyline
 62
7
  6
CONTINUOUS
 90
3
 70
0
 10
92.7720300261
 20
98.0605417755
 10
92.7307097033
 20
98.0195664215
 10
92.6151624612
 20
97.9035683801
  0
LWPOLYLINE
  5
25A
100
AcDbEntity
  8
RACCORDO
100
AcDbPolyline
 62
7
  6
CONTINUOUS
 90
5
 70
0
 10
92.5793769712
 20
185.2531823842
 10
92.278474683
 20
185.5540971185
 10
92.2748574307
 20
185.5577797699
 10
92.2727273556
 20
185.5599279888
 10
92.2720300261
 20
185.5605417755
  0
LWPOLYLINE
  5
25B
100
AcDbEntity
  8
0
100
AcDbPolyline
 62
7
  6
CONTINUOUS
 90
5
 70
0
 10
92.5793769712
 20
185.2531823842
 10
92.278474683
 20
185.5540971185
 10
92.2748574307
 20
185.5577797699
 10
92.2727273556
 20
185.5599279888
 10
92.2720300261
 20
185.5605417755
  0
LINE
  5
25C
100
AcDbEntity
  8
RACCORDO
100
AcDbLine
 62
7
  6
CONTINUOUS
 10
92.6150566308
 20
185.2174093404
 11
92.5793769712
 21
185.2531823842
  0
LINE
  5
25D
100
AcDbEntity
  8
0
100
AcDbLine
 62
7
  6
CONTINUOUS
 10
92.6150566308
 20
185.2174093404
 11
92.5793769712
 21
185.2531823842
  0
LWPOLYLINE
  5
25E
100
AcDbEntity
  8
RACCORDO
100
AcDbPolyline
 62
7
  6
CONTINUOUS
 90
3
 70
0
 10
92.7720300261
 20
185.0605417755
 10
92.7310546722
 20
185.1018620983
 10
92.6150566308
 20
185.2174093404
  0
LWPOLYLINE
  5
25F
100
AcDbEntity
  8
0
100
AcDbPolyline
 62
7
  6
CONTINUOUS
 90
3
 70
0
 10
92.7720300261
 20
185.0605417755
 10
92.7310546722
 20
185.1018620983
 10
92.6150566308
 20
185.2174093404
  0
LINE
  5
260
100
AcDbEntity
  8
RACCORDO
100
AcDbLine
 62
250
  6
CONTINUOUS
 10
185.1970300261
 20
115.3355417755
 11
185.1970300261
 21
167.7855417755
  0
LINE
  5
261
100
AcDbEntity
  8
0
100
AcDbLine
 62
250
  6
CONTINUOUS
 10
185.1970300261
 20
115.3355417755
 11
185.1970300261
 21
167.7855417755
  0
LINE
  5
262
100
AcDbEntity
  8
RACCORDO
100
AcDbLine
 62
7
  6
CONTINUOUS
 10
185.4970300261
 20
115.3355417755
 11
185.4970300261
 21
167.7855417755
  0
LINE
  5
263
100
AcDbEntity
  8
0
100
AcDbLine
 62
7
  6
CONTINUOUS
 10
185.4970300261
 20
115.3355417755
 11
185.4970300261
 21
167.7855417755
  0
LINE
  5
264
100
AcDbEntity
  8
RACCORDO
100
AcDbLine
 62
250
  6
CONTINUOUS
 10
186.0970300261
 20
168.6855417755
 11
186.0970300261
 21
168.3855417755
  0
LINE
  5
265
100
AcDbEntity
  8
0
100
AcDbLine
 62
250
  6
CONTINUOUS
 10
186.0970300261
 20
168.6855417755
 11
186.0970300261
 21
168.3855417755
  0
LINE
  5
266
100
AcDbEntity
  8
RACCORDO
100
AcDbLine
 62
250
  6
CONTINUOUS
 10
186.0970300261
 20
114.4355417755
 11
186.0970300261
 21
114.7355417755
  0
LINE
  5
267
100
AcDbEntity
  8
0
100
AcDbLine
 62
250
  6
CONTINUOUS
 10
186.0970300261
 20
114.4355417755
 11
186.0970300261
 21
114.7355417755
  0
LWPOLYLINE
  5
268
100
AcDbEntity
  8
0
100
AcDbPolyline
 62
7
  6
CONTINUOUS
 90
5
 70
0
 43
0.3499999917
 10
241.3077392578
 20
196.0248303223
 10
241.6648828125
 20
196.2391113281
 10
241.6648828125
 20
196.8819799805
 10
241.3077392578
 20
197.3105419922
 10
240.4505895996
 20
197.3105419922
  0
LWPOLYLINE
  5
269
100
AcDbEntity
  8
0
100
AcDbPolyline
 62
7
  6
CONTINUOUS
 90
5
 70
0
 43
0.3499999917
 10
245.8077429199
 20
196.0248303223
 10
246.1648864746
 20
196.2391113281
 10
246.1648864746
 20
196.8819799805
 10
245.8077429199
 20
197.3105419922
 10
244.9505932617
 20
197.3105419922
  0
LINE
  5
26A
100
AcDbEntity
  8
RACCORDO
100
AcDbLine
 62
7
  6
CONTINUOUS
 10
92.2720300261
 20
97.5605417755
 11
395.2720300261
 21
97.5605417755
  0
LINE
  5
26B
100
AcDbEntity
  8
0
100
AcDbLine
 62
7
  6
CONTINUOUS
 10
92.2720300261
 20
97.5605417755
 11
395.2720300261
 21
97.5605417755
  0
LINE
  5
26C
100
AcDbEntity
  8
RACCORDO
100
AcDbLine
 62
250
  6
CONTINUOUS
 10
92.7720300261
 20
98.0605417755
 11
394.7720300261
 21
98.0605417755
  0
LINE
  5
26D
100
AcDbEntity
  8
0
100
AcDbLine
 62
250
  6
CONTINUOUS
 10
92.7720300261
 20
98.0605417755
 11
394.7720300261
 21
98.0605417755
  0
LINE
  5
26E
100
AcDbEntity
  8
RACCORDO
100
AcDbLine
 62
250
  6
CONTINUOUS
 10
372.4470300261
 20
114.4355417755
 11
328.0970300261
 21
114.4355417755
  0
LINE
  5
26F
100
AcDbEntity
  8
0
100
AcDbLine
 62
250
  6
CONTINUOUS
 10
372.4470300261
 20
114.4355417755
 11
328.0970300261
 21
114.4355417755
  0
LINE
  5
270
100
AcDbEntity
  8
RACCORDO
100
AcDbLine
 62
250
  6
CONTINUOUS
 10
301.4470300261
 20
114.4355417755
 11
257.0970300261
 21
114.4355417755
  0
LINE
  5
271
100
AcDbEntity
  8
0
100
AcDbLine
 62
250
  6
CONTINUOUS
 10
301.4470300261
 20
114.4355417755
 11
257.0970300261
 21
114.4355417755
  0
LINE
  5
272
100
AcDbEntity
  8
RACCORDO
100
AcDbLine
 62
250
  6
CONTINUOUS
 10
230.4470300261
 20
114.4355417755
 11
186.0970300261
 21
114.4355417755
  0
LINE
  5
273
100
AcDbEntity
  8
0
100
AcDbLine
 62
250
  6
CONTINUOUS
 10
230.4470300261
 20
114.4355417755
 11
186.0970300261
 21
114.4355417755
  0
LINE
  5
274
100
AcDbEntity
  8
RACCORDO
100
AcDbLine
 62
250
  6
CONTINUOUS
 10
159.4470300261
 20
114.4355417755
 11
115.0970300261
 21
114.4355417755
  0
LINE
  5
275
100
AcDbEntity
  8
0
100
AcDbLine
 62
250
  6
CONTINUOUS
 10
159.4470300261
 20
114.4355417755
 11
115.0970300261
 21
114.4355417755
  0
LINE
  5
276
100
AcDbEntity
  8
RACCORDO
100
AcDbLine
 62
7
  6
CONTINUOUS
 10
372.4470300261
 20
114.7355417755
 11
328.0970300261
 21
114.7355417755
  0
LINE
  5
277
100
AcDbEntity
  8
0
100
AcDbLine
 62
7
  6
CONTINUOUS
 10
372.4470300261
 20
114.7355417755
 11
328.0970300261
 21
114.7355417755
  0
LINE
  5
278
100
AcDbEntity
  8
RACCORDO
100
AcDbLine
 62
7
  6
CONTINUOUS
 10
301.4470300261
 20
114.7355417755
 11
257.0970300261
 21
114.7355417755
  0
LINE
  5
279
100
AcDbEntity
  8
0
100
AcDbLine
 62
7
  6
CONTINUOUS
 10
301.4470300261
 20
114.7355417755
 11
257.0970300261
 21
114.7355417755
  0
LINE
  5
27A
100
AcDbEntity
  8
RACCORDO
100
AcDbLine
 62
7
  6
CONTINUOUS
 10
230.4470300261
 20
114.7355417755
 11
186.0970300261
 21
114.7355417755
  0
LINE
  5
27B
100
AcDbEntity
  8
0
100
AcDbLine
 62
7
  6
CONTINUOUS
 10
230.4470300261
 20
114.7355417755
 11
186.0970300261
 21
114.7355417755
  0
LINE
  5
27C
100
AcDbEntity
  8
RACCORDO
100
AcDbLine
 62
7
  6
CONTINUOUS
 10
159.4470300261
 20
114.7355417755
 11
115.0970300261
 21
114.7355417755
  0
LINE
  5
27D
100
AcDbEntity
  8
0
100
AcDbLine
 62
7
  6
CONTINUOUS
 10
159.4470300261
 20
114.7355417755
 11
115.0970300261
 21
114.7355417755
  0
LINE
  5
27E
100
AcDbEntity
  8
RACCORDO
100
AcDbLine
 62
250
  6
CONTINUOUS
 10
373.3470300261
 20
115.3355417755
 11
373.0470300261
 21
115.3355417755
  0
LINE
  5
27F
100
AcDbEntity
  8
0
100
AcDbLine
 62
250
  6
CONTINUOUS
 10
373.3470300261
 20
115.3355417755
 11
373.0470300261
 21
115.3355417755
  0
LINE
  5
280
100
AcDbEntity
  8
RACCORDO
100
AcDbLine
 62
250
  6
CONTINUOUS
 10
302.3470300261
 20
115.3355417755
 11
302.0470300261
 21
115.3355417755
  0
LINE
  5
281
100
AcDbEntity
  8
0
100
AcDbLine
 62
250
  6
CONTINUOUS
 10
302.3470300261
 20
115.3355417755
 11
302.0470300261
 21
115.3355417755
  0
LINE
  5
282
100
AcDbEntity
  8
RACCORDO
100
AcDbLine
 62
250
  6
CONTINUOUS
 10
231.3470300261
 20
115.3355417755
 11
231.0470300261
 21
115.3355417755
  0
LINE
  5
283
100
AcDbEntity
  8
0
100
AcDbLine
 62
250
  6
CONTINUOUS
 10
231.3470300261
 20
115.3355417755
 11
231.0470300261
 21
115.3355417755
  0
LINE
  5
284
100
AcDbEntity
  8
RACCORDO
100
AcDbLine
 62
250
  6
CONTINUOUS
 10
160.3470300261
 20
115.3355417755
 11
160.0470300261
 21
115.3355417755
  0
LINE
  5
285
100
AcDbEntity
  8
0
100
AcDbLine
 62
250
  6
CONTINUOUS
 10
160.3470300261
 20
115.3355417755
 11
160.0470300261
 21
115.3355417755
  0
LINE
  5
286
100
AcDbEntity
  8
RACCORDO
100
AcDbLine
 62
250
  6
CONTINUOUS
 10
114.1970300261
 20
115.3355417755
 11
114.4970300261
 21
115.3355417755
  0
LINE
  5
287
100
AcDbEntity
  8
0
100
AcDbLine
 62
250
  6
CONTINUOUS
 10
114.1970300261
 20
115.3355417755
 11
114.4970300261
 21
115.3355417755
  0
LINE
  5
288
100
AcDbEntity
  8
RACCORDO
100
AcDbLine
 62
250
  6
CONTINUOUS
 10
185.1970300261
 20
115.3355417755
 11
185.4970300261
 21
115.3355417755
  0
LINE
  5
289
100
AcDbEntity
  8
0
100
AcDbLine
 62
250
  6
CONTINUOUS
 10
185.1970300261
 20
115.3355417755
 11
185.4970300261
 21
115.3355417755
  0
LINE
  5
28A
100
AcDbEntity
  8
RACCORDO
100
AcDbLine
 62
250
  6
CONTINUOUS
 10
256.1970300261
 20
115.3355417755
 11
256.4970300261
 21
115.3355417755
  0
LINE
  5
28B
100
AcDbEntity
  8
0
100
AcDbLine
 62
250
  6
CONTINUOUS
 10
256.1970300261
 20
115.3355417755
 11
256.4970300261
 21
115.3355417755
  0
LINE
  5
28C
100
AcDbEntity
  8
RACCORDO
100
AcDbLine
 62
250
  6
CONTINUOUS
 10
327.1970300261
 20
115.3355417755
 11
327.4970300261
 21
115.3355417755
  0
LINE
  5
28D
100
AcDbEntity
  8
0
100
AcDbLine
 62
250
  6
CONTINUOUS
 10
327.1970300261
 20
115.3355417755
 11
327.4970300261
 21
115.3355417755
  0
LINE
  5
28E
100
AcDbEntity
  8
RACCORDO
100
AcDbLine
 62
250
  6
CONTINUOUS
 10
230.4470300261
 20
168.6855417755
 11
230.4470300261
 21
168.3855417755
  0
LINE
  5
28F
100
AcDbEntity
  8
0
100
AcDbLine
 62
250
  6
CONTINUOUS
 10
230.4470300261
 20
168.6855417755
 11
230.4470300261
 21
168.3855417755
  0
LINE
  5
290
100
AcDbEntity
  8
RACCORDO
100
AcDbLine
 62
250
  6
CONTINUOUS
 10
230.4470300261
 20
114.4355417755
 11
230.4470300261
 21
114.7355417755
  0
LINE
  5
291
100
AcDbEntity
  8
0
100
AcDbLine
 62
250
  6
CONTINUOUS
 10
230.4470300261
 20
114.4355417755
 11
230.4470300261
 21
114.7355417755
  0
LINE
  5
292
100
AcDbEntity
  8
RACCORDO
100
AcDbLine
 62
7
  6
CONTINUOUS
 10
231.0470300261
 20
167.7855417755
 11
231.0470300261
 21
115.3355417755
  0
LINE
  5
293
100
AcDbEntity
  8
0
100
AcDbLine
 62
7
  6
CONTINUOUS
 10
231.0470300261
 20
167.7855417755
 11
231.0470300261
 21
115.3355417755
  0
LINE
  5
294
100
AcDbEntity
  8
RACCORDO
100
AcDbLine
 62
250
  6
CONTINUOUS
 10
231.3470300261
 20
167.7855417755
 11
231.3470300261
 21
115.3355417755
  0
LINE
  5
295
100
AcDbEntity
  8
0
100
AcDbLine
 62
250
  6
CONTINUOUS
 10
231.3470300261
 20
167.7855417755
 11
231.3470300261
 21
115.3355417755
  0
LWPOLYLINE
  5
296
100
AcDbEntity
  8
0
100
AcDbPolyline
 62
7
  6
CONTINUOUS
 90
13
 70
0
 43
0.3499999917
 10
242.5934509277
 20
195.1676806641
 10
242.5934509277
 20
196.453392334
 10
242.8077319336
 20
196.8819799805
 10
243.2363195801
 20
197.3105419922
 10
243.4506005859
 20
197.3105419922
 10
243.8791625977
 20
196.8819799805
 10
244.0934692383
 20
196.453392334
 10
244.0934692383
 20
195.1676806641
 10
243.8791625977
 20
194.7391186523
 10
243.4506005859
 20
194.3105310059
 10
243.2363195801
 20
194.3105310059
 10
242.8077319336
 20
194.7391186523
 10
242.5934509277
 20
195.1676806641
  0
LWPOLYLINE
  5
297
100
AcDbEntity
  8
0
100
AcDbPolyline
 62
7
  6
CONTINUOUS
 90
4
 70
0
 43
0.3499999917
 10
402.093449707
 20
139.2033984375
 10
401.2363256836
 20
139.2033984375
 10
400.8077380371
 20
139.6319732666
 10
400.8077380371
 20
140.2748291016
  0
LWPOLYLINE
  5
298
100
AcDbEntity
  8
0
100
AcDbPolyline
 62
7
  6
CONTINUOUS
 90
4
 70
0
 43
0.3499999917
 10
402.093449707
 20
141.5605407715
 10
401.2363256836
 20
141.5605407715
 10
400.8077380371
 20
141.9891156006
 10
400.8077380371
 20
142.6319714355
  0
LINE
  5
299
100
AcDbEntity
  8
RACCORDO
100
AcDbLine
 62
250
  6
CONTINUOUS
 10
256.1970300261
 20
115.3355417755
 11
256.1970300261
 21
167.7855417755
  0
LINE
  5
29A
100
AcDbEntity
  8
0
100
AcDbLine
 62
250
  6
CONTINUOUS
 10
256.1970300261
 20
115.3355417755
 11
256.1970300261
 21
167.7855417755
  0
LINE
  5
29B
100
AcDbEntity
  8
RACCORDO
100
AcDbLine
 62
7
  6
CONTINUOUS
 10
256.4970300261
 20
115.3355417755
 11
256.4970300261
 21
167.7855417755
  0
LINE
  5
29C
100
AcDbEntity
  8
0
100
AcDbLine
 62
7
  6
CONTINUOUS
 10
256.4970300261
 20
115.3355417755
 11
256.4970300261
 21
167.7855417755
  0
LINE
  5
29D
100
AcDbEntity
  8
RACCORDO
100
AcDbLine
 62
250
  6
CONTINUOUS
 10
257.0970300261
 20
168.6855417755
 11
257.0970300261
 21
168.3855417755
  0
LINE
  5
29E
100
AcDbEntity
  8
0
100
AcDbLine
 62
250
  6
CONTINUOUS
 10
257.0970300261
 20
168.6855417755
 11
257.0970300261
 21
168.3855417755
  0
LINE
  5
29F
100
AcDbEntity
  8
RACCORDO
100
AcDbLine
 62
250
  6
CONTINUOUS
 10
257.0970300261
 20
114.4355417755
 11
257.0970300261
 21
114.7355417755
  0
LINE
  5
2A0
100
AcDbEntity
  8
0
100
AcDbLine
 62
250
  6
CONTINUOUS
 10
257.0970300261
 20
114.4355417755
 11
257.0970300261
 21
114.7355417755
  0
LINE
  5
2A1
100
AcDbEntity
  8
RACCORDO
100
AcDbLine
 62
250
  6
CONTINUOUS
 10
373.3470300261
 20
167.7855417755
 11
373.0470300261
 21
167.7855417755
  0
LINE
  5
2A2
100
AcDbEntity
  8
0
100
AcDbLine
 62
250
  6
CONTINUOUS
 10
373.3470300261
 20
167.7855417755
 11
373.0470300261
 21
167.7855417755
  0
LINE
  5
2A3
100
AcDbEntity
  8
RACCORDO
100
AcDbLine
 62
250
  6
CONTINUOUS
 10
302.3470300261
 20
167.7855417755
 11
302.0470300261
 21
167.7855417755
  0
LINE
  5
2A4
100
AcDbEntity
  8
0
100
AcDbLine
 62
250
  6
CONTINUOUS
 10
302.3470300261
 20
167.7855417755
 11
302.0470300261
 21
167.7855417755
  0
LINE
  5
2A5
100
AcDbEntity
  8
RACCORDO
100
AcDbLine
 62
250
  6
CONTINUOUS
 10
231.3470300261
 20
167.7855417755
 11
231.0470300261
 21
167.7855417755
  0
LINE
  5
2A6
100
AcDbEntity
  8
0
100
AcDbLine
 62
250
  6
CONTINUOUS
 10
231.3470300261
 20
167.7855417755
 11
231.0470300261
 21
167.7855417755
  0
LINE
  5
2A7
100
AcDbEntity
  8
RACCORDO
100
AcDbLine
 62
250
  6
CONTINUOUS
 10
160.3470300261
 20
167.7855417755
 11
160.0470300261
 21
167.7855417755
  0
LINE
  5
2A8
100
AcDbEntity
  8
0
100
AcDbLine
 62
250
  6
CONTINUOUS
 10
160.3470300261
 20
167.7855417755
 11
160.0470300261
 21
167.7855417755
  0
LINE
  5
2A9
100
AcDbEntity
  8
RACCORDO
100
AcDbLine
 62
250
  6
CONTINUOUS
 10
114.1970300261
 20
167.7855417755
 11
114.4970300261
 21
167.7855417755
  0
LINE
  5
2AA
100
AcDbEntity
  8
0
100
AcDbLine
 62
250
  6
CONTINUOUS
 10
114.1970300261
 20
167.7855417755
 11
114.4970300261
 21
167.7855417755
  0
LINE
  5
2AB
100
AcDbEntity
  8
RACCORDO
100
AcDbLine
 62
250
  6
CONTINUOUS
 10
185.1970300261
 20
167.7855417755
 11
185.4970300261
 21
167.7855417755
  0
LINE
  5
2AC
100
AcDbEntity
  8
0
100
AcDbLine
 62
250
  6
CONTINUOUS
 10
185.1970300261
 20
167.7855417755
 11
185.4970300261
 21
167.7855417755
  0
LINE
  5
2AD
100
AcDbEntity
  8
RACCORDO
100
AcDbLine
 62
250
  6
CONTINUOUS
 10
256.1970300261
 20
167.7855417755
 11
256.4970300261
 21
167.7855417755
  0
LINE
  5
2AE
100
AcDbEntity
  8
0
100
AcDbLine
 62
250
  6
CONTINUOUS
 10
256.1970300261
 20
167.7855417755
 11
256.4970300261
 21
167.7855417755
  0
LINE
  5
2AF
100
AcDbEntity
  8
RACCORDO
100
AcDbLine
 62
250
  6
CONTINUOUS
 10
327.1970300261
 20
167.7855417755
 11
327.4970300261
 21
167.7855417755
  0
LINE
  5
2B0
100
AcDbEntity
  8
0
100
AcDbLine
 62
250
  6
CONTINUOUS
 10
327.1970300261
 20
167.7855417755
 11
327.4970300261
 21
167.7855417755
  0
LINE
  5
2B1
100
AcDbEntity
  8
RACCORDO
100
AcDbLine
 62
7
  6
CONTINUOUS
 10
115.0970300261
 20
168.3855417755
 11
159.4470300261
 21
168.3855417755
  0
LINE
  5
2B2
100
AcDbEntity
  8
0
100
AcDbLine
 62
7
  6
CONTINUOUS
 10
115.0970300261
 20
168.3855417755
 11
159.4470300261
 21
168.3855417755
  0
LINE
  5
2B3
100
AcDbEntity
  8
RACCORDO
100
AcDbLine
 62
7
  6
CONTINUOUS
 10
186.0970300261
 20
168.3855417755
 11
230.4470300261
 21
168.3855417755
  0
LINE
  5
2B4
100
AcDbEntity
  8
0
100
AcDbLine
 62
7
  6
CONTINUOUS
 10
186.0970300261
 20
168.3855417755
 11
230.4470300261
 21
168.3855417755
  0
LINE
  5
2B5
100
AcDbEntity
  8
RACCORDO
100
AcDbLine
 62
7
  6
CONTINUOUS
 10
257.0970300261
 20
168.3855417755
 11
301.4470300261
 21
168.3855417755
  0
LINE
  5
2B6
100
AcDbEntity
  8
0
100
AcDbLine
 62
7
  6
CONTINUOUS
 10
257.0970300261
 20
168.3855417755
 11
301.4470300261
 21
168.3855417755
  0
LINE
  5
2B7
100
AcDbEntity
  8
RACCORDO
100
AcDbLine
 62
7
  6
CONTINUOUS
 10
328.0970300261
 20
168.3855417755
 11
372.4470300261
 21
168.3855417755
  0
LINE
  5
2B8
100
AcDbEntity
  8
0
100
AcDbLine
 62
7
  6
CONTINUOUS
 10
328.0970300261
 20
168.3855417755
 11
372.4470300261
 21
168.3855417755
  0
LINE
  5
2B9
100
AcDbEntity
  8
RACCORDO
100
AcDbLine
 62
250
  6
CONTINUOUS
 10
115.0970300261
 20
168.6855417755
 11
159.4470300261
 21
168.6855417755
  0
LINE
  5
2BA
100
AcDbEntity
  8
0
100
AcDbLine
 62
250
  6
CONTINUOUS
 10
115.0970300261
 20
168.6855417755
 11
159.4470300261
 21
168.6855417755
  0
LINE
  5
2BB
100
AcDbEntity
  8
RACCORDO
100
AcDbLine
 62
250
  6
CONTINUOUS
 10
186.0970300261
 20
168.6855417755
 11
230.4470300261
 21
168.6855417755
  0
LINE
  5
2BC
100
AcDbEntity
  8
0
100
AcDbLine
 62
250
  6
CONTINUOUS
 10
186.0970300261
 20
168.6855417755
 11
230.4470300261
 21
168.6855417755
  0
LINE
  5
2BD
100
AcDbEntity
  8
RACCORDO
100
AcDbLine
 62
250
  6
CONTINUOUS
 10
257.0970300261
 20
168.6855417755
 11
301.4470300261
 21
168.6855417755
  0
LINE
  5
2BE
100
AcDbEntity
  8
0
100
AcDbLine
 62
250
  6
CONTINUOUS
 10
257.0970300261
 20
168.6855417755
 11
301.4470300261
 21
168.6855417755
  0
LINE
  5
2BF
100
AcDbEntity
  8
RACCORDO
100
AcDbLine
 62
250
  6
CONTINUOUS
 10
328.0970300261
 20
168.6855417755
 11
372.4470300261
 21
168.6855417755
  0
LINE
  5
2C0
100
AcDbEntity
  8
0
100
AcDbLine
 62
250
  6
CONTINUOUS
 10
328.0970300261
 20
168.6855417755
 11
372.4470300261
 21
168.6855417755
  0
LINE
  5
2C1
100
AcDbEntity
  8
RACCORDO
100
AcDbLine
 62
250
  6
CONTINUOUS
 10
394.7720300261
 20
185.0605417755
 11
92.7720300261
 21
185.0605417755
  0
LINE
  5
2C2
100
AcDbEntity
  8
0
100
AcDbLine
 62
250
  6
CONTINUOUS
 10
394.7720300261
 20
185.0605417755
 11
92.7720300261
 21
185.0605417755
  0
LINE
  5
2C3
100
AcDbEntity
  8
RACCORDO
100
AcDbLine
 62
7
  6
CONTINUOUS
 10
395.2720300261
 20
185.5605417755
 11
92.2720300261
 21
185.5605417755
  0
LINE
  5
2C4
100
AcDbEntity
  8
0
100
AcDbLine
 62
7
  6
CONTINUOUS
 10
395.2720300261
 20
185.5605417755
 11
92.2720300261
 21
185.5605417755
  0
LWPOLYLINE
  5
2C5
100
AcDbEntity
  8
0
100
AcDbPolyline
 62
7
  6
CONTINUOUS
 90
6
 70
0
 43
0.3499999917
 10
240.4505895996
 20
194.3105310059
 10
241.5220202637
 20
194.3105310059
 10
241.7363269043
 20
194.5248376465
 10
241.7363269043
 20
195.5962683105
 10
241.3077392578
 20
196.0248303223
 10
240.8791772461
 20
196.0248303223
  0
LWPOLYLINE
  5
2C6
100
AcDbEntity
  8
0
100
AcDbPolyline
 62
7
  6
CONTINUOUS
 90
6
 70
0
 43
0.3499999917
 10
244.9505932617
 20
194.3105310059
 10
246.0220239258
 20
194.3105310059
 10
246.2363049316
 20
194.5248376465
 10
246.2363049316
 20
195.5962683105
 10
245.8077429199
 20
196.0248303223
 10
245.3791809082
 20
196.0248303223
  0
LINE
  5
2C7
100
AcDbEntity
  8
RACCORDO
100
AcDbLine
 62
250
  6
CONTINUOUS
 10
301.4470300261
 20
168.6855417755
 11
301.4470300261
 21
168.3855417755
  0
LINE
  5
2C8
100
AcDbEntity
  8
0
100
AcDbLine
 62
250
  6
CONTINUOUS
 10
301.4470300261
 20
168.6855417755
 11
301.4470300261
 21
168.3855417755
  0
LINE
  5
2C9
100
AcDbEntity
  8
RACCORDO
100
AcDbLine
 62
250
  6
CONTINUOUS
 10
301.4470300261
 20
114.4355417755
 11
301.4470300261
 21
114.7355417755
  0
LINE
  5
2CA
100
AcDbEntity
  8
0
100
AcDbLine
 62
250
  6
CONTINUOUS
 10
301.4470300261
 20
114.4355417755
 11
301.4470300261
 21
114.7355417755
  0
LINE
  5
2CB
100
AcDbEntity
  8
RACCORDO
100
AcDbLine
 62
7
  6
CONTINUOUS
 10
302.0470300261
 20
167.7855417755
 11
302.0470300261
 21
115.3355417755
  0
LINE
  5
2CC
100
AcDbEntity
  8
0
100
AcDbLine
 62
7
  6
CONTINUOUS
 10
302.0470300261
 20
167.7855417755
 11
302.0470300261
 21
115.3355417755
  0
LINE
  5
2CD
100
AcDbEntity
  8
RACCORDO
100
AcDbLine
 62
250
  6
CONTINUOUS
 10
302.3470300261
 20
167.7855417755
 11
302.3470300261
 21
115.3355417755
  0
LINE
  5
2CE
100
AcDbEntity
  8
0
100
AcDbLine
 62
250
  6
CONTINUOUS
 10
302.3470300261
 20
167.7855417755
 11
302.3470300261
 21
115.3355417755
  0
LINE
  5
2CF
100
AcDbEntity
  8
RACCORDO
100
AcDbLine
 62
250
  6
CONTINUOUS
 10
327.1970300261
 20
115.3355417755
 11
327.1970300261
 21
167.7855417755
  0
LINE
  5
2D0
100
AcDbEntity
  8
0
100
AcDbLine
 62
250
  6
CONTINUOUS
 10
327.1970300261
 20
115.3355417755
 11
327.1970300261
 21
167.7855417755
  0
LINE
  5
2D1
100
AcDbEntity
  8
RACCORDO
100
AcDbLine
 62
7
  6
CONTINUOUS
 10
327.4970300261
 20
115.3355417755
 11
327.4970300261
 21
167.7855417755
  0
LINE
  5
2D2
100
AcDbEntity
  8
0
100
AcDbLine
 62
7
  6
CONTINUOUS
 10
327.4970300261
 20
115.3355417755
 11
327.4970300261
 21
167.7855417755
  0
LINE
  5
2D3
100
AcDbEntity
  8
RACCORDO
100
AcDbLine
 62
250
  6
CONTINUOUS
 10
328.0970300261
 20
168.6855417755
 11
328.0970300261
 21
168.3855417755
  0
LINE
  5
2D4
100
AcDbEntity
  8
0
100
AcDbLine
 62
250
  6
CONTINUOUS
 10
328.0970300261
 20
168.6855417755
 11
328.0970300261
 21
168.3855417755
  0
LINE
  5
2D5
100
AcDbEntity
  8
RACCORDO
100
AcDbLine
 62
250
  6
CONTINUOUS
 10
328.0970300261
 20
114.4355417755
 11
328.0970300261
 21
114.7355417755
  0
LINE
  5
2D6
100
AcDbEntity
  8
0
100
AcDbLine
 62
250
  6
CONTINUOUS
 10
328.0970300261
 20
114.4355417755
 11
328.0970300261
 21
114.7355417755
  0
LWPOLYLINE
  5
2D7
100
AcDbEntity
  8
RACCORDO
100
AcDbPolyline
 62
7
  6
CONTINUOUS
 90
5
 70
0
 10
394.9646706349
 20
185.2531948303
 10
395.2655853692
 20
185.5540971185
 10
395.2692680205
 20
185.5577143709
 10
395.2714162395
 20
185.559844446
 10
395.2720300261
 20
185.5605417755
  0
LWPOLYLINE
  5
2D8
100
AcDbEntity
  8
0
100
AcDbPolyline
 62
7
  6
CONTINUOUS
 90
5
 70
0
 10
394.9646706349
 20
185.2531948303
 10
395.2655853692
 20
185.5540971185
 10
395.2692680205
 20
185.5577143709
 10
395.2714162395
 20
185.559844446
 10
395.2720300261
 20
185.5605417755
  0
LINE
  5
2D9
100
AcDbEntity
  8
RACCORDO
100
AcDbLine
 62
7
  6
CONTINUOUS
 10
394.9288975911
 20
185.2175151708
 11
394.9646706349
 21
185.2531948303
  0
LINE
  5
2DA
100
AcDbEntity
  8
0
100
AcDbLine
 62
7
  6
CONTINUOUS
 10
394.9288975911
 20
185.2175151708
 11
394.9646706349
 21
185.2531948303
  0
LWPOLYLINE
  5
2DB
100
AcDbEntity
  8
RACCORDO
100
AcDbPolyline
 62
7
  6
CONTINUOUS
 90
3
 70
0
 10
394.7720300261
 20
185.0605417755
 10
394.813350349
 20
185.1015171294
 10
394.9288975911
 20
185.2175151708
  0
LWPOLYLINE
  5
2DC
100
AcDbEntity
  8
0
100
AcDbPolyline
 62
7
  6
CONTINUOUS
 90
3
 70
0
 10
394.7720300261
 20
185.0605417755
 10
394.813350349
 20
185.1015171294
 10
394.9288975911
 20
185.2175151708
  0
LINE
  5
2DD
100
AcDbEntity
  8
RACCORDO
100
AcDbLine
 62
7
  6
CONTINUOUS
 10
394.9290034215
 20
97.9036742105
 11
395.2604372835
 21
97.5721486047
  0
LINE
  5
2DE
100
AcDbEntity
  8
0
100
AcDbLine
 62
7
  6
CONTINUOUS
 10
394.9290034215
 20
97.9036742105
 11
395.2604372835
 21
97.5721486047
  0
LWPOLYLINE
  5
2DF
100
AcDbEntity
  8
RACCORDO
100
AcDbPolyline
 62
7
  6
CONTINUOUS
 90
5
 70
0
 10
395.2604372835
 20
97.5721486047
 10
395.2655853692
 20
97.5669864324
 10
395.2692026215
 20
97.5633037811
 10
395.2713326966
 20
97.5611555621
 10
395.2720300261
 20
97.5605417755
  0
LWPOLYLINE
  5
2E0
100
AcDbEntity
  8
0
100
AcDbPolyline
 62
7
  6
CONTINUOUS
 90
5
 70
0
 10
395.2604372835
 20
97.5721486047
 10
395.2655853692
 20
97.5669864324
 10
395.2692026215
 20
97.5633037811
 10
395.2713326966
 20
97.5611555621
 10
395.2720300261
 20
97.5605417755
  0
LWPOLYLINE
  5
2E1
100
AcDbEntity
  8
RACCORDO
100
AcDbPolyline
 62
7
  6
CONTINUOUS
 90
3
 70
0
 10
394.7720300261
 20
98.0605417755
 10
394.81300538
 20
98.0192214526
 10
394.9290034215
 20
97.9036742105
  0
LWPOLYLINE
  5
2E2
100
AcDbEntity
  8
0
100
AcDbPolyline
 62
7
  6
CONTINUOUS
 90
3
 70
0
 10
394.7720300261
 20
98.0605417755
 10
394.81300538
 20
98.0192214526
 10
394.9290034215
 20
97.9036742105
  0
LWPOLYLINE
  5
2E3
100
AcDbEntity
  8
0
100
AcDbPolyline
 62
7
  6
CONTINUOUS
 90
13
 70
0
 43
0.3499999917
 10
400.8077380371
 20
141.9891156006
 10
400.5934570313
 20
141.7034033203
 10
399.9506140137
 20
141.7034033203
 10
399.5220263672
 20
141.9891156006
 10
399.5220263672
 20
142.6319714355
 10
399.9506140137
 20
142.9176837158
 10
400.5934570313
 20
142.9176837158
 10
400.8077380371
 20
142.6319714355
 10
401.2363256836
 20
143.0605462646
 10
402.093449707
 20
143.0605462646
 10
402.5220373535
 20
142.6319714355
 10
402.5220373535
 20
141.9891156006
 10
402.093449707
 20
141.5605407715
  0
LWPOLYLINE
  5
2E4
100
AcDbEntity
  8
0
100
AcDbPolyline
 62
7
  6
CONTINUOUS
 90
13
 70
0
 43
0.3499999917
 10
400.8077380371
 20
139.6319732666
 10
400.5934570313
 20
139.3462609863
 10
399.9506140137
 20
139.3462609863
 10
399.5220263672
 20
139.6319732666
 10
399.5220263672
 20
140.2748291016
 10
399.9506140137
 20
140.5605413818
 10
400.5934570313
 20
140.5605413818
 10
400.8077380371
 20
140.2748291016
 10
401.2363256836
 20
140.7034039307
 10
402.093449707
 20
140.7034039307
 10
402.5220373535
 20
140.2748291016
 10
402.5220373535
 20
139.6319732666
 10
402.093449707
 20
139.2033984375
  0
LINE
  5
2E5
100
AcDbEntity
  8
RACCORDO
100
AcDbLine
 62
250
  6
CONTINUOUS
 10
372.4470300261
 20
168.6855417755
 11
372.4470300261
 21
168.3855417755
  0
LINE
  5
2E6
100
AcDbEntity
  8
0
100
AcDbLine
 62
250
  6
CONTINUOUS
 10
372.4470300261
 20
168.6855417755
 11
372.4470300261
 21
168.3855417755
  0
LINE
  5
2E7
100
AcDbEntity
  8
RACCORDO
100
AcDbLine
 62
250
  6
CONTINUOUS
 10
372.4470300261
 20
114.4355417755
 11
372.4470300261
 21
114.7355417755
  0
LINE
  5
2E8
100
AcDbEntity
  8
0
100
AcDbLine
 62
250
  6
CONTINUOUS
 10
372.4470300261
 20
114.4355417755
 11
372.4470300261
 21
114.7355417755
  0
LINE
  5
2E9
100
AcDbEntity
  8
RACCORDO
100
AcDbLine
 62
7
  6
CONTINUOUS
 10
373.0470300261
 20
167.7855417755
 11
373.0470300261
 21
115.3355417755
  0
LINE
  5
2EA
100
AcDbEntity
  8
0
100
AcDbLine
 62
7
  6
CONTINUOUS
 10
373.0470300261
 20
167.7855417755
 11
373.0470300261
 21
115.3355417755
  0
LINE
  5
2EB
100
AcDbEntity
  8
RACCORDO
100
AcDbLine
 62
250
  6
CONTINUOUS
 10
373.3470300261
 20
167.7855417755
 11
373.3470300261
 21
115.3355417755
  0
LINE
  5
2EC
100
AcDbEntity
  8
0
100
AcDbLine
 62
250
  6
CONTINUOUS
 10
373.3470300261
 20
167.7855417755
 11
373.3470300261
 21
115.3355417755
  0
LINE
  5
2ED
100
AcDbEntity
  8
RACCORDO
100
AcDbLine
 62
250
  6
CONTINUOUS
 10
394.7720300261
 20
98.0605417755
 11
394.7720300261
 21
185.0605417755
  0
LINE
  5
2EE
100
AcDbEntity
  8
0
100
AcDbLine
 62
250
  6
CONTINUOUS
 10
394.7720300261
 20
98.0605417755
 11
394.7720300261
 21
185.0605417755
  0
LINE
  5
2EF
100
AcDbEntity
  8
RACCORDO
100
AcDbLine
 62
7
  6
CONTINUOUS
 10
395.2720300261
 20
97.5605417755
 11
395.2720300261
 21
185.5605417755
  0
LINE
  5
2F0
100
AcDbEntity
  8
0
100
AcDbLine
 62
7
  6
CONTINUOUS
 10
395.2720300261
 20
97.5605417755
 11
395.2720300261
 21
185.5605417755
  0
LINE
  5
2F1
100
AcDbEntity
  8
RACCORDO
100
AcDbLine
 62
7
  6
CONTINUOUS
 10
66.1966383812
 20
97.5605417755
 11
61.7966383812
 21
97.5605417755
  0
LINE
  5
2F2
100
AcDbEntity
  8
0
100
AcDbLine
 62
7
  6
CONTINUOUS
 10
66.1966383812
 20
97.5605417755
 11
61.7966383812
 21
97.5605417755
  0
LINE
  5
2F3
100
AcDbEntity
  8
RACCORDO
100
AcDbLine
 62
7
  6
CONTINUOUS
 10
68.9018737709
 20
99.1392366337
 11
66.1966383812
 21
99.0683975519
  0
LINE
  5
2F4
100
AcDbEntity
  8
RACCORDO
100
AcDbLine
 62
250
  6
CONTINUOUS
 10
68.9018737709
 20
99.8389967612
 11
66.1966383812
 21
99.7681576794
  0
LINE
  5
2F5
100
AcDbEntity
  8
RACCORDO
100
AcDbLine
 62
250
  6
CONTINUOUS
 10
69.0966383812
 20
99.8389967612
 11
68.9018737709
 21
99.8389967612
  0
LINE
  5
2F6
100
AcDbEntity
  8
CURVE
100
AcDbLine
 62
250
  6
CONTINUOUS
 10
64.1203363812
 20
103.8956817755
 11
62.7437853812
 21
103.5144757755
  0
LINE
  5
2F7
100
AcDbEntity
  8
CURVE
100
AcDbLine
 62
250
  6
CONTINUOUS
 10
64.7436233812
 20
104.8606057755
 11
62.7436653812
 21
104.8606057755
  0
LINE
  5
2F8
100
AcDbEntity
  8
CURVE
100
AcDbLine
 62
250
  6
CONTINUOUS
 10
62.7436653812
 20
105.2780497755
 11
64.7436233812
 21
105.2780497755
  0
LINE
  5
2F9
100
AcDbEntity
  8
CURVE
100
AcDbLine
 62
250
  6
CONTINUOUS
 10
64.7436233812
 20
105.9021317755
 11
63.4377663812
 21
105.9922157755
  0
LINE
  5
2FA
100
AcDbEntity
  8
CURVE
100
AcDbLine
 62
250
  6
CONTINUOUS
 10
62.7437853812
 20
105.6833477755
 11
64.7436233812
 21
105.5027737755
  0
LINE
  5
2FB
100
AcDbEntity
  8
CURVE
100
AcDbLine
 62
250
  6
CONTINUOUS
 10
62.7437853812
 20
104.2885307755
 11
64.1203363812
 21
103.8956817755
  0
LINE
  5
2FC
100
AcDbEntity
  8
CURVE
100
AcDbLine
 62
250
  6
CONTINUOUS
 10
64.7436233812
 20
104.0628627755
 11
62.7437853812
 21
104.7056907755
  0
LINE
  5
2FD
100
AcDbEntity
  8
CURVE
100
AcDbLine
 62
250
  6
CONTINUOUS
 10
64.7436233812
 20
107.5309547755
 11
62.7437853812
 21
107.3439477755
  0
LINE
  5
2FE
100
AcDbEntity
  8
CURVE
100
AcDbLine
 62
250
  6
CONTINUOUS
 10
63.4432113812
 20
107.0368167755
 11
64.7436233812
 21
107.1225837755
  0
LINE
  5
2FF
100
AcDbEntity
  8
CURVE
100
AcDbLine
 62
250
  6
CONTINUOUS
 10
64.7436236465
 20
109.3637906071
 11
62.7671507994
 21
109.3637906071
  0
LINE
  5
300
100
AcDbEntity
  8
CURVE
100
AcDbLine
 62
250
  6
CONTINUOUS
 10
64.0354553812
 20
108.2099997755
 11
63.2932903812
 21
108.4178517755
  0
LINE
  5
301
100
AcDbEntity
  8
CURVE
100
AcDbLine
 62
250
  6
CONTINUOUS
 10
64.7436233812
 20
108.0094207755
 11
64.3443843812
 21
108.1246087755
  0
LINE
  5
302
100
AcDbEntity
  8
CURVE
100
AcDbLine
 62
250
  6
CONTINUOUS
 10
62.7437853812
 20
108.2237817755
 11
64.7436233812
 21
107.5965047755
  0
LINE
  5
303
100
AcDbEntity
  8
CURVE
100
AcDbLine
 62
250
  6
CONTINUOUS
 10
62.7437853812
 20
106.9309267755
 11
63.8541013812
 21
106.5134827755
  0
LINE
  5
304
100
AcDbEntity
  8
CURVE
100
AcDbLine
 62
250
  6
CONTINUOUS
 10
64.7436233812
 20
106.5404757755
 11
63.4432113812
 21
107.0368167755
  0
LINE
  5
305
100
AcDbEntity
  8
CURVE
100
AcDbLine
 62
250
  6
CONTINUOUS
 10
64.4752487919
 20
110.3406315126
 11
64.3900902538
 21
110.3164835134
  0
LINE
  5
306
100
AcDbEntity
  8
CURVE
100
AcDbLine
 62
250
  6
CONTINUOUS
 10
64.3443843812
 20
108.6930987755
 11
64.7436233812
 21
108.8012397755
  0
LINE
  5
307
100
AcDbEntity
  8
CURVE
100
AcDbLine
 62
250
  6
CONTINUOUS
 10
64.1559107007
 20
110.6650468517
 11
64.2746236055
 21
110.6971465108
  0
LINE
  5
308
100
AcDbEntity
  8
CURVE
100
AcDbLine
 62
250
  6
CONTINUOUS
 10
64.6722258187
 20
110.8013017447
 11
64.7436236465
 21
110.8203473941
  0
LINE
  5
309
100
AcDbEntity
  8
CURVE
100
AcDbLine
 62
250
  6
CONTINUOUS
 10
64.2746236055
 20
110.6971465108
 11
64.4192892555
 21
110.7353554226
  0
LINE
  5
30A
100
AcDbEntity
  8
CURVE
100
AcDbLine
 62
250
  6
CONTINUOUS
 10
64.4192892555
 20
110.7353554226
 11
64.6722258187
 21
110.8013017447
  0
LINE
  5
30B
100
AcDbEntity
  8
CURVE
100
AcDbLine
 62
250
  6
CONTINUOUS
 10
63.2932903812
 20
108.4178517755
 11
64.0354553812
 21
108.6096727755
  0
LWPOLYLINE
  5
30C
100
AcDbEntity
  8
CURVE
100
AcDbPolyline
 62
250
  6
CONTINUOUS
 90
49
 70
0
 10
63.322698708
 20
110.3285499014
 10
63.3150308366
 20
110.3283058918
 10
63.3073464455
 20
110.3278149827
 10
63.2996545727
 20
110.3270795951
 10
63.2919642562
 20
110.32610215
 10
63.284284534
 20
110.3248850684
 10
63.2766244442
 20
110.3234307712
 10
63.2689930247
 20
110.3217416794
 10
63.2613993136
 20
110.3198202139
 10
63.2538523489
 20
110.3176687958
 10
63.2463611685
 20
110.3152898459
 10
63.2389348106
 20
110.3126857853
 10
63.2315823131
 20
110.309859035
 10
63.224312714
 20
110.3068120158
 10
63.2171350513
 20
110.3035471487
 10
63.2100583631
 20
110.3000668548
 10
63.2030916873
 20
110.296373555
 10
63.196244062
 20
110.2924696702
 10
63.1895245252
 20
110.2883576215
 10
63.1829421149
 20
110.2840398297
 10
63.1765058691
 20
110.2795187159
 10
63.1702248258
 20
110.2747967009
 10
63.164108023
 20
110.2698762059
 10
63.1581644988
 20
110.2647596517
 10
63.1524032911
 20
110.2594494594
 10
63.1468020419
 20
110.2539183919
 10
63.1413948305
 20
110.2482024351
 10
63.1361822384
 20
110.2423100175
 10
63.1311648471
 20
110.2362495671
 10
63.1263432381
 20
110.2300295124
 10
63.1217179929
 20
110.2236582816
 10
63.1172896928
 20
110.2171443029
 10
63.1130589195
 20
110.2104960047
 10
63.1090262544
 20
110.2037218152
 10
63.1051922789
 20
110.1968301627
 10
63.1015575747
 20
110.1898294754
 10
63.098122723
 20
110.1827281817
 10
63.0948883055
 20
110.1755347099
 10
63.0918549035
 20
110.1682574881
 10
63.0890230987
 20
110.1609049447
 10
63.0863934724
 20
110.153485508
 10
63.0839666061
 20
110.1460076061
 10
63.0817430814
 20
110.1384796675
 10
63.0797234796
 20
110.1309101204
 10
63.0779083824
 20
110.123307393
 10
63.0762983711
 20
110.1156799137
 10
63.0748940273
 20
110.1080361107
 10
63.0736959324
 20
110.1003844123
 10
63.0727046679
 20
110.0927332467
  0
LINE
  5
30D
100
AcDbEntity
  8
CURVE
100
AcDbLine
 62
250
  6
CONTINUOUS
 10
63.0844782051
 20
109.7657136601
 11
63.633472613
 21
109.7657136601
  0
LINE
  5
30E
100
AcDbEntity
  8
CURVE
100
AcDbLine
 62
250
  6
CONTINUOUS
 10
63.9609976859
 20
109.7795554936
 11
64.7436236465
 21
109.7795554936
  0
LINE
  5
30F
100
AcDbEntity
  8
CURVE
100
AcDbLine
 62
250
  6
CONTINUOUS
 10
63.7982999059
 20
110.437020087
 11
63.8101172025
 21
110.437020087
  0
LWPOLYLINE
  5
310
100
AcDbEntity
  8
0
100
AcDbPolyline
 62
7
  6
CONTINUOUS
 90
3
 70
0
 43
0.3499999917
 10
65.0537805176
 20
194.5962561035
 10
64.9823556519
 20
194.3819750977
 10
64.839493103
 20
194.09625
  0
LWPOLYLINE
  5
311
100
AcDbEntity
  8
CURVE
100
AcDbPolyline
 62
250
  6
CONTINUOUS
 90
32
 70
0
 10
62.7671507994
 20
109.3637906071
 10
62.7616504425
 20
109.4018577709
 10
62.7563610328
 20
109.4399841912
 10
62.7513127607
 20
109.4781657456
 10
62.7465358163
 20
109.5163983118
 10
62.74206039
 20
109.5546777673
 10
62.7379166721
 20
109.5929999898
 10
62.7341348528
 20
109.6313608569
 10
62.7307451226
 20
109.6697562462
 10
62.7277776716
 20
109.7081820353
 10
62.7252626902
 20
109.7466341018
 10
62.7232303687
 20
109.7851083233
 10
62.7217108973
 20
109.8236005775
 10
62.7207344664
 20
109.862106742
 10
62.7203312663
 20
109.9006226944
 10
62.7205314872
 20
109.9391443122
 10
62.7213653195
 20
109.9776674731
 10
62.7228629535
 20
110.0161880548
 10
62.7250545794
 20
110.0547019348
 10
62.7279703876
 20
110.0932049907
 10
62.7303290676
 20
110.1187942524
 10
62.7330559323
 20
110.1443564165
 10
62.7361856692
 20
110.1698709934
 10
62.7397529656
 20
110.1953174932
 10
62.7437925092
 20
110.2206754259
 10
62.7483389874
 20
110.2459243019
 10
62.7534270876
 20
110.2710436312
 10
62.7590914975
 20
110.296012924
 10
62.7653669044
 20
110.3208116904
 10
62.7722879959
 20
110.3454194406
 10
62.7798894595
 20
110.3698156848
 10
62.7882059826
 20
110.3939799332
  0
LINE
  5
312
100
AcDbEntity
  8
RACCORDO
100
AcDbLine
 62
7
  6
CONTINUOUS
 10
61.2966383812
 20
98.0605417755
 11
61.2966383812
 21
185.0605417755
  0
LINE
  5
313
100
AcDbEntity
  8
0
100
AcDbLine
 62
7
  6
CONTINUOUS
 10
61.2966383812
 20
98.0605417755
 11
61.2966383812
 21
185.0605417755
  0
LINE
  5
314
100
AcDbEntity
  8
RACCORDO
100
AcDbLine
 62
250
  6
CONTINUOUS
 10
61.7966383812
 20
97.5605417755
 11
61.7966383812
 21
185.5605417755
  0
LINE
  5
315
100
AcDbEntity
  8
0
100
AcDbLine
 62
250
  6
CONTINUOUS
 10
61.7966383812
 20
97.5605417755
 11
61.7966383812
 21
185.5605417755
  0
LWPOLYLINE
  5
316
100
AcDbEntity
  8
0
100
AcDbPolyline
 62
7
  6
CONTINUOUS
 90
4
 70
0
 43
0.3499999917
 10
61.9823510742
 20
196.6676733398
 10
61.9823510742
 20
197.3105419922
 10
63.4823501587
 20
197.3105419922
 10
62.6252069092
 20
194.3105310059
  0
LWPOLYLINE
  5
317
100
AcDbEntity
  8
CURVE
100
AcDbPolyline
 62
250
  6
CONTINUOUS
 90
59
 70
0
 10
63.633472613
 20
110.0042790841
 10
63.6332261776
 20
110.0128400896
 10
63.6328639525
 20
110.0214601637
 10
63.6323801186
 20
110.0301290509
 10
63.6317688567
 20
110.0388364956
 10
63.6310243477
 20
110.0475722425
 10
63.6301407726
 20
110.0563260358
 10
63.629112312
 20
110.0650876202
 10
63.627933147
 20
110.07384674
 10
63.6265974583
 20
110.0825931398
 10
63.6250994269
 20
110.091316564
 10
63.6234332336
 20
110.100006757
 10
63.6215930593
 20
110.1086534635
 10
63.6195730849
 20
110.1172464278
 10
63.6173674911
 20
110.1257753944
 10
63.614970459
 20
110.1342301077
 10
63.6123761693
 20
110.1426003124
 10
63.609578803
 20
110.1508757527
 10
63.6065725408
 20
110.1590461733
 10
63.6033515637
 20
110.1671013186
 10
63.5999100525
 20
110.175030933
 10
63.5962421881
 20
110.182824761
 10
63.5923421514
 20
110.1904725472
 10
63.5882041232
 20
110.1979640359
 10
63.5838222844
 20
110.2052889717
 10
63.5791908158
 20
110.2124370989
 10
63.5743038984
 20
110.2193981622
 10
63.569155713
 20
110.226161906
 10
63.5637404405
 20
110.2327180747
 10
63.5579758301
 20
110.2391430452
 10
63.5519428078
 20
110.2453443046
 10
63.5456533577
 20
110.2513219507
 10
63.5391194641
 20
110.2570760813
 10
63.5323531111
 20
110.2626067941
 10
63.5253662829
 20
110.2679141871
 10
63.5181709637
 20
110.2729983579
 10
63.5107791376
 20
110.2778594044
 10
63.5032027888
 20
110.2824974244
 10
63.4954539016
 20
110.2869125156
 10
63.48754446
 20
110.2911047758
 10
63.4794864483
 20
110.2950743029
 10
63.4712918507
 20
110.2988211946
 10
63.4629726513
 20
110.3023455487
 10
63.4545408342
 20
110.305647463
 10
63.4460083838
 20
110.3087270353
 10
63.4373872841
 20
110.3115843634
 10
63.4286895193
 20
110.3142195451
 10
63.4199270737
 20
110.3166326782
 10
63.4111119313
 20
110.3188238604
 10
63.4022560764
 20
110.3207931896
 10
63.3933714932
 20
110.3225407636
 10
63.3844701658
 20
110.3240666801
 10
63.3755640784
 20
110.3253710369
 10
63.3666652151
 20
110.3264539319
 10
63.3577855603
 20
110.3273154628
 10
63.348937098
 20
110.3279557274
 10
63.3401318123
 20
110.3283748235
 10
63.3313816876
 20
110.3285728489
 10
63.322698708
 20
110.3285499014
  0
LINE
  5
318
100
AcDbEntity
  8
CURVE
100
AcDbLine
 62
250
  6
CONTINUOUS
 10
62.7436653812
 20
104.8606057755
 11
62.7436653812
 21
105.2780497755
  0
LINE
  5
319
100
AcDbEntity
  8
CURVE
100
AcDbLine
 62
250
  6
CONTINUOUS
 10
62.7437853812
 20
108.6276087755
 11
62.7437853812
 21
108.2237817755
  0
LINE
  5
31A
100
AcDbEntity
  8
CURVE
100
AcDbLine
 62
250
  6
CONTINUOUS
 10
62.7437853812
 20
107.3439477755
 11
62.7437853812
 21
106.9309267755
  0
LINE
  5
31B
100
AcDbEntity
  8
CURVE
100
AcDbLine
 62
250
  6
CONTINUOUS
 10
62.7437853812
 20
106.1004467755
 11
62.7437853812
 21
105.6833477755
  0
LINE
  5
31C
100
AcDbEntity
  8
CURVE
100
AcDbLine
 62
250
  6
CONTINUOUS
 10
62.7437853812
 20
104.7056907755
 11
62.7437853812
 21
104.2885307755
  0
LINE
  5
31D
100
AcDbEntity
  8
CURVE
100
AcDbLine
 62
250
  6
CONTINUOUS
 10
62.7437853812
 20
103.5144757755
 11
62.7437853812
 21
103.0610027755
  0
LINE
  5
31E
100
AcDbEntity
  8
CURVE
100
AcDbLine
 62
250
  6
CONTINUOUS
 10
63.633472613
 20
109.7657136601
 11
63.633472613
 21
110.0042790841
  0
LINE
  5
31F
100
AcDbEntity
  8
CURVE
100
AcDbLine
 62
250
  6
CONTINUOUS
 10
63.9609976859
 20
110.0033792899
 11
63.9609976859
 21
109.7795554936
  0
LINE
  5
320
100
AcDbEntity
  8
CURVE
100
AcDbLine
 62
250
  6
CONTINUOUS
 10
64.0354553812
 20
108.6096727755
 11
64.0354553812
 21
108.2099997755
  0
LINE
  5
321
100
AcDbEntity
  8
CURVE
100
AcDbLine
 62
250
  6
CONTINUOUS
 10
64.3443843812
 20
108.1246087755
 11
64.3443843812
 21
108.6930987755
  0
LINE
  5
322
100
AcDbEntity
  8
CURVE
100
AcDbLine
 62
250
  6
CONTINUOUS
 10
64.7436233812
 20
105.2780497755
 11
64.7436233812
 21
104.8606057755
  0
LINE
  5
323
100
AcDbEntity
  8
CURVE
100
AcDbLine
 62
250
  6
CONTINUOUS
 10
64.7436233812
 20
103.6949897755
 11
64.7436233812
 21
104.0628627755
  0
LINE
  5
324
100
AcDbEntity
  8
CURVE
100
AcDbLine
 62
250
  6
CONTINUOUS
 10
64.7436233812
 20
105.5027737755
 11
64.7436233812
 21
105.9021317755
  0
LINE
  5
325
100
AcDbEntity
  8
CURVE
100
AcDbLine
 62
250
  6
CONTINUOUS
 10
64.7436233812
 20
106.4819297755
 11
64.7436233812
 21
106.5404757755
  0
LINE
  5
326
100
AcDbEntity
  8
CURVE
100
AcDbLine
 62
250
  6
CONTINUOUS
 10
64.7436233812
 20
107.1225837755
 11
64.7436233812
 21
107.5309547755
  0
LINE
  5
327
100
AcDbEntity
  8
CURVE
100
AcDbLine
 62
250
  6
CONTINUOUS
 10
64.7436233812
 20
107.5965047755
 11
64.7436233812
 21
108.0094207755
  0
LINE
  5
328
100
AcDbEntity
  8
CURVE
100
AcDbLine
 62
250
  6
CONTINUOUS
 10
64.7436233812
 20
108.8012397755
 11
64.7436233812
 21
109.2412087755
  0
LINE
  5
329
100
AcDbEntity
  8
CURVE
100
AcDbLine
 62
250
  6
CONTINUOUS
 10
64.7436236465
 20
110.8203473941
 11
64.7436236465
 21
110.4188142519
  0
LINE
  5
32A
100
AcDbEntity
  8
CURVE
100
AcDbLine
 62
250
  6
CONTINUOUS
 10
64.7436236465
 20
109.7795554936
 11
64.7436236465
 21
109.3637906071
  0
LWPOLYLINE
  5
32B
100
AcDbEntity
  8
0
100
AcDbPolyline
 62
7
  6
CONTINUOUS
 90
4
 70
0
 43
0.3499999917
 10
66.0537799072
 20
194.7391186523
 10
66.0537799072
 20
195.5962683105
 10
66.4823547363
 20
196.0248303223
 10
67.1252105713
 20
196.0248303223
  0
LINE
  5
32C
100
AcDbEntity
  8
SUPERFICI
100
AcDbLine
 62
7
  6
CONTINUOUS
 10
66.1966383812
 20
97.5605417755
 11
66.1966383812
 21
185.5605417755
  0
LINE
  5
32D
100
AcDbEntity
  8
0
100
AcDbLine
 62
7
  6
CONTINUOUS
 10
66.1966383812
 20
97.5605417755
 11
66.1966383812
 21
185.5605417755
  0
LWPOLYLINE
  5
32E
100
AcDbEntity
  8
CURVE
100
AcDbPolyline
 62
250
  6
CONTINUOUS
 90
22
 70
0
 10
63.072704668
 20
110.0927332467
 10
63.070984954
 20
110.0768710239
 10
63.0695034466
 20
110.0609748098
 10
63.0682600686
 20
110.0450495602
 10
63.0672547428
 20
110.0291002313
 10
63.0664873921
 20
110.0131317788
 10
63.0659579393
 20
109.9971491587
 10
63.0656663073
 20
109.9811573271
 10
63.0656124188
 20
109.9651612397
 10
63.0657961968
 20
109.9491658526
 10
63.0662175641
 20
109.9331761217
 10
63.0668764435
 20
109.917197003
 10
63.0677727579
 20
109.9012334523
 10
63.06890643
 20
109.8852904256
 10
63.0702773828
 20
109.869372879
 10
63.0718855391
 20
109.8534857682
 10
63.0735841307
 20
109.8387958926
 10
63.0754676535
 20
109.8241338691
 10
63.077517465
 20
109.809497166
 10
63.0797149225
 20
109.7948832514
 10
63.0820413834
 20
109.7802895934
 10
63.0844782051
 20
109.7657136601
  0
LINE
  5
32F
100
AcDbEntity
  8
RACCORDO
100
AcDbLine
 62
250
  6
CONTINUOUS
 10
68.9031451384
 20
183.9528653488
 11
68.9035075166
 21
183.9256739888
  0
LINE
  5
330
100
AcDbEntity
  8
RACCORDO
100
AcDbLine
 62
250
  6
CONTINUOUS
 10
68.9035075166
 20
183.9256739888
 11
68.9038783192
 21
183.8689962461
  0
LINE
  5
331
100
AcDbEntity
  8
RACCORDO
100
AcDbLine
 62
250
  6
CONTINUOUS
 10
68.9018737709
 20
99.8389967612
 11
68.9038754608
 21
99.4591150696
  0
LINE
  5
332
100
AcDbEntity
  8
RACCORDO
100
AcDbLine
 62
250
  6
CONTINUOUS
 10
68.9018737709
 20
183.2820867898
 11
68.9018737709
 21
99.8389967612
  0
LINE
  5
333
100
AcDbEntity
  8
RACCORDO
100
AcDbLine
 62
7
  6
CONTINUOUS
 10
69.0966383812
 20
183.7819154523
 11
69.0966383812
 21
99.3391680987
  0
LINE
  5
334
100
AcDbEntity
  8
RACCORDO
100
AcDbLine
 62
250
  6
CONTINUOUS
 10
68.9038783192
 20
183.8689962461
 11
68.9040175734
 21
183.7370410953
  0
LINE
  5
335
100
AcDbEntity
  8
RACCORDO
100
AcDbLine
 62
250
  6
CONTINUOUS
 10
68.9038754608
 20
99.4591150696
 11
68.9039743323
 21
99.2831242046
  0
LINE
  5
336
100
AcDbEntity
  8
RACCORDO
100
AcDbLine
 62
250
  6
CONTINUOUS
 10
68.9040175734
 20
183.7370410953
 11
68.9029834976
 21
183.4512503019
  0
LINE
  5
337
100
AcDbEntity
  8
RACCORDO
100
AcDbLine
 62
250
  6
CONTINUOUS
 10
68.9039743323
 20
99.2831242046
 11
68.9036985814
 21
99.2185409526
  0
LINE
  5
338
100
AcDbEntity
  8
RACCORDO
100
AcDbLine
 62
250
  6
CONTINUOUS
 10
68.9029834976
 20
183.4512503019
 11
68.9018737709
 21
183.2820867898
  0
LWPOLYLINE
  5
339
100
AcDbEntity
  8
RACCORDO
100
AcDbPolyline
 62
250
  6
CONTINUOUS
 90
8
 70
0
 10
68.9036985814
 20
99.2185409526
 10
68.9033933047
 20
99.185150546
 10
68.9032026417
 20
99.1715075791
 10
68.9029858123
 20
99.1601072888
 10
68.9027429804
 20
99.1510927096
 10
68.9024754878
 20
99.1445602302
 10
68.9021850512
 20
99.1405831438
 10
68.9018737709
 20
99.1392366337
  0
LWPOLYLINE
  5
33A
100
AcDbEntity
  8
CURVE
100
AcDbPolyline
 62
250
  6
CONTINUOUS
 90
73
 70
0
 10
62.7882059826
 20
110.3939799332
 10
62.7933314795
 20
110.4072554928
 10
62.7990201537
 20
110.4203078112
 10
62.8052289385
 20
110.433137555
 10
62.8119147673
 20
110.4457453907
 10
62.8190345735
 20
110.4581319851
 10
62.8265452905
 20
110.4702980047
 10
62.8344038515
 20
110.4822441162
 10
62.8456890227
 20
110.4982732989
 10
62.8575364651
 20
110.513871346
 10
62.8699348069
 20
110.5290197717
 10
62.8828726763
 20
110.5437000899
 10
62.8963387015
 20
110.5578938149
 10
62.9103215107
 20
110.5715824608
 10
62.9248097321
 20
110.5847475417
 10
62.9406849721
 20
110.59809606
 10
62.9570826539
 20
110.6108187473
 10
62.9739713805
 20
110.6228974327
 10
62.9913197552
 20
110.6343139455
 10
63.0090963811
 20
110.6450501147
 10
63.0272698611
 20
110.6550877697
 10
63.0458087985
 20
110.6644087396
 10
63.0646817964
 20
110.6729948536
 10
63.0822862696
 20
110.6802220027
 10
63.1001237729
 20
110.6868182954
 10
63.1181719426
 20
110.692788295
 10
63.136408415
 20
110.6981365648
 10
63.1548108263
 20
110.7028676681
 10
63.1754514168
 20
110.7074141162
 10
63.1962440717
 20
110.7112260324
 10
63.2171631704
 20
110.7143270274
 10
63.2381830922
 20
110.7167407116
 10
63.2592782166
 20
110.7184906956
 10
63.2809642506
 20
110.7196143878
 10
63.3026750892
 20
110.7200518632
 10
63.3243833861
 20
110.7197901588
 10
63.346061795
 20
110.7188163115
 10
63.3676829699
 20
110.7171173586
 10
63.3892195644
 20
110.7146803369
 10
63.407968972
 20
110.7119333185
 10
63.4266222559
 20
110.7086036394
 10
63.4451689352
 20
110.7046833072
 10
63.4635985293
 20
110.7001643295
 10
63.4819005574
 20
110.6950387137
 10
63.5000645387
 20
110.6892984676
 10
63.5180911566
 20
110.6829323826
 10
63.5359282061
 20
110.6759514375
 10
63.5535349151
 20
110.6683645208
 10
63.570870511
 20
110.6601805208
 10
63.5878942217
 20
110.651408326
 10
63.6045652747
 20
110.6420568247
 10
63.6208428978
 20
110.6321349054
 10
63.6366863187
 20
110.6216514564
 10
63.6520547649
 20
110.6106153662
 10
63.6669074642
 20
110.5990355231
 10
63.6801794989
 20
110.5878385225
 10
63.693033558
 20
110.5762009887
 10
63.7055287623
 20
110.5641409203
 10
63.7177242326
 20
110.551676316
 10
63.7296790896
 20
110.5388251744
 10
63.741452454
 20
110.5256054942
 10
63.7531034466
 20
110.5120352741
 10
63.7646911882
 20
110.4981325127
 10
63.7692752091
 20
110.4925206004
 10
63.7737846261
 20
110.4868423545
 10
63.7781454865
 20
110.4810810393
 10
63.7822838378
 20
110.4752199189
 10
63.7861257273
 20
110.4692422577
 10
63.7895972023
 20
110.4631313198
 10
63.7926243103
 20
110.4568703696
 10
63.7951330987
 20
110.4504426712
 10
63.7970496148
 20
110.4438314889
 10
63.7982999059
 20
110.437020087
  0
LWPOLYLINE
  5
33B
100
AcDbEntity
  8
CURVE
100
AcDbPolyline
 62
250
  6
CONTINUOUS
 90
45
 70
0
 10
63.8101172025
 20
110.437020087
 10
63.8135347927
 20
110.4451239123
 10
63.8172507353
 20
110.4530578343
 10
63.8212563406
 20
110.4608236787
 10
63.8255429188
 20
110.4684232708
 10
63.8301017802
 20
110.4758584361
 10
63.8349242351
 20
110.483131
 10
63.8400015936
 20
110.490242788
 10
63.8453251661
 20
110.4971956255
 10
63.8508862628
 20
110.5039913379
 10
63.856676194
 20
110.5106317509
 10
63.8626862698
 20
110.5171186897
 10
63.8689078006
 20
110.5234539798
 10
63.8753320966
 20
110.5296394467
 10
63.8819504681
 20
110.5356769159
 10
63.8887542253
 20
110.5415682127
 10
63.8957346785
 20
110.5473151627
 10
63.9028831378
 20
110.5529195913
 10
63.9101909137
 20
110.5583833239
 10
63.9176493163
 20
110.563708186
 10
63.9252496559
 20
110.568896003
 10
63.9329832427
 20
110.5739486004
 10
63.940841387
 20
110.5788678037
 10
63.9488153991
 20
110.5836554383
 10
63.9568965891
 20
110.5883133296
 10
63.9650762674
 20
110.5928433031
 10
63.9733457442
 20
110.5972471843
 10
63.9816963298
 20
110.6015267985
 10
63.9901193343
 20
110.6056839713
 10
63.9986060682
 20
110.6097205281
 10
64.0071478415
 20
110.6136382943
 10
64.0157359646
 20
110.6174390955
 10
64.0243617478
 20
110.621124757
 10
64.0330165012
 20
110.6246971043
 10
64.0416915352
 20
110.6281579629
 10
64.0503781599
 20
110.6315091581
 10
64.0590676856
 20
110.6347525155
 10
64.0677514227
 20
110.6378898606
 10
64.0764206813
 20
110.6409230186
 10
64.0850667717
 20
110.6438538152
 10
64.0936810041
 20
110.6466840758
 10
64.1093619158
 20
110.6516215126
 10
64.1249390198
 20
110.6562877886
 10
64.1404445402
 20
110.6607429022
 10
64.1559107007
 20
110.6650468517
  0
LWPOLYLINE
  5
33C
100
AcDbEntity
  8
RACCORDO
100
AcDbPolyline
 62
250
  6
CONTINUOUS
 90
6
 70
0
 10
68.9018737709
 20
183.9818469172
 10
68.9021674811
 20
183.9806484411
 10
68.9024439647
 20
183.9770960181
 10
68.902700949
 20
183.9712361076
 10
68.9029344334
 20
183.963142612
 10
68.9031451384
 20
183.9528653488
  0
LWPOLYLINE
  5
33D
100
AcDbEntity
  8
0
100
AcDbPolyline
 62
7
  6
CONTINUOUS
 90
10
 70
0
 43
0.3499999917
 10
64.9823556519
 20
194.8105371094
 10
65.0537805176
 20
194.6676745605
 10
65.0537805176
 20
194.5962561035
 10
64.9109243774
 20
194.4533935547
 10
64.839493103
 20
194.4533935547
 10
64.7680682373
 20
194.5248376465
 10
64.7680682373
 20
194.5962561035
 10
64.839493103
 20
194.7391186523
 10
64.9109243774
 20
194.8105371094
 10
64.9823556519
 20
194.8105371094
  0
LWPOLYLINE
  5
33E
100
AcDbEntity
  8
CURVE
100
AcDbPolyline
 62
250
  6
CONTINUOUS
 90
48
 70
0
 10
64.1372073748
 20
110.2362760107
 10
64.13105179
 20
110.2338927315
 10
64.1249157506
 20
110.2313698734
 10
64.118805308
 20
110.2287088252
 10
64.1127265137
 20
110.2259109757
 10
64.1066854191
 20
110.2229777137
 10
64.1006880755
 20
110.2199104281
 10
64.0947405344
 20
110.2167105076
 10
64.0888488472
 20
110.213379341
 10
64.0830190653
 20
110.2099183171
 10
64.07725724
 20
110.2063288247
 10
64.0715694229
 20
110.2026122527
 10
64.0659616653
 20
110.1987699897
 10
64.0604400185
 20
110.1948034246
 10
64.0550105341
 20
110.1907139463
 10
64.0496792634
 20
110.1865029434
 10
64.0444522578
 20
110.1821718048
 10
64.0393355688
 20
110.1777219193
 10
64.0343352477
 20
110.1731546757
 10
64.0294573459
 20
110.1684714628
 10
64.0247079149
 20
110.1636736694
 10
64.0200930061
 20
110.1587626843
 10
64.0156186708
 20
110.1537398962
 10
64.0112909604
 20
110.148606694
 10
64.0071159265
 20
110.1433644665
 10
64.0030996203
 20
110.1380146025
 10
63.9992480933
 20
110.1325584907
 10
63.9955673969
 20
110.12699752
 10
63.9920635825
 20
110.1213330792
 10
63.9887427014
 20
110.1155665571
 10
63.9856108052
 20
110.1096993424
 10
63.9827433415
 20
110.1038831391
 10
63.980060008
 20
110.0979791203
 10
63.9775594695
 20
110.0919939011
 10
63.9752403908
 20
110.0859340967
 10
63.9731014367
 20
110.0798063223
 10
63.9711412719
 20
110.073617193
 10
63.9693585613
 20
110.067373324
 10
63.9677519696
 20
110.0610813306
 10
63.9663201616
 20
110.0547478278
 10
63.9650618021
 20
110.0483794308
 10
63.9639755559
 20
110.0419827548
 10
63.9630600878
 20
110.035564415
 10
63.9623140625
 20
110.0291310266
 10
63.9617361449
 20
110.0226892047
 10
63.9613249998
 20
110.0162455645
 10
63.9610792918
 20
110.0098067212
 10
63.9609976859
 20
110.0033792899
  0
LWPOLYLINE
  5
33F
100
AcDbEntity
  8
CURVE
100
AcDbPolyline
 62
250
  6
CONTINUOUS
 90
8
 70
0
 10
64.3333741963
 20
110.3001906637
 10
64.3050803123
 20
110.2918510713
 10
64.2768501934
 20
110.2833227395
 10
64.2486995909
 20
110.2745606974
 10
64.2206442564
 20
110.2655199743
 10
64.1926999413
 20
110.2561555994
 10
64.1648823969
 20
110.2464226018
 10
64.1372073748
 20
110.2362760107
  0
LINE
  5
340
100
AcDbEntity
  8
CURVE
100
AcDbLine
 62
250
  6
CONTINUOUS
 10
64.7436236465
 20
110.4188142519
 11
64.4752487919
 21
110.3406315126
  0
LINE
  5
341
100
AcDbEntity
  8
CURVE
100
AcDbLine
 62
250
  6
CONTINUOUS
 10
64.3900902538
 20
110.3164835134
 11
64.3333741963
 21
110.3001906637
  0
LINE
  5
342
100
AcDbEntity
  8
CURVE
100
AcDbLine
 62
250
  6
CONTINUOUS
 10
63.4377663812
 20
105.9922157755
 11
64.7436233812
 21
106.4819297755
  0
LINE
  5
343
100
AcDbEntity
  8
CURVE
100
AcDbLine
 62
250
  6
CONTINUOUS
 10
63.8541013812
 20
106.5134827755
 11
62.7437853812
 21
106.1004467755
  0
LINE
  5
344
100
AcDbEntity
  8
CURVE
100
AcDbLine
 62
250
  6
CONTINUOUS
 10
64.7436233812
 20
109.2412087755
 11
62.7437853812
 21
108.6276087755
  0
LINE
  5
345
100
AcDbEntity
  8
CURVE
100
AcDbLine
 62
250
  6
CONTINUOUS
 10
62.7437853812
 20
103.0610027755
 11
64.7436233812
 21
103.6949897755
  0
LINE
  5
346
100
AcDbEntity
  8
RACCORDO
100
AcDbLine
 62
250
  6
CONTINUOUS
 10
69.0966383812
 20
183.2820867898
 11
68.9018737709
 21
183.2820867898
  0
LINE
  5
347
100
AcDbEntity
  8
RACCORDO
100
AcDbLine
 62
7
  6
CONTINUOUS
 10
66.1966383812
 20
185.5605417755
 11
61.7966383812
 21
185.5605417755
  0
LINE
  5
348
100
AcDbEntity
  8
0
100
AcDbLine
 62
7
  6
CONTINUOUS
 10
66.1966383812
 20
185.5605417755
 11
61.7966383812
 21
185.5605417755
  0
LINE
  5
349
100
AcDbEntity
  8
RACCORDO
100
AcDbLine
 62
250
  6
CONTINUOUS
 10
66.1966383812
 20
183.3529258715
 11
68.9018737709
 21
183.2820867898
  0
LINE
  5
34A
100
AcDbEntity
  8
RACCORDO
100
AcDbLine
 62
7
  6
CONTINUOUS
 10
66.1966383812
 20
184.052685999
 11
68.9018737709
 21
183.9818469172
  0
LWPOLYLINE
  5
34B
100
AcDbEntity
  8
0
100
AcDbPolyline
 62
7
  6
CONTINUOUS
 90
13
 70
0
 43
0.3499999917
 10
66.4823547363
 20
196.0248303223
 10
66.1966360474
 20
196.2391113281
 10
66.1966360474
 20
196.8819799805
 10
66.4823547363
 20
197.3105419922
 10
67.1252105713
 20
197.3105419922
 10
67.4109228516
 20
196.8819799805
 10
67.4109228516
 20
196.2391113281
 10
67.1252105713
 20
196.0248303223
 10
67.5537789917
 20
195.5962683105
 10
67.5537789917
 20
194.7391186523
 10
67.1252105713
 20
194.3105310059
 10
66.4823547363
 20
194.3105310059
 10
66.0537799072
 20
194.7391186523
  0
ARC
  5
34C
100
AcDbEntity
  8
RACCORDO
100
AcDbCircle
 62
250
  6
CONTINUOUS
 10
115.0970300261
 20
115.3355417755
 40
0.9
100
AcDbArc
 50
180.0
 51
270.0
  0
ARC
  5
34D
100
AcDbEntity
  8
RACCORDO
100
AcDbCircle
 62
250
  6
CONTINUOUS
 10
159.4470300261
 20
115.3355417755
 40
0.9
100
AcDbArc
 50
270.0
 51
360.0
  0
ARC
  5
34E
100
AcDbEntity
  8
RACCORDO
100
AcDbCircle
 62
250
  6
CONTINUOUS
 10
186.0970300261
 20
115.3355417755
 40
0.9
100
AcDbArc
 50
180.0
 51
270.0
  0
ARC
  5
34F
100
AcDbEntity
  8
RACCORDO
100
AcDbCircle
 62
250
  6
CONTINUOUS
 10
230.4470300261
 20
115.3355417755
 40
0.9
100
AcDbArc
 50
270.0
 51
360.0
  0
ARC
  5
350
100
AcDbEntity
  8
0
100
AcDbCircle
 62
250
  6
CONTINUOUS
 10
159.4470300261
 20
115.3355417755
 40
0.9
100
AcDbArc
 50
270.0
 51
360.0
  0
ARC
  5
351
100
AcDbEntity
  8
0
100
AcDbCircle
 62
250
  6
CONTINUOUS
 10
115.0970300261
 20
115.3355417755
 40
0.9
100
AcDbArc
 50
180.0
 51
270.0
  0
ARC
  5
352
100
AcDbEntity
  8
0
100
AcDbCircle
 62
250
  6
CONTINUOUS
 10
230.4470300261
 20
115.3355417755
 40
0.9
100
AcDbArc
 50
270.0
 51
360.0
  0
ARC
  5
353
100
AcDbEntity
  8
0
100
AcDbCircle
 62
250
  6
CONTINUOUS
 10
186.0970300261
 20
115.3355417755
 40
0.9
100
AcDbArc
 50
180.0
 51
270.0
  0
ARC
  5
354
100
AcDbEntity
  8
RACCORDO
100
AcDbCircle
 62
7
  6
CONTINUOUS
 10
113.9220300261
 20
123.2605417755
 40
0.6
100
AcDbArc
 50
343.4663382169
 51
16.5336617816
  0
ARC
  5
355
100
AcDbEntity
  8
RACCORDO
100
AcDbCircle
 62
7
  6
CONTINUOUS
 10
184.9220300261
 20
123.2605417755
 40
0.6
100
AcDbArc
 50
343.4663382178
 51
16.5336617799
  0
ARC
  5
356
100
AcDbEntity
  8
RACCORDO
100
AcDbCircle
 62
7
  6
CONTINUOUS
 10
231.6220300261
 20
123.2605417755
 40
0.6
100
AcDbArc
 50
163.4663382087
 51
196.5336617556
  0
ARC
  5
357
100
AcDbEntity
  8
RACCORDO
100
AcDbCircle
 62
7
  6
CONTINUOUS
 10
159.4470300261
 20
115.3355417755
 40
0.6
100
AcDbArc
 50
270.0
 51
360.0
  0
ARC
  5
358
100
AcDbEntity
  8
RACCORDO
100
AcDbCircle
 62
7
  6
CONTINUOUS
 10
115.0970300261
 20
115.3355417755
 40
0.6
100
AcDbArc
 50
180.0
 51
270.0
  0
ARC
  5
359
100
AcDbEntity
  8
RACCORDO
100
AcDbCircle
 62
7
  6
CONTINUOUS
 10
186.0970300261
 20
115.3355417755
 40
0.6
100
AcDbArc
 50
180.0
 51
270.0
  0
ARC
  5
35A
100
AcDbEntity
  8
RACCORDO
100
AcDbCircle
 62
7
  6
CONTINUOUS
 10
230.4470300261
 20
115.3355417755
 40
0.6
100
AcDbArc
 50
270.0
 51
360.0
  0
ARC
  5
35B
100
AcDbEntity
  8
0
100
AcDbCircle
 62
7
  6
CONTINUOUS
 10
230.4470300261
 20
115.3355417755
 40
0.6
100
AcDbArc
 50
270.0
 51
360.0
  0
ARC
  5
35C
100
AcDbEntity
  8
0
100
AcDbCircle
 62
7
  6
CONTINUOUS
 10
186.0970300261
 20
115.3355417755
 40
0.6
100
AcDbArc
 50
180.0
 51
270.0
  0
ARC
  5
35D
100
AcDbEntity
  8
0
100
AcDbCircle
 62
7
  6
CONTINUOUS
 10
115.0970300261
 20
115.3355417755
 40
0.6
100
AcDbArc
 50
180.0
 51
270.0
  0
ARC
  5
35E
100
AcDbEntity
  8
0
100
AcDbCircle
 62
7
  6
CONTINUOUS
 10
159.4470300261
 20
115.3355417755
 40
0.6
100
AcDbArc
 50
270.0
 51
360.0
  0
ARC
  5
35F
100
AcDbEntity
  8
RACCORDO
100
AcDbCircle
 62
250
  6
CONTINUOUS
 10
113.9220300261
 20
123.2605417755
 40
0.5981935669
100
AcDbArc
 50
344.0951900839
 51
15.9048099647
  0
ARC
  5
360
100
AcDbEntity
  8
RACCORDO
100
AcDbCircle
 62
250
  6
CONTINUOUS
 10
160.6220300261
 20
123.2605417755
 40
0.5981935669
100
AcDbArc
 50
164.0861637676
 51
195.9138363006
  0
ARC
  5
361
100
AcDbEntity
  8
RACCORDO
100
AcDbCircle
 62
250
  6
CONTINUOUS
 10
184.9220300261
 20
123.2605417755
 40
0.5981935669
100
AcDbArc
 50
344.0951900913
 51
15.9048099693
  0
ARC
  5
362
100
AcDbEntity
  8
RACCORDO
100
AcDbCircle
 62
250
  6
CONTINUOUS
 10
231.6220300261
 20
123.2605417755
 40
0.5981935669
100
AcDbArc
 50
164.0951900783
 51
195.9048099437
  0
ARC
  5
363
100
AcDbEntity
  8
RACCORDO
100
AcDbCircle
 62
250
  6
CONTINUOUS
 10
115.0970300261
 20
167.7855417755
 40
0.9
100
AcDbArc
 50
90.0
 51
180.0
  0
ARC
  5
364
100
AcDbEntity
  8
RACCORDO
100
AcDbCircle
 62
250
  6
CONTINUOUS
 10
159.4470300261
 20
167.7855417755
 40
0.9
100
AcDbArc
 50
0.0
 51
90.0
  0
ARC
  5
365
100
AcDbEntity
  8
RACCORDO
100
AcDbCircle
 62
250
  6
CONTINUOUS
 10
230.4470300261
 20
167.7855417755
 40
0.9
100
AcDbArc
 50
0.0
 51
90.0
  0
ARC
  5
366
100
AcDbEntity
  8
RACCORDO
100
AcDbCircle
 62
250
  6
CONTINUOUS
 10
186.0970300261
 20
167.7855417755
 40
0.9
100
AcDbArc
 50
90.0
 51
180.0
  0
ARC
  5
367
100
AcDbEntity
  8
0
100
AcDbCircle
 62
250
  6
CONTINUOUS
 10
159.4470300261
 20
167.7855417755
 40
0.9
100
AcDbArc
 50
0.0
 51
90.0
  0
ARC
  5
368
100
AcDbEntity
  8
0
100
AcDbCircle
 62
250
  6
CONTINUOUS
 10
115.0970300261
 20
167.7855417755
 40
0.9
100
AcDbArc
 50
90.0
 51
180.0
  0
ARC
  5
369
100
AcDbEntity
  8
0
100
AcDbCircle
 62
250
  6
CONTINUOUS
 10
186.0970300261
 20
167.7855417755
 40
0.9
100
AcDbArc
 50
90.0
 51
180.0
  0
ARC
  5
36A
100
AcDbEntity
  8
0
100
AcDbCircle
 62
250
  6
CONTINUOUS
 10
230.4470300261
 20
167.7855417755
 40
0.9
100
AcDbArc
 50
0.0
 51
90.0
  0
ARC
  5
36B
100
AcDbEntity
  8
RACCORDO
100
AcDbCircle
 62
7
  6
CONTINUOUS
 10
113.9220300261
 20
159.8605417755
 40
0.6
100
AcDbArc
 50
343.4663382169
 51
16.5336617816
  0
ARC
  5
36C
100
AcDbEntity
  8
RACCORDO
100
AcDbCircle
 62
7
  6
CONTINUOUS
 10
184.9220300261
 20
159.8605417755
 40
0.6
100
AcDbArc
 50
343.4663382178
 51
16.5336617799
  0
ARC
  5
36D
100
AcDbEntity
  8
RACCORDO
100
AcDbCircle
 62
7
  6
CONTINUOUS
 10
231.6220300261
 20
159.8605417755
 40
0.6
100
AcDbArc
 50
163.4663382325
 51
196.533661788
  0
ARC
  5
36E
100
AcDbEntity
  8
RACCORDO
100
AcDbCircle
 62
7
  6
CONTINUOUS
 10
159.4470300261
 20
167.7855417755
 40
0.6
100
AcDbArc
 50
0.0
 51
90.0
  0
ARC
  5
36F
100
AcDbEntity
  8
RACCORDO
100
AcDbCircle
 62
7
  6
CONTINUOUS
 10
115.0970300261
 20
167.7855417755
 40
0.6
100
AcDbArc
 50
90.0
 51
180.0
  0
ARC
  5
370
100
AcDbEntity
  8
RACCORDO
100
AcDbCircle
 62
7
  6
CONTINUOUS
 10
186.0970300261
 20
167.7855417755
 40
0.6
100
AcDbArc
 50
90.0
 51
180.0
  0
ARC
  5
371
100
AcDbEntity
  8
RACCORDO
100
AcDbCircle
 62
7
  6
CONTINUOUS
 10
230.4470300261
 20
167.7855417755
 40
0.6
100
AcDbArc
 50
0.0
 51
90.0
  0
ARC
  5
372
100
AcDbEntity
  8
0
100
AcDbCircle
 62
7
  6
CONTINUOUS
 10
230.4470300261
 20
167.7855417755
 40
0.6
100
AcDbArc
 50
0.0
 51
90.0
  0
ARC
  5
373
100
AcDbEntity
  8
0
100
AcDbCircle
 62
7
  6
CONTINUOUS
 10
186.0970300261
 20
167.7855417755
 40
0.6
100
AcDbArc
 50
90.0
 51
180.0
  0
ARC
  5
374
100
AcDbEntity
  8
0
100
AcDbCircle
 62
7
  6
CONTINUOUS
 10
115.0970300261
 20
167.7855417755
 40
0.6
100
AcDbArc
 50
90.0
 51
180.0
  0
ARC
  5
375
100
AcDbEntity
  8
0
100
AcDbCircle
 62
7
  6
CONTINUOUS
 10
159.4470300261
 20
167.7855417755
 40
0.6
100
AcDbArc
 50
0.0
 51
90.0
  0
ARC
  5
376
100
AcDbEntity
  8
RACCORDO
100
AcDbCircle
 62
250
  6
CONTINUOUS
 10
113.9220300261
 20
159.8605417755
 40
0.5981935669
100
AcDbArc
 50
344.0951900839
 51
15.9048099647
  0
ARC
  5
377
100
AcDbEntity
  8
RACCORDO
100
AcDbCircle
 62
250
  6
CONTINUOUS
 10
160.6220300261
 20
159.8605417755
 40
0.5981935669
100
AcDbArc
 50
164.0861637676
 51
195.9138363006
  0
ARC
  5
378
100
AcDbEntity
  8
RACCORDO
100
AcDbCircle
 62
250
  6
CONTINUOUS
 10
184.9220300261
 20
159.8605417755
 40
0.5981935669
100
AcDbArc
 50
344.0951900913
 51
15.9048099693
  0
ARC
  5
379
100
AcDbEntity
  8
RACCORDO
100
AcDbCircle
 62
250
  6
CONTINUOUS
 10
231.6220300261
 20
159.8605417755
 40
0.5981935669
100
AcDbArc
 50
164.0951900933
 51
195.9048099659
  0
ARC
  5
37A
100
AcDbEntity
  8
RACCORDO
100
AcDbCircle
 62
250
  6
CONTINUOUS
 10
328.0970300261
 20
115.3355417755
 40
0.9
100
AcDbArc
 50
180.0
 51
270.0
  0
ARC
  5
37B
100
AcDbEntity
  8
RACCORDO
100
AcDbCircle
 62
250
  6
CONTINUOUS
 10
372.4470300261
 20
115.3355417755
 40
0.9
100
AcDbArc
 50
270.0
 51
360.0
  0
ARC
  5
37C
100
AcDbEntity
  8
RACCORDO
100
AcDbCircle
 62
250
  6
CONTINUOUS
 10
257.0970300261
 20
115.3355417755
 40
0.9
100
AcDbArc
 50
180.0
 51
270.0
  0
ARC
  5
37D
100
AcDbEntity
  8
RACCORDO
100
AcDbCircle
 62
250
  6
CONTINUOUS
 10
301.4470300261
 20
115.3355417755
 40
0.9
100
AcDbArc
 50
270.0
 51
360.0
  0
ARC
  5
37E
100
AcDbEntity
  8
0
100
AcDbCircle
 62
250
  6
CONTINUOUS
 10
301.4470300261
 20
115.3355417755
 40
0.9
100
AcDbArc
 50
270.0
 51
360.0
  0
ARC
  5
37F
100
AcDbEntity
  8
0
100
AcDbCircle
 62
250
  6
CONTINUOUS
 10
257.0970300261
 20
115.3355417755
 40
0.9
100
AcDbArc
 50
180.0
 51
270.0
  0
ARC
  5
380
100
AcDbEntity
  8
0
100
AcDbCircle
 62
250
  6
CONTINUOUS
 10
372.4470300261
 20
115.3355417755
 40
0.9
100
AcDbArc
 50
270.0
 51
360.0
  0
ARC
  5
381
100
AcDbEntity
  8
0
100
AcDbCircle
 62
250
  6
CONTINUOUS
 10
328.0970300261
 20
115.3355417755
 40
0.9
100
AcDbArc
 50
180.0
 51
270.0
  0
ARC
  5
382
100
AcDbEntity
  8
RACCORDO
100
AcDbCircle
 62
7
  6
CONTINUOUS
 10
255.9220300261
 20
123.2605417755
 40
0.6
100
AcDbArc
 50
343.4663382325
 51
16.533661788
  0
ARC
  5
383
100
AcDbEntity
  8
RACCORDO
100
AcDbCircle
 62
7
  6
CONTINUOUS
 10
302.6220300261
 20
123.2605417755
 40
0.6
100
AcDbArc
 50
163.4663382178
 51
196.5336617799
  0
ARC
  5
384
100
AcDbEntity
  8
RACCORDO
100
AcDbCircle
 62
7
  6
CONTINUOUS
 10
326.9220300261
 20
123.2605417755
 40
0.6
100
AcDbArc
 50
343.4663382098
 51
16.5336617664
  0
ARC
  5
385
100
AcDbEntity
  8
RACCORDO
100
AcDbCircle
 62
7
  6
CONTINUOUS
 10
373.6220300261
 20
123.2605417755
 40
0.6
100
AcDbArc
 50
163.4663382168
 51
196.5336617816
  0
ARC
  5
386
100
AcDbEntity
  8
RACCORDO
100
AcDbCircle
 62
7
  6
CONTINUOUS
 10
257.0970300261
 20
115.3355417755
 40
0.6
100
AcDbArc
 50
180.0
 51
270.0
  0
ARC
  5
387
100
AcDbEntity
  8
RACCORDO
100
AcDbCircle
 62
7
  6
CONTINUOUS
 10
301.4470300261
 20
115.3355417755
 40
0.6
100
AcDbArc
 50
270.0
 51
360.0
  0
ARC
  5
388
100
AcDbEntity
  8
RACCORDO
100
AcDbCircle
 62
7
  6
CONTINUOUS
 10
328.0970300261
 20
115.3355417755
 40
0.6
100
AcDbArc
 50
180.0
 51
270.0
  0
ARC
  5
389
100
AcDbEntity
  8
RACCORDO
100
AcDbCircle
 62
7
  6
CONTINUOUS
 10
372.4470300261
 20
115.3355417755
 40
0.6
100
AcDbArc
 50
270.0
 51
360.0
  0
ARC
  5
38A
100
AcDbEntity
  8
0
100
AcDbCircle
 62
7
  6
CONTINUOUS
 10
372.4470300261
 20
115.3355417755
 40
0.6
100
AcDbArc
 50
270.0
 51
360.0
  0
ARC
  5
38B
100
AcDbEntity
  8
0
100
AcDbCircle
 62
7
  6
CONTINUOUS
 10
328.0970300261
 20
115.3355417755
 40
0.6
100
AcDbArc
 50
180.0
 51
270.0
  0
ARC
  5
38C
100
AcDbEntity
  8
0
100
AcDbCircle
 62
7
  6
CONTINUOUS
 10
301.4470300261
 20
115.3355417755
 40
0.6
100
AcDbArc
 50
270.0
 51
360.0
  0
ARC
  5
38D
100
AcDbEntity
  8
0
100
AcDbCircle
 62
7
  6
CONTINUOUS
 10
257.0970300261
 20
115.3355417755
 40
0.6
100
AcDbArc
 50
180.0
 51
270.0
  0
ARC
  5
38E
100
AcDbEntity
  8
RACCORDO
100
AcDbCircle
 62
250
  6
CONTINUOUS
 10
255.9220300261
 20
123.2605417755
 40
0.5981935669
100
AcDbArc
 50
344.0951900933
 51
15.9048099659
  0
ARC
  5
38F
100
AcDbEntity
  8
RACCORDO
100
AcDbCircle
 62
250
  6
CONTINUOUS
 10
302.6220300261
 20
123.2605417755
 40
0.5981935669
100
AcDbArc
 50
164.0951900913
 51
195.9048099693
  0
ARC
  5
390
100
AcDbEntity
  8
RACCORDO
100
AcDbCircle
 62
250
  6
CONTINUOUS
 10
326.9220300261
 20
123.2605417755
 40
0.5981935669
100
AcDbArc
 50
344.09519008
 51
15.9048099551
  0
ARC
  5
391
100
AcDbEntity
  8
RACCORDO
100
AcDbCircle
 62
250
  6
CONTINUOUS
 10
373.6220300261
 20
123.2605417755
 40
0.5981935669
100
AcDbArc
 50
164.0951900839
 51
195.9048099647
  0
ARC
  5
392
100
AcDbEntity
  8
RACCORDO
100
AcDbCircle
 62
250
  6
CONTINUOUS
 10
372.4470300261
 20
167.7855417755
 40
0.9
100
AcDbArc
 50
0.0
 51
90.0
  0
ARC
  5
393
100
AcDbEntity
  8
RACCORDO
100
AcDbCircle
 62
250
  6
CONTINUOUS
 10
328.0970300261
 20
167.7855417755
 40
0.9
100
AcDbArc
 50
90.0
 51
180.0
  0
ARC
  5
394
100
AcDbEntity
  8
RACCORDO
100
AcDbCircle
 62
250
  6
CONTINUOUS
 10
301.4470300261
 20
167.7855417755
 40
0.9
100
AcDbArc
 50
0.0
 51
90.0
  0
ARC
  5
395
100
AcDbEntity
  8
RACCORDO
100
AcDbCircle
 62
250
  6
CONTINUOUS
 10
257.0970300261
 20
167.7855417755
 40
0.9
100
AcDbArc
 50
90.0
 51
180.0
  0
ARC
  5
396
100
AcDbEntity
  8
0
100
AcDbCircle
 62
250
  6
CONTINUOUS
 10
257.0970300261
 20
167.7855417755
 40
0.9
100
AcDbArc
 50
90.0
 51
180.0
  0
ARC
  5
397
100
AcDbEntity
  8
0
100
AcDbCircle
 62
250
  6
CONTINUOUS
 10
301.4470300261
 20
167.7855417755
 40
0.9
100
AcDbArc
 50
0.0
 51
90.0
  0
ARC
  5
398
100
AcDbEntity
  8
0
100
AcDbCircle
 62
250
  6
CONTINUOUS
 10
328.0970300261
 20
167.7855417755
 40
0.9
100
AcDbArc
 50
90.0
 51
180.0
  0
ARC
  5
399
100
AcDbEntity
  8
0
100
AcDbCircle
 62
250
  6
CONTINUOUS
 10
372.4470300261
 20
167.7855417755
 40
0.9
100
AcDbArc
 50
0.0
 51
90.0
  0
ARC
  5
39A
100
AcDbEntity
  8
RACCORDO
100
AcDbCircle
 62
7
  6
CONTINUOUS
 10
255.9220300261
 20
159.8605417755
 40
0.6
100
AcDbArc
 50
343.4663382087
 51
16.5336617556
  0
ARC
  5
39B
100
AcDbEntity
  8
RACCORDO
100
AcDbCircle
 62
7
  6
CONTINUOUS
 10
302.6220300261
 20
159.8605417755
 40
0.6
100
AcDbArc
 50
163.4663382178
 51
196.5336617799
  0
ARC
  5
39C
100
AcDbEntity
  8
RACCORDO
100
AcDbCircle
 62
7
  6
CONTINUOUS
 10
326.9220300261
 20
159.8605417755
 40
0.6
100
AcDbArc
 50
343.4663382098
 51
16.5336617664
  0
ARC
  5
39D
100
AcDbEntity
  8
RACCORDO
100
AcDbCircle
 62
7
  6
CONTINUOUS
 10
373.6220300261
 20
159.8605417755
 40
0.6
100
AcDbArc
 50
163.4663382169
 51
196.5336617816
  0
ARC
  5
39E
100
AcDbEntity
  8
RACCORDO
100
AcDbCircle
 62
7
  6
CONTINUOUS
 10
257.0970300261
 20
167.7855417755
 40
0.6
100
AcDbArc
 50
90.0
 51
180.0
  0
ARC
  5
39F
100
AcDbEntity
  8
RACCORDO
100
AcDbCircle
 62
7
  6
CONTINUOUS
 10
301.4470300261
 20
167.7855417755
 40
0.6
100
AcDbArc
 50
0.0
 51
90.0
  0
ARC
  5
3A0
100
AcDbEntity
  8
RACCORDO
100
AcDbCircle
 62
7
  6
CONTINUOUS
 10
328.0970300261
 20
167.7855417755
 40
0.6
100
AcDbArc
 50
90.0
 51
180.0
  0
ARC
  5
3A1
100
AcDbEntity
  8
RACCORDO
100
AcDbCircle
 62
7
  6
CONTINUOUS
 10
372.4470300261
 20
167.7855417755
 40
0.6
100
AcDbArc
 50
0.0
 51
90.0
  0
ARC
  5
3A2
100
AcDbEntity
  8
0
100
AcDbCircle
 62
7
  6
CONTINUOUS
 10
372.4470300261
 20
167.7855417755
 40
0.6
100
AcDbArc
 50
0.0
 51
90.0
  0
ARC
  5
3A3
100
AcDbEntity
  8
0
100
AcDbCircle
 62
7
  6
CONTINUOUS
 10
328.0970300261
 20
167.7855417755
 40
0.6
100
AcDbArc
 50
90.0
 51
180.0
  0
ARC
  5
3A4
100
AcDbEntity
  8
0
100
AcDbCircle
 62
7
  6
CONTINUOUS
 10
301.4470300261
 20
167.7855417755
 40
0.6
100
AcDbArc
 50
0.0
 51
90.0
  0
ARC
  5
3A5
100
AcDbEntity
  8
0
100
AcDbCircle
 62
7
  6
CONTINUOUS
 10
257.0970300261
 20
167.7855417755
 40
0.6
100
AcDbArc
 50
90.0
 51
180.0
  0
ARC
  5
3A6
100
AcDbEntity
  8
RACCORDO
100
AcDbCircle
 62
250
  6
CONTINUOUS
 10
255.9220300261
 20
159.8605417755
 40
0.5981935669
100
AcDbArc
 50
344.0951900783
 51
15.9048099437
  0
ARC
  5
3A7
100
AcDbEntity
  8
RACCORDO
100
AcDbCircle
 62
250
  6
CONTINUOUS
 10
302.6220300261
 20
159.8605417755
 40
0.5981935669
100
AcDbArc
 50
164.0951900913
 51
195.9048099693
  0
ARC
  5
3A8
100
AcDbEntity
  8
RACCORDO
100
AcDbCircle
 62
250
  6
CONTINUOUS
 10
326.9220300261
 20
159.8605417755
 40
0.5981935669
100
AcDbArc
 50
344.09519008
 51
15.9048099551
  0
ARC
  5
3A9
100
AcDbEntity
  8
RACCORDO
100
AcDbCircle
 62
250
  6
CONTINUOUS
 10
373.6220300261
 20
159.8605417755
 40
0.5981935669
100
AcDbArc
 50
164.0951900839
 51
195.9048099647
  0
ARC
  5
3AA
100
AcDbEntity
  8
RACCORDO
100
AcDbCircle
 62
7
  6
CONTINUOUS
 10
61.7966383812
 20
98.0605417755
 40
0.5
100
AcDbArc
 50
180.0
 51
270.0
  0
ARC
  5
3AB
100
AcDbEntity
  8
RACCORDO
100
AcDbCircle
 62
7
  6
CONTINUOUS
 10
61.7966383812
 20
185.0605417755
 40
0.5
100
AcDbArc
 50
90.0
 51
180.0
  0
ARC
  5
3AC
100
AcDbEntity
  8
0
100
AcDbCircle
 62
7
  6
CONTINUOUS
 10
61.7966383812
 20
185.0605417755
 40
0.5
100
AcDbArc
 50
90.0
 51
180.0
  0
ARC
  5
3AD
100
AcDbEntity
  8
0
100
AcDbCircle
 62
7
  6
CONTINUOUS
 10
61.7966383812
 20
98.0605417755
 40
0.5
100
AcDbArc
 50
180.0
 51
270.0
  0
ARC
  5
3AE
100
AcDbEntity
  8
RACCORDO
100
AcDbCircle
 62
7
  6
CONTINUOUS
 10
68.8966383812
 20
183.7819154523
 40
0.2
100
AcDbArc
 50
0.0
 51
88.5
  0
ARC
  5
3AF
100
AcDbEntity
  8
RACCORDO
100
AcDbCircle
 62
7
  6
CONTINUOUS
 10
68.8966383812
 20
99.3391680987
 40
0.2
100
AcDbArc
 50
271.5
 51
360.0
  0
ENDSEC
  0
SECTION
  2
OBJECTS
  0
DICTIONARY
  5
C
100
AcDbDictionary
280
0
281
1
  3
ACAD_GROUP
350
D
  3
ACAD_MLINESTYLE
350
17
  3
ACAD_LAYOUT
350
1A
  3
ACAD_PLOTSETTINGS
350
19
  3
ACAD_PLOTSTYLENAME
350
E
  0
DICTIONARY
  5
D
102
{ACAD_REACTORS
330
C
102
}
100
AcDbDictionary
280
0
281
1
  0
ACDBDICTIONARYWDFLT
  5
E
102
{ACAD_REACTORS
330
C
102
}
100
AcDbDictionary
281
1
  3
Normal
350
F
100
AcDbDictionaryWithDefault
340
F
  0
DICTIONARY
  5
17
102
{ACAD_REACTORS
330
C
102
}
100
AcDbDictionary
280
0
281
1
  3
Standard
350
18
  0
DICTIONARY
  5
19
102
{ACAD_REACTORS
330
C
102
}
100
AcDbDictionary
281
1
  0
DICTIONARY
  5
1A
102
{ACAD_REACTORS
330
C
102
}
100
AcDbDictionary
281
1
  3
Model
350
3B0
  3
Layout1
350
3B1
  0
ACDBPLACEHOLDER
  5
F
102
{ACAD_REACTORS
330
E
102
}
  0
MLINESTYLE
  5
18
102
{ACAD_REACTORS
330
17
102
}
100
AcDbMlineStyle
  2
STANDARD
 70
0
  3

 62
256
 51
90.0
 52
90.0
 71
2
 49
0.5
 62
256
  6
BYLAYER
 49
-0.5
 62
256
  6
BYLAYER
  0
LAYOUT
  5
3B0
102
{ACAD_REACTORS
330
1A
102
}
100
AcDbPlotSettings
  1

  2
none_device
  4
ISO_A3_(420.00_x_297.00_MM)
  6

 40
0.0
 41
0.0
 42
0.0
 43
0.0
 44
420.0
 45
297.0
 46
0.0
 47
0.0
 48
0.0
 49
0.0
140
0.0
141
0.0
142
1.0
143
1.0
 70
1024
 72
1
 73
0
 74
0
  7

 75
0
147
1.0
148
0.0
149
0.0
100
AcDbLayout
  1
Model
 70
0
 71
0
 10
0.0
 20
0.0
 11
420.0
 21
297.0
 12
0.0
 22
0.0
 32
0.0
 14
0.0
 24
0.0
 34
0.0
 15
0.0
 25
0.0
 35
0.0
146
0.0
 13
0.0
 23
0.0
 33
0.0
 16
1.0
 26
0.0
 36
0.0
 17
0.0
 27
1.0
 37
0.0
 76
0
330
213
345
0
346
0
  0
LAYOUT
  5
3B1
102
{ACAD_REACTORS
330
1A
102
}
100
AcDbPlotSettings
  1

  2
none_device
  4
ISO_A3_(420.00_x_297.00_MM)
  6

 40
0.0
 41
0.0
 42
0.0
 43
0.0
 44
420.0
 45
297.0
 46
0.0
 47
0.0
 48
0.0
 49
0.0
140
0.0
141
0.0
142
1.0
143
1.0
 70
0
 72
1
 73
0
 74
0
  7

 75
0
147
1.0
148
0.0
149
0.0
100
AcDbLayout
  1
Layout1
 70
0
 71
1
 10
0.0
 20
0.0
 11
420.0
 21
297.0
 12
0.0
 22
0.0
 32
0.0
 14
0.0
 24
0.0
 34
0.0
 15
0.0
 25
0.0
 35
0.0
146
0.0
 13
0.0
 23
0.0
 33
0.0
 16
1.0
 26
0.0
 36
0.0
 17
0.0
 27
1.0
 37
0.0
 76
0
330
214
345
0
346
0
  0
ENDSEC
  0
EOF
