  0
SECTION
  2
HEADER
  9
$ACADVER
  1
AC1024
  9
$DWGCODEPAGE
  3
ANSI_1252
  9
$EXTMAX
 10
297.0
 20
210.0
 30
0.0
  9
$EXTMIN
 10
0.0
 20
0.0
 30
0.0
  9
$LIMMIN
 10
0.0
 20
0.0
  9
$LIMMAX
 10
297.0
 20
210.0
  9
$VIEWCTR
 10
148.5
 20
105.0
  9
$VIEWSIZE
 40
210.0
  9
$CLAYER
  8
0
  9
$LTSCALE
 40
16.335
  9
$CELTYPE
  6
BYLAYER
  9
$DIMSCALE
 40
1.0
  9
$DIMASZ
 40
3.0
  9
$DIMEXO
 40
0.5
  9
$DIMDLI
 40
11.286
  9
$DIMEXE
 40
1.5
  9
$DIMCEN
 40
2.673
  9
$DIMLFAC
 40
1.0
  9
$DIMBLK
  1
_FILLED
  9
$DIMALT
 70
0
  9
$DIMALTF
 40
0.0393700787
  9
$DIMTXT
 40
3.0
  9
$DIMTOL
 70
1
  9
$DIMLIM
 70
0
  9
$DIMTFAC
 40
1.0
  9
$DIMTP
 40
0.01
  9
$DIMTM
 40
0.01
  9
$DIMGAP
 40
0.625
  9
$DIMDSEP
 70
44
  9
$AUNITS
 70
0
  9
$PDMODE
 70
3
  9
$PDSIZE
 40
3.0
  9
$HANDSEED
  5
583
  9
$TILEMODE
 70
1
  9
$MEASUREMENT
 70
1
  9
$INSUNITS
 70
4
  0
ENDSEC
  0
SECTION
  2
CLASSES
  0
CLASS
  1
ACDBDICTIONARYWDFLT
  2
AcDbDictionaryWithDefault
  3
AutoCAD 2000
 90
0
 91
1
280
0
281
0
  0
CLASS
  1
ACDBPLACEHOLDER
  2
AcDbPlaceHolder
  3
AutoCAD 2000
 90
0
 91
1
280
0
281
0
  0
CLASS
  1
LAYOUT
  2
AcDbLayout
  3
AutoCAD 2000
 90
0
 91
0
280
0
281
0
  0
ENDSEC
  0
SECTION
  2
TABLES
  0
TABLE
  2
VPORT
  5
8
100
AcDbSymbolTable
 70
2
  0
VPORT
  5
1F4
100
AcDbSymbolTableRecord
100
AcDbViewportTableRecord
  2
*ACTIVE
 70
0
 10
0.0
 20
0.0
 11
1.0
 21
1.0
 12
148.5
 22
105.0
 13
0.0
 23
0.0
 14
1.0
 24
1.0
 15
0.0
 25
0.0
 16
0.0
 26
0.0
 36
1.0
 17
0.0
 27
0.0
 37
0.0
 40
210.0
 41
1.4142857143
 42
50.0
 43
0.0
 44
0.0
 50
0.0
 51
0.0
 71
0
 72
100
 73
1
 74
1
 75
0
 76
0
 77
0
 78
0
  0
ENDTAB
  0
TABLE
  2
LTYPE
  5
5
100
AcDbSymbolTable
 70
6
  0
LTYPE
  5
14
100
AcDbSymbolTableRecord
100
AcDbLinetypeTableRecord
  2
BYBLOCK
 70
0
  3

 72
65
 73
0
 40
0.0
  0
LTYPE
  5
15
100
AcDbSymbolTableRecord
100
AcDbLinetypeTableRecord
  2
BYLAYER
 70
0
  3

 72
65
 73
0
 40
0.0
  0
LTYPE
  5
16
100
AcDbSymbolTableRecord
100
AcDbLinetypeTableRecord
  2
CONTINUOUS
 70
64
  3
Solid line
 72
65
 73
0
 40
0.0
  0
LTYPE
  5
1F5
100
AcDbSymbolTableRecord
100
AcDbLinetypeTableRecord
  2
CENTER
 70
64
  3
____ _ ____ _ ____ _ ____ _ ____ _ ____ _ ____
 72
65
 73
4
 40
0.6
 49
0.375
 74
0
 49
-0.075
 74
0
 49
0.075
 74
0
 49
-0.075
 74
0
  0
LTYPE
  5
1F6
100
AcDbSymbolTableRecord
100
AcDbLinetypeTableRecord
  2
HIDDEN
 70
64
  3
- - - - - - - - - - - - - - - - - - - -
 72
65
 73
2
 40
0.2
 49
0.1
 74
0
 49
-0.1
 74
0
  0
LTYPE
  5
1F7
100
AcDbSymbolTableRecord
100
AcDbLinetypeTableRecord
  2
PHANTOM
 70
64
  3
_____ _ _ _____ _ _ _____ _ _ _____
 72
65
 73
6
 40
0.8
 49
0.45
 74
0
 49
-0.05
 74
0
 49
0.1
 74
0
 49
-0.05
 74
0
 49
0.1
 74
0
 49
-0.05
 74
0
  0
LTYPE
  5
1F8
100
AcDbSymbolTableRecord
100
AcDbLinetypeTableRecord
  2
DOT
 70
64
  3
. . . . . . . . . . . . . . . . . . . .
 72
65
 73
2
 40
0.2
 49
0.1
 74
0
 49
-0.1
 74
0
  0
LTYPE
  5
1F9
100
AcDbSymbolTableRecord
100
AcDbLinetypeTableRecord
  2
DASHED
 70
64
  3
- - - - - - - - - - - - - - - - - - - -
 72
65
 73
2
 40
0.2
 49
0.1
 74
0
 49
-0.1
 74
0
  0
ENDTAB
  0
TABLE
  2
LAYER
  5
2
100
AcDbSymbolTable
 70
36
  0
LAYER
  5
10
100
AcDbSymbolTableRecord
100
AcDbLayerTableRecord
  2
0
 70
0
 62
7
  6
CONTINUOUS
370
-3
390
F
  0
LAYER
  5
1FA
100
AcDbSymbolTableRecord
100
AcDbLayerTableRecord
  2
DEFAULT_1
 70
0
 62
7
  6
CENTER
370
-3
390
F
  0
LAYER
  5
1FB
100
AcDbSymbolTableRecord
100
AcDbLayerTableRecord
  2
DEFAULT_2
 70
0
 62
7
  6
HIDDEN
370
-3
390
F
  0
LAYER
  5
1FC
100
AcDbSymbolTableRecord
100
AcDbLayerTableRecord
  2
DEFAULT_3
 70
0
 62
7
  6
PHANTOM
370
-3
390
F
  0
LAYER
  5
1FD
100
AcDbSymbolTableRecord
100
AcDbLayerTableRecord
  2
ASSI
 70
0
 62
7
  6
CONTINUOUS
370
-3
390
F
  0
LAYER
  5
1FE
100
AcDbSymbolTableRecord
100
AcDbLayerTableRecord
  2
COORDINATE
 70
0
 62
7
  6
CONTINUOUS
370
-3
390
F
  0
LAYER
  5
1FF
100
AcDbSymbolTableRecord
100
AcDbLayerTableRecord
  2
COORD_ORIGINE
 70
0
 62
7
  6
CONTINUOUS
370
-3
390
F
  0
LAYER
  5
200
100
AcDbSymbolTableRecord
100
AcDbLayerTableRecord
  2
COPY_PUBLISH
 70
0
 62
7
  6
CONTINUOUS
370
-3
390
F
  0
LAYER
  5
201
100
AcDbSymbolTableRecord
100
AcDbLayerTableRecord
  2
COSMETICHE
 70
0
 62
7
  6
CONTINUOUS
370
-3
390
F
  0
LAYER
  5
202
100
AcDbSymbolTableRecord
100
AcDbLayerTableRecord
  2
COSMETICI
 70
0
 62
7
  6
CONTINUOUS
370
-3
390
F
  0
LAYER
  5
203
100
AcDbSymbolTableRecord
100
AcDbLayerTableRecord
  2
CURVE
 70
0
 62
7
  6
CONTINUOUS
370
-3
390
F
  0
LAYER
  5
204
100
AcDbSymbolTableRecord
100
AcDbLayerTableRecord
  2
DRAFT
 70
0
 62
7
  6
CONTINUOUS
370
-3
390
F
  0
LAYER
  5
205
100
AcDbSymbolTableRecord
100
AcDbLayerTableRecord
  2
IMPORT_IGES
 70
0
 62
7
  6
CONTINUOUS
370
-3
390
F
  0
LAYER
  5
206
100
AcDbSymbolTableRecord
100
AcDbLayerTableRecord
  2
INTF_1
 70
0
 62
7
  6
CONTINUOUS
370
-3
390
F
  0
LAYER
  5
207
100
AcDbSymbolTableRecord
100
AcDbLayerTableRecord
  2
INTF_11
 70
0
 62
7
  6
CONTINUOUS
370
-3
390
F
  0
LAYER
  5
208
100
AcDbSymbolTableRecord
100
AcDbLayerTableRecord
  2
INTF_13
 70
0
 62
7
  6
CONTINUOUS
370
-3
390
F
  0
LAYER
  5
209
100
AcDbSymbolTableRecord
100
AcDbLayerTableRecord
  2
INTF_2
 70
0
 62
7
  6
CONTINUOUS
370
-3
390
F
  0
LAYER
  5
20A
100
AcDbSymbolTableRecord
100
AcDbLayerTableRecord
  2
INTF_9
 70
0
 62
7
  6
CONTINUOUS
370
-3
390
F
  0
LAYER
  5
20B
100
AcDbSymbolTableRecord
100
AcDbLayerTableRecord
  2
NOTE
 70
0
 62
7
  6
CONTINUOUS
370
-3
390
F
  0
LAYER
  5
20C
100
AcDbSymbolTableRecord
100
AcDbLayerTableRecord
  2
PIANI
 70
0
 62
7
  6
CONTINUOUS
370
-3
390
F
  0
LAYER
  5
20D
100
AcDbSymbolTableRecord
100
AcDbLayerTableRecord
  2
PIANI_ORIGINE
 70
0
 62
7
  6
CONTINUOUS
370
-3
390
F
  0
LAYER
  5
20E
100
AcDbSymbolTableRecord
100
AcDbLayerTableRecord
  2
PUNTI
 70
0
 62
7
  6
CONTINUOUS
370
-3
390
F
  0
LAYER
  5
20F
100
AcDbSymbolTableRecord
100
AcDbLayerTableRecord
  2
RACCORDO
 70
0
 62
7
  6
CONTINUOUS
370
-3
390
F
  0
LAYER
  5
210
100
AcDbSymbolTableRecord
100
AcDbLayerTableRecord
  2
RGB____0____0____0__
 70
0
 62
7
  6
CONTINUOUS
370
-3
390
F
  0
LAYER
  5
211
100
AcDbSymbolTableRecord
100
AcDbLayerTableRecord
  2
SIMBOLI
 70
0
 62
7
  6
CONTINUOUS
370
-3
390
F
  0
LAYER
  5
212
100
AcDbSymbolTableRecord
100
AcDbLayerTableRecord
  2
SMUSSO
 70
0
 62
7
  6
CONTINUOUS
370
-3
390
F
  0
LAYER
  5
213
100
AcDbSymbolTableRecord
100
AcDbLayerTableRecord
  2
SNAPLINE
 70
0
 62
7
  6
CONTINUOUS
370
-3
390
F
  0
LAYER
  5
214
100
AcDbSymbolTableRecord
100
AcDbLayerTableRecord
  2
SUPERFICI
 70
0
 62
7
  6
CONTINUOUS
370
-3
390
F
  0
LAYER
  5
215
100
AcDbSymbolTableRecord
100
AcDbLayerTableRecord
  2
TRASH
 70
0
 62
7
  6
CONTINUOUS
370
-3
390
F
  0
ENDTAB
  0
TABLE
  2
STYLE
  5
3
100
AcDbSymbolTable
 70
1
  0
STYLE
  5
11
100
AcDbSymbolTableRecord
100
AcDbTextStyleTableRecord
  2
STANDARD
 70
0
 40
0.0
 41
0.8
 50
0.0
 71
0
 42
0.2
  3
txt
  4

  0
STYLE
  5
216
100
AcDbSymbolTableRecord
100
AcDbTextStyleTableRecord
  2
TEXTSTYLE_1
 70
0
 40
0.0
 41
0.8
 50
0.0
 71
0
 42
0.2
  3
gdt
  4

  0
ENDTAB
  0
TABLE
  2
VIEW
  5
6
100
AcDbSymbolTable
 70
0
  0
ENDTAB
  0
TABLE
  2
UCS
  5
7
100
AcDbSymbolTable
 70
0
  0
ENDTAB
  0
TABLE
  2
APPID
  5
9
100
AcDbSymbolTable
 70
1
  0
APPID
  5
217
100
AcDbSymbolTableRecord
100
AcDbRegAppTableRecord
  2
ACAD
 70
0
  0
ENDTAB
  0
TABLE
  2
BLOCK_RECORD
  5
1
100
AcDbSymbolTable
 70
0
  0
BLOCK_RECORD
  5
218
100
AcDbSymbolTableRecord
100
AcDbBlockTableRecord
  2
*Model_Space
  0
BLOCK_RECORD
  5
219
100
AcDbSymbolTableRecord
100
AcDbBlockTableRecord
  2
*Paper_Space
  0
BLOCK_RECORD
  5
21A
100
AcDbSymbolTableRecord
100
AcDbBlockTableRecord
  2
_FILLED
  0
BLOCK_RECORD
  5
21B
100
AcDbSymbolTableRecord
100
AcDbBlockTableRecord
  2
*D0
  0
BLOCK_RECORD
  5
21C
100
AcDbSymbolTableRecord
100
AcDbBlockTableRecord
  2
*D1
  0
BLOCK_RECORD
  5
21D
100
AcDbSymbolTableRecord
100
AcDbBlockTableRecord
  2
*D2
  0
BLOCK_RECORD
  5
21E
100
AcDbSymbolTableRecord
100
AcDbBlockTableRecord
  2
*D3
  0
ENDTAB
  0
TABLE
  2
DIMSTYLE
  5
A
100
AcDbSymbolTable
 70
1
100
AcDbDimStyleTable
 71
0
  0
DIMSTYLE
105
21F
100
AcDbSymbolTableRecord
100
AcDbDimStyleTableRecord
  2
STANDARD
 70
0
  3

  4

 40
1.0
 41
3.0
 42
0.5
 43
0.38
 44
1.5
 45
0.0
 46
0.0
 47
0.01
 48
0.01
140
3.0
141
0.0
142
0.0
143
25.4
144
1.0
145
0.0
146
1.0
147
0.625
 71
1
 72
0
 73
0
 74
0
 75
0
 76
0
 77
1
 78
8
 79
2
170
0
171
1
172
0
173
0
174
0
175
0
176
0
177
0
178
0
270
2
179
2
271
2
272
2
273
2
274
2
275
0
280
0
281
0
282
0
283
1
284
8
285
0
286
0
287
3
288
0
340
11
278
44
341
21A
342
21A
343
21A
344
21A
  0
DIMSTYLE
105
220
100
AcDbSymbolTableRecord
100
AcDbDimStyleTableRecord
  2
DIMSTYLE_1
 70
0
  3

  4

 40
1.0
 41
3.0
 42
0.5
 43
0.38
 44
1.5
 45
0.0
 46
0.0
 47
0.0
 48
0.0
140
3.0
141
0.0
142
0.0
143
25.4
144
1.0
145
0.0
146
1.0
147
0.75
 71
0
 72
0
 73
0
 74
0
 75
0
 76
0
 77
1
 78
8
 79
2
170
0
171
1
172
0
173
0
174
0
175
0
176
0
177
0
178
0
270
2
179
2
271
2
272
2
273
2
274
2
275
0
280
0
281
0
282
0
283
1
284
8
285
0
286
0
287
3
288
0
340
11
278
44
341
21A
342
21A
343
21A
344
21A
  0
DIMSTYLE
105
221
100
AcDbSymbolTableRecord
100
AcDbDimStyleTableRecord
  2
DIMSTYLE_2
 70
0
  3

  4

 40
1.0
 41
3.0
 42
0.5
 43
0.38
 44
1.5
 45
0.0
 46
0.0
 47
0.0
 48
0.0
140
3.0
141
0.0
142
0.0
143
25.4
144
1.0
145
0.0
146
1.0
147
0.75
 71
0
 72
0
 73
0
 74
0
 75
0
 76
0
 77
1
 78
8
 79
2
170
0
171
1
172
0
173
0
174
0
175
0
176
0
177
0
178
0
270
2
179
2
271
0
272
0
273
2
274
2
275
0
280
0
281
0
282
0
283
1
284
8
285
0
286
0
287
3
288
0
340
11
278
44
341
21A
342
21A
343
21A
344
21A
  0
DIMSTYLE
105
222
100
AcDbSymbolTableRecord
100
AcDbDimStyleTableRecord
  2
DIMSTYLE_3
 70
0
  3

  4

 40
1.0
 41
3.0
 42
0.5
 43
0.38
 44
1.5
 45
0.0
 46
0.0
 47
0.0
 48
0.0
140
3.0
141
0.0
142
0.0
143
25.4
144
1.0
145
0.0
146
1.0
147
0.75
 71
0
 72
0
 73
0
 74
0
 75
0
 76
0
 77
1
 78
8
 79
2
170
0
171
1
172
0
173
0
174
0
175
0
176
0
177
0
178
0
270
2
179
2
271
1
272
1
273
2
274
2
275
0
280
0
281
0
282
0
283
1
284
8
285
0
286
0
287
3
288
0
340
11
278
44
341
21A
342
21A
343
21A
344
21A
  0
ENDTAB
  0
ENDSEC
  0
SECTION
  2
BLOCKS
  0
BLOCK
  5
20
100
AcDbEntity
  8
0
100
AcDbBlockBegin
  2
*Model_Space
 70
0
 10
0.0
 20
0.0
 30
0.0
  3
*Model_Space
  1

  0
ENDBLK
  5
21
100
AcDbEntity
  8
0
100
AcDbBlockEnd
  0
BLOCK
  5
1C
100
AcDbEntity
  8
0
100
AcDbBlockBegin
  2
*Paper_Space
 70
0
 10
0.0
 20
0.0
 30
0.0
  3
*Paper_Space
  1

  0
ENDBLK
  5
1D
100
AcDbEntity
  8
0
100
AcDbBlockEnd
  0
BLOCK
  5
223
100
AcDbEntity
  8
0
100
AcDbBlockBegin
  2
_FILLED
 70
64
 10
0.0
 20
0.0
 30
0.0
  3
_FILLED
  1

  0
SOLID
  5
224
100
AcDbEntity
  8
0
  6
BYBLOCK
 62
0
100
AcDbTrace
 10
0.0
 20
0.0
 30
0.0
 11
-1.0
 21
0.3166666667
 31
0.0
 12
-1.0
 22
-0.3166666667
 32
0.0
 13
-1.0
 23
-0.3166666667
 33
0.0
  0
ENDBLK
  5
225
100
AcDbEntity
  8
0
  6
BYBLOCK
 62
0
100
AcDbBlockEnd
  0
BLOCK
  5
226
100
AcDbEntity
  8
0
100
AcDbBlockBegin
 62
7
  6
CONTINUOUS
  2
*D0
 70
65
 10
0.0
 20
0.0
 30
0.0
  3
*D0
  1

  0
MTEXT
  5
227
100
AcDbEntity
  8
0
100
AcDbMText
 62
7
  6
CONTINUOUS
  7
STANDARD
 71
2
 72
1
 10
9.3244186047
 20
55.75
 30
0.0
 11
1.0
 21
0.0
 31
0.0
 73
2
 44
0.9
  1
{\ftxt;\W0.0001;\H0.0001;\~}{\ftxt;\W2.9285714286;\H3.0; }{\ftxt;\W0.0001;\H0.0001;\~}
 40
3.0
 41
13.1785714286
  0
LINE
  5
228
100
AcDbEntity
  8
0
100
AcDbLine
 62
7
  6
CONTINUOUS
 10
-35.7755813953
 20
37.5954161193
 30
0.0
 11
-35.7755813953
 21
53.5
 31
0.0
  0
LINE
  5
229
100
AcDbEntity
  8
0
100
AcDbLine
 62
7
  6
CONTINUOUS
 10
54.4244186047
 20
37.5953567193
 30
0.0
 11
54.4244186047
 21
53.5
 31
0.0
  0
LINE
  5
22A
100
AcDbEntity
  8
0
100
AcDbLine
 62
7
  6
CONTINUOUS
 10
-35.7755813953
 20
52.0
 30
0.0
 11
9.3244186047
 21
52.0
 31
0.0
  0
LINE
  5
22B
100
AcDbEntity
  8
0
100
AcDbLine
 62
7
  6
CONTINUOUS
 10
54.4244186047
 20
52.0
 30
0.0
 11
9.3244186047
 21
52.0
 31
0.0
  0
INSERT
  5
22C
100
AcDbEntity
  8
0
100
AcDbBlockReference
 62
7
  6
CONTINUOUS
  2
_FILLED
 10
-35.7755813953
 20
52.0
 30
0.0
 41
3.0
 42
3.0
 43
3.0
 50
180.0
  0
INSERT
  5
22D
100
AcDbEntity
  8
0
100
AcDbBlockReference
 62
7
  6
CONTINUOUS
  2
_FILLED
 10
54.4244186047
 20
52.0
 30
0.0
 41
3.0
 42
3.0
 43
3.0
  0
ENDBLK
  5
22E
100
AcDbEntity
  8
0
  6
BYBLOCK
 62
0
100
AcDbBlockEnd
  0
BLOCK
  5
22F
100
AcDbEntity
  8
0
100
AcDbBlockBegin
 62
7
  6
CONTINUOUS
  2
*D1
 70
65
 10
0.0
 20
0.0
 30
0.0
  3
*D1
  1

  0
MTEXT
  5
230
100
AcDbEntity
  8
0
100
AcDbMText
 62
7
  6
CONTINUOUS
  7
STANDARD
 71
2
 72
1
 10
65.65
 20
-5.5060412483
 30
0.0
 11
0.0
 21
1.0
 31
0.0
 73
2
 44
0.9
  1
{\ftxt;\W0.0001;\H0.0001;\~}{\ftxt;\W1.5714285714;\H3.0; }{\ftxt;\W0.0001;\H0.0001;\~}
 40
3.0
 41
7.0714285714
  0
LINE
  5
231
100
AcDbEntity
  8
0
100
AcDbLine
 62
7
  6
CONTINUOUS
 10
53.4258759723
 20
38.5939587517
 30
0.0
 11
70.9
 21
38.5939587517
 31
0.0
  0
LINE
  5
232
100
AcDbEntity
  8
0
100
AcDbLine
 62
7
  6
CONTINUOUS
 10
53.4258165723
 20
-49.6060412483
 30
0.0
 11
70.9
 21
-49.6060412483
 31
0.0
  0
LINE
  5
233
100
AcDbEntity
  8
0
100
AcDbLine
 62
7
  6
CONTINUOUS
 10
69.4
 20
38.5939587517
 30
0.0
 11
69.4
 21
-5.5060412483
 31
0.0
  0
LINE
  5
234
100
AcDbEntity
  8
0
100
AcDbLine
 62
7
  6
CONTINUOUS
 10
69.4
 20
-49.6060412483
 30
0.0
 11
69.4
 21
-5.5060412483
 31
0.0
  0
INSERT
  5
235
100
AcDbEntity
  8
0
100
AcDbBlockReference
 62
7
  6
CONTINUOUS
  2
_FILLED
 10
69.4
 20
38.5939587517
 30
0.0
 41
3.0
 42
3.0
 43
3.0
 50
90.0
  0
INSERT
  5
236
100
AcDbEntity
  8
0
100
AcDbBlockReference
 62
7
  6
CONTINUOUS
  2
_FILLED
 10
69.4
 20
-49.6060412483
 30
0.0
 41
3.0
 42
3.0
 43
3.0
 50
270.0
  0
ENDBLK
  5
237
100
AcDbEntity
  8
0
  6
BYBLOCK
 62
0
100
AcDbBlockEnd
  0
BLOCK
  5
238
100
AcDbEntity
  8
0
100
AcDbBlockBegin
 62
7
  6
CONTINUOUS
  2
*D2
 70
65
 10
0.0
 20
0.0
 30
0.0
  3
*D2
  1

  0
MTEXT
  5
239
100
AcDbEntity
  8
0
100
AcDbMText
 62
7
  6
CONTINUOUS
  7
STANDARD
 71
2
 72
1
 10
-93.4136991279
 20
56.1740569646
 30
0.0
 11
1.0
 21
0.0
 31
0.0
 73
2
 44
0.9
  1
{\ftxt;\W0.0001;\H0.0001;\~}{\ftxt;\W2.6428571429;\H3.0; }{\ftxt;\W0.0001;\H0.0001;\~}
 40
3.0
 41
11.8928571429
  0
LINE
  5
23A
100
AcDbEntity
  8
0
100
AcDbLine
 62
7
  6
CONTINUOUS
 10
-99.6636991279
 20
38.0183900222
 30
0.0
 11
-99.6636991279
 21
53.9240569646
 31
0.0
  0
LINE
  5
23B
100
AcDbEntity
  8
0
100
AcDbLine
 62
7
  6
CONTINUOUS
 10
-87.1636991279
 20
38.1277155342
 30
0.0
 11
-87.1636991279
 21
53.9240569646
 31
0.0
  0
LINE
  5
23C
100
AcDbEntity
  8
0
100
AcDbLine
 62
7
  6
CONTINUOUS
 10
-99.6636991279
 20
52.4240569646
 30
0.0
 11
-103.6636991279
 21
52.4240569646
 31
0.0
  0
LINE
  5
23D
100
AcDbEntity
  8
0
100
AcDbLine
 62
7
  6
CONTINUOUS
 10
-103.6636991279
 20
52.4240569646
 30
0.0
 11
-93.4136991279
 21
52.4240569646
 31
0.0
  0
LINE
  5
23E
100
AcDbEntity
  8
0
100
AcDbLine
 62
7
  6
CONTINUOUS
 10
-87.1636991279
 20
52.4240569646
 30
0.0
 11
-83.1636991279
 21
52.4240569646
 31
0.0
  0
LINE
  5
23F
100
AcDbEntity
  8
0
100
AcDbLine
 62
7
  6
CONTINUOUS
 10
-83.1636991279
 20
52.4240569646
 30
0.0
 11
-93.4136991279
 21
52.4240569646
 31
0.0
  0
INSERT
  5
240
100
AcDbEntity
  8
0
100
AcDbBlockReference
 62
7
  6
CONTINUOUS
  2
_FILLED
 10
-99.6636991279
 20
52.4240569646
 30
0.0
 41
3.0
 42
3.0
 43
3.0
  0
INSERT
  5
241
100
AcDbEntity
  8
0
100
AcDbBlockReference
 62
7
  6
CONTINUOUS
  2
_FILLED
 10
-87.1636991279
 20
52.4240569646
 30
0.0
 41
3.0
 42
3.0
 43
3.0
 50
180.0
  0
ENDBLK
  5
242
100
AcDbEntity
  8
0
  6
BYBLOCK
 62
0
100
AcDbBlockEnd
  0
BLOCK
  5
243
100
AcDbEntity
  8
0
100
AcDbBlockBegin
 62
7
  6
CONTINUOUS
  2
*D3
 70
65
 10
0.0
 20
0.0
 30
0.0
  3
*D3
  1

  0
MTEXT
  5
244
100
AcDbEntity
  8
0
100
AcDbMText
 62
7
  6
CONTINUOUS
  7
STANDARD
 71
2
 72
1
 10
-79.5136991279
 20
66.06866506
 30
0.0
 11
1.0
 21
0.0
 31
0.0
 73
2
 44
0.9
  1
{\ftxt;\W0.0001;\H0.0001;\~}{\ftxt;\W2.8571428571;\H3.0; }{\ftxt;\W0.0001;\H0.0001;\~}
 40
3.0
 41
12.8571428571
  0
LINE
  5
245
100
AcDbEntity
  8
0
100
AcDbLine
 62
7
  6
CONTINUOUS
 10
-99.6636991279
 20
38.0183900222
 30
0.0
 11
-99.6636991279
 21
63.81866506
 31
0.0
  0
LINE
  5
246
100
AcDbEntity
  8
0
100
AcDbLine
 62
7
  6
CONTINUOUS
 10
-59.3636991279
 20
-5.0060709483
 30
0.0
 11
-59.3636991279
 21
63.81866506
 31
0.0
  0
LINE
  5
247
100
AcDbEntity
  8
0
100
AcDbLine
 62
7
  6
CONTINUOUS
 10
-99.6636991279
 20
62.31866506
 30
0.0
 11
-79.5136991279
 21
62.31866506
 31
0.0
  0
LINE
  5
248
100
AcDbEntity
  8
0
100
AcDbLine
 62
7
  6
CONTINUOUS
 10
-59.3636991279
 20
62.31866506
 30
0.0
 11
-79.5136991279
 21
62.31866506
 31
0.0
  0
INSERT
  5
249
100
AcDbEntity
  8
0
100
AcDbBlockReference
 62
7
  6
CONTINUOUS
  2
_FILLED
 10
-99.6636991279
 20
62.31866506
 30
0.0
 41
3.0
 42
3.0
 43
3.0
 50
180.0
  0
INSERT
  5
24A
100
AcDbEntity
  8
0
100
AcDbBlockReference
 62
7
  6
CONTINUOUS
  2
_FILLED
 10
-59.3636991279
 20
62.31866506
 30
0.0
 41
3.0
 42
3.0
 43
3.0
  0
ENDBLK
  5
24B
100
AcDbEntity
  8
0
  6
BYBLOCK
 62
0
100
AcDbBlockEnd
  0
ENDSEC
  0
SECTION
  2
ENTITIES
  0
DIMENSION
  5
24C
100
AcDbEntity
  8
0
100
AcDbDimension
 62
7
  6
CONTINUOUS
  2
*D0
 10
54.4244186047
 20
52.0
 30
0.0
 11
8.8958470001
 21
52.0
 31
0.0
 70
160
 71
2
 72
2
 41
0.9
 42
90.2
  1
{\ftxt;\W0.0001;\H0.0001;\~}{\ftxt;\W2.9285714286;\H3.0; }{\ftxt;\W0.0001;\H0.0001;\~}
  3
DIMSTYLE_1
100
AcDbAlignedDimension
 13
-35.7755813953
 23
37.0954161193
 33
0.0
 14
54.4244186047
 24
37.0953567193
 34
0.0
100
AcDbRotatedDimension
  0
DIMENSION
  5
24D
100
AcDbEntity
  8
0
100
AcDbDimension
 62
7
  6
CONTINUOUS
  2
*D1
 10
69.4
 20
-49.6060412483
 30
0.0
 11
69.4
 21
-5.934614121
 31
0.0
 70
160
 71
2
 72
2
 41
0.9
 42
88.2
  1
{\ftxt;\W0.0001;\H0.0001;\~}{\ftxt;\W1.5714285714;\H3.0; }{\ftxt;\W0.0001;\H0.0001;\~}
  3
DIMSTYLE_2
100
AcDbAlignedDimension
 13
52.9258759723
 23
38.5939587517
 33
0.0
 14
52.9258165723
 24
-49.6060412483
 34
0.0
 50
270.0
100
AcDbRotatedDimension
  0
DIMENSION
  5
24E
100
AcDbEntity
  8
0
100
AcDbDimension
 62
7
  6
CONTINUOUS
  2
*D2
 10
-87.1636991279
 20
52.4240569646
 30
0.0
 11
-93.8422700958
 21
52.4240569646
 31
0.0
 70
160
 71
2
 72
2
 41
0.9
 42
12.5
  1
{\ftxt;\W0.0001;\H0.0001;\~}{\ftxt;\W2.6428571429;\H3.0; }{\ftxt;\W0.0001;\H0.0001;\~}
  3
DIMSTYLE_1
100
AcDbAlignedDimension
 13
-99.6636991279
 23
37.5183900222
 33
0.0
 14
-87.1636991279
 24
37.6277155342
 34
0.0
100
AcDbRotatedDimension
  0
DIMENSION
  5
24F
100
AcDbEntity
  8
0
100
AcDbDimension
 62
7
  6
CONTINUOUS
  2
*D3
 10
-59.3636991279
 20
62.31866506
 30
0.0
 11
-79.9422703857
 21
62.31866506
 31
0.0
 70
160
 71
2
 72
2
 41
0.9
 42
40.3
  1
{\ftxt;\W0.0001;\H0.0001;\~}{\ftxt;\W2.8571428571;\H3.0; }{\ftxt;\W0.0001;\H0.0001;\~}
  3
DIMSTYLE_3
100
AcDbAlignedDimension
 13
-99.6636991279
 23
37.5183900222
 33
0.0
 14
-59.3636991279
 24
-5.5060709483
 34
0.0
100
AcDbRotatedDimension
  0
LWPOLYLINE
  5
250
100
AcDbEntity
  8
RACCORDO
100
AcDbPolyline
 62
250
  6
CONTINUOUS
 90
15
 70
0
 10
-35.4636533295
 20
37.6574734698
 10
-35.4590021757
 20
37.6662171787
 10
-35.4109657381
 20
37.7443670185
 10
-35.3583888879
 20
37.8191158135
 10
-35.3015241802
 20
37.8902475128
 10
-35.241017015
 20
37.9572354678
 10
-35.1772497412
 20
38.0199107775
 10
-35.1105328982
 20
38.0781983175
 10
-35.0415130669
 20
38.1318487952
 10
-34.9706539684
 20
38.1807951867
 10
-34.8982266005
 20
38.2251158871
 10
-34.8246117985
 20
38.2648648248
 10
-34.7501517374
 20
38.3001103961
 10
-34.6751473247
 20
38.3309308773
 10
-34.599894943
 20
38.3574277349
  0
LWPOLYLINE
  5
251
100
AcDbEntity
  8
RACCORDO
100
AcDbPolyline
 62
250
  6
CONTINUOUS
 90
10
 70
0
 10
-13.7270622948
 20
-49.4539898672
 10
-13.7603274274
 20
-49.4398943311
 10
-13.79263883
 20
-49.4233495659
 10
-13.8237136403
 20
-49.4044720079
 10
-13.8532955108
 20
-49.3834162515
 10
-13.8811721672
 20
-49.360357287
 10
-13.9072740524
 20
-49.335377918
 10
-13.9315640141
 20
-49.3085070828
 10
-13.9538421727
 20
-49.2799510059
 10
-13.9740434205
 20
-49.249776872
  0
LWPOLYLINE
  5
252
100
AcDbEntity
  8
RACCORDO
100
AcDbPolyline
 62
250
  6
CONTINUOUS
 90
5
 70
0
 10
-34.6085284925
 20
38.3409639704
 10
-34.6084855646
 20
38.3412757332
 10
-34.6063972995
 20
38.3486225765
 10
-34.6035169658
 20
38.3540337593
 10
-34.5998882701
 20
38.3574299909
  0
LWPOLYLINE
  5
253
100
AcDbEntity
  8
RACCORDO
100
AcDbPolyline
 62
250
  6
CONTINUOUS
 90
9
 70
0
 10
-34.599894943
 20
38.3574277349
 10
-34.5472943515
 20
38.3741463096
 10
-34.4947858075
 20
38.3887445838
 10
-34.4424587617
 20
38.4012761037
 10
-34.3910230354
 20
38.4116822772
 10
-34.3399403407
 20
38.4201806131
 10
-34.2873882557
 20
38.4270470433
 10
-34.2327818377
 20
38.4321943115
 10
-34.1768103138
 20
38.435389798
  0
LWPOLYLINE
  5
254
100
AcDbEntity
  8
RACCORDO
100
AcDbPolyline
 62
250
  6
CONTINUOUS
 90
10
 70
0
 10
32.1992317693
 20
-49.3042253113
 10
32.2424228436
 20
-49.3023600121
 10
32.285291102
 20
-49.2967758425
 10
32.3275160643
 20
-49.28751453
 10
32.3687820574
 20
-49.2746452919
 10
32.408780573
 20
-49.2582643193
 10
32.447212575
 20
-49.2384940587
 10
32.483790739
 20
-49.2154822944
 10
32.5182415952
 20
-49.1894010473
 10
32.5278230472
 20
-49.1807489424
  0
LWPOLYLINE
  5
255
100
AcDbEntity
  8
RACCORDO
100
AcDbPolyline
 62
7
  6
CONTINUOUS
 90
16
 70
0
 10
32.1975307617
 20
-49.4872868218
 10
32.2297559858
 20
-49.4862414917
 10
32.2697047901
 20
-49.4820390486
 10
32.3091491782
 20
-49.4746610526
 10
32.3478376099
 20
-49.4641473982
 10
32.3855230022
 20
-49.4505789964
 10
32.4219747607
 20
-49.4340520041
 10
32.4569960189
 20
-49.4146513302
 10
32.4903768638
 20
-49.3924986934
 10
32.5218855034
 20
-49.367740416
 10
32.5513092327
 20
-49.3405332791
 10
32.578466488
 20
-49.3110556421
 10
32.6031776338
 20
-49.2794923755
 10
32.6252790527
 20
-49.2460550784
 10
32.6446286794
 20
-49.2109776739
 10
32.6582711333
 20
-49.1807489424
  0
LWPOLYLINE
  5
256
100
AcDbEntity
  8
RACCORDO
100
AcDbPolyline
 62
7
  6
CONTINUOUS
 90
13
 70
0
 10
-13.4524692267
 20
-49.4872868218
 10
-13.4201959788
 20
-49.4862383617
 10
-13.3802354057
 20
-49.4820302899
 10
-13.3407819469
 20
-49.4746452896
 10
-13.3020875459
 20
-49.4641238791
 10
-13.2643989879
 20
-49.4505474562
 10
-13.2279464885
 20
-49.4340123579
 10
-13.192926306
 20
-49.4146042052
 10
-13.1595480635
 20
-49.3924448354
 10
-13.1280437216
 20
-49.3676799023
 10
-13.0986251346
 20
-49.3404672835
 10
-13.0714742173
 20
-49.310985954
 10
-13.0541005426
 20
-49.2887862301
  0
LWPOLYLINE
  5
257
100
AcDbEntity
  8
RACCORDO
100
AcDbPolyline
 62
250
  6
CONTINUOUS
 90
28
 70
0
 10
52.4501129939
 20
-48.5305022188
 10
52.5033119243
 20
-48.5287847157
 10
52.555576702
 20
-48.52420109
 10
52.606907327
 20
-48.5167513417
 10
52.6573066643
 20
-48.5064028734
 10
52.7067718489
 20
-48.4931882825
 10
52.7552942856
 20
-48.4772053611
 10
52.8030449798
 20
-48.4584110435
 10
52.8498529261
 20
-48.4368483953
 10
52.8951965129
 20
-48.4127444051
 10
52.9390348796
 20
-48.3860822599
 10
52.9814088868
 20
-48.3568787728
 10
53.0219195055
 20
-48.3254113713
 10
53.0605579172
 20
-48.2916483922
 10
53.0973329402
 20
-48.2556214988
 10
53.1318720007
 20
-48.2177031084
 10
53.1640905092
 20
-48.1780217992
 10
53.194073055
 20
-48.136448993
 10
53.2217008322
 20
-48.0929713718
 10
53.2470776495
 20
-48.0474656816
 10
53.2700996982
 20
-48.0000551764
 10
53.2903367453
 20
-47.9510963003
 10
53.3077762669
 20
-47.9004784052
 10
53.3224307869
 20
-47.848312139
 10
53.3339076438
 20
-47.7952858904
 10
53.3420759506
 20
-47.741629122
 10
53.3470665944
 20
-47.687112371
 10
53.3488795752
 20
-47.6317356376
  0
LWPOLYLINE
  5
258
100
AcDbEntity
  8
RACCORDO
100
AcDbPolyline
 62
250
  6
CONTINUOUS
 90
28
 70
0
 10
52.4501129939
 20
-49.1296799397
 10
52.5382360107
 20
-49.1269935397
 10
52.625352127
 20
-49.1192179384
 10
52.711176408
 20
-49.1065013524
 10
52.795181697
 20
-49.0890678863
 10
52.8773811459
 20
-49.067060295
 10
52.9582897794
 20
-49.0403931377
 10
53.0379217573
 20
-49.0090174026
 10
53.1157202973
 20
-48.9731069082
 10
53.1913227856
 20
-48.9328208443
 10
53.2644448719
 20
-48.8883189479
 10
53.3348923459
 20
-48.8397282669
 10
53.4024560396
 20
-48.7871940534
 10
53.4669324904
 20
-48.7308707486
 10
53.528092433
 20
-48.6709550444
 10
53.5857061114
 20
-48.6076761951
 10
53.6394284017
 20
-48.5414574581
 10
53.6892766582
 20
-48.4723241867
 10
53.7354843944
 20
-48.3998535304
 10
53.7779054988
 20
-48.3240081566
 10
53.8161563609
 20
-48.245177156
 10
53.8500109405
 20
-48.1635284408
 10
53.8792639278
 20
-48.0791740446
 10
53.903631392
 20
-47.9924822267
 10
53.9228335403
 20
-47.9040488393
 10
53.9367091916
 20
-47.8142864308
 10
53.9451543047
 20
-47.7234058591
 10
53.948057296
 20
-47.6317356376
  0
LWPOLYLINE
  5
259
100
AcDbEntity
  8
0
100
AcDbPolyline
 62
7
  6
CONTINUOUS
 90
28
 70
0
 10
52.9258462723
 20
-49.6060412483
 10
53.0129363054
 20
-49.6035139466
 10
53.0998671904
 20
-49.5959208231
 10
53.1863434907
 20
-49.5832627869
 10
53.2722022644
 20
-49.5655268954
 10
53.3570096213
 20
-49.5427646927
 10
53.4400824428
 20
-49.5151693723
 10
53.5209426203
 20
-49.4829696456
 10
53.5995547845
 20
-49.4462511133
 10
53.6759144984
 20
-49.4050394157
 10
53.74977345
 20
-49.3594656497
 10
53.8208750772
 20
-49.309684963
 10
53.8891699078
 20
-49.2557024169
 10
53.954582443
 20
-49.1974919906
 10
54.0166584362
 20
-49.1353682943
 10
54.0748285245
 20
-49.0698991976
 10
54.128795899
 20
-49.0015111372
 10
54.1785616828
 20
-48.9303023984
 10
54.2240690315
 20
-48.8564069753
 10
54.2651468053
 20
-48.7801457745
 10
54.3017122662
 20
-48.7017196417
 10
54.3337853422
 20
-48.6210507702
 10
54.3612858433
 20
-48.5381527778
 10
54.3839765839
 20
-48.4535199446
 10
54.4016690576
 20
-48.3678020386
 10
54.4143063534
 20
-48.2814195781
 10
54.4218921548
 20
-48.1945437823
 10
54.4244186047
 20
-48.1074689159
  0
LINE
  5
25A
100
AcDbEntity
  8
RACCORDO
100
AcDbLine
 62
7
  6
CONTINUOUS
 10
-13.0697576825
 20
-49.2892592942
 30
0.0
 11
-13.027753845
 21
-49.2880409829
 31
0.0
  0
LINE
  5
25B
100
AcDbEntity
  8
RACCORDO
100
AcDbLine
 62
250
  6
CONTINUOUS
 10
-13.2418957933
 20
-49.2800023061
 30
0.0
 11
-13.3004687744
 21
-49.2815164265
 31
0.0
  0
LINE
  5
25C
100
AcDbEntity
  8
RACCORDO
100
AcDbLine
 62
7
  6
CONTINUOUS
 10
-13.027753845
 20
-49.2880409829
 30
0.0
 11
-12.9601486997
 21
-49.2864672058
 31
0.0
  0
LINE
  5
25D
100
AcDbEntity
  8
RACCORDO
100
AcDbLine
 62
250
  6
CONTINUOUS
 10
-12.9601486997
 20
-49.2864672058
 30
0.0
 11
-12.9837014847
 21
-49.2861630048
 31
0.0
  0
LINE
  5
25E
100
AcDbEntity
  8
RACCORDO
100
AcDbLine
 62
250
  6
CONTINUOUS
 10
-13.1800811083
 20
-49.2789034042
 30
0.0
 11
-13.2418957933
 21
-49.2800023061
 31
0.0
  0
LINE
  5
25F
100
AcDbEntity
  8
RACCORDO
100
AcDbLine
 62
7
  6
CONTINUOUS
 10
-12.9601486997
 20
-49.2864672058
 30
0.0
 11
-12.8873392387
 21
-49.2852265302
 31
0.0
  0
LINE
  5
260
100
AcDbEntity
  8
RACCORDO
100
AcDbLine
 62
250
  6
CONTINUOUS
 10
-12.8873392387
 20
-49.2852265302
 30
0.0
 11
-12.893305292
 21
-49.2845724311
 31
0.0
  0
LWPOLYLINE
  5
261
100
AcDbEntity
  8
RACCORDO
100
AcDbPolyline
 62
7
  6
CONTINUOUS
 90
7
 70
0
 10
-12.9729279134
 20
-49.606031067
 10
-12.9705501043
 20
-49.6060029282
 10
-12.9682758993
 20
-49.6059580566
 10
-12.9661053827
 20
-49.6058987981
 10
-12.9640386072
 20
-49.6058273925
 10
-12.9620755979
 20
-49.6057459731
 10
-12.960216356
 20
-49.6056565664
  0
LINE
  5
262
100
AcDbEntity
  8
RACCORDO
100
AcDbLine
 62
7
  6
CONTINUOUS
 10
-12.8873392387
 20
-49.2852265302
 30
0.0
 11
-12.8097540698
 21
-49.284370405
 31
0.0
  0
LINE
  5
263
100
AcDbEntity
  8
RACCORDO
100
AcDbLine
 62
250
  6
CONTINUOUS
 10
-12.8097540698
 20
-49.284370405
 30
0.0
 11
-12.8465705797
 21
-49.2840077571
 31
0.0
  0
LINE
  5
264
100
AcDbEntity
  8
RACCORDO
100
AcDbLine
 62
250
  6
CONTINUOUS
 10
-13.1162619087
 20
-49.2782376311
 30
0.0
 11
-13.1800811083
 21
-49.2789034042
 31
0.0
  0
LINE
  5
265
100
AcDbEntity
  8
RACCORDO
100
AcDbLine
 62
7
  6
CONTINUOUS
 10
-12.8097540698
 20
-49.284370405
 30
0.0
 11
-12.7279737987
 21
-49.2839650179
 31
0.0
  0
LINE
  5
266
100
AcDbEntity
  8
RACCORDO
100
AcDbLine
 62
250
  6
CONTINUOUS
 10
-12.7279737987
 20
-49.2839650179
 30
0.0
 11
-12.7501630702
 21
-49.2833503092
 31
0.0
  0
LINE
  5
267
100
AcDbEntity
  8
RACCORDO
100
AcDbLine
 62
250
  6
CONTINUOUS
 10
-13.0508092658
 20
-49.2780111787
 30
0.0
 11
-13.1162619087
 21
-49.2782376311
 31
0.0
  0
LINE
  5
268
100
AcDbEntity
  8
RACCORDO
100
AcDbLine
 62
7
  6
CONTINUOUS
 10
-34.277009063
 20
-49.6060412483
 30
0.0
 11
-12.9729279052
 21
-49.6060412483
 31
0.0
  0
LINE
  5
269
100
AcDbEntity
  8
RACCORDO
100
AcDbLine
 62
7
  6
CONTINUOUS
 10
31.6217651145
 20
-49.6060412483
 30
0.0
 11
52.9258462723
 21
-49.6060412483
 31
0.0
  0
LINE
  5
26A
100
AcDbEntity
  8
RACCORDO
100
AcDbLine
 62
7
  6
CONTINUOUS
 10
-34.1776370932
 20
-49.5060412483
 30
0.0
 11
-16.2930170708
 21
-49.5060412483
 31
0.0
  0
LINE
  5
26B
100
AcDbEntity
  8
RACCORDO
100
AcDbLine
 62
7
  6
CONTINUOUS
 10
34.9418542801
 20
-49.5060412483
 30
0.0
 11
52.8264743025
 21
-49.5060412483
 31
0.0
  0
LINE
  5
26C
100
AcDbEntity
  8
RACCORDO
100
AcDbLine
 62
250
  6
CONTINUOUS
 10
-13.0191505492
 20
-49.4966032215
 30
0.0
 11
-16.0181487484
 21
-49.4966032215
 31
0.0
  0
LINE
  5
26D
100
AcDbEntity
  8
RACCORDO
100
AcDbLine
 62
250
  6
CONTINUOUS
 10
31.6679877585
 20
-49.4966032215
 30
0.0
 11
34.6669859577
 21
-49.4966032215
 31
0.0
  0
LINE
  5
26E
100
AcDbEntity
  8
RACCORDO
100
AcDbLine
 62
7
  6
CONTINUOUS
 10
32.1975307812
 20
-49.4872868218
 30
0.0
 11
32.1013064281
 21
-49.4872868218
 31
0.0
  0
LINE
  5
26F
100
AcDbEntity
  8
RACCORDO
100
AcDbLine
 62
7
  6
CONTINUOUS
 10
-13.4524692188
 20
-49.4872868218
 30
0.0
 11
-13.5486935719
 21
-49.4872868218
 31
0.0
  0
LINE
  5
270
100
AcDbEntity
  8
RACCORDO
100
AcDbLine
 62
250
  6
CONTINUOUS
 10
-13.0191505492
 20
-49.3467459883
 30
0.0
 11
-13.1054128173
 21
-49.3467459883
 31
0.0
  0
LINE
  5
271
100
AcDbEntity
  8
RACCORDO
100
AcDbLine
 62
250
  6
CONTINUOUS
 10
-13.896125689
 20
-49.3467459883
 30
0.0
 11
-15.9183398433
 21
-49.3467459883
 31
0.0
  0
LINE
  5
272
100
AcDbEntity
  8
RACCORDO
100
AcDbLine
 62
250
  6
CONTINUOUS
 10
31.6679877585
 20
-49.3467459883
 30
0.0
 11
31.7538795684
 21
-49.3467459883
 31
0.0
  0
LINE
  5
273
100
AcDbEntity
  8
RACCORDO
100
AcDbLine
 62
250
  6
CONTINUOUS
 10
32.5445903679
 20
-49.3467459883
 30
0.0
 11
34.5671770527
 21
-49.3467459883
 31
0.0
  0
LINE
  5
274
100
AcDbEntity
  8
RACCORDO
100
AcDbLine
 62
7
  6
CONTINUOUS
 10
-15.3455696812
 20
-49.1807489424
 30
0.0
 11
33.9944068905
 21
-49.1807489424
 31
0.0
  0
LINE
  5
275
100
AcDbEntity
  8
RACCORDO
100
AcDbLine
 62
250
  6
CONTINUOUS
 10
-33.8012757846
 20
-49.1296799397
 30
0.0
 11
52.4501129939
 21
-49.1296799397
 31
0.0
  0
LINE
  5
276
100
AcDbEntity
  8
RACCORDO
100
AcDbLine
 62
7
  6
CONTINUOUS
 10
-12.7279737987
 20
-49.2839650179
 30
0.0
 11
31.3547995887
 21
-49.2839414464
 31
0.0
  0
LINE
  5
277
100
AcDbEntity
  8
RACCORDO
100
AcDbLine
 62
250
  6
CONTINUOUS
 10
31.732709684
 20
-49.278070007
 30
0.0
 11
-13.0508092658
 21
-49.2780111787
 31
0.0
  0
LINE
  5
278
100
AcDbEntity
  8
RACCORDO
100
AcDbLine
 62
250
  6
CONTINUOUS
 10
31.3547995887
 20
-49.2839414464
 30
0.0
 11
31.3493004528
 21
-49.2832554005
 31
0.0
  0
LINE
  5
279
100
AcDbEntity
  8
RACCORDO
100
AcDbLine
 62
7
  6
CONTINUOUS
 10
31.3547995887
 20
-49.2839414464
 30
0.0
 11
31.4344911713
 21
-49.2841950585
 31
0.0
  0
LINE
  5
27A
100
AcDbEntity
  8
RACCORDO
100
AcDbLine
 62
250
  6
CONTINUOUS
 10
31.7975314578
 20
-49.2785186428
 30
0.0
 11
31.732709684
 21
-49.278070007
 31
0.0
  0
LINE
  5
27B
100
AcDbEntity
  8
RACCORDO
100
AcDbLine
 62
7
  6
CONTINUOUS
 10
31.4344911713
 20
-49.2841950585
 30
0.0
 11
31.510502178
 21
-49.2848936098
 31
0.0
  0
LINE
  5
27C
100
AcDbEntity
  8
RACCORDO
100
AcDbLine
 62
250
  6
CONTINUOUS
 10
31.510502178
 20
-49.2848936098
 30
0.0
 11
31.5022576908
 21
-49.2840807229
 31
0.0
  0
LINE
  5
27D
100
AcDbEntity
  8
RACCORDO
100
AcDbLine
 62
250
  6
CONTINUOUS
 10
31.8608854301
 20
-49.2794132841
 30
0.0
 11
31.7975314578
 21
-49.2785186428
 31
0.0
  0
LINE
  5
27E
100
AcDbEntity
  8
RACCORDO
100
AcDbLine
 62
7
  6
CONTINUOUS
 10
31.510502178
 20
-49.2848936098
 30
0.0
 11
31.5822343934
 21
-49.285957387
 31
0.0
  0
LINE
  5
27F
100
AcDbEntity
  8
RACCORDO
100
AcDbLine
 62
7
  6
CONTINUOUS
 10
31.5822343934
 20
-49.285957387
 30
0.0
 11
31.6492889064
 21
-49.2873539857
 31
0.0
  0
LINE
  5
280
100
AcDbEntity
  8
RACCORDO
100
AcDbLine
 62
250
  6
CONTINUOUS
 10
31.6929732102
 20
-49.2876188624
 30
0.0
 11
31.6912130624
 21
-49.2884420132
 31
0.0
  0
LINE
  5
281
100
AcDbEntity
  8
RACCORDO
100
AcDbLine
 62
250
  6
CONTINUOUS
 10
31.6492889064
 20
-49.2873539857
 30
0.0
 11
31.6479352185
 21
-49.2865022205
 31
0.0
  0
LWPOLYLINE
  5
282
100
AcDbEntity
  8
RACCORDO
100
AcDbPolyline
 62
7
  6
CONTINUOUS
 90
3
 70
0
 10
31.6492889064
 20
-49.2873539857
 10
31.6912130624
 20
-49.2884420132
 10
31.7112944217
 20
-49.2890312502
  0
LINE
  5
283
100
AcDbEntity
  8
RACCORDO
100
AcDbLine
 62
250
  6
CONTINUOUS
 10
31.7361862246
 20
-49.2888852377
 30
0.0
 11
31.7112944217
 21
-49.2890312502
 31
0.0
  0
LWPOLYLINE
  5
284
100
AcDbEntity
  8
RACCORDO
100
AcDbPolyline
 62
250
  6
CONTINUOUS
 90
4
 70
0
 10
32.1013064281
 20
-49.4868756822
 10
32.06510265
 20
-49.4855640817
 10
32.0291047089
 20
-49.4816376036
 10
31.9935010423
 20
-49.4751202569
  0
LWPOLYLINE
  5
285
100
AcDbEntity
  8
RACCORDO
100
AcDbPolyline
 62
250
  6
CONTINUOUS
 90
5
 70
0
 10
-13.5486935719
 20
-49.4868756822
 10
-13.5855204327
 20
-49.4855184122
 10
-13.621973346
 20
-49.4814790874
 10
-13.6578604232
 20
-49.474817751
 10
-13.6929224461
 20
-49.4656301146
  0
LWPOLYLINE
  5
286
100
AcDbEntity
  8
RACCORDO
100
AcDbPolyline
 62
250
  6
CONTINUOUS
 90
10
 70
0
 10
-13.55039456
 20
-49.3042253113
 10
-13.5935862147
 20
-49.3023599618
 10
-13.6364549664
 20
-49.2967756552
 10
-13.6786803261
 20
-49.2875141401
 10
-13.7199466149
 20
-49.2746446559
 10
-13.759945324
 20
-49.2582634158
 10
-13.7983774209
 20
-49.2384928865
 10
-13.8349555853
 20
-49.2154808737
 10
-13.8694063571
 20
-49.1893994162
 10
-13.8789859044
 20
-49.1807489424
  0
LWPOLYLINE
  5
287
100
AcDbEntity
  8
RACCORDO
100
AcDbPolyline
 62
250
  6
CONTINUOUS
 90
28
 70
0
 10
-34.7000423659
 20
-47.6317356376
 10
-34.6983248628
 20
-47.684934568
 10
-34.6937412371
 20
-47.7371993457
 10
-34.6862914887
 20
-47.7885299706
 10
-34.6759430205
 20
-47.838929308
 10
-34.6627284296
 20
-47.8883944926
 10
-34.6467455081
 20
-47.9369169293
 10
-34.6279511905
 20
-47.9846676235
 10
-34.6063885423
 20
-48.0314755697
 10
-34.5822845521
 20
-48.0768191566
 10
-34.555622407
 20
-48.1206575232
 10
-34.5264189198
 20
-48.1630315305
 10
-34.4949515183
 20
-48.2035421492
 10
-34.4611885393
 20
-48.2421805608
 10
-34.4251616459
 20
-48.2789555839
 10
-34.3872432554
 20
-48.3134946443
 10
-34.3475619462
 20
-48.3457131528
 10
-34.30598914
 20
-48.3756956987
 10
-34.2625115188
 20
-48.4033234758
 10
-34.2170058286
 20
-48.4287002932
 10
-34.1695953235
 20
-48.4517223419
 10
-34.1206364474
 20
-48.4719593889
 10
-34.0700185522
 20
-48.4893989105
 10
-34.0178522861
 20
-48.5040534305
 10
-33.9648260374
 20
-48.5155302875
 10
-33.911169269
 20
-48.5236985943
 10
-33.8566525181
 20
-48.5286892381
 10
-33.8012757846
 20
-48.5305022188
  0
LWPOLYLINE
  5
288
100
AcDbEntity
  8
RACCORDO
100
AcDbPolyline
 62
250
  6
CONTINUOUS
 90
28
 70
0
 10
-35.2992200867
 20
-47.6317356376
 10
-35.2965336868
 20
-47.7198586544
 10
-35.2887580855
 20
-47.8069747707
 10
-35.2760414994
 20
-47.8927990516
 10
-35.2586080333
 20
-47.9768043406
 10
-35.2366004421
 20
-48.0590037896
 10
-35.2099332847
 20
-48.1399124231
 10
-35.1785575496
 20
-48.219544401
 10
-35.1426470552
 20
-48.2973429409
 10
-35.1023609914
 20
-48.3729454293
 10
-35.0578590949
 20
-48.4460675155
 10
-35.0092684139
 20
-48.5165149895
 10
-34.9567342005
 20
-48.5840786833
 10
-34.9004108957
 20
-48.648555134
 10
-34.8404951914
 20
-48.7097150766
 10
-34.7772163422
 20
-48.767328755
 10
-34.7109976052
 20
-48.8210510453
 10
-34.6418643337
 20
-48.8708993019
 10
-34.5693936774
 20
-48.917107038
 10
-34.4935483036
 20
-48.9595281425
 10
-34.414717303
 20
-48.9977790046
 10
-34.3330685879
 20
-49.0316335842
 10
-34.2487141916
 20
-49.0608865714
 10
-34.1620223737
 20
-49.0852540357
 10
-34.0735889864
 20
-49.104456184
 10
-33.9838265778
 20
-49.1183318353
 10
-33.8929460061
 20
-49.1267769483
 10
-33.8012757846
 20
-49.1296799397
  0
LWPOLYLINE
  5
289
100
AcDbEntity
  8
0
100
AcDbPolyline
 62
7
  6
CONTINUOUS
 90
28
 70
0
 10
-35.7755813953
 20
-48.1074689159
 10
-35.7730540937
 20
-48.1945589491
 10
-35.7654609701
 20
-48.2814898341
 10
-35.7528029339
 20
-48.3679661343
 10
-35.7350670424
 20
-48.4538249081
 10
-35.7123048397
 20
-48.5386322649
 10
-35.6847095193
 20
-48.6217050864
 10
-35.6525097926
 20
-48.7025652639
 10
-35.6157912604
 20
-48.7811774282
 10
-35.5745795627
 20
-48.8575371421
 10
-35.5290057967
 20
-48.9313960936
 10
-35.47922511
 20
-49.0024977208
 10
-35.4252425639
 20
-49.0707925515
 10
-35.3670321376
 20
-49.1362050866
 10
-35.3049084414
 20
-49.1982810798
 10
-35.2394393446
 20
-49.2564511681
 10
-35.1710512842
 20
-49.3104185426
 10
-35.0998425455
 20
-49.3601843264
 10
-35.0259471224
 20
-49.4056916752
 10
-34.9496859216
 20
-49.4467694489
 10
-34.8712597888
 20
-49.4833349098
 10
-34.7905909173
 20
-49.5154079859
 10
-34.7076929248
 20
-49.5429084869
 10
-34.6230600917
 20
-49.5655992276
 10
-34.5373421857
 20
-49.5832917012
 10
-34.4509597252
 20
-49.595928997
 10
-34.3640839293
 20
-49.6035147985
 10
-34.277009063
 20
-49.6060412483
  0
LINE
  5
28A
100
AcDbEntity
  8
0
100
AcDbLine
 62
7
  6
CONTINUOUS
 10
-35.7755813953
 20
37.0953864193
 30
0.0
 11
-35.7755813953
 21
-48.1074689159
 31
0.0
  0
LINE
  5
28B
100
AcDbEntity
  8
0
100
AcDbLine
 62
7
  6
CONTINUOUS
 10
-35.6755813953
 20
35.1939587517
 30
0.0
 11
-35.6755813953
 21
-48.0080969462
 31
0.0
  0
LINE
  5
28C
100
AcDbEntity
  8
RACCORDO
100
AcDbLine
 62
250
  6
CONTINUOUS
 10
-35.2992200867
 20
36.6196531409
 30
0.0
 11
-35.2992200867
 21
-47.6317356376
 31
0.0
  0
LWPOLYLINE
  5
28D
100
AcDbEntity
  8
RACCORDO
100
AcDbPolyline
 62
7
  6
CONTINUOUS
 90
13
 70
0
 10
-13.3347276231
 20
-49.3047411908
 10
-13.3348753727
 20
-49.3047645499
 10
-13.3343315479
 20
-49.3046857131
 10
-13.3323706722
 20
-49.3044199645
 10
-13.3289597384
 20
-49.3039925801
 10
-13.32446436
 20
-49.3034702194
 10
-13.3189693947
 20
-49.3028768509
 10
-13.3123818043
 20
-49.302215372
 10
-13.3048117239
 20
-49.3015078209
 10
-13.2962566151
 20
-49.3007621275
 10
-13.2867156482
 20
-49.2999848422
 10
-13.276296303
 20
-49.2991889803
 10
-13.2650113315
 20
-49.2983790511
  0
LINE
  5
28E
100
AcDbEntity
  8
RACCORDO
100
AcDbLine
 62
7
  6
CONTINUOUS
 10
-13.2650113315
 20
-49.2983790511
 30
0.0
 11
-13.2398760568
 21
-49.2967408751
 31
0.0
  0
LWPOLYLINE
  5
28F
100
AcDbEntity
  8
RACCORDO
100
AcDbPolyline
 62
250
  6
CONTINUOUS
 90
12
 70
0
 10
-13.2564539377
 20
-49.2961583298
 10
-13.2874566334
 20
-49.298064858
 10
-13.3161991791
 20
-49.3000911811
 10
-13.3428577297
 20
-49.3022480978
 10
-13.3672561303
 20
-49.3045248093
 10
-13.3887491421
 20
-49.3068949793
 10
-13.4072870483
 20
-49.3093678927
 10
-13.4229195658
 20
-49.3119342647
 10
-13.4351506061
 20
-49.3145399042
 10
-13.4438148064
 20
-49.3171667473
 10
-13.4490775295
 20
-49.3198328578
 10
-13.4509387755
 20
-49.3225382357
  0
LINE
  5
290
100
AcDbEntity
  8
RACCORDO
100
AcDbLine
 62
7
  6
CONTINUOUS
 10
-13.2398760568
 20
-49.2967408751
 30
0.0
 11
-13.211537021
 21
-49.2951177425
 31
0.0
  0
LINE
  5
291
100
AcDbEntity
  8
RACCORDO
100
AcDbLine
 62
7
  6
CONTINUOUS
 10
-13.211537021
 20
-49.2951177425
 30
0.0
 11
-13.180223248
 21
-49.2935358714
 31
0.0
  0
LINE
  5
292
100
AcDbEntity
  8
RACCORDO
100
AcDbLine
 62
7
  6
CONTINUOUS
 10
-13.180223248
 20
-49.2935358714
 30
0.0
 11
-13.1460851191
 21
-49.2920191989
 31
0.0
  0
LWPOLYLINE
  5
293
100
AcDbEntity
  8
RACCORDO
100
AcDbPolyline
 62
250
  6
CONTINUOUS
 90
4
 70
0
 10
-13.180223248
 20
-49.2935358714
 10
-13.1879074379
 20
-49.292677867
 10
-13.2233078656
 20
-49.2943655361
 10
-13.2564539377
 20
-49.2961583298
  0
LINE
  5
294
100
AcDbEntity
  8
RACCORDO
100
AcDbLine
 62
7
  6
CONTINUOUS
 10
-13.1460851191
 20
-49.2920191989
 30
0.0
 11
-13.1092327927
 21
-49.2905913783
 31
0.0
  0
LINE
  5
295
100
AcDbEntity
  8
RACCORDO
100
AcDbLine
 62
250
  6
CONTINUOUS
 10
-13.1460851191
 20
-49.2920191989
 30
0.0
 11
-13.1503636339
 21
-49.2911039325
 31
0.0
  0
LINE
  5
296
100
AcDbEntity
  8
RACCORDO
100
AcDbLine
 62
7
  6
CONTINUOUS
 10
-13.1092327927
 20
-49.2905913783
 30
0.0
 11
-13.0697576825
 21
-49.2892592942
 31
0.0
  0
LWPOLYLINE
  5
297
100
AcDbEntity
  8
RACCORDO
100
AcDbPolyline
 62
250
  6
CONTINUOUS
 90
17
 70
0
 10
-13.3004687744
 20
-49.2815164265
 10
-13.3281690881
 20
-49.2824178856
 10
-13.3546724771
 20
-49.2834133761
 10
-13.3799948666
 20
-49.2845017043
 10
-13.4038133875
 20
-49.2856690052
 10
-13.4261056488
 20
-49.286915926
 10
-13.4468940414
 20
-49.2882418195
 10
-13.4659228692
 20
-49.2896308791
 10
-13.4831762303
 20
-49.2910841323
 10
-13.4986700266
 20
-49.2926005515
 10
-13.5121962673
 20
-49.2941612477
 10
-13.5237309744
 20
-49.2957670412
 10
-13.5332981261
 20
-49.2974171117
 10
-13.540761666
 20
-49.299090109
 10
-13.5460762423
 20
-49.3007789163
 10
-13.549287207
 20
-49.3024906504
 10
-13.55039456
 20
-49.3042253113
  0
LINE
  5
298
100
AcDbEntity
  8
RACCORDO
100
AcDbLine
 62
250
  6
CONTINUOUS
 10
-13.1092327927
 20
-49.2905913783
 30
0.0
 11
-13.1111261654
 21
-49.289663502
 31
0.0
  0
LINE
  5
299
100
AcDbEntity
  8
RACCORDO
100
AcDbLine
 62
250
  6
CONTINUOUS
 10
-33.8012757846
 20
-48.5305022188
 30
0.0
 11
52.4501129939
 21
-48.5305022188
 31
0.0
  0
LINE
  5
29A
100
AcDbEntity
  8
RACCORDO
100
AcDbLine
 62
250
  6
CONTINUOUS
 10
-34.7000423659
 20
-47.6317356376
 30
0.0
 11
-35.2992200867
 21
-47.6317356376
 31
0.0
  0
LINE
  5
29B
100
AcDbEntity
  8
RACCORDO
100
AcDbLine
 62
250
  6
CONTINUOUS
 10
53.3488795752
 20
-47.6317356376
 30
0.0
 11
53.948057296
 21
-47.6317356376
 31
0.0
  0
LINE
  5
29C
100
AcDbEntity
  8
RACCORDO
100
AcDbLine
 62
250
  6
CONTINUOUS
 10
31.7771879506
 20
-49.2902713196
 30
0.0
 11
31.7680698847
 21
-49.2909608542
 31
0.0
  0
LINE
  5
29D
100
AcDbEntity
  8
RACCORDO
100
AcDbLine
 62
7
  6
CONTINUOUS
 10
31.7112944217
 20
-49.2890312502
 30
0.0
 11
31.74973712
 21
-49.2902940178
 31
0.0
  0
LINE
  5
29E
100
AcDbEntity
  8
RACCORDO
100
AcDbLine
 62
7
  6
CONTINUOUS
 10
31.74973712
 20
-49.2902940178
 30
0.0
 11
31.7857852461
 21
-49.2916479007
 31
0.0
  0
LINE
  5
29F
100
AcDbEntity
  8
RACCORDO
100
AcDbLine
 62
250
  6
CONTINUOUS
 10
31.8158244918
 20
-49.2917689508
 30
0.0
 11
31.8028597175
 21
-49.2923546368
 31
0.0
  0
LINE
  5
2A0
100
AcDbEntity
  8
RACCORDO
100
AcDbLine
 62
7
  6
CONTINUOUS
 10
31.7857852461
 20
-49.2916479007
 30
0.0
 11
31.8192901434
 21
-49.2930804273
 31
0.0
  0
LWPOLYLINE
  5
2A1
100
AcDbEntity
  8
RACCORDO
100
AcDbPolyline
 62
7
  6
CONTINUOUS
 90
7
 70
0
 10
31.6090535652
 20
-49.6056565664
 10
31.6111580198
 20
-49.6057567788
 10
31.613268265
 20
-49.6058420185
 10
31.6153842005
 20
-49.6059121761
 10
31.6175057244
 20
-49.6059671424
 10
31.6196327334
 20
-49.6060068087
 10
31.6217651227
 20
-49.606031067
  0
LINE
  5
2A2
100
AcDbEntity
  8
RACCORDO
100
AcDbLine
 62
7
  6
CONTINUOUS
 10
31.8192901434
 20
-49.2930804273
 30
0.0
 11
31.85026914
 21
-49.2945853982
 31
0.0
  0
LWPOLYLINE
  5
2A3
100
AcDbEntity
  8
RACCORDO
100
AcDbPolyline
 62
250
  6
CONTINUOUS
 90
3
 70
0
 10
31.886539087
 20
-49.295117778
 10
31.8522497446
 20
-49.2933862887
 10
31.8192901434
 20
-49.2930804273
  0
LINE
  5
2A4
100
AcDbEntity
  8
RACCORDO
100
AcDbLine
 62
7
  6
CONTINUOUS
 10
31.85026914
 20
-49.2945853982
 30
0.0
 11
31.8785946479
 21
-49.2961378077
 31
0.0
  0
LWPOLYLINE
  5
2A5
100
AcDbEntity
  8
RACCORDO
100
AcDbPolyline
 62
7
  6
CONTINUOUS
 90
14
 70
0
 10
31.8785946479
 20
-49.2961378077
 10
31.9039569607
 20
-49.297707686
 10
31.9154973959
 20
-49.2984926389
 10
31.9262986139
 20
-49.2992747537
 10
31.9363253369
 20
-49.3000471654
 10
31.9454543937
 20
-49.3007947643
 10
31.9536710394
 20
-49.3015116278
 10
31.9609955816
 20
-49.3021944339
 10
31.9673545327
 20
-49.3028293244
 10
31.9728004046
 20
-49.3034128956
 10
31.9772851244
 20
-49.3039298719
 10
31.9805818808
 20
-49.3043388231
 10
31.9827515877
 20
-49.3046279957
 10
31.9833671788
 20
-49.3047149673
  0
LWPOLYLINE
  5
2A6
100
AcDbEntity
  8
RACCORDO
100
AcDbPolyline
 62
250
  6
CONTINUOUS
 90
4
 70
0
 10
-34.5998882701
 20
38.3574299909
 10
-34.5997695764
 20
38.355120041
 10
-34.5981687691
 20
38.3508212532
 10
-34.5958026565
 20
38.345192234
  0
LINE
  5
2A7
100
AcDbEntity
  8
RACCORDO
100
AcDbLine
 62
250
  6
CONTINUOUS
 10
-34.7000423659
 20
36.6196531409
 30
0.0
 11
-34.7000423659
 21
-47.6317356376
 31
0.0
  0
LINE
  5
2A8
100
AcDbEntity
  8
RACCORDO
100
AcDbLine
 62
250
  6
CONTINUOUS
 10
-34.119543999
 20
38.4364936877
 30
0.0
 11
-34.119543999
 21
38.4221054737
 31
0.0
  0
LINE
  5
2A9
100
AcDbEntity
  8
RACCORDO
100
AcDbLine
 62
250
  6
CONTINUOUS
 10
-33.8012757846
 20
-48.5305022188
 30
0.0
 11
-33.8012757846
 21
-49.1296799397
 31
0.0
  0
LINE
  5
2AA
100
AcDbEntity
  8
RACCORDO
100
AcDbLine
 62
250
  6
CONTINUOUS
 10
-33.8012757846
 20
37.5184197222
 30
0.0
 11
-33.8012757846
 21
38.1175974431
 31
0.0
  0
LWPOLYLINE
  5
2AB
100
AcDbEntity
  8
0
100
AcDbPolyline
 62
7
  6
CONTINUOUS
 90
10
 70
0
 43
0.3500000006
 10
5.360133173
 20
52.750002182
 10
6.2172756443
 20
53.6071446533
 10
6.4315612621
 20
54.4642871246
 10
6.4315612621
 20
55.3214295959
 10
6.0029900265
 20
55.7499985657
 10
5.360133173
 20
55.7499985657
 10
4.9315613708
 20
55.3214295959
 10
4.9315613708
 20
54.4642871246
 10
5.360133173
 20
54.035713623
 10
6.2887045612
 20
54.035713623
  0
LWPOLYLINE
  5
2AC
100
AcDbEntity
  8
RACCORDO
100
AcDbPolyline
 62
250
  6
CONTINUOUS
 90
5
 70
0
 10
31.9593502983
 20
-49.3020410578
 10
31.9714901101
 20
-49.3058270356
 10
32.0137154994
 20
-49.3150885658
 10
32.0565842875
 20
-49.3206728825
 10
32.0997759848
 20
-49.3225382357
  0
LINE
  5
2AD
100
AcDbEntity
  8
RACCORDO
100
AcDbLine
 62
7
  6
CONTINUOUS
 10
-12.9729279052
 20
-49.6060412483
 30
0.0
 11
-13.0191505492
 21
-49.4966032215
 31
0.0
  0
LWPOLYLINE
  5
2AE
100
AcDbEntity
  8
0
100
AcDbPolyline
 62
7
  6
CONTINUOUS
 90
10
 70
0
 10
13.6302250019
 20
-38.3545953805
 10
13.6409411732
 20
-38.3522356398
 10
13.6515670089
 20
-38.348742305
 10
13.6621025091
 20
-38.3441153762
 10
13.6724975612
 20
-38.3381736127
 10
13.6828022777
 20
-38.3310982552
 10
13.6931669961
 20
-38.3234330252
 10
13.7036099559
 20
-38.3152699661
 10
13.7141129177
 20
-38.3065170345
 10
13.7356346594
 20
-38.2881613117
  0
LWPOLYLINE
  5
2AF
100
AcDbEntity
  8
0
100
AcDbPolyline
 62
7
  6
CONTINUOUS
 90
10
 70
0
 10
12.7911125815
 20
-37.4623401733
 10
12.8381106488
 20
-37.454586843
 10
12.8846183642
 20
-37.4483717722
 10
12.9306357277
 20
-37.4436949609
 10
12.9760350448
 20
-37.440567979
 10
13.0209440099
 20
-37.4389792566
 10
13.0657457069
 20
-37.4388940836
 10
13.1105678302
 20
-37.44030089
 10
13.1552826853
 20
-37.4432112459
 10
13.1998902723
 20
-37.4476251511
  0
LINE
  5
2B0
100
AcDbEntity
  8
0
100
AcDbLine
 62
7
  6
CONTINUOUS
 10
5.2028946047
 20
-39.5362212483
 30
0.0
 11
5.6627246047
 21
-39.5362212483
 31
0.0
  0
LINE
  5
2B1
100
AcDbEntity
  8
0
100
AcDbLine
 62
7
  6
CONTINUOUS
 10
6.6598786047
 20
-39.5362212483
 30
0.0
 11
7.1816716047
 21
-39.5362212483
 31
0.0
  0
LINE
  5
2B2
100
AcDbEntity
  8
0
100
AcDbLine
 62
7
  6
CONTINUOUS
 10
7.4625686047
 20
-39.5362212483
 30
0.0
 11
7.9617546047
 21
-39.5362212483
 31
0.0
  0
LINE
  5
2B3
100
AcDbEntity
  8
0
100
AcDbLine
 62
7
  6
CONTINUOUS
 10
8.6864836047
 20
-39.5362212483
 30
0.0
 11
8.7596656047
 21
-39.5362212483
 31
0.0
  0
LINE
  5
2B4
100
AcDbEntity
  8
0
100
AcDbLine
 62
7
  6
CONTINUOUS
 10
9.4872806047
 20
-39.5362212483
 30
0.0
 11
9.9977326047
 21
-39.5362212483
 31
0.0
  0
LINE
  5
2B5
100
AcDbEntity
  8
0
100
AcDbLine
 62
7
  6
CONTINUOUS
 10
10.0796686047
 20
-39.5362212483
 30
0.0
 11
10.5957996047
 21
-39.5362212483
 31
0.0
  0
LINE
  5
2B6
100
AcDbEntity
  8
0
100
AcDbLine
 62
7
  6
CONTINUOUS
 10
11.5855496047
 20
-39.5362212483
 30
0.0
 11
12.1354976047
 21
-39.5362212483
 31
0.0
  0
LINE
  5
2B7
100
AcDbEntity
  8
0
100
AcDbLine
 62
7
  6
CONTINUOUS
 10
12.2887211067
 20
-39.536221029
 30
0.0
 11
12.8084144483
 21
-39.536221029
 31
0.0
  0
LINE
  5
2B8
100
AcDbEntity
  8
0
100
AcDbLine
 62
7
  6
CONTINUOUS
 10
13.607468267
 20
-39.536221029
 30
0.0
 11
14.1093723653
 21
-39.536221029
 31
0.0
  0
LINE
  5
2B9
100
AcDbEntity
  8
0
100
AcDbLine
 62
7
  6
CONTINUOUS
 10
10.7397826047
 20
-39.0371852483
 30
0.0
 11
11.4503776047
 21
-39.0371852483
 31
0.0
  0
LINE
  5
2BA
100
AcDbEntity
  8
0
100
AcDbLine
 62
7
  6
CONTINUOUS
 10
11.3460976047
 20
-38.6510332483
 30
0.0
 11
10.8465176047
 21
-38.6510332483
 31
0.0
  0
LINE
  5
2BB
100
AcDbEntity
  8
0
100
AcDbLine
 62
7
  6
CONTINUOUS
 10
12.8084144483
 20
-38.5579626097
 30
0.0
 11
13.088187321
 21
-38.5579626097
 31
0.0
  0
LINE
  5
2BC
100
AcDbEntity
  8
0
100
AcDbLine
 62
7
  6
CONTINUOUS
 10
13.0893120361
 20
-38.1485663256
 30
0.0
 11
12.7911125815
 21
-38.1485663256
 31
0.0
  0
LINE
  5
2BD
100
AcDbEntity
  8
0
100
AcDbLine
 62
7
  6
CONTINUOUS
 10
11.3685166047
 20
-37.0364852483
 30
0.0
 11
10.8637446047
 21
-37.0364852483
 31
0.0
  0
LINE
  5
2BE
100
AcDbEntity
  8
0
100
AcDbLine
 62
7
  6
CONTINUOUS
 10
9.7639796047
 20
-37.0364852483
 30
0.0
 11
9.2477166047
 21
-37.0364852483
 31
0.0
  0
LINE
  5
2BF
100
AcDbEntity
  8
0
100
AcDbLine
 62
7
  6
CONTINUOUS
 10
8.2096416047
 20
-37.0364852483
 30
0.0
 11
7.6882806047
 21
-37.0364852483
 31
0.0
  0
LINE
  5
2C0
100
AcDbEntity
  8
0
100
AcDbLine
 62
7
  6
CONTINUOUS
 10
6.4662396047
 20
-37.0364852483
 30
0.0
 11
5.9448036047
 21
-37.0364852483
 31
0.0
  0
LINE
  5
2C1
100
AcDbEntity
  8
0
100
AcDbLine
 62
7
  6
CONTINUOUS
 10
4.9772576047
 20
-37.0364852483
 30
0.0
 11
4.4104296047
 21
-37.0364852483
 31
0.0
  0
LINE
  5
2C2
100
AcDbEntity
  8
0
100
AcDbLine
 62
7
  6
CONTINUOUS
 10
7.1816716047
 20
-37.0363352483
 30
0.0
 11
6.6598786047
 21
-37.0363352483
 31
0.0
  0
LWPOLYLINE
  5
2C3
100
AcDbEntity
  8
0
100
AcDbPolyline
 62
7
  6
CONTINUOUS
 90
16
 70
0
 10
13.088187321
 20
-38.5579626097
 10
13.1144230191
 20
-38.5591881171
 10
13.1395956016
 20
-38.5622814918
 10
13.1637050687
 20
-38.5672427337
 10
13.1867075019
 20
-38.5740685437
 10
13.2086468196
 20
-38.5827622209
 10
13.2296547766
 20
-38.5933336632
 10
13.2496961102
 20
-38.6057139808
 10
13.2688060831
 20
-38.6199720633
 10
13.2872222381
 20
-38.636324478
 10
13.3051838677
 20
-38.6548668863
 10
13.3224516795
 20
-38.6755036268
 10
13.3385453391
 20
-38.6981642812
 10
13.3533047351
 20
-38.7228253769
 10
13.3668899789
 20
-38.7495103865
 10
13.3793010706
 20
-38.7782193102
  0
LWPOLYLINE
  5
2C4
100
AcDbEntity
  8
0
100
AcDbPolyline
 62
7
  6
CONTINUOUS
 90
16
 70
0
 10
13.1998902723
 20
-37.4476251511
 10
13.2343738824
 20
-37.4535969102
 10
13.2670394549
 20
-37.462064969
 10
13.2978869897
 20
-37.4730293277
 10
13.3270873846
 20
-37.4866410032
 10
13.354469742
 20
-37.5027489786
 10
13.3795213683
 20
-37.5209002025
 10
13.4020720645
 20
-37.5410046495
 10
13.4222920298
 20
-37.563152345
 10
13.4401791677
 20
-37.5871603139
 10
13.4558760323
 20
-37.6133305061
 10
13.4692400695
 20
-37.6413609716
 10
13.4798415208
 20
-37.670162885
 10
13.4875371333
 20
-37.6993733045
 10
13.4924701599
 20
-37.7293551718
 10
13.4946406006
 20
-37.760108487
  0
LWPOLYLINE
  5
2C5
100
AcDbEntity
  8
RACCORDO
100
AcDbPolyline
 62
250
  6
CONTINUOUS
 90
9
 70
0
 10
31.9242412257
 20
-49.4544853646
 10
31.8908970783
 20
-49.4404642028
 10
31.8585982919
 20
-49.4240385209
 10
31.8275550728
 20
-49.4053045981
 10
31.7979999029
 20
-49.3844077453
 10
31.7701757355
 20
-49.3615526407
 10
31.7441117603
 20
-49.3367979384
 10
31.7197403042
 20
-49.3100531778
 10
31.7030186322
 20
-49.288788418
  0
LINE
  5
2C6
100
AcDbEntity
  8
RACCORDO
100
AcDbLine
 62
250
  6
CONTINUOUS
 10
-12.6755813953
 20
-49.3059840393
 30
0.0
 11
-12.6843940563
 21
-49.2839406331
 31
0.0
  0
LINE
  5
2C7
100
AcDbEntity
  8
RACCORDO
100
AcDbLine
 62
250
  6
CONTINUOUS
 10
-14.0083078261
 20
-49.1838350295
 30
0.0
 11
-14.0094931982
 21
-49.1807489424
 31
0.0
  0
LWPOLYLINE
  5
2C8
100
AcDbEntity
  8
RACCORDO
100
AcDbPolyline
 62
7
  6
CONTINUOUS
 90
17
 70
0
 10
-14.0096207188
 20
-49.1807489424
 10
-14.0091104856
 20
-49.1821030487
 10
-13.9920296195
 20
-49.2183439164
 10
-13.9720986305
 20
-49.2531029489
 10
-13.9494432674
 20
-49.2861729575
 10
-13.9242124536
 20
-49.3173250018
 10
-13.896569954
 20
-49.3463486443
 10
-13.8667000436
 20
-49.3730638488
 10
-13.8347893099
 20
-49.3972956961
 10
-13.8010514648
 20
-49.4188877405
 10
-13.7657238938
 20
-49.4377012513
 10
-13.729020726
 20
-49.4536179662
 10
-13.6911409628
 20
-49.4665550132
 10
-13.6523169478
 20
-49.4764245298
 10
-13.6127961815
 20
-49.4831521288
 10
-13.5728301805
 20
-49.4867007578
 10
-13.5486935524
 20
-49.4872868218
  0
LWPOLYLINE
  5
2C9
100
AcDbEntity
  8
RACCORDO
100
AcDbPolyline
 62
250
  6
CONTINUOUS
 90
16
 70
0
 10
32.3898943825
 20
-32.7045017957
 10
32.4005527224
 20
-32.7038908435
 10
32.410855656
 20
-32.7022587245
 10
32.4208031834
 20
-32.6996054387
 10
32.4304857709
 20
-32.6958818805
 10
32.439812952
 20
-32.6911371555
 10
32.448513328
 20
-32.68551858
 10
32.4565745245
 20
-32.6790039893
 10
32.4640089159
 20
-32.6716155482
 10
32.4705822258
 20
-32.6635670666
 10
32.4762753131
 20
-32.6548307748
 10
32.4811073191
 20
-32.6454344425
 10
32.4849013912
 20
-32.6356751896
 10
32.4875985786
 20
-32.6256520558
 10
32.4892578322
 20
-32.6152660013
 10
32.489879152
 20
-32.6045170262
  0
LWPOLYLINE
  5
2CA
100
AcDbEntity
  8
RACCORDO
100
AcDbPolyline
 62
250
  6
CONTINUOUS
 90
19
 70
0
 10
-13.7521023614
 20
-32.969115605
 10
-13.7877794642
 20
-32.9710220041
 10
-13.8222013912
 20
-32.9699573962
 10
-13.8552918607
 20
-32.9658949333
 10
-13.8870413018
 20
-32.9586848154
 10
-13.9172762352
 20
-32.9484354267
 10
-13.9456777525
 20
-32.9355666917
 10
-13.972104688
 20
-32.9202162182
 10
-13.9965241243
 20
-32.9023587878
 10
-14.0188052186
 20
-32.8822384262
 10
-14.0389047801
 20
-32.8599938827
 10
-14.0567176288
 20
-32.8356426247
 10
-14.0720423963
 20
-32.809269736
 10
-14.0849198637
 20
-32.7808900927
 10
-14.0951915374
 20
-32.7506593206
 10
-14.1024209436
 20
-32.7188964721
 10
-14.1064938435
 20
-32.6857752445
 10
-14.1075636018
 20
-32.6513049989
 10
-14.105655752
 20
-32.6155622144
  0
LWPOLYLINE
  5
2CB
100
AcDbEntity
  8
RACCORDO
100
AcDbPolyline
 62
250
  6
CONTINUOUS
 90
16
 70
0
 10
32.3898943825
 20
-32.9044713347
 10
32.4213246009
 20
-32.902813922
 10
32.452340276
 20
-32.8978870986
 10
32.4826049495
 20
-32.8897664299
 10
32.5117684456
 20
-32.8785729845
 10
32.5395497805
 20
-32.8644425421
 10
32.5657270799
 20
-32.8474975483
 10
32.5900207517
 20
-32.8279122177
 10
32.612158527
 20
-32.8058987738
 10
32.6319337017
 20
-32.7816429369
 10
32.6491245241
 20
-32.7553734801
 10
32.6635071724
 20
-32.7273824698
 10
32.6748994724
 20
-32.6979755784
 10
32.6831553056
 20
-32.6674730998
 10
32.6881639341
 20
-32.6362052335
 10
32.6898486911
 20
-32.6045170262
  0
LINE
  5
2CC
100
AcDbEntity
  8
RACCORDO
100
AcDbLine
 62
250
  6
CONTINUOUS
 10
32.5582832161
 20
-33.4897992464
 30
0.0
 11
-13.9094460068
 21
-33.4897992464
 31
0.0
  0
LINE
  5
2CD
100
AcDbEntity
  8
RACCORDO
100
AcDbLine
 62
250
  6
CONTINUOUS
 10
32.5582832161
 20
-33.2898297073
 30
0.0
 11
-13.9094460068
 21
-33.2898297073
 31
0.0
  0
LINE
  5
2CE
100
AcDbEntity
  8
RACCORDO
100
AcDbLine
 62
7
  6
CONTINUOUS
 10
-13.9006575478
 20
-33.2810412483
 30
0.0
 11
32.5494947571
 21
-33.2810412483
 31
0.0
  0
LINE
  5
2CF
100
AcDbEntity
  8
RACCORDO
100
AcDbLine
 62
250
  6
CONTINUOUS
 10
32.4007140574
 20
-32.9691402869
 30
0.0
 11
-13.7521270434
 21
-32.9691402869
 31
0.0
  0
LINE
  5
2D0
100
AcDbEntity
  8
RACCORDO
100
AcDbLine
 62
250
  6
CONTINUOUS
 10
32.3960151519
 20
-32.9105921041
 30
0.0
 11
-13.7471779426
 21
-32.9105921041
 31
0.0
  0
LINE
  5
2D1
100
AcDbEntity
  8
RACCORDO
100
AcDbLine
 62
250
  6
CONTINUOUS
 10
-13.7410571732
 20
-32.9044713347
 30
0.0
 11
32.3898943825
 21
-32.9044713347
 31
0.0
  0
LINE
  5
2D2
100
AcDbEntity
  8
RACCORDO
100
AcDbLine
 62
250
  6
CONTINUOUS
 10
33.2581766027
 20
-32.7899058598
 30
0.0
 11
33.0582070637
 21
-32.7899058598
 31
0.0
  0
LINE
  5
2D3
100
AcDbEntity
  8
RACCORDO
100
AcDbLine
 62
250
  6
CONTINUOUS
 10
-14.6093393934
 20
-32.7899058598
 30
0.0
 11
-14.4093698544
 21
-32.7899058598
 31
0.0
  0
LINE
  5
2D4
100
AcDbEntity
  8
RACCORDO
100
AcDbLine
 62
250
  6
CONTINUOUS
 10
-13.7410571732
 20
-32.7045017957
 30
0.0
 11
32.3898943825
 21
-32.7045017957
 31
0.0
  0
LINE
  5
2D5
100
AcDbEntity
  8
RACCORDO
100
AcDbLine
 62
250
  6
CONTINUOUS
 10
-13.8410419427
 20
-32.6045170262
 30
0.0
 11
-14.0410114818
 21
-32.6045170262
 31
0.0
  0
LINE
  5
2D6
100
AcDbEntity
  8
RACCORDO
100
AcDbLine
 62
250
  6
CONTINUOUS
 10
32.489879152
 20
-32.6045170262
 30
0.0
 11
32.6898486911
 21
-32.6045170262
 31
0.0
  0
LWPOLYLINE
  5
2D7
100
AcDbEntity
  8
RACCORDO
100
AcDbPolyline
 62
250
  6
CONTINUOUS
 90
25
 70
0
 10
-13.9094460057
 20
-33.2898297062
 10
-13.9419083858
 20
-33.288779066
 10
-13.9741141554
 20
-33.2856389569
 10
-14.0059307901
 20
-33.2804456669
 10
-14.0371851269
 20
-33.2732554903
 10
-14.0677996834
 20
-33.2641144323
 10
-14.0977846233
 20
-33.2530294381
 10
-14.1270614073
 20
-33.240020539
 10
-14.1554607238
 20
-33.2251537255
 10
-14.1828541114
 20
-33.2084933148
 10
-14.209137745
 20
-33.1900994953
 10
-14.2341923086
 20
-33.1700527394
 10
-14.2578795845
 20
-33.1484677056
 10
-14.2800842256
 20
-33.1254644784
 10
-14.3007473711
 20
-33.1011199951
 10
-14.3198228361
 20
-33.0754923333
 10
-14.3371385884
 20
-33.0488359304
 10
-14.3527323237
 20
-33.0211181012
 10
-14.3667760944
 20
-32.9919117366
 10
-14.379177625
 20
-32.9610902197
 10
-14.389672896
 20
-32.9289321338
 10
-14.398087745
 20
-32.8955916368
 10
-14.404268748
 20
-32.86121343
 10
-14.4080751441
 20
-32.8259298564
 10
-14.4093698529
 20
-32.7899058583
  0
LWPOLYLINE
  5
2D8
100
AcDbEntity
  8
RACCORDO
100
AcDbPolyline
 62
250
  6
CONTINUOUS
 90
25
 70
0
 10
-13.9094460068
 20
-33.4897992464
 10
-13.9551872299
 20
-33.488219652
 10
-14.0002085123
 20
-33.4838354814
 10
-14.0445098542
 20
-33.4766467345
 10
-14.0882029053
 20
-33.4666061002
 10
-14.1311760158
 20
-33.4537608897
 10
-14.1730942364
 20
-33.4382530364
 10
-14.214014927
 20
-33.4200453012
 10
-14.2538807277
 20
-33.3991749232
 10
-14.2921846098
 20
-33.3758955533
 10
-14.328915097
 20
-33.3501600494
 10
-14.3640836656
 20
-33.3220155537
 10
-14.397217715
 20
-33.2918571434
 10
-14.4282586357
 20
-33.259694945
 10
-14.4572650372
 20
-33.225518832
 10
-14.4839401478
 20
-33.1896935028
 10
-14.5082188156
 20
-33.1524511726
 10
-14.5301661925
 20
-33.1135596262
 10
-14.5496809627
 20
-33.0726869153
 10
-14.566956866
 20
-33.0295474442
 10
-14.5818001625
 20
-32.9844268088
 10
-14.5935283171
 20
-32.9378498486
 10
-14.6019138179
 20
-32.8899915104
 10
-14.6071841766
 20
-32.8406768474
 10
-14.6093393934
 20
-32.7899058598
  0
LWPOLYLINE
  5
2D9
100
AcDbEntity
  8
RACCORDO
100
AcDbPolyline
 62
250
  6
CONTINUOUS
 90
19
 70
0
 10
-13.7471782366
 20
-32.9105923981
 10
-13.7740227084
 20
-32.9093674219
 10
-13.8004693353
 20
-32.9057702174
 10
-13.8263147946
 20
-32.8998767599
 10
-13.851363538
 20
-32.8917760883
 10
-13.875440479
 20
-32.8815790217
 10
-13.8983918637
 20
-32.8694162919
 10
-13.9200256291
 20
-32.855453601
 10
-13.9402530788
 20
-32.8398068919
 10
-13.9590725978
 20
-32.8225142792
 10
-13.9763410864
 20
-32.8037198705
 10
-13.9919483727
 20
-32.7835494256
 10
-14.0058910045
 20
-32.7619631469
 10
-14.0180582219
 20
-32.7390283617
 10
-14.0282687302
 20
-32.7149507562
 10
-14.0363854926
 20
-32.6898885652
 10
-14.0422940856
 20
-32.6640183899
 10
-14.045902893
 20
-32.6375336313
 10
-14.0471325452
 20
-32.6106380896
  0
LWPOLYLINE
  5
2DA
100
AcDbEntity
  8
0
100
AcDbPolyline
 62
7
  6
CONTINUOUS
 90
16
 70
0
 10
13.5764261312
 20
-37.0920089925
 10
13.5121489101
 20
-37.071361021
 10
13.444577295
 20
-37.0536628202
 10
13.3737112858
 20
-37.0389143899
 10
13.2994209863
 20
-37.0272657969
 10
13.2218362928
 20
-37.0185669744
 10
13.1413468937
 20
-37.0123677227
 10
13.0580763501
 20
-37.0085162775
 10
12.9719011011
 20
-37.007164403
 10
12.8828401521
 20
-37.0083171915
 10
12.7908698999
 20
-37.0120560212
 10
12.6960139479
 20
-37.018299514
 10
12.598362111
 20
-37.0268086284
 10
12.4979443277
 20
-37.0375036839
 10
12.3947306596
 20
-37.0504643611
 10
12.2887211067
 20
-37.0656906599
  0
LWPOLYLINE
  5
2DB
100
AcDbEntity
  8
RACCORDO
100
AcDbPolyline
 62
250
  6
CONTINUOUS
 90
16
 70
0
 10
-13.8410419427
 20
-32.6045170262
 10
-13.8404309906
 20
-32.6151753661
 10
-13.8387988716
 20
-32.6254782997
 10
-13.8361455857
 20
-32.6354258271
 10
-13.8324220276
 20
-32.6451084145
 10
-13.8276773026
 20
-32.6544355957
 10
-13.822058727
 20
-32.6631359717
 10
-13.8155441364
 20
-32.6711971682
 10
-13.8081556952
 20
-32.6786315595
 10
-13.8001072136
 20
-32.6852048695
 10
-13.7913709218
 20
-32.6908979568
 10
-13.7819745896
 20
-32.6957299627
 10
-13.7722153366
 20
-32.6995240348
 10
-13.7621922029
 20
-32.7022212223
 10
-13.7518061484
 20
-32.7038804759
 10
-13.7410571732
 20
-32.7045017957
  0
LWPOLYLINE
  5
2DC
100
AcDbEntity
  8
RACCORDO
100
AcDbPolyline
 62
250
  6
CONTINUOUS
 90
19
 70
0
 10
-14.105655752
 20
21.6034797178
 10
-14.1075621511
 20
21.6391568205
 10
-14.1064975433
 20
21.6735787476
 10
-14.1024350804
 20
21.706669217
 10
-14.0952249625
 20
21.7384186582
 10
-14.0849755737
 20
21.7686535916
 10
-14.0721068387
 20
21.7970551089
 10
-14.0567563653
 20
21.8234820443
 10
-14.0388989349
 20
21.8479014806
 10
-14.0187785733
 20
21.8701825749
 10
-13.9965340298
 20
21.8902821365
 10
-13.9721827717
 20
21.9080949851
 10
-13.945809883
 20
21.9234197527
 10
-13.9174393648
 20
21.9362959842
 10
-13.887217902
 20
21.946566943
 10
-13.8554366191
 20
21.9537983
 10
-13.8222593799
 20
21.9578737783
 10
-13.7877046952
 20
21.9589431786
 10
-13.7518493051
 20
21.9570293833
  0
LWPOLYLINE
  5
2DD
100
AcDbEntity
  8
RACCORDO
100
AcDbPolyline
 62
250
  6
CONTINUOUS
 90
16
 70
0
 10
-14.0410114818
 20
-32.6045170262
 10
-14.039354069
 20
-32.6359472445
 10
-14.0344272457
 20
-32.6669629196
 10
-14.026306577
 20
-32.6972275932
 10
-14.0151131316
 20
-32.7263910893
 10
-14.0009826891
 20
-32.7541724242
 10
-13.9840376953
 20
-32.7803497235
 10
-13.9644523648
 20
-32.8046433954
 10
-13.9424389209
 20
-32.8267811706
 10
-13.9181830839
 20
-32.8465563454
 10
-13.8919136272
 20
-32.8637471678
 10
-13.8639226169
 20
-32.878129816
 10
-13.8345157255
 20
-32.8895221161
 10
-13.8040132468
 20
-32.8977779492
 10
-13.7727453805
 20
-32.9027865777
 10
-13.7410571732
 20
-32.9044713347
  0
LINE
  5
2DE
100
AcDbEntity
  8
RACCORDO
100
AcDbLine
 62
250
  6
CONTINUOUS
 10
-13.55039456
 20
-49.3042253113
 30
0.0
 11
-13.5486935719
 21
-49.4868756822
 31
0.0
  0
LINE
  5
2DF
100
AcDbEntity
  8
RACCORDO
100
AcDbLine
 62
250
  6
CONTINUOUS
 10
-14.6093393934
 20
-32.7899058598
 30
0.0
 11
-14.6093393934
 21
21.7778233632
 31
0.0
  0
LINE
  5
2E0
100
AcDbEntity
  8
RACCORDO
100
AcDbLine
 62
250
  6
CONTINUOUS
 10
-14.4093698544
 20
-32.7899058598
 30
0.0
 11
-14.4093698544
 21
21.7778233632
 31
0.0
  0
LINE
  5
2E1
100
AcDbEntity
  8
RACCORDO
100
AcDbLine
 62
7
  6
CONTINUOUS
 10
-14.4005813953
 20
21.7690349041
 30
0.0
 11
-14.4005813953
 21
-32.7811174007
 31
0.0
  0
LINE
  5
2E2
100
AcDbEntity
  8
RACCORDO
100
AcDbLine
 62
250
  6
CONTINUOUS
 10
-14.105680434
 20
-32.6155868963
 30
0.0
 11
-14.105680434
 21
21.6035043997
 31
0.0
  0
LINE
  5
2E3
100
AcDbEntity
  8
RACCORDO
100
AcDbLine
 62
250
  6
CONTINUOUS
 10
-14.0471322512
 20
-32.6106377956
 30
0.0
 11
-14.0471322512
 21
21.598555299
 31
0.0
  0
LINE
  5
2E4
100
AcDbEntity
  8
RACCORDO
100
AcDbLine
 62
250
  6
CONTINUOUS
 10
-14.0410114818
 20
21.5924345296
 30
0.0
 11
-14.0410114818
 21
-32.6045170262
 31
0.0
  0
LINE
  5
2E5
100
AcDbEntity
  8
RACCORDO
100
AcDbLine
 62
250
  6
CONTINUOUS
 10
-13.9094460068
 20
22.4777167498
 30
0.0
 11
-13.9094460068
 21
22.2777472107
 31
0.0
  0
LINE
  5
2E6
100
AcDbEntity
  8
RACCORDO
100
AcDbLine
 62
250
  6
CONTINUOUS
 10
-13.9094460068
 20
-33.4897992464
 30
0.0
 11
-13.9094460068
 21
-33.2898297073
 31
0.0
  0
LINE
  5
2E7
100
AcDbEntity
  8
RACCORDO
100
AcDbLine
 62
250
  6
CONTINUOUS
 10
-13.8410419427
 20
21.5924345296
 30
0.0
 11
-13.8410419427
 21
-32.6045170262
 31
0.0
  0
LINE
  5
2E8
100
AcDbEntity
  8
RACCORDO
100
AcDbLine
 62
250
  6
CONTINUOUS
 10
-13.7410571732
 20
-32.7045017957
 30
0.0
 11
-13.7410571732
 21
-32.9044713347
 31
0.0
  0
LINE
  5
2E9
100
AcDbEntity
  8
RACCORDO
100
AcDbLine
 62
250
  6
CONTINUOUS
 10
-13.7410571732
 20
21.6924192991
 30
0.0
 11
-13.7410571732
 21
21.8923888381
 31
0.0
  0
LINE
  5
2EA
100
AcDbEntity
  8
RACCORDO
100
AcDbLine
 62
250
  6
CONTINUOUS
 10
-13.5486935719
 20
-49.4872868218
 30
0.0
 11
-13.5486935719
 21
-49.4868756822
 31
0.0
  0
LINE
  5
2EB
100
AcDbEntity
  8
RACCORDO
100
AcDbLine
 62
250
  6
CONTINUOUS
 10
-13.4524692188
 20
-49.4872868218
 30
0.0
 11
-13.4524692188
 21
-49.4868756822
 31
0.0
  0
LINE
  5
2EC
100
AcDbEntity
  8
RACCORDO
100
AcDbLine
 62
250
  6
CONTINUOUS
 10
-13.0508092658
 20
-49.2780111787
 30
0.0
 11
-13.0508092658
 21
-49.1807489424
 31
0.0
  0
LINE
  5
2ED
100
AcDbEntity
  8
RACCORDO
100
AcDbLine
 62
250
  6
CONTINUOUS
 10
-13.0191505492
 20
-49.4966032215
 30
0.0
 11
-13.0191505492
 21
-49.3467459883
 31
0.0
  0
LINE
  5
2EE
100
AcDbEntity
  8
RACCORDO
100
AcDbLine
 62
250
  6
CONTINUOUS
 10
-12.7004632435
 20
-49.2839406331
 30
0.0
 11
-12.7004632435
 21
-49.2832554005
 31
0.0
  0
LINE
  5
2EF
100
AcDbEntity
  8
RACCORDO
100
AcDbLine
 62
7
  6
CONTINUOUS
 10
-12.6755813953
 20
-49.3059840393
 30
0.0
 11
-12.6755813953
 21
-49.2839406331
 31
0.0
  0
LINE
  5
2F0
100
AcDbEntity
  8
RACCORDO
100
AcDbLine
 62
250
  6
CONTINUOUS
 10
-13.4509387755
 20
-49.3225382357
 30
0.0
 11
-13.4524692188
 21
-49.4868756822
 31
0.0
  0
LWPOLYLINE
  5
2F1
100
AcDbEntity
  8
RACCORDO
100
AcDbPolyline
 62
250
  6
CONTINUOUS
 90
25
 70
0
 10
-14.4093698532
 20
21.777823362
 10
-14.4082398703
 20
21.8114846683
 10
-14.4049094373
 20
21.8445282956
 10
-14.3994859437
 20
21.8768178838
 10
-14.3921201562
 20
21.9080934638
 10
-14.3829113035
 20
21.9383869904
 10
-14.3718198345
 20
21.9679960198
 10
-14.3588478801
 20
21.9969075611
 10
-14.3440915964
 20
22.02490091
 10
-14.327571734
 20
22.05193722
 10
-14.3093076859
 20
22.0779579194
 10
-14.2894004053
 20
22.1027948526
 10
-14.2680076943
 20
22.1262571038
 10
-14.2453407886
 20
22.1481570099
 10
-14.2214002613
 20
22.1685350588
 10
-14.1960104424
 20
22.1875180052
 10
-14.1692448551
 20
22.2049888604
 10
-14.141184195
 20
22.2208350219
 10
-14.1116033766
 20
22.2350865327
 10
-14.0803848159
 20
22.2476443305
 10
-14.0478063073
 20
22.2582424007
 10
-14.014246654
 20
22.2666555427
 10
-13.979938689
 20
22.2727627487
 10
-13.9449499376
 20
22.2764897632
 10
-13.9094460053
 20
22.2777472092
  0
LWPOLYLINE
  5
2F2
100
AcDbEntity
  8
RACCORDO
100
AcDbPolyline
 62
250
  6
CONTINUOUS
 90
25
 70
0
 10
-14.6093393934
 20
21.7778233632
 10
-14.6074874604
 20
21.8252311375
 10
-14.6028698977
 20
21.8714235156
 10
-14.5954867052
 20
21.9164004973
 10
-14.5852756638
 20
21.960132049
 10
-14.5722989926
 20
22.0026482043
 10
-14.5567433489
 20
22.0440390647
 10
-14.5386052966
 20
22.0844582913
 10
-14.5178882717
 20
22.1237522229
 10
-14.4947892399
 20
22.1615499777
 10
-14.4692243783
 20
22.1979061743
 10
-14.4412775097
 20
22.2327661941
 10
-14.4113970687
 20
22.2655952994
 10
-14.3797313159
 20
22.2962480823
 10
-14.3461319907
 20
22.3248699507
 10
-14.3106027452
 20
22.35136239
 10
-14.2731727711
 20
22.3758121756
 10
-14.2338128766
 20
22.3981325322
 10
-14.1924391381
 20
22.4179646192
 10
-14.1487381043
 20
22.4354210099
 10
-14.1030232265
 20
22.450389131
 10
-14.0561509348
 20
22.4621724216
 10
-14.008406706
 20
22.4705386948
 10
-13.9595050633
 20
22.4757201375
 10
-13.9094460068
 20
22.4777167498
  0
LWPOLYLINE
  5
2F3
100
AcDbEntity
  8
RACCORDO
100
AcDbPolyline
 62
250
  6
CONTINUOUS
 90
19
 70
0
 10
-14.0471325452
 20
21.598555593
 10
-14.0459075689
 20
21.6254000647
 10
-14.0423103644
 20
21.6518466916
 10
-14.0364169069
 20
21.6776921509
 10
-14.0283162354
 20
21.7027408943
 10
-14.0181191687
 20
21.7268178353
 10
-14.0059564389
 20
21.74976922
 10
-13.9919937481
 20
21.7714029855
 10
-13.9763470389
 20
21.7916304352
 10
-13.9590544263
 20
21.8104499541
 10
-13.9402600175
 20
21.8277184427
 10
-13.9200895726
 20
21.843325729
 10
-13.898503294
 20
21.8572683608
 10
-13.8755685087
 20
21.8694355782
 10
-13.8514909033
 20
21.8796460865
 10
-13.8264287122
 20
21.8877628489
 10
-13.800558537
 20
21.8936714419
 10
-13.7740737783
 20
21.8972802493
 10
-13.7471782366
 20
21.8985099015
  0
LWPOLYLINE
  5
2F4
100
AcDbEntity
  8
RACCORDO
100
AcDbPolyline
 62
250
  6
CONTINUOUS
 90
9
 70
0
 10
32.6959694605
 20
-32.6106377956
 10
32.696995075
 20
-32.6110647908
 10
32.6994687279
 20
-32.611524852
 10
32.7033716463
 20
-32.6120179792
 10
32.7086739635
 20
-32.612547292
 10
32.715336764
 20
-32.6131096707
 10
32.7233139754
 20
-32.6136957564
 10
32.7325494469
 20
-32.6143024294
 10
32.7545176433
 20
-32.6155868963
  0
LWPOLYLINE
  5
2F5
100
AcDbEntity
  8
0
100
AcDbPolyline
 62
7
  6
CONTINUOUS
 90
3
 70
0
 43
0.3500000006
 10
10.3601329994
 20
53.0357133179
 10
10.2887040825
 20
52.821428833
 10
10.1458473816
 20
52.5357131653
  0
LWPOLYLINE
  5
2F6
100
AcDbEntity
  8
RACCORDO
100
AcDbPolyline
 62
7
  6
CONTINUOUS
 90
13
 70
0
 10
31.7026711882
 20
-49.2887782231
 10
31.7257252014
 20
-49.3172542178
 10
31.7533622191
 20
-49.3462831097
 10
31.7832284647
 20
-49.3730047938
 10
31.8151372774
 20
-49.3972446987
 10
31.8488758341
 20
-49.4188452687
 10
31.8842070077
 20
-49.4376678263
 10
31.9209165006
 20
-49.4535935283
 10
31.9588038957
 20
-49.4665383229
 10
31.9976355352
 20
-49.4764146994
 10
32.0371643332
 20
-49.4831474884
 10
32.077139308
 20
-49.4866993933
 10
32.101306436
 20
-49.4872868218
  0
LINE
  5
2F7
100
AcDbEntity
  8
0
100
AcDbLine
 62
7
  6
CONTINUOUS
 10
8.0743576047
 20
-37.9039412483
 30
0.0
 11
8.6864836047
 21
-39.5362212483
 31
0.0
  0
LINE
  5
2F8
100
AcDbEntity
  8
0
100
AcDbLine
 62
7
  6
CONTINUOUS
 10
8.7259236047
 20
-38.4243462483
 30
0.0
 11
8.2096416047
 21
-37.0364852483
 31
0.0
  0
LINE
  5
2F9
100
AcDbEntity
  8
0
100
AcDbLine
 62
7
  6
CONTINUOUS
 10
4.4104296047
 20
-37.0364852483
 30
0.0
 11
5.2028946047
 21
-39.5362212483
 31
0.0
  0
LINE
  5
2FA
100
AcDbEntity
  8
0
100
AcDbLine
 62
7
  6
CONTINUOUS
 10
5.4537526047
 20
-38.7571312483
 30
0.0
 11
4.9772576047
 21
-37.0364852483
 31
0.0
  0
LWPOLYLINE
  5
2FB
100
AcDbEntity
  8
RACCORDO
100
AcDbPolyline
 62
250
  6
CONTINUOUS
 90
9
 70
0
 10
-13.7471779426
 20
-32.9105921041
 10
-13.747604939
 20
-32.9116177188
 10
-13.748065001
 20
-32.914091372
 10
-13.7485581287
 20
-32.9179942908
 10
-13.7490874417
 20
-32.9232966084
 10
-13.7496498204
 20
-32.9299594091
 10
-13.7502359059
 20
-32.9379366205
 10
-13.7508425783
 20
-32.9471720919
 10
-13.7521270434
 20
-32.9691402869
  0
LWPOLYLINE
  5
2FC
100
AcDbEntity
  8
RACCORDO
100
AcDbPolyline
 62
250
  6
CONTINUOUS
 90
12
 70
0
 10
31.54722901
 20
-49.28539138
 10
31.5519134406
 20
-49.2916561224
 10
31.5603258677
 20
-49.3011294392
 10
31.5694699444
 20
-49.3098304188
 10
31.5793905862
 20
-49.3177928639
 10
31.5900665643
 20
-49.3248951705
 10
31.601563183
 20
-49.3311878
 10
31.6138151381
 20
-49.336620291
 10
31.6266052874
 20
-49.3409196542
 10
31.6398612502
 20
-49.3439948933
 10
31.6536554072
 20
-49.3459370047
 10
31.6679877585
 20
-49.3467459883
  0
LWPOLYLINE
  5
2FD
100
AcDbEntity
  8
RACCORDO
100
AcDbPolyline
 62
250
  6
CONTINUOUS
 90
13
 70
0
 10
32.0997759848
 20
-49.3225382357
 10
32.0979105309
 20
-49.3199224327
 10
32.0930560844
 20
-49.3173610311
 10
32.0852126452
 20
-49.3148540309
 10
32.0743326626
 20
-49.3124000564
 10
32.0604636874
 20
-49.3100004834
 10
32.0437483713
 20
-49.3076594385
 10
32.0241390625
 20
-49.305368399
 10
32.0016834128
 20
-49.3031358877
 10
31.9766670297
 20
-49.3009916003
 10
31.9490435079
 20
-49.2989367931
 10
31.9188592526
 20
-49.2969702098
 10
31.886539087
 20
-49.295117778
  0
LWPOLYLINE
  5
2FE
100
AcDbEntity
  8
RACCORDO
100
AcDbPolyline
 62
250
  6
CONTINUOUS
 90
10
 70
0
 10
-13.7471779426
 20
21.8985096075
 10
-13.7477156438
 20
21.8995346409
 10
-13.748259444
 20
21.9020072876
 10
-13.7488093431
 20
21.9059095052
 10
-13.7493694067
 20
21.9112128041
 10
-13.7499355692
 20
21.9178785736
 10
-13.7504956339
 20
21.9258584688
 10
-13.751045535
 20
21.935094549
 10
-13.7515893381
 20
21.9455195953
 10
-13.7521270434
 20
21.9570577903
  0
LWPOLYLINE
  5
2FF
100
AcDbEntity
  8
0
100
AcDbPolyline
 62
7
  6
CONTINUOUS
 90
6
 70
0
 10
13.3793010706
 20
-38.7782193102
 10
13.4056057348
 20
-38.8551248123
 10
13.4313964484
 20
-38.9339867511
 10
13.4566732112
 20
-39.0148051267
 10
13.4810683402
 20
-39.097749551
 10
13.5294197954
 20
-39.2689988739
  0
LINE
  5
300
100
AcDbEntity
  8
0
100
AcDbLine
 62
7
  6
CONTINUOUS
 10
12.1354976047
 20
-39.5362212483
 30
0.0
 11
11.3685166047
 21
-37.0364852483
 31
0.0
  0
LWPOLYLINE
  5
301
100
AcDbEntity
  8
RACCORDO
100
AcDbPolyline
 62
250
  6
CONTINUOUS
 90
3
 70
0
 10
-12.7325536447
 20
-49.283978097
 10
-12.7372912473
 20
-49.2990285016
 10
-12.7472422564
 20
-49.3231093376
  0
LWPOLYLINE
  5
302
100
AcDbEntity
  8
RACCORDO
100
AcDbPolyline
 62
250
  6
CONTINUOUS
 90
10
 70
0
 10
32.6959694605
 20
21.598555299
 10
32.6969944938
 20
21.5990930002
 10
32.6994671405
 20
21.5996368003
 10
32.7033693582
 20
21.6001866994
 10
32.708672657
 20
21.600746763
 10
32.7153384265
 20
21.6013129256
 10
32.7233183217
 20
21.6018729902
 10
32.732554402
 20
21.6024228913
 10
32.7429794483
 20
21.6029666945
 10
32.7545176433
 20
21.6035043997
  0
LWPOLYLINE
  5
303
100
AcDbEntity
  8
0
100
AcDbPolyline
 62
7
  6
CONTINUOUS
 90
4
 70
0
 43
0.3500000006
 10
68.2214293213
 20
-7.8631836319
 10
67.36428685
 20
-7.8631836319
 10
66.9357133484
 20
-7.4346123962
 10
66.9357133484
 20
-6.7917555428
  0
LWPOLYLINE
  5
304
100
AcDbEntity
  8
0
100
AcDbPolyline
 62
7
  6
CONTINUOUS
 90
4
 70
0
 43
0.3500000006
 10
68.2214293213
 20
-5.5060407028
 10
67.36428685
 20
-5.5060407028
 10
66.9357133484
 20
-5.0774694672
 10
66.9357133484
 20
-4.4346126137
  0
LINE
  5
305
100
AcDbEntity
  8
RACCORDO
100
AcDbLine
 62
250
  6
CONTINUOUS
 10
32.4007140574
 20
-32.9691402869
 30
0.0
 11
32.6916319274
 21
-33.259980295
 31
0.0
  0
LINE
  5
306
100
AcDbEntity
  8
RACCORDO
100
AcDbLine
 62
250
  6
CONTINUOUS
 10
32.5582832161
 20
-33.2898297073
 30
0.0
 11
32.5494947571
 21
-33.2810412483
 31
0.0
  0
LINE
  5
307
100
AcDbEntity
  8
RACCORDO
100
AcDbLine
 62
250
  6
CONTINUOUS
 10
32.3898943825
 20
-32.9044713347
 30
0.0
 11
32.3960151519
 21
-32.9105921041
 31
0.0
  0
LINE
  5
308
100
AcDbEntity
  8
RACCORDO
100
AcDbLine
 62
250
  6
CONTINUOUS
 10
32.6898486911
 20
-32.6045170262
 30
0.0
 11
32.6959694605
 21
-32.6106377956
 31
0.0
  0
LINE
  5
309
100
AcDbEntity
  8
RACCORDO
100
AcDbLine
 62
250
  6
CONTINUOUS
 10
32.7545176433
 20
-32.6155868963
 30
0.0
 11
33.0354784201
 21
-32.8965476732
 31
0.0
  0
LINE
  5
30A
100
AcDbEntity
  8
RACCORDO
100
AcDbLine
 62
250
  6
CONTINUOUS
 10
33.0582070637
 20
-32.7899058598
 30
0.0
 11
33.0494186047
 21
-32.7811174007
 31
0.0
  0
LINE
  5
30B
100
AcDbEntity
  8
RACCORDO
100
AcDbLine
 62
250
  6
CONTINUOUS
 10
-35.2992200867
 20
36.6196531409
 30
0.0
 11
-35.7755813953
 21
37.0953864193
 31
0.0
  0
LINE
  5
30C
100
AcDbEntity
  8
RACCORDO
100
AcDbLine
 62
250
  6
CONTINUOUS
 10
52.4501129939
 20
-49.1296799397
 30
0.0
 11
52.9258462723
 21
-49.6060412483
 31
0.0
  0
LWPOLYLINE
  5
30D
100
AcDbEntity
  8
RACCORDO
100
AcDbPolyline
 62
250
  6
CONTINUOUS
 90
19
 70
0
 10
32.1992317693
 20
-49.3042253113
 10
32.1981351336
 20
-49.3024990465
 10
32.194954936
 20
-49.3007954324
 10
32.1896911765
 20
-49.2991144691
 10
32.1823063485
 20
-49.2974497074
 10
32.1728379587
 20
-49.2958075965
 10
32.1613985266
 20
-49.2942074842
 10
32.1479582511
 20
-49.2926490975
 10
32.1325469334
 20
-49.2911327095
 10
32.1153664963
 20
-49.2896784871
 10
32.0963970201
 20
-49.2882875982
 10
32.0756584246
 20
-49.286958875
 10
32.0534123924
 20
-49.2857089803
 10
32.0296461837
 20
-49.2845389982
 10
32.0043725382
 20
-49.2834478448
 10
31.9778913577
 20
-49.2824489315
 10
31.9501809203
 20
-49.2815430502
 10
31.921262948
 20
-49.2807294091
 10
31.8608854301
 20
-49.2794132841
  0
LWPOLYLINE
  5
30E
100
AcDbEntity
  8
RACCORDO
100
AcDbPolyline
 62
250
  6
CONTINUOUS
 90
13
 70
0
 10
31.4071425927
 20
-49.3445904788
 10
31.4205678382
 20
-49.3660931961
 10
31.4357763193
 20
-49.3864053063
 10
31.4526620186
 20
-49.4053750213
 10
31.4710093896
 20
-49.4227769624
 10
31.4907745689
 20
-49.4385848042
 10
31.5121524421
 20
-49.4528838961
 10
31.5351564919
 20
-49.4655372227
 10
31.5595613032
 20
-49.4762797651
 10
31.5852309652
 20
-49.4849301706
 10
31.6119970828
 20
-49.4913101856
 10
31.6396571324
 20
-49.495251554
 10
31.6679877596
 20
-49.4966032188
  0
LINE
  5
30F
100
AcDbEntity
  8
0
100
AcDbLine
 62
7
  6
CONTINUOUS
 10
13.5294197954
 20
-39.2689988739
 30
0.0
 11
13.607468267
 21
-39.536221029
 31
0.0
  0
LINE
  5
310
100
AcDbEntity
  8
0
100
AcDbLine
 62
7
  6
CONTINUOUS
 10
11.4503776047
 20
-39.0371852483
 30
0.0
 11
11.5855496047
 21
-39.5362212483
 31
0.0
  0
LINE
  5
311
100
AcDbEntity
  8
0
100
AcDbLine
 62
7
  6
CONTINUOUS
 10
13.9923533972
 20
-39.0896511485
 30
0.0
 11
13.9309925558
 21
-38.8596486809
 31
0.0
  0
LINE
  5
312
100
AcDbEntity
  8
0
100
AcDbLine
 62
7
  6
CONTINUOUS
 10
14.1093723653
 20
-39.536221029
 30
0.0
 11
13.9923533972
 21
-39.0896511485
 31
0.0
  0
LINE
  5
313
100
AcDbEntity
  8
0
100
AcDbLine
 62
7
  6
CONTINUOUS
 10
11.1063266047
 20
-37.7233492483
 30
0.0
 11
11.3460976047
 21
-38.6510332483
 31
0.0
  0
LWPOLYLINE
  5
314
100
AcDbEntity
  8
0
100
AcDbPolyline
 62
7
  6
CONTINUOUS
 90
19
 70
0
 10
13.9309925558
 20
-38.8596486809
 10
13.920442298
 20
-38.8185356597
 10
13.9092789758
 20
-38.7787431858
 10
13.8975025891
 20
-38.7402712593
 10
13.8851906131
 20
-38.7030162844
 10
13.8722655726
 20
-38.6670818568
 10
13.8584950422
 20
-38.6327787638
 10
13.8438205572
 20
-38.6001582288
 10
13.8283005823
 20
-38.5691690283
 10
13.8118780859
 20
-38.5399682789
 10
13.794474395
 20
-38.5124806411
 10
13.7761681827
 20
-38.4867814544
 10
13.7571384367
 20
-38.4632538538
 10
13.7373669947
 20
-38.4419918913
 10
13.7168720191
 20
-38.422901515
 10
13.6958869846
 20
-38.4060837036
 10
13.6744897159
 20
-38.3915721169
 10
13.6526023884
 20
-38.3793330951
 10
13.6302250019
 20
-38.3693666384
  0
LINE
  5
315
100
AcDbEntity
  8
0
100
AcDbLine
 62
7
  6
CONTINUOUS
 10
9.9977326047
 20
-39.5362212483
 30
0.0
 11
9.7639796047
 21
-37.0364852483
 31
0.0
  0
LINE
  5
316
100
AcDbEntity
  8
0
100
AcDbLine
 62
7
  6
CONTINUOUS
 10
9.3800766047
 20
-37.9107452483
 30
0.0
 11
9.4872806047
 21
-39.5362212483
 31
0.0
  0
LINE
  5
317
100
AcDbEntity
  8
0
100
AcDbLine
 62
7
  6
CONTINUOUS
 10
6.6598786047
 20
-37.0363352483
 30
0.0
 11
6.6598786047
 21
-39.5362212483
 31
0.0
  0
LINE
  5
318
100
AcDbEntity
  8
0
100
AcDbLine
 62
7
  6
CONTINUOUS
 10
7.1816716047
 20
-39.5362212483
 30
0.0
 11
7.1816716047
 21
-37.0363352483
 31
0.0
  0
LWPOLYLINE
  5
319
100
AcDbEntity
  8
0
100
AcDbPolyline
 62
7
  6
CONTINUOUS
 90
13
 70
0
 43
0.3500000006
 10
7.2887042999
 20
53.6071446533
 10
7.2887042999
 20
54.8928560944
 10
7.5029899178
 20
55.3214295959
 10
7.9315617199
 20
55.7499985657
 10
8.1458473377
 20
55.7499985657
 10
8.5744185734
 20
55.3214295959
 10
8.7887041912
 20
54.8928560944
 10
8.7887041912
 20
53.6071446533
 10
8.5744185734
 20
53.1785711517
 10
8.1458473377
 20
52.750002182
 10
7.9315617199
 20
52.750002182
 10
7.5029899178
 20
53.1785711517
 10
7.2887042999
 20
53.6071446533
  0
LINE
  5
31A
100
AcDbEntity
  8
RACCORDO
100
AcDbLine
 62
7
  6
CONTINUOUS
 10
-15.9928069401
 20
-49.4907304772
 30
0.0
 11
-15.8456653768
 21
-49.2062276066
 31
0.0
  0
LINE
  5
31B
100
AcDbEntity
  8
RACCORDO
100
AcDbLine
 62
250
  6
CONTINUOUS
 10
-14.0427951588
 20
22.247897659
 30
0.0
 11
-13.7518776903
 21
21.9570577903
 31
0.0
  0
LINE
  5
31C
100
AcDbEntity
  8
RACCORDO
100
AcDbLine
 62
250
  6
CONTINUOUS
 10
-33.8012757846
 20
38.1175974431
 30
0.0
 11
-34.1060909513
 21
38.4224126097
 31
0.0
  0
LINE
  5
31D
100
AcDbEntity
  8
RACCORDO
100
AcDbLine
 62
250
  6
CONTINUOUS
 10
-34.119543999
 20
38.4364936877
 30
0.0
 11
-34.277009063
 21
38.5939587517
 31
0.0
  0
LINE
  5
31E
100
AcDbEntity
  8
RACCORDO
100
AcDbLine
 62
250
  6
CONTINUOUS
 10
53.948057296
 20
-47.6317356376
 30
0.0
 11
54.4244186047
 21
-48.1074689159
 31
0.0
  0
LINE
  5
31F
100
AcDbEntity
  8
RACCORDO
100
AcDbLine
 62
250
  6
CONTINUOUS
 10
-14.4005813953
 20
21.7690349041
 30
0.0
 11
-14.4093698544
 21
21.7778233632
 31
0.0
  0
LINE
  5
320
100
AcDbEntity
  8
RACCORDO
100
AcDbLine
 62
250
  6
CONTINUOUS
 10
-14.3866412112
 20
21.884465177
 30
0.0
 11
-14.105680434
 21
21.6035043997
 31
0.0
  0
LINE
  5
321
100
AcDbEntity
  8
RACCORDO
100
AcDbLine
 62
250
  6
CONTINUOUS
 10
-14.0410114818
 20
21.5924345296
 30
0.0
 11
-14.0471322512
 21
21.598555299
 31
0.0
  0
LINE
  5
322
100
AcDbEntity
  8
RACCORDO
100
AcDbLine
 62
250
  6
CONTINUOUS
 10
-13.7410571732
 20
21.8923888381
 30
0.0
 11
-13.7471779426
 21
21.8985096075
 31
0.0
  0
LINE
  5
323
100
AcDbEntity
  8
RACCORDO
100
AcDbLine
 62
250
  6
CONTINUOUS
 10
-13.9006575478
 20
22.2689587517
 30
0.0
 11
-13.9094460068
 21
22.2777472107
 31
0.0
  0
LINE
  5
324
100
AcDbEntity
  8
RACCORDO
100
AcDbLine
 62
7
  6
CONTINUOUS
 10
34.4945025861
 20
-49.2062276066
 30
0.0
 11
34.6416441494
 21
-49.4907304772
 31
0.0
  0
LINE
  5
325
100
AcDbEntity
  8
RACCORDO
100
AcDbLine
 62
250
  6
CONTINUOUS
 10
31.3956386365
 20
-49.3221571329
 30
0.0
 11
31.4071425927
 21
-49.3445904788
 31
0.0
  0
LINE
  5
326
100
AcDbEntity
  8
0
100
AcDbLine
 62
7
  6
CONTINUOUS
 10
12.2887211067
 20
-37.0656906599
 30
0.0
 11
12.2887211067
 21
-39.536221029
 31
0.0
  0
LINE
  5
327
100
AcDbEntity
  8
0
100
AcDbLine
 62
7
  6
CONTINUOUS
 10
12.7911125815
 20
-38.1485663256
 30
0.0
 11
12.7911125815
 21
-37.4623401733
 31
0.0
  0
LINE
  5
328
100
AcDbEntity
  8
0
100
AcDbLine
 62
7
  6
CONTINUOUS
 10
12.8084144483
 20
-39.536221029
 30
0.0
 11
12.8084144483
 21
-38.5579626097
 31
0.0
  0
LINE
  5
329
100
AcDbEntity
  8
0
100
AcDbLine
 62
7
  6
CONTINUOUS
 10
13.6302250019
 20
-38.3693666384
 30
0.0
 11
13.6302250019
 21
-38.3545953805
 31
0.0
  0
LINE
  5
32A
100
AcDbEntity
  8
0
100
AcDbLine
 62
7
  6
CONTINUOUS
 10
7.9617546047
 20
-39.5362212483
 30
0.0
 11
8.0743576047
 21
-37.9039412483
 31
0.0
  0
LINE
  5
32B
100
AcDbEntity
  8
0
100
AcDbLine
 62
7
  6
CONTINUOUS
 10
7.6882806047
 20
-37.0364852483
 30
0.0
 11
7.4625686047
 21
-39.5362212483
 31
0.0
  0
LINE
  5
32C
100
AcDbEntity
  8
RACCORDO
100
AcDbLine
 62
250
  6
CONTINUOUS
 10
-12.7472422564
 20
-49.3231093376
 30
0.0
 11
-12.759245699
 21
-49.346236485
 31
0.0
  0
LINE
  5
32D
100
AcDbEntity
  8
RACCORDO
100
AcDbLine
 62
250
  6
CONTINUOUS
 10
32.7545176433
 20
21.6032542045
 30
0.0
 11
33.0355101413
 21
21.8843219282
 31
0.0
  0
LINE
  5
32E
100
AcDbEntity
  8
RACCORDO
100
AcDbLine
 62
250
  6
CONTINUOUS
 10
32.5582832161
 20
22.2777472107
 30
0.0
 11
32.5494947571
 21
22.2689587517
 31
0.0
  0
LINE
  5
32F
100
AcDbEntity
  8
RACCORDO
100
AcDbLine
 62
250
  6
CONTINUOUS
 10
32.4009642527
 20
21.9570577903
 30
0.0
 11
32.6917628551
 21
22.2478563927
 31
0.0
  0
LINE
  5
330
100
AcDbEntity
  8
RACCORDO
100
AcDbLine
 62
250
  6
CONTINUOUS
 10
32.3898943825
 20
21.8923888381
 30
0.0
 11
32.3960151519
 21
21.8985096075
 31
0.0
  0
LINE
  5
331
100
AcDbEntity
  8
RACCORDO
100
AcDbLine
 62
250
  6
CONTINUOUS
 10
32.6898486911
 20
21.5924345296
 30
0.0
 11
32.6959694605
 21
21.598555299
 31
0.0
  0
LINE
  5
332
100
AcDbEntity
  8
RACCORDO
100
AcDbLine
 62
250
  6
CONTINUOUS
 10
33.0582070637
 20
21.7778233632
 30
0.0
 11
33.0494186047
 21
21.7690349041
 31
0.0
  0
LINE
  5
333
100
AcDbEntity
  8
RACCORDO
100
AcDbLine
 62
250
  6
CONTINUOUS
 10
-35.2992200867
 20
-47.6317356376
 30
0.0
 11
-35.7755813953
 21
-48.1074689159
 31
0.0
  0
LINE
  5
334
100
AcDbEntity
  8
RACCORDO
100
AcDbLine
 62
250
  6
CONTINUOUS
 10
52.9258462723
 20
38.5939587517
 30
0.0
 11
52.7683812083
 21
38.4364936877
 31
0.0
  0
LINE
  5
335
100
AcDbEntity
  8
RACCORDO
100
AcDbLine
 62
250
  6
CONTINUOUS
 10
52.4501129939
 20
38.1175974431
 30
0.0
 11
52.7549281606
 21
38.4224126097
 31
0.0
  0
LINE
  5
336
100
AcDbEntity
  8
RACCORDO
100
AcDbLine
 62
250
  6
CONTINUOUS
 10
-33.8012757846
 20
-49.1296799397
 30
0.0
 11
-34.277009063
 21
-49.6060412483
 31
0.0
  0
LWPOLYLINE
  5
337
100
AcDbEntity
  8
0
100
AcDbPolyline
 62
7
  6
CONTINUOUS
 90
22
 70
0
 10
13.4946406006
 20
-37.760108487
 10
13.4935122323
 20
-37.7950421318
 10
13.4901345571
 20
-37.8288783719
 10
13.484507575
 20
-37.8616172073
 10
13.4764583911
 20
-37.8935483448
 10
13.4661599004
 20
-37.9243820776
 10
13.4541307873
 20
-37.9532492849
 10
13.4404793292
 20
-37.9799327803
 10
13.4250972488
 20
-38.0046497501
 10
13.4081783991
 20
-38.0271826331
 10
13.3897617517
 20
-38.0474004474
 10
13.369808335
 20
-38.065434175
 10
13.3483950862
 20
-38.0814592003
 10
13.3255790175
 20
-38.0953868532
 10
13.3013031167
 20
-38.107305804
 10
13.2754732852
 20
-38.1176574476
 10
13.2479974724
 20
-38.126558187
 10
13.2189677289
 20
-38.1338916194
 10
13.1885661081
 20
-38.1397499308
 10
13.1568532947
 20
-38.14416385
 10
13.123768604
 20
-38.1471026483
 10
13.0893120361
 20
-38.1485663256
  0
LINE
  5
338
100
AcDbEntity
  8
0
100
AcDbLine
 62
7
  6
CONTINUOUS
 10
5.9448036047
 20
-37.0364852483
 30
0.0
 11
5.4537526047
 21
-38.7571312483
 31
0.0
  0
LINE
  5
339
100
AcDbEntity
  8
0
100
AcDbLine
 62
7
  6
CONTINUOUS
 10
5.6627246047
 20
-39.5362212483
 30
0.0
 11
6.4662396047
 21
-37.0364852483
 31
0.0
  0
LWPOLYLINE
  5
33A
100
AcDbEntity
  8
RACCORDO
100
AcDbPolyline
 62
250
  6
CONTINUOUS
 90
13
 70
0
 10
-12.759245699
 20
-49.346236485
 10
-12.7732113139
 20
-49.3682356753
 10
-12.7890337562
 20
-49.3889407497
 10
-12.8066039976
 20
-49.4082052931
 10
-12.8257874499
 20
-49.4258771688
 10
-12.8464457205
 20
-49.4418247918
 10
-12.868453447
 20
-49.455940814
 10
-12.8916634767
 20
-49.4681136757
 10
-12.9158925257
 20
-49.4782309886
 10
-12.9409493569
 20
-49.4862007517
 10
-12.9666408841
 20
-49.4919517787
 10
-12.9927747913
 20
-49.4954314765
 10
-13.0191505492
 20
-49.4966032215
  0
LINE
  5
33B
100
AcDbEntity
  8
RACCORDO
100
AcDbLine
 62
250
  6
CONTINUOUS
 10
54.4244186047
 20
37.0953864193
 30
0.0
 11
53.948057296
 21
36.6196531409
 31
0.0
  0
LINE
  5
33C
100
AcDbEntity
  8
RACCORDO
100
AcDbLine
 62
250
  6
CONTINUOUS
 10
-14.4093698544
 20
-32.7899058598
 30
0.0
 11
-14.4005813953
 21
-32.7811174007
 31
0.0
  0
LINE
  5
33D
100
AcDbEntity
  8
RACCORDO
100
AcDbLine
 62
250
  6
CONTINUOUS
 10
-14.3866412112
 20
-32.8965476736
 30
0.0
 11
-14.105680434
 21
-32.6155868963
 31
0.0
  0
LINE
  5
33E
100
AcDbEntity
  8
RACCORDO
100
AcDbLine
 62
250
  6
CONTINUOUS
 10
-14.0410114818
 20
-32.6045170262
 30
0.0
 11
-14.0471322512
 21
-32.6106377956
 31
0.0
  0
LINE
  5
33F
100
AcDbEntity
  8
RACCORDO
100
AcDbLine
 62
250
  6
CONTINUOUS
 10
-13.7410571732
 20
-32.9044713347
 30
0.0
 11
-13.7471779426
 21
-32.9105921041
 31
0.0
  0
LINE
  5
340
100
AcDbEntity
  8
RACCORDO
100
AcDbLine
 62
250
  6
CONTINUOUS
 10
-14.0429256458
 20
-33.2599388893
 30
0.0
 11
-13.7521270434
 21
-32.9691402869
 31
0.0
  0
LINE
  5
341
100
AcDbEntity
  8
RACCORDO
100
AcDbLine
 62
250
  6
CONTINUOUS
 10
-13.9094460068
 20
-33.2898297073
 30
0.0
 11
-13.9006575478
 21
-33.2810412483
 31
0.0
  0
LWPOLYLINE
  5
342
100
AcDbEntity
  8
RACCORDO
100
AcDbPolyline
 62
250
  6
CONTINUOUS
 90
10
 70
0
 10
32.3960151519
 20
-32.9105921041
 10
32.3965528531
 20
-32.9116171375
 10
32.3970966533
 20
-32.9140897842
 10
32.3976465524
 20
-32.9179920019
 10
32.398206616
 20
-32.9232953007
 10
32.3987727785
 20
-32.9299610702
 10
32.3993328431
 20
-32.9379409654
 10
32.3998827442
 20
-32.9471770456
 10
32.4004265474
 20
-32.957602092
 10
32.4009642527
 20
-32.9691402869
  0
LWPOLYLINE
  5
343
100
AcDbEntity
  8
RACCORDO
100
AcDbPolyline
 62
250
  6
CONTINUOUS
 90
3
 70
0
 10
31.3813756059
 20
-49.2839740211
 10
31.3860674752
 20
-49.298860566
 10
31.3956386365
 20
-49.3221571329
  0
LINE
  5
344
100
AcDbEntity
  8
0
100
AcDbLine
 62
7
  6
CONTINUOUS
 10
10.8465176047
 20
-38.6510332483
 30
0.0
 11
11.1063266047
 21
-37.7233492483
 31
0.0
  0
LINE
  5
345
100
AcDbEntity
  8
0
100
AcDbLine
 62
7
  6
CONTINUOUS
 10
10.5957996047
 20
-39.5362212483
 30
0.0
 11
10.7397826047
 21
-39.0371852483
 31
0.0
  0
LINE
  5
346
100
AcDbEntity
  8
0
100
AcDbLine
 62
7
  6
CONTINUOUS
 10
10.8637446047
 20
-37.0364852483
 30
0.0
 11
10.0796686047
 21
-39.5362212483
 31
0.0
  0
LINE
  5
347
100
AcDbEntity
  8
0
100
AcDbLine
 62
7
  6
CONTINUOUS
 10
9.2477166047
 20
-37.0364852483
 30
0.0
 11
8.7259236047
 21
-38.4243462483
 31
0.0
  0
LINE
  5
348
100
AcDbEntity
  8
0
100
AcDbLine
 62
7
  6
CONTINUOUS
 10
8.7596656047
 20
-39.5362212483
 30
0.0
 11
9.3800766047
 21
-37.9107452483
 31
0.0
  0
LWPOLYLINE
  5
349
100
AcDbEntity
  8
RACCORDO
100
AcDbPolyline
 62
250
  6
CONTINUOUS
 90
9
 70
0
 10
32.3960151519
 20
21.8985096075
 10
32.3964421472
 20
21.899535222
 10
32.3969022084
 20
21.902008875
 10
32.3973953355
 20
21.9059117934
 10
32.3979246483
 20
21.9112141106
 10
32.3984870271
 20
21.9178769111
 10
32.3990731128
 20
21.9258541224
 10
32.3996797858
 20
21.935089594
 10
32.4009642527
 20
21.9570577903
  0
LWPOLYLINE
  5
34A
100
AcDbEntity
  8
RACCORDO
100
AcDbPolyline
 62
250
  6
CONTINUOUS
 90
5
 70
0
 10
-13.0541998178
 20
-49.2887892296
 10
-13.0602819942
 20
-49.2970798376
 10
-13.0837366748
 20
-49.3246200755
 10
-13.1090858536
 20
-49.3503585662
 10
-13.1363004775
 20
-49.3742587595
  0
LWPOLYLINE
  5
34B
100
AcDbEntity
  8
RACCORDO
100
AcDbPolyline
 62
250
  6
CONTINUOUS
 90
12
 70
0
 10
-12.8983742425
 20
-49.2853920247
 10
-12.9041250083
 20
-49.2929257506
 10
-12.9128779252
 20
-49.3025453938
 10
-12.9224504058
 20
-49.3113568347
 10
-12.9328283738
 20
-49.3193764783
 10
-12.9437982713
 20
-49.3264241068
 10
-12.9553804128
 20
-49.3324837634
 10
-12.9675544839
 20
-49.3375714048
 10
-12.9800459833
 20
-49.3415546829
 10
-12.9927634104
 20
-49.3443894814
 10
-13.0057982657
 20
-49.3461199165
 10
-13.0191505492
 20
-49.3467459883
  0
LWPOLYLINE
  5
34C
100
AcDbEntity
  8
RACCORDO
100
AcDbPolyline
 62
250
  6
CONTINUOUS
 90
9
 70
0
 10
-14.0471322512
 20
21.598555299
 10
-14.0481578658
 20
21.5989822953
 10
-14.0506315191
 20
21.5994423573
 10
-14.0545344379
 20
21.599935485
 10
-14.0598367554
 20
21.6004647981
 10
-14.0664995561
 20
21.6010271768
 10
-14.0744767676
 20
21.6016132622
 10
-14.083712239
 20
21.6022199347
 10
-14.105680434
 20
21.6035043997
  0
LWPOLYLINE
  5
34D
100
AcDbEntity
  8
RACCORDO
100
AcDbPolyline
 62
250
  6
CONTINUOUS
 90
4
 70
0
 10
53.2447499772
 20
38.3451697175
 10
53.2471907073
 20
38.3493077944
 10
53.2500671268
 20
38.3534910514
 10
53.2487254796
 20
38.3574299908
  0
LWPOLYLINE
  5
34E
100
AcDbEntity
  8
RACCORDO
100
AcDbPolyline
 62
250
  6
CONTINUOUS
 90
10
 70
0
 10
-14.0471322512
 20
-32.6106377956
 10
-14.0481572845
 20
-32.6111754968
 10
-14.0506299312
 20
-32.6117192969
 10
-14.0545321489
 20
-32.612269196
 10
-14.0598354477
 20
-32.6128292596
 10
-14.0665012172
 20
-32.6133954222
 10
-14.0744811124
 20
-32.6139554868
 10
-14.0837171927
 20
-32.6145053879
 10
-14.094142239
 20
-32.6150491911
 10
-14.105680434
 20
-32.6155868963
  0
LWPOLYLINE
  5
34F
100
AcDbEntity
  8
RACCORDO
100
AcDbPolyline
 62
250
  6
CONTINUOUS
 90
19
 70
0
 10
32.7544929613
 20
-32.6155622144
 10
32.7564032234
 20
-32.6512329088
 10
32.7553380673
 20
-32.6856606667
 10
32.7512691715
 20
-32.7187690171
 10
32.7440399054
 20
-32.7505604676
 10
32.7337618416
 20
-32.7808480745
 10
32.7208728005
 20
-32.8092755658
 10
32.7055233722
 20
-32.8356813512
 10
32.6876818887
 20
-32.8600561691
 10
32.6675824666
 20
-32.8822983828
 10
32.645362559
 20
-32.9023728512
 10
32.621039872
 20
-32.9201664689
 10
32.5946889673
 20
-32.9354805751
 10
32.5663291744
 20
-32.9483565794
 10
32.5361104071
 20
-32.9586338325
 10
32.5043250003
 20
-32.9658715929
 10
32.4711372775
 20
-32.9699512886
 10
32.4365652326
 20
-32.9710239607
 10
32.4006856717
 20
-32.9691118794
  0
LINE
  5
350
100
AcDbEntity
  8
RACCORDO
100
AcDbLine
 62
250
  6
CONTINUOUS
 10
32.1013064281
 20
-49.4868756822
 30
0.0
 11
32.0997759848
 21
-49.3225382357
 31
0.0
  0
LINE
  5
351
100
AcDbEntity
  8
RACCORDO
100
AcDbLine
 62
7
  6
CONTINUOUS
 10
31.3244186047
 20
-49.2839406329
 30
0.0
 11
31.3244186047
 21
-49.3059840393
 31
0.0
  0
LINE
  5
352
100
AcDbEntity
  8
RACCORDO
100
AcDbLine
 62
250
  6
CONTINUOUS
 10
31.3493004528
 20
-49.2839406331
 30
0.0
 11
31.3493004528
 21
-49.2832554005
 31
0.0
  0
LINE
  5
353
100
AcDbEntity
  8
RACCORDO
100
AcDbLine
 62
250
  6
CONTINUOUS
 10
31.6679877585
 20
-49.3467459883
 30
0.0
 11
31.6679877585
 21
-49.4966032215
 31
0.0
  0
LINE
  5
354
100
AcDbEntity
  8
RACCORDO
100
AcDbLine
 62
250
  6
CONTINUOUS
 10
31.6996464751
 20
-49.2780111787
 30
0.0
 11
31.6996464751
 21
-49.1807489424
 31
0.0
  0
LINE
  5
355
100
AcDbEntity
  8
RACCORDO
100
AcDbLine
 62
250
  6
CONTINUOUS
 10
32.1013064281
 20
-49.4872868218
 30
0.0
 11
32.1013064281
 21
-49.4868756822
 31
0.0
  0
LINE
  5
356
100
AcDbEntity
  8
RACCORDO
100
AcDbLine
 62
250
  6
CONTINUOUS
 10
32.1975307812
 20
-49.4872868218
 30
0.0
 11
32.1975307812
 21
-49.4868756822
 31
0.0
  0
LWPOLYLINE
  5
357
100
AcDbEntity
  8
RACCORDO
100
AcDbPolyline
 62
250
  6
CONTINUOUS
 90
19
 70
0
 10
32.4009395707
 20
21.9570331084
 10
32.4366102651
 20
21.9589433705
 10
32.471038023
 20
21.9578782144
 10
32.5041463734
 20
21.9538093186
 10
32.5359378239
 20
21.9465800525
 10
32.5662254308
 20
21.9363019887
 10
32.5946529221
 20
21.9234129475
 10
32.6210587075
 20
21.9080635192
 10
32.6454335254
 20
21.8902220358
 10
32.6676757392
 20
21.8701226136
 10
32.6877502075
 20
21.847902706
 10
32.7055438253
 20
21.823580019
 10
32.7208579314
 20
21.7972291144
 10
32.7337339357
 20
21.7688693214
 10
32.7440111888
 20
21.7386505541
 10
32.7512489492
 20
21.7068651473
 10
32.7553286449
 20
21.6736774245
 10
32.756401317
 20
21.6391053796
 10
32.7544892357
 20
21.6032258188
  0
LINE
  5
358
100
AcDbEntity
  8
RACCORDO
100
AcDbLine
 62
250
  6
CONTINUOUS
 10
-13.8410419427
 20
21.5924345296
 30
0.0
 11
-14.0410114818
 21
21.5924345296
 31
0.0
  0
LINE
  5
359
100
AcDbEntity
  8
RACCORDO
100
AcDbLine
 62
250
  6
CONTINUOUS
 10
32.489879152
 20
21.5924345296
 30
0.0
 11
32.6898486911
 21
21.5924345296
 31
0.0
  0
LINE
  5
35A
100
AcDbEntity
  8
RACCORDO
100
AcDbLine
 62
250
  6
CONTINUOUS
 10
32.3898943825
 20
21.6924192991
 30
0.0
 11
-13.7410571732
 21
21.6924192991
 31
0.0
  0
LINE
  5
35B
100
AcDbEntity
  8
RACCORDO
100
AcDbLine
 62
250
  6
CONTINUOUS
 10
33.2581766027
 20
21.7778233632
 30
0.0
 11
33.0582070637
 21
21.7778233632
 31
0.0
  0
LINE
  5
35C
100
AcDbEntity
  8
RACCORDO
100
AcDbLine
 62
250
  6
CONTINUOUS
 10
-14.6093393934
 20
21.7778233632
 30
0.0
 11
-14.4093698544
 21
21.7778233632
 31
0.0
  0
LINE
  5
35D
100
AcDbEntity
  8
RACCORDO
100
AcDbLine
 62
250
  6
CONTINUOUS
 10
32.3898943825
 20
21.8923888381
 30
0.0
 11
-13.7410571732
 21
21.8923888381
 31
0.0
  0
LINE
  5
35E
100
AcDbEntity
  8
RACCORDO
100
AcDbLine
 62
250
  6
CONTINUOUS
 10
-13.7471779426
 20
21.8985096075
 30
0.0
 11
32.3960151519
 21
21.8985096075
 31
0.0
  0
LINE
  5
35F
100
AcDbEntity
  8
RACCORDO
100
AcDbLine
 62
250
  6
CONTINUOUS
 10
-13.7518776903
 20
21.9570577903
 30
0.0
 11
32.4009642527
 21
21.9570577903
 31
0.0
  0
LINE
  5
360
100
AcDbEntity
  8
RACCORDO
100
AcDbLine
 62
7
  6
CONTINUOUS
 10
32.5494947571
 20
22.2689587517
 30
0.0
 11
-13.9006575478
 21
22.2689587517
 31
0.0
  0
LINE
  5
361
100
AcDbEntity
  8
RACCORDO
100
AcDbLine
 62
250
  6
CONTINUOUS
 10
-13.9094460068
 20
22.2777472107
 30
0.0
 11
32.5582832161
 21
22.2777472107
 31
0.0
  0
LINE
  5
362
100
AcDbEntity
  8
RACCORDO
100
AcDbLine
 62
250
  6
CONTINUOUS
 10
-13.9094460068
 20
22.4777167498
 30
0.0
 11
32.5582832161
 21
22.4777167498
 31
0.0
  0
LWPOLYLINE
  5
363
100
AcDbEntity
  8
RACCORDO
100
AcDbPolyline
 62
250
  6
CONTINUOUS
 90
19
 70
0
 10
32.3960154459
 20
21.8985099015
 10
32.42285244
 20
21.8972856063
 10
32.4493031484
 20
21.8936883369
 10
32.4751637419
 20
21.8877910287
 10
32.5002483774
 20
21.879675843
 10
32.5243689535
 20
21.8694531096
 10
32.5473399163
 20
21.8572687477
 10
32.5689556715
 20
21.8433053407
 10
32.589148519
 20
21.82767524
 10
32.607937883
 20
21.8104037003
 10
32.625184565
 20
21.7916299309
 10
32.6407744988
 20
21.7714825577
 10
32.6547082667
 20
21.7499146197
 10
32.6668751777
 20
21.7269884041
 10
32.677089791
 20
21.7029115265
 10
32.6852118965
 20
21.6778452059
 10
32.6911255933
 20
21.6519670866
 10
32.6947384412
 20
21.6254692341
 10
32.6959697545
 20
21.598555593
  0
LWPOLYLINE
  5
364
100
AcDbEntity
  8
RACCORDO
100
AcDbPolyline
 62
250
  6
CONTINUOUS
 90
16
 70
0
 10
32.489879152
 20
21.5924345296
 10
32.4892681999
 20
21.6030928694
 10
32.4876360809
 20
21.6133958031
 10
32.484982795
 20
21.6233433305
 10
32.4812592369
 20
21.6330259179
 10
32.4765145119
 20
21.6423530991
 10
32.4708959363
 20
21.6510534751
 10
32.4643813457
 20
21.6591146716
 10
32.4569929045
 20
21.6665490629
 10
32.4489444229
 20
21.6731223729
 10
32.4402081311
 20
21.6788154602
 10
32.4308117989
 20
21.6836474661
 10
32.4210525459
 20
21.6874415382
 10
32.4110294122
 20
21.6901387257
 10
32.4006433577
 20
21.6917979793
 10
32.3898943825
 20
21.6924192991
  0
LWPOLYLINE
  5
365
100
AcDbEntity
  8
RACCORDO
100
AcDbPolyline
 62
250
  6
CONTINUOUS
 90
16
 70
0
 10
32.6898486911
 20
21.5924345296
 10
32.6881912783
 20
21.6238647479
 10
32.683264455
 20
21.654880423
 10
32.6751437863
 20
21.6851450966
 10
32.6639503409
 20
21.7143085926
 10
32.6498198984
 20
21.7420899276
 10
32.6328749046
 20
21.7682672269
 10
32.6132895741
 20
21.7925608988
 10
32.5912761302
 20
21.814698674
 10
32.5670202932
 20
21.8344738487
 10
32.5407508365
 20
21.8516646712
 10
32.5127598262
 20
21.8660473194
 10
32.4833529348
 20
21.8774396195
 10
32.4528504561
 20
21.8856954526
 10
32.4215825898
 20
21.8907040811
 10
32.3898943825
 20
21.8923888381
  0
LINE
  5
366
100
AcDbEntity
  8
RACCORDO
100
AcDbLine
 62
250
  6
CONTINUOUS
 10
32.3898943825
 20
-32.7045017957
 30
0.0
 11
32.3898943825
 21
-32.9044713347
 31
0.0
  0
LINE
  5
367
100
AcDbEntity
  8
RACCORDO
100
AcDbLine
 62
250
  6
CONTINUOUS
 10
32.3898943825
 20
21.6924192991
 30
0.0
 11
32.3898943825
 21
21.8923888381
 31
0.0
  0
LINE
  5
368
100
AcDbEntity
  8
RACCORDO
100
AcDbLine
 62
250
  6
CONTINUOUS
 10
32.489879152
 20
-32.6045170262
 30
0.0
 11
32.489879152
 21
21.5924345296
 31
0.0
  0
LINE
  5
369
100
AcDbEntity
  8
RACCORDO
100
AcDbLine
 62
250
  6
CONTINUOUS
 10
32.5582832161
 20
22.4777167498
 30
0.0
 11
32.5582832161
 21
22.2777472107
 31
0.0
  0
LINE
  5
36A
100
AcDbEntity
  8
RACCORDO
100
AcDbLine
 62
250
  6
CONTINUOUS
 10
32.5582832161
 20
-33.4897992464
 30
0.0
 11
32.5582832161
 21
-33.2898297073
 31
0.0
  0
LINE
  5
36B
100
AcDbEntity
  8
RACCORDO
100
AcDbLine
 62
250
  6
CONTINUOUS
 10
32.6898486911
 20
-32.6045170262
 30
0.0
 11
32.6898486911
 21
21.5924345296
 31
0.0
  0
LINE
  5
36C
100
AcDbEntity
  8
RACCORDO
100
AcDbLine
 62
250
  6
CONTINUOUS
 10
32.6959694605
 20
21.598555299
 30
0.0
 11
32.6959694605
 21
-32.6106377956
 31
0.0
  0
LINE
  5
36D
100
AcDbEntity
  8
RACCORDO
100
AcDbLine
 62
250
  6
CONTINUOUS
 10
32.7545176433
 20
21.6032542045
 30
0.0
 11
32.7545176433
 21
-32.6155868963
 31
0.0
  0
LINE
  5
36E
100
AcDbEntity
  8
RACCORDO
100
AcDbLine
 62
7
  6
CONTINUOUS
 10
33.0494186047
 20
-32.7811174007
 30
0.0
 11
33.0494186047
 21
21.7690349041
 31
0.0
  0
LINE
  5
36F
100
AcDbEntity
  8
RACCORDO
100
AcDbLine
 62
250
  6
CONTINUOUS
 10
33.0582070637
 20
21.7778233632
 30
0.0
 11
33.0582070637
 21
-32.7899058598
 31
0.0
  0
LINE
  5
370
100
AcDbEntity
  8
RACCORDO
100
AcDbLine
 62
250
  6
CONTINUOUS
 10
33.2581766027
 20
21.7778233632
 30
0.0
 11
33.2581766027
 21
-32.7899058598
 31
0.0
  0
LINE
  5
371
100
AcDbEntity
  8
RACCORDO
100
AcDbLine
 62
250
  6
CONTINUOUS
 10
32.1975307812
 20
-49.4868756822
 30
0.0
 11
32.1992317693
 21
-49.3042253113
 31
0.0
  0
LWPOLYLINE
  5
372
100
AcDbEntity
  8
RACCORDO
100
AcDbPolyline
 62
250
  6
CONTINUOUS
 90
25
 70
0
 10
33.0582070625
 20
-32.7899058586
 10
33.0571564223
 20
-32.8223682388
 10
33.0540163132
 20
-32.8545740084
 10
33.0488230233
 20
-32.886390643
 10
33.0416328467
 20
-32.9176449799
 10
33.0324917886
 20
-32.9482595364
 10
33.0214067944
 20
-32.9782444762
 10
33.0083978954
 20
-33.0075212602
 10
32.9935310819
 20
-33.0359205768
 10
32.9768706712
 20
-33.0633139644
 10
32.9584768516
 20
-33.0895975979
 10
32.9384300958
 20
-33.1146521615
 10
32.9168450619
 20
-33.1383394374
 10
32.8938418347
 20
-33.1605440786
 10
32.8694973514
 20
-33.1812072241
 10
32.8438696896
 20
-33.200282689
 10
32.8172132867
 20
-33.2175984413
 10
32.7894954575
 20
-33.2331921767
 10
32.7602890929
 20
-33.2472359474
 10
32.7294675761
 20
-33.2596374779
 10
32.6973094902
 20
-33.270132749
 10
32.6639689931
 20
-33.2785475979
 10
32.6295907864
 20
-33.284728601
 10
32.5943072128
 20
-33.2885349971
 10
32.5582832146
 20
-33.2898297059
  0
LWPOLYLINE
  5
373
100
AcDbEntity
  8
RACCORDO
100
AcDbPolyline
 62
250
  6
CONTINUOUS
 90
25
 70
0
 10
33.2581766027
 20
-32.7899058598
 10
33.2565970083
 20
-32.8356470828
 10
33.2522128377
 20
-32.8806683653
 10
33.2450240909
 20
-32.9249697072
 10
33.2349834566
 20
-32.9686627582
 10
33.2221382461
 20
-33.0116358688
 10
33.2066303928
 20
-33.0535540894
 10
33.1884226575
 20
-33.09447478
 10
33.1675522795
 20
-33.1343405807
 10
33.1442729096
 20
-33.1726444627
 10
33.1185374057
 20
-33.20937495
 10
33.09039291
 20
-33.2445435186
 10
33.0602344997
 20
-33.277677568
 10
33.0280723013
 20
-33.3087184887
 10
32.9938961884
 20
-33.3377248901
 10
32.9580708591
 20
-33.3644000008
 10
32.920828529
 20
-33.3886786685
 10
32.8819369825
 20
-33.4106260455
 10
32.8410642717
 20
-33.4301408157
 10
32.7979248006
 20
-33.4474167189
 10
32.7528041651
 20
-33.4622600155
 10
32.706227205
 20
-33.47398817
 10
32.6583688667
 20
-33.4823736708
 10
32.6090542038
 20
-33.4876440296
 10
32.5582832161
 20
-33.4897992464
  0
LWPOLYLINE
  5
374
100
AcDbEntity
  8
RACCORDO
100
AcDbPolyline
 62
250
  6
CONTINUOUS
 90
19
 70
0
 10
32.6959697545
 20
-32.6106380896
 10
32.6947454593
 20
-32.6374750836
 10
32.6911481899
 20
-32.6639257921
 10
32.6852508817
 20
-32.6897863856
 10
32.6771356959
 20
-32.714871021
 10
32.6669129625
 20
-32.7389915972
 10
32.6547286006
 20
-32.76196256
 10
32.6407651937
 20
-32.7835783152
 10
32.6251350929
 20
-32.8037711627
 10
32.6078635533
 20
-32.8225605267
 10
32.5890897839
 20
-32.8398072087
 10
32.5689424107
 20
-32.8553971425
 10
32.5473744726
 20
-32.8693309103
 10
32.5244482571
 20
-32.8814978214
 10
32.5003713794
 20
-32.8917124347
 10
32.4753050589
 20
-32.8998345401
 10
32.4494269396
 20
-32.9057482369
 10
32.4229290871
 20
-32.9093610849
 10
32.3960154459
 20
-32.9105923981
  0
LWPOLYLINE
  5
375
100
AcDbEntity
  8
RACCORDO
100
AcDbPolyline
 62
250
  6
CONTINUOUS
 90
3
 70
0
 10
-13.1363004775
 20
-49.3742587595
 10
-13.1651710649
 20
-49.3961240146
 10
-13.195629448
 20
-49.4158906356
  0
LWPOLYLINE
  5
376
100
AcDbEntity
  8
RACCORDO
100
AcDbPolyline
 62
250
  6
CONTINUOUS
 90
16
 70
0
 10
-13.7410571732
 20
21.6924192991
 10
-13.7517155131
 20
21.6918083469
 10
-13.7620184467
 20
21.6901762279
 10
-13.7719659741
 20
21.6875229421
 10
-13.7816485616
 20
21.6837993839
 10
-13.7909757427
 20
21.6790546589
 10
-13.7996761187
 20
21.6734360834
 10
-13.8077373152
 20
21.6669214927
 10
-13.8151717066
 20
21.6595330515
 10
-13.8217450165
 20
21.65148457
 10
-13.8274381038
 20
21.6427482781
 10
-13.8322701098
 20
21.6333519459
 10
-13.8360641819
 20
21.623592693
 10
-13.8387613693
 20
21.6135695592
 10
-13.8404206229
 20
21.6031835047
 10
-13.8410419427
 20
21.5924345296
  0
LWPOLYLINE
  5
377
100
AcDbEntity
  8
RACCORDO
100
AcDbPolyline
 62
250
  6
CONTINUOUS
 90
16
 70
0
 10
-13.7410571732
 20
21.8923888381
 10
-13.7724873916
 20
21.8907314254
 10
-13.8035030667
 20
21.885804602
 10
-13.8337677402
 20
21.8776839333
 10
-13.8629312363
 20
21.8664904879
 10
-13.8907125712
 20
21.8523600455
 10
-13.9168898706
 20
21.8354150517
 10
-13.9411835424
 20
21.8158297211
 10
-13.9633213177
 20
21.7938162772
 10
-13.9830964924
 20
21.7695604403
 10
-14.0002873148
 20
21.7432909835
 10
-14.0146699631
 20
21.7152999732
 10
-14.0260622631
 20
21.6858930818
 10
-14.0343180963
 20
21.6553906031
 10
-14.0393267248
 20
21.6241227368
 10
-14.0410114818
 20
21.5924345296
  0
LWPOLYLINE
  5
378
100
AcDbEntity
  8
RACCORDO
100
AcDbPolyline
 62
250
  6
CONTINUOUS
 90
25
 70
0
 10
32.558283215
 20
22.2777472096
 10
32.5907455951
 20
22.2766965694
 10
32.6229513647
 20
22.2735564602
 10
32.6547679994
 20
22.2683631703
 10
32.6860223362
 20
22.2611729937
 10
32.7166368927
 20
22.2520319357
 10
32.7466218326
 20
22.2409469415
 10
32.7758986166
 20
22.2279380424
 10
32.8042979331
 20
22.2130712289
 10
32.8316913207
 20
22.1964108182
 10
32.8579749543
 20
22.1780169987
 10
32.8830295179
 20
22.1579702428
 10
32.9067167938
 20
22.136385209
 10
32.9289214349
 20
22.1133819818
 10
32.9495845804
 20
22.0890374984
 10
32.9686600454
 20
22.0634098367
 10
32.9859757977
 20
22.0367534338
 10
33.001569533
 20
22.0090356046
 10
33.0156133037
 20
21.9798292399
 10
33.0280148343
 20
21.9490077231
 10
33.0385101053
 20
21.9168496372
 10
33.0469249543
 20
21.8835091402
 10
33.0531059573
 20
21.8491309334
 10
33.0569123534
 20
21.8138473598
 10
33.0582070622
 20
21.7778233617
  0
LWPOLYLINE
  5
379
100
AcDbEntity
  8
RACCORDO
100
AcDbPolyline
 62
250
  6
CONTINUOUS
 90
25
 70
0
 10
32.5582832161
 20
22.4777167498
 10
32.6040244392
 20
22.4761371554
 10
32.6490457216
 20
22.4717529848
 10
32.6933470635
 20
22.4645642379
 10
32.7370401146
 20
22.4545236036
 10
32.7800132251
 20
22.4416783931
 10
32.8219314457
 20
22.4261705398
 10
32.8628521363
 20
22.4079628046
 10
32.902717937
 20
22.3870924266
 10
32.9410218191
 20
22.3638130567
 10
32.9777523063
 20
22.3380775528
 10
33.0129208749
 20
22.309933057
 10
33.0460549243
 20
22.2797746468
 10
33.077095845
 20
22.2476124484
 10
33.1061022465
 20
22.2134363354
 10
33.1327773571
 20
22.1776110062
 10
33.1570560249
 20
22.140368676
 10
33.1790034018
 20
22.1014771296
 10
33.198518172
 20
22.0606044187
 10
33.2157940753
 20
22.0174649476
 10
33.2306373718
 20
21.9723443122
 10
33.2423655264
 20
21.925767352
 10
33.2507510272
 20
21.8779090138
 10
33.2560213859
 20
21.8285943508
 10
33.2581766027
 20
21.7778233632
  0
LWPOLYLINE
  5
37A
100
AcDbEntity
  8
0
100
AcDbPolyline
 62
7
  6
CONTINUOUS
 90
10
 70
0
 43
0.3500000006
 10
10.2887040825
 20
53.2499978027
 10
10.3601329994
 20
53.1071445007
 10
10.3601329994
 20
53.0357133179
 10
10.2172762985
 20
52.892855484
 10
10.1458473816
 20
52.892855484
 10
10.0744184647
 20
52.9642866669
 10
10.0744184647
 20
53.0357133179
 10
10.1458473816
 20
53.1785711517
 10
10.2172762985
 20
53.2499978027
 10
10.2887040825
 20
53.2499978027
  0
LWPOLYLINE
  5
37B
100
AcDbEntity
  8
0
100
AcDbPolyline
 62
7
  6
CONTINUOUS
 90
48
 70
0
 10
13.7356346594
 20
-38.2881613117
 10
13.7466534394
 20
-38.2785585206
 10
13.7577765905
 20
-38.2685501001
 10
13.7690053192
 20
-38.2581618268
 10
13.780338419
 20
-38.2473679242
 10
13.7917210217
 20
-38.2360077143
 10
13.803163316
 20
-38.2240960341
 10
13.8146551132
 20
-38.2116180467
 10
13.8261109787
 20
-38.1983685635
 10
13.8375398374
 20
-38.184316688
 10
13.8489327645
 20
-38.1694933168
 10
13.8601775512
 20
-38.1537859503
 10
13.8712739758
 20
-38.1371914984
 10
13.8822222599
 20
-38.1197130512
 10
13.8929108599
 20
-38.1012473798
 10
13.9033628886
 20
-38.0817818169
 10
13.9135552331
 20
-38.0613290298
 10
13.923307011
 20
-38.039823791
 10
13.9326376565
 20
-38.0172586732
 10
13.9415277354
 20
-37.9936411038
 10
13.9497380624
 20
-37.9689281373
 10
13.9572727925
 20
-37.9431423956
 10
13.9641277707
 20
-37.9162612568
 10
13.9700513467
 20
-37.8881739099
 10
13.975060767
 20
-37.8588776988
 10
13.979138785
 20
-37.8283752795
 10
13.9819820106
 20
-37.7965638088
 10
13.9836345956
 20
-37.7634122087
 10
13.9840523882
 20
-37.7289515572
 10
13.9827995427
 20
-37.6931722453
 10
13.980014327
 20
-37.6559830208
 10
13.9755584731
 20
-37.617475136
 10
13.9685813319
 20
-37.5779127386
 10
13.9589963522
 20
-37.5369594123
 10
13.9468900851
 20
-37.4949515734
 10
13.9316715348
 20
-37.4531626185
 10
13.9129921309
 20
-37.4114882834
 10
13.8912004438
 20
-37.3700328322
 10
13.8667511882
 20
-37.3303824539
 10
13.8393812961
 20
-37.292721784
 10
13.8093538354
 20
-37.2568661868
 10
13.7779127247
 20
-37.2238479446
 10
13.7449407931
 20
-37.1938399851
 10
13.7105552115
 20
-37.1666693805
 10
13.6763514113
 20
-37.1428496291
 10
13.6428612032
 20
-37.122551897
 10
13.6095527765
 20
-37.1056050182
 10
13.5764261312
 20
-37.0920089925
  0
LINE
  5
37C
100
AcDbEntity
  8
RACCORDO
100
AcDbLine
 62
250
  6
CONTINUOUS
 10
31.3332312656
 20
-49.2839406331
 30
0.0
 11
31.3244186047
 21
-49.3059840393
 31
0.0
  0
LINE
  5
37D
100
AcDbEntity
  8
RACCORDO
100
AcDbLine
 62
7
  6
CONTINUOUS
 10
31.6679877585
 20
-49.4966032215
 30
0.0
 11
31.6217651145
 21
-49.6060412483
 31
0.0
  0
LWPOLYLINE
  5
37E
100
AcDbEntity
  8
RACCORDO
100
AcDbPolyline
 62
250
  6
CONTINUOUS
 90
6
 70
0
 10
-13.2620544192
 20
-49.4492115888
 10
-13.2977693941
 20
-49.4623509265
 10
-13.3348706914
 20
-49.4728551886
 10
-13.3731608385
 20
-49.4805484915
 10
-13.4124375679
 20
-49.4852713171
 10
-13.4524692188
 20
-49.4868756822
  0
LWPOLYLINE
  5
37F
100
AcDbEntity
  8
RACCORDO
100
AcDbPolyline
 62
250
  6
CONTINUOUS
 90
5
 70
0
 10
-13.3105115005
 20
-49.3020405607
 10
-13.3226530093
 20
-49.3058270644
 10
-13.3648783691
 20
-49.3150885795
 10
-13.4077471208
 20
-49.3206728862
 10
-13.4509387755
 20
-49.3225382357
  0
LWPOLYLINE
  5
380
100
AcDbEntity
  8
RACCORDO
100
AcDbPolyline
 62
250
  6
CONTINUOUS
 90
28
 70
0
 10
-33.8012757846
 20
37.5184197222
 10
-33.854474715
 20
37.5167022191
 10
-33.9067394927
 20
37.5121185934
 10
-33.9580701177
 20
37.5046688451
 10
-34.008469455
 20
37.4943203768
 10
-34.0579346396
 20
37.4811057859
 10
-34.1064570763
 20
37.4651228645
 10
-34.1542077705
 20
37.4463285469
 10
-34.2010157168
 20
37.4247658987
 10
-34.2463593036
 20
37.4006619085
 10
-34.2901976703
 20
37.3739997633
 10
-34.3325716775
 20
37.3447962762
 10
-34.3730822962
 20
37.3133288747
 10
-34.4117207079
 20
37.2795658956
 10
-34.4484957309
 20
37.2435390022
 10
-34.4830347914
 20
37.2056206117
 10
-34.5152532999
 20
37.1659393026
 10
-34.5452358457
 20
37.1243664964
 10
-34.5728636229
 20
37.0808888752
 10
-34.5982404402
 20
37.035383185
 10
-34.6212624889
 20
36.9879726798
 10
-34.641499536
 20
36.9390138037
 10
-34.6589390576
 20
36.8883959085
 10
-34.6735935776
 20
36.8362296424
 10
-34.6850704345
 20
36.7832033938
 10
-34.6932387413
 20
36.7295466254
 10
-34.6982293851
 20
36.6750298744
 10
-34.7000423659
 20
36.6196531409
  0
LWPOLYLINE
  5
381
100
AcDbEntity
  8
RACCORDO
100
AcDbPolyline
 62
250
  6
CONTINUOUS
 90
28
 70
0
 10
-33.8012757846
 20
38.1175974431
 10
-33.8893988014
 20
38.1149110431
 10
-33.9765149177
 20
38.1071354418
 10
-34.0623391987
 20
38.0944188558
 10
-34.1463444877
 20
38.0769853897
 10
-34.2285439366
 20
38.0549777984
 10
-34.3094525701
 20
38.0283106411
 10
-34.389084548
 20
37.996934906
 10
-34.466883088
 20
37.9610244116
 10
-34.5424855763
 20
37.9207383477
 10
-34.6156076626
 20
37.8762364513
 10
-34.6860551366
 20
37.8276457703
 10
-34.7536188303
 20
37.7751115568
 10
-34.8180952811
 20
37.718788252
 10
-34.8792552237
 20
37.6588725478
 10
-34.9368689021
 20
37.5955936985
 10
-34.9905911924
 20
37.5293749615
 10
-35.0404394489
 20
37.4602416901
 10
-35.0866471851
 20
37.3877710338
 10
-35.1290682895
 20
37.31192566
 10
-35.1673191516
 20
37.2330946594
 10
-35.2011737312
 20
37.1514459442
 10
-35.2304267185
 20
37.0670915479
 10
-35.2547941827
 20
36.98039973
 10
-35.273996331
 20
36.8919663427
 10
-35.2878719823
 20
36.8022039342
 10
-35.2963170954
 20
36.7113233624
 10
-35.2992200867
 20
36.6196531409
  0
LWPOLYLINE
  5
382
100
AcDbEntity
  8
0
100
AcDbPolyline
 62
7
  6
CONTINUOUS
 90
28
 70
0
 10
-34.277009063
 20
38.5939587517
 10
-34.3640990961
 20
38.59143145
 10
-34.4510299811
 20
38.5838383265
 10
-34.5375062814
 20
38.5711802903
 10
-34.6233650551
 20
38.5534443988
 10
-34.708172412
 20
38.5306821961
 10
-34.7912452335
 20
38.5030868756
 10
-34.872105411
 20
38.470887149
 10
-34.9507175752
 20
38.4341686167
 10
-35.0270772891
 20
38.3929569191
 10
-35.1009362407
 20
38.347383153
 10
-35.1720378679
 20
38.2976024664
 10
-35.2403326985
 20
38.2436199203
 10
-35.3057452337
 20
38.185409494
 10
-35.3678212269
 20
38.1232857977
 10
-35.4259913152
 20
38.057816701
 10
-35.4799586897
 20
37.9894286406
 10
-35.5297244735
 20
37.9182199018
 10
-35.5752318222
 20
37.8443244787
 10
-35.616309596
 20
37.7680632779
 10
-35.6528750569
 20
37.6896371451
 10
-35.6849481329
 20
37.6089682736
 10
-35.712448634
 20
37.5260702812
 10
-35.7351393746
 20
37.441437448
 10
-35.7528318483
 20
37.355719542
 10
-35.7654691441
 20
37.2693370815
 10
-35.7730549455
 20
37.1824612856
 10
-35.7755813953
 20
37.0953864193
  0
LWPOLYLINE
  5
383
100
AcDbEntity
  8
0
100
AcDbPolyline
 62
7
  6
CONTINUOUS
 90
28
 70
0
 10
-34.1060909513
 20
38.4224126097
 10
-34.17732836
 20
38.4207862441
 10
-34.2514321793
 20
38.4157345253
 10
-34.3281930838
 20
38.406854708
 10
-34.4078617931
 20
38.3936409672
 10
-34.489623613
 20
38.3757368058
 10
-34.5716594789
 20
38.3532140032
 10
-34.6534800895
 20
38.3260284329
 10
-34.7349328101
 20
38.2939984519
 10
-34.8147938348
 20
38.2574115779
 10
-34.8923498252
 20
38.2165900591
 10
-34.9677659997
 20
38.1714223774
 10
-35.0411489135
 20
38.1216400418
 10
-35.1124043939
 20
38.0670972372
 10
-35.1809164812
 20
38.0080385111
 10
-35.2459991421
 20
37.9447906465
 10
-35.3073148014
 20
37.8775785047
 10
-35.3646213961
 20
37.8065573662
 10
-35.4174656725
 20
37.7320562798
 10
-35.4656979143
 20
37.6541719193
 10
-35.5089883032
 20
37.5733337891
 10
-35.5467918876
 20
37.490479384
 10
-35.579021462
 20
37.4060195548
 10
-35.6056811095
 20
37.3202545245
 10
-35.626621594
 20
37.2340408882
 10
-35.6419172503
 20
37.1479080134
 10
-35.65175532
 20
37.0620272693
 10
-35.6562848421
 20
36.9767178963
  0
LINE
  5
384
100
AcDbEntity
  8
RACCORDO
100
AcDbLine
 62
250
  6
CONTINUOUS
 10
-34.1768103138
 20
38.435389798
 30
0.0
 11
-34.119543999
 21
38.4364936877
 31
0.0
  0
LINE
  5
385
100
AcDbEntity
  8
RACCORDO
100
AcDbLine
 62
250
  6
CONTINUOUS
 10
-34.7000423659
 20
36.6196531409
 30
0.0
 11
-35.2992200867
 21
36.6196531409
 31
0.0
  0
LINE
  5
386
100
AcDbEntity
  8
RACCORDO
100
AcDbLine
 62
250
  6
CONTINUOUS
 10
53.3488795752
 20
36.6196531409
 30
0.0
 11
53.948057296
 21
36.6196531409
 31
0.0
  0
LINE
  5
387
100
AcDbEntity
  8
RACCORDO
100
AcDbLine
 62
250
  6
CONTINUOUS
 10
52.4501129939
 20
37.5184197222
 30
0.0
 11
-33.8012757846
 21
37.5184197222
 31
0.0
  0
LINE
  5
388
100
AcDbEntity
  8
RACCORDO
100
AcDbLine
 62
250
  6
CONTINUOUS
 10
52.4501129939
 20
38.1175974431
 30
0.0
 11
-33.8012757846
 21
38.1175974431
 31
0.0
  0
LINE
  5
389
100
AcDbEntity
  8
0
100
AcDbLine
 62
7
  6
CONTINUOUS
 10
52.7549281606
 20
38.4224126097
 30
0.0
 11
-34.1060909513
 21
38.4224126097
 31
0.0
  0
LINE
  5
38A
100
AcDbEntity
  8
RACCORDO
100
AcDbLine
 62
250
  6
CONTINUOUS
 10
-34.119543999
 20
38.4364936877
 30
0.0
 11
52.7683812083
 21
38.4364936877
 31
0.0
  0
LINE
  5
38B
100
AcDbEntity
  8
0
100
AcDbLine
 62
7
  6
CONTINUOUS
 10
52.9258462723
 20
38.5939587517
 30
0.0
 11
-34.277009063
 21
38.5939587517
 31
0.0
  0
LINE
  5
38C
100
AcDbEntity
  8
RACCORDO
100
AcDbLine
 62
250
  6
CONTINUOUS
 10
52.7683812083
 20
38.4364936877
 30
0.0
 11
52.8182876917
 21
38.4356547719
 31
0.0
  0
LWPOLYLINE
  5
38D
100
AcDbEntity
  8
RACCORDO
100
AcDbPolyline
 62
250
  6
CONTINUOUS
 90
9
 70
0
 10
52.8182876917
 20
38.4356547719
 10
52.868937847
 20
38.4331027835
 10
52.9202698508
 20
38.4287595107
 10
52.9718170802
 20
38.4226030896
 10
53.0239101722
 20
38.4145306969
 10
53.077655171
 20
38.4042185894
 10
53.1333300979
 20
38.3913662227
 10
53.1904054704
 20
38.3758378192
 10
53.2487302228
 20
38.3574283874
  0
LWPOLYLINE
  5
38E
100
AcDbEntity
  8
RACCORDO
100
AcDbPolyline
 62
250
  6
CONTINUOUS
 90
28
 70
0
 10
53.3488795752
 20
36.6196531409
 10
53.3471620721
 20
36.6728520713
 10
53.3425784464
 20
36.725116849
 10
53.335128698
 20
36.776447474
 10
53.3247802298
 20
36.8268468114
 10
53.3115656389
 20
36.876311996
 10
53.2955827174
 20
36.9248344327
 10
53.2767883998
 20
36.9725851268
 10
53.2552257516
 20
37.0193930731
 10
53.2311217614
 20
37.0647366599
 10
53.2044596163
 20
37.1085750266
 10
53.1752561291
 20
37.1509490339
 10
53.1437887276
 20
37.1914596525
 10
53.1100257486
 20
37.2300980642
 10
53.0739988552
 20
37.2668730873
 10
53.0360804647
 20
37.3014121477
 10
52.9963991555
 20
37.3336306562
 10
52.9548263493
 20
37.3636132021
 10
52.9113487281
 20
37.3912409792
 10
52.8658430379
 20
37.4166177966
 10
52.8184325328
 20
37.4396398452
 10
52.7694736567
 20
37.4598768923
 10
52.7188557615
 20
37.4773164139
 10
52.6666894954
 20
37.4919709339
 10
52.6136632467
 20
37.5034477909
 10
52.5600064783
 20
37.5116160977
 10
52.5054897274
 20
37.5166067415
 10
52.4501129939
 20
37.5184197222
  0
LINE
  5
38F
100
AcDbEntity
  8
RACCORDO
100
AcDbLine
 62
250
  6
CONTINUOUS
 10
52.4501129939
 20
-48.5305022188
 30
0.0
 11
52.4501129939
 21
-49.1296799397
 31
0.0
  0
LINE
  5
390
100
AcDbEntity
  8
RACCORDO
100
AcDbLine
 62
250
  6
CONTINUOUS
 10
52.4501129939
 20
37.5184197222
 30
0.0
 11
52.4501129939
 21
38.1175974431
 31
0.0
  0
LINE
  5
391
100
AcDbEntity
  8
RACCORDO
100
AcDbLine
 62
250
  6
CONTINUOUS
 10
52.7683812083
 20
38.4364936877
 30
0.0
 11
52.7683812083
 21
38.4221040896
 31
0.0
  0
LINE
  5
392
100
AcDbEntity
  8
RACCORDO
100
AcDbLine
 62
250
  6
CONTINUOUS
 10
53.3488795752
 20
-47.6317356376
 30
0.0
 11
53.3488795752
 21
36.6196531409
 31
0.0
  0
LINE
  5
393
100
AcDbEntity
  8
RACCORDO
100
AcDbLine
 62
250
  6
CONTINUOUS
 10
53.948057296
 20
-47.6317356376
 30
0.0
 11
53.948057296
 21
36.6196531409
 31
0.0
  0
LINE
  5
394
100
AcDbEntity
  8
0
100
AcDbLine
 62
7
  6
CONTINUOUS
 10
54.3244186047
 20
-48.0080969462
 30
0.0
 11
54.3244186047
 21
35.1939587517
 31
0.0
  0
LINE
  5
395
100
AcDbEntity
  8
0
100
AcDbLine
 62
7
  6
CONTINUOUS
 10
54.4244186047
 20
-48.1074689159
 30
0.0
 11
54.4244186047
 21
37.0953864193
 31
0.0
  0
LWPOLYLINE
  5
396
100
AcDbEntity
  8
RACCORDO
100
AcDbPolyline
 62
250
  6
CONTINUOUS
 90
8
 70
0
 10
32.6581530532
 20
-49.1807489424
 10
32.6481054442
 20
-49.2037203778
 10
32.6312211409
 20
-49.2357779079
 10
32.6120464849
 20
-49.2665466505
 10
32.5907300794
 20
-49.2957961269
 10
32.5674805781
 20
-49.3232865348
 10
32.5423572923
 20
-49.348990058
 10
32.5152681784
 20
-49.372973438
  0
LWPOLYLINE
  5
397
100
AcDbEntity
  8
0
100
AcDbPolyline
 62
7
  6
CONTINUOUS
 90
28
 70
0
 10
54.3051220514
 20
36.9767178963
 10
54.3005985013
 20
37.0619572913
 10
54.2907725648
 20
37.1477845251
 10
54.2754924077
 20
37.2338807004
 10
54.2545658959
 20
37.3200820111
 10
54.2279168972
 20
37.4058509612
 10
54.19570064
 20
37.4903083814
 10
54.157917127
 20
37.5731487679
 10
54.1146526764
 20
37.6539681146
 10
54.0664555453
 20
37.731826223
 10
54.013659169
 20
37.806292397
 10
53.9564130165
 20
37.8772744423
 10
53.8951674003
 20
37.9444490596
 10
53.8301656868
 20
38.0076612482
 10
53.7617445796
 20
38.0666884732
 10
53.6905816028
 20
38.1212107924
 10
53.6172874896
 20
38.1709857361
 10
53.5419589213
 20
38.2161560008
 10
53.4644916278
 20
38.2569882036
 10
53.3847374417
 20
38.2935864429
 10
53.3033920509
 20
38.3256381573
 10
53.2216262553
 20
38.3528713954
 10
53.1395764454
 20
38.3754617315
 10
53.0577421599
 20
38.3934401251
 10
52.9779268525
 20
38.4067285694
 10
52.9009401275
 20
38.4156736726
 10
52.8265368958
 20
38.4207703993
 10
52.7549281606
 20
38.4224126097
  0
LWPOLYLINE
  5
398
100
AcDbEntity
  8
RACCORDO
100
AcDbPolyline
 62
250
  6
CONTINUOUS
 90
28
 70
0
 10
53.948057296
 20
36.6196531409
 10
53.9453708961
 20
36.7077761578
 10
53.9375952948
 20
36.7948922741
 10
53.9248787087
 20
36.880716555
 10
53.9074452426
 20
36.964721844
 10
53.8854376514
 20
37.046921293
 10
53.858770494
 20
37.1278299265
 10
53.8273947589
 20
37.2074619044
 10
53.7914842645
 20
37.2852604443
 10
53.7511982007
 20
37.3608629327
 10
53.7066963042
 20
37.4339850189
 10
53.6581056232
 20
37.5044324929
 10
53.6055714098
 20
37.5719961867
 10
53.549248105
 20
37.6364726374
 10
53.4893324007
 20
37.69763258
 10
53.4260535515
 20
37.7552462584
 10
53.3598348145
 20
37.8089685487
 10
53.290701543
 20
37.8588168053
 10
53.2182308867
 20
37.9050245414
 10
53.1423855129
 20
37.9474456458
 10
53.0635545123
 20
37.985696508
 10
52.9819057972
 20
38.0195510876
 10
52.8975514009
 20
38.0488040748
 10
52.810859583
 20
38.0731715391
 10
52.7224261957
 20
38.0923736874
 10
52.6326637871
 20
38.1062493387
 10
52.5417832154
 20
38.1146944517
 10
52.4501129939
 20
38.1175974431
  0
LWPOLYLINE
  5
399
100
AcDbEntity
  8
0
100
AcDbPolyline
 62
7
  6
CONTINUOUS
 90
28
 70
0
 10
54.4244186047
 20
37.0953864193
 10
54.4218882782
 20
37.1825283647
 10
54.4142875046
 20
37.2694987098
 10
54.4016193117
 20
37.3560017957
 10
54.3838738997
 20
37.4418703452
 10
54.3611044023
 20
37.5266752257
 10
54.3335015032
 20
37.6097464986
 10
54.3012908062
 20
37.6906127442
 10
54.2645598449
 20
37.7692313727
 10
54.2233384195
 20
37.8455902535
 10
54.1777619685
 20
37.9194367886
 10
54.1279840679
 20
37.9905203629
 10
54.0740050733
 20
38.0587991037
 10
54.0157965696
 20
38.1241997019
 10
53.9536747652
 20
38.1862653718
 10
53.8882076296
 20
38.2444263902
 10
53.8198202885
 20
38.2983867147
 10
53.7486118934
 20
38.3481463781
 10
53.6747203335
 20
38.3936460749
 10
53.5984715098
 20
38.4347128644
 10
53.5200619903
 20
38.4712675254
 10
53.4394035106
 20
38.5033344594
 10
53.3565005881
 20
38.5308348389
 10
53.27185528
 20
38.5535266848
 10
53.1861323083
 20
38.571217498
 10
53.0997576136
 20
38.5838510921
 10
53.0128975279
 20
38.5914336784
 10
52.9258462723
 20
38.5939587517
  0
LWPOLYLINE
  5
39A
100
AcDbEntity
  8
0
100
AcDbPolyline
 62
7
  6
CONTINUOUS
 90
13
 70
0
 43
0.3500000006
 10
66.9357133484
 20
-5.0774694672
 10
66.7214288635
 20
-5.3631840019
 10
66.0785708771
 20
-5.3631840019
 10
65.6500019073
 20
-5.0774694672
 10
65.6500019073
 20
-4.4346126137
 10
66.0785708771
 20
-4.1488980789
 10
66.7214288635
 20
-4.1488980789
 10
66.9357133484
 20
-4.4346126137
 10
67.36428685
 20
-4.006041378
 10
68.2214293213
 20
-4.006041378
 10
68.649998291
 20
-4.4346126137
 10
68.649998291
 20
-5.0774694672
 10
68.2214293213
 20
-5.5060407028
  0
LWPOLYLINE
  5
39B
100
AcDbEntity
  8
0
100
AcDbPolyline
 62
7
  6
CONTINUOUS
 90
13
 70
0
 43
0.3500000006
 10
66.9357133484
 20
-7.4346123962
 10
66.7214288635
 20
-7.720326931
 10
66.0785708771
 20
-7.720326931
 10
65.6500019073
 20
-7.4346123962
 10
65.6500019073
 20
-6.7917555428
 10
66.0785708771
 20
-6.506041008
 10
66.7214288635
 20
-6.506041008
 10
66.9357133484
 20
-6.7917555428
 10
67.36428685
 20
-6.3631843071
 10
68.2214293213
 20
-6.3631843071
 10
68.649998291
 20
-6.7917555428
 10
68.649998291
 20
-7.4346123962
 10
68.2214293213
 20
-7.8631836319
  0
LWPOLYLINE
  5
39C
100
AcDbEntity
  8
RACCORDO
100
AcDbPolyline
 62
250
  6
CONTINUOUS
 90
3
 70
0
 10
32.5152681784
 20
-49.372973438
 10
32.4863211539
 20
-49.3950726068
 10
32.4556381909
 20
-49.4151293665
  0
LWPOLYLINE
  5
39D
100
AcDbEntity
  8
0
100
AcDbPolyline
 62
7
  6
CONTINUOUS
 90
7
 70
0
 43
0.3500000006
 10
12.8601326294
 20
52.750002182
 10
11.3601333046
 20
52.750002182
 10
12.8601326294
 20
54.8928560944
 10
12.8601326294
 20
55.3214295959
 10
12.4315613937
 20
55.7499985657
 10
11.7887045403
 20
55.7499985657
 10
11.3601333046
 20
55.1071451111
  0
LINE
  5
39E
100
AcDbEntity
  8
RACCORDO
100
AcDbLine
 62
250
  6
CONTINUOUS
 10
32.4230874821
 20
-49.433127435
 30
0.0
 11
32.4219747607
 21
-49.4340520041
 31
0.0
  0
LWPOLYLINE
  5
39F
100
AcDbEntity
  8
RACCORDO
100
AcDbPolyline
 62
250
  6
CONTINUOUS
 90
6
 70
0
 10
32.3886597368
 20
-49.4489168845
 10
32.3526235256
 20
-49.4622229252
 10
32.3152714643
 20
-49.472820779
 10
32.276844239
 20
-49.4805477051
 10
32.2375189599
 20
-49.4852748421
 10
32.1975307812
 20
-49.4868756822
  0
LWPOLYLINE
  5
3A0
100
AcDbEntity
  8
RACCORDO
100
AcDbPolyline
 62
250
  6
CONTINUOUS
 90
5
 70
0
 10
53.2487254796
 20
38.3574299908
 10
53.2544125838
 20
38.3527464906
 10
53.256382804
 20
38.3474795401
 10
53.2573243131
 20
38.3412752405
 10
53.2573814027
 20
38.3409626451
  0
LWPOLYLINE
  5
3A1
100
AcDbEntity
  8
RACCORDO
100
AcDbPolyline
 62
250
  6
CONTINUOUS
 90
15
 70
0
 10
54.1126654152
 20
37.6571783556
 10
54.1081607636
 20
37.6656558481
 10
54.0601463117
 20
37.7438453204
 10
54.0075870216
 20
37.8186347005
 10
53.9507389379
 20
37.8898033324
 10
53.8902442319
 20
37.9568287434
 10
53.8264860507
 20
38.0195408489
 10
53.7597742625
 20
38.0778650542
 10
53.6907482374
 20
38.1315570289
 10
53.6198708937
 20
38.1805480467
 10
53.5474126406
 20
38.2249149966
 10
53.4737458266
 20
38.2647145285
 10
53.3992089634
 20
38.3000133528
 10
53.3241050365
 20
38.3308851398
 10
53.2487302228
 20
38.3574283874
  0
LWPOLYLINE
  5
3A2
100
AcDbEntity
  8
0
100
AcDbPolyline
 62
7
  6
CONTINUOUS
 90
5
 70
0
 43
0.3500000006
 10
-76.5137005005
 20
64.782947937
 10
-76.1565536499
 20
64.9972324219
 10
-76.1565536499
 20
65.6400949402
 10
-76.5137005005
 20
66.0686639099
 10
-77.3708384399
 20
66.0686639099
  0
LWPOLYLINE
  5
3A3
100
AcDbEntity
  8
0
100
AcDbPolyline
 62
7
  6
CONTINUOUS
 90
3
 70
0
 43
0.3500000006
 10
-97.3779867554
 20
55.316915863
 10
-96.5208397522
 20
56.1740538025
 10
-96.5208397522
 20
53.1740574188
  0
LINE
  5
3A4
100
AcDbEntity
  8
RACCORDO
100
AcDbLine
 62
7
  6
CONTINUOUS
 10
-91.670242036
 20
-49.4966032215
 30
0.0
 11
-89.1636991279
 21
-49.6060412483
 31
0.0
  0
LINE
  5
3A5
100
AcDbEntity
  8
RACCORDO
100
AcDbLine
 62
7
  6
CONTINUOUS
 10
-99.0951007017
 20
-49.1296799397
 30
0.0
 11
-91.9136991279
 21
-49.5060412483
 31
0.0
  0
LINE
  5
3A6
100
AcDbEntity
  8
RACCORDO
100
AcDbLine
 62
7
  6
CONTINUOUS
 10
-87.3602086466
 20
-48.8397378699
 30
0.0
 11
-88.7136991279
 21
-48.8633631341
 31
0.0
  0
LINE
  5
3A7
100
AcDbEntity
  8
0
100
AcDbLine
 62
250
  6
CONTINUOUS
 10
-89.1636991279
 20
-48.1074689159
 30
0.0
 11
-88.7136991279
 21
-48.1046122206
 31
0.0
  0
LINE
  5
3A8
100
AcDbEntity
  8
RACCORDO
100
AcDbLine
 62
250
  6
CONTINUOUS
 10
-87.1636991279
 20
-48.1046122206
 30
0.0
 11
-88.7136991279
 21
-48.1046122206
 31
0.0
  0
LINE
  5
3A9
100
AcDbEntity
  8
RACCORDO
100
AcDbLine
 62
250
  6
CONTINUOUS
 10
-91.8136991279
 20
-47.9980308891
 30
0.0
 11
-91.670242036
 21
-47.9980308891
 31
0.0
  0
LINE
  5
3AA
100
AcDbEntity
  8
RACCORDO
100
AcDbLine
 62
250
  6
CONTINUOUS
 10
-99.6636991279
 20
-47.6317356376
 30
0.0
 11
-99.0951007017
 21
-47.6317356376
 31
0.0
  0
LINE
  5
3AB
100
AcDbEntity
  8
0
100
AcDbLine
 62
7
  6
CONTINUOUS
 10
-85.1636991279
 20
-47.2859431666
 30
0.0
 11
-87.1636991279
 21
-47.2859431666
 31
0.0
  0
LINE
  5
3AC
100
AcDbEntity
  8
0
100
AcDbLine
 62
250
  6
CONTINUOUS
 10
-85.1636991279
 20
-47.0045242715
 30
0.0
 11
-87.1636991279
 21
-47.0045242715
 31
0.0
  0
LINE
  5
3AD
100
AcDbEntity
  8
RACCORDO
100
AcDbLine
 62
250
  6
CONTINUOUS
 10
-91.8136991279
 20
-46.2444957595
 30
0.0
 11
-91.9136991279
 21
-46.2444957595
 31
0.0
  0
LINE
  5
3AE
100
AcDbEntity
  8
RACCORDO
100
AcDbLine
 62
250
  6
CONTINUOUS
 10
-91.670242036
 20
-47.9980308891
 30
0.0
 11
-89.1636991279
 21
-48.1074689159
 31
0.0
  0
LINE
  5
3AF
100
AcDbEntity
  8
RACCORDO
100
AcDbLine
 62
250
  6
CONTINUOUS
 10
-99.0951007017
 20
-47.6317356376
 30
0.0
 11
-91.9136991279
 21
-48.0080969462
 31
0.0
  0
LWPOLYLINE
  5
3B0
100
AcDbEntity
  8
RACCORDO
100
AcDbPolyline
 62
250
  6
CONTINUOUS
 90
10
 70
0
 10
-99.0951007017
 20
-49.1296799397
 10
-99.0968798986
 20
-49.1269935397
 10
-99.0985389181
 20
-49.1192179384
 10
-99.1000705951
 20
-49.1065013524
 10
-99.10146069
 20
-49.0890678863
 10
-99.1027157309
 20
-49.067060295
 10
-99.103853303
 20
-49.0403931377
 10
-99.1048647407
 20
-49.0090174026
 10
-99.1057368129
 20
-48.9731069082
 10
-99.1064744471
 20
-48.9328208443
  0
LINE
  5
3B1
100
AcDbEntity
  8
RACCORDO
100
AcDbLine
 62
250
  6
CONTINUOUS
 10
-92.113284227
 20
36.931409901
 30
0.0
 11
-92.0859220709
 21
36.9430094791
 31
0.0
  0
LINE
  5
3B2
100
AcDbEntity
  8
RACCORDO
100
AcDbLine
 62
250
  6
CONTINUOUS
 10
-92.0859220709
 20
36.9430094791
 30
0.0
 11
-92.0538084252
 21
36.956401808
 31
0.0
  0
LINE
  5
3B3
100
AcDbEntity
  8
RACCORDO
100
AcDbLine
 62
250
  6
CONTINUOUS
 10
-92.0538084252
 20
36.956401808
 30
0.0
 11
-92.0190212044
 21
36.9707203408
 31
0.0
  0
LINE
  5
3B4
100
AcDbEntity
  8
0
100
AcDbLine
 62
250
  6
CONTINUOUS
 10
-85.1636991279
 20
-39.9247426354
 30
0.0
 11
-87.1636991279
 21
-39.9247426354
 31
0.0
  0
LWPOLYLINE
  5
3B5
100
AcDbEntity
  8
RACCORDO
100
AcDbPolyline
 62
250
  6
CONTINUOUS
 90
7
 70
0
 10
-92.15135326
 20
36.914012851
 10
-92.1503431598
 20
36.9147654002
 10
-92.1470938561
 20
36.9164267641
 10
-92.1416581547
 20
36.9189699491
 10
-92.1341243733
 20
36.9223536399
 10
-92.1246149046
 20
36.9265228673
 10
-92.113284227
 20
36.931409901
  0
LINE
  5
3B6
100
AcDbEntity
  8
RACCORDO
100
AcDbLine
 62
7
  6
CONTINUOUS
 10
-91.9136991279
 20
-47.1016386167
 30
0.0
 11
-91.8679295518
 21
-47.1670237255
 31
0.0
  0
LWPOLYLINE
  5
3B7
100
AcDbEntity
  8
RACCORDO
100
AcDbPolyline
 62
250
  6
CONTINUOUS
 90
8
 70
0
 10
-92.8659551198
 20
38.3088248317
 10
-92.8778608293
 20
38.2952520558
 10
-92.8876806546
 20
38.280232226
 10
-92.8958558263
 20
38.2642855979
 10
-92.9022481998
 20
38.247762456
 10
-92.9064437109
 20
38.2306979979
 10
-92.9086268332
 20
38.2134315995
 10
-92.9087485181
 20
38.196223734
  0
LWPOLYLINE
  5
3B8
100
AcDbEntity
  8
0
100
AcDbPolyline
 62
7
  6
CONTINUOUS
 90
3
 70
0
 43
0.3500000006
 10
-92.5922697144
 20
53.4597730865
 10
-92.6637008972
 20
53.2454840698
 10
-92.8065541992
 20
52.959772934
  0
LWPOLYLINE
  5
3B9
100
AcDbEntity
  8
RACCORDO
100
AcDbPolyline
 62
250
  6
CONTINUOUS
 90
8
 70
0
 10
-71.5552172669
 20
-28.3459464681
 10
-71.5629338356
 20
-28.3481170721
 10
-71.5726760933
 20
-28.3484455038
 10
-71.5831563807
 20
-28.346421554
 10
-71.594243137
 20
-28.3420706296
 10
-71.6057971877
 20
-28.3354473488
 10
-71.6176734926
 20
-28.3266348548
 10
-71.6297229661
 20
-28.3157437726
  0
LINE
  5
3BA
100
AcDbEntity
  8
RACCORDO
100
AcDbLine
 62
250
  6
CONTINUOUS
 10
-85.1636991279
 20
-31.2402746991
 30
0.0
 11
-77.7415887323
 21
-31.1081548849
 31
0.0
  0
LINE
  5
3BB
100
AcDbEntity
  8
RACCORDO
100
AcDbLine
 62
7
  6
CONTINUOUS
 10
-85.1636991279
 20
-31.3711311185
 30
0.0
 11
-77.7602086466
 21
-31.2419027114
 31
0.0
  0
LWPOLYLINE
  5
3BC
100
AcDbEntity
  8
RACCORDO
100
AcDbPolyline
 62
250
  6
CONTINUOUS
 90
17
 70
0
 10
-91.8339325001
 20
33.8762130791
 10
-91.8327339592
 20
33.8790155965
 10
-91.8317193396
 20
33.8807699494
 10
-91.8308947406
 20
33.8814810288
 10
-91.8302706425
 20
33.8811561767
 10
-91.8298512975
 20
33.8797981222
 10
-91.8296233979
 20
33.8774012849
 10
-91.8295607087
 20
33.8740163596
 10
-91.8296811878
 20
33.869594909
 10
-91.8300211328
 20
33.8639776069
 10
-91.8305790475
 20
33.8570856045
 10
-91.8313318505
 20
33.8489966517
 10
-91.8322881053
 20
33.8397876272
 10
-91.8334746429
 20
33.8294047964
 10
-91.8348675983
 20
33.8179085759
 10
-91.8364198705
 20
33.8055516932
 10
-91.838135161
 20
33.79242751
  0
LWPOLYLINE
  5
3BD
100
AcDbEntity
  8
RACCORDO
100
AcDbPolyline
 62
250
  6
CONTINUOUS
 90
6
 70
0
 10
-92.770242036
 20
38.4364936877
 10
-92.7704460161
 20
38.4356547719
 10
-92.7706571028
 20
38.4331027835
 10
-92.7708691822
 20
38.4287595107
 10
-92.7710649532
 20
38.4226030896
 10
-92.7714474052
 20
38.4042185894
  0
LINE
  5
3BE
100
AcDbEntity
  8
RACCORDO
100
AcDbLine
 62
7
  6
CONTINUOUS
 10
-91.9136991279
 20
33.670170775
 30
0.0
 11
-91.8339325001
 21
33.8762130791
 31
0.0
  0
LINE
  5
3BF
100
AcDbEntity
  8
RACCORDO
100
AcDbLine
 62
250
  6
CONTINUOUS
 10
-91.8679295518
 20
33.5922719079
 30
0.0
 11
-91.9136991279
 21
33.4740461637
 31
0.0
  0
LINE
  5
3C0
100
AcDbEntity
  8
RACCORDO
100
AcDbLine
 62
250
  6
CONTINUOUS
 10
-69.8619538208
 20
-22.1742515132
 30
0.0
 11
-85.1636991279
 21
-22.244314823
 31
0.0
  0
LINE
  5
3C1
100
AcDbEntity
  8
RACCORDO
100
AcDbLine
 62
250
  6
CONTINUOUS
 10
-69.8619538208
 20
-22.0929434205
 30
0.0
 11
-85.1636991279
 21
-22.1633488832
 31
0.0
  0
LINE
  5
3C2
100
AcDbEntity
  8
RACCORDO
100
AcDbLine
 62
250
  6
CONTINUOUS
 10
-99.0951007017
 20
36.6196531409
 30
0.0
 11
-99.10146069
 21
36.964721844
 31
0.0
  0
LINE
  5
3C3
100
AcDbEntity
  8
RACCORDO
100
AcDbLine
 62
250
  6
CONTINUOUS
 10
-99.10146069
 20
36.964721844
 30
0.0
 11
-99.1057368129
 21
37.2852604443
 31
0.0
  0
LINE
  5
3C4
100
AcDbEntity
  8
RACCORDO
100
AcDbLine
 62
250
  6
CONTINUOUS
 10
-99.1064744471
 20
-48.9328208443
 30
0.0
 11
-99.1075294626
 21
-48.8397282669
 31
0.0
  0
LINE
  5
3C5
100
AcDbEntity
  8
RACCORDO
100
AcDbLine
 62
250
  6
CONTINUOUS
 10
-99.1057368129
 20
37.2852604443
 30
0.0
 11
-99.1075294626
 21
37.5044324929
 31
0.0
  0
LINE
  5
3C6
100
AcDbEntity
  8
RACCORDO
100
AcDbLine
 62
250
  6
CONTINUOUS
 10
-99.1075294626
 20
-48.8397282669
 30
0.0
 11
-99.1080150023
 21
-48.7308707486
 31
0.0
  0
LINE
  5
3C7
100
AcDbEntity
  8
RACCORDO
100
AcDbLine
 62
250
  6
CONTINUOUS
 10
-99.1075294626
 20
37.5044324929
 30
0.0
 11
-99.1080410023
 21
37.69763258
 31
0.0
  0
LINE
  5
3C8
100
AcDbEntity
  8
RACCORDO
100
AcDbLine
 62
7
  6
CONTINUOUS
 10
-99.6636991279
 20
-48.5305022188
 30
0.0
 11
-99.6636991279
 21
37.5184197222
 31
0.0
  0
LINE
  5
3C9
100
AcDbEntity
  8
RACCORDO
100
AcDbLine
 62
250
  6
CONTINUOUS
 10
-99.0951007017
 20
-47.6317356376
 30
0.0
 11
-99.0951007017
 21
36.6196531409
 31
0.0
  0
LINE
  5
3CA
100
AcDbEntity
  8
RACCORDO
100
AcDbLine
 62
250
  6
CONTINUOUS
 10
-99.1080150023
 20
-48.7308707486
 30
0.0
 11
-99.1079211988
 21
-48.6076761951
 31
0.0
  0
LINE
  5
3CB
100
AcDbEntity
  8
RACCORDO
100
AcDbLine
 62
250
  6
CONTINUOUS
 10
-99.1080410023
 20
37.69763258
 30
0.0
 11
-99.1076573667
 21
37.8089685487
 31
0.0
  0
LINE
  5
3CC
100
AcDbEntity
  8
RACCORDO
100
AcDbLine
 62
250
  6
CONTINUOUS
 10
-99.1079211988
 20
-48.6076761951
 30
0.0
 11
-99.1067083352
 21
-48.3998535304
 31
0.0
  0
LWPOLYLINE
  5
3CD
100
AcDbEntity
  8
RACCORDO
100
AcDbPolyline
 62
250
  6
CONTINUOUS
 90
11
 70
0
 10
-99.1076573667
 20
37.8089685487
 10
-99.1067083352
 20
37.9050245414
 10
-99.1060116477
 20
37.9474456458
 10
-99.1051632072
 20
37.985696508
 10
-99.1041636906
 20
38.0195510876
 10
-99.1030145327
 20
38.0488040748
 10
-99.1017138296
 20
38.0731715391
 10
-99.1002628992
 20
38.0923736874
 10
-99.0986698329
 20
38.1062493387
 10
-99.0969453107
 20
38.1146944517
 10
-99.0951007017
 20
38.1175974431
  0
LINE
  5
3CE
100
AcDbEntity
  8
RACCORDO
100
AcDbLine
 62
250
  6
CONTINUOUS
 10
-99.1067083352
 20
-48.3998535304
 30
0.0
 11
-99.1041636906
 21
-48.1635284408
 31
0.0
  0
LINE
  5
3CF
100
AcDbEntity
  8
RACCORDO
100
AcDbLine
 62
250
  6
CONTINUOUS
 10
-99.1041636906
 20
-48.1635284408
 30
0.0
 11
-99.0986698329
 21
-47.8142864308
 31
0.0
  0
LINE
  5
3D0
100
AcDbEntity
  8
RACCORDO
100
AcDbLine
 62
250
  6
CONTINUOUS
 10
-99.0986698329
 20
-47.8142864308
 30
0.0
 11
-99.0951007017
 21
-47.6317356376
 31
0.0
  0
LWPOLYLINE
  5
3D1
100
AcDbEntity
  8
0
100
AcDbPolyline
 62
7
  6
CONTINUOUS
 90
3
 70
0
 43
0.3500000006
 10
-78.3708387451
 20
63.3543786621
 10
-78.442269928
 20
63.1400941772
 10
-78.58512323
 20
62.8543785095
  0
LWPOLYLINE
  5
3D2
100
AcDbEntity
  8
RACCORDO
100
AcDbPolyline
 62
250
  6
CONTINUOUS
 90
5
 70
0
 10
-91.670242036
 20
-49.4966032215
 10
-91.6705200858
 20
-49.4947912118
 10
-91.6708295623
 20
-49.489189244
 10
-91.6711489962
 20
-49.4795175019
 10
-91.6714318376
 20
-49.4655271437
  0
LWPOLYLINE
  5
3D3
100
AcDbEntity
  8
RACCORDO
100
AcDbPolyline
 62
250
  6
CONTINUOUS
 90
13
 70
0
 10
-92.9136991279
 20
38.2155477376
 10
-92.9125213784
 20
38.2336421184
 10
-92.908973721
 20
38.2512154246
 10
-92.9030612089
 20
38.2681095002
 10
-92.8949524236
 20
38.2845018123
 10
-92.8848202647
 20
38.2998126169
 10
-92.8726563237
 20
38.3132147373
 10
-92.8574384907
 20
38.3258469154
 10
-92.8410340813
 20
38.3369407933
 10
-92.8267970695
 20
38.3444657714
 10
-92.8132208938
 20
38.3493077944
 10
-92.7959546105
 20
38.3534910514
 10
-92.7719880741
 20
38.3574299908
  0
LINE
  5
3D4
100
AcDbEntity
  8
RACCORDO
100
AcDbLine
 62
250
  6
CONTINUOUS
 10
-91.838135161
 20
33.79242751
 30
0.0
 11
-91.842094145
 21
33.7636147907
 31
0.0
  0
LINE
  5
3D5
100
AcDbEntity
  8
RACCORDO
100
AcDbLine
 62
250
  6
CONTINUOUS
 10
-91.842094145
 20
33.7636147907
 30
0.0
 11
-91.8467096695
 21
33.7313671322
 31
0.0
  0
LINE
  5
3D6
100
AcDbEntity
  8
RACCORDO
100
AcDbLine
 62
250
  6
CONTINUOUS
 10
-91.8467096695
 20
33.7313671322
 30
0.0
 11
-91.8549027517
 21
33.6763745824
 31
0.0
  0
LINE
  5
3D7
100
AcDbEntity
  8
RACCORDO
100
AcDbLine
 62
250
  6
CONTINUOUS
 10
-91.8549027517
 20
33.6763745824
 30
0.0
 11
-91.8644482415
 21
33.6143854401
 31
0.0
  0
LINE
  5
3D8
100
AcDbEntity
  8
RACCORDO
100
AcDbLine
 62
250
  6
CONTINUOUS
 10
-91.8644482415
 20
33.6143854401
 30
0.0
 11
-91.8679295518
 21
33.5922719079
 31
0.0
  0
LWPOLYLINE
  5
3D9
100
AcDbEntity
  8
RACCORDO
100
AcDbPolyline
 62
250
  6
CONTINUOUS
 90
10
 70
0
 10
-91.670242036
 20
35.1939587517
 10
-91.6741380298
 20
35.3899250015
 10
-91.6864459408
 20
35.5859181219
 10
-91.707165769
 20
35.781938113
 10
-91.7358943025
 20
35.9775369008
 10
-91.7730347533
 20
36.1731625593
 10
-91.8197967567
 20
36.3701593105
 10
-91.8765835247
 20
36.5689752285
 10
-91.9429918454
 20
36.7691622392
 10
-92.0190217188
 20
36.9707203427
  0
LINE
  5
3DA
100
AcDbEntity
  8
RACCORDO
100
AcDbLine
 62
250
  6
CONTINUOUS
 10
-91.6714318376
 20
-49.4655271437
 30
0.0
 11
-91.671936753
 21
-49.4233854774
 31
0.0
  0
LINE
  5
3DB
100
AcDbEntity
  8
RACCORDO
100
AcDbLine
 62
250
  6
CONTINUOUS
 10
-91.671936753
 20
-49.4233854774
 30
0.0
 11
-91.6725454209
 21
-49.3198698982
 31
0.0
  0
LINE
  5
3DC
100
AcDbEntity
  8
RACCORDO
100
AcDbLine
 62
7
  6
CONTINUOUS
 10
-92.9136991279
 20
38.2866364544
 30
0.0
 11
-92.9136991279
 21
38.2155477376
 31
0.0
  0
LINE
  5
3DD
100
AcDbEntity
  8
0
100
AcDbLine
 62
7
  6
CONTINUOUS
 10
-91.9136991279
 20
-49.5060412483
 30
0.0
 11
-91.9136991279
 21
35.1939587517
 31
0.0
  0
LINE
  5
3DE
100
AcDbEntity
  8
RACCORDO
100
AcDbLine
 62
250
  6
CONTINUOUS
 10
-91.8679295518
 20
-47.1670237255
 30
0.0
 11
-91.8679295518
 21
33.5922719079
 31
0.0
  0
LINE
  5
3DF
100
AcDbEntity
  8
RACCORDO
100
AcDbLine
 62
7
  6
CONTINUOUS
 10
-91.8136991279
 20
-49.3467459883
 30
0.0
 11
-91.8136991279
 21
35.1939587517
 31
0.0
  0
LINE
  5
3E0
100
AcDbEntity
  8
RACCORDO
100
AcDbLine
 62
250
  6
CONTINUOUS
 10
-91.6725454209
 20
-49.3198698982
 30
0.0
 11
-91.6729183146
 21
-48.9767547331
 31
0.0
  0
LINE
  5
3E1
100
AcDbEntity
  8
RACCORDO
100
AcDbLine
 62
250
  6
CONTINUOUS
 10
-91.6729183146
 20
-48.9767547331
 30
0.0
 11
-91.6710307789
 21
-48.1894098978
 31
0.0
  0
LINE
  5
3E2
100
AcDbEntity
  8
RACCORDO
100
AcDbLine
 62
250
  6
CONTINUOUS
 10
-91.6710307789
 20
-48.1894098978
 30
0.0
 11
-91.670242036
 21
35.1939587517
 31
0.0
  0
LWPOLYLINE
  5
3E3
100
AcDbEntity
  8
RACCORDO
100
AcDbPolyline
 62
250
  6
CONTINUOUS
 90
3
 70
0
 10
-92.7714474052
 20
38.4042185894
 10
-92.7716511517
 20
38.3913662227
 10
-92.7719880726
 20
38.3574283874
  0
LWPOLYLINE
  5
3E4
100
AcDbEntity
  8
RACCORDO
100
AcDbPolyline
 62
7
  6
CONTINUOUS
 90
5
 70
0
 10
-69.6809543774
 20
-11.4783137052
 10
-69.6733770175
 20
-11.4782058678
 10
-69.6680504974
 20
-11.4780756113
 10
-69.6648245341
 20
-11.4779218462
 10
-69.6636991279
 20
-11.4777445725
  0
LINE
  5
3E5
100
AcDbEntity
  8
RACCORDO
100
AcDbLine
 62
7
  6
CONTINUOUS
 10
-69.7019599198
 20
-11.4784555855
 30
0.0
 11
-69.6809543774
 21
-11.4783137052
 31
0.0
  0
LINE
  5
3E6
100
AcDbEntity
  8
DRAFT
100
AcDbLine
 62
7
  6
CONTINUOUS
 10
-78.1715957235
 20
-11.4060412483
 30
0.0
 11
-77.1536991279
 21
-11.4060412483
 31
0.0
  0
LINE
  5
3E7
100
AcDbEntity
  8
DRAFT
100
AcDbLine
 62
7
  6
CONTINUOUS
 10
-74.5736991279
 20
-11.4060412483
 30
0.0
 11
-72.7141710718
 21
-11.4060412483
 31
0.0
  0
LINE
  5
3E8
100
AcDbEntity
  8
0
100
AcDbLine
 62
7
  6
CONTINUOUS
 10
-66.8636991279
 20
-11.2560412483
 30
0.0
 11
-75.1636991279
 21
-11.2560412483
 31
0.0
  0
LINE
  5
3E9
100
AcDbEntity
  8
0
100
AcDbLine
 62
250
  6
CONTINUOUS
 10
-65.8636991279
 20
-10.2560412483
 30
0.0
 11
-66.8636991279
 21
-10.2560412483
 31
0.0
  0
LINE
  5
3EA
100
AcDbEntity
  8
0
100
AcDbLine
 62
7
  6
CONTINUOUS
 10
-66.8636991279
 20
-10.2560412483
 30
0.0
 11
-75.1636991279
 21
-10.2560412483
 31
0.0
  0
LINE
  5
3EB
100
AcDbEntity
  8
RACCORDO
100
AcDbLine
 62
7
  6
CONTINUOUS
 10
-69.7453901994
 20
-11.4784643079
 30
0.0
 11
-69.7019599198
 21
-11.4784555855
 31
0.0
  0
LINE
  5
3EC
100
AcDbEntity
  8
RACCORDO
100
AcDbLine
 62
7
  6
CONTINUOUS
 10
-69.8411724126
 20
-11.477962592
 30
0.0
 11
-69.7453901994
 21
-11.4784643079
 31
0.0
  0
LINE
  5
3ED
100
AcDbEntity
  8
RACCORDO
100
AcDbLine
 62
7
  6
CONTINUOUS
 10
-78.1715957235
 20
-11.4060412483
 30
0.0
 11
-69.8411724126
 21
-11.477962592
 31
0.0
  0
LINE
  5
3EE
100
AcDbEntity
  8
DRAFT
100
AcDbLine
 62
7
  6
CONTINUOUS
 10
-69.6636991279
 20
-11.4485162323
 30
0.0
 11
-71.2451554629
 21
-11.4348355128
 31
0.0
  0
LINE
  5
3EF
100
AcDbEntity
  8
DRAFT
100
AcDbLine
 62
7
  6
CONTINUOUS
 10
-71.4942907085
 20
-11.4326803162
 30
0.0
 11
-74.5736991279
 21
-11.4060412483
 31
0.0
  0
LINE
  5
3F0
100
AcDbEntity
  8
RACCORDO
100
AcDbLine
 62
7
  6
CONTINUOUS
 10
-75.1636991279
 20
-11.1857125988
 30
0.0
 11
-76.3569094472
 21
-11.1752996101
 31
0.0
  0
LINE
  5
3F1
100
AcDbEntity
  8
RACCORDO
100
AcDbLine
 62
250
  6
CONTINUOUS
 10
-76.559498984
 20
-10.9735544833
 30
0.0
 11
-75.1636991279
 21
-10.9857354441
 31
0.0
  0
LINE
  5
3F2
100
AcDbEntity
  8
DRAFT
100
AcDbLine
 62
7
  6
CONTINUOUS
 10
-69.6636991279
 20
-11.4719759131
 30
0.0
 11
-77.1536991279
 21
-11.4060412483
 31
0.0
  0
LINE
  5
3F3
100
AcDbEntity
  8
DRAFT
100
AcDbLine
 62
7
  6
CONTINUOUS
 10
-69.6636991279
 20
-11.4331269861
 30
0.0
 11
-71.1612707242
 21
-11.4198297546
 31
0.0
  0
LINE
  5
3F4
100
AcDbEntity
  8
DRAFT
100
AcDbLine
 62
7
  6
CONTINUOUS
 10
-71.5872726545
 20
-11.4160472
 30
0.0
 11
-72.7141710718
 21
-11.4060412483
 31
0.0
  0
LWPOLYLINE
  5
3F5
100
AcDbEntity
  8
RACCORDO
100
AcDbPolyline
 62
7
  6
CONTINUOUS
 90
19
 70
0
 10
-76.3569094472
 20
-11.1752996101
 10
-76.3738940321
 20
-11.1742833671
 10
-76.3902945967
 20
-11.1720617168
 10
-76.406111141
 20
-11.1686346593
 10
-76.4214154173
 20
-11.1639027468
 10
-76.4361356734
 20
-11.1579654271
 10
-76.4500566521
 20
-11.1511210428
 10
-76.4630927121
 20
-11.1434322046
 10
-76.4753294947
 20
-11.1348363017
 10
-76.4868086672
 20
-11.125443845
 10
-76.4975950363
 20
-11.1152131055
 10
-76.5076237952
 20
-11.1041858121
 10
-76.5167421912
 20
-11.0925976619
 10
-76.5249233029
 20
-11.0804412738
 10
-76.5321940517
 20
-11.067724029
 10
-76.5384824481
 20
-11.0547037678
 10
-76.5437644957
 20
-11.0414664368
 10
-76.5480641909
 20
-11.0279260895
 10
-76.5513815338
 20
-11.0140827257
  0
LINE
  5
3F6
100
AcDbEntity
  8
0
100
AcDbLine
 62
7
  6
CONTINUOUS
 10
-89.1636991279
 20
-49.6060412483
 30
0.0
 11
-89.1636991279
 21
38.5939587517
 31
0.0
  0
LINE
  5
3F7
100
AcDbEntity
  8
0
100
AcDbLine
 62
7
  6
CONTINUOUS
 10
-88.7136991279
 20
-48.8633631341
 30
0.0
 11
-88.7136991279
 21
37.8512806375
 31
0.0
  0
LINE
  5
3F8
100
AcDbEntity
  8
RACCORDO
100
AcDbLine
 62
250
  6
CONTINUOUS
 10
-87.3602086466
 20
37.8276553733
 30
0.0
 11
-87.3602086466
 21
-48.8397378699
 31
0.0
  0
LINE
  5
3F9
100
AcDbEntity
  8
RACCORDO
100
AcDbLine
 62
7
  6
CONTINUOUS
 10
-87.1636991279
 20
37.6276858342
 30
0.0
 11
-87.1636991279
 21
-48.6397683309
 31
0.0
  0
LINE
  5
3FA
100
AcDbEntity
  8
RACCORDO
100
AcDbLine
 62
250
  6
CONTINUOUS
 10
-76.6921763109
 20
-7.6151753009
 30
0.0
 11
-76.8168016395
 21
-7.6264084653
 31
0.0
  0
LWPOLYLINE
  5
3FB
100
AcDbEntity
  8
RACCORDO
100
AcDbPolyline
 62
7
  6
CONTINUOUS
 90
22
 70
0
 10
-78.3562881571
 20
-8.7578512964
 10
-78.3748963606
 20
-8.7587488599
 10
-78.3927134837
 20
-8.76096977
 10
-78.4097395264
 20
-8.7645140269
 10
-78.4259594316
 20
-8.7694435455
 10
-78.4413882565
 20
-8.7756964109
 10
-78.4560711724
 20
-8.7830868776
 10
-78.4701062772
 20
-8.791645381
 10
-78.4833954731
 20
-8.8013414858
 10
-78.4956896379
 20
-8.8118981409
 10
-78.5069512728
 20
-8.8233316852
 10
-78.5172178766
 20
-8.8356257798
 10
-78.5263528234
 20
-8.8484543567
 10
-78.5343114963
 20
-8.8617620199
 10
-78.5411385121
 20
-8.8756041655
 10
-78.5468310956
 20
-8.8898209137
 10
-78.5514028746
 20
-8.904439732
 10
-78.5548402212
 20
-8.9194331529
 10
-78.5570994771
 20
-8.9345588944
 10
-78.5581660893
 20
-8.9497361957
 10
-78.5580546107
 20
-8.9650458174
 10
-78.5567650414
 20
-8.9804877597
  0
LINE
  5
3FC
100
AcDbEntity
  8
DRAFT
100
AcDbLine
 62
7
  6
CONTINUOUS
 10
-71.2408220977
 20
-9.9429590942
 30
0.0
 11
-72.7141710718
 21
-9.9560412483
 31
0.0
  0
LINE
  5
3FD
100
AcDbEntity
  8
DRAFT
100
AcDbLine
 62
7
  6
CONTINUOUS
 10
-72.5088310785
 20
-9.9429590942
 30
0.0
 11
-74.034528604
 21
-9.9560412483
 31
0.0
  0
LINE
  5
3FE
100
AcDbEntity
  8
DRAFT
100
AcDbLine
 62
7
  6
CONTINUOUS
 10
-72.7141710718
 20
-9.9560412483
 30
0.0
 11
-74.034528604
 21
-9.9560412483
 31
0.0
  0
LINE
  5
3FF
100
AcDbEntity
  8
DRAFT
100
AcDbLine
 62
7
  6
CONTINUOUS
 10
-71.2408220977
 20
-9.9429590942
 30
0.0
 11
-72.5088310785
 21
-9.9429590942
 31
0.0
  0
LINE
  5
400
100
AcDbEntity
  8
DRAFT
100
AcDbLine
 62
7
  6
CONTINUOUS
 10
-72.5088310785
 20
-8.4691234024
 30
0.0
 11
-71.2408220977
 21
-8.4691234024
 31
0.0
  0
LINE
  5
401
100
AcDbEntity
  8
DRAFT
100
AcDbLine
 62
7
  6
CONTINUOUS
 10
-74.034528604
 20
-8.4560412483
 30
0.0
 11
-72.7141710718
 21
-8.4560412483
 31
0.0
  0
LINE
  5
402
100
AcDbEntity
  8
0
100
AcDbLine
 62
7
  6
CONTINUOUS
 10
-64.8636991279
 20
-7.7560412483
 30
0.0
 11
-65.7636991279
 21
-7.7560412483
 31
0.0
  0
LINE
  5
403
100
AcDbEntity
  8
0
100
AcDbLine
 62
7
  6
CONTINUOUS
 10
-66.8636991279
 20
-7.7421092258
 30
0.0
 11
-65.8636991279
 21
-7.7421092258
 31
0.0
  0
LINE
  5
404
100
AcDbEntity
  8
0
100
AcDbLine
 62
7
  6
CONTINUOUS
 10
-81.3636991279
 20
-7.2560412483
 30
0.0
 11
-66.8636991279
 21
-7.2560412483
 31
0.0
  0
LINE
  5
405
100
AcDbEntity
  8
0
100
AcDbLine
 62
7
  6
CONTINUOUS
 10
-64.8636991279
 20
-7.2560412483
 30
0.0
 11
-61.7317601279
 21
-7.2560412483
 31
0.0
  0
LINE
  5
406
100
AcDbEntity
  8
0
100
AcDbLine
 62
7
  6
CONTINUOUS
 10
-85.1636991279
 20
-7.0060412483
 30
0.0
 11
-81.3636991279
 21
-7.0060412483
 31
0.0
  0
LINE
  5
407
100
AcDbEntity
  8
0
100
AcDbLine
 62
7
  6
CONTINUOUS
 10
-81.3636991279
 20
-6.8879802483
 30
0.0
 11
-66.8636991279
 21
-6.8879802483
 31
0.0
  0
LINE
  5
408
100
AcDbEntity
  8
0
100
AcDbLine
 62
7
  6
CONTINUOUS
 10
-64.8636991279
 20
-6.8879802483
 30
0.0
 11
-61.3636991279
 21
-6.8879802483
 31
0.0
  0
LINE
  5
409
100
AcDbEntity
  8
0
100
AcDbLine
 62
7
  6
CONTINUOUS
 10
-61.3636991279
 20
-6.7560412483
 30
0.0
 11
-59.5636991279
 21
-6.7560412483
 31
0.0
  0
LINE
  5
40A
100
AcDbEntity
  8
DRAFT
100
AcDbLine
 62
7
  6
CONTINUOUS
 10
-72.5088310785
 20
-8.4691234024
 30
0.0
 11
-74.034528604
 21
-8.4560412483
 31
0.0
  0
LINE
  5
40B
100
AcDbEntity
  8
RACCORDO
100
AcDbLine
 62
7
  6
CONTINUOUS
 10
-77.0902341524
 20
-8.7688999823
 30
0.0
 11
-85.1636991279
 21
-8.6984439209
 31
0.0
  0
LINE
  5
40C
100
AcDbEntity
  8
RACCORDO
100
AcDbLine
 62
250
  6
CONTINUOUS
 10
-78.5567650414
 20
-8.9804877597
 30
0.0
 11
-85.1636991279
 21
-8.9224721121
 31
0.0
  0
LINE
  5
40D
100
AcDbEntity
  8
DRAFT
100
AcDbLine
 62
7
  6
CONTINUOUS
 10
-71.2408220977
 20
-8.4691234024
 30
0.0
 11
-72.7141710718
 21
-8.4560412483
 31
0.0
  0
LWPOLYLINE
  5
40E
100
AcDbEntity
  8
RACCORDO
100
AcDbPolyline
 62
250
  6
CONTINUOUS
 90
6
 70
0
 10
-92.9087485181
 20
38.196223734
 10
-92.9067007767
 20
38.1792651224
 10
-92.902612552
 20
38.1628555394
 10
-92.896539467
 20
38.1472432434
 10
-92.8884978253
 20
38.1326022868
 10
-92.8785927448
 20
38.1191140464
  0
LINE
  5
40F
100
AcDbEntity
  8
0
100
AcDbLine
 62
7
  6
CONTINUOUS
 10
-85.1636991279
 20
36.2739587517
 30
0.0
 11
-85.1636991279
 21
-47.2857470092
 31
0.0
  0
LWPOLYLINE
  5
410
100
AcDbEntity
  8
0
100
AcDbPolyline
 62
7
  6
CONTINUOUS
 90
2
 70
0
 43
0.3500000006
 10
-82.7994089355
 20
63.0686629944
 10
-82.7994089355
 20
64.5686634521
  0
LWPOLYLINE
  5
411
100
AcDbEntity
  8
RACCORDO
100
AcDbPolyline
 62
250
  6
CONTINUOUS
 90
9
 70
0
 10
-77.7602086466
 20
20.2298202148
 10
-77.7602483775
 20
20.2297029183
 10
-77.7602889964
 20
20.2293497784
 10
-77.7603304528
 20
20.2287610171
 10
-77.76037265
 20
20.2279370359
 10
-77.7604155805
 20
20.226878106
 10
-77.7604593319
 20
20.225584057
 10
-77.7605039024
 20
20.2240548351
 10
-77.7605951597
 20
20.2202922711
  0
LINE
  5
412
100
AcDbEntity
  8
0
100
AcDbLine
 62
250
  6
CONTINUOUS
 10
-65.8636991279
 20
-5.5060412483
 30
0.0
 11
-64.8636991279
 21
-5.5060412483
 31
0.0
  0
LINE
  5
413
100
AcDbEntity
  8
0
100
AcDbLine
 62
7
  6
CONTINUOUS
 10
-61.3636991279
 20
-4.2560412483
 30
0.0
 11
-59.5636991279
 21
-4.2560412483
 31
0.0
  0
LINE
  5
414
100
AcDbEntity
  8
0
100
AcDbLine
 62
7
  6
CONTINUOUS
 10
-81.3636991279
 20
-4.1241022483
 30
0.0
 11
-66.8636991279
 21
-4.1241022483
 31
0.0
  0
LINE
  5
415
100
AcDbEntity
  8
0
100
AcDbLine
 62
7
  6
CONTINUOUS
 10
-64.8636991279
 20
-4.1241022483
 30
0.0
 11
-61.3636991279
 21
-4.1241022483
 31
0.0
  0
LINE
  5
416
100
AcDbEntity
  8
0
100
AcDbLine
 62
7
  6
CONTINUOUS
 10
-85.1636991279
 20
-4.0060412483
 30
0.0
 11
-81.3636991279
 21
-4.0060412483
 31
0.0
  0
LINE
  5
417
100
AcDbEntity
  8
0
100
AcDbLine
 62
7
  6
CONTINUOUS
 10
-81.3636991279
 20
-3.7560412483
 30
0.0
 11
-66.8636991279
 21
-3.7560412483
 31
0.0
  0
LINE
  5
418
100
AcDbEntity
  8
0
100
AcDbLine
 62
7
  6
CONTINUOUS
 10
-64.8636991279
 20
-3.7560412483
 30
0.0
 11
-61.7317601279
 21
-3.7560412483
 31
0.0
  0
LINE
  5
419
100
AcDbEntity
  8
0
100
AcDbLine
 62
7
  6
CONTINUOUS
 10
-66.8636991279
 20
-3.2699732708
 30
0.0
 11
-65.8636991279
 21
-3.2699732708
 31
0.0
  0
LINE
  5
41A
100
AcDbEntity
  8
0
100
AcDbLine
 62
7
  6
CONTINUOUS
 10
-64.8636991279
 20
-3.2560412483
 30
0.0
 11
-65.7636991279
 21
-3.2560412483
 31
0.0
  0
LINE
  5
41B
100
AcDbEntity
  8
RACCORDO
100
AcDbLine
 62
250
  6
CONTINUOUS
 10
-76.6921762106
 20
-3.3969060925
 30
0.0
 11
-76.8168015153
 21
-3.3856746887
 31
0.0
  0
LWPOLYLINE
  5
41C
100
AcDbEntity
  8
RACCORDO
100
AcDbPolyline
 62
250
  6
CONTINUOUS
 90
10
 70
0
 10
-76.8168016321
 20
-7.6264079736
 10
-76.8534665325
 20
-7.5907250608
 10
-76.8921175523
 20
-7.5553441301
 10
-76.9326275927
 20
-7.5203815382
 10
-76.9748633146
 20
-7.4859523668
 10
-77.0186859446
 20
-7.4521697415
 10
-77.0639517757
 20
-7.4191444796
 10
-77.1105121226
 20
-7.3869851249
 10
-77.1582137655
 20
-7.35579757
 10
-77.2068998533
 20
-7.3256844194
  0
LWPOLYLINE
  5
41D
100
AcDbEntity
  8
0
100
AcDbPolyline
 62
7
  6
CONTINUOUS
 90
13
 70
0
 43
0.3500000006
 10
-81.4422708435
 20
63.9258099976
 10
-81.4422708435
 20
65.2115259705
 10
-81.2279863586
 20
65.6400949402
 10
-80.7994173889
 20
66.0686639099
 10
-80.5851238403
 20
66.0686639099
 10
-80.1565548706
 20
65.6400949402
 10
-79.9422703857
 20
65.2115259705
 10
-79.9422703857
 20
63.9258099976
 10
-80.1565548706
 20
63.4972319641
 10
-80.5851238403
 20
63.0686629944
 10
-80.7994173889
 20
63.0686629944
 10
-81.2279863586
 20
63.4972319641
 10
-81.4422708435
 20
63.9258099976
  0
LINE
  5
41E
100
AcDbEntity
  8
0
100
AcDbLine
 62
7
  6
CONTINUOUS
 10
-81.3636991279
 20
-7.2560412483
 30
0.0
 11
-81.3636991279
 21
-3.7560412483
 31
0.0
  0
LWPOLYLINE
  5
41F
100
AcDbEntity
  8
RACCORDO
100
AcDbPolyline
 62
7
  6
CONTINUOUS
 90
19
 70
0
 10
-77.0902341524
 20
-2.2431825143
 10
-77.0721784372
 20
-2.2420273997
 10
-77.0548095322
 20
-2.2395373118
 10
-77.0381274372
 20
-2.2357122505
 10
-77.0220606548
 20
-2.2304381453
 10
-77.0066806825
 20
-2.2238290668
 10
-76.992202013
 20
-2.2162272266
 10
-76.978707354
 20
-2.2077045766
 10
-76.9661139978
 20
-2.1981891648
 10
-76.9543883138
 20
-2.1878073471
 10
-76.9434604556
 20
-2.1765091181
 10
-76.9334002697
 20
-2.1643444832
 10
-76.9243836649
 20
-2.1515898139
 10
-76.9164393759
 20
-2.1382067662
 10
-76.909538668
 20
-2.1242336841
 10
-76.9037712461
 20
-2.1100619707
 10
-76.8991670118
 20
-2.0958220937
 10
-76.8956960635
 20
-2.0813835853
 10
-76.8933584011
 20
-2.0667464456
  0
LINE
  5
420
100
AcDbEntity
  8
DRAFT
100
AcDbLine
 62
7
  6
CONTINUOUS
 10
-71.2408220977
 20
-2.5429590942
 30
0.0
 11
-72.7141710718
 21
-2.5560412483
 31
0.0
  0
LINE
  5
421
100
AcDbEntity
  8
DRAFT
100
AcDbLine
 62
7
  6
CONTINUOUS
 10
-69.6636991279
 20
0.4210444895
 30
0.0
 11
-71.1612707242
 21
0.407747258
 31
0.0
  0
LINE
  5
422
100
AcDbEntity
  8
DRAFT
100
AcDbLine
 62
7
  6
CONTINUOUS
 10
-71.5872726545
 20
0.4039647034
 30
0.0
 11
-72.7141710718
 21
0.3939587517
 31
0.0
  0
LINE
  5
423
100
AcDbEntity
  8
RACCORDO
100
AcDbLine
 62
7
  6
CONTINUOUS
 10
-77.0902341524
 20
-2.2431825143
 30
0.0
 11
-85.1636991279
 21
-2.3136385757
 31
0.0
  0
LINE
  5
424
100
AcDbEntity
  8
RACCORDO
100
AcDbLine
 62
250
  6
CONTINUOUS
 10
-85.1636991279
 20
-2.0896103845
 30
0.0
 11
-78.5567650414
 21
-2.0315947369
 31
0.0
  0
LINE
  5
425
100
AcDbEntity
  8
RACCORDO
100
AcDbLine
 62
250
  6
CONTINUOUS
 10
-75.1636991279
 20
-0.0263470525
 30
0.0
 11
-76.559498984
 21
-0.0385280133
 31
0.0
  0
LINE
  5
426
100
AcDbEntity
  8
RACCORDO
100
AcDbLine
 62
7
  6
CONTINUOUS
 10
-76.3569094472
 20
0.1632171135
 30
0.0
 11
-75.1636991279
 21
0.1736301022
 31
0.0
  0
LINE
  5
427
100
AcDbEntity
  8
DRAFT
100
AcDbLine
 62
7
  6
CONTINUOUS
 10
-69.6636991279
 20
0.4598934165
 30
0.0
 11
-77.1536991279
 21
0.3939587517
 31
0.0
  0
LINE
  5
428
100
AcDbEntity
  8
DRAFT
100
AcDbLine
 62
7
  6
CONTINUOUS
 10
-72.5088310785
 20
-2.5429590942
 30
0.0
 11
-74.034528604
 21
-2.5560412483
 31
0.0
  0
LINE
  5
429
100
AcDbEntity
  8
DRAFT
100
AcDbLine
 62
7
  6
CONTINUOUS
 10
-69.6636991279
 20
0.4364337357
 30
0.0
 11
-71.2451554629
 21
0.4227530162
 31
0.0
  0
LINE
  5
42A
100
AcDbEntity
  8
DRAFT
100
AcDbLine
 62
7
  6
CONTINUOUS
 10
-71.4942907085
 20
0.4205978196
 30
0.0
 11
-74.5736991279
 21
0.3939587517
 31
0.0
  0
LINE
  5
42B
100
AcDbEntity
  8
RACCORDO
100
AcDbLine
 62
7
  6
CONTINUOUS
 10
-69.7817988901
 20
0.4662518977
 30
0.0
 11
-78.1715957235
 21
0.3939587517
 31
0.0
  0
LINE
  5
42C
100
AcDbEntity
  8
DRAFT
100
AcDbLine
 62
7
  6
CONTINUOUS
 10
-72.7141710718
 20
-2.5560412483
 30
0.0
 11
-74.034528604
 21
-2.5560412483
 31
0.0
  0
LINE
  5
42D
100
AcDbEntity
  8
DRAFT
100
AcDbLine
 62
7
  6
CONTINUOUS
 10
-71.2408220977
 20
-2.5429590942
 30
0.0
 11
-72.5088310785
 21
-2.5429590942
 31
0.0
  0
LINE
  5
42E
100
AcDbEntity
  8
DRAFT
100
AcDbLine
 62
7
  6
CONTINUOUS
 10
-72.5088310785
 20
-1.0691234024
 30
0.0
 11
-71.2408220977
 21
-1.0691234024
 31
0.0
  0
LINE
  5
42F
100
AcDbEntity
  8
DRAFT
100
AcDbLine
 62
7
  6
CONTINUOUS
 10
-74.034528604
 20
-1.0560412483
 30
0.0
 11
-72.7141710718
 21
-1.0560412483
 31
0.0
  0
LINE
  5
430
100
AcDbEntity
  8
0
100
AcDbLine
 62
7
  6
CONTINUOUS
 10
-75.1636991279
 20
-0.7560412483
 30
0.0
 11
-66.8636991279
 21
-0.7560412483
 31
0.0
  0
LINE
  5
431
100
AcDbEntity
  8
0
100
AcDbLine
 62
250
  6
CONTINUOUS
 10
-65.8636991279
 20
-0.7560412483
 30
0.0
 11
-66.8636991279
 21
-0.7560412483
 31
0.0
  0
LINE
  5
432
100
AcDbEntity
  8
0
100
AcDbLine
 62
7
  6
CONTINUOUS
 10
-75.1636991279
 20
0.2439587517
 30
0.0
 11
-66.8636991279
 21
0.2439587517
 31
0.0
  0
LINE
  5
433
100
AcDbEntity
  8
DRAFT
100
AcDbLine
 62
7
  6
CONTINUOUS
 10
-72.7141710718
 20
0.3939587517
 30
0.0
 11
-74.5736991279
 21
0.3939587517
 31
0.0
  0
LINE
  5
434
100
AcDbEntity
  8
DRAFT
100
AcDbLine
 62
7
  6
CONTINUOUS
 10
-77.1536991279
 20
0.3939587517
 30
0.0
 11
-78.1715957235
 21
0.3939587517
 31
0.0
  0
LINE
  5
435
100
AcDbEntity
  8
RACCORDO
100
AcDbLine
 62
7
  6
CONTINUOUS
 10
-69.7148770931
 20
0.4664027419
 30
0.0
 11
-69.7817988901
 21
0.4662518977
 31
0.0
  0
LINE
  5
436
100
AcDbEntity
  8
DRAFT
100
AcDbLine
 62
7
  6
CONTINUOUS
 10
-72.5088310785
 20
-1.0691234024
 30
0.0
 11
-74.034528604
 21
-1.0560412483
 31
0.0
  0
LINE
  5
437
100
AcDbEntity
  8
DRAFT
100
AcDbLine
 62
7
  6
CONTINUOUS
 10
-71.2408220977
 20
-1.0691234024
 30
0.0
 11
-72.7141710718
 21
-1.0560412483
 31
0.0
  0
LWPOLYLINE
  5
438
100
AcDbEntity
  8
RACCORDO
100
AcDbPolyline
 62
250
  6
CONTINUOUS
 90
22
 70
0
 10
-76.6993884752
 20
-7.5407278054
 10
-76.7012583237
 20
-7.5233396817
 10
-76.7031588725
 20
-7.5064711126
 10
-76.7050893583
 20
-7.4901270175
 10
-76.7070505445
 20
-7.474302477
 10
-76.7090483418
 20
-7.4590100109
 10
-76.7110778313
 20
-7.4442767481
 10
-76.713143932
 20
-7.4300755596
 10
-76.7152673108
 20
-7.4163375782
 10
-76.7174367024
 20
-7.4031018585
 10
-76.7196633723
 20
-7.3903293458
 10
-76.7220017834
 20
-7.3778340082
 10
-76.7244315783
 20
-7.3656516332
 10
-76.7269731144
 20
-7.3537464333
 10
-76.7297419274
 20
-7.3418250144
 10
-76.7327189728
 20
-7.3298729791
 10
-76.735923295
 20
-7.3179047247
 10
-76.7395275633
 20
-7.305670049
 10
-76.7435279241
 20
-7.2931120512
 10
-76.7479282312
 20
-7.280287632
 10
-76.7529127146
 20
-7.2671172913
 10
-76.7574683602
 20
-7.2560412483
  0
LINE
  5
439
100
AcDbEntity
  8
RACCORDO
100
AcDbLine
 62
250
  6
CONTINUOUS
 10
-76.695728812
 20
-7.576971793
 30
0.0
 11
-76.6993884752
 21
-7.5407278054
 31
0.0
  0
LINE
  5
43A
100
AcDbEntity
  8
RACCORDO
100
AcDbLine
 62
250
  6
CONTINUOUS
 10
-76.6921762629
 20
-7.6151757982
 30
0.0
 11
-76.695728812
 21
-7.576971793
 31
0.0
  0
LINE
  5
43B
100
AcDbEntity
  8
RACCORDO
100
AcDbLine
 62
250
  6
CONTINUOUS
 10
-76.6885927063
 20
-7.6572705744
 30
0.0
 11
-76.6921762629
 21
-7.6151757982
 31
0.0
  0
LINE
  5
43C
100
AcDbEntity
  8
RACCORDO
100
AcDbLine
 62
250
  6
CONTINUOUS
 10
-76.6854545164
 20
-7.6968796359
 30
0.0
 11
-76.6885927063
 21
-7.6572705744
 31
0.0
  0
LINE
  5
43D
100
AcDbEntity
  8
RACCORDO
100
AcDbLine
 62
250
  6
CONTINUOUS
 10
-76.6813874076
 20
-7.753233782
 30
0.0
 11
-76.6854545164
 21
-7.6968796359
 31
0.0
  0
LINE
  5
43E
100
AcDbEntity
  8
RACCORDO
100
AcDbLine
 62
250
  6
CONTINUOUS
 10
-76.6775854051
 20
-7.8107822712
 30
0.0
 11
-76.6813874076
 21
-7.753233782
 31
0.0
  0
LWPOLYLINE
  5
43F
100
AcDbEntity
  8
RACCORDO
100
AcDbPolyline
 62
250
  6
CONTINUOUS
 90
23
 70
0
 10
-77.5633712255
 20
-2.247311519
 10
-77.5619955141
 20
-2.2697238025
 10
-77.5546925774
 20
-2.3699401085
 10
-77.5464480255
 20
-2.4661881157
 10
-77.5372640238
 20
-2.5588286226
 10
-77.5271491047
 20
-2.647879076
 10
-77.5160975449
 20
-2.7333192492
 10
-77.5040904419
 20
-2.8154528954
 10
-77.491130647
 20
-2.8943103954
 10
-77.4772194811
 20
-2.9698697444
 10
-77.4623362024
 20
-3.0423538093
 10
-77.4464840501
 20
-3.1117908095
 10
-77.4296657605
 20
-3.1781660592
 10
-77.4118604498
 20
-3.2416354052
 10
-77.3930716817
 20
-3.3022246574
 10
-77.373304241
 20
-3.3599229438
 10
-77.3525398731
 20
-3.4148286003
 10
-77.3307921404
 20
-3.466970513
 10
-77.3080588587
 20
-3.5163340037
 10
-77.2842992979
 20
-3.5629498952
 10
-77.25950518
 20
-3.6068320583
 10
-77.2337004571
 20
-3.6479784134
 10
-77.2068940475
 20
-3.6863945858
  0
LINE
  5
440
100
AcDbEntity
  8
RACCORDO
100
AcDbLine
 62
250
  6
CONTINUOUS
 10
-76.6737825652
 20
-7.8733132381
 30
0.0
 11
-76.6775854051
 21
-7.8107822712
 31
0.0
  0
LINE
  5
441
100
AcDbEntity
  8
RACCORDO
100
AcDbLine
 62
250
  6
CONTINUOUS
 10
-76.6699722109
 20
-7.9412909275
 30
0.0
 11
-76.6737825652
 21
-7.8733132381
 31
0.0
  0
LWPOLYLINE
  5
442
100
AcDbEntity
  8
RACCORDO
100
AcDbPolyline
 62
250
  6
CONTINUOUS
 90
3
 70
0
 10
-77.5636991279
 20
20.0222229235
 10
-77.5647731491
 20
20.042724721
 10
-77.5679836998
 20
20.0630064308
  0
LINE
  5
443
100
AcDbEntity
  8
RACCORDO
100
AcDbLine
 62
250
  6
CONTINUOUS
 10
-76.664900502
 20
-8.0408768714
 30
0.0
 11
-76.6699722109
 21
-7.9412909275
 31
0.0
  0
LINE
  5
444
100
AcDbEntity
  8
RACCORDO
100
AcDbLine
 62
250
  6
CONTINUOUS
 10
-76.6598739754
 20
-8.151309733
 30
0.0
 11
-76.664900502
 21
-8.0408768714
 31
0.0
  0
LINE
  5
445
100
AcDbEntity
  8
RACCORDO
100
AcDbLine
 62
250
  6
CONTINUOUS
 10
-76.6549603788
 20
-8.2728418488
 30
0.0
 11
-76.6598739754
 21
-8.151309733
 31
0.0
  0
LWPOLYLINE
  5
446
100
AcDbEntity
  8
RACCORDO
100
AcDbPolyline
 62
250
  6
CONTINUOUS
 90
7
 70
0
 10
-77.7604593319
 20
-31.2376665536
 10
-77.7604155805
 20
-31.2389606027
 10
-77.76037265
 20
-31.2400195325
 10
-77.7603304528
 20
-31.2408435137
 10
-77.7602889964
 20
-31.241432275
 10
-77.7602483775
 20
-31.2417854149
 10
-77.7602086466
 20
-31.2419027114
  0
LINE
  5
447
100
AcDbEntity
  8
RACCORDO
100
AcDbLine
 62
250
  6
CONTINUOUS
 10
-76.6502079725
 20
-8.4066354379
 30
0.0
 11
-76.6549603788
 21
-8.2728418488
 31
0.0
  0
LINE
  5
448
100
AcDbEntity
  8
RACCORDO
100
AcDbLine
 62
250
  6
CONTINUOUS
 10
-76.6456727815
 20
-8.5549175107
 30
0.0
 11
-76.6502079725
 21
-8.4066354379
 31
0.0
  0
LINE
  5
449
100
AcDbEntity
  8
RACCORDO
100
AcDbLine
 62
250
  6
CONTINUOUS
 10
-76.6443051786
 20
-0.6049390266
 30
0.0
 11
-76.6475428333
 21
-0.4910666419
 31
0.0
  0
LINE
  5
44A
100
AcDbEntity
  8
RACCORDO
100
AcDbLine
 62
250
  6
CONTINUOUS
 10
-77.7605491954
 20
-31.2343733114
 30
0.0
 11
-77.7604593319
 21
-31.2376665536
 31
0.0
  0
LINE
  5
44B
100
AcDbEntity
  8
RACCORDO
100
AcDbLine
 62
250
  6
CONTINUOUS
 10
-76.6414607291
 20
-8.7199512708
 30
0.0
 11
-76.6456727815
 21
-8.5549175107
 31
0.0
  0
LINE
  5
44C
100
AcDbEntity
  8
RACCORDO
100
AcDbLine
 62
250
  6
CONTINUOUS
 10
-76.6401901689
 20
-0.7774999367
 30
0.0
 11
-76.6443051786
 21
-0.6049390266
 31
0.0
  0
LINE
  5
44D
100
AcDbEntity
  8
RACCORDO
100
AcDbLine
 62
250
  6
CONTINUOUS
 10
-76.8134540326
 20
-3.5508748714
 30
0.0
 11
-76.8161032387
 21
-3.4266878767
 31
0.0
  0
LINE
  5
44E
100
AcDbEntity
  8
RACCORDO
100
AcDbLine
 62
250
  6
CONTINUOUS
 10
-76.6377373658
 20
-8.9043333773
 30
0.0
 11
-76.6414607291
 21
-8.7199512708
 31
0.0
  0
LINE
  5
44F
100
AcDbEntity
  8
RACCORDO
100
AcDbLine
 62
250
  6
CONTINUOUS
 10
-76.6370402486
 20
-0.9459786218
 30
0.0
 11
-76.6401901689
 21
-0.7774999367
 31
0.0
  0
LINE
  5
450
100
AcDbEntity
  8
RACCORDO
100
AcDbLine
 62
250
  6
CONTINUOUS
 10
-76.8161032387
 20
-3.4266878767
 30
0.0
 11
-76.8168015188
 21
-3.3856744092
 31
0.0
  0
LINE
  5
451
100
AcDbEntity
  8
RACCORDO
100
AcDbLine
 62
250
  6
CONTINUOUS
 10
-76.6354021902
 20
-9.0583723446
 30
0.0
 11
-76.6377373658
 21
-8.9043333773
 31
0.0
  0
LINE
  5
452
100
AcDbEntity
  8
RACCORDO
100
AcDbLine
 62
250
  6
CONTINUOUS
 10
-76.6347850777
 20
-1.1094654448
 30
0.0
 11
-76.6370402486
 21
-0.9459786218
 31
0.0
  0
LINE
  5
453
100
AcDbEntity
  8
RACCORDO
100
AcDbLine
 62
250
  6
CONTINUOUS
 10
-76.6336162677
 20
-9.2297117385
 30
0.0
 11
-76.6354021902
 21
-9.0583723446
 31
0.0
  0
LINE
  5
454
100
AcDbEntity
  8
RACCORDO
100
AcDbLine
 62
250
  6
CONTINUOUS
 10
-76.8168015188
 20
-3.3856744092
 30
0.0
 11
-76.8175605615
 21
-3.312631348
 31
0.0
  0
LINE
  5
455
100
AcDbEntity
  8
RACCORDO
100
AcDbLine
 62
250
  6
CONTINUOUS
 10
-76.6333726407
 20
-1.2638434914
 30
0.0
 11
-76.6347850777
 21
-1.1094654448
 31
0.0
  0
LINE
  5
456
100
AcDbEntity
  8
RACCORDO
100
AcDbLine
 62
250
  6
CONTINUOUS
 10
-76.8098780307
 20
-9.1722463627
 30
0.0
 11
-76.8178134416
 21
-8.0747499193
 31
0.0
  0
LINE
  5
457
100
AcDbEntity
  8
RACCORDO
100
AcDbLine
 62
250
  6
CONTINUOUS
 10
-76.8175605615
 20
-3.312631348
 30
0.0
 11
-76.8181616342
 21
-3.2134306763
 31
0.0
  0
LINE
  5
458
100
AcDbEntity
  8
RACCORDO
100
AcDbLine
 62
250
  6
CONTINUOUS
 10
-76.6326209394
 20
-9.4222046588
 30
0.0
 11
-76.6336162677
 21
-9.2297117385
 31
0.0
  0
LINE
  5
459
100
AcDbEntity
  8
RACCORDO
100
AcDbLine
 62
250
  6
CONTINUOUS
 10
-76.6325396407
 20
-1.4781670281
 30
0.0
 11
-76.6333726407
 21
-1.2638434914
 31
0.0
  0
LWPOLYLINE
  5
45A
100
AcDbEntity
  8
RACCORDO
100
AcDbPolyline
 62
250
  6
CONTINUOUS
 90
10
 70
0
 10
-77.7605951597
 20
20.2202922711
 10
-77.7605857688
 20
20.2141212889
 10
-77.7601013966
 20
20.2062903993
 10
-77.7591421166
 20
20.1967388153
 10
-77.7577757698
 20
20.1855017603
 10
-77.7559339706
 20
20.1724557185
 10
-77.7534137299
 20
20.1571953521
 10
-77.7501485599
 20
20.1394293623
 10
-77.7462068017
 20
20.1191057384
 10
-77.7415887323
 20
20.0960723884
  0
LINE
  5
45B
100
AcDbEntity
  8
RACCORDO
100
AcDbLine
 62
250
  6
CONTINUOUS
 10
-76.8178134416
 20
-8.0747499193
 30
0.0
 11
-76.8183142757
 21
-7.9037105096
 31
0.0
  0
LINE
  5
45C
100
AcDbEntity
  8
RACCORDO
100
AcDbLine
 62
7
  6
CONTINUOUS
 10
-77.5636991279
 20
20.0222229236
 30
0.0
 11
-77.5636991078
 21
20.022192525
 31
0.0
  0
LINE
  5
45D
100
AcDbEntity
  8
RACCORDO
100
AcDbLine
 62
250
  6
CONTINUOUS
 10
-77.9321778642
 20
-8.7615524509
 30
0.0
 11
-77.9321778642
 21
-7.2560412483
 31
0.0
  0
LINE
  5
45E
100
AcDbEntity
  8
RACCORDO
100
AcDbLine
 62
250
  6
CONTINUOUS
 10
-77.9321778642
 20
-3.7560412483
 30
0.0
 11
-77.9321778642
 21
-2.2505300457
 31
0.0
  0
LINE
  5
45F
100
AcDbEntity
  8
RACCORDO
100
AcDbLine
 62
250
  6
CONTINUOUS
 10
-77.2068940475
 20
-7.3256879108
 30
0.0
 11
-77.2068940475
 21
-7.2560412483
 31
0.0
  0
LINE
  5
460
100
AcDbEntity
  8
RACCORDO
100
AcDbLine
 62
250
  6
CONTINUOUS
 10
-77.2068940475
 20
-3.7560412483
 30
0.0
 11
-77.2068940475
 21
-3.6863945858
 31
0.0
  0
LINE
  5
461
100
AcDbEntity
  8
RACCORDO
100
AcDbLine
 62
250
  6
CONTINUOUS
 10
-76.8091932327
 20
-9.5549892955
 30
0.0
 11
-76.8098780307
 21
-9.1722463627
 31
0.0
  0
LINE
  5
462
100
AcDbEntity
  8
RACCORDO
100
AcDbLine
 62
250
  6
CONTINUOUS
 10
-76.8181616342
 20
-3.2134306763
 30
0.0
 11
-76.8182764673
 21
-3.0727409516
 31
0.0
  0
LINE
  5
463
100
AcDbEntity
  8
RACCORDO
100
AcDbLine
 62
250
  6
CONTINUOUS
 10
-76.6327722983
 20
-9.6382274417
 30
0.0
 11
-76.6326209394
 21
-9.4222046588
 31
0.0
  0
LINE
  5
464
100
AcDbEntity
  8
RACCORDO
100
AcDbLine
 62
250
  6
CONTINUOUS
 10
-76.8097012579
 20
-1.7937072702
 30
0.0
 11
-76.8091979276
 21
-1.4571249551
 31
0.0
  0
LINE
  5
465
100
AcDbEntity
  8
RACCORDO
100
AcDbLine
 62
250
  6
CONTINUOUS
 10
-76.8183142757
 20
-7.9037105096
 30
0.0
 11
-76.8180900865
 21
-7.7812131149
 31
0.0
  0
LINE
  5
466
100
AcDbEntity
  8
RACCORDO
100
AcDbLine
 62
250
  6
CONTINUOUS
 10
-76.6329310268
 20
-1.6736758295
 30
0.0
 11
-76.6325396407
 21
-1.4781670281
 31
0.0
  0
LINE
  5
467
100
AcDbEntity
  8
RACCORDO
100
AcDbLine
 62
250
  6
CONTINUOUS
 10
-76.8182764673
 20
-3.0727409516
 30
0.0
 11
-76.8172835528
 21
-2.845534969
 31
0.0
  0
LINE
  5
468
100
AcDbEntity
  8
RACCORDO
100
AcDbLine
 62
250
  6
CONTINUOUS
 10
-76.6337279505
 20
-9.7945275169
 30
0.0
 11
-76.6327722983
 21
-9.6382274417
 31
0.0
  0
LINE
  5
469
100
AcDbEntity
  8
RACCORDO
100
AcDbLine
 62
250
  6
CONTINUOUS
 10
-76.8129197648
 20
-2.3119768733
 30
0.0
 11
-76.8097012579
 21
-1.7937072702
 31
0.0
  0
LINE
  5
46A
100
AcDbEntity
  8
RACCORDO
100
AcDbLine
 62
250
  6
CONTINUOUS
 10
-76.8180900865
 20
-7.7812131149
 30
0.0
 11
-76.8172908405
 21
-7.6678199253
 31
0.0
  0
LINE
  5
46B
100
AcDbEntity
  8
RACCORDO
100
AcDbLine
 62
250
  6
CONTINUOUS
 10
-76.8172835528
 20
-2.845534969
 30
0.0
 11
-76.8129197648
 21
-2.3119768733
 31
0.0
  0
LINE
  5
46C
100
AcDbEntity
  8
RACCORDO
100
AcDbLine
 62
250
  6
CONTINUOUS
 10
-76.6342613371
 20
-1.8534830235
 30
0.0
 11
-76.6329310268
 21
-1.6736758295
 31
0.0
  0
LINE
  5
46D
100
AcDbEntity
  8
RACCORDO
100
AcDbLine
 62
250
  6
CONTINUOUS
 10
-76.6354789405
 20
-9.9592985473
 30
0.0
 11
-76.6337279505
 21
-9.7945275169
 31
0.0
  0
LWPOLYLINE
  5
46E
100
AcDbEntity
  8
RACCORDO
100
AcDbPolyline
 62
250
  6
CONTINUOUS
 90
18
 70
0
 10
-76.813152566
 20
-7.4451262186
 10
-76.8129858443
 20
-7.4319655163
 10
-76.8128976726
 20
-7.4193440548
 10
-76.8128938844
 20
-7.4072136821
 10
-76.8130695258
 20
-7.3954910996
 10
-76.813413824
 20
-7.3841571684
 10
-76.8139368534
 20
-7.3731498901
 10
-76.8147641396
 20
-7.362298475
 10
-76.8159055193
 20
-7.3515439666
 10
-76.8173729791
 20
-7.3408523105
 10
-76.8193030209
 20
-7.3300794649
 10
-76.8217693664
 20
-7.31917365
 10
-76.8247794736
 20
-7.3081279931
 10
-76.8283835456
 20
-7.2968750261
 10
-76.8326834315
 20
-7.2854121039
 10
-76.8377174739
 20
-7.2737626983
 10
-76.8434338425
 20
-7.2619133885
 10
-76.846597291
 20
-7.2560412483
  0
LINE
  5
46F
100
AcDbEntity
  8
RACCORDO
100
AcDbLine
 62
250
  6
CONTINUOUS
 10
-76.8172908405
 20
-7.6678199253
 30
0.0
 11
-76.8168016321
 21
-7.6264079736
 31
0.0
  0
LINE
  5
470
100
AcDbEntity
  8
RACCORDO
100
AcDbLine
 62
250
  6
CONTINUOUS
 10
-76.6363224695
 20
-2.0196838769
 30
0.0
 11
-76.6342613371
 21
-1.8534830235
 31
0.0
  0
LINE
  5
471
100
AcDbEntity
  8
RACCORDO
100
AcDbLine
 62
250
  6
CONTINUOUS
 10
-76.6381450175
 20
-10.1304678709
 30
0.0
 11
-76.6354789405
 21
-9.9592985473
 31
0.0
  0
LINE
  5
472
100
AcDbEntity
  8
RACCORDO
100
AcDbLine
 62
250
  6
CONTINUOUS
 10
-76.638951568
 20
-2.1735257806
 30
0.0
 11
-76.6363224695
 21
-2.0196838769
 31
0.0
  0
LINE
  5
473
100
AcDbEntity
  8
RACCORDO
100
AcDbLine
 62
250
  6
CONTINUOUS
 10
-76.8168016321
 20
-7.6264079736
 30
0.0
 11
-76.8154865368
 21
-7.5530234558
 31
0.0
  0
LINE
  5
474
100
AcDbEntity
  8
RACCORDO
100
AcDbLine
 62
250
  6
CONTINUOUS
 10
-76.6417614643
 20
-10.3047354205
 30
0.0
 11
-76.6381450175
 21
-10.1304678709
 31
0.0
  0
LWPOLYLINE
  5
475
100
AcDbEntity
  8
RACCORDO
100
AcDbPolyline
 62
250
  6
CONTINUOUS
 90
3
 70
0
 10
-76.8154865368
 20
-7.5530234558
 10
-76.8140256487
 20
-7.4879738141
 10
-76.813152566
 20
-7.4451262186
  0
LINE
  5
476
100
AcDbEntity
  8
RACCORDO
100
AcDbLine
 62
250
  6
CONTINUOUS
 10
-76.6431200301
 20
-2.3612389761
 30
0.0
 11
-76.638951568
 21
-2.1735257806
 31
0.0
  0
LINE
  5
477
100
AcDbEntity
  8
RACCORDO
100
AcDbLine
 62
250
  6
CONTINUOUS
 10
-76.6478336189
 20
-2.5308455741
 30
0.0
 11
-76.6431200301
 21
-2.3612389761
 31
0.0
  0
LWPOLYLINE
  5
478
100
AcDbEntity
  8
RACCORDO
100
AcDbPolyline
 62
250
  6
CONTINUOUS
 90
3
 70
0
 10
-76.6475573364
 20
-10.5209364917
 10
-76.6462957086
 20
-10.4790212052
 10
-76.6417614643
 20
-10.3047354205
  0
LINE
  5
479
100
AcDbEntity
  8
RACCORDO
100
AcDbLine
 62
250
  6
CONTINUOUS
 10
-76.6528979654
 20
-2.6833965944
 30
0.0
 11
-76.6478336189
 21
-2.5308455741
 31
0.0
  0
LINE
  5
47A
100
AcDbEntity
  8
RACCORDO
100
AcDbLine
 62
250
  6
CONTINUOUS
 10
-76.6581692137
 20
-2.8202898598
 30
0.0
 11
-76.6528979654
 21
-2.6833965944
 31
0.0
  0
LINE
  5
47B
100
AcDbEntity
  8
RACCORDO
100
AcDbLine
 62
250
  6
CONTINUOUS
 10
-76.6635875531
 20
-2.9435705188
 30
0.0
 11
-76.6581692137
 21
-2.8202898598
 31
0.0
  0
LINE
  5
47C
100
AcDbEntity
  8
RACCORDO
100
AcDbLine
 62
250
  6
CONTINUOUS
 10
-76.6677285052
 20
-3.0280938576
 30
0.0
 11
-76.6635875531
 21
-2.9435705188
 31
0.0
  0
LWPOLYLINE
  5
47D
100
AcDbEntity
  8
RACCORDO
100
AcDbPolyline
 62
250
  6
CONTINUOUS
 90
3
 70
0
 10
-77.5636991279
 20
-31.0343054202
 10
-77.56477323
 20
-31.0548079988
 10
-77.5679839975
 20
-31.0750903498
  0
LINE
  5
47E
100
AcDbEntity
  8
RACCORDO
100
AcDbLine
 62
250
  6
CONTINUOUS
 10
-76.6719162909
 20
-3.1061813886
 30
0.0
 11
-76.6677285052
 21
-3.0280938576
 31
0.0
  0
LINE
  5
47F
100
AcDbEntity
  8
RACCORDO
100
AcDbLine
 62
250
  6
CONTINUOUS
 10
-76.6761327613
 20
-3.1780294799
 30
0.0
 11
-76.6719162909
 21
-3.1061813886
 31
0.0
  0
LINE
  5
480
100
AcDbEntity
  8
RACCORDO
100
AcDbLine
 62
250
  6
CONTINUOUS
 10
-76.6803741991
 20
-3.2439570365
 30
0.0
 11
-76.6761327613
 21
-3.1780294799
 31
0.0
  0
LINE
  5
481
100
AcDbEntity
  8
RACCORDO
100
AcDbLine
 62
250
  6
CONTINUOUS
 10
-76.6832179787
 20
-3.2847952216
 30
0.0
 11
-76.6803741991
 21
-3.2439570365
 31
0.0
  0
LINE
  5
482
100
AcDbEntity
  8
RACCORDO
100
AcDbLine
 62
250
  6
CONTINUOUS
 10
-76.6860382708
 20
-3.3228145371
 30
0.0
 11
-76.6832179787
 21
-3.2847952216
 31
0.0
  0
LINE
  5
483
100
AcDbEntity
  8
RACCORDO
100
AcDbLine
 62
250
  6
CONTINUOUS
 10
-76.6890098832
 20
-3.3600177283
 30
0.0
 11
-76.6860382708
 21
-3.3228145371
 31
0.0
  0
LWPOLYLINE
  5
484
100
AcDbEntity
  8
RACCORDO
100
AcDbPolyline
 62
7
  6
CONTINUOUS
 90
22
 70
0
 10
-78.5567650414
 20
-2.0315947369
 10
-78.5580636165
 20
-2.0470277839
 10
-78.5581735478
 20
-2.0623515267
 10
-78.5570948353
 20
-2.0775659653
 10
-78.5548041552
 20
-2.0927760554
 10
-78.5513248312
 20
-2.1078768413
 10
-78.5467268346
 20
-2.1225534558
 10
-78.5410356206
 20
-2.1367353286
 10
-78.534225734
 20
-2.15049303
 10
-78.52629078
 20
-2.1637234045
 10
-78.5171914713
 20
-2.1764963403
 10
-78.5069670953
 20
-2.188741949
 10
-78.4957291185
 20
-2.2001474099
 10
-78.4834290118
 20
-2.2107082179
 10
-78.4701153044
 20
-2.2204288779
 10
-78.4560450499
 20
-2.2290100838
 10
-78.4413025247
 20
-2.2364164732
 10
-78.4258034525
 20
-2.2426834085
 10
-78.4095520572
 20
-2.2476176708
 10
-78.3925497469
 20
-2.2511548536
 10
-78.3747951135
 20
-2.2533593634
 10
-78.3562881571
 20
-2.2542312002
  0
LINE
  5
485
100
AcDbEntity
  8
RACCORDO
100
AcDbLine
 62
250
  6
CONTINUOUS
 10
-76.6921762341
 20
-3.3969063769
 30
0.0
 11
-76.6890098832
 21
-3.3600177283
 31
0.0
  0
LWPOLYLINE
  5
486
100
AcDbEntity
  8
RACCORDO
100
AcDbPolyline
 62
7
  6
CONTINUOUS
 90
19
 70
0
 10
-76.5513815338
 20
0.002000229
 10
-76.5480274305
 20
0.0159365852
 10
-76.5436995943
 20
0.0295410856
 10
-76.5383980252
 20
0.0428137301
 10
-76.5320945752
 20
0.0558359954
 10
-76.5248173923
 20
0.0685264048
 10
-76.516650921
 20
0.0806405288
 10
-76.5075831456
 20
0.0921632024
 10
-76.4976260817
 20
0.1031095907
 10
-76.4869002211
 20
0.1132807592
 10
-76.4754579233
 20
0.122652312
 10
-76.4632468288
 20
0.1312486449
 10
-76.4502303499
 20
0.138944011
 10
-76.4363309496
 20
0.1457975054
 10
-76.4216261649
 20
0.1517500328
 10
-76.4063120199
 20
0.1564985606
 10
-76.390453856
 20
0.1599420779
 10
-76.3739863318
 20
0.1621815955
 10
-76.3569094472
 20
0.1632171135
  0
LWPOLYLINE
  5
487
100
AcDbEntity
  8
RACCORDO
100
AcDbPolyline
 62
7
  6
CONTINUOUS
 90
7
 70
0
 10
-69.6636991279
 20
0.4656620758
 10
-69.6648245341
 20
0.4658393496
 10
-69.6680504973
 20
0.4659931147
 10
-69.6733770175
 20
0.4661233712
 10
-69.6809543774
 20
0.4662312086
 10
-69.6906322943
 20
0.4663155374
 10
-69.7148770931
 20
0.4664027419
  0
LWPOLYLINE
  5
488
100
AcDbEntity
  8
RACCORDO
100
AcDbPolyline
 62
250
  6
CONTINUOUS
 90
5
 70
0
 10
-77.2068940475
 20
-3.6863945858
 10
-77.1965309894
 20
-3.7074328425
 10
-77.1859840125
 20
-3.7277631148
 10
-77.1752531169
 20
-3.7473884846
 10
-77.1702600131
 20
-3.7560412483
  0
LWPOLYLINE
  5
489
100
AcDbEntity
  8
RACCORDO
100
AcDbPolyline
 62
250
  6
CONTINUOUS
 90
22
 70
0
 10
-92.0190217188
 20
36.9707203427
 10
-92.053344312
 20
37.0602938065
 10
-92.0891730753
 20
37.1498295658
 10
-92.1264913804
 20
37.2389836328
 10
-92.1655107093
 20
37.3275013054
 10
-92.2059877323
 20
37.4149294522
 10
-92.2472279886
 20
37.5006360321
 10
-92.2893401116
 20
37.5843422114
 10
-92.3321962247
 20
37.6656558481
 10
-92.374757917
 20
37.7438453204
 10
-92.4170491602
 20
37.8186347005
 10
-92.4590469331
 20
37.8898033324
 10
-92.4996555149
 20
37.9568287434
 10
-92.5388225591
 20
38.0195408489
 10
-92.576619987
 20
38.0778650542
 10
-92.612149046
 20
38.1315570289
 10
-92.6453000018
 20
38.1805480467
 10
-92.6762149629
 20
38.2249149966
 10
-92.7043774949
 20
38.2647145285
 10
-92.7296269018
 20
38.3000133528
 10
-92.7521580171
 20
38.3308851398
 10
-92.7719880726
 20
38.3574283874
  0
LWPOLYLINE
  5
48A
100
AcDbEntity
  8
RACCORDO
100
AcDbPolyline
 62
7
  6
CONTINUOUS
 90
19
 70
0
 10
-76.8933584011
 20
-8.9453360511
 10
-76.895762558
 20
-8.9304893404
 10
-76.8992860717
 20
-8.9159055926
 10
-76.9039289423
 20
-8.9015848076
 10
-76.9097163537
 20
-8.887420359
 10
-76.9166231219
 20
-8.8735188733
 10
-76.9245736955
 20
-8.86020023
 10
-76.9336051272
 20
-8.8474750369
 10
-76.9436803644
 20
-8.8353326861
 10
-76.9546126978
 20
-8.8240612336
 10
-76.9663215337
 20
-8.813719063
 10
-76.9788874658
 20
-8.8042477907
 10
-76.9923655662
 20
-8.7957603212
 10
-77.0068581071
 20
-8.7881765559
 10
-77.0222628162
 20
-8.7815765935
 10
-77.0383279498
 20
-8.7763136348
 10
-77.054969593
 20
-8.7725054136
 10
-77.0722716605
 20
-8.7700341961
 10
-77.0902341524
 20
-8.7688999823
  0
LINE
  5
48B
100
AcDbEntity
  8
0
100
AcDbLine
 62
7
  6
CONTINUOUS
 10
-75.1636991279
 20
-10.2560412483
 30
0.0
 11
-75.1636991279
 21
-11.2560412483
 31
0.0
  0
LINE
  5
48C
100
AcDbEntity
  8
0
100
AcDbLine
 62
7
  6
CONTINUOUS
 10
-75.1636991279
 20
-0.7560412483
 30
0.0
 11
-75.1636991279
 21
0.2439587517
 31
0.0
  0
LINE
  5
48D
100
AcDbEntity
  8
0
100
AcDbLine
 62
250
  6
CONTINUOUS
 10
-74.6636991279
 20
0.2439587517
 30
0.0
 11
-74.6636991279
 21
-0.7560412483
 31
0.0
  0
LINE
  5
48E
100
AcDbEntity
  8
0
100
AcDbLine
 62
250
  6
CONTINUOUS
 10
-74.6636991279
 20
-11.2560412483
 30
0.0
 11
-74.6636991279
 21
-10.2560412483
 31
0.0
  0
LINE
  5
48F
100
AcDbEntity
  8
DRAFT
100
AcDbLine
 62
7
  6
CONTINUOUS
 10
-74.5736991279
 20
-11.4287530554
 30
0.0
 11
-74.5736991279
 21
-11.4060412483
 31
0.0
  0
LINE
  5
490
100
AcDbEntity
  8
DRAFT
100
AcDbLine
 62
7
  6
CONTINUOUS
 10
-74.5736991279
 20
0.3939587517
 30
0.0
 11
-74.5736991279
 21
0.4166705588
 31
0.0
  0
LINE
  5
491
100
AcDbEntity
  8
RACCORDO
100
AcDbLine
 62
7
  6
CONTINUOUS
 10
-74.034528604
 20
-0.7560412483
 30
0.0
 11
-74.034528604
 21
-1.0560412483
 31
0.0
  0
LINE
  5
492
100
AcDbEntity
  8
DRAFT
100
AcDbLine
 62
7
  6
CONTINUOUS
 10
-74.034528604
 20
-2.5560412483
 30
0.0
 11
-74.034528604
 21
-3.7560412483
 31
0.0
  0
LINE
  5
493
100
AcDbEntity
  8
DRAFT
100
AcDbLine
 62
7
  6
CONTINUOUS
 10
-74.034528604
 20
-7.2560412483
 30
0.0
 11
-74.034528604
 21
-8.4560412483
 31
0.0
  0
LINE
  5
494
100
AcDbEntity
  8
RACCORDO
100
AcDbLine
 62
7
  6
CONTINUOUS
 10
-74.034528604
 20
-9.9560412483
 30
0.0
 11
-74.034528604
 21
-10.2560412483
 31
0.0
  0
LINE
  5
495
100
AcDbEntity
  8
DRAFT
100
AcDbLine
 62
7
  6
CONTINUOUS
 10
-72.7141710718
 20
0.3939587517
 30
0.0
 11
-72.7141710718
 21
0.2439587517
 31
0.0
  0
LINE
  5
496
100
AcDbEntity
  8
DRAFT
100
AcDbLine
 62
7
  6
CONTINUOUS
 10
-72.7141710718
 20
-0.7560412483
 30
0.0
 11
-72.7141710718
 21
-1.0560412483
 31
0.0
  0
LINE
  5
497
100
AcDbEntity
  8
DRAFT
100
AcDbLine
 62
7
  6
CONTINUOUS
 10
-72.7141710718
 20
-2.5560412483
 30
0.0
 11
-72.7141710718
 21
-3.7560412483
 31
0.0
  0
LINE
  5
498
100
AcDbEntity
  8
DRAFT
100
AcDbLine
 62
7
  6
CONTINUOUS
 10
-72.7141710718
 20
-7.2560412483
 30
0.0
 11
-72.7141710718
 21
-8.4560412483
 31
0.0
  0
LINE
  5
499
100
AcDbEntity
  8
DRAFT
100
AcDbLine
 62
7
  6
CONTINUOUS
 10
-72.7141710718
 20
-9.9560412483
 30
0.0
 11
-72.7141710718
 21
-10.2560412483
 31
0.0
  0
LINE
  5
49A
100
AcDbEntity
  8
DRAFT
100
AcDbLine
 62
7
  6
CONTINUOUS
 10
-72.7141710718
 20
-11.2560412483
 30
0.0
 11
-72.7141710718
 21
-11.4060412483
 31
0.0
  0
LINE
  5
49B
100
AcDbEntity
  8
DRAFT
100
AcDbLine
 62
7
  6
CONTINUOUS
 10
-72.5088310785
 20
-1.0691234024
 30
0.0
 11
-72.5088310785
 21
-2.5429590942
 31
0.0
  0
LINE
  5
49C
100
AcDbEntity
  8
DRAFT
100
AcDbLine
 62
7
  6
CONTINUOUS
 10
-72.5088310785
 20
-8.4691234024
 30
0.0
 11
-72.5088310785
 21
-9.9429590942
 31
0.0
  0
LINE
  5
49D
100
AcDbEntity
  8
RACCORDO
100
AcDbLine
 62
7
  6
CONTINUOUS
 10
-77.5642813668
 20
-31.0464990206
 30
0.0
 11
-77.5637729921
 21
-31.0433584504
 31
0.0
  0
LWPOLYLINE
  5
49E
100
AcDbEntity
  8
RACCORDO
100
AcDbPolyline
 62
7
  6
CONTINUOUS
 90
6
 70
0
 10
-77.5637732991
 20
-31.0433643895
 10
-77.563508747
 20
-31.041863415
 10
-77.5629048672
 20
-31.0386874863
 10
-77.5620910546
 20
-31.0346792104
 10
-77.5610739062
 20
-31.0299486995
 10
-77.559840673
 20
-31.02449524
  0
LWPOLYLINE
  5
49F
100
AcDbEntity
  8
RACCORDO
100
AcDbPolyline
 62
250
  6
CONTINUOUS
 90
24
 70
0
 10
-76.757446155
 20
-3.7560412483
 10
-76.7557673324
 20
-3.7521264435
 10
-76.7509154952
 20
-3.7397855629
 10
-76.7464458057
 20
-3.7275531514
 10
-76.7423569714
 20
-3.7154827078
 10
-76.7386502848
 20
-3.7035207335
 10
-76.7351730372
 20
-3.6913859423
 10
-76.7319070054
 20
-3.6790759
 10
-76.7288704126
 20
-3.666593041
 10
-76.7259652193
 20
-3.6536633821
 10
-76.7231722515
 20
-3.6402250788
 10
-76.7205106832
 20
-3.6263399758
 10
-76.7179399975
 20
-3.6119196239
 10
-76.715453439
 20
-3.5969264525
 10
-76.7130577632
 20
-3.5813980323
 10
-76.7107327192
 20
-3.5653586263
 10
-76.7084785011
 20
-3.5488206269
 10
-76.7062949149
 20
-3.5317716416
 10
-76.7041611271
 20
-3.5141987557
 10
-76.7020770919
 20
-3.4961283056
 10
-76.7000428552
 20
-3.4775339548
 10
-76.6980377207
 20
-3.458323779
 10
-76.6960547897
 20
-3.4384671366
 10
-76.6921762341
 20
-3.3969063769
  0
LWPOLYLINE
  5
4A0
100
AcDbEntity
  8
RACCORDO
100
AcDbPolyline
 62
250
  6
CONTINUOUS
 90
18
 70
0
 10
-76.8465842502
 20
-3.7560412483
 10
-76.8451551591
 20
-3.75345889
 10
-76.8396725754
 20
-3.7426077615
 10
-76.8348368799
 20
-3.7318570132
 10
-76.8305897922
 20
-3.7212538596
 10
-76.8268747504
 20
-3.7107949286
 10
-76.8237060452
 20
-3.7003373433
 10
-76.8210324374
 20
-3.6898961695
 10
-76.8187978206
 20
-3.6794430983
 10
-76.8169900585
 20
-3.6687523743
 10
-76.8155741233
 20
-3.6577498016
 10
-76.8144967607
 20
-3.6464228749
 10
-76.8137120647
 20
-3.6346162409
 10
-76.8132204403
 20
-3.6221967626
 10
-76.8129773543
 20
-3.6091558384
 10
-76.8128835716
 20
-3.5955384719
 10
-76.8129538216
 20
-3.5812889726
 10
-76.8134540326
 20
-3.5508748714
  0
LWPOLYLINE
  5
4A1
100
AcDbEntity
  8
RACCORDO
100
AcDbPolyline
 62
250
  6
CONTINUOUS
 90
5
 70
0
 10
-77.1702585382
 20
-7.2560412483
 10
-77.1754733301
 20
-7.2650872027
 10
-77.1861504399
 20
-7.2846249742
 10
-77.1966240124
 20
-7.3048242971
 10
-77.2068940475
 20
-7.3256879108
  0
LWPOLYLINE
  5
4A2
100
AcDbEntity
  8
RACCORDO
100
AcDbPolyline
 62
250
  6
CONTINUOUS
 90
25
 70
0
 10
-77.2068940475
 20
-7.3256879108
 10
-77.2313280206
 20
-7.3605222556
 10
-77.254951858
 20
-7.397670959
 10
-77.2777588647
 20
-7.437139097
 10
-77.2997347503
 20
-7.478924021
 10
-77.320881887
 20
-7.5230389174
 10
-77.3412194105
 20
-7.569513412
 10
-77.3607470418
 20
-7.6183374249
 10
-77.3794560055
 20
-7.6695331297
 10
-77.3973534296
 20
-7.7231799778
 10
-77.4144354734
 20
-7.7792712279
 10
-77.4306990752
 20
-7.8378264988
 10
-77.4461530765
 20
-7.8989665752
 10
-77.4607948695
 20
-7.9626832791
 10
-77.4746219037
 20
-8.0289972619
 10
-77.4876435423
 20
-8.0980745473
 10
-77.4998575024
 20
-8.1699022277
 10
-77.5112622893
 20
-8.244503128
 10
-77.5218687924
 20
-8.322098807
 10
-77.5316774819
 20
-8.4026682529
 10
-77.5406852
 20
-8.4862364886
 10
-77.5488976564
 20
-8.5730955514
 10
-77.5563224909
 20
-8.6632253975
 10
-77.5629502197
 20
-8.756638847
 10
-77.5634371526
 20
-8.7647704023
  0
LWPOLYLINE
  5
4A3
100
AcDbEntity
  8
RACCORDO
100
AcDbPolyline
 62
250
  6
CONTINUOUS
 90
10
 70
0
 10
-76.8168015188
 20
-3.3856744092
 10
-76.8534664424
 20
-3.4213573508
 10
-76.8921174486
 20
-3.4567382744
 10
-76.9326274328
 20
-3.4917008244
 10
-76.9748631874
 20
-3.5261300289
 10
-77.018685808
 20
-3.5599126527
 10
-77.0639511468
 20
-3.5929375705
 10
-77.1105103304
 20
-3.6250961673
 10
-77.1582102534
 20
-3.6562826929
 10
-77.2068940475
 20
-3.6863945858
  0
LINE
  5
4A4
100
AcDbEntity
  8
RACCORDO
100
AcDbLine
 62
7
  6
CONTINUOUS
 10
-77.550415628
 20
19.9755062004
 30
0.0
 11
-77.552671654
 21
19.9838474842
 31
0.0
  0
LINE
  5
4A5
100
AcDbEntity
  8
RACCORDO
100
AcDbLine
 62
250
  6
CONTINUOUS
 10
-77.5679836998
 20
20.0630064308
 30
0.0
 11
-77.5732963308
 21
20.0828502158
 31
0.0
  0
LINE
  5
4A6
100
AcDbEntity
  8
RACCORDO
100
AcDbLine
 62
7
  6
CONTINUOUS
 10
-77.552225335
 20
19.9821787057
 30
0.0
 11
-77.5548660227
 21
19.9921983674
 31
0.0
  0
LWPOLYLINE
  5
4A7
100
AcDbEntity
  8
RACCORDO
100
AcDbPolyline
 62
7
  6
CONTINUOUS
 90
8
 70
0
 10
-77.5545095099
 20
19.9908207668
 10
-77.5565310455
 20
19.9987252945
 10
-77.5583008816
 20
20.0059039614
 10
-77.5598283419
 20
20.012358544
 10
-77.5611052848
 20
20.0180087766
 10
-77.5621525097
 20
20.0228908546
 10
-77.5629824142
 20
20.026999682
 10
-77.5635858457
 20
20.0302032827
  0
LINE
  5
4A8
100
AcDbEntity
  8
RACCORDO
100
AcDbLine
 62
7
  6
CONTINUOUS
 10
-77.5635858457
 20
20.0302032827
 30
0.0
 11
-77.5640065359
 21
20.0326302666
 31
0.0
  0
LINE
  5
4A9
100
AcDbEntity
  8
RACCORDO
100
AcDbLine
 62
7
  6
CONTINUOUS
 10
-77.5640065359
 20
20.0326302666
 30
0.0
 11
-77.5641422332
 21
20.0334760791
 31
0.0
  0
LWPOLYLINE
  5
4AA
100
AcDbEntity
  8
RACCORDO
100
AcDbPolyline
 62
250
  6
CONTINUOUS
 90
7
 70
0
 10
-69.6636991279
 20
10.9840225826
 10
-69.6647826163
 20
10.9940892803
 10
-69.6680213434
 20
11.0040469093
 10
-69.6733802197
 20
11.0137875798
 10
-69.6808011843
 20
11.0232057525
 10
-69.6902038335
 20
11.0321993818
 10
-69.7014862917
 20
11.0406710219
  0
LWPOLYLINE
  5
4AB
100
AcDbEntity
  8
RACCORDO
100
AcDbPolyline
 62
250
  6
CONTINUOUS
 90
16
 70
0
 10
-69.6636991279
 20
11.0490690568
 10
-69.6647826186
 20
11.060826221
 10
-69.6680213516
 20
11.0724559988
 10
-69.6733802362
 20
11.0838323825
 10
-69.6808012102
 20
11.0948321098
 10
-69.6902038686
 20
11.1053359995
 10
-69.7014863349
 20
11.1152302426
 10
-69.714526365
 20
11.1244076355
 10
-69.7291826717
 20
11.1327687416
 10
-69.7452964552
 20
11.1402229686
 10
-69.7626931241
 20
11.1466895503
 10
-69.7811841872
 20
11.1520984216
 10
-69.8005692946
 20
11.1563909772
 10
-69.82063841
 20
11.1595207075
 10
-69.8411740863
 20
11.161453702
 10
-69.8619538208
 20
11.1621690166
  0
LWPOLYLINE
  5
4AC
100
AcDbEntity
  8
RACCORDO
100
AcDbPolyline
 62
250
  6
CONTINUOUS
 90
16
 70
0
 10
-69.6636991356
 20
14.9239087635
 10
-69.6647826138
 20
14.9383789962
 10
-69.6680213343
 20
14.9527307525
 10
-69.6733802013
 20
14.9667698135
 10
-69.6808011554
 20
14.9803440675
 10
-69.6902037942
 20
14.9933064378
 10
-69.7014862431
 20
15.0055164764
 10
-69.7145262602
 20
15.0168418879
 10
-69.7291825598
 20
15.0271599609
 10
-69.7452963421
 20
15.0363588976
 10
-69.7626930167
 20
15.0443390271
 10
-69.7811840924
 20
15.0510138839
 10
-69.8005692177
 20
15.0563111443
 10
-69.8206383549
 20
15.0601734121
 10
-69.841174057
 20
15.0625588391
 10
-69.8619538208
 20
15.0634415788
  0
LINE
  5
4AD
100
AcDbEntity
  8
RACCORDO
100
AcDbLine
 62
7
  6
CONTINUOUS
 10
-69.6656236132
 20
15.0155804278
 30
0.0
 11
-69.6769986891
 21
15.1681740464
 31
0.0
  0
LINE
  5
4AE
100
AcDbEntity
  8
RACCORDO
100
AcDbLine
 62
7
  6
CONTINUOUS
 10
-69.6636991356
 20
14.9239087634
 30
0.0
 11
-69.6656882993
 21
15.018661723
 31
0.0
  0
LINE
  5
4AF
100
AcDbEntity
  8
DRAFT
100
AcDbLine
 62
7
  6
CONTINUOUS
 10
-71.2408220977
 20
-1.0691234024
 30
0.0
 11
-71.2408220977
 21
-2.5429590942
 31
0.0
  0
LINE
  5
4B0
100
AcDbEntity
  8
DRAFT
100
AcDbLine
 62
7
  6
CONTINUOUS
 10
-71.2408220977
 20
-8.4691234024
 30
0.0
 11
-71.2408220977
 21
-9.9429590942
 31
0.0
  0
LINE
  5
4B1
100
AcDbEntity
  8
RACCORDO
100
AcDbLine
 62
250
  6
CONTINUOUS
 10
-69.8619538208
 20
15.0634415788
 30
0.0
 11
-69.8619538208
 21
0.4657101387
 31
0.0
  0
LINE
  5
4B2
100
AcDbEntity
  8
RACCORDO
100
AcDbLine
 62
250
  6
CONTINUOUS
 10
-69.8619538208
 20
-11.4777926353
 30
0.0
 11
-69.8619538208
 21
-26.0755240754
 31
0.0
  0
LINE
  5
4B3
100
AcDbEntity
  8
RACCORDO
100
AcDbLine
 62
7
  6
CONTINUOUS
 10
-69.6636991356
 20
14.9239087635
 30
0.0
 11
-69.6636991279
 21
0.4656620758
 31
0.0
  0
LINE
  5
4B4
100
AcDbEntity
  8
RACCORDO
100
AcDbLine
 62
7
  6
CONTINUOUS
 10
-69.6636991279
 20
-11.4777445725
 30
0.0
 11
-69.6636991279
 21
-25.935952541
 31
0.0
  0
LINE
  5
4B5
100
AcDbEntity
  8
DRAFT
100
AcDbLine
 62
7
  6
CONTINUOUS
 10
-69.6636991279
 20
-11.4719759131
 30
0.0
 11
-69.6636991279
 21
-11.4331269861
 31
0.0
  0
LINE
  5
4B6
100
AcDbEntity
  8
DRAFT
100
AcDbLine
 62
7
  6
CONTINUOUS
 10
-69.6636991279
 20
0.4210444895
 30
0.0
 11
-69.6636991279
 21
0.4598934165
 31
0.0
  0
LINE
  5
4B7
100
AcDbEntity
  8
0
100
AcDbLine
 62
250
  6
CONTINUOUS
 10
-68.7636991279
 20
0.2439587517
 30
0.0
 11
-68.7636991279
 21
-0.7560412483
 31
0.0
  0
LINE
  5
4B8
100
AcDbEntity
  8
0
100
AcDbLine
 62
250
  6
CONTINUOUS
 10
-68.7636991279
 20
-11.2560412483
 30
0.0
 11
-68.7636991279
 21
-10.2560412483
 31
0.0
  0
LINE
  5
4B9
100
AcDbEntity
  8
RACCORDO
100
AcDbLine
 62
7
  6
CONTINUOUS
 10
-69.6654843793
 20
-26.0257662839
 30
0.0
 11
-69.6636991365
 21
-25.9359933966
 31
0.0
  0
LINE
  5
4BA
100
AcDbEntity
  8
RACCORDO
100
AcDbLine
 62
7
  6
CONTINUOUS
 10
-69.6656882993
 20
-26.0307442196
 30
0.0
 11
-69.6656236132
 21
-26.0276629244
 31
0.0
  0
LWPOLYLINE
  5
4BB
100
AcDbEntity
  8
RACCORDO
100
AcDbPolyline
 62
250
  6
CONTINUOUS
 90
21
 70
0
 10
-69.8619538208
 20
-26.0755240754
 10
-69.8667788902
 20
-26.2127729332
 10
-69.8800512543
 20
-26.3473175963
 10
-69.9017709131
 20
-26.4791895599
 10
-69.931986236
 20
-26.6083743397
 10
-69.9706488536
 20
-26.7349498194
 10
-70.0176136578
 20
-26.8590832893
 10
-70.0730196421
 20
-26.9812052805
 10
-70.1367278129
 20
-27.1009372549
 10
-70.2081760816
 20
-27.2172502255
 10
-70.2872652059
 20
-27.3299670573
 10
-70.3740944281
 20
-27.4393627362
 10
-70.4683993871
 20
-27.5451122791
 10
-70.5702675578
 20
-27.6473681937
 10
-70.6796114652
 20
-27.7460799633
 10
-70.7959043236
 20
-27.840634571
 10
-70.9192969418
 20
-27.9311303176
 10
-71.0496385109
 20
-28.0175854459
 10
-71.1859498191
 20
-28.0992873099
 10
-71.3279044624
 20
-28.1760454724
 10
-71.4758288447
 20
-28.2481783415
  0
LWPOLYLINE
  5
4BC
100
AcDbEntity
  8
RACCORDO
100
AcDbPolyline
 62
250
  6
CONTINUOUS
 90
20
 70
0
 10
-77.7465013461
 20
-31.1321854837
 10
-77.748613444
 20
-31.1428832302
 10
-77.7504795053
 20
-31.1527545682
 10
-77.752115474
 20
-31.1618431394
 10
-77.7535697478
 20
-31.1701965749
 10
-77.75484383
 20
-31.1778550771
 10
-77.7559355343
 20
-31.1848561943
 10
-77.7568877095
 20
-31.1912413505
 10
-77.7577018554
 20
-31.1970481629
 10
-77.7583757048
 20
-31.2023120036
 10
-77.7589464459
 20
-31.2070692064
 10
-77.7594155279
 20
-31.2113544369
 10
-77.7597806964
 20
-31.2152004466
 10
-77.7600735797
 20
-31.2186392472
 10
-77.7602955474
 20
-31.2217022118
 10
-77.7604444279
 20
-31.2244190223
 10
-77.7605465395
 20
-31.2268177625
 10
-77.7606103986
 20
-31.2289258919
 10
-77.7606267262
 20
-31.2307699249
 10
-77.7605491954
 20
-31.2343733114
  0
LINE
  5
4BD
100
AcDbEntity
  8
RACCORDO
100
AcDbLine
 62
250
  6
CONTINUOUS
 10
-77.7415887323
 20
-31.108154885
 30
0.0
 11
-77.7465013461
 21
-31.1321854837
 31
0.0
  0
LINE
  5
4BE
100
AcDbEntity
  8
RACCORDO
100
AcDbLine
 62
7
  6
CONTINUOUS
 10
-77.559840673
 20
-31.02449524
 30
0.0
 11
-77.5580800424
 21
-31.0170749768
 31
0.0
  0
LINE
  5
4BF
100
AcDbEntity
  8
RACCORDO
100
AcDbLine
 62
7
  6
CONTINUOUS
 10
-77.5583724977
 20
-31.0182861104
 30
0.0
 11
-77.5563235265
 21
-31.0099832621
 31
0.0
  0
LINE
  5
4C0
100
AcDbEntity
  8
RACCORDO
100
AcDbLine
 62
7
  6
CONTINUOUS
 10
-77.5566772439
 20
-31.011394686
 30
0.0
 11
-77.5543228514
 21
-31.0021865322
 31
0.0
  0
LINE
  5
4C1
100
AcDbEntity
  8
RACCORDO
100
AcDbLine
 62
7
  6
CONTINUOUS
 10
-77.5547460257
 20
-31.0038172007
 30
0.0
 11
-77.5520672064
 21
-30.9936725133
 31
0.0
  0
LINE
  5
4C2
100
AcDbEntity
  8
RACCORDO
100
AcDbLine
 62
250
  6
CONTINUOUS
 10
-77.5679839975
 20
-31.0750903498
 30
0.0
 11
-77.5732969406
 21
-31.0949346207
 31
0.0
  0
LINE
  5
4C3
100
AcDbEntity
  8
RACCORDO
100
AcDbLine
 62
7
  6
CONTINUOUS
 10
-77.5525685544
 20
-30.9955437915
 30
0.0
 11
-77.5504399388
 21
-30.9876775574
 31
0.0
  0
LWPOLYLINE
  5
4C4
100
AcDbEntity
  8
RACCORDO
100
AcDbPolyline
 62
7
  6
CONTINUOUS
 90
18
 70
0
 10
-77.5504166128
 20
-30.9875923006
 10
-77.5452725566
 20
-30.9703181519
 10
-77.5285829187
 20
-30.92632641
 10
-77.506502107
 20
-30.8816326546
 10
-77.479115808
 20
-30.8365728542
 10
-77.446556168
 20
-30.7914478855
 10
-77.4089233693
 20
-30.7464341807
 10
-77.3664169097
 20
-30.7018125346
 10
-77.3192555175
 20
-30.6578365526
 10
-77.2674565338
 20
-30.6145490582
 10
-77.2112563696
 20
-30.572191666
 10
-77.1508449541
 20
-30.5309477226
 10
-77.0859886169
 20
-30.4907275571
 10
-77.0168655531
 20
-30.4517362333
 10
-76.9436117255
 20
-30.4141435504
 10
-76.8657513939
 20
-30.3778372163
 10
-76.7831977087
 20
-30.3429477316
 10
-76.6963364418
 20
-30.3098077145
  0
LINE
  5
4C5
100
AcDbEntity
  8
RACCORDO
100
AcDbLine
 62
250
  6
CONTINUOUS
 10
-85.1636991279
 20
11.1512664488
 30
0.0
 11
-69.8619538208
 21
11.0808609239
 31
0.0
  0
LINE
  5
4C6
100
AcDbEntity
  8
0
100
AcDbLine
 62
7
  6
CONTINUOUS
 10
-61.3636991279
 20
-4.1241022483
 30
0.0
 11
-61.7317601279
 21
-3.7560412483
 31
0.0
  0
LWPOLYLINE
  5
4C7
100
AcDbEntity
  8
RACCORDO
100
AcDbPolyline
 62
7
  6
CONTINUOUS
 90
4
 70
0
 10
-77.506502107
 20
19.869550158
 10
-77.5285829187
 20
19.9142439134
 10
-77.5452725566
 20
19.9582356552
 10
-77.5457731744
 20
19.9599167698
  0
LWPOLYLINE
  5
4C8
100
AcDbEntity
  8
RACCORDO
100
AcDbPolyline
 62
250
  6
CONTINUOUS
 90
13
 70
0
 10
-77.5732963308
 20
20.0828502158
 10
-77.5806540145
 20
20.1020429367
 10
-77.5899777568
 20
20.1203784414
 10
-77.6011674442
 20
20.1376597791
 10
-77.6141029214
 20
20.1537013197
 10
-77.6286452743
 20
20.1683307392
 10
-77.6446383188
 20
20.1813908733
 10
-77.6619102939
 20
20.1927414205
 10
-77.6802756921
 20
20.2022604353
 10
-77.6995372403
 20
20.209845638
 10
-77.7194880451
 20
20.2154155296
 10
-77.7399138182
 20
20.2189102613
 10
-77.7605951597
 20
20.220292271
  0
LWPOLYLINE
  5
4C9
100
AcDbEntity
  8
RACCORDO
100
AcDbPolyline
 62
250
  6
CONTINUOUS
 90
16
 70
0
 10
-77.7415887323
 20
20.0960723884
 10
-77.7206662979
 20
20.0328726384
 10
-77.6929809952
 20
19.9703559784
 10
-77.6585328243
 20
19.9085494512
 10
-77.61734395
 20
19.8474338086
 10
-77.5693922076
 20
19.7870799404
 10
-77.514611102
 20
19.7276518939
 10
-77.4528249565
 20
19.6689697442
 10
-77.3842094479
 20
19.6112646589
 10
-77.3092251116
 20
19.5553324915
 10
-77.227580506
 20
19.5011703827
 10
-77.1395670727
 20
19.4488548113
 10
-77.046519672
 20
19.3993254483
 10
-76.9488832574
 20
19.3529305943
 10
-76.8462128755
 20
19.3094120065
 10
-76.7385085262
 20
19.2688086917
  0
LWPOLYLINE
  5
4CA
100
AcDbEntity
  8
RACCORDO
100
AcDbPolyline
 62
250
  6
CONTINUOUS
 90
14
 70
0
 10
-77.5504400262
 20
19.9755953798
 10
-77.5549481847
 20
19.9893586862
 10
-77.5623351965
 20
20.0056405637
 10
-77.57167419
 20
20.0210286156
 10
-77.582864469
 20
20.035356897
 10
-77.5957853665
 20
20.0484708771
 10
-77.610297548
 20
20.0602291166
 10
-77.6262445266
 20
20.0705048028
 10
-77.6434543335
 20
20.0791871022
 10
-77.6617413749
 20
20.0861823623
 10
-77.6809084434
 20
20.0914151259
 10
-77.7007488343
 20
20.0948289403
 10
-77.7210485738
 20
20.0963869685
 10
-77.7415887323
 20
20.0960723883
  0
LINE
  5
4CB
100
AcDbEntity
  8
0
100
AcDbLine
 62
7
  6
CONTINUOUS
 10
-68.2636991279
 20
0.2439587517
 30
0.0
 11
-68.2636991279
 21
-0.7560412483
 31
0.0
  0
LINE
  5
4CC
100
AcDbEntity
  8
0
100
AcDbLine
 62
7
  6
CONTINUOUS
 10
-68.2636991279
 20
-11.2560412483
 30
0.0
 11
-68.2636991279
 21
-10.2560412483
 31
0.0
  0
LINE
  5
4CD
100
AcDbEntity
  8
0
100
AcDbLine
 62
7
  6
CONTINUOUS
 10
-68.0636991279
 20
0.2439587517
 30
0.0
 11
-68.0636991279
 21
-0.7560412483
 31
0.0
  0
LINE
  5
4CE
100
AcDbEntity
  8
0
100
AcDbLine
 62
7
  6
CONTINUOUS
 10
-68.0636991279
 20
-11.2560412483
 30
0.0
 11
-68.0636991279
 21
-10.2560412483
 31
0.0
  0
LINE
  5
4CF
100
AcDbEntity
  8
0
100
AcDbLine
 62
7
  6
CONTINUOUS
 10
-66.9636991279
 20
0.2439587517
 30
0.0
 11
-66.9636991279
 21
-0.7560412483
 31
0.0
  0
LINE
  5
4D0
100
AcDbEntity
  8
0
100
AcDbLine
 62
7
  6
CONTINUOUS
 10
-66.9636991279
 20
-11.2560412483
 30
0.0
 11
-66.9636991279
 21
-10.2560412483
 31
0.0
  0
LINE
  5
4D1
100
AcDbEntity
  8
0
100
AcDbLine
 62
250
  6
CONTINUOUS
 10
-66.8636991279
 20
0.2439587517
 30
0.0
 11
-66.8636991279
 21
-0.7560412483
 31
0.0
  0
LINE
  5
4D2
100
AcDbEntity
  8
0
100
AcDbLine
 62
250
  6
CONTINUOUS
 10
-66.8636991279
 20
-11.2560412483
 30
0.0
 11
-66.8636991279
 21
-10.2560412483
 31
0.0
  0
LINE
  5
4D3
100
AcDbEntity
  8
0
100
AcDbLine
 62
7
  6
CONTINUOUS
 10
-66.8636991279
 20
-10.2560412483
 30
0.0
 11
-66.8636991279
 21
-0.7560412483
 31
0.0
  0
LINE
  5
4D4
100
AcDbEntity
  8
0
100
AcDbLine
 62
7
  6
CONTINUOUS
 10
-65.8636991279
 20
-10.2560412483
 30
0.0
 11
-65.8636991279
 21
-0.7560412483
 31
0.0
  0
LINE
  5
4D5
100
AcDbEntity
  8
0
100
AcDbLine
 62
250
  6
CONTINUOUS
 10
-65.7636991279
 20
-7.7560412483
 30
0.0
 11
-65.7636991279
 21
-3.2560412483
 31
0.0
  0
LINE
  5
4D6
100
AcDbEntity
  8
0
100
AcDbLine
 62
7
  6
CONTINUOUS
 10
-64.8636991279
 20
-7.7560412483
 30
0.0
 11
-64.8636991279
 21
-3.2560412483
 31
0.0
  0
LWPOLYLINE
  5
4D7
100
AcDbEntity
  8
RACCORDO
100
AcDbPolyline
 62
250
  6
CONTINUOUS
 90
16
 70
0
 10
-69.6636991365
 20
-25.9359933967
 10
-69.6647826278
 20
-25.9504615887
 10
-69.6680213874
 20
-25.9648134292
 10
-69.6733803142
 20
-25.9788525605
 10
-69.6808013449
 20
-25.9924268711
 10
-69.6902040716
 20
-26.005389281
 10
-69.7014866087
 20
-26.0175993367
 10
-69.7145267066
 20
-26.0289247436
 10
-69.7291830733
 20
-26.0392427936
 10
-69.7452968972
 20
-26.0484416888
 10
-69.7626935812
 20
-26.0564217634
 10
-69.7811846304
 20
-26.0630965586
 10
-69.8005696863
 20
-26.0683937563
 10
-69.8206387089
 20
-26.0722559678
 10
-69.8411742536
 20
-26.0746413538
 10
-69.8619538208
 20
-26.0755240754
  0
LINE
  5
4D8
100
AcDbEntity
  8
RACCORDO
100
AcDbLine
 62
7
  6
CONTINUOUS
 10
-69.6769986891
 20
-26.180256543
 30
0.0
 11
-69.6654843793
 21
-26.0257662839
 31
0.0
  0
LWPOLYLINE
  5
4D9
100
AcDbEntity
  8
RACCORDO
100
AcDbPolyline
 62
250
  6
CONTINUOUS
 90
16
 70
0
 10
-69.6636991279
 20
-22.0611515534
 10
-69.664782619
 20
-22.0729087197
 10
-69.6680213529
 20
-22.0845384991
 10
-69.673380239
 20
-22.095914884
 10
-69.6808012147
 20
-22.1069146122
 10
-69.6902038748
 20
-22.1174185023
 10
-69.7014863427
 20
-22.1273127454
 10
-69.7145263742
 20
-22.1364901379
 10
-69.7291826818
 20
-22.1448512434
 10
-69.7452964656
 20
-22.1523054696
 10
-69.7626931344
 20
-22.1587720504
 10
-69.7811841965
 20
-22.1641809206
 10
-69.8005693024
 20
-22.1684734753
 10
-69.8206384157
 20
-22.1716032049
 10
-69.8411740894
 20
-22.1735361988
 10
-69.8619538208
 20
-22.1742515132
  0
LWPOLYLINE
  5
4DA
100
AcDbEntity
  8
RACCORDO
100
AcDbPolyline
 62
250
  6
CONTINUOUS
 90
7
 70
0
 10
-69.6636991279
 20
-21.9961050792
 10
-69.6647826207
 20
-22.006171797
 10
-69.6680213592
 20
-22.0161294421
 10
-69.6733802516
 20
-22.0258701243
 10
-69.6808012345
 20
-22.035288304
 10
-69.6902039017
 20
-22.044281936
 10
-69.701486376
 20
-22.0527535751
  0
LINE
  5
4DB
100
AcDbEntity
  8
RACCORDO
100
AcDbLine
 62
7
  6
CONTINUOUS
 10
-69.6983178588
 20
-26.3283550054
 30
0.0
 11
-69.6764644451
 21
-26.1753365092
 31
0.0
  0
LWPOLYLINE
  5
4DC
100
AcDbEntity
  8
RACCORDO
100
AcDbPolyline
 62
250
  6
CONTINUOUS
 90
14
 70
0
 10
-77.5504393216
 20
-30.9876753042
 10
-77.5549477627
 20
-31.00144012
 10
-77.5623345176
 20
-31.0177218571
 10
-77.5716732509
 20
-31.0331098706
 10
-77.5828632926
 20
-31.0474382002
 10
-77.5957840036
 20
-31.0605523033
 10
-77.6102960714
 20
-31.072310721
 10
-77.6262430141
 20
-31.0825866128
 10
-77.6434528766
 20
-31.0912691268
 10
-77.6617400707
 20
-31.0982645881
 10
-77.680907369
 20
-31.1034975141
 10
-77.7007480554
 20
-31.1069114363
 10
-77.7210481563
 20
-31.1084695049
 10
-77.7415887322
 20
-31.1081548842
  0
LWPOLYLINE
  5
4DD
100
AcDbEntity
  8
RACCORDO
100
AcDbPolyline
 62
250
  6
CONTINUOUS
 90
13
 70
0
 10
-77.5732969406
 20
-31.0949346207
 10
-77.5806549901
 20
-31.1141276645
 10
-77.5899791106
 20
-31.1324633303
 10
-77.6011691501
 20
-31.1497446771
 10
-77.6141049143
 20
-31.1657860877
 10
-77.6286474587
 20
-31.1804152635
 10
-77.6446405823
 20
-31.1934750761
 10
-77.6619125023
 20
-31.2048252521
 10
-77.680277701
 20
-31.2143438816
 10
-77.6995389205
 20
-31.221928728
 10
-77.7194892776
 20
-31.2274983244
 10
-77.739914486
 20
-31.2309928487
 10
-77.7605951597
 20
-31.2323747678
  0
LINE
  5
4DE
100
AcDbEntity
  8
RACCORDO
100
AcDbLine
 62
250
  6
CONTINUOUS
 10
-85.1636991279
 20
11.2322322598
 30
0.0
 11
-69.8619538208
 21
11.1621690166
 31
0.0
  0
LWPOLYLINE
  5
4DF
100
AcDbEntity
  8
RACCORDO
100
AcDbPolyline
 62
250
  6
CONTINUOUS
 90
10
 70
0
 10
-69.7014862917
 20
11.0406710219
 10
-69.7145263158
 20
11.048528883
 10
-69.7291826193
 20
11.055687825
 10
-69.7452964024
 20
11.0620702805
 10
-69.7626930741
 20
11.0676070956
 10
-69.7811841432
 20
11.0722382788
 10
-69.800569259
 20
11.0759136507
 10
-69.8206383846
 20
11.0785933884
 10
-69.8411740728
 20
11.0802484571
 10
-69.8619538208
 20
11.0808609239
  0
LINE
  5
4E0
100
AcDbEntity
  8
RACCORDO
100
AcDbLine
 62
7
  6
CONTINUOUS
 10
-77.4089233693
 20
19.7343516841
 30
0.0
 11
-77.4484278297
 21
19.7817787891
 31
0.0
  0
LINE
  5
4E1
100
AcDbEntity
  8
RACCORDO
100
AcDbLine
 62
7
  6
CONTINUOUS
 10
-77.446556168
 20
19.7793653889
 30
0.0
 11
-77.4806973275
 21
19.8268803548
 31
0.0
  0
LINE
  5
4E2
100
AcDbEntity
  8
0
100
AcDbLine
 62
7
  6
CONTINUOUS
 10
-89.1636991279
 20
38.5939587517
 30
0.0
 11
-88.7136991279
 21
37.8512806375
 31
0.0
  0
LWPOLYLINE
  5
4E3
100
AcDbEntity
  8
RACCORDO
100
AcDbPolyline
 62
7
  6
CONTINUOUS
 90
5
 70
0
 10
-77.479115808
 20
19.8244903576
 10
-77.5077986785
 20
19.8719128473
 10
-77.5295970949
 20
19.9165777683
 10
-77.5460059305
 20
19.9605403706
 10
-77.550415628
 20
19.9755062004
  0
LWPOLYLINE
  5
4E4
100
AcDbEntity
  8
0
100
AcDbPolyline
 62
7
  6
CONTINUOUS
 90
10
 70
0
 43
0.3500000006
 10
-92.6637008972
 20
53.6740575714
 10
-92.5922697144
 20
53.5311997375
 10
-92.5922697144
 20
53.4597730865
 10
-92.7351320801
 20
53.3169152527
 10
-92.8065541992
 20
53.3169152527
 10
-92.8779853821
 20
53.3883419037
 10
-92.8779853821
 20
53.4597730865
 10
-92.8065541992
 20
53.6026263885
 10
-92.7351320801
 20
53.6740575714
 10
-92.6637008972
 20
53.6740575714
  0
LINE
  5
4E5
100
AcDbEntity
  8
RACCORDO
100
AcDbLine
 62
7
  6
CONTINUOUS
 10
-69.7694189996
 20
15.6019192579
 30
0.0
 11
-69.822071574
 21
15.7480503474
 31
0.0
  0
LINE
  5
4E6
100
AcDbEntity
  8
RACCORDO
100
AcDbLine
 62
7
  6
CONTINUOUS
 10
-69.7284572693
 20
15.4577745128
 30
0.0
 11
-69.7709358157
 21
15.6066205076
 31
0.0
  0
LINE
  5
4E7
100
AcDbEntity
  8
RACCORDO
100
AcDbLine
 62
7
  6
CONTINUOUS
 10
-69.6974550378
 20
15.3114180956
 30
0.0
 11
-69.7296476864
 21
15.4625566115
 31
0.0
  0
LINE
  5
4E8
100
AcDbEntity
  8
RACCORDO
100
AcDbLine
 62
7
  6
CONTINUOUS
 10
-69.6764644451
 20
15.1632540126
 30
0.0
 11
-69.6983178588
 21
15.3162725088
 31
0.0
  0
LINE
  5
4E9
100
AcDbEntity
  8
0
100
AcDbLine
 62
7
  6
CONTINUOUS
 10
-61.7317601279
 20
-3.7560412483
 30
0.0
 11
-61.7317601279
 21
-7.2560412483
 31
0.0
  0
LINE
  5
4EA
100
AcDbEntity
  8
0
100
AcDbLine
 62
7
  6
CONTINUOUS
 10
-61.3636991279
 20
-4.1241022483
 30
0.0
 11
-61.3636991279
 21
-6.8879802483
 31
0.0
  0
LINE
  5
4EB
100
AcDbEntity
  8
RACCORDO
100
AcDbLine
 62
7
  6
CONTINUOUS
 10
-69.7296476864
 20
-26.4746391081
 30
0.0
 11
-69.6974550378
 21
-26.3235005922
 31
0.0
  0
LINE
  5
4EC
100
AcDbEntity
  8
RACCORDO
100
AcDbLine
 62
7
  6
CONTINUOUS
 10
-69.7709358157
 20
-26.6187030042
 30
0.0
 11
-69.7284572693
 21
-26.4698570094
 31
0.0
  0
LINE
  5
4ED
100
AcDbEntity
  8
RACCORDO
100
AcDbLine
 62
7
  6
CONTINUOUS
 10
-69.822071574
 20
-26.7601328441
 30
0.0
 11
-69.7694189996
 21
-26.6140017545
 31
0.0
  0
LINE
  5
4EE
100
AcDbEntity
  8
0
100
AcDbLine
 62
7
  6
CONTINUOUS
 10
-89.1636991279
 20
-49.6060412483
 30
0.0
 11
-88.7136991279
 21
-48.8633631341
 31
0.0
  0
LINE
  5
4EF
100
AcDbEntity
  8
RACCORDO
100
AcDbLine
 62
7
  6
CONTINUOUS
 10
-88.7136991279
 20
-48.8633631341
 30
0.0
 11
-89.1636991279
 21
-49.6060412483
 31
0.0
  0
LINE
  5
4F0
100
AcDbEntity
  8
0
100
AcDbLine
 62
7
  6
CONTINUOUS
 10
-61.3636991279
 20
-6.8879802483
 30
0.0
 11
-61.7317601279
 21
-7.2560412483
 31
0.0
  0
LINE
  5
4F1
100
AcDbEntity
  8
RACCORDO
100
AcDbLine
 62
7
  6
CONTINUOUS
 10
-77.0168655531
 20
19.4396537367
 30
0.0
 11
-77.0899962924
 21
19.4810226557
 31
0.0
  0
LINE
  5
4F2
100
AcDbEntity
  8
RACCORDO
100
AcDbLine
 62
7
  6
CONTINUOUS
 10
-77.0859886169
 20
19.4786450605
 30
0.0
 11
-77.1545396109
 21
19.5212760206
 31
0.0
  0
LINE
  5
4F3
100
AcDbEntity
  8
RACCORDO
100
AcDbLine
 62
7
  6
CONTINUOUS
 10
-77.1508449541
 20
19.5188652259
 30
0.0
 11
-77.2146365808
 21
19.5625388825
 31
0.0
  0
LINE
  5
4F4
100
AcDbEntity
  8
RACCORDO
100
AcDbLine
 62
7
  6
CONTINUOUS
 10
-77.2112563696
 20
19.5601091694
 30
0.0
 11
-77.270525309
 21
19.6049074242
 31
0.0
  0
LINE
  5
4F5
100
AcDbEntity
  8
RACCORDO
100
AcDbLine
 62
7
  6
CONTINUOUS
 10
-77.2674565338
 20
19.6024665616
 30
0.0
 11
-77.3220174817
 21
19.6481989436
 31
0.0
  0
LINE
  5
4F6
100
AcDbEntity
  8
RACCORDO
100
AcDbLine
 62
7
  6
CONTINUOUS
 10
-77.3192555175
 20
19.645754056
 30
0.0
 11
-77.3688779193
 21
19.6921706524
 31
0.0
  0
LINE
  5
4F7
100
AcDbEntity
  8
RACCORDO
100
AcDbLine
 62
7
  6
CONTINUOUS
 10
-70.3230767928
 20
16.5190820799
 30
0.0
 11
-70.4416938504
 21
16.6371201748
 31
0.0
  0
LINE
  5
4F8
100
AcDbEntity
  8
RACCORDO
100
AcDbLine
 62
7
  6
CONTINUOUS
 10
-77.3664169097
 20
19.689730038
 30
0.0
 11
-77.4110887287
 21
19.7367819356
 31
0.0
  0
LINE
  5
4F9
100
AcDbEntity
  8
RACCORDO
100
AcDbLine
 62
7
  6
CONTINUOUS
 10
-70.2167828469
 20
16.4000572589
 30
0.0
 11
-70.3267365528
 21
16.5229390085
 31
0.0
  0
LINE
  5
4FA
100
AcDbEntity
  8
RACCORDO
100
AcDbLine
 62
7
  6
CONTINUOUS
 10
-70.1191469524
 20
16.2765698062
 30
0.0
 11
-70.2201566686
 21
16.4040600074
 31
0.0
  0
LINE
  5
4FB
100
AcDbEntity
  8
RACCORDO
100
AcDbLine
 62
7
  6
CONTINUOUS
 10
-70.0304476338
 20
16.1488836896
 30
0.0
 11
-70.1222253679
 21
16.2807113169
 31
0.0
  0
LINE
  5
4FC
100
AcDbEntity
  8
RACCORDO
100
AcDbLine
 62
7
  6
CONTINUOUS
 10
-69.9509284932
 20
16.0172598147
 30
0.0
 11
-70.0332261739
 21
16.1531550852
 31
0.0
  0
LINE
  5
4FD
100
AcDbEntity
  8
RACCORDO
100
AcDbLine
 62
7
  6
CONTINUOUS
 10
-69.8807877495
 20
15.8819948432
 30
0.0
 11
-69.9533994009
 21
16.0216533079
 31
0.0
  0
LINE
  5
4FE
100
AcDbEntity
  8
RACCORDO
100
AcDbLine
 62
7
  6
CONTINUOUS
 10
-69.8202325124
 20
15.743440552
 30
0.0
 11
-69.8829440605
 21
15.886501733
 31
0.0
  0
LINE
  5
4FF
100
AcDbEntity
  8
0
100
AcDbLine
 62
250
  6
CONTINUOUS
 10
-59.5636991279
 20
-6.7560412483
 30
0.0
 11
-59.5636991279
 21
-4.2560412483
 31
0.0
  0
LINE
  5
500
100
AcDbEntity
  8
0
100
AcDbLine
 62
7
  6
CONTINUOUS
 10
-59.3636991279
 20
-4.4560412483
 30
0.0
 11
-59.3636991279
 21
-6.5560412483
 31
0.0
  0
LINE
  5
501
100
AcDbEntity
  8
RACCORDO
100
AcDbLine
 62
7
  6
CONTINUOUS
 10
-69.8829440605
 20
-26.8985842296
 30
0.0
 11
-69.8202325124
 21
-26.7555230486
 31
0.0
  0
LINE
  5
502
100
AcDbEntity
  8
RACCORDO
100
AcDbLine
 62
7
  6
CONTINUOUS
 10
-69.9533994009
 20
-27.0337358045
 30
0.0
 11
-69.8807877495
 21
-26.8940773398
 31
0.0
  0
LINE
  5
503
100
AcDbEntity
  8
RACCORDO
100
AcDbLine
 62
7
  6
CONTINUOUS
 10
-85.1636991279
 20
20.3590486218
 30
0.0
 11
-77.7602086466
 21
20.2298202148
 31
0.0
  0
LINE
  5
504
100
AcDbEntity
  8
RACCORDO
100
AcDbLine
 62
250
  6
CONTINUOUS
 10
-77.7415887323
 20
20.0960723884
 30
0.0
 11
-85.1636991279
 21
20.2281922024
 31
0.0
  0
LWPOLYLINE
  5
505
100
AcDbEntity
  8
RACCORDO
100
AcDbPolyline
 62
250
  6
CONTINUOUS
 90
8
 70
0
 10
-71.5552177504
 20
17.3338641708
 10
-71.5629340363
 20
17.3360346072
 10
-71.572676302
 20
17.3363629884
 10
-71.5831565835
 20
17.3343389958
 10
-71.5942433161
 20
17.3299880444
 10
-71.6057973244
 20
17.3233647606
 10
-71.6176735691
 20
17.3145522942
 10
-71.6297229661
 20
17.303661276
  0
LWPOLYLINE
  5
506
100
AcDbEntity
  8
RACCORDO
100
AcDbPolyline
 62
250
  6
CONTINUOUS
 90
8
 70
0
 10
-76.6738471735
 20
19.2896972982
 10
-76.6753599826
 20
19.2901953452
 10
-76.6847154547
 20
19.2918977153
 10
-76.6946927744
 20
19.2914631469
 10
-76.7051802287
 20
19.2888965056
 10
-76.7160603924
 20
19.2842265296
 10
-76.7272114433
 20
19.2775055071
 10
-76.7385085262
 20
19.2688086917
  0
LWPOLYLINE
  5
507
100
AcDbEntity
  8
RACCORDO
100
AcDbPolyline
 62
250
  6
CONTINUOUS
 90
5
 70
0
 10
-76.7385085262
 20
19.2688086917
 10
-76.3543666805
 20
19.131789388
 10
-75.9820426388
 20
18.9973278976
 10
-75.6215364011
 20
18.8655794205
 10
-75.2728521806
 20
18.7366930275
  0
LINE
  5
508
100
AcDbEntity
  8
RACCORDO
100
AcDbLine
 62
7
  6
CONTINUOUS
 10
-76.1493869789
 20
19.1034409617
 30
0.0
 11
-76.7018190909
 21
19.2997158468
 31
0.0
  0
LINE
  5
509
100
AcDbEntity
  8
RACCORDO
100
AcDbLine
 62
7
  6
CONTINUOUS
 10
-75.5633225562
 20
18.8915122367
 30
0.0
 11
-76.1550027439
 21
19.1054523491
 31
0.0
  0
LINE
  5
50A
100
AcDbEntity
  8
RACCORDO
100
AcDbLine
 62
7
  6
CONTINUOUS
 10
-74.9781497734
 20
18.6759018207
 30
0.0
 11
-75.5689218921
 21
18.8935560016
 31
0.0
  0
LINE
  5
50B
100
AcDbEntity
  8
RACCORDO
100
AcDbLine
 62
7
  6
CONTINUOUS
 10
-74.3938947766
 20
18.4566272647
 30
0.0
 11
-74.9837378805
 21
18.6779797667
 31
0.0
  0
LINE
  5
50C
100
AcDbEntity
  8
RACCORDO
100
AcDbLine
 62
250
  6
CONTINUOUS
 10
-75.2728521806
 20
18.7366930275
 30
0.0
 11
-74.6109245125
 21
18.488073089
 31
0.0
  0
LINE
  5
50D
100
AcDbEntity
  8
RACCORDO
100
AcDbLine
 62
7
  6
CONTINUOUS
 10
-73.8105839483
 20
18.233705059
 30
0.0
 11
-74.3994767227
 21
18.4587411574
 31
0.0
  0
LINE
  5
50E
100
AcDbEntity
  8
RACCORDO
100
AcDbLine
 62
7
  6
CONTINUOUS
 10
-76.6974894547
 20
19.2981651247
 30
0.0
 11
-76.7884119389
 21
19.3329675339
 31
0.0
  0
LINE
  5
50F
100
AcDbEntity
  8
RACCORDO
100
AcDbLine
 62
250
  6
CONTINUOUS
 10
-74.6109245125
 20
18.488073089
 30
0.0
 11
-73.9962180695
 21
18.2525374009
 31
0.0
  0
LINE
  5
510
100
AcDbEntity
  8
RACCORDO
100
AcDbLine
 62
7
  6
CONTINUOUS
 10
-73.2282437501
 20
18.0071506017
 30
0.0
 11
-73.8161638875
 21
18.235856521
 31
0.0
  0
LINE
  5
511
100
AcDbEntity
  8
RACCORDO
100
AcDbLine
 62
250
  6
CONTINUOUS
 10
-73.9962180695
 20
18.2525374009
 30
0.0
 11
-73.4286918995
 21
18.0310976677
 31
0.0
  0
LINE
  5
512
100
AcDbEntity
  8
RACCORDO
100
AcDbLine
 62
7
  6
CONTINUOUS
 10
-72.6468997442
 20
17.7769776265
 30
0.0
 11
-73.2338258595
 21
18.0093412891
 31
0.0
  0
LINE
  5
513
100
AcDbEntity
  8
RACCORDO
100
AcDbLine
 62
250
  6
CONTINUOUS
 10
-73.4286918995
 20
18.0310976677
 30
0.0
 11
-72.908318803
 21
17.8246727153
 31
0.0
  0
LINE
  5
514
100
AcDbEntity
  8
RACCORDO
100
AcDbLine
 62
7
  6
CONTINUOUS
 10
-72.0692261472
 20
17.5442659121
 30
0.0
 11
-72.6524891402
 21
17.779209766
 31
0.0
  0
LINE
  5
515
100
AcDbEntity
  8
RACCORDO
100
AcDbLine
 62
250
  6
CONTINUOUS
 10
-72.908318803
 20
17.8246727153
 30
0.0
 11
-72.4350573378
 21
17.6341170818
 31
0.0
  0
LINE
  5
516
100
AcDbEntity
  8
RACCORDO
100
AcDbLine
 62
250
  6
CONTINUOUS
 10
-72.4350573378
 20
17.6341170818
 30
0.0
 11
-72.0088631809
 21
17.4602231229
 31
0.0
  0
LINE
  5
517
100
AcDbEntity
  8
RACCORDO
100
AcDbLine
 62
7
  6
CONTINUOUS
 10
-71.5552121868
 20
17.3338618767
 30
0.0
 11
-72.0721800954
 21
17.5454750673
 31
0.0
  0
LINE
  5
518
100
AcDbEntity
  8
RACCORDO
100
AcDbLine
 62
250
  6
CONTINUOUS
 10
-72.0088631809
 20
17.4602231229
 30
0.0
 11
-71.6297229661
 21
17.303661276
 31
0.0
  0
LINE
  5
519
100
AcDbEntity
  8
RACCORDO
100
AcDbLine
 62
7
  6
CONTINUOUS
 10
-76.7831977087
 20
19.330865235
 30
0.0
 11
-76.8706805614
 21
19.367951359
 31
0.0
  0
LINE
  5
51A
100
AcDbEntity
  8
RACCORDO
100
AcDbLine
 62
7
  6
CONTINUOUS
 10
-71.448317433
 20
17.2881442763
 30
0.0
 11
-71.5552172669
 21
17.3338639715
 31
0.0
  0
LINE
  5
51B
100
AcDbEntity
  8
RACCORDO
100
AcDbLine
 62
250
  6
CONTINUOUS
 10
-71.6297229661
 20
17.303661276
 30
0.0
 11
-71.481036735
 21
17.2384879216
 31
0.0
  0
LINE
  5
51C
100
AcDbEntity
  8
RACCORDO
100
AcDbLine
 62
7
  6
CONTINUOUS
 10
-71.2841013951
 20
17.2111875808
 30
0.0
 11
-71.4538467089
 21
17.2905910349
 31
0.0
  0
LINE
  5
51D
100
AcDbEntity
  8
RACCORDO
100
AcDbLine
 62
7
  6
CONTINUOUS
 10
-76.8657513939
 20
19.3657547196
 30
0.0
 11
-76.9482404452
 21
19.4043332591
 31
0.0
  0
LWPOLYLINE
  5
51E
100
AcDbEntity
  8
RACCORDO
100
AcDbPolyline
 62
250
  6
CONTINUOUS
 90
21
 70
0
 10
-71.481036735
 20
17.2384879216
 10
-71.3379644134
 20
17.1691007918
 10
-71.2005060013
 20
17.0954485287
 10
-71.0688047371
 20
17.0176684679
 10
-70.9427173825
 20
16.9355142819
 10
-70.821814222
 20
16.8483465348
 10
-70.7052722067
 20
16.7554529419
 10
-70.5939143855
 20
16.6573926903
 10
-70.4897801906
 20
16.5554425897
 10
-70.3933816756
 20
16.4498681696
 10
-70.3042067869
 20
16.3402919477
 10
-70.2227587949
 20
16.2270537886
 10
-70.1489836302
 20
16.1100071026
 10
-70.0829353622
 20
15.9891888987
 10
-70.0252794706
 20
15.8652331125
 10
-69.9760511581
 20
15.7380113287
 10
-69.935215222
 20
15.6075643517
 10
-69.9033315331
 20
15.4748109041
 10
-69.8805867151
 20
15.3400487291
 10
-69.8667941443
 20
15.2029339696
 10
-69.8619538208
 20
15.0634415788
  0
LINE
  5
51F
100
AcDbEntity
  8
RACCORDO
100
AcDbLine
 62
7
  6
CONTINUOUS
 10
-76.9436117255
 20
19.4020610538
 30
0.0
 11
-77.0211844649
 21
19.4419847082
 31
0.0
  0
LINE
  5
520
100
AcDbEntity
  8
RACCORDO
100
AcDbLine
 62
7
  6
CONTINUOUS
 10
-71.1258513115
 20
17.1284925714
 30
0.0
 11
-71.2894478589
 21
17.213830445
 31
0.0
  0
LINE
  5
521
100
AcDbEntity
  8
RACCORDO
100
AcDbLine
 62
7
  6
CONTINUOUS
 10
-70.974024064
 20
17.0401910902
 30
0.0
 11
-71.1310014738
 21
17.131327917
 31
0.0
  0
LINE
  5
522
100
AcDbEntity
  8
RACCORDO
100
AcDbLine
 62
7
  6
CONTINUOUS
 10
-70.8289808782
 20
16.9464088283
 30
0.0
 11
-70.9789618769
 21
17.0432141107
 31
0.0
  0
LINE
  5
523
100
AcDbEntity
  8
RACCORDO
100
AcDbLine
 62
7
  6
CONTINUOUS
 10
-70.69103341
 20
16.8472592214
 30
0.0
 11
-70.8336877932
 21
16.949612696
 31
0.0
  0
LINE
  5
524
100
AcDbEntity
  8
RACCORDO
100
AcDbLine
 62
7
  6
CONTINUOUS
 10
-70.5605161548
 20
16.7428703313
 30
0.0
 11
-70.6954966532
 21
16.8506358697
 31
0.0
  0
LINE
  5
525
100
AcDbEntity
  8
RACCORDO
100
AcDbLine
 62
7
  6
CONTINUOUS
 10
-70.4377573233
 20
16.6334162659
 30
0.0
 11
-70.5647226158
 21
16.746413324
 31
0.0
  0
LINE
  5
526
100
AcDbEntity
  8
RACCORDO
100
AcDbLine
 62
7
  6
CONTINUOUS
 10
-70.0332261739
 20
-27.1652375818
 30
0.0
 11
-69.9509284932
 21
-27.0293423113
 31
0.0
  0
LINE
  5
527
100
AcDbEntity
  8
RACCORDO
100
AcDbLine
 62
7
  6
CONTINUOUS
 10
-70.1222253679
 20
-27.2927938135
 30
0.0
 11
-70.0304476338
 21
-27.1609661862
 31
0.0
  0
LINE
  5
528
100
AcDbEntity
  8
RACCORDO
100
AcDbLine
 62
7
  6
CONTINUOUS
 10
-70.2201566686
 20
-27.416142504
 30
0.0
 11
-70.1191469524
 21
-27.2886523029
 31
0.0
  0
LINE
  5
529
100
AcDbEntity
  8
RACCORDO
100
AcDbLine
 62
7
  6
CONTINUOUS
 10
-70.3267365528
 20
-27.5350215051
 30
0.0
 11
-70.2167828469
 21
-27.4121397555
 31
0.0
  0
LWPOLYLINE
  5
52A
100
AcDbEntity
  8
RACCORDO
100
AcDbPolyline
 62
250
  6
CONTINUOUS
 90
10
 70
0
 10
-69.701486376
 20
-22.0527535751
 10
-69.7145264123
 20
-22.0606114319
 10
-69.7291827227
 20
-22.0677703671
 10
-69.7452965071
 20
-22.0741528144
 10
-69.762693174
 20
-22.0796896205
 10
-69.7811842316
 20
-22.0843207948
 10
-69.800569331
 20
-22.0879961589
 10
-69.8206384364
 20
-22.0906758906
 10
-69.8411741004
 20
-22.0923309553
 10
-69.8619538208
 20
-22.0929434205
  0
LINE
  5
52B
100
AcDbEntity
  8
RACCORDO
100
AcDbLine
 62
7
  6
CONTINUOUS
 10
-70.4416938504
 20
-27.6492026714
 30
0.0
 11
-70.3230767928
 21
-27.5311645765
 31
0.0
  0
LINE
  5
52C
100
AcDbEntity
  8
RACCORDO
100
AcDbLine
 62
7
  6
CONTINUOUS
 10
-70.5647226158
 20
-27.7584958206
 30
0.0
 11
-70.4377573233
 21
-27.6454987625
 31
0.0
  0
LINE
  5
52D
100
AcDbEntity
  8
RACCORDO
100
AcDbLine
 62
7
  6
CONTINUOUS
 10
-70.6954966532
 20
-27.8627183663
 30
0.0
 11
-70.5605161548
 21
-27.7549528279
 31
0.0
  0
LINE
  5
52E
100
AcDbEntity
  8
RACCORDO
100
AcDbLine
 62
7
  6
CONTINUOUS
 10
-70.8336877932
 20
-27.9616951926
 30
0.0
 11
-70.69103341
 21
-27.859341718
 31
0.0
  0
LINE
  5
52F
100
AcDbEntity
  8
RACCORDO
100
AcDbLine
 62
7
  6
CONTINUOUS
 10
-70.9789618769
 20
-28.0552966073
 30
0.0
 11
-70.8289808782
 21
-27.9584913249
 31
0.0
  0
LINE
  5
530
100
AcDbEntity
  8
RACCORDO
100
AcDbLine
 62
7
  6
CONTINUOUS
 10
-71.1310014738
 20
-28.1434104136
 30
0.0
 11
-70.974024064
 21
-28.0522735868
 31
0.0
  0
LINE
  5
531
100
AcDbEntity
  8
RACCORDO
100
AcDbLine
 62
7
  6
CONTINUOUS
 10
-71.2894478589
 20
-28.2259129417
 30
0.0
 11
-71.1258513115
 21
-28.140575068
 31
0.0
  0
LINE
  5
532
100
AcDbEntity
  8
RACCORDO
100
AcDbLine
 62
7
  6
CONTINUOUS
 10
-71.4538467089
 20
-28.3026735315
 30
0.0
 11
-71.2841013951
 21
-28.2232700775
 31
0.0
  0
LINE
  5
533
100
AcDbEntity
  8
RACCORDO
100
AcDbLine
 62
250
  6
CONTINUOUS
 10
-71.4758288447
 20
-28.2481783415
 30
0.0
 11
-71.6297229661
 21
-28.3157437726
 31
0.0
  0
LINE
  5
534
100
AcDbEntity
  8
RACCORDO
100
AcDbLine
 62
7
  6
CONTINUOUS
 10
-71.5552172669
 20
-28.3459464681
 30
0.0
 11
-71.448317433
 21
-28.3002267729
 31
0.0
  0
LWPOLYLINE
  5
535
100
AcDbEntity
  8
RACCORDO
100
AcDbPolyline
 62
250
  6
CONTINUOUS
 90
5
 70
0
 10
-71.6297229661
 20
-28.3157437726
 10
-72.0137406574
 20
-28.4742548251
 10
-72.3860017266
 20
-28.6262639111
 10
-72.7465061736
 20
-28.7719059145
 10
-73.0952642419
 20
-28.9112965495
  0
LINE
  5
536
100
AcDbEntity
  8
RACCORDO
100
AcDbLine
 62
7
  6
CONTINUOUS
 10
-72.0721800954
 20
-28.5575575639
 30
0.0
 11
-71.5552121831
 21
-28.3459443718
 31
0.0
  0
LINE
  5
537
100
AcDbEntity
  8
RACCORDO
100
AcDbLine
 62
7
  6
CONTINUOUS
 10
-72.6524891402
 20
-28.7912922626
 30
0.0
 11
-72.0665781899
 21
-28.5552816979
 31
0.0
  0
LINE
  5
538
100
AcDbEntity
  8
RACCORDO
100
AcDbLine
 62
7
  6
CONTINUOUS
 10
-73.2338258595
 20
-29.0214237857
 30
0.0
 11
-72.6468997442
 21
-28.7890601231
 31
0.0
  0
LINE
  5
539
100
AcDbEntity
  8
RACCORDO
100
AcDbLine
 62
250
  6
CONTINUOUS
 10
-73.0952642419
 20
-28.9112965495
 30
0.0
 11
-73.7574797815
 21
-29.1719365333
 31
0.0
  0
LINE
  5
53A
100
AcDbEntity
  8
RACCORDO
100
AcDbLine
 62
7
  6
CONTINUOUS
 10
-73.8161638875
 20
-29.2479390176
 30
0.0
 11
-73.2282437502
 21
-29.0192330983
 31
0.0
  0
LINE
  5
53B
100
AcDbEntity
  8
RACCORDO
100
AcDbLine
 62
250
  6
CONTINUOUS
 10
-73.7574797815
 20
-29.1719365333
 30
0.0
 11
-74.3725418519
 21
-29.4093461021
 31
0.0
  0
LINE
  5
53C
100
AcDbEntity
  8
RACCORDO
100
AcDbLine
 62
7
  6
CONTINUOUS
 10
-74.3994767227
 20
-29.470823654
 30
0.0
 11
-73.8105839483
 21
-29.2457875556
 31
0.0
  0
LWPOLYLINE
  5
53D
100
AcDbEntity
  8
RACCORDO
100
AcDbPolyline
 62
250
  6
CONTINUOUS
 90
16
 70
0
 10
-76.7385085262
 20
-30.2808911883
 10
-76.8447064559
 20
-30.321070205
 10
-76.9455027419
 20
-30.3636478858
 10
-77.0408973842
 20
-30.4085923533
 10
-77.1308601777
 20
-30.4558751215
 10
-77.2154213274
 20
-30.505454558
 10
-77.294671449
 20
-30.5572761506
 10
-77.3688446266
 20
-30.6113166977
 10
-77.437706776
 20
-30.6675169188
 10
-77.5006462604
 20
-30.7257662787
 10
-77.5578701344
 20
-30.7862785197
 10
-77.6091713434
 20
-30.8487435022
 10
-77.6533170877
 20
-30.9122795191
 10
-77.689896434
 20
-30.9765772079
 10
-77.7193203155
 20
-31.041880937
 10
-77.7415887323
 20
-31.1081548849
  0
LINE
  5
53E
100
AcDbEntity
  8
RACCORDO
100
AcDbLine
 62
250
  6
CONTINUOUS
 10
-74.3725418519
 20
-29.4093461021
 30
0.0
 11
-74.9403789389
 21
-29.6245523119
 31
0.0
  0
LINE
  5
53F
100
AcDbEntity
  8
RACCORDO
100
AcDbLine
 62
7
  6
CONTINUOUS
 10
-74.9837378805
 20
-29.6900622633
 30
0.0
 11
-74.3938947767
 21
-29.4687097613
 31
0.0
  0
LINE
  5
540
100
AcDbEntity
  8
RACCORDO
100
AcDbLine
 62
250
  6
CONTINUOUS
 10
-74.9403789389
 20
-29.6245523119
 30
0.0
 11
-75.4609466832
 21
-29.8184808615
 31
0.0
  0
LINE
  5
541
100
AcDbEntity
  8
RACCORDO
100
AcDbLine
 62
7
  6
CONTINUOUS
 10
-75.5689218921
 20
-29.9056384982
 30
0.0
 11
-74.9781497734
 21
-29.6879843173
 31
0.0
  0
LINE
  5
542
100
AcDbEntity
  8
RACCORDO
100
AcDbLine
 62
250
  6
CONTINUOUS
 10
-75.4609466832
 20
-29.8184808615
 30
0.0
 11
-75.9341848689
 21
-29.9920074465
 31
0.0
  0
LINE
  5
543
100
AcDbEntity
  8
RACCORDO
100
AcDbLine
 62
7
  6
CONTINUOUS
 10
-76.1523487187
 20
-30.1165752883
 30
0.0
 11
-75.5633225562
 21
-29.9035947333
 31
0.0
  0
LINE
  5
544
100
AcDbEntity
  8
RACCORDO
100
AcDbLine
 62
250
  6
CONTINUOUS
 10
-75.9341848689
 20
-29.9920074465
 30
0.0
 11
-76.3600440337
 21
-30.1459154234
 31
0.0
  0
LINE
  5
545
100
AcDbEntity
  8
RACCORDO
100
AcDbLine
 62
250
  6
CONTINUOUS
 10
-76.3600440337
 20
-30.1459154234
 30
0.0
 11
-76.7385085262
 21
-30.2808911883
 31
0.0
  0
LINE
  5
546
100
AcDbEntity
  8
RACCORDO
100
AcDbLine
 62
7
  6
CONTINUOUS
 10
-76.6974894547
 20
-30.3102476213
 30
0.0
 11
-76.1493869789
 21
-30.1155234583
 31
0.0
  0
LWPOLYLINE
  5
547
100
AcDbEntity
  8
RACCORDO
100
AcDbPolyline
 62
250
  6
CONTINUOUS
 90
8
 70
0
 10
-76.6738479608
 20
-30.3017800717
 10
-76.6753594772
 20
-30.3022776876
 10
-76.6847149351
 20
-30.3039801842
 10
-76.6946922747
 20
-30.3035457265
 10
-76.7051797903
 20
-30.3009791617
 10
-76.7160600596
 20
-30.2963092082
 10
-76.7272112577
 20
-30.2895881376
 10
-76.7385085262
 20
-30.2808911883
  0
LINE
  5
548
100
AcDbEntity
  8
0
100
AcDbLine
 62
250
  6
CONTINUOUS
 10
-85.1636991279
 20
29.1939587517
 30
0.0
 11
-87.1636991279
 21
29.1939587517
 31
0.0
  0
LWPOLYLINE
  5
549
100
AcDbEntity
  8
0
100
AcDbPolyline
 62
7
  6
CONTINUOUS
 90
10
 70
0
 43
0.3500000006
 10
-78.442269928
 20
63.568663147
 10
-78.3708387451
 20
63.425809845
 10
-78.3708387451
 20
63.3543786621
 10
-78.5137011108
 20
63.2115253601
 10
-78.58512323
 20
63.2115253601
 10
-78.6565544128
 20
63.2829474792
 10
-78.6565544128
 20
63.3543786621
 10
-78.58512323
 20
63.4972319641
 10
-78.5137011108
 20
63.568663147
 10
-78.442269928
 20
63.568663147
  0
LINE
  5
54A
100
AcDbEntity
  8
RACCORDO
100
AcDbLine
 62
250
  6
CONTINUOUS
 10
-91.8679295518
 20
33.5922719079
 30
0.0
 11
-91.8136991279
 21
33.5922719079
 31
0.0
  0
LINE
  5
54B
100
AcDbEntity
  8
RACCORDO
100
AcDbLine
 62
250
  6
CONTINUOUS
 10
-91.8136991279
 20
35.1939587517
 30
0.0
 11
-91.670242036
 21
35.1939587517
 31
0.0
  0
LINE
  5
54C
100
AcDbEntity
  8
RACCORDO
100
AcDbLine
 62
250
  6
CONTINUOUS
 10
-99.0951007017
 20
36.6196531409
 30
0.0
 11
-92.2818992983
 21
36.9767178963
 31
0.0
  0
LINE
  5
54D
100
AcDbEntity
  8
RACCORDO
100
AcDbLine
 62
7
  6
CONTINUOUS
 10
-99.0951007017
 20
38.1175974431
 30
0.0
 11
-93.2788808419
 21
38.4224126097
 31
0.0
  0
LINE
  5
54E
100
AcDbEntity
  8
RACCORDO
100
AcDbLine
 62
250
  6
CONTINUOUS
 10
-89.1636991279
 20
37.0953864193
 30
0.0
 11
-92.0190217188
 21
36.9707203427
 31
0.0
  0
LINE
  5
54F
100
AcDbEntity
  8
RACCORDO
100
AcDbLine
 62
7
  6
CONTINUOUS
 10
-89.1636991279
 20
38.5939587517
 30
0.0
 11
-92.770242036
 21
38.4364936877
 31
0.0
  0
LINE
  5
550
100
AcDbEntity
  8
0
100
AcDbLine
 62
7
  6
CONTINUOUS
 10
-85.1636991279
 20
36.2739587517
 30
0.0
 11
-87.1636991279
 21
36.2739587517
 31
0.0
  0
LINE
  5
551
100
AcDbEntity
  8
RACCORDO
100
AcDbLine
 62
250
  6
CONTINUOUS
 10
-99.6636991279
 20
36.6196531409
 30
0.0
 11
-99.0951007017
 21
36.6196531409
 31
0.0
  0
LINE
  5
552
100
AcDbEntity
  8
RACCORDO
100
AcDbLine
 62
250
  6
CONTINUOUS
 10
-87.1636991279
 20
37.0925297239
 30
0.0
 11
-88.7136991279
 21
37.0925297239
 31
0.0
  0
LINE
  5
553
100
AcDbEntity
  8
0
100
AcDbLine
 62
250
  6
CONTINUOUS
 10
-89.1636991279
 20
37.0953864193
 30
0.0
 11
-88.7136991279
 21
37.0925297239
 31
0.0
  0
LINE
  5
554
100
AcDbEntity
  8
RACCORDO
100
AcDbLine
 62
7
  6
CONTINUOUS
 10
-87.3602086466
 20
37.8276553733
 30
0.0
 11
-88.7136991279
 21
37.8512806375
 31
0.0
  0
LWPOLYLINE
  5
555
100
AcDbEntity
  8
RACCORDO
100
AcDbPolyline
 62
250
  6
CONTINUOUS
 90
7
 70
0
 10
-92.7719880741
 20
38.3574299908
 10
-92.7919456541
 20
38.3527464906
 10
-92.8084212213
 20
38.3474795401
 10
-92.8228010342
 20
38.3412752405
 10
-92.8369721035
 20
38.3328277354
 10
-92.8518173132
 20
38.3215695205
 10
-92.8659551198
 20
38.3088248317
  0
LWPOLYLINE
  5
556
100
AcDbEntity
  8
0
100
AcDbPolyline
 62
7
  6
CONTINUOUS
 90
8
 70
0
 43
0.3500000006
 10
-91.5922694092
 20
53.1740574188
 10
-90.7351314697
 20
53.1740574188
 10
-90.3065534363
 20
53.6026263885
 10
-90.3065534363
 20
54.4597733917
 10
-90.7351314697
 20
54.8883423615
 10
-91.5922694092
 20
54.8883423615
 10
-91.5922694092
 20
56.1740538025
 10
-90.3065534363
 20
56.1740538025
  0
LWPOLYLINE
  5
557
100
AcDbEntity
  8
0
100
AcDbPolyline
 62
7
  6
CONTINUOUS
 90
7
 70
0
 43
0.3500000006
 10
-94.163701355
 20
53.1740574188
 10
-95.6637018127
 20
53.1740574188
 10
-94.163701355
 20
55.316915863
 10
-94.163701355
 20
55.7454848328
 10
-94.5922703247
 20
56.1740538025
 10
-95.2351237793
 20
56.1740538025
 10
-95.6637018127
 20
55.5312003479
  0
LWPOLYLINE
  5
558
100
AcDbEntity
  8
0
100
AcDbPolyline
 62
7
  6
CONTINUOUS
 90
6
 70
0
 43
0.3500000006
 10
-77.3708384399
 20
63.0686629944
 10
-76.2994160156
 20
63.0686629944
 10
-76.0851315308
 20
63.2829474792
 10
-76.0851315308
 20
64.3543789673
 10
-76.5137005005
 20
64.782947937
 10
-76.9422694702
 20
64.782947937
  0
LWPOLYLINE
  5
559
100
AcDbEntity
  8
0
100
AcDbPolyline
 62
7
  6
CONTINUOUS
 90
3
 70
0
 43
0.3500000006
 10
-82.2994178467
 20
63.7115255127
 10
-83.7994092407
 20
63.7115255127
 10
-83.1565557861
 20
66.0686639099
  0
ARC
  5
55A
100
AcDbEntity
  8
RACCORDO
100
AcDbCircle
 62
7
  6
CONTINUOUS
 10
-99.0636991279
 20
-48.5305022188
 30
0.0
 40
0.6
100
AcDbArc
 50
180.0
 51
267.0
  0
ARC
  5
55B
100
AcDbEntity
  8
RACCORDO
100
AcDbCircle
 62
7
  6
CONTINUOUS
 10
-92.1136991279
 20
-47.3390624288
 30
0.0
 40
0.3
100
AcDbArc
 50
0.0
 51
34.9920201986
  0
ARC
  5
55C
100
AcDbEntity
  8
RACCORDO
100
AcDbCircle
 62
7
  6
CONTINUOUS
 10
-87.3636991279
 20
-48.6397683309
 30
0.0
 40
0.2
100
AcDbArc
 50
271.0
 51
360.0
  0
ARC
  5
55D
100
AcDbEntity
  8
RACCORDO
100
AcDbCircle
 62
7
  6
CONTINUOUS
 10
-91.6636991279
 20
-49.3467459883
 30
0.0
 40
0.15
100
AcDbArc
 50
180.0
 51
267.5
  0
ARC
  5
55E
100
AcDbEntity
  8
RACCORDO
100
AcDbCircle
 62
7
  6
CONTINUOUS
 10
-96.3636991279
 20
35.1939587517
 30
0.0
 40
4.55
100
AcDbArc
 50
0.0
 51
40.0077539135
  0
ARC
  5
55F
100
AcDbEntity
  8
0
100
AcDbCircle
 62
7
  6
CONTINUOUS
 10
-96.4136991279
 20
35.1939587517
 30
0.0
 40
4.5
100
AcDbArc
 50
0.0
 51
45.8430467523
  0
ARC
  5
560
100
AcDbEntity
  8
RACCORDO
100
AcDbCircle
 62
7
  6
CONTINUOUS
 10
-99.0636991279
 20
37.5184197222
 30
0.0
 40
0.6
100
AcDbArc
 50
93.0
 51
180.0
  0
ARC
  5
561
100
AcDbEntity
  8
RACCORDO
100
AcDbCircle
 62
7
  6
CONTINUOUS
 10
-92.1136991279
 20
33.9845211305
 30
0.0
 40
0.3
100
AcDbArc
 50
338.8367289581
 51
360.0
  0
ARC
  5
562
100
AcDbEntity
  8
RACCORDO
100
AcDbCircle
 62
7
  6
CONTINUOUS
 10
-87.3636991279
 20
37.6276858342
 30
0.0
 40
0.2
100
AcDbArc
 50
0.0
 51
89.0
  0
ARC
  5
563
100
AcDbEntity
  8
RACCORDO
100
AcDbCircle
 62
7
  6
CONTINUOUS
 10
-92.7636991279
 20
38.2866326433
 30
0.0
 40
0.15
100
AcDbArc
 50
92.4999365034
 51
179.9985442652
  0
ARC
  5
564
100
AcDbEntity
  8
RACCORDO
100
AcDbCircle
 62
7
  6
CONTINUOUS
 10
-92.7636991279
 20
38.2155477376
 30
0.0
 40
0.15
100
AcDbArc
 50
180.0
 51
220.0077539135
  0
ARC
  5
565
100
AcDbEntity
  8
0
100
AcDbCircle
 62
7
  6
CONTINUOUS
 10
-71.3636991279
 20
-8.3310412483
 30
0.0
 40
3.125
100
AcDbArc
 50
249.7157876869
 51
290.2842123131
  0
ARC
  5
566
100
AcDbEntity
  8
0
100
AcDbCircle
 62
7
  6
CONTINUOUS
 10
-66.8636991279
 20
-10.2560412483
 30
0.0
 40
1.0
100
AcDbArc
 50
270.0
 51
360.0
  0
ARC
  5
567
100
AcDbEntity
  8
0
100
AcDbCircle
 62
7
  6
CONTINUOUS
 10
-59.5636991279
 20
-6.5560412483
 30
0.0
 40
0.2
100
AcDbArc
 50
270.0
 51
360.0
  0
ARC
  5
568
100
AcDbEntity
  8
RACCORDO
100
AcDbCircle
 62
7
  6
CONTINUOUS
 10
-77.7636991279
 20
-31.0419331724
 30
0.0
 40
0.2
100
AcDbArc
 50
271.0
 51
360.0
  0
ARC
  5
569
100
AcDbEntity
  8
0
100
AcDbCircle
 62
7
  6
CONTINUOUS
 10
-65.7636991279
 20
-7.8560412483
 30
0.0
 40
0.1
100
AcDbArc
 50
90.0
 51
180.0
  0
ARC
  5
56A
100
AcDbEntity
  8
0
100
AcDbCircle
 62
7
  6
CONTINUOUS
 10
-71.3636991279
 20
-2.6810412483
 30
0.0
 40
3.125
100
AcDbArc
 50
69.7157876869
 51
110.2842123131
  0
ARC
  5
56B
100
AcDbEntity
  8
0
100
AcDbCircle
 62
7
  6
CONTINUOUS
 10
-66.8636991279
 20
-0.7560412483
 30
0.0
 40
1.0
100
AcDbArc
 50
0.0
 51
90.0
  0
ARC
  5
56C
100
AcDbEntity
  8
0
100
AcDbCircle
 62
7
  6
CONTINUOUS
 10
-59.5636991279
 20
-4.4560412483
 30
0.0
 40
0.2
100
AcDbArc
 50
0.0
 51
90.0
  0
ARC
  5
56D
100
AcDbEntity
  8
RACCORDO
100
AcDbCircle
 62
7
  6
CONTINUOUS
 10
-77.7636991279
 20
20.0298506758
 30
0.0
 40
0.2
100
AcDbArc
 50
0.0
 51
89.0
  0
ARC
  5
56E
100
AcDbEntity
  8
0
100
AcDbCircle
 62
7
  6
CONTINUOUS
 10
-65.7636991279
 20
-3.1560412483
 30
0.0
 40
0.1
100
AcDbArc
 50
180.0
 51
270.0
  0
ELLIPSE
  5
56F
100
AcDbEntity
  8
RACCORDO
100
AcDbEllipse
 62
7
  6
CONTINUOUS
 10
31.6244643031
 20
-49.3057554428
 30
0.0
 11
0.1114890272
 21
0.2788712659
 31
0.0
 40
0.9988963511
 41
-4.3316837033
 42
-2.8122732837
  0
ELLIPSE
  5
570
100
AcDbEntity
  8
RACCORDO
100
AcDbEllipse
 62
7
  6
CONTINUOUS
 10
-12.9756270938
 20
-49.3057554428
 30
0.0
 11
-0.1114890272
 21
0.2788712659
 31
0.0
 40
0.9988963511
 41
9.0954585909
 42
10.6148710067
  0
ELLIPSE
  5
571
100
AcDbEntity
  8
0
100
AcDbEllipse
 62
7
  6
CONTINUOUS
 10
-35.4397463886
 20
35.1939587517
 30
0.0
 11
0.0
 21
4.5
 31
0.0
 40
0.0524077793
 41
1.1634559788
 42
1.5707963268
  0
ELLIPSE
  5
572
100
AcDbEntity
  8
RACCORDO
100
AcDbEllipse
 62
7
  6
CONTINUOUS
 10
34.9415798458
 20
-49.4903189145
 30
0.0
 11
0.3000458239
 21
-0.0000144199
 31
0.0
 40
0.0523997534
 41
-3.1144955549
 42
-1.5698791669
  0
ELLIPSE
  5
573
100
AcDbEntity
  8
RACCORDO
100
AcDbEllipse
 62
7
  6
CONTINUOUS
 10
-16.2927426365
 20
-49.4903189145
 30
0.0
 11
0.3000458239
 21
0.0000144199
 31
0.0
 40
0.0523997534
 41
-1.5717134867
 42
-0.0270970987
  0
ELLIPSE
  5
574
100
AcDbEntity
  8
0
100
AcDbEllipse
 62
7
  6
CONTINUOUS
 10
54.0885835979
 20
35.1939587517
 30
0.0
 11
-0.0
 21
4.5
 31
0.0
 40
0.0524077793
 41
-1.5707963268
 42
-1.1634559788
  0
ELLIPSE
  5
575
100
AcDbEntity
  8
0
100
AcDbEllipse
 62
7
  6
CONTINUOUS
 10
-34.1735228764
 20
-48.0039827293
 30
0.0
 11
1.0635693652
 21
1.0635693652
 31
0.0
 40
0.9972646886
 41
-3.9256212891
 42
-2.3575640181
  0
ELLIPSE
  5
576
100
AcDbEntity
  8
0
100
AcDbEllipse
 62
7
  6
CONTINUOUS
 10
52.8223600857
 20
-48.0039827293
 30
0.0
 11
-1.0635693652
 21
1.0635693652
 31
0.0
 40
0.9972646886
 41
-3.9256212891
 42
-2.3575640181
  0
ELLIPSE
  5
577
100
AcDbEntity
  8
RACCORDO
100
AcDbEllipse
 62
7
  6
CONTINUOUS
 10
-15.3457785118
 20
-49.2069250728
 30
0.0
 11
0.5000700199
 21
0.0000109613
 31
0.0
 40
0.0523449259
 41
1.5703775765
 42
3.1145256267
  0
ELLIPSE
  5
578
100
AcDbEntity
  8
RACCORDO
100
AcDbEllipse
 62
7
  6
CONTINUOUS
 10
33.9946157211
 20
-49.2069250728
 30
0.0
 11
0.5000700199
 21
-0.0000109613
 31
0.0
 40
0.0523449259
 41
0.0270670269
 42
1.5712150771
  0
ELLIPSE
  5
579
100
AcDbEntity
  8
RACCORDO
100
AcDbEllipse
 62
7
  6
CONTINUOUS
 10
-13.9005052313
 20
21.7688825877
 30
0.0
 11
0.3536610946
 21
-0.3536610946
 31
0.0
 40
0.9996954599
 41
2.3563467834
 42
3.9268385237
  0
ELLIPSE
  5
57A
100
AcDbEntity
  8
RACCORDO
100
AcDbEllipse
 62
7
  6
CONTINUOUS
 10
32.5493424406
 20
21.7688825877
 30
0.0
 11
0.3536610946
 21
0.3536610946
 31
0.0
 40
0.9996954599
 41
-0.7852458701
 42
0.7852458701
  0
ELLIPSE
  5
57B
100
AcDbEntity
  8
RACCORDO
100
AcDbEllipse
 62
7
  6
CONTINUOUS
 10
32.5493424406
 20
-32.7809650843
 30
0.0
 11
0.3536610946
 21
-0.3536610946
 31
0.0
 40
0.9996954599
 41
-0.7852458701
 42
0.7852458701
  0
ELLIPSE
  5
57C
100
AcDbEntity
  8
RACCORDO
100
AcDbEllipse
 62
7
  6
CONTINUOUS
 10
-13.9005052313
 20
-32.7809650843
 30
0.0
 11
-0.3536610946
 21
-0.3536610946
 31
0.0
 40
0.9996954599
 41
-0.7852458701
 42
0.7852458701
  0
ELLIPSE
  5
57D
100
AcDbEntity
  8
RACCORDO
100
AcDbEllipse
 62
7
  6
CONTINUOUS
 10
-49.6574077961
 20
-5.5060412483
 30
0.0
 11
27.4522613828
 21
-0.0
 31
0.0
 40
0.9999619202
 41
-3.0159750232
 42
-2.9395729582
  0
ELLIPSE
  5
57E
100
AcDbEntity
  8
RACCORDO
100
AcDbEllipse
 62
7
  6
CONTINUOUS
 10
-49.6574077961
 20
-5.5060412483
 30
0.0
 11
27.4522613828
 21
-0.0
 31
0.0
 40
0.9999619202
 41
2.9395729582
 42
3.0159750232
  0
ELLIPSE
  5
57F
100
AcDbEntity
  8
RACCORDO
100
AcDbEllipse
 62
7
  6
CONTINUOUS
 10
-42.841925521
 20
-4.5528856242
 30
0.0
 11
35.9882608045
 21
-0.0
 31
0.0
 40
0.9999619202
 41
-3.0182463684
 42
-2.9499876392
  0
ELLIPSE
  5
580
100
AcDbEntity
  8
RACCORDO
100
AcDbEllipse
 62
7
  6
CONTINUOUS
 10
-42.841925521
 20
-6.4591968724
 30
0.0
 11
35.9882608045
 21
-0.0
 31
0.0
 40
0.9999619202
 41
2.9499876392
 42
3.0182463684
  0
ENDSEC
  0
SECTION
  2
OBJECTS
  0
DICTIONARY
  5
C
100
AcDbDictionary
280
0
281
1
  3
ACAD_GROUP
350
D
  3
ACAD_MLINESTYLE
350
17
  3
ACAD_LAYOUT
350
1A
  3
ACAD_PLOTSETTINGS
350
19
  3
ACAD_PLOTSTYLENAME
350
E
  0
DICTIONARY
  5
D
102
{ACAD_REACTORS
330
C
102
}
100
AcDbDictionary
280
0
281
1
  0
ACDBDICTIONARYWDFLT
  5
E
102
{ACAD_REACTORS
330
C
102
}
100
AcDbDictionary
281
1
  3
Normal
350
F
100
AcDbDictionaryWithDefault
340
F
  0
DICTIONARY
  5
17
102
{ACAD_REACTORS
330
C
102
}
100
AcDbDictionary
280
0
281
1
  3
Standard
350
18
  0
DICTIONARY
  5
19
102
{ACAD_REACTORS
330
C
102
}
100
AcDbDictionary
281
1
  0
DICTIONARY
  5
1A
102
{ACAD_REACTORS
330
C
102
}
100
AcDbDictionary
281
1
  3
Model
350
581
  3
Layout1
350
582
  0
ACDBPLACEHOLDER
  5
F
102
{ACAD_REACTORS
330
E
102
}
  0
MLINESTYLE
  5
18
102
{ACAD_REACTORS
330
17
102
}
100
AcDbMlineStyle
  2
STANDARD
 70
0
  3

 62
256
 51
90.0
 52
90.0
 71
2
 49
0.5
 62
256
  6
BYLAYER
 49
-0.5
 62
256
  6
BYLAYER
  0
LAYOUT
  5
581
102
{ACAD_REACTORS
330
1A
102
}
100
AcDbPlotSettings
  1

  2
none_device
  4
ISO_A4_(297.00_x_210.00_MM)
  6

 40
0.0
 41
0.0
 42
0.0
 43
0.0
 44
297.0
 45
210.0
 46
0.0
 47
0.0
 48
0.0
 49
0.0
140
0.0
141
0.0
142
1.0
143
1.0
 70
1024
 72
1
 73
0
 74
0
  7

 75
0
147
1.0
148
0.0
149
0.0
100
AcDbLayout
  1
Model
 70
0
 71
0
 10
0.0
 20
0.0
 11
297.0
 21
210.0
 12
0.0
 22
0.0
 32
0.0
 14
0.0
 24
0.0
 34
0.0
 15
0.0
 25
0.0
 35
0.0
146
0.0
 13
0.0
 23
0.0
 33
0.0
 16
1.0
 26
0.0
 36
0.0
 17
0.0
 27
1.0
 37
0.0
 76
0
330
218
345
0
346
0
  0
LAYOUT
  5
582
102
{ACAD_REACTORS
330
1A
102
}
100
AcDbPlotSettings
  1

  2
none_device
  4
ISO_A4_(297.00_x_210.00_MM)
  6

 40
0.0
 41
0.0
 42
0.0
 43
0.0
 44
297.0
 45
210.0
 46
0.0
 47
0.0
 48
0.0
 49
0.0
140
0.0
141
0.0
142
1.0
143
1.0
 70
0
 72
1
 73
0
 74
0
  7

 75
0
147
1.0
148
0.0
149
0.0
100
AcDbLayout
  1
Layout1
 70
0
 71
1
 10
0.0
 20
0.0
 11
297.0
 21
210.0
 12
0.0
 22
0.0
 32
0.0
 14
0.0
 24
0.0
 34
0.0
 15
0.0
 25
0.0
 35
0.0
146
0.0
 13
0.0
 23
0.0
 33
0.0
 16
1.0
 26
0.0
 36
0.0
 17
0.0
 27
1.0
 37
0.0
 76
0
330
219
345
0
346
0
  0
ENDSEC
  0
EOF
