  0
SECTION
  2
HEADER
  9
$ACADVER
  1
AC1024
  9
$DWGCODEPAGE
  3
ANSI_1252
  9
$EXTMAX
 10
297.0
 20
210.0
 30
0.0
  9
$EXTMIN
 10
0.0
 20
0.0
 30
0.0
  9
$LIMMIN
 10
0.0
 20
0.0
  9
$LIMMAX
 10
297.0
 20
210.0
  9
$VIEWCTR
 10
148.5
 20
105.0
  9
$VIEWSIZE
 40
210.0
  9
$CLAYER
  8
0
  9
$LTSCALE
 40
16.335
  9
$CELTYPE
  6
BYLAYER
  9
$DIMSCALE
 40
1.0
  9
$DIMASZ
 40
3.0
  9
$DIMEXO
 40
0.5
  9
$DIMDLI
 40
11.286
  9
$DIMEXE
 40
1.5
  9
$DIMCEN
 40
2.673
  9
$DIMLFAC
 40
1.0
  9
$DIMBLK
  1
_FILLED
  9
$DIMALT
 70
0
  9
$DIMALTF
 40
0.0393700787
  9
$DIMTXT
 40
3.0
  9
$DIMTOL
 70
1
  9
$DIMLIM
 70
0
  9
$DIMTFAC
 40
1.0
  9
$DIMTP
 40
0.01
  9
$DIMTM
 40
0.01
  9
$DIMGAP
 40
0.625
  9
$DIMDSEP
 70
44
  9
$AUNITS
 70
0
  9
$PDMODE
 70
3
  9
$PDSIZE
 40
3.0
  9
$HANDSEED
  5
433
  9
$TILEMODE
 70
1
  9
$MEASUREMENT
 70
1
  9
$INSUNITS
 70
4
  0
ENDSEC
  0
SECTION
  2
CLASSES
  0
CLASS
  1
ACDBDICTIONARYWDFLT
  2
AcDbDictionaryWithDefault
  3
AutoCAD 2000
 90
0
 91
1
280
0
281
0
  0
CLASS
  1
ACDBPLACEHOLDER
  2
AcDbPlaceHolder
  3
AutoCAD 2000
 90
0
 91
1
280
0
281
0
  0
CLASS
  1
LAYOUT
  2
AcDbLayout
  3
AutoCAD 2000
 90
0
 91
0
280
0
281
0
  0
ENDSEC
  0
SECTION
  2
TABLES
  0
TABLE
  2
VPORT
  5
8
100
AcDbSymbolTable
 70
2
  0
VPORT
  5
1F4
100
AcDbSymbolTableRecord
100
AcDbViewportTableRecord
  2
*ACTIVE
 70
0
 10
0.0
 20
0.0
 11
1.0
 21
1.0
 12
148.5
 22
105.0
 13
0.0
 23
0.0
 14
1.0
 24
1.0
 15
0.0
 25
0.0
 16
0.0
 26
0.0
 36
1.0
 17
0.0
 27
0.0
 37
0.0
 40
210.0
 41
1.4142857143
 42
50.0
 43
0.0
 44
0.0
 50
0.0
 51
0.0
 71
0
 72
100
 73
1
 74
1
 75
0
 76
0
 77
0
 78
0
  0
ENDTAB
  0
TABLE
  2
LTYPE
  5
5
100
AcDbSymbolTable
 70
6
  0
LTYPE
  5
14
100
AcDbSymbolTableRecord
100
AcDbLinetypeTableRecord
  2
BYBLOCK
 70
0
  3

 72
65
 73
0
 40
0.0
  0
LTYPE
  5
15
100
AcDbSymbolTableRecord
100
AcDbLinetypeTableRecord
  2
BYLAYER
 70
0
  3

 72
65
 73
0
 40
0.0
  0
LTYPE
  5
16
100
AcDbSymbolTableRecord
100
AcDbLinetypeTableRecord
  2
CONTINUOUS
 70
64
  3
Solid line
 72
65
 73
0
 40
0.0
  0
LTYPE
  5
1F5
100
AcDbSymbolTableRecord
100
AcDbLinetypeTableRecord
  2
CENTER
 70
64
  3
____ _ ____ _ ____ _ ____ _ ____ _ ____ _ ____
 72
65
 73
4
 40
0.6
 49
0.375
 74
0
 49
-0.075
 74
0
 49
0.075
 74
0
 49
-0.075
 74
0
  0
LTYPE
  5
1F6
100
AcDbSymbolTableRecord
100
AcDbLinetypeTableRecord
  2
HIDDEN
 70
64
  3
- - - - - - - - - - - - - - - - - - - -
 72
65
 73
2
 40
0.2
 49
0.1
 74
0
 49
-0.1
 74
0
  0
LTYPE
  5
1F7
100
AcDbSymbolTableRecord
100
AcDbLinetypeTableRecord
  2
PHANTOM
 70
64
  3
_____ _ _ _____ _ _ _____ _ _ _____
 72
65
 73
6
 40
0.8
 49
0.45
 74
0
 49
-0.05
 74
0
 49
0.1
 74
0
 49
-0.05
 74
0
 49
0.1
 74
0
 49
-0.05
 74
0
  0
LTYPE
  5
1F8
100
AcDbSymbolTableRecord
100
AcDbLinetypeTableRecord
  2
DOT
 70
64
  3
. . . . . . . . . . . . . . . . . . . .
 72
65
 73
2
 40
0.2
 49
0.1
 74
0
 49
-0.1
 74
0
  0
LTYPE
  5
1F9
100
AcDbSymbolTableRecord
100
AcDbLinetypeTableRecord
  2
DASHED
 70
64
  3
- - - - - - - - - - - - - - - - - - - -
 72
65
 73
2
 40
0.2
 49
0.1
 74
0
 49
-0.1
 74
0
  0
ENDTAB
  0
TABLE
  2
LAYER
  5
2
100
AcDbSymbolTable
 70
36
  0
LAYER
  5
10
100
AcDbSymbolTableRecord
100
AcDbLayerTableRecord
  2
0
 70
0
 62
7
  6
CONTINUOUS
370
-3
390
F
  0
LAYER
  5
1FA
100
AcDbSymbolTableRecord
100
AcDbLayerTableRecord
  2
DEFAULT_1
 70
0
 62
7
  6
CENTER
370
-3
390
F
  0
LAYER
  5
1FB
100
AcDbSymbolTableRecord
100
AcDbLayerTableRecord
  2
DEFAULT_2
 70
0
 62
7
  6
HIDDEN
370
-3
390
F
  0
LAYER
  5
1FC
100
AcDbSymbolTableRecord
100
AcDbLayerTableRecord
  2
DEFAULT_3
 70
0
 62
7
  6
PHANTOM
370
-3
390
F
  0
LAYER
  5
1FD
100
AcDbSymbolTableRecord
100
AcDbLayerTableRecord
  2
ASSI
 70
0
 62
7
  6
CONTINUOUS
370
-3
390
F
  0
LAYER
  5
1FE
100
AcDbSymbolTableRecord
100
AcDbLayerTableRecord
  2
COORDINATE
 70
0
 62
7
  6
CONTINUOUS
370
-3
390
F
  0
LAYER
  5
1FF
100
AcDbSymbolTableRecord
100
AcDbLayerTableRecord
  2
COPY_PUBLISH
 70
0
 62
7
  6
CONTINUOUS
370
-3
390
F
  0
LAYER
  5
200
100
AcDbSymbolTableRecord
100
AcDbLayerTableRecord
  2
COSMETICI
 70
0
 62
7
  6
CONTINUOUS
370
-3
390
F
  0
LAYER
  5
201
100
AcDbSymbolTableRecord
100
AcDbLayerTableRecord
  2
CURVE
 70
0
 62
7
  6
CONTINUOUS
370
-3
390
F
  0
LAYER
  5
202
100
AcDbSymbolTableRecord
100
AcDbLayerTableRecord
  2
DRAFT
 70
0
 62
7
  6
CONTINUOUS
370
-3
390
F
  0
LAYER
  5
203
100
AcDbSymbolTableRecord
100
AcDbLayerTableRecord
  2
IMPORT_IGES
 70
0
 62
7
  6
CONTINUOUS
370
-3
390
F
  0
LAYER
  5
204
100
AcDbSymbolTableRecord
100
AcDbLayerTableRecord
  2
INTF_1
 70
0
 62
7
  6
CONTINUOUS
370
-3
390
F
  0
LAYER
  5
205
100
AcDbSymbolTableRecord
100
AcDbLayerTableRecord
  2
INTF_11
 70
0
 62
7
  6
CONTINUOUS
370
-3
390
F
  0
LAYER
  5
206
100
AcDbSymbolTableRecord
100
AcDbLayerTableRecord
  2
INTF_13
 70
0
 62
7
  6
CONTINUOUS
370
-3
390
F
  0
LAYER
  5
207
100
AcDbSymbolTableRecord
100
AcDbLayerTableRecord
  2
INTF_2
 70
0
 62
7
  6
CONTINUOUS
370
-3
390
F
  0
LAYER
  5
208
100
AcDbSymbolTableRecord
100
AcDbLayerTableRecord
  2
INTF_9
 70
0
 62
7
  6
CONTINUOUS
370
-3
390
F
  0
LAYER
  5
209
100
AcDbSymbolTableRecord
100
AcDbLayerTableRecord
  2
NOTE
 70
0
 62
7
  6
CONTINUOUS
370
-3
390
F
  0
LAYER
  5
20A
100
AcDbSymbolTableRecord
100
AcDbLayerTableRecord
  2
PIANI
 70
0
 62
7
  6
CONTINUOUS
370
-3
390
F
  0
LAYER
  5
20B
100
AcDbSymbolTableRecord
100
AcDbLayerTableRecord
  2
PUNTI
 70
0
 62
7
  6
CONTINUOUS
370
-3
390
F
  0
LAYER
  5
20C
100
AcDbSymbolTableRecord
100
AcDbLayerTableRecord
  2
RACCORDO
 70
0
 62
7
  6
CONTINUOUS
370
-3
390
F
  0
LAYER
  5
20D
100
AcDbSymbolTableRecord
100
AcDbLayerTableRecord
  2
RGB____0____0____0__
 70
0
 62
7
  6
CONTINUOUS
370
-3
390
F
  0
LAYER
  5
20E
100
AcDbSymbolTableRecord
100
AcDbLayerTableRecord
  2
SIMBOLI
 70
0
 62
7
  6
CONTINUOUS
370
-3
390
F
  0
LAYER
  5
20F
100
AcDbSymbolTableRecord
100
AcDbLayerTableRecord
  2
SMUSSO
 70
0
 62
7
  6
CONTINUOUS
370
-3
390
F
  0
LAYER
  5
210
100
AcDbSymbolTableRecord
100
AcDbLayerTableRecord
  2
SNAPLINE
 70
0
 62
7
  6
CONTINUOUS
370
-3
390
F
  0
LAYER
  5
211
100
AcDbSymbolTableRecord
100
AcDbLayerTableRecord
  2
SUPERFICI
 70
0
 62
7
  6
CONTINUOUS
370
-3
390
F
  0
LAYER
  5
212
100
AcDbSymbolTableRecord
100
AcDbLayerTableRecord
  2
TRASH
 70
0
 62
7
  6
CONTINUOUS
370
-3
390
F
  0
ENDTAB
  0
TABLE
  2
STYLE
  5
3
100
AcDbSymbolTable
 70
1
  0
STYLE
  5
11
100
AcDbSymbolTableRecord
100
AcDbTextStyleTableRecord
  2
STANDARD
 70
0
 40
0.0
 41
0.8
 50
0.0
 71
0
 42
0.2
  3
txt
  4

  0
STYLE
  5
213
100
AcDbSymbolTableRecord
100
AcDbTextStyleTableRecord
  2
TEXTSTYLE_1
 70
0
 40
0.0
 41
0.8
 50
0.0
 71
0
 42
0.2
  3
gdt
  4

  0
ENDTAB
  0
TABLE
  2
VIEW
  5
6
100
AcDbSymbolTable
 70
0
  0
ENDTAB
  0
TABLE
  2
UCS
  5
7
100
AcDbSymbolTable
 70
0
  0
ENDTAB
  0
TABLE
  2
APPID
  5
9
100
AcDbSymbolTable
 70
1
  0
APPID
  5
214
100
AcDbSymbolTableRecord
100
AcDbRegAppTableRecord
  2
ACAD
 70
0
  0
ENDTAB
  0
TABLE
  2
BLOCK_RECORD
  5
1
100
AcDbSymbolTable
 70
0
  0
BLOCK_RECORD
  5
215
100
AcDbSymbolTableRecord
100
AcDbBlockTableRecord
  2
*Model_Space
  0
BLOCK_RECORD
  5
216
100
AcDbSymbolTableRecord
100
AcDbBlockTableRecord
  2
*Paper_Space
  0
BLOCK_RECORD
  5
217
100
AcDbSymbolTableRecord
100
AcDbBlockTableRecord
  2
_FILLED
  0
BLOCK_RECORD
  5
218
100
AcDbSymbolTableRecord
100
AcDbBlockTableRecord
  2
*D0
  0
BLOCK_RECORD
  5
219
100
AcDbSymbolTableRecord
100
AcDbBlockTableRecord
  2
*D1
  0
BLOCK_RECORD
  5
21A
100
AcDbSymbolTableRecord
100
AcDbBlockTableRecord
  2
*D2
  0
BLOCK_RECORD
  5
21B
100
AcDbSymbolTableRecord
100
AcDbBlockTableRecord
  2
*D3
  0
ENDTAB
  0
TABLE
  2
DIMSTYLE
  5
A
100
AcDbSymbolTable
 70
1
100
AcDbDimStyleTable
 71
0
  0
DIMSTYLE
105
21C
100
AcDbSymbolTableRecord
100
AcDbDimStyleTableRecord
  2
STANDARD
 70
0
  3

  4

 40
1.0
 41
3.0
 42
0.5
 43
0.38
 44
1.5
 45
0.0
 46
0.0
 47
0.01
 48
0.01
140
3.0
141
0.0
142
0.0
143
25.4
144
1.0
145
0.0
146
1.0
147
0.625
 71
1
 72
0
 73
0
 74
0
 75
0
 76
0
 77
1
 78
8
 79
2
170
0
171
1
172
0
173
0
174
0
175
0
176
0
177
0
178
0
270
2
179
2
271
2
272
2
273
2
274
2
275
0
280
0
281
0
282
0
283
1
284
8
285
0
286
0
287
3
288
0
340
11
278
44
341
217
342
217
343
217
344
217
  0
DIMSTYLE
105
21D
100
AcDbSymbolTableRecord
100
AcDbDimStyleTableRecord
  2
DIMSTYLE_1
 70
0
  3

  4

 40
1.0
 41
3.0
 42
0.5
 43
0.38
 44
1.5
 45
0.0
 46
0.0
 47
0.0
 48
0.0
140
3.0
141
0.0
142
0.0
143
25.4
144
1.0
145
0.0
146
1.0
147
0.75
 71
0
 72
0
 73
0
 74
0
 75
0
 76
0
 77
1
 78
8
 79
2
170
0
171
1
172
0
173
0
174
0
175
0
176
0
177
0
178
0
270
2
179
2
271
2
272
2
273
2
274
2
275
0
280
0
281
0
282
0
283
1
284
8
285
0
286
0
287
3
288
0
340
11
278
44
341
217
342
217
343
217
344
217
  0
DIMSTYLE
105
21E
100
AcDbSymbolTableRecord
100
AcDbDimStyleTableRecord
  2
DIMSTYLE_2
 70
0
  3

  4

 40
1.0
 41
3.0
 42
0.5
 43
0.38
 44
1.5
 45
0.0
 46
0.0
 47
0.0
 48
0.0
140
3.0
141
0.0
142
0.0
143
25.4
144
1.0
145
0.0
146
1.0
147
0.75
 71
0
 72
0
 73
0
 74
0
 75
0
 76
0
 77
1
 78
8
 79
2
170
0
171
1
172
0
173
0
174
0
175
0
176
0
177
0
178
0
270
2
179
2
271
0
272
0
273
2
274
2
275
0
280
0
281
0
282
0
283
1
284
8
285
0
286
0
287
3
288
0
340
11
278
44
341
217
342
217
343
217
344
217
  0
DIMSTYLE
105
21F
100
AcDbSymbolTableRecord
100
AcDbDimStyleTableRecord
  2
DIMSTYLE_3
 70
0
  3

  4

 40
1.0
 41
3.0
 42
0.5
 43
0.38
 44
1.5
 45
0.0
 46
0.0
 47
0.0
 48
0.0
140
3.0
141
0.0
142
0.0
143
25.4
144
1.0
145
0.0
146
1.0
147
0.75
 71
0
 72
0
 73
0
 74
0
 75
0
 76
0
 77
1
 78
8
 79
2
170
0
171
1
172
0
173
0
174
0
175
0
176
0
177
0
178
0
270
2
179
2
271
1
272
1
273
2
274
2
275
0
280
0
281
0
282
0
283
1
284
8
285
0
286
0
287
3
288
0
340
11
278
44
341
217
342
217
343
217
344
217
  0
ENDTAB
  0
ENDSEC
  0
SECTION
  2
BLOCKS
  0
BLOCK
  5
20
100
AcDbEntity
  8
0
100
AcDbBlockBegin
  2
*Model_Space
 70
0
 10
0.0
 20
0.0
 30
0.0
  3
*Model_Space
  1

  0
ENDBLK
  5
21
100
AcDbEntity
  8
0
100
AcDbBlockEnd
  0
BLOCK
  5
1C
100
AcDbEntity
  8
0
100
AcDbBlockBegin
  2
*Paper_Space
 70
0
 10
0.0
 20
0.0
 30
0.0
  3
*Paper_Space
  1

  0
ENDBLK
  5
1D
100
AcDbEntity
  8
0
100
AcDbBlockEnd
  0
BLOCK
  5
220
100
AcDbEntity
  8
0
100
AcDbBlockBegin
  2
_FILLED
 70
64
 10
0.0
 20
0.0
 30
0.0
  3
_FILLED
  1

  0
SOLID
  5
221
100
AcDbEntity
  8
0
  6
BYBLOCK
 62
0
100
AcDbTrace
 10
0.0
 20
0.0
 30
0.0
 11
-1.0
 21
0.3166666667
 31
0.0
 12
-1.0
 22
-0.3166666667
 32
0.0
 13
-1.0
 23
-0.3166666667
 33
0.0
  0
ENDBLK
  5
222
100
AcDbEntity
  8
0
  6
BYBLOCK
 62
0
100
AcDbBlockEnd
  0
BLOCK
  5
223
100
AcDbEntity
  8
0
100
AcDbBlockBegin
 62
7
  6
CONTINUOUS
  2
*D0
 70
65
 10
0.0
 20
0.0
 30
0.0
  3
*D0
  1

  0
MTEXT
  5
224
100
AcDbEntity
  8
0
100
AcDbMText
 62
7
  6
CONTINUOUS
  7
STANDARD
 71
2
 72
1
 10
-1.3784924454
 20
55.75
 30
0.0
 11
1.0
 21
0.0
 31
0.0
 73
2
 44
0.9
  1
{\ftxt;\W0.0001;\H0.0001;\~}{\ftxt;\W2.9285714286;\H3.0; }{\ftxt;\W0.0001;\H0.0001;\~}
 40
3.0
 41
13.1785714286
  0
LINE
  5
225
100
AcDbEntity
  8
0
100
AcDbLine
 62
7
  6
CONTINUOUS
 10
-46.4784924454
 20
38.1065815689
 30
0.0
 11
-46.4784924454
 21
53.5
 31
0.0
  0
LINE
  5
226
100
AcDbEntity
  8
0
100
AcDbLine
 62
7
  6
CONTINUOUS
 10
43.7215075546
 20
38.1065221689
 30
0.0
 11
43.7215075546
 21
53.5
 31
0.0
  0
LINE
  5
227
100
AcDbEntity
  8
0
100
AcDbLine
 62
7
  6
CONTINUOUS
 10
-46.4784924454
 20
52.0
 30
0.0
 11
-1.3784924454
 21
52.0
 31
0.0
  0
LINE
  5
228
100
AcDbEntity
  8
0
100
AcDbLine
 62
7
  6
CONTINUOUS
 10
43.7215075546
 20
52.0
 30
0.0
 11
-1.3784924454
 21
52.0
 31
0.0
  0
INSERT
  5
229
100
AcDbEntity
  8
0
100
AcDbBlockReference
 62
7
  6
CONTINUOUS
  2
_FILLED
 10
-46.4784924454
 20
52.0
 30
0.0
 41
3.0
 42
3.0
 43
3.0
 50
180.0
  0
INSERT
  5
22A
100
AcDbEntity
  8
0
100
AcDbBlockReference
 62
7
  6
CONTINUOUS
  2
_FILLED
 10
43.7215075546
 20
52.0
 30
0.0
 41
3.0
 42
3.0
 43
3.0
  0
ENDBLK
  5
22B
100
AcDbEntity
  8
0
  6
BYBLOCK
 62
0
100
AcDbBlockEnd
  0
BLOCK
  5
22C
100
AcDbEntity
  8
0
100
AcDbBlockBegin
 62
7
  6
CONTINUOUS
  2
*D1
 70
65
 10
0.0
 20
0.0
 30
0.0
  3
*D1
  1

  0
MTEXT
  5
22D
100
AcDbEntity
  8
0
100
AcDbMText
 62
7
  6
CONTINUOUS
  7
STANDARD
 71
2
 72
1
 10
54.3716361165
 20
-4.9948757987
 30
0.0
 11
0.0
 21
1.0
 31
0.0
 73
2
 44
0.9
  1
{\ftxt;\W0.0001;\H0.0001;\~}{\ftxt;\W1.5714285714;\H3.0; }{\ftxt;\W0.0001;\H0.0001;\~}
 40
3.0
 41
7.0714285714
  0
LINE
  5
22E
100
AcDbEntity
  8
0
100
AcDbLine
 62
7
  6
CONTINUOUS
 10
42.7229649223
 20
39.1051242013
 30
0.0
 11
59.6216361165
 21
39.1051242013
 31
0.0
  0
LINE
  5
22F
100
AcDbEntity
  8
0
100
AcDbLine
 62
7
  6
CONTINUOUS
 10
42.7229055223
 20
-49.0948757987
 30
0.0
 11
59.6216361165
 21
-49.0948757987
 31
0.0
  0
LINE
  5
230
100
AcDbEntity
  8
0
100
AcDbLine
 62
7
  6
CONTINUOUS
 10
58.1216361165
 20
39.1051242013
 30
0.0
 11
58.1216361165
 21
-4.9948757987
 31
0.0
  0
LINE
  5
231
100
AcDbEntity
  8
0
100
AcDbLine
 62
7
  6
CONTINUOUS
 10
58.1216361165
 20
-49.0948757987
 30
0.0
 11
58.1216361165
 21
-4.9948757987
 31
0.0
  0
INSERT
  5
232
100
AcDbEntity
  8
0
100
AcDbBlockReference
 62
7
  6
CONTINUOUS
  2
_FILLED
 10
58.1216361165
 20
39.1051242013
 30
0.0
 41
3.0
 42
3.0
 43
3.0
 50
90.0
  0
INSERT
  5
233
100
AcDbEntity
  8
0
100
AcDbBlockReference
 62
7
  6
CONTINUOUS
  2
_FILLED
 10
58.1216361165
 20
-49.0948757987
 30
0.0
 41
3.0
 42
3.0
 43
3.0
 50
270.0
  0
ENDBLK
  5
234
100
AcDbEntity
  8
0
  6
BYBLOCK
 62
0
100
AcDbBlockEnd
  0
BLOCK
  5
235
100
AcDbEntity
  8
0
100
AcDbBlockBegin
 62
7
  6
CONTINUOUS
  2
*D2
 70
65
 10
0.0
 20
0.0
 30
0.0
  3
*D2
  1

  0
MTEXT
  5
236
100
AcDbEntity
  8
0
100
AcDbMText
 62
7
  6
CONTINUOUS
  7
STANDARD
 71
2
 72
1
 10
-93.1920059071
 20
55.7037757433
 30
0.0
 11
1.0
 21
0.0
 31
0.0
 73
2
 44
0.9
  1
{\ftxt;\W0.0001;\H0.0001;\~}{\ftxt;\W2.6428571429;\H3.0; }{\ftxt;\W0.0001;\H0.0001;\~}
 40
3.0
 41
11.8928571429
  0
LINE
  5
237
100
AcDbEntity
  8
0
100
AcDbLine
 62
7
  6
CONTINUOUS
 10
-99.4420059071
 20
38.5295554718
 30
0.0
 11
-99.4420059071
 21
53.4537757433
 31
0.0
  0
LINE
  5
238
100
AcDbEntity
  8
0
100
AcDbLine
 62
7
  6
CONTINUOUS
 10
-86.9420059071
 20
38.6388809838
 30
0.0
 11
-86.9420059071
 21
53.4537757433
 31
0.0
  0
LINE
  5
239
100
AcDbEntity
  8
0
100
AcDbLine
 62
7
  6
CONTINUOUS
 10
-99.4420059071
 20
51.9537757433
 30
0.0
 11
-103.4420059071
 21
51.9537757433
 31
0.0
  0
LINE
  5
23A
100
AcDbEntity
  8
0
100
AcDbLine
 62
7
  6
CONTINUOUS
 10
-103.4420059071
 20
51.9537757433
 30
0.0
 11
-93.1920059071
 21
51.9537757433
 31
0.0
  0
LINE
  5
23B
100
AcDbEntity
  8
0
100
AcDbLine
 62
7
  6
CONTINUOUS
 10
-86.9420059071
 20
51.9537757433
 30
0.0
 11
-82.9420059071
 21
51.9537757433
 31
0.0
  0
LINE
  5
23C
100
AcDbEntity
  8
0
100
AcDbLine
 62
7
  6
CONTINUOUS
 10
-82.9420059071
 20
51.9537757433
 30
0.0
 11
-93.1920059071
 21
51.9537757433
 31
0.0
  0
INSERT
  5
23D
100
AcDbEntity
  8
0
100
AcDbBlockReference
 62
7
  6
CONTINUOUS
  2
_FILLED
 10
-99.4420059071
 20
51.9537757433
 30
0.0
 41
3.0
 42
3.0
 43
3.0
  0
INSERT
  5
23E
100
AcDbEntity
  8
0
100
AcDbBlockReference
 62
7
  6
CONTINUOUS
  2
_FILLED
 10
-86.9420059071
 20
51.9537757433
 30
0.0
 41
3.0
 42
3.0
 43
3.0
 50
180.0
  0
ENDBLK
  5
23F
100
AcDbEntity
  8
0
  6
BYBLOCK
 62
0
100
AcDbBlockEnd
  0
BLOCK
  5
240
100
AcDbEntity
  8
0
100
AcDbBlockBegin
 62
7
  6
CONTINUOUS
  2
*D3
 70
65
 10
0.0
 20
0.0
 30
0.0
  3
*D3
  1

  0
MTEXT
  5
241
100
AcDbEntity
  8
0
100
AcDbMText
 62
7
  6
CONTINUOUS
  7
STANDARD
 71
2
 72
1
 10
-88.8920059071
 20
64.386379919
 30
0.0
 11
1.0
 21
0.0
 31
0.0
 73
2
 44
0.9
  1
{\ftxt;\W0.0001;\H0.0001;\~}{\ftxt;\W2.5;\H3.0; }{\ftxt;\W0.0001;\H0.0001;\~}
 40
3.0
 41
11.25
  0
LINE
  5
242
100
AcDbEntity
  8
0
100
AcDbLine
 62
7
  6
CONTINUOUS
 10
-99.4420059071
 20
38.5295554718
 30
0.0
 11
-99.4420059071
 21
62.136379919
 31
0.0
  0
LINE
  5
243
100
AcDbEntity
  8
0
100
AcDbLine
 62
7
  6
CONTINUOUS
 10
-78.3420059071
 20
20.6447825066
 30
0.0
 11
-78.3420059071
 21
62.136379919
 31
0.0
  0
LINE
  5
244
100
AcDbEntity
  8
0
100
AcDbLine
 62
7
  6
CONTINUOUS
 10
-99.4420059071
 20
60.636379919
 30
0.0
 11
-88.8920059071
 21
60.636379919
 31
0.0
  0
LINE
  5
245
100
AcDbEntity
  8
0
100
AcDbLine
 62
7
  6
CONTINUOUS
 10
-78.3420059071
 20
60.636379919
 30
0.0
 11
-88.8920059071
 21
60.636379919
 31
0.0
  0
INSERT
  5
246
100
AcDbEntity
  8
0
100
AcDbBlockReference
 62
7
  6
CONTINUOUS
  2
_FILLED
 10
-99.4420059071
 20
60.636379919
 30
0.0
 41
3.0
 42
3.0
 43
3.0
 50
180.0
  0
INSERT
  5
247
100
AcDbEntity
  8
0
100
AcDbBlockReference
 62
7
  6
CONTINUOUS
  2
_FILLED
 10
-78.3420059071
 20
60.636379919
 30
0.0
 41
3.0
 42
3.0
 43
3.0
  0
ENDBLK
  5
248
100
AcDbEntity
  8
0
  6
BYBLOCK
 62
0
100
AcDbBlockEnd
  0
ENDSEC
  0
SECTION
  2
ENTITIES
  0
DIMENSION
  5
249
100
AcDbEntity
  8
0
100
AcDbDimension
 62
7
  6
CONTINUOUS
  2
*D0
 10
43.7215075546
 20
52.0
 30
0.0
 11
-1.8070638785
 21
52.0
 31
0.0
 70
160
 71
2
 72
2
 41
0.9
 42
90.2
  1
{\ftxt;\W0.0001;\H0.0001;\~}{\ftxt;\W2.9285714286;\H3.0; }{\ftxt;\W0.0001;\H0.0001;\~}
  3
DIMSTYLE_1
100
AcDbAlignedDimension
 13
-46.4784924454
 23
37.6065815689
 33
0.0
 14
43.7215075546
 24
37.6065221689
 34
0.0
100
AcDbRotatedDimension
  0
DIMENSION
  5
24A
100
AcDbEntity
  8
0
100
AcDbDimension
 62
7
  6
CONTINUOUS
  2
*D1
 10
58.1216361165
 20
-49.0948757987
 30
0.0
 11
58.1216361165
 21
-5.4234486033
 31
0.0
 70
160
 71
2
 72
2
 41
0.9
 42
88.2
  1
{\ftxt;\W0.0001;\H0.0001;\~}{\ftxt;\W1.5714285714;\H3.0; }{\ftxt;\W0.0001;\H0.0001;\~}
  3
DIMSTYLE_2
100
AcDbAlignedDimension
 13
42.2229649223
 23
39.1051242013
 33
0.0
 14
42.2229055223
 24
-49.0948757987
 34
0.0
 50
270.0
100
AcDbRotatedDimension
  0
DIMENSION
  5
24B
100
AcDbEntity
  8
0
100
AcDbDimension
 62
7
  6
CONTINUOUS
  2
*D2
 10
-86.9420059071
 20
51.9537757433
 30
0.0
 11
-93.6205760193
 21
51.9537757433
 31
0.0
 70
160
 71
2
 72
2
 41
0.9
 42
12.5
  1
{\ftxt;\W0.0001;\H0.0001;\~}{\ftxt;\W2.6428571429;\H3.0; }{\ftxt;\W0.0001;\H0.0001;\~}
  3
DIMSTYLE_1
100
AcDbAlignedDimension
 13
-99.4420059071
 23
38.0295554718
 33
0.0
 14
-86.9420059071
 24
38.1388809838
 34
0.0
100
AcDbRotatedDimension
  0
DIMENSION
  5
24C
100
AcDbEntity
  8
0
100
AcDbDimension
 62
7
  6
CONTINUOUS
  2
*D3
 10
-78.3420059071
 20
60.636379919
 30
0.0
 11
-89.320574707
 21
60.636379919
 31
0.0
 70
160
 71
2
 72
2
 41
0.9
 42
21.1
  1
{\ftxt;\W0.0001;\H0.0001;\~}{\ftxt;\W2.5;\H3.0; }{\ftxt;\W0.0001;\H0.0001;\~}
  3
DIMSTYLE_3
100
AcDbAlignedDimension
 13
-99.4420059071
 23
38.0295554718
 33
0.0
 14
-78.3420059071
 24
20.1447825066
 34
0.0
100
AcDbRotatedDimension
  0
LWPOLYLINE
  5
24D
100
AcDbEntity
  8
RACCORDO
100
AcDbPolyline
 62
250
  6
CONTINUOUS
 90
4
 70
0
 10
-45.3027993201
 20
38.8685954405
 10
-45.3026806168
 20
38.8662854944
 10
-45.3010797999
 20
38.8619867111
 10
-45.2987136785
 20
38.8563576929
  0
LWPOLYLINE
  5
24E
100
AcDbEntity
  8
RACCORDO
100
AcDbPolyline
 62
250
  6
CONTINUOUS
 90
28
 70
0
 10
-45.4029534159
 20
-47.120570188
 10
-45.4012359128
 20
-47.1737691184
 10
-45.3966522871
 20
-47.2260338961
 10
-45.3892025387
 20
-47.2773645211
 10
-45.3788540705
 20
-47.3277638584
 10
-45.3656394796
 20
-47.377229043
 10
-45.3496565581
 20
-47.4257514797
 10
-45.3308622405
 20
-47.4735021739
 10
-45.3092995923
 20
-47.5203101201
 10
-45.2851956021
 20
-47.565653707
 10
-45.258533457
 20
-47.6094920737
 10
-45.2293299698
 20
-47.6518660809
 10
-45.1978625683
 20
-47.6923766996
 10
-45.1640995893
 20
-47.7310151112
 10
-45.1280726959
 20
-47.7677901343
 10
-45.0901543054
 20
-47.8023291947
 10
-45.0504729962
 20
-47.8345477032
 10
-45.00890019
 20
-47.8645302491
 10
-44.9654225688
 20
-47.8921580262
 10
-44.9199168786
 20
-47.9175348436
 10
-44.8725063735
 20
-47.9405568923
 10
-44.8235474974
 20
-47.9607939393
 10
-44.7729296022
 20
-47.9782334609
 10
-44.7207633361
 20
-47.9928879809
 10
-44.6677370874
 20
-48.0043648379
 10
-44.614080319
 20
-48.0125331447
 10
-44.5595635681
 20
-48.0175237885
 10
-44.5041868346
 20
-48.0193367693
  0
LWPOLYLINE
  5
24F
100
AcDbEntity
  8
RACCORDO
100
AcDbPolyline
 62
250
  6
CONTINUOUS
 90
28
 70
0
 10
-46.0021311367
 20
-47.120570188
 10
-45.9994447368
 20
-47.2086932048
 10
-45.9916691355
 20
-47.2958093211
 10
-45.9789525494
 20
-47.3816336021
 10
-45.9615190833
 20
-47.4656388911
 10
-45.9395114921
 20
-47.54783834
 10
-45.9128443347
 20
-47.6287469735
 10
-45.8814685996
 20
-47.7083789514
 10
-45.8455581052
 20
-47.7861774913
 10
-45.8052720414
 20
-47.8617799797
 10
-45.7607701449
 20
-47.934902066
 10
-45.7121794639
 20
-48.00534954
 10
-45.6596452505
 20
-48.0729132337
 10
-45.6033219457
 20
-48.1373896844
 10
-45.5434062414
 20
-48.1985496271
 10
-45.4801273922
 20
-48.2561633055
 10
-45.4139086552
 20
-48.3098855958
 10
-45.3447753837
 20
-48.3597338523
 10
-45.2723047274
 20
-48.4059415885
 10
-45.1964593536
 20
-48.4483626929
 10
-45.117628353
 20
-48.486613555
 10
-45.0359796379
 20
-48.5204681346
 10
-44.9516252416
 20
-48.5497211219
 10
-44.8649334237
 20
-48.5740885861
 10
-44.7765000364
 20
-48.5932907344
 10
-44.6867376278
 20
-48.6071663857
 10
-44.5958570561
 20
-48.6156114988
 10
-44.5041868346
 20
-48.6185144901
  0
LWPOLYLINE
  5
250
100
AcDbEntity
  8
0
100
AcDbPolyline
 62
7
  6
CONTINUOUS
 90
28
 70
0
 10
-46.4784924454
 20
-47.5963034664
 10
-46.4759651437
 20
-47.6833934995
 10
-46.4683720201
 20
-47.7703243845
 10
-46.4557139839
 20
-47.8568006847
 10
-46.4379780924
 20
-47.9426594585
 10
-46.4152158898
 20
-48.0274668154
 10
-46.3876205693
 20
-48.1105396369
 10
-46.3554208426
 20
-48.1913998143
 10
-46.3187023104
 20
-48.2700119786
 10
-46.2774906127
 20
-48.3463716925
 10
-46.2319168467
 20
-48.420230644
 10
-46.18213616
 20
-48.4913322713
 10
-46.1281536139
 20
-48.5596271019
 10
-46.0699431876
 20
-48.6250396371
 10
-46.0078194914
 20
-48.6871156302
 10
-45.9423503946
 20
-48.7452857186
 10
-45.8739623342
 20
-48.7992530931
 10
-45.8027535955
 20
-48.8490188768
 10
-45.7288581724
 20
-48.8945262256
 10
-45.6525969716
 20
-48.9356039994
 10
-45.5741708388
 20
-48.9721694603
 10
-45.4935019673
 20
-49.0042425363
 10
-45.4106039748
 20
-49.0317430373
 10
-45.3259711417
 20
-49.054433778
 10
-45.2402532357
 20
-49.0721262516
 10
-45.1538707752
 20
-49.0847635474
 10
-45.0669949793
 20
-49.0923493489
 10
-44.979920113
 20
-49.0948757987
  0
LINE
  5
251
100
AcDbEntity
  8
0
100
AcDbLine
 62
7
  6
CONTINUOUS
 10
-46.4784924454
 20
37.6065518689
 30
0.0
 11
-46.4784924454
 21
-47.5963034664
 31
0.0
  0
LINE
  5
252
100
AcDbEntity
  8
0
100
AcDbLine
 62
7
  6
CONTINUOUS
 10
-46.3784924454
 20
35.7051242013
 30
0.0
 11
-46.3784924454
 21
-47.4969314966
 31
0.0
  0
LINE
  5
253
100
AcDbEntity
  8
RACCORDO
100
AcDbLine
 62
250
  6
CONTINUOUS
 10
-46.0021311367
 20
37.1308185905
 30
0.0
 11
-46.0021311367
 21
-47.120570188
 31
0.0
  0
LINE
  5
254
100
AcDbEntity
  8
RACCORDO
100
AcDbLine
 62
250
  6
CONTINUOUS
 10
-45.4029534159
 20
37.1308185905
 30
0.0
 11
-45.4029534159
 21
-47.120570188
 31
0.0
  0
LINE
  5
255
100
AcDbEntity
  8
RACCORDO
100
AcDbLine
 62
250
  6
CONTINUOUS
 10
-44.822455049
 20
38.9476591373
 30
0.0
 11
-44.822455049
 21
38.9332709233
 31
0.0
  0
LINE
  5
256
100
AcDbEntity
  8
RACCORDO
100
AcDbLine
 62
250
  6
CONTINUOUS
 10
-44.5041868346
 20
-48.0193367693
 30
0.0
 11
-44.5041868346
 21
-48.6185144901
 31
0.0
  0
LINE
  5
257
100
AcDbEntity
  8
RACCORDO
100
AcDbLine
 62
250
  6
CONTINUOUS
 10
-44.5041868346
 20
38.0295851718
 30
0.0
 11
-44.5041868346
 21
38.6287628926
 31
0.0
  0
LWPOLYLINE
  5
258
100
AcDbEntity
  8
RACCORDO
100
AcDbPolyline
 62
250
  6
CONTINUOUS
 90
5
 70
0
 10
-45.3114395166
 20
38.8521294286
 10
-45.311396589
 20
38.8524411911
 10
-45.3093083327
 20
38.8597880315
 10
-45.3064280079
 20
38.8651992114
 10
-45.3027993201
 20
38.8685954405
  0
LWPOLYLINE
  5
259
100
AcDbEntity
  8
RACCORDO
100
AcDbPolyline
 62
250
  6
CONTINUOUS
 90
15
 70
0
 10
-46.1665290238
 20
38.168696011
 10
-46.1618227946
 20
38.1775405083
 10
-46.1137844676
 20
38.2556726683
 10
-46.061208002
 20
38.3304037565
 10
-46.0043454919
 20
38.4015184946
 10
-45.9438422682
 20
38.4684903505
 10
-45.8800805976
 20
38.5311505114
 10
-45.813370846
 20
38.5894240028
 10
-45.7443593428
 20
38.6430616999
 10
-45.6735096768
 20
38.6919966186
 10
-45.6010926599
 20
38.7363072117
 10
-45.5274887535
 20
38.7760475217
 10
-45.4530398918
 20
38.8112859475
 10
-45.3780468993
 20
38.8421006937
 10
-45.3028060148
 20
38.8685931773
  0
LINE
  5
25A
100
AcDbEntity
  8
RACCORDO
100
AcDbLine
 62
7
  6
CONTINUOUS
 10
-23.6758389552
 20
-49.0948757987
 30
0.0
 11
-23.7220615992
 21
-48.9854377719
 31
0.0
  0
LINE
  5
25B
100
AcDbEntity
  8
RACCORDO
100
AcDbLine
 62
250
  6
CONTINUOUS
 10
-23.3784924454
 20
-48.7948185897
 30
0.0
 11
-23.3873051063
 21
-48.7727751835
 31
0.0
  0
LINE
  5
25C
100
AcDbEntity
  8
RACCORDO
100
AcDbLine
 62
250
  6
CONTINUOUS
 10
-24.7112188761
 20
-48.6726695799
 30
0.0
 11
-24.7124042482
 21
-48.6695834928
 31
0.0
  0
LWPOLYLINE
  5
25D
100
AcDbEntity
  8
RACCORDO
100
AcDbPolyline
 62
7
  6
CONTINUOUS
 90
17
 70
0
 10
-24.7125317688
 20
-48.6695834928
 10
-24.7120215356
 20
-48.6709375991
 10
-24.6949406695
 20
-48.7071784668
 10
-24.6750096805
 20
-48.7419374993
 10
-24.6523543174
 20
-48.7750075079
 10
-24.6271235036
 20
-48.8061595522
 10
-24.599481004
 20
-48.8351831947
 10
-24.5696110936
 20
-48.8618983992
 10
-24.5377003599
 20
-48.8861302465
 10
-24.5039625148
 20
-48.9077222909
 10
-24.4686349438
 20
-48.9265358018
 10
-24.431931776
 20
-48.9424525166
 10
-24.3940520128
 20
-48.9553895636
 10
-24.3552279978
 20
-48.9652590802
 10
-24.3157072315
 20
-48.9719866792
 10
-24.2757412305
 20
-48.9755353082
 10
-24.2516046024
 20
-48.9761213722
  0
LWPOLYLINE
  5
25E
100
AcDbEntity
  8
RACCORDO
100
AcDbPolyline
 62
250
  6
CONTINUOUS
 90
16
 70
0
 10
-24.5439529927
 20
-32.0933515766
 10
-24.5433420406
 20
-32.1040099165
 10
-24.5417099216
 20
-32.1143128501
 10
-24.5390566357
 20
-32.1242603775
 10
-24.5353330776
 20
-32.1339429649
 10
-24.5305883526
 20
-32.1432701461
 10
-24.524969777
 20
-32.1519705221
 10
-24.5184551864
 20
-32.1600317186
 10
-24.5110667452
 20
-32.1674661099
 10
-24.5030182636
 20
-32.1740394199
 10
-24.4942819718
 20
-32.1797325072
 10
-24.4848856396
 20
-32.1845645131
 10
-24.4751263866
 20
-32.1883585852
 10
-24.4651032529
 20
-32.1910557727
 10
-24.4547171984
 20
-32.1927150263
 10
-24.4439682232
 20
-32.1933363461
  0
LWPOLYLINE
  5
25F
100
AcDbEntity
  8
RACCORDO
100
AcDbPolyline
 62
250
  6
CONTINUOUS
 90
19
 70
0
 10
-24.808566802
 20
22.1146451674
 10
-24.8104732011
 20
22.1503222701
 10
-24.8094085933
 20
22.1847441972
 10
-24.8053461304
 20
22.2178346666
 10
-24.7981360125
 20
22.2495841078
 10
-24.7878866237
 20
22.2798190411
 10
-24.7750178887
 20
22.3082205585
 10
-24.7596674153
 20
22.3346474939
 10
-24.7418099849
 20
22.3590669302
 10
-24.7216896233
 20
22.3813480245
 10
-24.6994450798
 20
22.401447586
 10
-24.6750938217
 20
22.4192604347
 10
-24.648720933
 20
22.4345852023
 10
-24.6203504148
 20
22.4474614338
 10
-24.590128952
 20
22.4577323926
 10
-24.5583476691
 20
22.4649637495
 10
-24.5251704299
 20
22.4690392279
 10
-24.4906157452
 20
22.4701086282
 10
-24.4547603551
 20
22.4681948329
  0
LWPOLYLINE
  5
260
100
AcDbEntity
  8
RACCORDO
100
AcDbPolyline
 62
250
  6
CONTINUOUS
 90
16
 70
0
 10
-24.7439225318
 20
-32.0933515766
 10
-24.742265119
 20
-32.124781795
 10
-24.7373382957
 20
-32.1557974701
 10
-24.729217627
 20
-32.1860621436
 10
-24.7180241816
 20
-32.2152256397
 10
-24.7038937391
 20
-32.2430069746
 10
-24.6869487453
 20
-32.269184274
 10
-24.6673634148
 20
-32.2934779458
 10
-24.6453499709
 20
-32.315615721
 10
-24.6210941339
 20
-32.3353908958
 10
-24.5948246772
 20
-32.3525817182
 10
-24.5668336669
 20
-32.3669643665
 10
-24.5374267755
 20
-32.3783566665
 10
-24.5069242968
 20
-32.3866124997
 10
-24.4756564305
 20
-32.3916211282
 10
-24.4439682232
 20
-32.3933058851
  0
LINE
  5
261
100
AcDbEntity
  8
RACCORDO
100
AcDbLine
 62
250
  6
CONTINUOUS
 10
-24.25330561
 20
-48.7930598618
 30
0.0
 11
-24.2516046219
 21
-48.9757102326
 31
0.0
  0
LINE
  5
262
100
AcDbEntity
  8
RACCORDO
100
AcDbLine
 62
250
  6
CONTINUOUS
 10
-25.3122504434
 20
-32.2787404102
 30
0.0
 11
-25.3122504434
 21
22.2889888127
 31
0.0
  0
LINE
  5
263
100
AcDbEntity
  8
RACCORDO
100
AcDbLine
 62
250
  6
CONTINUOUS
 10
-25.1122809044
 20
-32.2787404102
 30
0.0
 11
-25.1122809044
 21
22.2889888127
 31
0.0
  0
LINE
  5
264
100
AcDbEntity
  8
RACCORDO
100
AcDbLine
 62
7
  6
CONTINUOUS
 10
-25.1034924454
 20
22.2802003537
 30
0.0
 11
-25.1034924454
 21
-32.2699519512
 31
0.0
  0
LINE
  5
265
100
AcDbEntity
  8
RACCORDO
100
AcDbLine
 62
250
  6
CONTINUOUS
 10
-24.808591484
 20
-32.1044214468
 30
0.0
 11
-24.808591484
 21
22.1146698493
 31
0.0
  0
LINE
  5
266
100
AcDbEntity
  8
RACCORDO
100
AcDbLine
 62
250
  6
CONTINUOUS
 10
-24.7500433012
 20
-32.099472346
 30
0.0
 11
-24.7500433012
 21
22.1097207485
 31
0.0
  0
LINE
  5
267
100
AcDbEntity
  8
RACCORDO
100
AcDbLine
 62
250
  6
CONTINUOUS
 10
-24.7439225318
 20
22.1035999791
 30
0.0
 11
-24.7439225318
 21
-32.0933515766
 31
0.0
  0
LINE
  5
268
100
AcDbEntity
  8
RACCORDO
100
AcDbLine
 62
250
  6
CONTINUOUS
 10
-24.6123570568
 20
22.9888821993
 30
0.0
 11
-24.6123570568
 21
22.7889126603
 31
0.0
  0
LINE
  5
269
100
AcDbEntity
  8
RACCORDO
100
AcDbLine
 62
250
  6
CONTINUOUS
 10
-24.6123570568
 20
-32.9786337968
 30
0.0
 11
-24.6123570568
 21
-32.7786642578
 31
0.0
  0
LINE
  5
26A
100
AcDbEntity
  8
RACCORDO
100
AcDbLine
 62
250
  6
CONTINUOUS
 10
-24.5439529927
 20
22.1035999791
 30
0.0
 11
-24.5439529927
 21
-32.0933515766
 31
0.0
  0
LINE
  5
26B
100
AcDbEntity
  8
RACCORDO
100
AcDbLine
 62
250
  6
CONTINUOUS
 10
-24.4439682232
 20
-32.1933363461
 30
0.0
 11
-24.4439682232
 21
-32.3933058851
 31
0.0
  0
LINE
  5
26C
100
AcDbEntity
  8
RACCORDO
100
AcDbLine
 62
250
  6
CONTINUOUS
 10
-24.4439682232
 20
22.2035847486
 30
0.0
 11
-24.4439682232
 21
22.4035542877
 31
0.0
  0
LINE
  5
26D
100
AcDbEntity
  8
RACCORDO
100
AcDbLine
 62
250
  6
CONTINUOUS
 10
-24.2516046219
 20
-48.9761213722
 30
0.0
 11
-24.2516046219
 21
-48.9757102326
 31
0.0
  0
LINE
  5
26E
100
AcDbEntity
  8
RACCORDO
100
AcDbLine
 62
250
  6
CONTINUOUS
 10
-24.1553802688
 20
-48.9761213722
 30
0.0
 11
-24.1553802688
 21
-48.9757102326
 31
0.0
  0
LINE
  5
26F
100
AcDbEntity
  8
RACCORDO
100
AcDbLine
 62
250
  6
CONTINUOUS
 10
-23.7537203158
 20
-48.7668457291
 30
0.0
 11
-23.7537203158
 21
-48.6695834928
 31
0.0
  0
LINE
  5
270
100
AcDbEntity
  8
RACCORDO
100
AcDbLine
 62
250
  6
CONTINUOUS
 10
-23.7220615992
 20
-48.9854377719
 30
0.0
 11
-23.7220615992
 21
-48.8355805387
 31
0.0
  0
LINE
  5
271
100
AcDbEntity
  8
RACCORDO
100
AcDbLine
 62
250
  6
CONTINUOUS
 10
-23.4033742935
 20
-48.7727751835
 30
0.0
 11
-23.4033742935
 21
-48.7720899509
 31
0.0
  0
LINE
  5
272
100
AcDbEntity
  8
RACCORDO
100
AcDbLine
 62
7
  6
CONTINUOUS
 10
-23.3784924454
 20
-48.7948185897
 30
0.0
 11
-23.3784924454
 21
-48.7727751835
 31
0.0
  0
LINE
  5
273
100
AcDbEntity
  8
RACCORDO
100
AcDbLine
 62
250
  6
CONTINUOUS
 10
-24.1538498255
 20
-48.8113727861
 30
0.0
 11
-24.1553802688
 21
-48.9757102326
 31
0.0
  0
LWPOLYLINE
  5
274
100
AcDbEntity
  8
RACCORDO
100
AcDbPolyline
 62
250
  6
CONTINUOUS
 90
25
 70
0
 10
-25.1122809032
 20
22.2889888116
 10
-25.1111509203
 20
22.3226501179
 10
-25.1078204873
 20
22.3556937452
 10
-25.1023969937
 20
22.3879833334
 10
-25.0950312062
 20
22.4192589133
 10
-25.0858223535
 20
22.4495524399
 10
-25.0747308845
 20
22.4791614694
 10
-25.0617589301
 20
22.5080730107
 10
-25.0470026464
 20
22.5360663595
 10
-25.030482784
 20
22.5631026695
 10
-25.0122187359
 20
22.589123369
 10
-24.9923114553
 20
22.6139603021
 10
-24.9709187443
 20
22.6374225533
 10
-24.9482518386
 20
22.6593224595
 10
-24.9243113113
 20
22.6797005084
 10
-24.8989214924
 20
22.6986834548
 10
-24.8721559051
 20
22.71615431
 10
-24.8440952451
 20
22.7320004715
 10
-24.8145144266
 20
22.7462519822
 10
-24.7832958659
 20
22.7588097801
 10
-24.7507173573
 20
22.7694078503
 10
-24.717157704
 20
22.7778209922
 10
-24.682849739
 20
22.7839281983
 10
-24.6478609876
 20
22.7876552127
 10
-24.6123570553
 20
22.7889126588
  0
LWPOLYLINE
  5
275
100
AcDbEntity
  8
RACCORDO
100
AcDbPolyline
 62
250
  6
CONTINUOUS
 90
25
 70
0
 10
-25.3122504434
 20
22.2889888127
 10
-25.3103985104
 20
22.3363965871
 10
-25.3057809477
 20
22.3825889651
 10
-25.2983977552
 20
22.4275659469
 10
-25.2881867138
 20
22.4712974985
 10
-25.2752100426
 20
22.5138136539
 10
-25.2596543989
 20
22.5552045143
 10
-25.2415163466
 20
22.5956237408
 10
-25.2207993217
 20
22.6349176725
 10
-25.1977002899
 20
22.6727154273
 10
-25.1721354283
 20
22.7090716239
 10
-25.1441885597
 20
22.7439316437
 10
-25.1143081187
 20
22.7767607489
 10
-25.0826423659
 20
22.8074135319
 10
-25.0490430407
 20
22.8360354002
 10
-25.0135137952
 20
22.8625278396
 10
-24.9760838211
 20
22.8869776252
 10
-24.9367239266
 20
22.9092979818
 10
-24.8953501881
 20
22.9291300687
 10
-24.8516491543
 20
22.9465864595
 10
-24.8059342765
 20
22.9615545805
 10
-24.7590619848
 20
22.9733378712
 10
-24.711317756
 20
22.9817041444
 10
-24.6624161133
 20
22.9868855871
 10
-24.6123570568
 20
22.9888821993
  0
LWPOLYLINE
  5
276
100
AcDbEntity
  8
RACCORDO
100
AcDbPolyline
 62
250
  6
CONTINUOUS
 90
19
 70
0
 10
-24.7500435952
 20
22.1097210426
 10
-24.7488186189
 20
22.1365655143
 10
-24.7452214144
 20
22.1630121412
 10
-24.7393279569
 20
22.1888576005
 10
-24.7312272854
 20
22.2139063439
 10
-24.7210302187
 20
22.2379832849
 10
-24.7088674889
 20
22.2609346696
 10
-24.6949047981
 20
22.2825684351
 10
-24.6792580889
 20
22.3027958847
 10
-24.6619654763
 20
22.3216154037
 10
-24.6431710675
 20
22.3388838923
 10
-24.6230006226
 20
22.3544911786
 10
-24.601414344
 20
22.3684338104
 10
-24.5784795587
 20
22.3806010278
 10
-24.5544019533
 20
22.3908115361
 10
-24.5293397622
 20
22.3989282985
 10
-24.503469587
 20
22.4048368915
 10
-24.4769848283
 20
22.4084456989
 10
-24.4500892866
 20
22.4096753511
  0
LWPOLYLINE
  5
277
100
AcDbEntity
  8
0
100
AcDbPolyline
 62
7
  6
CONTINUOUS
 90
3
 70
0
 43
0.3500000006
 10
-0.3427781625
 20
53.0357133179
 10
-0.4142067254
 20
52.821428833
 10
-0.5570638865
 20
52.5357131653
  0
LWPOLYLINE
  5
278
100
AcDbEntity
  8
0
100
AcDbPolyline
 62
7
  6
CONTINUOUS
 90
10
 70
0
 43
0.3500000006
 10
-5.3427784138
 20
52.750002182
 10
-4.485635376
 20
53.6071446533
 10
-4.2713494749
 20
54.4642871246
 10
-4.2713494749
 20
55.3214295959
 10
-4.6999209938
 20
55.7499985657
 10
-5.3427784138
 20
55.7499985657
 10
-5.7713496494
 20
55.3214295959
 10
-5.7713496494
 20
54.4642871246
 10
-5.3427784138
 20
54.035713623
 10
-4.4142067423
 20
54.035713623
  0
LWPOLYLINE
  5
279
100
AcDbEntity
  8
RACCORDO
100
AcDbPolyline
 62
250
  6
CONTINUOUS
 90
10
 70
0
 10
-24.4299733448
 20
-48.9428244176
 10
-24.4632384774
 20
-48.9287288815
 10
-24.49554988
 20
-48.9121841164
 10
-24.5266246903
 20
-48.8933065583
 10
-24.5562065608
 20
-48.8722508019
 10
-24.5840832172
 20
-48.8491918374
 10
-24.6101851024
 20
-48.8242124684
 10
-24.6344750641
 20
-48.7973416333
 10
-24.6567532227
 20
-48.7687855563
 10
-24.6769544705
 20
-48.7386114224
  0
LINE
  5
27A
100
AcDbEntity
  8
0
100
AcDbLine
 62
7
  6
CONTINUOUS
 10
-2.6285534454
 20
-37.3927757987
 30
0.0
 11
-2.0164274454
 21
-39.0250557987
 31
0.0
  0
LINE
  5
27B
100
AcDbEntity
  8
0
100
AcDbLine
 62
7
  6
CONTINUOUS
 10
-1.9769874454
 20
-37.9131807987
 30
0.0
 11
-2.4932694454
 21
-36.5253197987
 31
0.0
  0
LINE
  5
27C
100
AcDbEntity
  8
0
100
AcDbLine
 62
7
  6
CONTINUOUS
 10
-6.2924814454
 20
-36.5253197987
 30
0.0
 11
-5.5000164454
 21
-39.0250557987
 31
0.0
  0
LINE
  5
27D
100
AcDbEntity
  8
0
100
AcDbLine
 62
7
  6
CONTINUOUS
 10
1.4325865546
 20
-39.0250557987
 30
0.0
 11
0.6656055546
 21
-36.5253197987
 31
0.0
  0
LINE
  5
27E
100
AcDbEntity
  8
0
100
AcDbLine
 62
7
  6
CONTINUOUS
 10
-5.2491584454
 20
-38.2459657987
 30
0.0
 11
-5.7256534454
 21
-36.5253197987
 31
0.0
  0
LINE
  5
27F
100
AcDbEntity
  8
0
100
AcDbLine
 62
7
  6
CONTINUOUS
 10
0.7474665546
 20
-38.5260197987
 30
0.0
 11
0.8826385546
 21
-39.0250557987
 31
0.0
  0
LINE
  5
280
100
AcDbEntity
  8
0
100
AcDbLine
 62
7
  6
CONTINUOUS
 10
-0.7051784454
 20
-39.0250557987
 30
0.0
 11
-0.9389314454
 21
-36.5253197987
 31
0.0
  0
LINE
  5
281
100
AcDbEntity
  8
0
100
AcDbLine
 62
7
  6
CONTINUOUS
 10
-1.3228344454
 20
-37.3995797987
 30
0.0
 11
-1.2156304454
 21
-39.0250557987
 31
0.0
  0
LINE
  5
282
100
AcDbEntity
  8
0
100
AcDbLine
 62
7
  6
CONTINUOUS
 10
-4.0430324454
 20
-36.5251697987
 30
0.0
 11
-4.0430324454
 21
-39.0250557987
 31
0.0
  0
LINE
  5
283
100
AcDbEntity
  8
0
100
AcDbLine
 62
7
  6
CONTINUOUS
 10
-3.5212394454
 20
-39.0250557987
 30
0.0
 11
-3.5212394454
 21
-36.5251697987
 31
0.0
  0
LWPOLYLINE
  5
284
100
AcDbEntity
  8
0
100
AcDbPolyline
 62
7
  6
CONTINUOUS
 90
13
 70
0
 43
0.3500000006
 10
-3.4142067204
 20
53.6071446533
 10
-3.4142067204
 20
54.8928560944
 10
-3.1999211025
 20
55.3214295959
 10
-2.7713495836
 20
55.7499985657
 10
-2.5570639658
 20
55.7499985657
 10
-2.1284924469
 20
55.3214295959
 10
-1.9142066875
 20
54.8928560944
 10
-1.9142066875
 20
53.6071446533
 10
-2.1284924469
 20
53.1785711517
 10
-2.5570639658
 20
52.750002182
 10
-2.7713495836
 20
52.750002182
 10
-3.1999211025
 20
53.1785711517
 10
-3.4142067204
 20
53.6071446533
  0
LINE
  5
285
100
AcDbEntity
  8
0
100
AcDbLine
 62
7
  6
CONTINUOUS
 10
1.5858100567
 20
-36.5545252104
 30
0.0
 11
1.5858100567
 21
-39.0250555794
 31
0.0
  0
LINE
  5
286
100
AcDbEntity
  8
0
100
AcDbLine
 62
7
  6
CONTINUOUS
 10
2.0882015315
 20
-37.637400876
 30
0.0
 11
2.0882015315
 21
-36.9511747237
 31
0.0
  0
LINE
  5
287
100
AcDbEntity
  8
0
100
AcDbLine
 62
7
  6
CONTINUOUS
 10
2.1055033983
 20
-39.0250555794
 30
0.0
 11
2.1055033983
 21
-38.0467971601
 31
0.0
  0
LINE
  5
288
100
AcDbEntity
  8
0
100
AcDbLine
 62
7
  6
CONTINUOUS
 10
2.9273139519
 20
-37.8582011888
 30
0.0
 11
2.9273139519
 21
-37.8434299309
 31
0.0
  0
LWPOLYLINE
  5
289
100
AcDbEntity
  8
0
100
AcDbPolyline
 62
7
  6
CONTINUOUS
 90
22
 70
0
 10
2.7917295506
 20
-37.2489430374
 10
2.7906011823
 20
-37.2838766823
 10
2.7872235071
 20
-37.3177129224
 10
2.781596525
 20
-37.3504517577
 10
2.7735473411
 20
-37.3823828952
 10
2.7632488504
 20
-37.4132166281
 10
2.7512197373
 20
-37.4420838354
 10
2.7375682792
 20
-37.4687673307
 10
2.7221861988
 20
-37.4934843005
 10
2.705267349
 20
-37.5160171835
 10
2.6868507017
 20
-37.5362349979
 10
2.666897285
 20
-37.5542687254
 10
2.6454840362
 20
-37.5702937507
 10
2.6226679675
 20
-37.5842214037
 10
2.5983920667
 20
-37.5961403544
 10
2.5725622352
 20
-37.606491998
 10
2.5450864224
 20
-37.6153927375
 10
2.5160566789
 20
-37.6227261698
 10
2.4856550581
 20
-37.6285844812
 10
2.4539422447
 20
-37.6329984004
 10
2.420857554
 20
-37.6359371987
 10
2.3864009861
 20
-37.637400876
  0
LINE
  5
28A
100
AcDbEntity
  8
0
100
AcDbLine
 62
7
  6
CONTINUOUS
 10
-2.7411564454
 20
-39.0250557987
 30
0.0
 11
-2.6285534454
 21
-37.3927757987
 31
0.0
  0
LINE
  5
28B
100
AcDbEntity
  8
0
100
AcDbLine
 62
7
  6
CONTINUOUS
 10
-3.0146304454
 20
-36.5253197987
 30
0.0
 11
-3.2403424454
 21
-39.0250557987
 31
0.0
  0
LWPOLYLINE
  5
28C
100
AcDbEntity
  8
RACCORDO
100
AcDbPolyline
 62
250
  6
CONTINUOUS
 90
3
 70
0
 10
-23.435464621
 20
-48.7728126472
 10
-23.4401766358
 20
-48.7877923813
 10
-23.4501072528
 20
-48.8118448142
  0
LWPOLYLINE
  5
28D
100
AcDbEntity
  8
RACCORDO
100
AcDbPolyline
 62
250
  6
CONTINUOUS
 90
9
 70
0
 10
-24.4500889926
 20
-32.3994266546
 10
-24.450515989
 20
-32.4004522692
 10
-24.450976051
 20
-32.4029259224
 10
-24.4514691787
 20
-32.4068288413
 10
-24.4519984917
 20
-32.4121311588
 10
-24.4525608704
 20
-32.4187939595
 10
-24.4531469559
 20
-32.426771171
 10
-24.4537536283
 20
-32.4360066423
 10
-24.4550380934
 20
-32.4579748373
  0
LWPOLYLINE
  5
28E
100
AcDbEntity
  8
RACCORDO
100
AcDbPolyline
 62
7
  6
CONTINUOUS
 90
13
 70
0
 10
20.9997601382
 20
-48.7776127735
 10
21.0228141514
 20
-48.8060887682
 10
21.0504511691
 20
-48.8351176601
 10
21.0803174147
 20
-48.8618393442
 10
21.1122262274
 20
-48.8860792491
 10
21.1459647841
 20
-48.9076798191
 10
21.1812959577
 20
-48.9265023768
 10
21.2180054506
 20
-48.9424280787
 10
21.2558928457
 20
-48.9553728733
 10
21.2947244852
 20
-48.9652492498
 10
21.3342532832
 20
-48.9719820388
 10
21.374228258
 20
-48.9755339437
 10
21.398395386
 20
-48.9761213722
  0
LWPOLYLINE
  5
28F
100
AcDbEntity
  8
RACCORDO
100
AcDbPolyline
 62
250
  6
CONTINUOUS
 90
12
 70
0
 10
20.844318486
 20
-48.7742259382
 10
20.8489465134
 20
-48.7804223449
 10
20.8573457153
 20
-48.789892574
 10
20.8664736631
 20
-48.7985918249
 10
20.8763773902
 20
-48.8065544018
 10
20.8870426981
 20
-48.813660975
 10
20.8985360627
 20
-48.8199645506
 10
20.9107910082
 20
-48.8254121225
 10
20.9235939081
 20
-48.8297253422
 10
20.9368735537
 20
-48.8328114266
 10
20.9507011539
 20
-48.8347631588
 10
20.9650767085
 20
-48.8355805387
  0
LWPOLYLINE
  5
290
100
AcDbEntity
  8
RACCORDO
100
AcDbPolyline
 62
250
  6
CONTINUOUS
 90
13
 70
0
 10
21.3968649348
 20
-48.8113727861
 10
21.3949994809
 20
-48.8087569831
 10
21.3901450344
 20
-48.8061955815
 10
21.3823015952
 20
-48.8036885813
 10
21.3714216126
 20
-48.8012346068
 10
21.3575526374
 20
-48.7988350338
 10
21.3408373213
 20
-48.796493989
 10
21.3212280125
 20
-48.7942029494
 10
21.2987723628
 20
-48.7919704381
 10
21.2737559797
 20
-48.7898261508
 10
21.2461324579
 20
-48.7877713435
 10
21.2159482026
 20
-48.7858047602
 10
21.1887359863
 20
-48.7857558444
  0
LWPOLYLINE
  5
291
100
AcDbEntity
  8
RACCORDO
100
AcDbPolyline
 62
250
  6
CONTINUOUS
 90
19
 70
0
 10
21.4963207193
 20
-48.7930598618
 10
21.4952240836
 20
-48.7913335969
 10
21.492043886
 20
-48.7896299828
 10
21.4867801265
 20
-48.7879490196
 10
21.4793952985
 20
-48.7862842578
 10
21.4699269087
 20
-48.7846421469
 10
21.4584874766
 20
-48.7830420346
 10
21.4450472011
 20
-48.781483648
 10
21.4296358834
 20
-48.7799672599
 10
21.4124554463
 20
-48.7785130375
 10
21.3934859701
 20
-48.7771221487
 10
21.3727473746
 20
-48.7757934254
 10
21.3505013424
 20
-48.7745435308
 10
21.3267351336
 20
-48.7733735486
 10
21.3014614882
 20
-48.7722823952
 10
21.2749803077
 20
-48.7712834819
 10
21.2472698703
 20
-48.7703776006
 10
21.218351898
 20
-48.7695639595
 10
21.1579743801
 20
-48.7682478346
  0
LWPOLYLINE
  5
292
100
AcDbEntity
  8
RACCORDO
100
AcDbPolyline
 62
250
  6
CONTINUOUS
 90
13
 70
0
 10
20.7041665879
 20
-48.8333104299
 10
20.7175699414
 20
-48.8548008405
 10
20.7327537517
 20
-48.8751032727
 10
20.7496127306
 20
-48.8940668237
 10
20.767928662
 20
-48.9114635427
 10
20.7876608049
 20
-48.9272706765
 10
20.8090157417
 20
-48.9415809997
 10
20.8320120759
 20
-48.9542562838
 10
20.8564236497
 20
-48.9650262693
 10
20.8821192652
 20
-48.9737069746
 10
20.9089325618
 20
-48.9801154705
 10
20.9366598375
 20
-48.984077869
 10
20.9650767096
 20
-48.9854377692
  0
LWPOLYLINE
  5
293
100
AcDbEntity
  8
RACCORDO
100
AcDbPolyline
 62
250
  6
CONTINUOUS
 90
10
 70
0
 10
-24.4500889926
 20
22.4096750571
 10
-24.4506266938
 20
22.4107000904
 10
-24.451170494
 20
22.4131727372
 10
-24.4517203931
 20
22.4170749548
 10
-24.4522804567
 20
22.4223782536
 10
-24.4528466192
 20
22.4290440232
 10
-24.4534066839
 20
22.4370239183
 10
-24.453956585
 20
22.4462599986
 10
-24.4545003881
 20
22.4566850449
 10
-24.4550380934
 20
22.4682232399
  0
LWPOLYLINE
  5
294
100
AcDbEntity
  8
0
100
AcDbPolyline
 62
7
  6
CONTINUOUS
 90
6
 70
0
 10
2.6763900206
 20
-38.2670538606
 10
2.7026946848
 20
-38.3439593627
 10
2.7284853984
 20
-38.4228213016
 10
2.7537621612
 20
-38.5036396771
 10
2.7781572902
 20
-38.5865841014
 10
2.8265087454
 20
-38.7578334243
  0
LINE
  5
295
100
AcDbEntity
  8
0
100
AcDbLine
 62
7
  6
CONTINUOUS
 10
2.8265087454
 20
-38.7578334243
 30
0.0
 11
2.904557217
 21
-39.0250555794
 31
0.0
  0
LINE
  5
296
100
AcDbEntity
  8
0
100
AcDbLine
 62
7
  6
CONTINUOUS
 10
3.2894423472
 20
-38.5784856989
 30
0.0
 11
3.2280815058
 21
-38.3484832314
 31
0.0
  0
LINE
  5
297
100
AcDbEntity
  8
0
100
AcDbLine
 62
7
  6
CONTINUOUS
 10
3.4064613153
 20
-39.0250555794
 30
0.0
 11
3.2894423472
 21
-38.5784856989
 31
0.0
  0
LINE
  5
298
100
AcDbEntity
  8
0
100
AcDbLine
 62
7
  6
CONTINUOUS
 10
0.4034155546
 20
-37.2121837987
 30
0.0
 11
0.6431865546
 21
-38.1398677987
 31
0.0
  0
LWPOLYLINE
  5
299
100
AcDbEntity
  8
0
100
AcDbPolyline
 62
7
  6
CONTINUOUS
 90
19
 70
0
 10
3.2280815058
 20
-38.3484832314
 10
3.217531248
 20
-38.3073702101
 10
3.2063679258
 20
-38.2675777363
 10
3.1945915391
 20
-38.2291058097
 10
3.1822795631
 20
-38.1918508348
 10
3.1693545226
 20
-38.1559164073
 10
3.1555839922
 20
-38.1216133142
 10
3.1409095072
 20
-38.0889927792
 10
3.1253895323
 20
-38.0580035787
 10
3.1089670359
 20
-38.0288028293
 10
3.091563345
 20
-38.0013151915
 10
3.0732571327
 20
-37.9756160048
 10
3.0542273867
 20
-37.9520884042
 10
3.0344559447
 20
-37.9308264418
 10
3.0139609691
 20
-37.9117360654
 10
2.9929759346
 20
-37.894918254
 10
2.9715786659
 20
-37.8804066673
 10
2.9496913384
 20
-37.8681676456
 10
2.9273139519
 20
-37.8582011888
  0
LINE
  5
29A
100
AcDbEntity
  8
0
100
AcDbLine
 62
7
  6
CONTINUOUS
 10
0.1436065546
 20
-38.1398677987
 30
0.0
 11
0.4034155546
 21
-37.2121837987
 31
0.0
  0
LINE
  5
29B
100
AcDbEntity
  8
0
100
AcDbLine
 62
7
  6
CONTINUOUS
 10
-4.7581074454
 20
-36.5253197987
 30
0.0
 11
-5.2491584454
 21
-38.2459657987
 31
0.0
  0
LINE
  5
29C
100
AcDbEntity
  8
0
100
AcDbLine
 62
7
  6
CONTINUOUS
 10
-0.1071114454
 20
-39.0250557987
 30
0.0
 11
0.0368715546
 21
-38.5260197987
 31
0.0
  0
LINE
  5
29D
100
AcDbEntity
  8
0
100
AcDbLine
 62
7
  6
CONTINUOUS
 10
0.1608335546
 20
-36.5253197987
 30
0.0
 11
-0.6232424454
 21
-39.0250557987
 31
0.0
  0
LINE
  5
29E
100
AcDbEntity
  8
0
100
AcDbLine
 62
7
  6
CONTINUOUS
 10
-5.0401864454
 20
-39.0250557987
 30
0.0
 11
-4.2366714454
 21
-36.5253197987
 31
0.0
  0
LINE
  5
29F
100
AcDbEntity
  8
RACCORDO
100
AcDbLine
 62
7
  6
CONTINUOUS
 10
-26.6957179901
 20
-48.9795650277
 30
0.0
 11
-26.5485764268
 21
-48.695062157
 31
0.0
  0
LINE
  5
2A0
100
AcDbEntity
  8
RACCORDO
100
AcDbLine
 62
250
  6
CONTINUOUS
 10
-23.4501072528
 20
-48.8118448142
 30
0.0
 11
-23.4620856957
 21
-48.8349474976
 31
0.0
  0
LWPOLYLINE
  5
2A1
100
AcDbEntity
  8
RACCORDO
100
AcDbPolyline
 62
250
  6
CONTINUOUS
 90
9
 70
0
 10
-45.3028060148
 20
38.8685931773
 10
-45.2501865144
 20
38.8853173742
 10
-45.1976735976
 20
38.8999160405
 10
-45.1453571817
 20
38.9124443385
 10
-45.0939611655
 20
38.9228427458
 10
-45.0429338951
 20
38.9313338012
 10
-44.9904113807
 20
38.9381998533
 10
-44.9357942854
 20
38.9433520583
 10
-44.8797854106
 20
38.9465527794
  0
LWPOLYLINE
  5
2A2
100
AcDbEntity
  8
RACCORDO
100
AcDbPolyline
 62
250
  6
CONTINUOUS
 90
5
 70
0
 10
21.2564392483
 20
-48.7908756082
 10
21.2685790601
 20
-48.794661586
 10
21.3108044494
 20
-48.8039231162
 10
21.3536732375
 20
-48.8095074329
 10
21.3968649348
 20
-48.8113727861
  0
LWPOLYLINE
  5
2A3
100
AcDbEntity
  8
RACCORDO
100
AcDbPolyline
 62
250
  6
CONTINUOUS
 90
9
 70
0
 10
21.2213301757
 20
-48.943319915
 10
21.1879860283
 20
-48.9292987532
 10
21.1556872419
 20
-48.9128730714
 10
21.1246440228
 20
-48.8941391485
 10
21.0950888529
 20
-48.8732422957
 10
21.0672646855
 20
-48.8503871911
 10
21.0412007103
 20
-48.8256324889
 10
21.0168292542
 20
-48.7988877282
 10
21.0001075822
 20
-48.7776229684
  0
LINE
  5
2A4
100
AcDbEntity
  8
RACCORDO
100
AcDbLine
 62
250
  6
CONTINUOUS
 10
21.8553721661
 20
-32.7786642578
 30
0.0
 11
21.8465837071
 21
-32.7698757987
 31
0.0
  0
LWPOLYLINE
  5
2A5
100
AcDbEntity
  8
RACCORDO
100
AcDbPolyline
 62
250
  6
CONTINUOUS
 90
10
 70
0
 10
21.6931041019
 20
-32.3994266546
 10
21.6936418031
 20
-32.4004516879
 10
21.6941856033
 20
-32.4029243346
 10
21.6947355024
 20
-32.4068265523
 10
21.695295566
 20
-32.4121298511
 10
21.6958617285
 20
-32.4187956206
 10
21.6964217931
 20
-32.4267755158
 10
21.6969716942
 20
-32.436011596
 10
21.6975154974
 20
-32.4464366424
 10
21.6980532027
 20
-32.4579748373
  0
LINE
  5
2A6
100
AcDbEntity
  8
RACCORDO
100
AcDbLine
 62
7
  6
CONTINUOUS
 10
23.7915915361
 20
-48.695062157
 30
0.0
 11
23.9387330994
 21
-48.9795650277
 31
0.0
  0
LINE
  5
2A7
100
AcDbEntity
  8
RACCORDO
100
AcDbLine
 62
250
  6
CONTINUOUS
 10
20.6926812275
 20
-48.8108910307
 30
0.0
 11
20.7041665879
 21
-48.8333104299
 31
0.0
  0
LWPOLYLINE
  5
2A8
100
AcDbEntity
  8
RACCORDO
100
AcDbPolyline
 62
250
  6
CONTINUOUS
 90
3
 70
0
 10
20.6784648714
 20
-48.7728085719
 10
20.6831256234
 20
-48.7876101222
 10
20.6926812275
 20
-48.8108910307
  0
LWPOLYLINE
  5
2A9
100
AcDbEntity
  8
RACCORDO
100
AcDbPolyline
 62
250
  6
CONTINUOUS
 90
16
 70
0
 10
21.786968102
 20
22.1035999791
 10
21.7863571499
 20
22.114258319
 10
21.7847250309
 20
22.1245612527
 10
21.782071745
 20
22.13450878
 10
21.7783481869
 20
22.1441913675
 10
21.7736034619
 20
22.1535185487
 10
21.7679848863
 20
22.1622189246
 10
21.7614702957
 20
22.1702801212
 10
21.7540818545
 20
22.1777145125
 10
21.7460333729
 20
22.1842878224
 10
21.7372970811
 20
22.1899809097
 10
21.7279007489
 20
22.1948129157
 10
21.7181414959
 20
22.1986069878
 10
21.7081183622
 20
22.2013041752
 10
21.6977323077
 20
22.2029634289
 10
21.6869833325
 20
22.2035847486
  0
LWPOLYLINE
  5
2AA
100
AcDbEntity
  8
RACCORDO
100
AcDbPolyline
 62
250
  6
CONTINUOUS
 90
19
 70
0
 10
22.0515819113
 20
-32.1043967648
 10
22.0534921734
 20
-32.1400674592
 10
22.0524270173
 20
-32.1744952171
 10
22.0483581215
 20
-32.2076035675
 10
22.0411288554
 20
-32.239395018
 10
22.0308507916
 20
-32.2696826249
 10
22.0179617505
 20
-32.2981101162
 10
22.0026123222
 20
-32.3245159016
 10
21.9847708387
 20
-32.3488907195
 10
21.9646714166
 20
-32.3711329332
 10
21.942451509
 20
-32.3912074016
 10
21.918128822
 20
-32.4090010194
 10
21.8917779173
 20
-32.4243151255
 10
21.8634181244
 20
-32.4371911298
 10
21.8331993571
 20
-32.4474683829
 10
21.8014139503
 20
-32.4547061433
 10
21.7682262275
 20
-32.458785839
 10
21.7336541826
 20
-32.4598585111
 10
21.6977746217
 20
-32.4579464298
  0
LWPOLYLINE
  5
2AB
100
AcDbEntity
  8
RACCORDO
100
AcDbPolyline
 62
250
  6
CONTINUOUS
 90
16
 70
0
 10
21.9869376411
 20
22.1035999791
 10
21.9852802283
 20
22.1350301975
 10
21.980353405
 20
22.1660458726
 10
21.9722327363
 20
22.1963105461
 10
21.9610392909
 20
22.2254740422
 10
21.9469088484
 20
22.2532553772
 10
21.9299638546
 20
22.2794326765
 10
21.9103785241
 20
22.3037263483
 10
21.8883650802
 20
22.3258641236
 10
21.8641092432
 20
22.3456392983
 10
21.8378397865
 20
22.3628301207
 10
21.8098487762
 20
22.377212769
 10
21.7804418848
 20
22.388605069
 10
21.7499394061
 20
22.3968609022
 10
21.7186715398
 20
22.4018695307
 10
21.6869833325
 20
22.4035542877
  0
LINE
  5
2AC
100
AcDbEntity
  8
RACCORDO
100
AcDbLine
 62
250
  6
CONTINUOUS
 10
21.3983953781
 20
-48.9757102326
 30
0.0
 11
21.3968649348
 21
-48.8113727861
 31
0.0
  0
LINE
  5
2AD
100
AcDbEntity
  8
RACCORDO
100
AcDbLine
 62
7
  6
CONTINUOUS
 10
20.6215075546
 20
-48.7727751833
 30
0.0
 11
20.6215075546
 21
-48.7948185897
 31
0.0
  0
LINE
  5
2AE
100
AcDbEntity
  8
RACCORDO
100
AcDbLine
 62
250
  6
CONTINUOUS
 10
20.6463894028
 20
-48.7727751835
 30
0.0
 11
20.6463894028
 21
-48.7720899509
 31
0.0
  0
LINE
  5
2AF
100
AcDbEntity
  8
RACCORDO
100
AcDbLine
 62
250
  6
CONTINUOUS
 10
20.9650767085
 20
-48.8355805387
 30
0.0
 11
20.9650767085
 21
-48.9854377719
 31
0.0
  0
LINE
  5
2B0
100
AcDbEntity
  8
RACCORDO
100
AcDbLine
 62
250
  6
CONTINUOUS
 10
20.9967354251
 20
-48.7668457291
 30
0.0
 11
20.9967354251
 21
-48.6695834928
 31
0.0
  0
LINE
  5
2B1
100
AcDbEntity
  8
RACCORDO
100
AcDbLine
 62
250
  6
CONTINUOUS
 10
21.3983953781
 20
-48.9761213722
 30
0.0
 11
21.3983953781
 21
-48.9757102326
 31
0.0
  0
LINE
  5
2B2
100
AcDbEntity
  8
RACCORDO
100
AcDbLine
 62
250
  6
CONTINUOUS
 10
21.4946197312
 20
-48.9761213722
 30
0.0
 11
21.4946197312
 21
-48.9757102326
 31
0.0
  0
LINE
  5
2B3
100
AcDbEntity
  8
RACCORDO
100
AcDbLine
 62
250
  6
CONTINUOUS
 10
21.6869833325
 20
-32.1933363461
 30
0.0
 11
21.6869833325
 21
-32.3933058851
 31
0.0
  0
LINE
  5
2B4
100
AcDbEntity
  8
RACCORDO
100
AcDbLine
 62
250
  6
CONTINUOUS
 10
21.6869833325
 20
22.2035847486
 30
0.0
 11
21.6869833325
 21
22.4035542877
 31
0.0
  0
LINE
  5
2B5
100
AcDbEntity
  8
RACCORDO
100
AcDbLine
 62
250
  6
CONTINUOUS
 10
21.786968102
 20
-32.0933515766
 30
0.0
 11
21.786968102
 21
22.1035999791
 31
0.0
  0
LINE
  5
2B6
100
AcDbEntity
  8
RACCORDO
100
AcDbLine
 62
250
  6
CONTINUOUS
 10
21.8553721661
 20
22.9888821993
 30
0.0
 11
21.8553721661
 21
22.7889126603
 31
0.0
  0
LINE
  5
2B7
100
AcDbEntity
  8
RACCORDO
100
AcDbLine
 62
250
  6
CONTINUOUS
 10
21.8553721661
 20
-32.9786337968
 30
0.0
 11
21.8553721661
 21
-32.7786642578
 31
0.0
  0
LINE
  5
2B8
100
AcDbEntity
  8
RACCORDO
100
AcDbLine
 62
250
  6
CONTINUOUS
 10
21.9869376411
 20
-32.0933515766
 30
0.0
 11
21.9869376411
 21
22.1035999791
 31
0.0
  0
LINE
  5
2B9
100
AcDbEntity
  8
RACCORDO
100
AcDbLine
 62
250
  6
CONTINUOUS
 10
21.9930584105
 20
22.1097207485
 30
0.0
 11
21.9930584105
 21
-32.099472346
 31
0.0
  0
LINE
  5
2BA
100
AcDbEntity
  8
RACCORDO
100
AcDbLine
 62
250
  6
CONTINUOUS
 10
22.0516065933
 20
22.114419654
 30
0.0
 11
22.0516065933
 21
-32.1044214468
 31
0.0
  0
LINE
  5
2BB
100
AcDbEntity
  8
RACCORDO
100
AcDbLine
 62
7
  6
CONTINUOUS
 10
22.3465075546
 20
-32.2699519512
 30
0.0
 11
22.3465075546
 21
22.2802003537
 31
0.0
  0
LINE
  5
2BC
100
AcDbEntity
  8
RACCORDO
100
AcDbLine
 62
250
  6
CONTINUOUS
 10
22.3552960137
 20
22.2889888127
 30
0.0
 11
22.3552960137
 21
-32.2787404102
 31
0.0
  0
LINE
  5
2BD
100
AcDbEntity
  8
RACCORDO
100
AcDbLine
 62
250
  6
CONTINUOUS
 10
22.5552655527
 20
22.2889888127
 30
0.0
 11
22.5552655527
 21
-32.2787404102
 31
0.0
  0
LINE
  5
2BE
100
AcDbEntity
  8
RACCORDO
100
AcDbLine
 62
250
  6
CONTINUOUS
 10
21.4946197312
 20
-48.9757102326
 30
0.0
 11
21.4963207193
 21
-48.7930598618
 31
0.0
  0
LWPOLYLINE
  5
2BF
100
AcDbEntity
  8
RACCORDO
100
AcDbPolyline
 62
250
  6
CONTINUOUS
 90
25
 70
0
 10
22.3552960125
 20
-32.2787404091
 10
22.3542453723
 20
-32.3112027892
 10
22.3511052632
 20
-32.3434085588
 10
22.3459119733
 20
-32.3752251935
 10
22.3387217967
 20
-32.4064795303
 10
22.3295807386
 20
-32.4370940868
 10
22.3184957444
 20
-32.4670790267
 10
22.3054868454
 20
-32.4963558106
 10
22.2906200319
 20
-32.5247551272
 10
22.2739596212
 20
-32.5521485148
 10
22.2555658016
 20
-32.5784321483
 10
22.2355190458
 20
-32.603486712
 10
22.2139340119
 20
-32.6271739879
 10
22.1909307847
 20
-32.649378629
 10
22.1665863014
 20
-32.6700417745
 10
22.1409586396
 20
-32.6891172395
 10
22.1143022367
 20
-32.7064329917
 10
22.0865844075
 20
-32.7220267271
 10
22.0573780429
 20
-32.7360704978
 10
22.0265565261
 20
-32.7484720284
 10
21.9943984402
 20
-32.7589672994
 10
21.9610579431
 20
-32.7673821483
 10
21.9266797364
 20
-32.7735631514
 10
21.8913961628
 20
-32.7773695475
 10
21.8553721646
 20
-32.7786642563
  0
LWPOLYLINE
  5
2C0
100
AcDbEntity
  8
RACCORDO
100
AcDbPolyline
 62
250
  6
CONTINUOUS
 90
25
 70
0
 10
22.5552655527
 20
-32.2787404102
 10
22.5536859583
 20
-32.3244816332
 10
22.5493017877
 20
-32.3695029157
 10
22.5421130408
 20
-32.4138042576
 10
22.5320724066
 20
-32.4574973087
 10
22.5192271961
 20
-32.5004704192
 10
22.5037193428
 20
-32.5423886398
 10
22.4855116075
 20
-32.5833093304
 10
22.4646412295
 20
-32.6231751311
 10
22.4413618596
 20
-32.6614790131
 10
22.4156263557
 20
-32.6982095004
 10
22.38748186
 20
-32.733378069
 10
22.3573234497
 20
-32.7665121184
 10
22.3251612513
 20
-32.7975530391
 10
22.2909851384
 20
-32.8265594406
 10
22.2551598091
 20
-32.8532345512
 10
22.217917479
 20
-32.877513219
 10
22.1790259325
 20
-32.8994605959
 10
22.1381532217
 20
-32.9189753661
 10
22.0950137506
 20
-32.9362512694
 10
22.0498931151
 20
-32.9510945659
 10
22.003316155
 20
-32.9628227204
 10
21.9554578167
 20
-32.9712082212
 10
21.9061431538
 20
-32.97647858
 10
21.8553721661
 20
-32.9786337968
  0
LWPOLYLINE
  5
2C1
100
AcDbEntity
  8
RACCORDO
100
AcDbPolyline
 62
250
  6
CONTINUOUS
 90
19
 70
0
 10
21.9930587045
 20
-32.09947264
 10
21.9918344093
 20
-32.1263096341
 10
21.9882371399
 20
-32.1527603425
 10
21.9823398317
 20
-32.178620936
 10
21.9742246459
 20
-32.2037055715
 10
21.9640019125
 20
-32.2278261476
 10
21.9518175506
 20
-32.2507971104
 10
21.9378541437
 20
-32.2724128656
 10
21.9222240429
 20
-32.2926057131
 10
21.9049525033
 20
-32.3113950771
 10
21.8861787338
 20
-32.3286417591
 10
21.8660313607
 20
-32.3442316929
 10
21.8444634226
 20
-32.3581654608
 10
21.8215372071
 20
-32.3703323718
 10
21.7974603294
 20
-32.3805469851
 10
21.7723940089
 20
-32.3886690906
 10
21.7465158896
 20
-32.3945827874
 10
21.7200180371
 20
-32.3981956353
 10
21.6931043959
 20
-32.3994269486
  0
LINE
  5
2C2
100
AcDbEntity
  8
0
100
AcDbLine
 62
7
  6
CONTINUOUS
 10
-1.4551944454
 20
-36.5253197987
 30
0.0
 11
-1.9769874454
 21
-37.9131807987
 31
0.0
  0
LINE
  5
2C3
100
AcDbEntity
  8
0
100
AcDbLine
 62
7
  6
CONTINUOUS
 10
-1.9432454454
 20
-39.0250557987
 30
0.0
 11
-1.3228344454
 21
-37.3995797987
 31
0.0
  0
LWPOLYLINE
  5
2C4
100
AcDbEntity
  8
RACCORDO
100
AcDbPolyline
 62
250
  6
CONTINUOUS
 90
9
 70
0
 10
21.6931041019
 20
22.4096750571
 10
21.6935310972
 20
22.4107006716
 10
21.6939911584
 20
22.4131743245
 10
21.6944842855
 20
22.417077243
 10
21.6950135983
 20
22.4223795602
 10
21.6955759771
 20
22.4290423606
 10
21.6961620628
 20
22.437019572
 10
21.6967687358
 20
22.4462550436
 10
21.6980532027
 20
22.4682232399
  0
LWPOLYLINE
  5
2C5
100
AcDbEntity
  8
RACCORDO
100
AcDbPolyline
 62
250
  6
CONTINUOUS
 90
13
 70
0
 10
-23.4620856957
 20
-48.8349474976
 10
-23.4760228042
 20
-48.856927409
 10
-23.4918135152
 20
-48.877618035
 10
-23.5093520766
 20
-48.8968759308
 10
-23.5285035343
 20
-48.9145470534
 10
-23.5491322499
 20
-48.930500962
 10
-23.5711230949
 20
-48.9446348326
 10
-23.5943353637
 20
-48.9568356962
 10
-23.6185836531
 20
-48.966984719
 10
-23.6436745582
 20
-48.9749849794
 10
-23.6694140027
 20
-48.9807617155
 10
-23.6956102099
 20
-48.9842593076
 10
-23.7220615992
 20
-48.9854377719
  0
LWPOLYLINE
  5
2C6
100
AcDbEntity
  8
RACCORDO
100
AcDbPolyline
 62
250
  6
CONTINUOUS
 90
5
 70
0
 10
-23.7571108678
 20
-48.77762378
 10
-23.7631930442
 20
-48.785914388
 10
-23.7866477248
 20
-48.813454626
 10
-23.8119969036
 20
-48.8391931167
 10
-23.8392115275
 20
-48.8630933099
  0
LINE
  5
2C7
100
AcDbEntity
  8
RACCORDO
100
AcDbLine
 62
250
  6
CONTINUOUS
 10
22.0516065933
 20
22.114419654
 30
0.0
 11
22.3325990913
 21
22.3954873777
 31
0.0
  0
LINE
  5
2C8
100
AcDbEntity
  8
RACCORDO
100
AcDbLine
 62
250
  6
CONTINUOUS
 10
21.8553721661
 20
22.7889126603
 30
0.0
 11
21.8465837071
 21
22.7801242013
 31
0.0
  0
LINE
  5
2C9
100
AcDbEntity
  8
RACCORDO
100
AcDbLine
 62
250
  6
CONTINUOUS
 10
21.6980532027
 20
22.4682232399
 30
0.0
 11
21.9888518051
 21
22.7590218423
 31
0.0
  0
LINE
  5
2CA
100
AcDbEntity
  8
RACCORDO
100
AcDbLine
 62
250
  6
CONTINUOUS
 10
21.6869833325
 20
22.4035542877
 30
0.0
 11
21.6931041019
 21
22.4096750571
 31
0.0
  0
LINE
  5
2CB
100
AcDbEntity
  8
RACCORDO
100
AcDbLine
 62
250
  6
CONTINUOUS
 10
21.9869376411
 20
22.1035999791
 30
0.0
 11
21.9930584105
 21
22.1097207485
 31
0.0
  0
LINE
  5
2CC
100
AcDbEntity
  8
RACCORDO
100
AcDbLine
 62
250
  6
CONTINUOUS
 10
22.3552960137
 20
22.2889888127
 30
0.0
 11
22.3465075546
 21
22.2802003537
 31
0.0
  0
LINE
  5
2CD
100
AcDbEntity
  8
RACCORDO
100
AcDbLine
 62
250
  6
CONTINUOUS
 10
-46.0021311367
 20
-47.120570188
 30
0.0
 11
-46.4784924454
 21
-47.5963034664
 31
0.0
  0
LINE
  5
2CE
100
AcDbEntity
  8
RACCORDO
100
AcDbLine
 62
250
  6
CONTINUOUS
 10
42.2229352223
 20
39.1051242013
 30
0.0
 11
42.0654701583
 21
38.9476591373
 31
0.0
  0
LINE
  5
2CF
100
AcDbEntity
  8
RACCORDO
100
AcDbLine
 62
250
  6
CONTINUOUS
 10
41.7472019439
 20
38.6287628926
 30
0.0
 11
42.0520171106
 21
38.9335780593
 31
0.0
  0
LWPOLYLINE
  5
2D0
100
AcDbEntity
  8
RACCORDO
100
AcDbPolyline
 62
250
  6
CONTINUOUS
 90
5
 70
0
 10
-24.2516046219
 20
-48.9757102326
 10
-24.2884314827
 20
-48.9743529626
 10
-24.324884396
 20
-48.9703136379
 10
-24.3607714732
 20
-48.9636523014
 10
-24.3958334961
 20
-48.954464665
  0
LWPOLYLINE
  5
2D1
100
AcDbEntity
  8
RACCORDO
100
AcDbPolyline
 62
250
  6
CONTINUOUS
 90
10
 70
0
 10
-24.25330561
 20
-48.7930598618
 10
-24.2964972647
 20
-48.7911945122
 10
-24.3393660164
 20
-48.7856102056
 10
-24.3815913761
 20
-48.7763486905
 10
-24.4228576649
 20
-48.7634792064
 10
-24.462856374
 20
-48.7470979662
 10
-24.5012884709
 20
-48.7273274369
 10
-24.5378666353
 20
-48.7043154241
 10
-24.5723174071
 20
-48.6782339666
 10
-24.5818969544
 20
-48.6695834928
  0
LWPOLYLINE
  5
2D2
100
AcDbEntity
  8
0
100
AcDbPolyline
 62
7
  6
CONTINUOUS
 90
16
 70
0
 10
2.8735150812
 20
-36.5808435429
 10
2.8092378601
 20
-36.5601955714
 10
2.741666245
 20
-36.5424973706
 10
2.6708002358
 20
-36.5277489403
 10
2.5965099363
 20
-36.5161003473
 10
2.5189252428
 20
-36.5074015248
 10
2.4384358437
 20
-36.5012022731
 10
2.3551653001
 20
-36.4973508279
 10
2.2689900511
 20
-36.4959989534
 10
2.1799291021
 20
-36.497151742
 10
2.0879588499
 20
-36.5008905716
 10
1.9931028979
 20
-36.5071340644
 10
1.895451061
 20
-36.5156431788
 10
1.7950332777
 20
-36.5263382343
 10
1.6918196096
 20
-36.5392989115
 10
1.5858100567
 20
-36.5545252104
  0
LINE
  5
2D3
100
AcDbEntity
  8
RACCORDO
100
AcDbLine
 62
250
  6
CONTINUOUS
 10
21.6978030074
 20
-32.4579748373
 30
0.0
 11
21.9887208774
 21
-32.7488148454
 31
0.0
  0
LINE
  5
2D4
100
AcDbEntity
  8
RACCORDO
100
AcDbLine
 62
250
  6
CONTINUOUS
 10
-24.7457062088
 20
22.7590631086
 30
0.0
 11
-24.4547887403
 21
22.4682232399
 31
0.0
  0
LINE
  5
2D5
100
AcDbEntity
  8
RACCORDO
100
AcDbLine
 62
250
  6
CONTINUOUS
 10
21.6869833325
 20
-32.3933058851
 30
0.0
 11
21.6931041019
 21
-32.3994266546
 31
0.0
  0
LINE
  5
2D6
100
AcDbEntity
  8
RACCORDO
100
AcDbLine
 62
250
  6
CONTINUOUS
 10
21.9869376411
 20
-32.0933515766
 30
0.0
 11
21.9930584105
 21
-32.099472346
 31
0.0
  0
LINE
  5
2D7
100
AcDbEntity
  8
RACCORDO
100
AcDbLine
 62
250
  6
CONTINUOUS
 10
22.0516065933
 20
-32.1044214468
 30
0.0
 11
22.3325673701
 21
-32.3853822236
 31
0.0
  0
LINE
  5
2D8
100
AcDbEntity
  8
RACCORDO
100
AcDbLine
 62
250
  6
CONTINUOUS
 10
22.3552960137
 20
-32.2787404102
 30
0.0
 11
22.3465075546
 21
-32.2699519512
 31
0.0
  0
LINE
  5
2D9
100
AcDbEntity
  8
RACCORDO
100
AcDbLine
 62
250
  6
CONTINUOUS
 10
-46.0021311367
 20
37.1308185905
 30
0.0
 11
-46.4784924454
 21
37.6065518689
 31
0.0
  0
LINE
  5
2DA
100
AcDbEntity
  8
RACCORDO
100
AcDbLine
 62
250
  6
CONTINUOUS
 10
41.7472019439
 20
-48.6185144901
 30
0.0
 11
42.2229352223
 21
-49.0948757987
 31
0.0
  0
LINE
  5
2DB
100
AcDbEntity
  8
RACCORDO
100
AcDbLine
 62
250
  6
CONTINUOUS
 10
-44.5041868346
 20
38.6287628926
 30
0.0
 11
-44.8090020013
 21
38.9335780593
 31
0.0
  0
LINE
  5
2DC
100
AcDbEntity
  8
RACCORDO
100
AcDbLine
 62
250
  6
CONTINUOUS
 10
-44.822455049
 20
38.9476591373
 30
0.0
 11
-44.979920113
 21
39.1051242013
 31
0.0
  0
LINE
  5
2DD
100
AcDbEntity
  8
RACCORDO
100
AcDbLine
 62
250
  6
CONTINUOUS
 10
43.245146246
 20
-47.120570188
 30
0.0
 11
43.7215075546
 21
-47.5963034664
 31
0.0
  0
LINE
  5
2DE
100
AcDbEntity
  8
RACCORDO
100
AcDbLine
 62
250
  6
CONTINUOUS
 10
-25.1034924454
 20
22.2802003537
 30
0.0
 11
-25.1122809044
 21
22.2889888127
 31
0.0
  0
LINE
  5
2DF
100
AcDbEntity
  8
RACCORDO
100
AcDbLine
 62
250
  6
CONTINUOUS
 10
-25.0895522612
 20
22.3956306265
 30
0.0
 11
-24.808591484
 21
22.1146698493
 31
0.0
  0
LINE
  5
2E0
100
AcDbEntity
  8
RACCORDO
100
AcDbLine
 62
250
  6
CONTINUOUS
 10
-24.7439225318
 20
22.1035999791
 30
0.0
 11
-24.7500433012
 21
22.1097207485
 31
0.0
  0
LINE
  5
2E1
100
AcDbEntity
  8
RACCORDO
100
AcDbLine
 62
250
  6
CONTINUOUS
 10
-24.4439682232
 20
22.4035542877
 30
0.0
 11
-24.4500889926
 21
22.4096750571
 31
0.0
  0
LINE
  5
2E2
100
AcDbEntity
  8
RACCORDO
100
AcDbLine
 62
250
  6
CONTINUOUS
 10
-24.6035685978
 20
22.7801242013
 30
0.0
 11
-24.6123570568
 21
22.7889126603
 31
0.0
  0
LWPOLYLINE
  5
2E3
100
AcDbEntity
  8
RACCORDO
100
AcDbPolyline
 62
250
  6
CONTINUOUS
 90
4
 70
0
 10
42.5418389175
 20
38.8563351703
 10
42.5442796494
 20
38.860473246
 10
42.5471560727
 20
38.8646565019
 10
42.5458144296
 20
38.8685954404
  0
LWPOLYLINE
  5
2E4
100
AcDbEntity
  8
RACCORDO
100
AcDbPolyline
 62
250
  6
CONTINUOUS
 90
12
 70
0
 10
-23.6012867283
 20
-48.7742265967
 10
-23.606970022
 20
-48.7816819566
 10
-23.6157075084
 20
-48.7912979409
 10
-23.625263934
 20
-48.8001096861
 10
-23.6356265949
 20
-48.8081331791
 10
-23.6465886286
 20
-48.8151883703
 10
-23.658172649
 20
-48.8212613373
 10
-23.6703560423
 20
-48.8263660024
 10
-23.6828641043
 20
-48.8303640833
 10
-23.6956052672
 20
-48.833209486
 10
-23.7086710988
 20
-48.8349483044
 10
-23.7220615992
 20
-48.8355805387
  0
LINE
  5
2E5
100
AcDbEntity
  8
RACCORDO
100
AcDbLine
 62
250
  6
CONTINUOUS
 10
-44.5041868346
 20
-48.6185144901
 30
0.0
 11
-44.979920113
 21
-49.0948757987
 31
0.0
  0
LINE
  5
2E6
100
AcDbEntity
  8
RACCORDO
100
AcDbLine
 62
250
  6
CONTINUOUS
 10
43.7215075546
 20
37.6065518689
 30
0.0
 11
43.245146246
 21
37.1308185905
 31
0.0
  0
LINE
  5
2E7
100
AcDbEntity
  8
RACCORDO
100
AcDbLine
 62
250
  6
CONTINUOUS
 10
-25.1122809044
 20
-32.2787404102
 30
0.0
 11
-25.1034924454
 21
-32.2699519512
 31
0.0
  0
LINE
  5
2E8
100
AcDbEntity
  8
RACCORDO
100
AcDbLine
 62
250
  6
CONTINUOUS
 10
-25.0895522612
 20
-32.385382224
 30
0.0
 11
-24.808591484
 21
-32.1044214468
 31
0.0
  0
LINE
  5
2E9
100
AcDbEntity
  8
RACCORDO
100
AcDbLine
 62
250
  6
CONTINUOUS
 10
-24.7439225318
 20
-32.0933515766
 30
0.0
 11
-24.7500433012
 21
-32.099472346
 31
0.0
  0
LINE
  5
2EA
100
AcDbEntity
  8
RACCORDO
100
AcDbLine
 62
250
  6
CONTINUOUS
 10
-24.4439682232
 20
-32.3933058851
 30
0.0
 11
-24.4500889926
 21
-32.3994266546
 31
0.0
  0
LINE
  5
2EB
100
AcDbEntity
  8
RACCORDO
100
AcDbLine
 62
250
  6
CONTINUOUS
 10
-24.7458366958
 20
-32.7487734398
 30
0.0
 11
-24.4550380934
 21
-32.4579748373
 31
0.0
  0
LINE
  5
2EC
100
AcDbEntity
  8
RACCORDO
100
AcDbLine
 62
250
  6
CONTINUOUS
 10
-24.6123570568
 20
-32.7786642578
 30
0.0
 11
-24.6035685978
 21
-32.7698757987
 31
0.0
  0
LWPOLYLINE
  5
2ED
100
AcDbEntity
  8
RACCORDO
100
AcDbPolyline
 62
250
  6
CONTINUOUS
 90
10
 70
0
 10
21.9930584105
 20
22.1097207485
 10
21.9940834438
 20
22.1102584498
 10
21.9965560905
 20
22.1108022499
 10
22.0004583082
 20
22.111352149
 10
22.005761607
 20
22.1119122126
 10
22.0124273765
 20
22.1124783751
 10
22.0204072717
 20
22.1130384398
 10
22.029643352
 20
22.1135883409
 10
22.0400683983
 20
22.114132144
 10
22.0516065933
 20
22.1146698493
  0
LINE
  5
2EE
100
AcDbEntity
  8
RACCORDO
100
AcDbLine
 62
7
  6
CONTINUOUS
 10
-23.9679223815
 20
-48.7872136015
 30
0.0
 11
-23.9427871068
 21
-48.7855754255
 31
0.0
  0
LWPOLYLINE
  5
2EF
100
AcDbEntity
  8
RACCORDO
100
AcDbPolyline
 62
250
  6
CONTINUOUS
 90
12
 70
0
 10
-23.9593649877
 20
-48.7849928802
 10
-23.9903676834
 20
-48.7868994085
 10
-24.0191102291
 20
-48.7889257315
 10
-24.0457687797
 20
-48.7910826482
 10
-24.0701671803
 20
-48.7933593597
 10
-24.0916601921
 20
-48.7957295297
 10
-24.1101980983
 20
-48.7982024432
 10
-24.1258306158
 20
-48.8007688152
 10
-24.1380616561
 20
-48.8033744546
 10
-24.1467258564
 20
-48.8060012977
 10
-24.1519885795
 20
-48.8086674082
 10
-24.1538498255
 20
-48.8113727861
  0
LINE
  5
2F0
100
AcDbEntity
  8
RACCORDO
100
AcDbLine
 62
7
  6
CONTINUOUS
 10
-23.9427871068
 20
-48.7855754255
 30
0.0
 11
-23.914448071
 21
-48.7839522929
 31
0.0
  0
LINE
  5
2F1
100
AcDbEntity
  8
RACCORDO
100
AcDbLine
 62
7
  6
CONTINUOUS
 10
-23.914448071
 20
-48.7839522929
 30
0.0
 11
-23.883134298
 21
-48.7823704218
 31
0.0
  0
LWPOLYLINE
  5
2F2
100
AcDbEntity
  8
RACCORDO
100
AcDbPolyline
 62
250
  6
CONTINUOUS
 90
10
 70
0
 10
21.4963207193
 20
-48.7930598618
 10
21.5395117936
 20
-48.7911945625
 10
21.582380052
 20
-48.7856103929
 10
21.6246050143
 20
-48.7763490804
 10
21.6658710074
 20
-48.7634798423
 10
21.705869523
 20
-48.7470988697
 10
21.744301525
 20
-48.7273286091
 10
21.780879689
 20
-48.7043168449
 10
21.8153305452
 20
-48.6782355977
 10
21.8249119972
 20
-48.6695834928
  0
LINE
  5
2F3
100
AcDbEntity
  8
RACCORDO
100
AcDbLine
 62
7
  6
CONTINUOUS
 10
-23.883134298
 20
-48.7823704218
 30
0.0
 11
-23.8489961691
 21
-48.7808537493
 31
0.0
  0
LWPOLYLINE
  5
2F4
100
AcDbEntity
  8
RACCORDO
100
AcDbPolyline
 62
250
  6
CONTINUOUS
 90
4
 70
0
 10
-23.883134298
 20
-48.7823704218
 10
-23.8908184879
 20
-48.7815124174
 10
-23.9262189156
 20
-48.7832000865
 10
-23.9593649877
 20
-48.7849928802
  0
LINE
  5
2F5
100
AcDbEntity
  8
RACCORDO
100
AcDbLine
 62
7
  6
CONTINUOUS
 10
-23.8489961691
 20
-48.7808537493
 30
0.0
 11
-23.8121438427
 21
-48.7794259288
 31
0.0
  0
LINE
  5
2F6
100
AcDbEntity
  8
RACCORDO
100
AcDbLine
 62
250
  6
CONTINUOUS
 10
-23.8489961691
 20
-48.7808537493
 30
0.0
 11
-23.8532746839
 21
-48.7799384829
 31
0.0
  0
LWPOLYLINE
  5
2F7
100
AcDbEntity
  8
RACCORDO
100
AcDbPolyline
 62
7
  6
CONTINUOUS
 90
16
 70
0
 10
21.4946197117
 20
-48.9761213722
 10
21.5268449358
 20
-48.9750760421
 10
21.5667937401
 20
-48.970873599
 10
21.6062381282
 20
-48.9634956031
 10
21.6449265599
 20
-48.9529819486
 10
21.6826119522
 20
-48.9394135468
 10
21.7190637107
 20
-48.9228865545
 10
21.7540849689
 20
-48.9034858807
 10
21.7874658138
 20
-48.8813332438
 10
21.8189744534
 20
-48.8565749665
 10
21.8483981827
 20
-48.8293678295
 10
21.875555438
 20
-48.7998901925
 10
21.9002665838
 20
-48.768326926
 10
21.9223680027
 20
-48.7348896288
 10
21.9417176294
 20
-48.6998122243
 10
21.9553600833
 20
-48.6695834928
  0
LWPOLYLINE
  5
2F8
100
AcDbEntity
  8
RACCORDO
100
AcDbPolyline
 62
7
  6
CONTINUOUS
 90
13
 70
0
 10
-24.1553802767
 20
-48.9761213722
 10
-24.1231070288
 20
-48.9750729121
 10
-24.0831464557
 20
-48.9708648403
 10
-24.0436929969
 20
-48.96347984
 10
-24.0049985959
 20
-48.9529584295
 10
-23.9673100379
 20
-48.9393820067
 10
-23.9308575385
 20
-48.9228469083
 10
-23.895837356
 20
-48.9034387557
 10
-23.8624591135
 20
-48.8812793858
 10
-23.8309547716
 20
-48.8565144527
 10
-23.8015361846
 20
-48.829301834
 10
-23.7743852673
 20
-48.7998205045
 10
-23.7570115926
 20
-48.7776207805
  0
LINE
  5
2F9
100
AcDbEntity
  8
RACCORDO
100
AcDbLine
 62
7
  6
CONTINUOUS
 10
-23.8121438427
 20
-48.7794259288
 30
0.0
 11
-23.7726687325
 21
-48.7780938446
 31
0.0
  0
LWPOLYLINE
  5
2FA
100
AcDbEntity
  8
RACCORDO
100
AcDbPolyline
 62
250
  6
CONTINUOUS
 90
17
 70
0
 10
-24.0033798244
 20
-48.7703509769
 10
-24.0310801381
 20
-48.7712524361
 10
-24.0575835271
 20
-48.7722479265
 10
-24.0829059166
 20
-48.7733362547
 10
-24.1067244375
 20
-48.7745035556
 10
-24.1290166988
 20
-48.7757504764
 10
-24.1498050914
 20
-48.7770763699
 10
-24.1688339192
 20
-48.7784654295
 10
-24.1860872803
 20
-48.7799186827
 10
-24.2015810766
 20
-48.7814351019
 10
-24.2151073173
 20
-48.7829957981
 10
-24.2266420244
 20
-48.7846015916
 10
-24.2362091761
 20
-48.7862516621
 10
-24.243672716
 20
-48.7879246594
 10
-24.2489872923
 20
-48.7896134667
 10
-24.252198257
 20
-48.7913252008
 10
-24.25330561
 20
-48.7930598618
  0
LWPOLYLINE
  5
2FB
100
AcDbEntity
  8
RACCORDO
100
AcDbPolyline
 62
250
  6
CONTINUOUS
 90
28
 70
0
 10
41.7472019439
 20
-48.0193367693
 10
41.8004008743
 20
-48.0176192662
 10
41.852665652
 20
-48.0130356404
 10
41.903996277
 20
-48.0055858921
 10
41.9543956143
 20
-47.9952374239
 10
42.0038607989
 20
-47.982022833
 10
42.0523832356
 20
-47.9660399115
 10
42.1001339298
 20
-47.9472455939
 10
42.1469418761
 20
-47.9256829457
 10
42.1922854629
 20
-47.9015789555
 10
42.2361238296
 20
-47.8749168103
 10
42.2784978368
 20
-47.8457133232
 10
42.3190084555
 20
-47.8142459217
 10
42.3576468672
 20
-47.7804829426
 10
42.3944218902
 20
-47.7444560492
 10
42.4289609507
 20
-47.7065376588
 10
42.4611794592
 20
-47.6668563496
 10
42.491162005
 20
-47.6252835434
 10
42.5187897822
 20
-47.5818059222
 10
42.5441665995
 20
-47.536300232
 10
42.5671886482
 20
-47.4888897269
 10
42.5874256953
 20
-47.4399308508
 10
42.6048652169
 20
-47.3893129556
 10
42.6195197369
 20
-47.3371466895
 10
42.6309965938
 20
-47.2841204408
 10
42.6391649006
 20
-47.2304636724
 10
42.6441555444
 20
-47.1759469215
 10
42.6459685252
 20
-47.120570188
  0
LINE
  5
2FC
100
AcDbEntity
  8
RACCORDO
100
AcDbLine
 62
250
  6
CONTINUOUS
 10
-23.8121438427
 20
-48.7794259288
 30
0.0
 11
-23.8140372154
 21
-48.7784980525
 31
0.0
  0
LWPOLYLINE
  5
2FD
100
AcDbEntity
  8
RACCORDO
100
AcDbPolyline
 62
250
  6
CONTINUOUS
 90
28
 70
0
 10
41.7472019439
 20
-48.6185144901
 10
41.8353249607
 20
-48.6158280902
 10
41.922441077
 20
-48.6080524888
 10
42.008265358
 20
-48.5953359028
 10
42.092270647
 20
-48.5779024367
 10
42.1744700959
 20
-48.5558948455
 10
42.2553787294
 20
-48.5292276881
 10
42.3350107073
 20
-48.497851953
 10
42.4128092473
 20
-48.4619414586
 10
42.4884117356
 20
-48.4216553948
 10
42.5615338219
 20
-48.3771534983
 10
42.6319812959
 20
-48.3285628173
 10
42.6995449896
 20
-48.2760286038
 10
42.7640214404
 20
-48.219705299
 10
42.825181383
 20
-48.1597895948
 10
42.8827950614
 20
-48.0965107455
 10
42.9365173517
 20
-48.0302920086
 10
42.9863656082
 20
-47.9611587371
 10
43.0325733444
 20
-47.8886880808
 10
43.0749944488
 20
-47.812842707
 10
43.1132453109
 20
-47.7340117064
 10
43.1470998905
 20
-47.6523629913
 10
43.1763528778
 20
-47.568008595
 10
43.200720342
 20
-47.4813167771
 10
43.2199224903
 20
-47.3928833898
 10
43.2337981416
 20
-47.3031209812
 10
43.2422432547
 20
-47.2122404095
 10
43.245146246
 20
-47.120570188
  0
LWPOLYLINE
  5
2FE
100
AcDbEntity
  8
0
100
AcDbPolyline
 62
7
  6
CONTINUOUS
 90
28
 70
0
 10
42.2229352223
 20
-49.0948757987
 10
42.3100252554
 20
-49.092348497
 10
42.3969561404
 20
-49.0847553735
 10
42.4834324407
 20
-49.0720973373
 10
42.5692912144
 20
-49.0543614458
 10
42.6540985713
 20
-49.0315992431
 10
42.7371713928
 20
-49.0040039227
 10
42.8180315703
 20
-48.971804196
 10
42.8966437345
 20
-48.9350856638
 10
42.9730034484
 20
-48.8938739661
 10
43.0468624
 20
-48.8483002001
 10
43.1179640272
 20
-48.7985195134
 10
43.1862588578
 20
-48.7445369673
 10
43.251671393
 20
-48.686326541
 10
43.3137473862
 20
-48.6242028448
 10
43.3719174745
 20
-48.558733748
 10
43.425884849
 20
-48.4903456876
 10
43.4756506328
 20
-48.4191369489
 10
43.5211579815
 20
-48.3452415258
 10
43.5622357553
 20
-48.268980325
 10
43.5988012162
 20
-48.1905541922
 10
43.6308742922
 20
-48.1098853206
 10
43.6583747933
 20
-48.0269873282
 10
43.6810655339
 20
-47.9423544951
 10
43.6987580076
 20
-47.856636589
 10
43.7113953034
 20
-47.7702541286
 10
43.7189811048
 20
-47.6833783327
 10
43.7215075546
 20
-47.5963034664
  0
LINE
  5
2FF
100
AcDbEntity
  8
RACCORDO
100
AcDbLine
 62
7
  6
CONTINUOUS
 10
-23.7726687325
 20
-48.7780938446
 30
0.0
 11
-23.730664895
 21
-48.7768755333
 31
0.0
  0
LINE
  5
300
100
AcDbEntity
  8
RACCORDO
100
AcDbLine
 62
250
  6
CONTINUOUS
 10
-23.9448068433
 20
-48.7688368565
 30
0.0
 11
-24.0033798244
 21
-48.7703509769
 31
0.0
  0
LINE
  5
301
100
AcDbEntity
  8
RACCORDO
100
AcDbLine
 62
7
  6
CONTINUOUS
 10
-23.730664895
 20
-48.7768755333
 30
0.0
 11
-23.6630597497
 21
-48.7753017563
 31
0.0
  0
LINE
  5
302
100
AcDbEntity
  8
RACCORDO
100
AcDbLine
 62
250
  6
CONTINUOUS
 10
-23.6630597497
 20
-48.7753017563
 30
0.0
 11
-23.6866125347
 21
-48.7749975553
 31
0.0
  0
LINE
  5
303
100
AcDbEntity
  8
RACCORDO
100
AcDbLine
 62
250
  6
CONTINUOUS
 10
-23.8829921583
 20
-48.7677379546
 30
0.0
 11
-23.9448068433
 21
-48.7688368565
 31
0.0
  0
LINE
  5
304
100
AcDbEntity
  8
RACCORDO
100
AcDbLine
 62
7
  6
CONTINUOUS
 10
-23.6630597497
 20
-48.7753017563
 30
0.0
 11
-23.5902502887
 21
-48.7740610806
 31
0.0
  0
LINE
  5
305
100
AcDbEntity
  8
RACCORDO
100
AcDbLine
 62
250
  6
CONTINUOUS
 10
-23.5902502887
 20
-48.7740610806
 30
0.0
 11
-23.596216342
 21
-48.7734069816
 31
0.0
  0
LWPOLYLINE
  5
306
100
AcDbEntity
  8
RACCORDO
100
AcDbPolyline
 62
7
  6
CONTINUOUS
 90
7
 70
0
 10
-23.6758389634
 20
-49.0948656174
 10
-23.6734610936
 20
-49.0948374776
 10
-23.6711868522
 20
-49.0947926047
 10
-23.6690163235
 20
-49.0947333451
 10
-23.6669495601
 20
-49.0946619392
 10
-23.6649865872
 20
-49.0945805208
 10
-23.6631274059
 20
-49.0944911168
  0
LINE
  5
307
100
AcDbEntity
  8
RACCORDO
100
AcDbLine
 62
7
  6
CONTINUOUS
 10
-23.5902502887
 20
-48.7740610806
 30
0.0
 11
-23.5126651198
 21
-48.7732049554
 31
0.0
  0
LINE
  5
308
100
AcDbEntity
  8
RACCORDO
100
AcDbLine
 62
250
  6
CONTINUOUS
 10
-23.5126651198
 20
-48.7732049554
 30
0.0
 11
-23.5494816297
 21
-48.7728423076
 31
0.0
  0
LINE
  5
309
100
AcDbEntity
  8
RACCORDO
100
AcDbLine
 62
250
  6
CONTINUOUS
 10
-23.8191729587
 20
-48.7670721816
 30
0.0
 11
-23.8829921583
 21
-48.7677379546
 31
0.0
  0
LINE
  5
30A
100
AcDbEntity
  8
RACCORDO
100
AcDbLine
 62
7
  6
CONTINUOUS
 10
-23.5126651198
 20
-48.7732049554
 30
0.0
 11
-23.4308848487
 21
-48.7727995683
 31
0.0
  0
LINE
  5
30B
100
AcDbEntity
  8
RACCORDO
100
AcDbLine
 62
250
  6
CONTINUOUS
 10
-23.4308848487
 20
-48.7727995683
 30
0.0
 11
-23.4530741202
 21
-48.7721848597
 31
0.0
  0
LINE
  5
30C
100
AcDbEntity
  8
RACCORDO
100
AcDbLine
 62
250
  6
CONTINUOUS
 10
-23.7537203158
 20
-48.7668457291
 30
0.0
 11
-23.8191729587
 21
-48.7670721816
 31
0.0
  0
LINE
  5
30D
100
AcDbEntity
  8
RACCORDO
100
AcDbLine
 62
7
  6
CONTINUOUS
 10
-44.979920113
 20
-49.0948757987
 30
0.0
 11
-23.6758389552
 21
-49.0948757987
 31
0.0
  0
LINE
  5
30E
100
AcDbEntity
  8
RACCORDO
100
AcDbLine
 62
7
  6
CONTINUOUS
 10
20.9188540645
 20
-49.0948757987
 30
0.0
 11
42.2229352223
 21
-49.0948757987
 31
0.0
  0
LINE
  5
30F
100
AcDbEntity
  8
RACCORDO
100
AcDbLine
 62
7
  6
CONTINUOUS
 10
-44.8805481432
 20
-48.9948757987
 30
0.0
 11
-26.9959281208
 21
-48.9948757987
 31
0.0
  0
LINE
  5
310
100
AcDbEntity
  8
RACCORDO
100
AcDbLine
 62
7
  6
CONTINUOUS
 10
24.2389432301
 20
-48.9948757987
 30
0.0
 11
42.1235632525
 21
-48.9948757987
 31
0.0
  0
LINE
  5
311
100
AcDbEntity
  8
RACCORDO
100
AcDbLine
 62
250
  6
CONTINUOUS
 10
20.9650767085
 20
-48.9854377719
 30
0.0
 11
23.9640749077
 21
-48.9854377719
 31
0.0
  0
LINE
  5
312
100
AcDbEntity
  8
RACCORDO
100
AcDbLine
 62
250
  6
CONTINUOUS
 10
-23.7220615992
 20
-48.9854377719
 30
0.0
 11
-26.7210597984
 21
-48.9854377719
 31
0.0
  0
LINE
  5
313
100
AcDbEntity
  8
RACCORDO
100
AcDbLine
 62
7
  6
CONTINUOUS
 10
21.4946197312
 20
-48.9761213722
 30
0.0
 11
21.3983953781
 21
-48.9761213722
 31
0.0
  0
LINE
  5
314
100
AcDbEntity
  8
RACCORDO
100
AcDbLine
 62
7
  6
CONTINUOUS
 10
-24.1553802688
 20
-48.9761213722
 30
0.0
 11
-24.2516046219
 21
-48.9761213722
 31
0.0
  0
LINE
  5
315
100
AcDbEntity
  8
RACCORDO
100
AcDbLine
 62
250
  6
CONTINUOUS
 10
20.9650767085
 20
-48.8355805387
 30
0.0
 11
21.0509685184
 21
-48.8355805387
 31
0.0
  0
LINE
  5
316
100
AcDbEntity
  8
RACCORDO
100
AcDbLine
 62
250
  6
CONTINUOUS
 10
21.8416793179
 20
-48.8355805387
 30
0.0
 11
23.8642660026
 21
-48.8355805387
 31
0.0
  0
LINE
  5
317
100
AcDbEntity
  8
RACCORDO
100
AcDbLine
 62
250
  6
CONTINUOUS
 10
-23.7220615992
 20
-48.8355805387
 30
0.0
 11
-23.8083238673
 21
-48.8355805387
 31
0.0
  0
LINE
  5
318
100
AcDbEntity
  8
RACCORDO
100
AcDbLine
 62
250
  6
CONTINUOUS
 10
-24.599036739
 20
-48.8355805387
 30
0.0
 11
-26.6212508933
 21
-48.8355805387
 31
0.0
  0
LINE
  5
319
100
AcDbEntity
  8
RACCORDO
100
AcDbLine
 62
7
  6
CONTINUOUS
 10
-26.0484807312
 20
-48.6695834928
 30
0.0
 11
23.2914958405
 21
-48.6695834928
 31
0.0
  0
LINE
  5
31A
100
AcDbEntity
  8
RACCORDO
100
AcDbLine
 62
250
  6
CONTINUOUS
 10
-44.5041868346
 20
-48.6185144901
 30
0.0
 11
41.7472019439
 21
-48.6185144901
 31
0.0
  0
LINE
  5
31B
100
AcDbEntity
  8
RACCORDO
100
AcDbLine
 62
250
  6
CONTINUOUS
 10
-44.5041868346
 20
-48.0193367693
 30
0.0
 11
41.7472019439
 21
-48.0193367693
 31
0.0
  0
LINE
  5
31C
100
AcDbEntity
  8
RACCORDO
100
AcDbLine
 62
250
  6
CONTINUOUS
 10
42.6459685252
 20
-47.120570188
 30
0.0
 11
43.245146246
 21
-47.120570188
 31
0.0
  0
LINE
  5
31D
100
AcDbEntity
  8
RACCORDO
100
AcDbLine
 62
250
  6
CONTINUOUS
 10
-45.4029534159
 20
-47.120570188
 30
0.0
 11
-46.0021311367
 21
-47.120570188
 31
0.0
  0
LINE
  5
31E
100
AcDbEntity
  8
RACCORDO
100
AcDbLine
 62
7
  6
CONTINUOUS
 10
-23.4308848487
 20
-48.7727995683
 30
0.0
 11
20.6518885387
 21
-48.7727759968
 31
0.0
  0
LINE
  5
31F
100
AcDbEntity
  8
RACCORDO
100
AcDbLine
 62
250
  6
CONTINUOUS
 10
21.029798634
 20
-48.7669045575
 30
0.0
 11
-23.7537203158
 21
-48.7668457291
 31
0.0
  0
LINE
  5
320
100
AcDbEntity
  8
RACCORDO
100
AcDbLine
 62
250
  6
CONTINUOUS
 10
20.6518885387
 20
-48.7727759968
 30
0.0
 11
20.6463894028
 21
-48.7720899509
 31
0.0
  0
LINE
  5
321
100
AcDbEntity
  8
RACCORDO
100
AcDbLine
 62
7
  6
CONTINUOUS
 10
20.6518885387
 20
-48.7727759968
 30
0.0
 11
20.7315801213
 21
-48.773029609
 31
0.0
  0
LINE
  5
322
100
AcDbEntity
  8
RACCORDO
100
AcDbLine
 62
250
  6
CONTINUOUS
 10
21.0946204078
 20
-48.7673531933
 30
0.0
 11
21.029798634
 21
-48.7669045575
 31
0.0
  0
LINE
  5
323
100
AcDbEntity
  8
RACCORDO
100
AcDbLine
 62
7
  6
CONTINUOUS
 10
20.7315801213
 20
-48.773029609
 30
0.0
 11
20.807591128
 21
-48.7737281602
 31
0.0
  0
LINE
  5
324
100
AcDbEntity
  8
RACCORDO
100
AcDbLine
 62
250
  6
CONTINUOUS
 10
20.807591128
 20
-48.7737281602
 30
0.0
 11
20.7993466408
 21
-48.7729152733
 31
0.0
  0
LINE
  5
325
100
AcDbEntity
  8
RACCORDO
100
AcDbLine
 62
250
  6
CONTINUOUS
 10
21.1579743801
 20
-48.7682478346
 30
0.0
 11
21.0946204078
 21
-48.7673531933
 31
0.0
  0
LINE
  5
326
100
AcDbEntity
  8
RACCORDO
100
AcDbLine
 62
7
  6
CONTINUOUS
 10
20.807591128
 20
-48.7737281602
 30
0.0
 11
20.8793233434
 21
-48.7747919375
 31
0.0
  0
LINE
  5
327
100
AcDbEntity
  8
RACCORDO
100
AcDbLine
 62
7
  6
CONTINUOUS
 10
20.8793233434
 20
-48.7747919375
 30
0.0
 11
20.9463778564
 21
-48.7761885361
 31
0.0
  0
LINE
  5
328
100
AcDbEntity
  8
RACCORDO
100
AcDbLine
 62
250
  6
CONTINUOUS
 10
20.9900621602
 20
-48.7764534128
 30
0.0
 11
20.9883020124
 21
-48.7772765637
 31
0.0
  0
LINE
  5
329
100
AcDbEntity
  8
RACCORDO
100
AcDbLine
 62
7
  6
CONTINUOUS
 10
20.9463778564
 20
-48.7761885361
 30
0.0
 11
20.9883020124
 21
-48.7772765637
 31
0.0
  0
LINE
  5
32A
100
AcDbEntity
  8
RACCORDO
100
AcDbLine
 62
250
  6
CONTINUOUS
 10
21.0332751746
 20
-48.7777197881
 30
0.0
 11
21.0278924132
 21
-48.7784839767
 31
0.0
  0
LINE
  5
32B
100
AcDbEntity
  8
RACCORDO
100
AcDbLine
 62
7
  6
CONTINUOUS
 10
20.9883020124
 20
-48.7772765637
 30
0.0
 11
21.0278924132
 21
-48.7784839767
 31
0.0
  0
LINE
  5
32C
100
AcDbEntity
  8
RACCORDO
100
AcDbLine
 62
250
  6
CONTINUOUS
 10
21.0742769006
 20
-48.77910587
 30
0.0
 11
21.0651588347
 21
-48.7797954046
 31
0.0
  0
LWPOLYLINE
  5
32D
100
AcDbEntity
  8
RACCORDO
100
AcDbPolyline
 62
250
  6
CONTINUOUS
 90
4
 70
0
 10
21.3983953781
 20
-48.9757102326
 10
21.3621916
 20
-48.9743986321
 10
21.3261936589
 20
-48.9704721541
 10
21.2905899923
 20
-48.9639548073
  0
LINE
  5
32E
100
AcDbEntity
  8
RACCORDO
100
AcDbLine
 62
7
  6
CONTINUOUS
 10
21.0278924132
 20
-48.7784839767
 30
0.0
 11
21.0651588347
 21
-48.7797954046
 31
0.0
  0
LINE
  5
32F
100
AcDbEntity
  8
RACCORDO
100
AcDbLine
 62
250
  6
CONTINUOUS
 10
21.1129134418
 20
-48.7806035013
 30
0.0
 11
21.0999486675
 21
-48.7811891873
 31
0.0
  0
LINE
  5
330
100
AcDbEntity
  8
RACCORDO
100
AcDbLine
 62
7
  6
CONTINUOUS
 10
21.0651588347
 20
-48.7797954046
 30
0.0
 11
21.0999486675
 21
-48.7811891873
 31
0.0
  0
LINE
  5
331
100
AcDbEntity
  8
RACCORDO
100
AcDbLine
 62
250
  6
CONTINUOUS
 10
21.1493386946
 20
-48.7822208391
 30
0.0
 11
21.1321770589
 21
-48.7826589965
 31
0.0
  0
LINE
  5
332
100
AcDbEntity
  8
RACCORDO
100
AcDbLine
 62
7
  6
CONTINUOUS
 10
21.0999486675
 20
-48.7811891873
 30
0.0
 11
21.1321770589
 21
-48.7826589965
 31
0.0
  0
LWPOLYLINE
  5
333
100
AcDbEntity
  8
RACCORDO
100
AcDbPolyline
 62
7
  6
CONTINUOUS
 90
7
 70
0
 10
20.9061425152
 20
-49.0944911168
 10
20.9082469
 20
-49.0945913261
 10
20.9103571034
 20
-49.0946765648
 10
20.9124730249
 20
-49.0947467228
 10
20.9145945627
 20
-49.0948016903
 10
20.9167216136
 20
-49.0948413581
 10
20.9188540727
 20
-49.0948656174
  0
LINE
  5
334
100
AcDbEntity
  8
RACCORDO
100
AcDbLine
 62
250
  6
CONTINUOUS
 10
21.183628037
 20
-48.7839523284
 30
0.0
 11
21.1618836905
 21
-48.7841930556
 31
0.0
  0
LINE
  5
335
100
AcDbEntity
  8
RACCORDO
100
AcDbLine
 62
7
  6
CONTINUOUS
 10
21.1321770589
 20
-48.7826589965
 30
0.0
 11
21.1618836905
 21
-48.7841930556
 31
0.0
  0
LINE
  5
336
100
AcDbEntity
  8
RACCORDO
100
AcDbLine
 62
7
  6
CONTINUOUS
 10
21.1618836905
 20
-48.7841930556
 30
0.0
 11
21.1887359863
 21
-48.7857558444
 31
0.0
  0
LWPOLYLINE
  5
337
100
AcDbEntity
  8
RACCORDO
100
AcDbPolyline
 62
7
  6
CONTINUOUS
 90
13
 70
0
 10
21.1887359863
 20
-48.7857558444
 10
21.2125863459
 20
-48.7873271893
 10
21.2233875639
 20
-48.7881093041
 10
21.2334142869
 20
-48.7888817158
 10
21.2425433437
 20
-48.7896293148
 10
21.2507599894
 20
-48.7903461782
 10
21.2580845316
 20
-48.7910289843
 10
21.2644434826
 20
-48.7916638748
 10
21.2698893546
 20
-48.7922474461
 10
21.2743740744
 20
-48.7927644223
 10
21.2776708308
 20
-48.7931733735
 10
21.2798405377
 20
-48.7934625461
 10
21.2804561288
 20
-48.7935495177
  0
LWPOLYLINE
  5
338
100
AcDbEntity
  8
0
100
AcDbPolyline
 62
7
  6
CONTINUOUS
 90
16
 70
0
 10
2.4969792223
 20
-36.9364597016
 10
2.5314628324
 20
-36.9424314606
 10
2.5641284049
 20
-36.9508995195
 10
2.5949759397
 20
-36.9618638781
 10
2.6241763346
 20
-36.9754755537
 10
2.651558692
 20
-36.991583529
 10
2.6766103183
 20
-37.0097347529
 10
2.6991610145
 20
-37.0298391999
 10
2.7193809798
 20
-37.0519868955
 10
2.7372681177
 20
-37.0759948643
 10
2.7529649823
 20
-37.1021650565
 10
2.7663290195
 20
-37.1301955221
 10
2.7769304708
 20
-37.1589974355
 10
2.7846260833
 20
-37.1882078549
 10
2.7895591099
 20
-37.2181897223
 10
2.7917295506
 20
-37.2489430374
  0
LWPOLYLINE
  5
339
100
AcDbEntity
  8
RACCORDO
100
AcDbPolyline
 62
250
  6
CONTINUOUS
 90
9
 70
0
 10
21.9930584105
 20
-32.099472346
 10
21.994084025
 20
-32.0998993412
 10
21.9965576779
 20
-32.1003594024
 10
22.0004605963
 20
-32.1008525296
 10
22.0057629135
 20
-32.1013818424
 10
22.012425714
 20
-32.1019442211
 10
22.0204029254
 20
-32.1025303068
 10
22.0296383969
 20
-32.1031369798
 10
22.0516065933
 20
-32.1044214468
  0
LWPOLYLINE
  5
33A
100
AcDbEntity
  8
0
100
AcDbPolyline
 62
7
  6
CONTINUOUS
 90
10
 70
0
 43
0.3500000006
 10
-0.4142067254
 20
53.2499978027
 10
-0.3427781625
 20
53.1071445007
 10
-0.3427781625
 20
53.0357133179
 10
-0.4856352882
 20
52.892855484
 10
-0.5570638865
 20
52.892855484
 10
-0.628492414
 20
52.9642866669
 10
-0.628492414
 20
53.0357133179
 10
-0.5570638865
 20
53.1785711517
 10
-0.4856352882
 20
53.2499978027
 10
-0.4142067254
 20
53.2499978027
  0
LWPOLYLINE
  5
33B
100
AcDbEntity
  8
0
100
AcDbPolyline
 62
7
  6
CONTINUOUS
 90
28
 70
0
 10
43.6022110014
 20
37.4878833459
 10
43.5976874513
 20
37.5731227409
 10
43.5878615148
 20
37.6589499747
 10
43.5725813577
 20
37.7450461499
 10
43.5516548459
 20
37.8312474607
 10
43.5250058472
 20
37.9170164108
 10
43.49278959
 20
38.001473831
 10
43.455006077
 20
38.0843142175
 10
43.4117416264
 20
38.1651335642
 10
43.3635444953
 20
38.2429916725
 10
43.310748119
 20
38.3174578465
 10
43.2535019665
 20
38.3884398919
 10
43.1922563503
 20
38.4556145092
 10
43.1272546368
 20
38.5188266977
 10
43.0588335296
 20
38.5778539227
 10
42.9876705528
 20
38.632376242
 10
42.9143764396
 20
38.6821511857
 10
42.8390478713
 20
38.7273214504
 10
42.7615805777
 20
38.7681536532
 10
42.6818263917
 20
38.8047518925
 10
42.6004810009
 20
38.8368036069
 10
42.5187152053
 20
38.864036845
 10
42.4366653954
 20
38.8866271811
 10
42.3548311099
 20
38.9046055747
 10
42.2750158025
 20
38.917894019
 10
42.1980290775
 20
38.9268391222
 10
42.1236258458
 20
38.9319358488
 10
42.0520171106
 20
38.9335780593
  0
LWPOLYLINE
  5
33C
100
AcDbEntity
  8
RACCORDO
100
AcDbPolyline
 62
250
  6
CONTINUOUS
 90
28
 70
0
 10
42.6459685252
 20
37.1308185905
 10
42.6442510221
 20
37.1840175209
 10
42.6396673964
 20
37.2362822986
 10
42.632217648
 20
37.2876129236
 10
42.6218691798
 20
37.3380122609
 10
42.6086545889
 20
37.3874774455
 10
42.5926716674
 20
37.4359998822
 10
42.5738773498
 20
37.4837505764
 10
42.5523147016
 20
37.5305585227
 10
42.5282107114
 20
37.5759021095
 10
42.5015485663
 20
37.6197404762
 10
42.4723450791
 20
37.6621144835
 10
42.4408776776
 20
37.7026251021
 10
42.4071146986
 20
37.7412635138
 10
42.3710878052
 20
37.7780385369
 10
42.3331694147
 20
37.8125775973
 10
42.2934881055
 20
37.8447961058
 10
42.2519152993
 20
37.8747786516
 10
42.2084376781
 20
37.9024064288
 10
42.1629319879
 20
37.9277832462
 10
42.1155214828
 20
37.9508052948
 10
42.0665626067
 20
37.9710423419
 10
42.0159447115
 20
37.9884818635
 10
41.9637784454
 20
38.0031363835
 10
41.9107521967
 20
38.0146132405
 10
41.8570954283
 20
38.0227815473
 10
41.8025786774
 20
38.027772191
 10
41.7472019439
 20
38.0295851718
  0
LWPOLYLINE
  5
33D
100
AcDbEntity
  8
RACCORDO
100
AcDbPolyline
 62
250
  6
CONTINUOUS
 90
28
 70
0
 10
43.245146246
 20
37.1308185905
 10
43.2424598461
 20
37.2189416073
 10
43.2346842448
 20
37.3060577236
 10
43.2219676587
 20
37.3918820046
 10
43.2045341926
 20
37.4758872936
 10
43.1825266014
 20
37.5580867426
 10
43.155859444
 20
37.6389953761
 10
43.1244837089
 20
37.718627354
 10
43.0885732145
 20
37.7964258939
 10
43.0482871507
 20
37.8720283823
 10
43.0037852542
 20
37.9451504685
 10
42.9551945732
 20
38.0155979425
 10
42.9026603598
 20
38.0831616363
 10
42.846337055
 20
38.147638087
 10
42.7864213507
 20
38.2087980296
 10
42.7231425015
 20
38.266411708
 10
42.6569237645
 20
38.3201339983
 10
42.587790493
 20
38.3699822548
 10
42.5153198367
 20
38.416189991
 10
42.4394744629
 20
38.4586110954
 10
42.3606434623
 20
38.4968619575
 10
42.2789947472
 20
38.5307165371
 10
42.1946403509
 20
38.5599695244
 10
42.107948533
 20
38.5843369886
 10
42.0195151457
 20
38.6035391369
 10
41.9297527371
 20
38.6174147882
 10
41.8388721654
 20
38.6258599013
 10
41.7472019439
 20
38.6287628926
  0
LWPOLYLINE
  5
33E
100
AcDbEntity
  8
0
100
AcDbPolyline
 62
7
  6
CONTINUOUS
 90
28
 70
0
 10
43.7215075546
 20
37.6065518689
 10
43.7189772282
 20
37.6936938142
 10
43.7113764546
 20
37.7806641593
 10
43.6987082617
 20
37.8671672452
 10
43.6809628497
 20
37.9530357947
 10
43.6581933523
 20
38.0378406753
 10
43.6305904532
 20
38.1209119482
 10
43.5983797562
 20
38.2017781938
 10
43.5616487949
 20
38.2803968223
 10
43.5204273695
 20
38.3567557031
 10
43.4748509185
 20
38.4306022382
 10
43.4250730179
 20
38.5016858125
 10
43.3710940233
 20
38.5699645533
 10
43.3128855196
 20
38.6353651515
 10
43.2507637152
 20
38.6974308214
 10
43.1852965796
 20
38.7555918398
 10
43.1169092385
 20
38.8095521643
 10
43.0457008434
 20
38.8593118277
 10
42.9718092835
 20
38.9048115245
 10
42.8955604598
 20
38.945878314
 10
42.8171509403
 20
38.9824329749
 10
42.7364924606
 20
39.014499909
 10
42.6535895381
 20
39.0420002884
 10
42.56894423
 20
39.0646921343
 10
42.4832212583
 20
39.0823829476
 10
42.3968465636
 20
39.0950165417
 10
42.3099864779
 20
39.1025991279
 10
42.2229352223
 20
39.1051242013
  0
LINE
  5
33F
100
AcDbEntity
  8
RACCORDO
100
AcDbLine
 62
250
  6
CONTINUOUS
 10
41.7472019439
 20
-48.0193367693
 30
0.0
 11
41.7472019439
 21
-48.6185144901
 31
0.0
  0
LINE
  5
340
100
AcDbEntity
  8
RACCORDO
100
AcDbLine
 62
250
  6
CONTINUOUS
 10
41.7472019439
 20
38.0295851718
 30
0.0
 11
41.7472019439
 21
38.6287628926
 31
0.0
  0
LINE
  5
341
100
AcDbEntity
  8
RACCORDO
100
AcDbLine
 62
250
  6
CONTINUOUS
 10
42.0654701583
 20
38.9476591373
 30
0.0
 11
42.0654701583
 21
38.9332695392
 31
0.0
  0
LINE
  5
342
100
AcDbEntity
  8
RACCORDO
100
AcDbLine
 62
250
  6
CONTINUOUS
 10
42.6459685252
 20
-47.120570188
 30
0.0
 11
42.6459685252
 21
37.1308185905
 31
0.0
  0
LINE
  5
343
100
AcDbEntity
  8
RACCORDO
100
AcDbLine
 62
250
  6
CONTINUOUS
 10
43.245146246
 20
-47.120570188
 30
0.0
 11
43.245146246
 21
37.1308185905
 31
0.0
  0
LINE
  5
344
100
AcDbEntity
  8
0
100
AcDbLine
 62
7
  6
CONTINUOUS
 10
43.6215075546
 20
-47.4969314966
 30
0.0
 11
43.6215075546
 21
35.7051242013
 31
0.0
  0
LINE
  5
345
100
AcDbEntity
  8
0
100
AcDbLine
 62
7
  6
CONTINUOUS
 10
43.7215075546
 20
-47.5963034664
 30
0.0
 11
43.7215075546
 21
37.6065518689
 31
0.0
  0
LINE
  5
346
100
AcDbEntity
  8
RACCORDO
100
AcDbLine
 62
250
  6
CONTINUOUS
 10
20.6303202156
 20
-48.7727751835
 30
0.0
 11
20.6215075546
 21
-48.7948185897
 31
0.0
  0
LINE
  5
347
100
AcDbEntity
  8
RACCORDO
100
AcDbLine
 62
7
  6
CONTINUOUS
 10
20.9650767085
 20
-48.9854377719
 30
0.0
 11
20.9188540645
 21
-49.0948757987
 31
0.0
  0
LWPOLYLINE
  5
348
100
AcDbEntity
  8
RACCORDO
100
AcDbPolyline
 62
250
  6
CONTINUOUS
 90
8
 70
0
 10
21.9552420032
 20
-48.6695834928
 10
21.9451943942
 20
-48.6925549282
 10
21.9283100909
 20
-48.7246124583
 10
21.9091354349
 20
-48.755381201
 10
21.8878190294
 20
-48.7846306773
 10
21.8645695281
 20
-48.8121210852
 10
21.8394462423
 20
-48.8378246084
 10
21.8123571284
 20
-48.8618079885
  0
LWPOLYLINE
  5
349
100
AcDbEntity
  8
RACCORDO
100
AcDbPolyline
 62
7
  6
CONTINUOUS
 90
13
 70
0
 10
-24.0376386731
 20
-48.7935757413
 10
-24.0377864227
 20
-48.7935991004
 10
-24.0372425979
 20
-48.7935202636
 10
-24.0352817222
 20
-48.7932545149
 10
-24.0318707884
 20
-48.7928271306
 10
-24.02737541
 20
-48.7923047698
 10
-24.0218804447
 20
-48.7917114014
 10
-24.0152928543
 20
-48.7910499224
 10
-24.0077227739
 20
-48.7903423713
 10
-23.9991676651
 20
-48.7895966779
 10
-23.9896266982
 20
-48.7888193927
 10
-23.979207353
 20
-48.7880235307
 10
-23.9679223815
 20
-48.7872136015
  0
LINE
  5
34A
100
AcDbEntity
  8
0
100
AcDbLine
 62
7
  6
CONTINUOUS
 10
-5.5000164454
 20
-39.0250557987
 30
0.0
 11
-5.0401864454
 21
-39.0250557987
 31
0.0
  0
LINE
  5
34B
100
AcDbEntity
  8
0
100
AcDbLine
 62
7
  6
CONTINUOUS
 10
-4.0430324454
 20
-39.0250557987
 30
0.0
 11
-3.5212394454
 21
-39.0250557987
 31
0.0
  0
LINE
  5
34C
100
AcDbEntity
  8
0
100
AcDbLine
 62
7
  6
CONTINUOUS
 10
-3.2403424454
 20
-39.0250557987
 30
0.0
 11
-2.7411564454
 21
-39.0250557987
 31
0.0
  0
LINE
  5
34D
100
AcDbEntity
  8
0
100
AcDbLine
 62
7
  6
CONTINUOUS
 10
-2.0164274454
 20
-39.0250557987
 30
0.0
 11
-1.9432454454
 21
-39.0250557987
 31
0.0
  0
LINE
  5
34E
100
AcDbEntity
  8
0
100
AcDbLine
 62
7
  6
CONTINUOUS
 10
-1.2156304454
 20
-39.0250557987
 30
0.0
 11
-0.7051784454
 21
-39.0250557987
 31
0.0
  0
LINE
  5
34F
100
AcDbEntity
  8
0
100
AcDbLine
 62
7
  6
CONTINUOUS
 10
-0.6232424454
 20
-39.0250557987
 30
0.0
 11
-0.1071114454
 21
-39.0250557987
 31
0.0
  0
LINE
  5
350
100
AcDbEntity
  8
0
100
AcDbLine
 62
7
  6
CONTINUOUS
 10
0.8826385546
 20
-39.0250557987
 30
0.0
 11
1.4325865546
 21
-39.0250557987
 31
0.0
  0
LINE
  5
351
100
AcDbEntity
  8
0
100
AcDbLine
 62
7
  6
CONTINUOUS
 10
1.5858100567
 20
-39.0250555794
 30
0.0
 11
2.1055033983
 21
-39.0250555794
 31
0.0
  0
LINE
  5
352
100
AcDbEntity
  8
0
100
AcDbLine
 62
7
  6
CONTINUOUS
 10
2.904557217
 20
-39.0250555794
 30
0.0
 11
3.4064613153
 21
-39.0250555794
 31
0.0
  0
LINE
  5
353
100
AcDbEntity
  8
0
100
AcDbLine
 62
7
  6
CONTINUOUS
 10
0.0368715546
 20
-38.5260197987
 30
0.0
 11
0.7474665546
 21
-38.5260197987
 31
0.0
  0
LINE
  5
354
100
AcDbEntity
  8
0
100
AcDbLine
 62
7
  6
CONTINUOUS
 10
0.6431865546
 20
-38.1398677987
 30
0.0
 11
0.1436065546
 21
-38.1398677987
 31
0.0
  0
LINE
  5
355
100
AcDbEntity
  8
0
100
AcDbLine
 62
7
  6
CONTINUOUS
 10
2.1055033983
 20
-38.0467971601
 30
0.0
 11
2.385276271
 21
-38.0467971601
 31
0.0
  0
LINE
  5
356
100
AcDbEntity
  8
0
100
AcDbLine
 62
7
  6
CONTINUOUS
 10
2.3864009861
 20
-37.637400876
 30
0.0
 11
2.0882015315
 21
-37.637400876
 31
0.0
  0
LINE
  5
357
100
AcDbEntity
  8
0
100
AcDbLine
 62
7
  6
CONTINUOUS
 10
0.6656055546
 20
-36.5253197987
 30
0.0
 11
0.1608335546
 21
-36.5253197987
 31
0.0
  0
LINE
  5
358
100
AcDbEntity
  8
0
100
AcDbLine
 62
7
  6
CONTINUOUS
 10
-0.9389314454
 20
-36.5253197987
 30
0.0
 11
-1.4551944454
 21
-36.5253197987
 31
0.0
  0
LINE
  5
359
100
AcDbEntity
  8
0
100
AcDbLine
 62
7
  6
CONTINUOUS
 10
-2.4932694454
 20
-36.5253197987
 30
0.0
 11
-3.0146304454
 21
-36.5253197987
 31
0.0
  0
LINE
  5
35A
100
AcDbEntity
  8
0
100
AcDbLine
 62
7
  6
CONTINUOUS
 10
-4.2366714454
 20
-36.5253197987
 30
0.0
 11
-4.7581074454
 21
-36.5253197987
 31
0.0
  0
LINE
  5
35B
100
AcDbEntity
  8
0
100
AcDbLine
 62
7
  6
CONTINUOUS
 10
-5.7256534454
 20
-36.5253197987
 30
0.0
 11
-6.2924814454
 21
-36.5253197987
 31
0.0
  0
LINE
  5
35C
100
AcDbEntity
  8
0
100
AcDbLine
 62
7
  6
CONTINUOUS
 10
-3.5212394454
 20
-36.5251697987
 30
0.0
 11
-4.0430324454
 21
-36.5251697987
 31
0.0
  0
LINE
  5
35D
100
AcDbEntity
  8
RACCORDO
100
AcDbLine
 62
250
  6
CONTINUOUS
 10
21.8553721661
 20
-32.9786337968
 30
0.0
 11
-24.6123570568
 21
-32.9786337968
 31
0.0
  0
LINE
  5
35E
100
AcDbEntity
  8
RACCORDO
100
AcDbLine
 62
250
  6
CONTINUOUS
 10
21.8553721661
 20
-32.7786642578
 30
0.0
 11
-24.6123570568
 21
-32.7786642578
 31
0.0
  0
LINE
  5
35F
100
AcDbEntity
  8
RACCORDO
100
AcDbLine
 62
7
  6
CONTINUOUS
 10
-24.6035685978
 20
-32.7698757987
 30
0.0
 11
21.8465837071
 21
-32.7698757987
 31
0.0
  0
LINE
  5
360
100
AcDbEntity
  8
RACCORDO
100
AcDbLine
 62
250
  6
CONTINUOUS
 10
21.6978030074
 20
-32.4579748373
 30
0.0
 11
-24.4550380934
 21
-32.4579748373
 31
0.0
  0
LINE
  5
361
100
AcDbEntity
  8
RACCORDO
100
AcDbLine
 62
250
  6
CONTINUOUS
 10
21.6931041019
 20
-32.3994266546
 30
0.0
 11
-24.4500889926
 21
-32.3994266546
 31
0.0
  0
LINE
  5
362
100
AcDbEntity
  8
RACCORDO
100
AcDbLine
 62
250
  6
CONTINUOUS
 10
-24.4439682232
 20
-32.3933058851
 30
0.0
 11
21.6869833325
 21
-32.3933058851
 31
0.0
  0
LINE
  5
363
100
AcDbEntity
  8
RACCORDO
100
AcDbLine
 62
250
  6
CONTINUOUS
 10
-25.3122504434
 20
-32.2787404102
 30
0.0
 11
-25.1122809044
 21
-32.2787404102
 31
0.0
  0
LINE
  5
364
100
AcDbEntity
  8
RACCORDO
100
AcDbLine
 62
250
  6
CONTINUOUS
 10
22.5552655527
 20
-32.2787404102
 30
0.0
 11
22.3552960137
 21
-32.2787404102
 31
0.0
  0
LINE
  5
365
100
AcDbEntity
  8
RACCORDO
100
AcDbLine
 62
250
  6
CONTINUOUS
 10
-24.4439682232
 20
-32.1933363461
 30
0.0
 11
21.6869833325
 21
-32.1933363461
 31
0.0
  0
LINE
  5
366
100
AcDbEntity
  8
RACCORDO
100
AcDbLine
 62
250
  6
CONTINUOUS
 10
21.786968102
 20
-32.0933515766
 30
0.0
 11
21.9869376411
 21
-32.0933515766
 31
0.0
  0
LINE
  5
367
100
AcDbEntity
  8
RACCORDO
100
AcDbLine
 62
250
  6
CONTINUOUS
 10
-24.5439529927
 20
-32.0933515766
 30
0.0
 11
-24.7439225318
 21
-32.0933515766
 31
0.0
  0
LWPOLYLINE
  5
368
100
AcDbEntity
  8
RACCORDO
100
AcDbPolyline
 62
250
  6
CONTINUOUS
 90
25
 70
0
 10
-24.6123570557
 20
-32.7786642566
 10
-24.6448194358
 20
-32.7776136164
 10
-24.6770252054
 20
-32.7744735073
 10
-24.7088418401
 20
-32.7692802173
 10
-24.7400961769
 20
-32.7620900407
 10
-24.7707107334
 20
-32.7529489827
 10
-24.8006956733
 20
-32.7418639885
 10
-24.8299724573
 20
-32.7288550894
 10
-24.8583717738
 20
-32.7139882759
 10
-24.8857651614
 20
-32.6973278652
 10
-24.912048795
 20
-32.6789340457
 10
-24.9371033586
 20
-32.6588872898
 10
-24.9607906345
 20
-32.637302256
 10
-24.9829952756
 20
-32.6142990288
 10
-25.0036584211
 20
-32.5899545455
 10
-25.0227338861
 20
-32.5643268837
 10
-25.0400496384
 20
-32.5376704808
 10
-25.0556433737
 20
-32.5099526516
 10
-25.0696871444
 20
-32.480746287
 10
-25.082088675
 20
-32.4499247702
 10
-25.092583946
 20
-32.4177666843
 10
-25.100998795
 20
-32.3844261872
 10
-25.107179798
 20
-32.3500479804
 10
-25.1109861941
 20
-32.3147644069
 10
-25.1122809029
 20
-32.2787404087
  0
LWPOLYLINE
  5
369
100
AcDbEntity
  8
RACCORDO
100
AcDbPolyline
 62
250
  6
CONTINUOUS
 90
25
 70
0
 10
-24.6123570568
 20
-32.9786337968
 10
-24.6580982799
 20
-32.9770542024
 10
-24.7031195623
 20
-32.9726700318
 10
-24.7474209042
 20
-32.9654812849
 10
-24.7911139553
 20
-32.9554406507
 10
-24.8340870658
 20
-32.9425954401
 10
-24.8760052864
 20
-32.9270875868
 10
-24.916925977
 20
-32.9088798516
 10
-24.9567917777
 20
-32.8880094736
 10
-24.9950956598
 20
-32.8647301037
 10
-25.031826147
 20
-32.8389945998
 10
-25.0669947156
 20
-32.8108501041
 10
-25.100128765
 20
-32.7806916938
 10
-25.1311696857
 20
-32.7485294954
 10
-25.1601760872
 20
-32.7143533825
 10
-25.1868511978
 20
-32.6785280532
 10
-25.2111298656
 20
-32.6412857231
 10
-25.2330772425
 20
-32.6023941766
 10
-25.2525920127
 20
-32.5615214658
 10
-25.269867916
 20
-32.5183819947
 10
-25.2847112125
 20
-32.4732613592
 10
-25.2964393671
 20
-32.4266843991
 10
-25.3048248679
 20
-32.3788260608
 10
-25.3100952266
 20
-32.3295113978
 10
-25.3122504434
 20
-32.2787404102
  0
LWPOLYLINE
  5
36A
100
AcDbEntity
  8
RACCORDO
100
AcDbPolyline
 62
250
  6
CONTINUOUS
 90
19
 70
0
 10
-24.4500892866
 20
-32.3994269486
 10
-24.4769337584
 20
-32.3982019723
 10
-24.5033803853
 20
-32.3946047678
 10
-24.5292258446
 20
-32.3887113103
 10
-24.554274588
 20
-32.3806106387
 10
-24.578351529
 20
-32.3704135721
 10
-24.6013029137
 20
-32.3582508423
 10
-24.6229366791
 20
-32.3442881514
 10
-24.6431641288
 20
-32.3286414423
 10
-24.6619836478
 20
-32.3113488296
 10
-24.6792521364
 20
-32.2925544209
 10
-24.6948594227
 20
-32.272383976
 10
-24.7088020545
 20
-32.2507976974
 10
-24.7209692719
 20
-32.2278629121
 10
-24.7311797802
 20
-32.2037853066
 10
-24.7392965426
 20
-32.1787231156
 10
-24.7452051356
 20
-32.1528529404
 10
-24.748813943
 20
-32.1263681817
 10
-24.7500435952
 20
-32.09947264
  0
LWPOLYLINE
  5
36B
100
AcDbEntity
  8
0
100
AcDbPolyline
 62
7
  6
CONTINUOUS
 90
16
 70
0
 10
2.385276271
 20
-38.0467971601
 10
2.4115119691
 20
-38.0480226675
 10
2.4366845516
 20
-38.0511160422
 10
2.4607940187
 20
-38.0560772842
 10
2.4837964519
 20
-38.0629030941
 10
2.5057357696
 20
-38.0715967714
 10
2.5267437266
 20
-38.0821682136
 10
2.5467850602
 20
-38.0945485312
 10
2.5658950331
 20
-38.1088066138
 10
2.5843111881
 20
-38.1251590284
 10
2.6022728177
 20
-38.1437014368
 10
2.6195406295
 20
-38.1643381772
 10
2.6356342891
 20
-38.1869988316
 10
2.6503936851
 20
-38.2116599273
 10
2.6639789289
 20
-38.2383449369
 10
2.6763900206
 20
-38.2670538606
  0
LWPOLYLINE
  5
36C
100
AcDbEntity
  8
RACCORDO
100
AcDbPolyline
 62
250
  6
CONTINUOUS
 90
3
 70
0
 10
-23.8392115275
 20
-48.8630933099
 10
-23.8680821149
 20
-48.884958565
 10
-23.898540498
 20
-48.904725186
  0
LWPOLYLINE
  5
36D
100
AcDbEntity
  8
0
100
AcDbPolyline
 62
7
  6
CONTINUOUS
 90
58
 70
0
 10
2.9273139519
 20
-37.8434299309
 10
2.9380301232
 20
-37.8410701902
 10
2.9486559589
 20
-37.8375768555
 10
2.9591914591
 20
-37.8329499266
 10
2.9695865112
 20
-37.8270081631
 10
2.9798912277
 20
-37.8199328056
 10
2.9902559461
 20
-37.8122675757
 10
3.0006989059
 20
-37.8041045165
 10
3.0112018677
 20
-37.7953515849
 10
3.0218604501
 20
-37.7862763733
 10
3.0327236094
 20
-37.7769958622
 10
3.0437423894
 20
-37.767393071
 10
3.0548655405
 20
-37.7573846506
 10
3.0660942692
 20
-37.7469963772
 10
3.077427369
 20
-37.7362024746
 10
3.0888099717
 20
-37.7248422648
 10
3.100252266
 20
-37.7129305846
 10
3.1117440632
 20
-37.7004525971
 10
3.1231999287
 20
-37.6872031139
 10
3.1346287874
 20
-37.6731512385
 10
3.1460217145
 20
-37.6583278672
 10
3.1572665012
 20
-37.6426205007
 10
3.1683629257
 20
-37.6260260488
 10
3.1793112099
 20
-37.6085476017
 10
3.1899998099
 20
-37.5900819302
 10
3.2004518386
 20
-37.5706163674
 10
3.2106441831
 20
-37.5501635802
 10
3.220395961
 20
-37.5286583414
 10
3.2297266065
 20
-37.5060932237
 10
3.2386166854
 20
-37.4824756542
 10
3.2468270124
 20
-37.4577626877
 10
3.2543617425
 20
-37.431976946
 10
3.2612167207
 20
-37.4050958073
 10
3.2671402967
 20
-37.3770084603
 10
3.2721497169
 20
-37.3477122492
 10
3.276227735
 20
-37.3172098299
 10
3.2790709606
 20
-37.2853983593
 10
3.2807235456
 20
-37.2522467591
 10
3.2811413382
 20
-37.2177861076
 10
3.2798884927
 20
-37.1820067957
 10
3.277103277
 20
-37.1448175712
 10
3.2726474231
 20
-37.1063096864
 10
3.2656702819
 20
-37.066747289
 10
3.2560853022
 20
-37.0257939627
 10
3.2439790351
 20
-36.9837861238
 10
3.2287604848
 20
-36.9419971689
 10
3.2100810809
 20
-36.9003228338
 10
3.1882893938
 20
-36.8588673827
 10
3.1638401382
 20
-36.8192170043
 10
3.1364702461
 20
-36.7815563344
 10
3.1064427854
 20
-36.7457007373
 10
3.0750016747
 20
-36.712682495
 10
3.0420297431
 20
-36.6826745355
 10
3.0076441615
 20
-36.655503931
 10
2.9734403613
 20
-36.6316841796
 10
2.9399501532
 20
-36.6113864475
 10
2.9066417265
 20
-36.5944395686
 10
2.8735150812
 20
-36.5808435429
  0
LWPOLYLINE
  5
36E
100
AcDbEntity
  8
0
100
AcDbPolyline
 62
7
  6
CONTINUOUS
 90
10
 70
0
 10
2.0882015315
 20
-36.9511747237
 10
2.1351995988
 20
-36.9434213934
 10
2.1817073142
 20
-36.9372063226
 10
2.2277246777
 20
-36.9325295113
 10
2.2731239948
 20
-36.9294025294
 10
2.3180329599
 20
-36.927813807
 10
2.3628346569
 20
-36.927728634
 10
2.4076567802
 20
-36.9291354405
 10
2.4523716353
 20
-36.9320457963
 10
2.4969792223
 20
-36.9364597016
  0
LWPOLYLINE
  5
36F
100
AcDbEntity
  8
RACCORDO
100
AcDbPolyline
 62
250
  6
CONTINUOUS
 90
16
 70
0
 10
21.6869833325
 20
-32.1933363461
 10
21.6976416724
 20
-32.192725394
 10
21.707944606
 20
-32.191093275
 10
21.7178921334
 20
-32.1884399891
 10
21.7275747209
 20
-32.184716431
 10
21.736901902
 20
-32.1799717059
 10
21.745602278
 20
-32.1743531304
 10
21.7536634745
 20
-32.1678385398
 10
21.7610978659
 20
-32.1604500986
 10
21.7676711758
 20
-32.152401617
 10
21.7733642631
 20
-32.1436653252
 10
21.7781962691
 20
-32.1342689929
 10
21.7819903412
 20
-32.12450974
 10
21.7846875286
 20
-32.1144866062
 10
21.7863467822
 20
-32.1041005518
 10
21.786968102
 20
-32.0933515766
  0
LWPOLYLINE
  5
370
100
AcDbEntity
  8
RACCORDO
100
AcDbPolyline
 62
250
  6
CONTINUOUS
 90
19
 70
0
 10
-24.4550134114
 20
-32.4579501554
 10
-24.4906905142
 20
-32.4598565545
 10
-24.5251124412
 20
-32.4587919466
 10
-24.5582029107
 20
-32.4547294838
 10
-24.5899523518
 20
-32.4475193659
 10
-24.6201872852
 20
-32.4372699771
 10
-24.6485888025
 20
-32.4244012421
 10
-24.675015738
 20
-32.4090507686
 10
-24.6994351743
 20
-32.3911933382
 10
-24.7217162686
 20
-32.3710729767
 10
-24.7418158301
 20
-32.3488284332
 10
-24.7596286788
 20
-32.3244771751
 10
-24.7749534463
 20
-32.2981042864
 10
-24.7878309137
 20
-32.2697246431
 10
-24.7981025874
 20
-32.239493871
 10
-24.8053319936
 20
-32.2077310225
 10
-24.8094048935
 20
-32.1746097949
 10
-24.8104746518
 20
-32.1401395493
 10
-24.808566802
 20
-32.1043967648
  0
LWPOLYLINE
  5
371
100
AcDbEntity
  8
RACCORDO
100
AcDbPolyline
 62
250
  6
CONTINUOUS
 90
16
 70
0
 10
21.6869833325
 20
-32.3933058851
 10
21.7184135509
 20
-32.3916484724
 10
21.749429226
 20
-32.3867216491
 10
21.7796938995
 20
-32.3786009804
 10
21.8088573956
 20
-32.367407535
 10
21.8366387305
 20
-32.3532770925
 10
21.8628160299
 20
-32.3363320987
 10
21.8871097017
 20
-32.3167467682
 10
21.909247477
 20
-32.2947333242
 10
21.9290226517
 20
-32.2704774873
 10
21.9462134741
 20
-32.2442080305
 10
21.9605961224
 20
-32.2162170202
 10
21.9719884224
 20
-32.1868101288
 10
21.9802442556
 20
-32.1563076502
 10
21.9852528841
 20
-32.1250397839
 10
21.9869376411
 20
-32.0933515766
  0
LWPOLYLINE
  5
372
100
AcDbEntity
  8
0
100
AcDbPolyline
 62
7
  6
CONTINUOUS
 90
13
 70
0
 43
0.3500000006
 10
55.6573495331
 20
-4.5663039436
 10
55.4430650482
 20
-4.8520184784
 10
54.8002070618
 20
-4.8520184784
 10
54.371638092
 20
-4.5663039436
 10
54.371638092
 20
-3.9234470901
 10
54.8002070618
 20
-3.6377325554
 10
55.4430650482
 20
-3.6377325554
 10
55.6573495331
 20
-3.9234470901
 10
56.0859230347
 20
-3.4948758545
 10
56.943065506
 20
-3.4948758545
 10
57.3716344757
 20
-3.9234470901
 10
57.3716344757
 20
-4.5663039436
 10
56.943065506
 20
-4.9948763123
  0
LWPOLYLINE
  5
373
100
AcDbEntity
  8
0
100
AcDbPolyline
 62
7
  6
CONTINUOUS
 90
13
 70
0
 43
0.3500000006
 10
55.6573495331
 20
-6.9234468727
 10
55.4430650482
 20
-7.2091614075
 10
54.8002070618
 20
-7.2091614075
 10
54.371638092
 20
-6.9234468727
 10
54.371638092
 20
-6.2805900192
 10
54.8002070618
 20
-5.9948754845
 10
55.4430650482
 20
-5.9948754845
 10
55.6573495331
 20
-6.2805900192
 10
56.0859230347
 20
-5.8520187836
 10
56.943065506
 20
-5.8520187836
 10
57.3716344757
 20
-6.2805900192
 10
57.3716344757
 20
-6.9234468727
 10
56.943065506
 20
-7.3520181084
  0
LWPOLYLINE
  5
374
100
AcDbEntity
  8
RACCORDO
100
AcDbPolyline
 62
250
  6
CONTINUOUS
 90
10
 70
0
 10
-24.7500433012
 20
-32.099472346
 10
-24.7510683345
 20
-32.1000100472
 10
-24.7535409812
 20
-32.1005538474
 10
-24.7574431989
 20
-32.1011037464
 10
-24.7627464977
 20
-32.1016638101
 10
-24.7694122672
 20
-32.1022299726
 10
-24.7773921624
 20
-32.1027900372
 10
-24.7866282427
 20
-32.1033399383
 10
-24.797053289
 20
-32.1038837415
 10
-24.808591484
 20
-32.1044214468
  0
LWPOLYLINE
  5
375
100
AcDbEntity
  8
RACCORDO
100
AcDbPolyline
 62
250
  6
CONTINUOUS
 90
9
 70
0
 10
-24.7500433012
 20
22.1097207485
 10
-24.7510689158
 20
22.1101477449
 10
-24.7535425691
 20
22.1106078069
 10
-24.7574454879
 20
22.1111009346
 10
-24.7627478054
 20
22.1116302476
 10
-24.7694106062
 20
22.1121926264
 10
-24.7773878176
 20
22.1127787118
 10
-24.786623289
 20
22.1133853843
 10
-24.808591484
 20
22.1146698493
  0
LWPOLYLINE
  5
376
100
AcDbEntity
  8
RACCORDO
100
AcDbPolyline
 62
250
  6
CONTINUOUS
 90
15
 70
0
 10
43.4097165406
 20
38.1684049073
 10
43.4051534229
 20
38.1769895796
 10
43.3571372406
 20
38.2551597624
 10
43.3045781596
 20
38.329930581
 10
43.2477319741
 20
38.4010816651
 10
43.1872410208
 20
38.4680903322
 10
43.1234884643
 20
38.5307865173
 10
43.056783925
 20
38.5890958841
 10
42.987766558
 20
38.6427742605
 10
42.916899163
 20
38.6917529782
 10
42.8444519599
 20
38.7361090098
 10
42.7707969359
 20
38.7758991322
 10
42.6962723664
 20
38.8111900786
 10
42.6211811477
 20
38.8420554747
 10
42.5458193086
 20
38.868593791
  0
LWPOLYLINE
  5
377
100
AcDbEntity
  8
0
100
AcDbPolyline
 62
7
  6
CONTINUOUS
 90
4
 70
0
 43
0.3500000006
 10
56.943065506
 20
-7.3520181084
 10
56.0859230347
 20
-7.3520181084
 10
55.6573495331
 20
-6.9234468727
 10
55.6573495331
 20
-6.2805900192
  0
LWPOLYLINE
  5
378
100
AcDbEntity
  8
0
100
AcDbPolyline
 62
7
  6
CONTINUOUS
 90
4
 70
0
 43
0.3500000006
 10
56.943065506
 20
-4.9948763123
 10
56.0859230347
 20
-4.9948763123
 10
55.6573495331
 20
-4.5663039436
 10
55.6573495331
 20
-3.9234470901
  0
LWPOLYLINE
  5
379
100
AcDbEntity
  8
RACCORDO
100
AcDbPolyline
 62
250
  6
CONTINUOUS
 90
3
 70
0
 10
21.8123571284
 20
-48.8618079885
 10
21.7834101039
 20
-48.8839071572
 10
21.7527271409
 20
-48.903963917
  0
LWPOLYLINE
  5
37A
100
AcDbEntity
  8
RACCORDO
100
AcDbPolyline
 62
250
  6
CONTINUOUS
 90
6
 70
0
 10
-23.9649654692
 20
-48.9380461393
 10
-24.0006804441
 20
-48.9511854769
 10
-24.0377817414
 20
-48.961689739
 10
-24.0760718885
 20
-48.9693830419
 10
-24.1153486179
 20
-48.9741058675
 10
-24.1553802688
 20
-48.9757102326
  0
LWPOLYLINE
  5
37B
100
AcDbEntity
  8
RACCORDO
100
AcDbPolyline
 62
250
  6
CONTINUOUS
 90
5
 70
0
 10
42.5458144296
 20
38.8685954404
 10
42.5515015014
 20
38.8639119474
 10
42.5534716871
 20
38.8586450073
 10
42.5544131693
 20
38.8524407203
 10
42.554470258
 20
38.8521281262
  0
LWPOLYLINE
  5
37C
100
AcDbEntity
  8
RACCORDO
100
AcDbPolyline
 62
250
  6
CONTINUOUS
 90
5
 70
0
 10
-24.0134225505
 20
-48.7908751111
 10
-24.0255640593
 20
-48.7946616148
 10
-24.0677894191
 20
-48.80392313
 10
-24.1106581708
 20
-48.8095074366
 10
-24.1538498255
 20
-48.8113727861
  0
LINE
  5
37D
100
AcDbEntity
  8
RACCORDO
100
AcDbLine
 62
250
  6
CONTINUOUS
 10
21.786968102
 20
22.1035999791
 30
0.0
 11
21.9869376411
 21
22.1035999791
 31
0.0
  0
LINE
  5
37E
100
AcDbEntity
  8
RACCORDO
100
AcDbLine
 62
250
  6
CONTINUOUS
 10
-24.5439529927
 20
22.1035999791
 30
0.0
 11
-24.7439225318
 21
22.1035999791
 31
0.0
  0
LINE
  5
37F
100
AcDbEntity
  8
RACCORDO
100
AcDbLine
 62
250
  6
CONTINUOUS
 10
21.6869833325
 20
22.2035847486
 30
0.0
 11
-24.4439682232
 21
22.2035847486
 31
0.0
  0
LINE
  5
380
100
AcDbEntity
  8
RACCORDO
100
AcDbLine
 62
250
  6
CONTINUOUS
 10
-25.3122504434
 20
22.2889888127
 30
0.0
 11
-25.1122809044
 21
22.2889888127
 31
0.0
  0
LINE
  5
381
100
AcDbEntity
  8
RACCORDO
100
AcDbLine
 62
250
  6
CONTINUOUS
 10
22.5552655527
 20
22.2889888127
 30
0.0
 11
22.3552960137
 21
22.2889888127
 31
0.0
  0
LINE
  5
382
100
AcDbEntity
  8
RACCORDO
100
AcDbLine
 62
250
  6
CONTINUOUS
 10
21.6869833325
 20
22.4035542877
 30
0.0
 11
-24.4439682232
 21
22.4035542877
 31
0.0
  0
LINE
  5
383
100
AcDbEntity
  8
RACCORDO
100
AcDbLine
 62
250
  6
CONTINUOUS
 10
-24.4500889926
 20
22.4096750571
 30
0.0
 11
21.6931041019
 21
22.4096750571
 31
0.0
  0
LINE
  5
384
100
AcDbEntity
  8
RACCORDO
100
AcDbLine
 62
250
  6
CONTINUOUS
 10
-24.4547887403
 20
22.4682232399
 30
0.0
 11
21.6980532027
 21
22.4682232399
 31
0.0
  0
LINE
  5
385
100
AcDbEntity
  8
RACCORDO
100
AcDbLine
 62
7
  6
CONTINUOUS
 10
21.8465837071
 20
22.7801242013
 30
0.0
 11
-24.6035685978
 21
22.7801242013
 31
0.0
  0
LINE
  5
386
100
AcDbEntity
  8
RACCORDO
100
AcDbLine
 62
250
  6
CONTINUOUS
 10
-24.6123570568
 20
22.7889126603
 30
0.0
 11
21.8553721661
 21
22.7889126603
 31
0.0
  0
LINE
  5
387
100
AcDbEntity
  8
RACCORDO
100
AcDbLine
 62
250
  6
CONTINUOUS
 10
-24.6123570568
 20
22.9888821993
 30
0.0
 11
21.8553721661
 21
22.9888821993
 31
0.0
  0
LWPOLYLINE
  5
388
100
AcDbEntity
  8
RACCORDO
100
AcDbPolyline
 62
250
  6
CONTINUOUS
 90
25
 70
0
 10
21.855372165
 20
22.7889126592
 10
21.8878345451
 20
22.787862019
 10
21.9200403147
 20
22.7847219098
 10
21.9518569494
 20
22.7795286199
 10
21.9831112862
 20
22.7723384433
 10
22.0137258427
 20
22.7631973852
 10
22.0437107826
 20
22.752112391
 10
22.0729875666
 20
22.739103492
 10
22.1013868831
 20
22.7242366785
 10
22.1287802707
 20
22.7075762678
 10
22.1550639043
 20
22.6891824483
 10
22.1801184679
 20
22.6691356924
 10
22.2038057438
 20
22.6475506585
 10
22.2260103849
 20
22.6245474313
 10
22.2466735304
 20
22.600202948
 10
22.2657489954
 20
22.5745752863
 10
22.2830647477
 20
22.5479188834
 10
22.298658483
 20
22.5202010541
 10
22.3127022537
 20
22.4909946895
 10
22.3251037843
 20
22.4601731727
 10
22.3355990553
 20
22.4280150868
 10
22.3440139043
 20
22.3946745898
 10
22.3501949073
 20
22.360296383
 10
22.3540013034
 20
22.3250128094
 10
22.3552960122
 20
22.2889888112
  0
LWPOLYLINE
  5
389
100
AcDbEntity
  8
RACCORDO
100
AcDbPolyline
 62
250
  6
CONTINUOUS
 90
25
 70
0
 10
21.8553721661
 20
22.9888821993
 10
21.9011133892
 20
22.987302605
 10
21.9461346716
 20
22.9829184343
 10
21.9904360135
 20
22.9757296875
 10
22.0341290646
 20
22.9656890532
 10
22.0771021751
 20
22.9528438427
 10
22.1190203957
 20
22.9373359894
 10
22.1599410863
 20
22.9191282541
 10
22.199806887
 20
22.8982578761
 10
22.2381107691
 20
22.8749785063
 10
22.2748412563
 20
22.8492430024
 10
22.3100098249
 20
22.8210985066
 10
22.3431438743
 20
22.7909400963
 10
22.374184795
 20
22.7587778979
 10
22.4031911965
 20
22.724601785
 10
22.4298663071
 20
22.6887764558
 10
22.4541449749
 20
22.6515341256
 10
22.4760923518
 20
22.6126425791
 10
22.495607122
 20
22.5717698683
 10
22.5128830253
 20
22.5286303972
 10
22.5277263218
 20
22.4835097617
 10
22.5394544764
 20
22.4369328016
 10
22.5478399772
 20
22.3890744633
 10
22.5531103359
 20
22.3397598004
 10
22.5552655527
 20
22.2889888127
  0
LWPOLYLINE
  5
38A
100
AcDbEntity
  8
RACCORDO
100
AcDbPolyline
 62
250
  6
CONTINUOUS
 90
19
 70
0
 10
21.6931043959
 20
22.4096753511
 10
21.71994139
 20
22.4084510559
 10
21.7463920984
 20
22.4048537865
 10
21.7722526919
 20
22.3989564783
 10
21.7973373274
 20
22.3908412925
 10
21.8214579035
 20
22.3806185591
 10
21.8444288663
 20
22.3684341972
 10
21.8660446215
 20
22.3544707903
 10
21.886237469
 20
22.3388406896
 10
21.905026833
 20
22.3215691499
 10
21.922273515
 20
22.3027953805
 10
21.9378634488
 20
22.2826480073
 10
21.9517972167
 20
22.2610800692
 10
21.9639641277
 20
22.2381538537
 10
21.974178741
 20
22.214076976
 10
21.9823008465
 20
22.1890106555
 10
21.9882145433
 20
22.1631325362
 10
21.9918273912
 20
22.1366346837
 10
21.9930587045
 20
22.1097210426
  0
LWPOLYLINE
  5
38B
100
AcDbEntity
  8
RACCORDO
100
AcDbPolyline
 62
250
  6
CONTINUOUS
 90
6
 70
0
 10
21.6857486868
 20
-48.9377514349
 10
21.6497124756
 20
-48.9510574756
 10
21.6123604143
 20
-48.9616553294
 10
21.573933189
 20
-48.9693822556
 10
21.5346079099
 20
-48.9741093926
 10
21.4946197312
 20
-48.9757102326
  0
LWPOLYLINE
  5
38C
100
AcDbEntity
  8
RACCORDO
100
AcDbPolyline
 62
250
  6
CONTINUOUS
 90
16
 70
0
 10
-24.4439682232
 20
22.2035847486
 10
-24.4546265631
 20
22.2029737965
 10
-24.4649294967
 20
22.2013416775
 10
-24.4748770241
 20
22.1986883917
 10
-24.4845596116
 20
22.1949648335
 10
-24.4938867927
 20
22.1902201085
 10
-24.5025871687
 20
22.1846015329
 10
-24.5106483652
 20
22.1780869423
 10
-24.5180827566
 20
22.1706985011
 10
-24.5246560665
 20
22.1626500196
 10
-24.5303491538
 20
22.1539137277
 10
-24.5351811598
 20
22.1445173955
 10
-24.5389752319
 20
22.1347581425
 10
-24.5416724193
 20
22.1247350088
 10
-24.5433316729
 20
22.1143489543
 10
-24.5439529927
 20
22.1035999791
  0
LWPOLYLINE
  5
38D
100
AcDbEntity
  8
RACCORDO
100
AcDbPolyline
 62
250
  6
CONTINUOUS
 90
19
 70
0
 10
21.6980285207
 20
22.4681985579
 10
21.7336992151
 20
22.4701088201
 10
21.768126973
 20
22.469043664
 10
21.8012353234
 20
22.4649747682
 10
21.8330267739
 20
22.4577455021
 10
21.8633143808
 20
22.4474674382
 10
21.8917418721
 20
22.4345783971
 10
21.9181476575
 20
22.4192289688
 10
21.9425224754
 20
22.4013874854
 10
21.9647646892
 20
22.3812880632
 10
21.9848391575
 20
22.3590681556
 10
22.0026327753
 20
22.3347454686
 10
22.0179468814
 20
22.308394564
 10
22.0308228857
 20
22.280034771
 10
22.0411001388
 20
22.2498160037
 10
22.0483378992
 20
22.2180305969
 10
22.0524175949
 20
22.1848428741
 10
22.053490267
 20
22.1502708292
 10
22.0515781857
 20
22.1143912684
  0
LWPOLYLINE
  5
38E
100
AcDbEntity
  8
RACCORDO
100
AcDbPolyline
 62
250
  6
CONTINUOUS
 90
16
 70
0
 10
-24.4439682232
 20
22.4035542877
 10
-24.4753984416
 20
22.4018968749
 10
-24.5064141167
 20
22.3969700516
 10
-24.5366787902
 20
22.3888493829
 10
-24.5658422863
 20
22.3776559375
 10
-24.5936236212
 20
22.3635254951
 10
-24.6198009206
 20
22.3465805012
 10
-24.6440945924
 20
22.3269951707
 10
-24.6662323677
 20
22.3049817268
 10
-24.6860075424
 20
22.2807258898
 10
-24.7031983648
 20
22.2544564331
 10
-24.7175810131
 20
22.2264654228
 10
-24.7289733131
 20
22.1970585314
 10
-24.7372291463
 20
22.1665560527
 10
-24.7422377748
 20
22.1352881864
 10
-24.7439225318
 20
22.1035999791
  0
LWPOLYLINE
  5
38F
100
AcDbEntity
  8
RACCORDO
100
AcDbPolyline
 62
250
  6
CONTINUOUS
 90
28
 70
0
 10
-44.5041868346
 20
38.0295851718
 10
-44.557385765
 20
38.0278676687
 10
-44.6096505427
 20
38.023284043
 10
-44.6609811677
 20
38.0158342947
 10
-44.711380505
 20
38.0054858264
 10
-44.7608456896
 20
37.9922712355
 10
-44.8093681263
 20
37.976288314
 10
-44.8571188205
 20
37.9574939964
 10
-44.9039267668
 20
37.9359313482
 10
-44.9492703536
 20
37.9118273581
 10
-44.9931087203
 20
37.8851652129
 10
-45.0354827275
 20
37.8559617257
 10
-45.0759933462
 20
37.8244943242
 10
-45.1146317579
 20
37.7907313452
 10
-45.1514067809
 20
37.7547044518
 10
-45.1859458414
 20
37.7167860613
 10
-45.2181643499
 20
37.6771047522
 10
-45.2481468957
 20
37.6355319459
 10
-45.2757746729
 20
37.5920543247
 10
-45.3011514902
 20
37.5465486346
 10
-45.3241735389
 20
37.4991381294
 10
-45.344410586
 20
37.4501792533
 10
-45.3618501076
 20
37.3995613581
 10
-45.3765046276
 20
37.347395092
 10
-45.3879814845
 20
37.2943688433
 10
-45.3961497913
 20
37.2407120749
 10
-45.4011404351
 20
37.186195324
 10
-45.4029534159
 20
37.1308185905
  0
LWPOLYLINE
  5
390
100
AcDbEntity
  8
RACCORDO
100
AcDbPolyline
 62
250
  6
CONTINUOUS
 90
28
 70
0
 10
-44.5041868346
 20
38.6287628926
 10
-44.5923098514
 20
38.6260764927
 10
-44.6794259677
 20
38.6183008914
 10
-44.7652502487
 20
38.6055843054
 10
-44.8492555377
 20
38.5881508392
 10
-44.9314549866
 20
38.566143248
 10
-45.0123636201
 20
38.5394760906
 10
-45.091995598
 20
38.5081003555
 10
-45.169794138
 20
38.4721898612
 10
-45.2453966263
 20
38.4319037973
 10
-45.3185187126
 20
38.3874019009
 10
-45.3889661866
 20
38.3388112199
 10
-45.4565298803
 20
38.2862770064
 10
-45.5210063311
 20
38.2299537016
 10
-45.5821662737
 20
38.1700379973
 10
-45.6397799521
 20
38.1067591481
 10
-45.6935022424
 20
38.0405404111
 10
-45.7433504989
 20
37.9714071397
 10
-45.7895582351
 20
37.8989364834
 10
-45.8319793395
 20
37.8230911096
 10
-45.8702302016
 20
37.7442601089
 10
-45.9040847812
 20
37.6626113938
 10
-45.9333377685
 20
37.5782569975
 10
-45.9577052327
 20
37.4915651796
 10
-45.976907381
 20
37.4031317923
 10
-45.9907830323
 20
37.3133693837
 10
-45.9992281454
 20
37.222488812
 10
-46.0021311367
 20
37.1308185905
  0
LWPOLYLINE
  5
391
100
AcDbEntity
  8
0
100
AcDbPolyline
 62
7
  6
CONTINUOUS
 90
28
 70
0
 10
-44.979920113
 20
39.1051242013
 10
-45.0670101461
 20
39.1025968996
 10
-45.1539410311
 20
39.0950037761
 10
-45.2404173314
 20
39.0823457399
 10
-45.3262761051
 20
39.0646098483
 10
-45.411083462
 20
39.0418476457
 10
-45.4941562835
 20
39.0142523252
 10
-45.575016461
 20
38.9820525986
 10
-45.6536286252
 20
38.9453340663
 10
-45.7299883391
 20
38.9041223686
 10
-45.8038472907
 20
38.8585486026
 10
-45.8749489179
 20
38.8087679159
 10
-45.9432437485
 20
38.7547853698
 10
-46.0086562837
 20
38.6965749435
 10
-46.0707322769
 20
38.6344512473
 10
-46.1289023652
 20
38.5689821505
 10
-46.1828697397
 20
38.5005940901
 10
-46.2326355235
 20
38.4293853514
 10
-46.2781428722
 20
38.3554899283
 10
-46.319220646
 20
38.2792287275
 10
-46.3557861069
 20
38.2008025947
 10
-46.3878591829
 20
38.1201337232
 10
-46.415359684
 20
38.0372357307
 10
-46.4380504246
 20
37.9526028976
 10
-46.4557428983
 20
37.8668849916
 10
-46.4683801941
 20
37.7805025311
 10
-46.4759659955
 20
37.6936267352
 10
-46.4784924454
 20
37.6065518689
  0
LWPOLYLINE
  5
392
100
AcDbEntity
  8
0
100
AcDbPolyline
 62
7
  6
CONTINUOUS
 90
28
 70
0
 10
-44.8090020013
 20
38.9335780593
 10
-44.88023941
 20
38.9319516937
 10
-44.9543432293
 20
38.9268999749
 10
-45.0311041338
 20
38.9180201576
 10
-45.1107728431
 20
38.9048064168
 10
-45.192534663
 20
38.8869022554
 10
-45.2745705289
 20
38.8643794528
 10
-45.3563911395
 20
38.8371938825
 10
-45.4378438601
 20
38.8051639015
 10
-45.5177048848
 20
38.7685770275
 10
-45.5952608752
 20
38.7277555087
 10
-45.6706770497
 20
38.682587827
 10
-45.7440599635
 20
38.6328054914
 10
-45.8153154439
 20
38.5782626868
 10
-45.8838275312
 20
38.5192039607
 10
-45.9489101921
 20
38.455956096
 10
-46.0102258514
 20
38.3887439543
 10
-46.0675324461
 20
38.3177228158
 10
-46.1203767225
 20
38.2432217293
 10
-46.1686089643
 20
38.1653373689
 10
-46.2118993532
 20
38.0844992387
 10
-46.2497029376
 20
38.0016448335
 10
-46.281932512
 20
37.9171850043
 10
-46.3085921595
 20
37.8314199741
 10
-46.329532644
 20
37.7452063378
 10
-46.3448283003
 20
37.6590734629
 10
-46.35466637
 20
37.5731927189
 10
-46.3591958921
 20
37.4878833459
  0
LINE
  5
393
100
AcDbEntity
  8
RACCORDO
100
AcDbLine
 62
250
  6
CONTINUOUS
 10
-44.8797854106
 20
38.9465527794
 30
0.0
 11
-44.822455049
 21
38.9476591373
 31
0.0
  0
LINE
  5
394
100
AcDbEntity
  8
RACCORDO
100
AcDbLine
 62
250
  6
CONTINUOUS
 10
42.6459685252
 20
37.1308185905
 30
0.0
 11
43.245146246
 21
37.1308185905
 31
0.0
  0
LINE
  5
395
100
AcDbEntity
  8
RACCORDO
100
AcDbLine
 62
250
  6
CONTINUOUS
 10
-45.4029534159
 20
37.1308185905
 30
0.0
 11
-46.0021311367
 21
37.1308185905
 31
0.0
  0
LINE
  5
396
100
AcDbEntity
  8
RACCORDO
100
AcDbLine
 62
250
  6
CONTINUOUS
 10
41.7472019439
 20
38.0295851718
 30
0.0
 11
-44.5041868346
 21
38.0295851718
 31
0.0
  0
LINE
  5
397
100
AcDbEntity
  8
RACCORDO
100
AcDbLine
 62
250
  6
CONTINUOUS
 10
41.7472019439
 20
38.6287628926
 30
0.0
 11
-44.5041868346
 21
38.6287628926
 31
0.0
  0
LINE
  5
398
100
AcDbEntity
  8
0
100
AcDbLine
 62
7
  6
CONTINUOUS
 10
42.0520171106
 20
38.9335780593
 30
0.0
 11
-44.8090020013
 21
38.9335780593
 31
0.0
  0
LINE
  5
399
100
AcDbEntity
  8
RACCORDO
100
AcDbLine
 62
250
  6
CONTINUOUS
 10
-44.822455049
 20
38.9476591373
 30
0.0
 11
42.0654701583
 21
38.9476591373
 31
0.0
  0
LINE
  5
39A
100
AcDbEntity
  8
0
100
AcDbLine
 62
7
  6
CONTINUOUS
 10
42.2229352223
 20
39.1051242013
 30
0.0
 11
-44.979920113
 21
39.1051242013
 31
0.0
  0
LINE
  5
39B
100
AcDbEntity
  8
RACCORDO
100
AcDbLine
 62
250
  6
CONTINUOUS
 10
42.0654701583
 20
38.9476591373
 30
0.0
 11
42.1153829318
 21
38.9468200107
 31
0.0
  0
LWPOLYLINE
  5
39C
100
AcDbEntity
  8
RACCORDO
100
AcDbPolyline
 62
250
  6
CONTINUOUS
 90
9
 70
0
 10
42.1153829318
 20
38.9468200107
 10
42.1660382993
 20
38.9442674582
 10
42.217374424
 20
38.9399233678
 10
42.2689253511
 20
38.9337658914
 10
42.3210210365
 20
38.9256923542
 10
42.374765528
 20
38.9153795252
 10
42.4304362485
 20
38.9025273563
 10
42.4875044858
 20
38.8870003176
 10
42.5458193086
 20
38.868593791
  0
LWPOLYLINE
  5
39D
100
AcDbEntity
  8
0
100
AcDbPolyline
 62
7
  6
CONTINUOUS
 90
7
 70
0
 43
0.3500000006
 10
2.1572218924
 20
52.750002182
 10
0.6572218595
 20
52.750002182
 10
2.1572218924
 20
54.8928560944
 10
2.1572218924
 20
55.3214295959
 10
1.7286503735
 20
55.7499985657
 10
1.0857932367
 20
55.7499985657
 10
0.6572218595
 20
55.1071451111
  0
LINE
  5
39E
100
AcDbEntity
  8
RACCORDO
100
AcDbLine
 62
7
  6
CONTINUOUS
 10
-87.1385154259
 20
-48.3285724203
 30
0.0
 11
-88.4920059071
 21
-48.3521976845
 31
0.0
  0
LINE
  5
39F
100
AcDbEntity
  8
0
100
AcDbLine
 62
250
  6
CONTINUOUS
 10
-88.9420059071
 20
-47.5963034664
 30
0.0
 11
-88.4920059071
 21
-47.593446771
 31
0.0
  0
LINE
  5
3A0
100
AcDbEntity
  8
RACCORDO
100
AcDbLine
 62
250
  6
CONTINUOUS
 10
-86.9420059071
 20
-47.593446771
 30
0.0
 11
-88.4920059071
 21
-47.593446771
 31
0.0
  0
LINE
  5
3A1
100
AcDbEntity
  8
RACCORDO
100
AcDbLine
 62
250
  6
CONTINUOUS
 10
-91.5920059071
 20
-47.4868654395
 30
0.0
 11
-91.4485488152
 21
-47.4868654395
 31
0.0
  0
LINE
  5
3A2
100
AcDbEntity
  8
RACCORDO
100
AcDbLine
 62
250
  6
CONTINUOUS
 10
-99.4420059071
 20
-47.120570188
 30
0.0
 11
-98.8734074809
 21
-47.120570188
 31
0.0
  0
LINE
  5
3A3
100
AcDbEntity
  8
0
100
AcDbLine
 62
7
  6
CONTINUOUS
 10
-86.9420059071
 20
-46.7948757987
 30
0.0
 11
-84.9420059071
 21
-46.7948757987
 31
0.0
  0
LINE
  5
3A4
100
AcDbEntity
  8
RACCORDO
100
AcDbLine
 62
7
  6
CONTINUOUS
 10
-91.4485488152
 20
-48.9854377719
 30
0.0
 11
-88.9420059071
 21
-49.0948757987
 31
0.0
  0
LINE
  5
3A5
100
AcDbEntity
  8
RACCORDO
100
AcDbLine
 62
250
  6
CONTINUOUS
 10
-91.4485488152
 20
-47.4868654395
 30
0.0
 11
-88.9420059071
 21
-47.5963034664
 31
0.0
  0
LINE
  5
3A6
100
AcDbEntity
  8
RACCORDO
100
AcDbLine
 62
7
  6
CONTINUOUS
 10
-98.8734074809
 20
-48.6185144901
 30
0.0
 11
-91.6920059071
 21
-48.9948757987
 31
0.0
  0
LINE
  5
3A7
100
AcDbEntity
  8
RACCORDO
100
AcDbLine
 62
250
  6
CONTINUOUS
 10
-98.8734074809
 20
-47.120570188
 30
0.0
 11
-91.6920059071
 21
-47.4969314966
 31
0.0
  0
LWPOLYLINE
  5
3A8
100
AcDbEntity
  8
0
100
AcDbPolyline
 62
7
  6
CONTINUOUS
 90
3
 70
0
 43
0.3500000006
 10
-90.2848639526
 20
63.5292359619
 10
-89.4277169495
 20
64.3863829651
 10
-89.4277169495
 20
61.3863820496
  0
LWPOLYLINE
  5
3A9
100
AcDbEntity
  8
0
100
AcDbPolyline
 62
7
  6
CONTINUOUS
 90
3
 70
0
 43
0.3500000006
 10
-97.156288147
 20
54.8466311188
 10
-96.2991502075
 20
55.7037735901
 10
-96.2991502075
 20
52.7037772064
  0
LINE
  5
3AA
100
AcDbEntity
  8
RACCORDO
100
AcDbLine
 62
250
  6
CONTINUOUS
 10
-91.5920059071
 20
-45.73333031
 30
0.0
 11
-91.6920059071
 21
-45.73333031
 31
0.0
  0
LWPOLYLINE
  5
3AB
100
AcDbEntity
  8
0
100
AcDbPolyline
 62
7
  6
CONTINUOUS
 90
3
 70
0
 43
0.3500000006
 10
-86.8562940674
 20
63.5292359619
 10
-85.9991470642
 20
64.3863829651
 10
-85.9991470642
 20
61.3863820496
  0
LINE
  5
3AC
100
AcDbEntity
  8
0
100
AcDbLine
 62
250
  6
CONTINUOUS
 10
-86.9420059071
 20
-40.3948757987
 30
0.0
 11
-84.9420059071
 21
-40.3948757987
 31
0.0
  0
LINE
  5
3AD
100
AcDbEntity
  8
0
100
AcDbLine
 62
250
  6
CONTINUOUS
 10
-84.9420059071
 20
-39.4135771858
 30
0.0
 11
-86.9420059071
 21
-39.4135771858
 31
0.0
  0
LINE
  5
3AE
100
AcDbEntity
  8
RACCORDO
100
AcDbLine
 62
250
  6
CONTINUOUS
 10
-91.8915910005
 20
37.4425753528
 30
0.0
 11
-91.8642288419
 21
37.4541749318
 31
0.0
  0
LINE
  5
3AF
100
AcDbEntity
  8
RACCORDO
100
AcDbLine
 62
250
  6
CONTINUOUS
 10
-91.8642288419
 20
37.4541749318
 30
0.0
 11
-91.8321151977
 21
37.4675672599
 31
0.0
  0
LINE
  5
3B0
100
AcDbEntity
  8
RACCORDO
100
AcDbLine
 62
250
  6
CONTINUOUS
 10
-91.8321151977
 20
37.4675672599
 30
0.0
 11
-91.7973279824
 21
37.4818857903
 31
0.0
  0
LWPOLYLINE
  5
3B1
100
AcDbEntity
  8
RACCORDO
100
AcDbPolyline
 62
250
  6
CONTINUOUS
 90
10
 70
0
 10
-98.8734074809
 20
-48.6185144901
 10
-98.8751866778
 20
-48.6158280902
 10
-98.8768456973
 20
-48.6080524888
 10
-98.8783773743
 20
-48.5953359028
 10
-98.8797674693
 20
-48.5779024367
 10
-98.8810225102
 20
-48.5558948455
 10
-98.8821600822
 20
-48.5292276881
 10
-98.88317152
 20
-48.497851953
 10
-98.8840435921
 20
-48.4619414586
 10
-98.8847812263
 20
-48.4216553948
  0
LWPOLYLINE
  5
3B2
100
AcDbEntity
  8
RACCORDO
100
AcDbPolyline
 62
250
  6
CONTINUOUS
 90
7
 70
0
 10
-91.9296600546
 20
37.4251782943
 10
-91.9286499508
 20
37.425930845
 10
-91.9254006432
 20
37.4275922106
 10
-91.9199649378
 20
37.4301353971
 10
-91.9124311527
 20
37.4335190894
 10
-91.9029216807
 20
37.4376883181
 10
-91.8915910005
 20
37.4425753528
  0
LINE
  5
3B3
100
AcDbEntity
  8
RACCORDO
100
AcDbLine
 62
250
  6
CONTINUOUS
 10
-84.9420059071
 20
-30.4201262989
 30
0.0
 11
-78.5402606
 21
-30.3061490593
 31
0.0
  0
LINE
  5
3B4
100
AcDbEntity
  8
RACCORDO
100
AcDbLine
 62
7
  6
CONTINUOUS
 10
-84.9420059071
 20
-30.5599656689
 30
0.0
 11
-78.5385154259
 21
-30.4481923268
 31
0.0
  0
LWPOLYLINE
  5
3B5
100
AcDbEntity
  8
RACCORDO
100
AcDbPolyline
 62
250
  6
CONTINUOUS
 90
8
 70
0
 10
-92.644261939
 20
38.8199903338
 10
-92.6561676505
 20
38.806417564
 10
-92.665987478
 20
38.7913977377
 10
-92.6741626505
 20
38.7754511114
 10
-92.6805550237
 20
38.7589279701
 10
-92.6847505338
 20
38.7418635107
 10
-92.6869336539
 20
38.7245971088
 10
-92.6870553355
 20
38.7073892379
  0
LINE
  5
3B6
100
AcDbEntity
  8
RACCORDO
100
AcDbLine
 62
7
  6
CONTINUOUS
 10
-91.6920059071
 20
-46.5904731671
 30
0.0
 11
-91.646236331
 21
-46.6558582759
 31
0.0
  0
LINE
  5
3B7
100
AcDbEntity
  8
RACCORDO
100
AcDbLine
 62
250
  6
CONTINUOUS
 10
-78.3420059071
 20
-21.476090909
 30
0.0
 11
-78.5385154259
 21
-21.476090909
 31
0.0
  0
LINE
  5
3B8
100
AcDbEntity
  8
RACCORDO
100
AcDbLine
 62
250
  6
CONTINUOUS
 10
-78.5385154259
 20
-21.476090909
 30
0.0
 11
-84.9420059071
 21
-21.4146288802
 31
0.0
  0
LINE
  5
3B9
100
AcDbEntity
  8
RACCORDO
100
AcDbLine
 62
250
  6
CONTINUOUS
 10
-78.5402606
 20
-22.0543901644
 30
0.0
 11
-84.9420059071
 21
-21.9896635458
 31
0.0
  0
LWPOLYLINE
  5
3BA
100
AcDbEntity
  8
0
100
AcDbPolyline
 62
7
  6
CONTINUOUS
 90
3
 70
0
 43
0.3500000006
 10
-92.3705801697
 20
52.9894883423
 10
-92.4420022888
 20
52.7752038574
 10
-92.5848646545
 20
52.4894881897
  0
LWPOLYLINE
  5
3BB
100
AcDbEntity
  8
0
100
AcDbPolyline
 62
7
  6
CONTINUOUS
 90
3
 70
0
 43
0.3500000006
 10
-87.8562943726
 20
61.6720977173
 10
-87.9277164917
 20
61.4578041687
 10
-88.0705788574
 20
61.1720975647
  0
LINE
  5
3BC
100
AcDbEntity
  8
RACCORDO
100
AcDbLine
 62
7
  6
CONTINUOUS
 10
-91.6920059071
 20
34.1813362245
 30
0.0
 11
-91.6122392794
 21
34.3873785287
 31
0.0
  0
LINE
  5
3BD
100
AcDbEntity
  8
RACCORDO
100
AcDbLine
 62
250
  6
CONTINUOUS
 10
-91.646236331
 20
34.1034373575
 30
0.0
 11
-91.6920059071
 21
33.9852116132
 31
0.0
  0
LWPOLYLINE
  5
3BE
100
AcDbEntity
  8
RACCORDO
100
AcDbPolyline
 62
250
  6
CONTINUOUS
 90
17
 70
0
 10
-91.6122392794
 20
34.3873785287
 10
-91.61104033
 20
34.3901820013
 10
-91.6100255253
 20
34.3919363982
 10
-91.6092008967
 20
34.3926465876
 10
-91.6085767566
 20
34.3923200944
 10
-91.6081573845
 20
34.3909594233
 10
-91.6079297403
 20
34.3885583775
 10
-91.6078677254
 20
34.3851671582
 10
-91.6079891076
 20
34.3807378164
 10
-91.60833008
 20
34.3751119188
 10
-91.6088893692
 20
34.3682103307
 10
-91.6096437958
 20
34.3601111331
 10
-91.6106014605
 20
34.3508930539
 10
-91.6117892241
 20
34.34050297
 10
-91.6131834191
 20
34.3290007407
 10
-91.6147367108
 20
34.31663918
 10
-91.6164527732
 20
34.3035115904
  0
LINE
  5
3BF
100
AcDbEntity
  8
RACCORDO
100
AcDbLine
 62
250
  6
CONTINUOUS
 10
-98.8847812263
 20
-48.4216553948
 30
0.0
 11
-98.8858362418
 21
-48.3285628173
 31
0.0
  0
LINE
  5
3C0
100
AcDbEntity
  8
RACCORDO
100
AcDbLine
 62
250
  6
CONTINUOUS
 10
-98.8858362418
 20
-48.3285628173
 30
0.0
 11
-98.8863217815
 21
-48.219705299
 31
0.0
  0
LINE
  5
3C1
100
AcDbEntity
  8
RACCORDO
100
AcDbLine
 62
250
  6
CONTINUOUS
 10
-98.8858362418
 20
38.0155979425
 30
0.0
 11
-98.8863477815
 21
38.2087980296
 31
0.0
  0
LINE
  5
3C2
100
AcDbEntity
  8
RACCORDO
100
AcDbLine
 62
7
  6
CONTINUOUS
 10
-99.4420059071
 20
-48.0193367693
 30
0.0
 11
-99.4420059071
 21
38.0295851718
 31
0.0
  0
LINE
  5
3C3
100
AcDbEntity
  8
RACCORDO
100
AcDbLine
 62
250
  6
CONTINUOUS
 10
-98.8734074809
 20
-47.120570188
 30
0.0
 11
-98.8734074809
 21
37.1308185905
 31
0.0
  0
LWPOLYLINE
  5
3C4
100
AcDbEntity
  8
RACCORDO
100
AcDbPolyline
 62
250
  6
CONTINUOUS
 90
3
 70
0
 10
-98.8863217815
 20
-48.219705299
 10
-98.886227978
 20
-48.0965107455
 10
-98.8859641459
 20
-48.0302920086
  0
LINE
  5
3C5
100
AcDbEntity
  8
RACCORDO
100
AcDbLine
 62
250
  6
CONTINUOUS
 10
-98.8863477815
 20
38.2087980296
 30
0.0
 11
-98.8859641459
 21
38.3201339983
 31
0.0
  0
LWPOLYLINE
  5
3C6
100
AcDbEntity
  8
RACCORDO
100
AcDbPolyline
 62
250
  6
CONTINUOUS
 90
11
 70
0
 10
-98.8859641459
 20
38.3201339983
 10
-98.8850151145
 20
38.416189991
 10
-98.8843184269
 20
38.4586110954
 10
-98.8834699865
 20
38.4968619575
 10
-98.8824704699
 20
38.5307165371
 10
-98.8813213119
 20
38.5599695244
 10
-98.8800206089
 20
38.5843369886
 10
-98.8785696784
 20
38.6035391369
 10
-98.8769766121
 20
38.6174147882
 10
-98.87525209
 20
38.6258599013
 10
-98.8734074809
 20
38.6287628926
  0
LWPOLYLINE
  5
3C7
100
AcDbEntity
  8
RACCORDO
100
AcDbPolyline
 62
250
  6
CONTINUOUS
 90
7
 70
0
 10
-92.5485488152
 20
38.9476591373
 10
-92.5487528281
 20
38.9468200107
 10
-92.5489639339
 20
38.9442674582
 10
-92.5491760225
 20
38.9399233678
 10
-92.5493718103
 20
38.9337658914
 10
-92.5495572062
 20
38.9256923542
 10
-92.5499579638
 20
38.9025273563
  0
LWPOLYLINE
  5
3C8
100
AcDbEntity
  8
RACCORDO
100
AcDbPolyline
 62
250
  6
CONTINUOUS
 90
5
 70
0
 10
-91.4485488152
 20
-48.9854377719
 10
-91.4488261136
 20
-48.9836334483
 10
-91.4491351001
 20
-48.9780531251
 10
-91.4494542524
 20
-48.9684148321
 10
-91.4497367441
 20
-48.9544686417
  0
LINE
  5
3C9
100
AcDbEntity
  8
RACCORDO
100
AcDbLine
 62
250
  6
CONTINUOUS
 10
-98.8734074809
 20
37.1308185905
 30
0.0
 11
-98.8797674693
 21
37.4758872936
 31
0.0
  0
LINE
  5
3CA
100
AcDbEntity
  8
RACCORDO
100
AcDbLine
 62
250
  6
CONTINUOUS
 10
-98.8797674693
 20
37.4758872936
 30
0.0
 11
-98.8840435921
 21
37.7964258939
 31
0.0
  0
LINE
  5
3CB
100
AcDbEntity
  8
RACCORDO
100
AcDbLine
 62
250
  6
CONTINUOUS
 10
-98.8840435921
 20
37.7964258939
 30
0.0
 11
-98.8858362418
 21
38.0155979425
 31
0.0
  0
LINE
  5
3CC
100
AcDbEntity
  8
RACCORDO
100
AcDbLine
 62
250
  6
CONTINUOUS
 10
-98.8859641459
 20
-48.0302920086
 30
0.0
 11
-98.8843184269
 21
-47.812842707
 31
0.0
  0
LINE
  5
3CD
100
AcDbEntity
  8
RACCORDO
100
AcDbLine
 62
250
  6
CONTINUOUS
 10
-98.8843184269
 20
-47.812842707
 30
0.0
 11
-98.8800206089
 21
-47.4813167771
 31
0.0
  0
LINE
  5
3CE
100
AcDbEntity
  8
RACCORDO
100
AcDbLine
 62
250
  6
CONTINUOUS
 10
-98.8800206089
 20
-47.4813167771
 30
0.0
 11
-98.8734074809
 21
-47.120570188
 31
0.0
  0
LINE
  5
3CF
100
AcDbEntity
  8
RACCORDO
100
AcDbLine
 62
250
  6
CONTINUOUS
 10
-91.6164527732
 20
34.3035115904
 30
0.0
 11
-91.6204127011
 21
34.2746963287
 31
0.0
  0
LINE
  5
3D0
100
AcDbEntity
  8
RACCORDO
100
AcDbLine
 62
250
  6
CONTINUOUS
 10
-91.6204127011
 20
34.2746963287
 30
0.0
 11
-91.6250281509
 21
34.2424523348
 31
0.0
  0
LINE
  5
3D1
100
AcDbEntity
  8
RACCORDO
100
AcDbLine
 62
250
  6
CONTINUOUS
 10
-91.6250281509
 20
34.2424523348
 30
0.0
 11
-91.6332185443
 21
34.1874806476
 31
0.0
  0
LINE
  5
3D2
100
AcDbEntity
  8
RACCORDO
100
AcDbLine
 62
250
  6
CONTINUOUS
 10
-91.6332185443
 20
34.1874806476
 30
0.0
 11
-91.6427578403
 21
34.1255326257
 31
0.0
  0
LINE
  5
3D3
100
AcDbEntity
  8
RACCORDO
100
AcDbLine
 62
250
  6
CONTINUOUS
 10
-91.6427578403
 20
34.1255326257
 30
0.0
 11
-91.646236331
 21
34.1034373575
 31
0.0
  0
LINE
  5
3D4
100
AcDbEntity
  8
RACCORDO
100
AcDbLine
 62
250
  6
CONTINUOUS
 10
-84.9420059071
 20
-7.2763284345
 30
0.0
 11
-78.5385154259
 21
-7.2573208549
 31
0.0
  0
LINE
  5
3D5
100
AcDbEntity
  8
RACCORDO
100
AcDbLine
 62
250
  6
CONTINUOUS
 10
-78.3420059071
 20
-7.7174588135
 30
0.0
 11
-84.9420059071
 21
-7.7338311539
 31
0.0
  0
LINE
  5
3D6
100
AcDbEntity
  8
RACCORDO
100
AcDbLine
 62
250
  6
CONTINUOUS
 10
-91.4497367441
 20
-48.9544686417
 30
0.0
 11
-91.4502416312
 21
-48.9124296557
 31
0.0
  0
LINE
  5
3D7
100
AcDbEntity
  8
RACCORDO
100
AcDbLine
 62
7
  6
CONTINUOUS
 10
-92.6920059071
 20
38.797801904
 30
0.0
 11
-92.6920059071
 21
38.7267131872
 31
0.0
  0
LINE
  5
3D8
100
AcDbEntity
  8
RACCORDO
100
AcDbLine
 62
250
  6
CONTINUOUS
 10
-92.5499579638
 20
38.9025273563
 30
0.0
 11
-92.5502948518
 21
38.868593791
 31
0.0
  0
LWPOLYLINE
  5
3D9
100
AcDbEntity
  8
RACCORDO
100
AcDbPolyline
 62
250
  6
CONTINUOUS
 90
13
 70
0
 10
-92.6920059071
 20
38.7267131872
 10
-92.6908281576
 20
38.7448075693
 10
-92.6872805002
 20
38.7623808766
 10
-92.6813679882
 20
38.7792749532
 10
-92.6732592028
 20
38.7956672659
 10
-92.6631270438
 20
38.810978071
 10
-92.650963103
 20
38.8243801914
 10
-92.6357452695
 20
38.8370123695
 10
-92.6193408596
 20
38.8481062472
 10
-92.6051038488
 20
38.8556312243
 10
-92.5915276749
 20
38.860473246
 10
-92.5742613921
 20
38.8646565019
 10
-92.5502948533
 20
38.8685954404
  0
LINE
  5
3DA
100
AcDbEntity
  8
RACCORDO
100
AcDbLine
 62
250
  6
CONTINUOUS
 10
-78.5385154259
 20
-2.7324307425
 30
0.0
 11
-84.9420059071
 21
-2.7134233541
 31
0.0
  0
LWPOLYLINE
  5
3DB
100
AcDbEntity
  8
RACCORDO
100
AcDbPolyline
 62
250
  6
CONTINUOUS
 90
10
 70
0
 10
-91.4485488152
 20
35.7051242013
 10
-91.4523921531
 20
35.9005342912
 10
-91.4646481011
 20
36.0961148693
 10
-91.4853166595
 20
36.2918659356
 10
-91.5139779884
 20
36.4873455195
 10
-91.5510519275
 20
36.6829955915
 10
-91.5977979962
 20
36.8801420636
 10
-91.654636034
 20
37.0792269064
 10
-91.7211462013
 20
37.2798081493
 10
-91.7973284981
 20
37.4818857923
  0
LINE
  5
3DC
100
AcDbEntity
  8
RACCORDO
100
AcDbLine
 62
250
  6
CONTINUOUS
 10
-91.4502416312
 20
-48.9124296557
 30
0.0
 11
-91.4508511017
 21
-48.808993437
 31
0.0
  0
LINE
  5
3DD
100
AcDbEntity
  8
0
100
AcDbLine
 62
7
  6
CONTINUOUS
 10
-91.6920059071
 20
-48.9948757987
 30
0.0
 11
-91.6920059071
 21
35.7051242013
 31
0.0
  0
LINE
  5
3DE
100
AcDbEntity
  8
RACCORDO
100
AcDbLine
 62
250
  6
CONTINUOUS
 10
-91.646236331
 20
-46.6558582759
 30
0.0
 11
-91.646236331
 21
34.1034373575
 31
0.0
  0
LINE
  5
3DF
100
AcDbEntity
  8
RACCORDO
100
AcDbLine
 62
7
  6
CONTINUOUS
 10
-91.5920059071
 20
-48.8355805387
 30
0.0
 11
-91.5920059071
 21
35.7051242013
 31
0.0
  0
LINE
  5
3E0
100
AcDbEntity
  8
0
100
AcDbLine
 62
7
  6
CONTINUOUS
 10
-88.9420059071
 20
-49.0948757987
 30
0.0
 11
-88.9420059071
 21
39.1051242013
 31
0.0
  0
LINE
  5
3E1
100
AcDbEntity
  8
RACCORDO
100
AcDbLine
 62
250
  6
CONTINUOUS
 10
-91.4508511017
 20
-48.808993437
 30
0.0
 11
-91.4512249871
 21
-48.4654111771
 31
0.0
  0
LWPOLYLINE
  5
3E2
100
AcDbEntity
  8
RACCORDO
100
AcDbPolyline
 62
250
  6
CONTINUOUS
 90
3
 70
0
 10
-91.4512249871
 20
-48.4654111771
 10
-91.4489696376
 20
-47.5840061935
 10
-91.4485488152
 20
35.7051242013
  0
LINE
  5
3E3
100
AcDbEntity
  8
RACCORDO
100
AcDbLine
 62
250
  6
CONTINUOUS
 10
-78.3420059071
 20
-2.272292784
 30
0.0
 11
-84.9420059071
 21
-2.2559206079
 31
0.0
  0
LINE
  5
3E4
100
AcDbEntity
  8
0
100
AcDbLine
 62
7
  6
CONTINUOUS
 10
-88.4920059071
 20
-48.3521976845
 30
0.0
 11
-88.4920059071
 21
38.3624460871
 31
0.0
  0
LINE
  5
3E5
100
AcDbEntity
  8
RACCORDO
100
AcDbLine
 62
250
  6
CONTINUOUS
 10
-87.1385154259
 20
38.3388208229
 30
0.0
 11
-87.1385154259
 21
-48.3285724203
 31
0.0
  0
LINE
  5
3E6
100
AcDbEntity
  8
RACCORDO
100
AcDbLine
 62
7
  6
CONTINUOUS
 10
-86.9420059071
 20
38.1388512838
 30
0.0
 11
-86.9420059071
 21
-48.1286028813
 31
0.0
  0
LWPOLYLINE
  5
3E7
100
AcDbEntity
  8
RACCORDO
100
AcDbPolyline
 62
250
  6
CONTINUOUS
 90
6
 70
0
 10
-92.6870553355
 20
38.7073892379
 10
-92.6850075897
 20
38.690430619
 10
-92.680919359
 20
38.6740210265
 10
-92.6748462661
 20
38.658408719
 10
-92.6668046152
 20
38.6437677497
 10
-92.656899524
 20
38.630279496
  0
LINE
  5
3E8
100
AcDbEntity
  8
0
100
AcDbLine
 62
7
  6
CONTINUOUS
 10
-84.9420059071
 20
36.8049048758
 30
0.0
 11
-84.9420059071
 21
-46.7948757987
 31
0.0
  0
LWPOLYLINE
  5
3E9
100
AcDbEntity
  8
RACCORDO
100
AcDbPolyline
 62
250
  6
CONTINUOUS
 90
4
 70
0
 10
-78.5390526119
 20
-30.4292540351
 10
-78.53885584
 20
-30.4394895238
 10
-78.538673323
 20
-30.4459461082
 10
-78.5385154259
 20
-30.4481923268
  0
LINE
  5
3EA
100
AcDbEntity
  8
RACCORDO
100
AcDbLine
 62
250
  6
CONTINUOUS
 10
-78.5396351107
 20
-30.3801169956
 30
0.0
 11
-78.5390526119
 21
-30.4292540351
 31
0.0
  0
LINE
  5
3EB
100
AcDbEntity
  8
RACCORDO
100
AcDbLine
 62
250
  6
CONTINUOUS
 10
-78.5402606
 20
-30.3061490594
 30
0.0
 11
-78.5396351107
 21
-30.3801169956
 31
0.0
  0
LINE
  5
3EC
100
AcDbEntity
  8
RACCORDO
100
AcDbLine
 62
250
  6
CONTINUOUS
 10
-78.5402606
 20
12.064638567
 30
0.0
 11
-78.5385154259
 21
11.4863393115
 31
0.0
  0
LINE
  5
3ED
100
AcDbEntity
  8
RACCORDO
100
AcDbLine
 62
250
  6
CONTINUOUS
 10
-78.5402606
 20
20.3163974619
 30
0.0
 11
-78.5402606
 21
12.0646385669
 31
0.0
  0
LINE
  5
3EE
100
AcDbEntity
  8
RACCORDO
100
AcDbLine
 62
250
  6
CONTINUOUS
 10
-78.5385154259
 20
11.4863393115
 30
0.0
 11
-78.538481007
 21
-2.5703382733
 31
0.0
  0
LINE
  5
3EF
100
AcDbEntity
  8
RACCORDO
100
AcDbLine
 62
250
  6
CONTINUOUS
 10
-78.538481007
 20
-2.5703382733
 30
0.0
 11
-78.5385154259
 21
-21.476090909
 31
0.0
  0
LINE
  5
3F0
100
AcDbEntity
  8
RACCORDO
100
AcDbLine
 62
250
  6
CONTINUOUS
 10
-78.5385154259
 20
-21.476090909
 30
0.0
 11
-78.5402606
 21
-30.3061490593
 31
0.0
  0
LINE
  5
3F1
100
AcDbEntity
  8
RACCORDO
100
AcDbLine
 62
250
  6
CONTINUOUS
 10
-78.5393359692
 20
20.4184784084
 30
0.0
 11
-78.5402606
 21
20.3163974619
 31
0.0
  0
LWPOLYLINE
  5
3F2
100
AcDbEntity
  8
RACCORDO
100
AcDbPolyline
 62
250
  6
CONTINUOUS
 90
5
 70
0
 10
-78.5385154259
 20
20.4584407293
 10
-78.538653611
 20
20.4569594929
 10
-78.5388042049
 20
20.4523864423
 10
-78.5389680992
 20
20.4445394388
 10
-78.5393359692
 20
20.4184784084
  0
LWPOLYLINE
  5
3F3
100
AcDbEntity
  8
RACCORDO
100
AcDbPolyline
 62
250
  6
CONTINUOUS
 90
16
 70
0
 10
-78.3420059071
 20
-2.7899479874
 10
-78.3430773299
 20
-2.7840014763
 10
-78.3462801214
 20
-2.7781186738
 10
-78.3515799701
 20
-2.7723626098
 10
-78.3589200963
 20
-2.7667949565
 10
-78.3682218595
 20
-2.7614753677
 10
-78.3793856004
 20
-2.75646084
 10
-78.3922917107
 20
-2.7518051009
 10
-78.4068019128
 20
-2.7475580342
 10
-78.42276074
 20
-2.7437651454
 10
-78.4399972059
 20
-2.7404670735
 10
-78.4583266346
 20
-2.7376991556
 10
-78.4775526359
 20
-2.7354910491
 10
-78.497469215
 20
-2.733866413
 10
-78.5178629802
 20
-2.7328426544
 10
-78.5385154259
 20
-2.7324307425
  0
LWPOLYLINE
  5
3F4
100
AcDbEntity
  8
RACCORDO
100
AcDbPolyline
 62
250
  6
CONTINUOUS
 90
16
 70
0
 10
-78.3420059071
 20
11.9489920289
 10
-78.3430893476
 20
11.9610136426
 10
-78.3463279476
 20
11.9729050558
 10
-78.3516866439
 20
11.9845374288
 10
-78.3591074034
 20
11.9957847277
 10
-78.3685098479
 20
12.0065250846
 10
-78.3797921214
 20
12.0166421191
 10
-78.3928320028
 20
12.0260262088
 10
-78.4074882228
 20
12.0345756687
 10
-78.4236019839
 20
12.0421978506
 10
-78.4409987053
 20
12.0488101605
 10
-78.4594899001
 20
12.0543409446
 10
-78.4788752
 20
12.0587302628
 10
-78.4989445583
 20
12.0619305496
 10
-78.5194805285
 20
12.0639071252
 10
-78.5402606
 20
12.0646385669
  0
LWPOLYLINE
  5
3F5
100
AcDbEntity
  8
RACCORDO
100
AcDbPolyline
 62
250
  6
CONTINUOUS
 90
16
 70
0
 10
-78.3420059071
 20
20.1448122066
 10
-78.3430893875
 20
20.1626490513
 10
-78.3463280931
 20
20.1802926535
 10
-78.3516869392
 20
20.1975518471
 10
-78.3591078698
 20
20.2142396309
 10
-78.3685104854
 20
20.2301751924
 10
-78.3797929136
 20
20.2451858672
 10
-78.392832915
 20
20.2591090142
 10
-78.4074892059
 20
20.2717937741
 10
-78.4236029865
 20
20.2831027028
 10
-78.4409996674
 20
20.2929132664
 10
-78.4594907582
 20
20.3011191649
 10
-78.4788759045
 20
20.3076314832
 10
-78.4989450678
 20
20.3123796586
 10
-78.519480801
 20
20.3153122435
 10
-78.5402606
 20
20.3163974619
  0
LINE
  5
3F6
100
AcDbEntity
  8
RACCORDO
100
AcDbLine
 62
7
  6
CONTINUOUS
 10
-78.3420059071
 20
20.2584711903
 30
0.0
 11
-78.3420059071
 21
-30.2482227877
 31
0.0
  0
LWPOLYLINE
  5
3F7
100
AcDbEntity
  8
RACCORDO
100
AcDbPolyline
 62
250
  6
CONTINUOUS
 90
16
 70
0
 10
-78.3420059071
 20
-30.1345638041
 10
-78.3430893628
 20
-30.1524004456
 10
-78.3463280029
 20
-30.170043884
 10
-78.351686756
 20
-30.1873029568
 10
-78.3591075802
 20
-30.2039906655
 10
-78.3685100892
 20
-30.2199261955
 10
-78.3797924207
 20
-30.2349368768
 10
-78.3928323469
 20
-30.2488600643
 10
-78.407488593
 20
-30.2615448919
 10
-78.4236023607
 20
-30.2728539042
 10
-78.4409990662
 20
-30.2826645605
 10
-78.4594902212
 20
-30.2908705523
 10
-78.4788754631
 20
-30.2973829536
 10
-78.4989447482
 20
-30.3021311948
 10
-78.5194806299
 20
-30.3050638239
 10
-78.5402606
 20
-30.3061490593
  0
LWPOLYLINE
  5
3F8
100
AcDbEntity
  8
RACCORDO
100
AcDbPolyline
 62
250
  6
CONTINUOUS
 90
16
 70
0
 10
-78.3420059071
 20
-21.9387436263
 10
-78.3430893882
 20
-21.9507654639
 10
-78.3463280959
 20
-21.9626570573
 10
-78.3516869449
 20
-21.9742895628
 10
-78.3591078787
 20
-21.9855369435
 10
-78.3685104975
 20
-21.9962773338
 10
-78.3797929285
 20
-22.0063943601
 10
-78.3928329321
 20
-22.0157784042
 10
-78.4074892242
 20
-22.0243277886
 10
-78.423603005
 20
-22.031949878
 10
-78.4409996851
 20
-22.038562086
 10
-78.4594907737
 20
-22.0440927677
 10
-78.4788759172
 20
-22.0484819955
 10
-78.4989450769
 20
-22.0516822112
 10
-78.5194808058
 20
-22.0536587397
 10
-78.5402606
 20
-22.0543901644
  0
LWPOLYLINE
  5
3F9
100
AcDbEntity
  8
RACCORDO
100
AcDbPolyline
 62
250
  6
CONTINUOUS
 90
16
 70
0
 10
-78.3420059071
 20
-7.1998036101
 10
-78.3430773629
 20
-7.2057502126
 10
-78.3462802416
 20
-7.2116330884
 10
-78.3515802136
 20
-7.2173892059
 10
-78.3589204796
 20
-7.2229568919
 10
-78.3682223815
 20
-7.2282764936
 10
-78.379386247
 20
-7.2332910175
 10
-78.3922924526
 20
-7.2379467377
 10
-78.4068027091
 20
-7.2421937737
 10
-78.4227615489
 20
-7.2459866251
 10
-78.4399979791
 20
-7.2492846561
 10
-78.4583273208
 20
-7.2520525331
 10
-78.4775531967
 20
-7.2542606035
 10
-78.4974696192
 20
-7.2558852112
 10
-78.5178631958
 20
-7.2569089508
 10
-78.5385154259
 20
-7.257320855
  0
LINE
  5
3FA
100
AcDbEntity
  8
RACCORDO
100
AcDbLine
 62
250
  6
CONTINUOUS
 10
-84.9420059071
 20
11.9999127248
 30
0.0
 11
-78.5402606
 21
12.0646385669
 31
0.0
  0
LINE
  5
3FB
100
AcDbEntity
  8
RACCORDO
100
AcDbLine
 62
250
  6
CONTINUOUS
 10
-84.9420059071
 20
11.424878446
 30
0.0
 11
-78.5385154259
 21
11.4863393115
 31
0.0
  0
LINE
  5
3FC
100
AcDbEntity
  8
RACCORDO
100
AcDbLine
 62
250
  6
CONTINUOUS
 10
-78.3420059071
 20
11.4863393115
 30
0.0
 11
-78.5385154259
 21
11.4863393115
 31
0.0
  0
LWPOLYLINE
  5
3FD
100
AcDbEntity
  8
RACCORDO
100
AcDbPolyline
 62
250
  6
CONTINUOUS
 90
22
 70
0
 10
-91.7973284981
 20
37.4818857923
 10
-91.8317079189
 20
37.5715940806
 10
-91.867577242
 20
37.6612244153
 10
-91.904920138
 20
37.7504323749
 10
-91.9439434613
 20
37.8389506052
 10
-91.984409314
 20
37.9263408807
 10
-92.0256382663
 20
38.0120113303
 10
-92.0677438061
 20
38.0956959728
 10
-92.110593095
 20
38.1769895796
 10
-92.1531476248
 20
38.2551597624
 10
-92.1954312646
 20
38.329930581
 10
-92.2374210956
 20
38.4010816651
 10
-92.2780216209
 20
38.4680903322
 10
-92.3171803998
 20
38.5307865173
 10
-92.3549694498
 20
38.5890958841
 10
-92.3904905293
 20
38.6427742605
 10
-92.4236339209
 20
38.6917529782
 10
-92.4545417088
 20
38.7361090098
 10
-92.4826979029
 20
38.7758991322
 10
-92.5079419493
 20
38.8111900786
 10
-92.5304685242
 20
38.8420554747
 10
-92.5502948518
 20
38.868593791
  0
LINE
  5
3FE
100
AcDbEntity
  8
RACCORDO
100
AcDbLine
 62
7
  6
CONTINUOUS
 10
-84.9420059071
 20
20.5702140714
 30
0.0
 11
-78.5385154259
 21
20.4584407293
 31
0.0
  0
LINE
  5
3FF
100
AcDbEntity
  8
RACCORDO
100
AcDbLine
 62
250
  6
CONTINUOUS
 10
-78.5402606
 20
20.3163974619
 30
0.0
 11
-84.9420059071
 21
20.430374844
 31
0.0
  0
LINE
  5
400
100
AcDbEntity
  8
0
100
AcDbLine
 62
7
  6
CONTINUOUS
 10
-88.9420059071
 20
39.1051242013
 30
0.0
 11
-88.4920059071
 21
38.3624460871
 31
0.0
  0
LWPOLYLINE
  5
401
100
AcDbEntity
  8
0
100
AcDbPolyline
 62
7
  6
CONTINUOUS
 90
10
 70
0
 43
0.3500000006
 10
-92.4420022888
 20
53.203777359
 10
-92.3705801697
 20
53.0609195251
 10
-92.3705801697
 20
52.9894883423
 10
-92.5134334717
 20
52.8466350403
 10
-92.5848646545
 20
52.8466350403
 10
-92.6562958374
 20
52.9180616913
 10
-92.6562958374
 20
52.9894883423
 10
-92.5848646545
 20
53.1323461761
 10
-92.5134334717
 20
53.203777359
 10
-92.4420022888
 20
53.203777359
  0
LINE
  5
402
100
AcDbEntity
  8
0
100
AcDbLine
 62
7
  6
CONTINUOUS
 10
-88.9420059071
 20
-49.0948757987
 30
0.0
 11
-88.4920059071
 21
-48.3521976845
 31
0.0
  0
LINE
  5
403
100
AcDbEntity
  8
RACCORDO
100
AcDbLine
 62
7
  6
CONTINUOUS
 10
-88.4920059071
 20
-48.3521976845
 30
0.0
 11
-88.9420059071
 21
-49.0948757987
 31
0.0
  0
LINE
  5
404
100
AcDbEntity
  8
0
100
AcDbLine
 62
250
  6
CONTINUOUS
 10
-84.9420059071
 20
29.7051242013
 30
0.0
 11
-86.9420059071
 21
29.7051242013
 31
0.0
  0
LWPOLYLINE
  5
405
100
AcDbEntity
  8
0
100
AcDbPolyline
 62
7
  6
CONTINUOUS
 90
10
 70
0
 43
0.3500000006
 10
-87.9277164917
 20
61.8863822021
 10
-87.8562943726
 20
61.7435198364
 10
-87.8562943726
 20
61.6720977173
 10
-87.9991476746
 20
61.5292353516
 10
-88.0705788574
 20
61.5292353516
 10
-88.1420100403
 20
61.6006665344
 10
-88.1420100403
 20
61.6720977173
 10
-88.0705788574
 20
61.8149510193
 10
-87.9991476746
 20
61.8863822021
 10
-87.9277164917
 20
61.8863822021
  0
LINE
  5
406
100
AcDbEntity
  8
RACCORDO
100
AcDbLine
 62
250
  6
CONTINUOUS
 10
-91.646236331
 20
34.1034373575
 30
0.0
 11
-91.5920059071
 21
34.1034373575
 31
0.0
  0
LINE
  5
407
100
AcDbEntity
  8
RACCORDO
100
AcDbLine
 62
250
  6
CONTINUOUS
 10
-98.8734074809
 20
37.1308185905
 30
0.0
 11
-92.0602060775
 21
37.4878833459
 31
0.0
  0
LINE
  5
408
100
AcDbEntity
  8
RACCORDO
100
AcDbLine
 62
250
  6
CONTINUOUS
 10
-88.9420059071
 20
37.6065518689
 30
0.0
 11
-91.7973284981
 21
37.4818857923
 31
0.0
  0
LINE
  5
409
100
AcDbEntity
  8
RACCORDO
100
AcDbLine
 62
250
  6
CONTINUOUS
 10
-91.5920059071
 20
35.7051242013
 30
0.0
 11
-91.4485488152
 21
35.7051242013
 31
0.0
  0
LINE
  5
40A
100
AcDbEntity
  8
0
100
AcDbLine
 62
7
  6
CONTINUOUS
 10
-84.9420059071
 20
36.7851242013
 30
0.0
 11
-86.9420059071
 21
36.7851242013
 31
0.0
  0
LINE
  5
40B
100
AcDbEntity
  8
0
100
AcDbLine
 62
7
  6
CONTINUOUS
 10
-84.9420059071
 20
36.8050510916
 30
0.0
 11
-86.9420059071
 21
36.8050510916
 31
0.0
  0
LINE
  5
40C
100
AcDbEntity
  8
RACCORDO
100
AcDbLine
 62
250
  6
CONTINUOUS
 10
-99.4420059071
 20
37.1308185905
 30
0.0
 11
-98.8734074809
 21
37.1308185905
 31
0.0
  0
LINE
  5
40D
100
AcDbEntity
  8
RACCORDO
100
AcDbLine
 62
250
  6
CONTINUOUS
 10
-86.9420059071
 20
37.6036951735
 30
0.0
 11
-88.4920059071
 21
37.6036951735
 31
0.0
  0
LINE
  5
40E
100
AcDbEntity
  8
0
100
AcDbLine
 62
250
  6
CONTINUOUS
 10
-88.9420059071
 20
37.6065518689
 30
0.0
 11
-88.4920059071
 21
37.6036951735
 31
0.0
  0
LWPOLYLINE
  5
40F
100
AcDbEntity
  8
RACCORDO
100
AcDbPolyline
 62
250
  6
CONTINUOUS
 90
7
 70
0
 10
-92.5502948533
 20
38.8685954404
 10
-92.5702524593
 20
38.8639119474
 10
-92.5867280317
 20
38.8586450073
 10
-92.601107839
 20
38.8524407203
 10
-92.6152789071
 20
38.8439932257
 10
-92.6301241252
 20
38.8327350169
 10
-92.644261939
 20
38.8199903338
  0
LINE
  5
410
100
AcDbEntity
  8
RACCORDO
100
AcDbLine
 62
7
  6
CONTINUOUS
 10
-98.8734074809
 20
38.6287628926
 30
0.0
 11
-93.0571876211
 21
38.9335780593
 31
0.0
  0
LINE
  5
411
100
AcDbEntity
  8
RACCORDO
100
AcDbLine
 62
7
  6
CONTINUOUS
 10
-88.9420059071
 20
39.1051242013
 30
0.0
 11
-92.5485488152
 21
38.9476591373
 31
0.0
  0
LINE
  5
412
100
AcDbEntity
  8
RACCORDO
100
AcDbLine
 62
7
  6
CONTINUOUS
 10
-87.1385154259
 20
38.3388208229
 30
0.0
 11
-88.4920059071
 21
38.3624460871
 31
0.0
  0
LWPOLYLINE
  5
413
100
AcDbEntity
  8
0
100
AcDbPolyline
 62
7
  6
CONTINUOUS
 90
8
 70
0
 43
0.3500000006
 10
-91.3705798645
 20
52.7037772064
 10
-90.5134328613
 20
52.7037772064
 10
-90.0848638916
 20
53.1323461761
 10
-90.0848638916
 20
53.9894886475
 10
-90.5134328613
 20
54.418062149
 10
-91.3705798645
 20
54.418062149
 10
-91.3705798645
 20
55.7037735901
 10
-90.0848638916
 20
55.7037735901
  0
LWPOLYLINE
  5
414
100
AcDbEntity
  8
0
100
AcDbPolyline
 62
7
  6
CONTINUOUS
 90
7
 70
0
 43
0.3500000006
 10
-93.9420027466
 20
52.7037772064
 10
-95.4420032043
 20
52.7037772064
 10
-93.9420027466
 20
54.8466311188
 10
-93.9420027466
 20
55.2752046204
 10
-94.37058078
 20
55.7037735901
 10
-95.0134342346
 20
55.7037735901
 10
-95.4420032043
 20
55.0609201355
  0
LWPOLYLINE
  5
415
100
AcDbEntity
  8
0
100
AcDbPolyline
 62
7
  6
CONTINUOUS
 90
7
 70
0
 43
0.3500000006
 10
-91.1420018921
 20
61.3863820496
 10
-92.6420023499
 20
61.3863820496
 10
-91.1420018921
 20
63.5292359619
 10
-91.1420018921
 20
63.9578049316
 10
-91.5705799255
 20
64.3863829651
 10
-92.2134333801
 20
64.3863829651
 10
-92.6420023499
 20
63.7435204468
  0
ARC
  5
416
100
AcDbEntity
  8
RACCORDO
100
AcDbCircle
 62
7
  6
CONTINUOUS
 10
-98.8420059071
 20
-48.0193367693
 30
0.0
 40
0.6
100
AcDbArc
 50
180.0
 51
267.0
  0
ARC
  5
417
100
AcDbEntity
  8
RACCORDO
100
AcDbCircle
 62
7
  6
CONTINUOUS
 10
-91.8920059071
 20
-46.8278969792
 30
0.0
 40
0.3
100
AcDbArc
 50
0.0
 51
34.9920201986
  0
ARC
  5
418
100
AcDbEntity
  8
RACCORDO
100
AcDbCircle
 62
7
  6
CONTINUOUS
 10
-91.4420059071
 20
-48.8355805387
 30
0.0
 40
0.15
100
AcDbArc
 50
180.0
 51
267.5
  0
ARC
  5
419
100
AcDbEntity
  8
RACCORDO
100
AcDbCircle
 62
7
  6
CONTINUOUS
 10
-96.1420059071
 20
35.7051242013
 30
0.0
 40
4.55
100
AcDbArc
 50
0.0
 51
40.0077539135
  0
ARC
  5
41A
100
AcDbEntity
  8
0
100
AcDbCircle
 62
7
  6
CONTINUOUS
 10
-96.1920059071
 20
35.7051242013
 30
0.0
 40
4.5
100
AcDbArc
 50
0.0
 51
45.8430467523
  0
ARC
  5
41B
100
AcDbEntity
  8
RACCORDO
100
AcDbCircle
 62
7
  6
CONTINUOUS
 10
-98.8420059071
 20
38.0295851718
 30
0.0
 40
0.6
100
AcDbArc
 50
93.0
 51
180.0
  0
ARC
  5
41C
100
AcDbEntity
  8
RACCORDO
100
AcDbCircle
 62
7
  6
CONTINUOUS
 10
-91.8920059071
 20
34.4956865801
 30
0.0
 40
0.3
100
AcDbArc
 50
338.8367289581
 51
360.0
  0
ARC
  5
41D
100
AcDbEntity
  8
RACCORDO
100
AcDbCircle
 62
7
  6
CONTINUOUS
 10
-92.5420059071
 20
38.7267131872
 30
0.0
 40
0.15
100
AcDbArc
 50
180.0
 51
220.0077539135
  0
ARC
  5
41E
100
AcDbEntity
  8
RACCORDO
100
AcDbCircle
 62
7
  6
CONTINUOUS
 10
-92.5420059071
 20
38.797801904
 30
0.0
 40
0.15
100
AcDbArc
 50
92.5
 51
180.0
  0
ARC
  5
41F
100
AcDbEntity
  8
RACCORDO
100
AcDbCircle
 62
7
  6
CONTINUOUS
 10
-87.1420059071
 20
-48.1286028813
 30
0.0
 40
0.2
100
AcDbArc
 50
271.0
 51
360.0
  0
ARC
  5
420
100
AcDbEntity
  8
RACCORDO
100
AcDbCircle
 62
7
  6
CONTINUOUS
 10
-78.5420059071
 20
-30.2482227877
 30
0.0
 40
0.2
100
AcDbArc
 50
271.0
 51
360.0
  0
ARC
  5
421
100
AcDbEntity
  8
RACCORDO
100
AcDbCircle
 62
7
  6
CONTINUOUS
 10
-87.1420059071
 20
38.1388512838
 30
0.0
 40
0.2
100
AcDbArc
 50
0.0
 51
89.0
  0
ARC
  5
422
100
AcDbEntity
  8
RACCORDO
100
AcDbCircle
 62
7
  6
CONTINUOUS
 10
-78.5420059071
 20
20.2584711903
 30
0.0
 40
0.2
100
AcDbArc
 50
0.0
 51
89.0
  0
ELLIPSE
  5
423
100
AcDbEntity
  8
RACCORDO
100
AcDbEllipse
 62
7
  6
CONTINUOUS
 10
20.9215532531
 20
-48.7945899932
 30
0.0
 11
0.1114890272
 21
0.2788712659
 31
0.0
 40
0.9988963511
 41
-4.3316837036
 42
-2.8122732837
  0
ELLIPSE
  5
424
100
AcDbEntity
  8
RACCORDO
100
AcDbEllipse
 62
7
  6
CONTINUOUS
 10
-23.6785381438
 20
-48.7945899932
 30
0.0
 11
-0.1114890272
 21
0.2788712659
 31
0.0
 40
0.9988963511
 41
9.0954585909
 42
10.6148710067
  0
ELLIPSE
  5
425
100
AcDbEntity
  8
0
100
AcDbEllipse
 62
7
  6
CONTINUOUS
 10
-46.1426574386
 20
35.7051242013
 30
0.0
 11
-0.0
 21
4.5
 31
0.0
 40
0.0524077793
 41
1.1634559788
 42
1.5707963268
  0
ELLIPSE
  5
426
100
AcDbEntity
  8
RACCORDO
100
AcDbEllipse
 62
7
  6
CONTINUOUS
 10
24.2386687958
 20
-48.9791534649
 30
0.0
 11
0.3000458239
 21
-0.0000144199
 31
0.0
 40
0.0523997534
 41
-3.1144955549
 42
-1.5698791669
  0
ELLIPSE
  5
427
100
AcDbEntity
  8
RACCORDO
100
AcDbEllipse
 62
7
  6
CONTINUOUS
 10
-26.9956536865
 20
-48.9791534649
 30
0.0
 11
0.3000458239
 21
0.0000144199
 31
0.0
 40
0.0523997534
 41
-1.5717134867
 42
-0.0270970987
  0
ELLIPSE
  5
428
100
AcDbEntity
  8
0
100
AcDbEllipse
 62
7
  6
CONTINUOUS
 10
43.3856725479
 20
35.7051242013
 30
0.0
 11
-0.0
 21
4.5
 31
0.0
 40
0.0524077793
 41
-1.5707963268
 42
-1.1634559788
  0
ELLIPSE
  5
429
100
AcDbEntity
  8
0
100
AcDbEllipse
 62
7
  6
CONTINUOUS
 10
-44.8764339264
 20
-47.4928172797
 30
0.0
 11
1.0635693652
 21
1.0635693652
 31
0.0
 40
0.9972646886
 41
-3.9256212891
 42
-2.3575640181
  0
ELLIPSE
  5
42A
100
AcDbEntity
  8
0
100
AcDbEllipse
 62
7
  6
CONTINUOUS
 10
42.1194490357
 20
-47.4928172797
 30
0.0
 11
1.0635693652
 21
-1.0635693652
 31
0.0
 40
0.9972646886
 41
-0.7840286355
 42
0.7840286355
  0
ELLIPSE
  5
42B
100
AcDbEntity
  8
RACCORDO
100
AcDbEllipse
 62
7
  6
CONTINUOUS
 10
-26.0486895618
 20
-48.6957596232
 30
0.0
 11
0.5000700199
 21
0.0000109613
 31
0.0
 40
0.0523449259
 41
1.5703775765
 42
3.1145256267
  0
ELLIPSE
  5
42C
100
AcDbEntity
  8
RACCORDO
100
AcDbEllipse
 62
7
  6
CONTINUOUS
 10
23.2917046711
 20
-48.6957596232
 30
0.0
 11
0.5000700199
 21
-0.0000109613
 31
0.0
 40
0.0523449259
 41
0.0270670269
 42
1.5712150771
  0
ELLIPSE
  5
42D
100
AcDbEntity
  8
RACCORDO
100
AcDbEllipse
 62
7
  6
CONTINUOUS
 10
-24.6034162813
 20
22.2800480372
 30
0.0
 11
0.3536610946
 21
-0.3536610946
 31
0.0
 40
0.9996954599
 41
2.3563467834
 42
3.9268385237
  0
ELLIPSE
  5
42E
100
AcDbEntity
  8
RACCORDO
100
AcDbEllipse
 62
7
  6
CONTINUOUS
 10
21.8464313906
 20
22.2800480372
 30
0.0
 11
0.3536610946
 21
0.3536610946
 31
0.0
 40
0.9996954599
 41
-0.7852458701
 42
0.7852458701
  0
ELLIPSE
  5
42F
100
AcDbEntity
  8
RACCORDO
100
AcDbEllipse
 62
7
  6
CONTINUOUS
 10
21.8464313906
 20
-32.2697996347
 30
0.0
 11
0.3536610946
 21
-0.3536610946
 31
0.0
 40
0.9996954599
 41
-0.7852458701
 42
0.7852458701
  0
ELLIPSE
  5
430
100
AcDbEntity
  8
RACCORDO
100
AcDbEllipse
 62
7
  6
CONTINUOUS
 10
-24.6034162813
 20
-32.2697996347
 30
0.0
 11
-0.3536610946
 21
-0.3536610946
 31
0.0
 40
0.9996954599
 41
-0.7852458701
 42
0.7852458701
  0
ENDSEC
  0
SECTION
  2
OBJECTS
  0
DICTIONARY
  5
C
100
AcDbDictionary
280
0
281
1
  3
ACAD_GROUP
350
D
  3
ACAD_MLINESTYLE
350
17
  3
ACAD_LAYOUT
350
1A
  3
ACAD_PLOTSETTINGS
350
19
  3
ACAD_PLOTSTYLENAME
350
E
  0
DICTIONARY
  5
D
102
{ACAD_REACTORS
330
C
102
}
100
AcDbDictionary
280
0
281
1
  0
ACDBDICTIONARYWDFLT
  5
E
102
{ACAD_REACTORS
330
C
102
}
100
AcDbDictionary
281
1
  3
Normal
350
F
100
AcDbDictionaryWithDefault
340
F
  0
DICTIONARY
  5
17
102
{ACAD_REACTORS
330
C
102
}
100
AcDbDictionary
280
0
281
1
  3
Standard
350
18
  0
DICTIONARY
  5
19
102
{ACAD_REACTORS
330
C
102
}
100
AcDbDictionary
281
1
  0
DICTIONARY
  5
1A
102
{ACAD_REACTORS
330
C
102
}
100
AcDbDictionary
281
1
  3
Model
350
431
  3
Layout1
350
432
  0
ACDBPLACEHOLDER
  5
F
102
{ACAD_REACTORS
330
E
102
}
  0
MLINESTYLE
  5
18
102
{ACAD_REACTORS
330
17
102
}
100
AcDbMlineStyle
  2
STANDARD
 70
0
  3

 62
256
 51
90.0
 52
90.0
 71
2
 49
0.5
 62
256
  6
BYLAYER
 49
-0.5
 62
256
  6
BYLAYER
  0
LAYOUT
  5
431
102
{ACAD_REACTORS
330
1A
102
}
100
AcDbPlotSettings
  1

  2
none_device
  4
ISO_A4_(297.00_x_210.00_MM)
  6

 40
0.0
 41
0.0
 42
0.0
 43
0.0
 44
297.0
 45
210.0
 46
0.0
 47
0.0
 48
0.0
 49
0.0
140
0.0
141
0.0
142
1.0
143
1.0
 70
1024
 72
1
 73
0
 74
0
  7

 75
0
147
1.0
148
0.0
149
0.0
100
AcDbLayout
  1
Model
 70
0
 71
0
 10
0.0
 20
0.0
 11
297.0
 21
210.0
 12
0.0
 22
0.0
 32
0.0
 14
0.0
 24
0.0
 34
0.0
 15
0.0
 25
0.0
 35
0.0
146
0.0
 13
0.0
 23
0.0
 33
0.0
 16
1.0
 26
0.0
 36
0.0
 17
0.0
 27
1.0
 37
0.0
 76
0
330
215
345
0
346
0
  0
LAYOUT
  5
432
102
{ACAD_REACTORS
330
1A
102
}
100
AcDbPlotSettings
  1

  2
none_device
  4
ISO_A4_(297.00_x_210.00_MM)
  6

 40
0.0
 41
0.0
 42
0.0
 43
0.0
 44
297.0
 45
210.0
 46
0.0
 47
0.0
 48
0.0
 49
0.0
140
0.0
141
0.0
142
1.0
143
1.0
 70
0
 72
1
 73
0
 74
0
  7

 75
0
147
1.0
148
0.0
149
0.0
100
AcDbLayout
  1
Layout1
 70
0
 71
1
 10
0.0
 20
0.0
 11
297.0
 21
210.0
 12
0.0
 22
0.0
 32
0.0
 14
0.0
 24
0.0
 34
0.0
 15
0.0
 25
0.0
 35
0.0
146
0.0
 13
0.0
 23
0.0
 33
0.0
 16
1.0
 26
0.0
 36
0.0
 17
0.0
 27
1.0
 37
0.0
 76
0
330
216
345
0
346
0
  0
ENDSEC
  0
EOF
