  0
SECTION
  2
HEADER
  9
$ACADVER
  1
AC1024
  9
$DWGCODEPAGE
  3
ANSI_1252
  9
$EXTMAX
 10
297.0
 20
210.0
 30
0.0
  9
$EXTMIN
 10
0.0
 20
0.0
 30
0.0
  9
$LIMMIN
 10
0.0
 20
0.0
  9
$LIMMAX
 10
297.0
 20
210.0
  9
$VIEWCTR
 10
148.5
 20
105.0
  9
$VIEWSIZE
 40
210.0
  9
$CLAYER
  8
0
  9
$LTSCALE
 40
16.335
  9
$CELTYPE
  6
BYLAYER
  9
$DIMSCALE
 40
1.0
  9
$DIMASZ
 40
3.0
  9
$DIMEXO
 40
0.5
  9
$DIMDLI
 40
11.286
  9
$DIMEXE
 40
1.5
  9
$DIMCEN
 40
2.673
  9
$DIMLFAC
 40
1.0
  9
$DIMBLK
  1
_FILLED
  9
$DIMALT
 70
0
  9
$DIMALTF
 40
0.0393700787
  9
$DIMTXT
 40
3.0
  9
$DIMTOL
 70
1
  9
$DIMLIM
 70
0
  9
$DIMTFAC
 40
1.0
  9
$DIMTP
 40
0.01
  9
$DIMTM
 40
0.01
  9
$DIMGAP
 40
0.625
  9
$DIMDSEP
 70
44
  9
$AUNITS
 70
0
  9
$PDMODE
 70
3
  9
$PDSIZE
 40
3.0
  9
$HANDSEED
  5
33F
  9
$TILEMODE
 70
1
  9
$MEASUREMENT
 70
1
  9
$INSUNITS
 70
4
  0
ENDSEC
  0
SECTION
  2
CLASSES
  0
CLASS
  1
ACDBDICTIONARYWDFLT
  2
AcDbDictionaryWithDefault
  3
AutoCAD 2000
 90
0
 91
1
280
0
281
0
  0
CLASS
  1
ACDBPLACEHOLDER
  2
AcDbPlaceHolder
  3
AutoCAD 2000
 90
0
 91
1
280
0
281
0
  0
CLASS
  1
LAYOUT
  2
AcDbLayout
  3
AutoCAD 2000
 90
0
 91
0
280
0
281
0
  0
ENDSEC
  0
SECTION
  2
TABLES
  0
TABLE
  2
VPORT
  5
8
100
AcDbSymbolTable
 70
2
  0
VPORT
  5
1F4
100
AcDbSymbolTableRecord
100
AcDbViewportTableRecord
  2
*ACTIVE
 70
0
 10
0.0
 20
0.0
 11
1.0
 21
1.0
 12
148.5
 22
105.0
 13
0.0
 23
0.0
 14
1.0
 24
1.0
 15
0.0
 25
0.0
 16
0.0
 26
0.0
 36
1.0
 17
0.0
 27
0.0
 37
0.0
 40
210.0
 41
1.4142857143
 42
50.0
 43
0.0
 44
0.0
 50
0.0
 51
0.0
 71
0
 72
100
 73
1
 74
1
 75
0
 76
0
 77
0
 78
0
  0
ENDTAB
  0
TABLE
  2
LTYPE
  5
5
100
AcDbSymbolTable
 70
6
  0
LTYPE
  5
14
100
AcDbSymbolTableRecord
100
AcDbLinetypeTableRecord
  2
BYBLOCK
 70
0
  3

 72
65
 73
0
 40
0.0
  0
LTYPE
  5
15
100
AcDbSymbolTableRecord
100
AcDbLinetypeTableRecord
  2
BYLAYER
 70
0
  3

 72
65
 73
0
 40
0.0
  0
LTYPE
  5
16
100
AcDbSymbolTableRecord
100
AcDbLinetypeTableRecord
  2
CONTINUOUS
 70
64
  3
Solid line
 72
65
 73
0
 40
0.0
  0
LTYPE
  5
1F5
100
AcDbSymbolTableRecord
100
AcDbLinetypeTableRecord
  2
CENTER
 70
64
  3
____ _ ____ _ ____ _ ____ _ ____ _ ____ _ ____
 72
65
 73
4
 40
0.6
 49
0.375
 74
0
 49
-0.075
 74
0
 49
0.075
 74
0
 49
-0.075
 74
0
  0
LTYPE
  5
1F6
100
AcDbSymbolTableRecord
100
AcDbLinetypeTableRecord
  2
HIDDEN
 70
64
  3
- - - - - - - - - - - - - - - - - - - -
 72
65
 73
2
 40
0.2
 49
0.1
 74
0
 49
-0.1
 74
0
  0
LTYPE
  5
1F7
100
AcDbSymbolTableRecord
100
AcDbLinetypeTableRecord
  2
PHANTOM
 70
64
  3
_____ _ _ _____ _ _ _____ _ _ _____
 72
65
 73
6
 40
0.8
 49
0.45
 74
0
 49
-0.05
 74
0
 49
0.1
 74
0
 49
-0.05
 74
0
 49
0.1
 74
0
 49
-0.05
 74
0
  0
LTYPE
  5
1F8
100
AcDbSymbolTableRecord
100
AcDbLinetypeTableRecord
  2
DOT
 70
64
  3
. . . . . . . . . . . . . . . . . . . .
 72
65
 73
2
 40
0.2
 49
0.1
 74
0
 49
-0.1
 74
0
  0
LTYPE
  5
1F9
100
AcDbSymbolTableRecord
100
AcDbLinetypeTableRecord
  2
DASHED
 70
64
  3
- - - - - - - - - - - - - - - - - - - -
 72
65
 73
2
 40
0.2
 49
0.1
 74
0
 49
-0.1
 74
0
  0
ENDTAB
  0
TABLE
  2
LAYER
  5
2
100
AcDbSymbolTable
 70
36
  0
LAYER
  5
10
100
AcDbSymbolTableRecord
100
AcDbLayerTableRecord
  2
0
 70
0
 62
7
  6
CONTINUOUS
370
-3
390
F
  0
LAYER
  5
1FA
100
AcDbSymbolTableRecord
100
AcDbLayerTableRecord
  2
DEFAULT_1
 70
0
 62
7
  6
CENTER
370
-3
390
F
  0
LAYER
  5
1FB
100
AcDbSymbolTableRecord
100
AcDbLayerTableRecord
  2
DEFAULT_2
 70
0
 62
7
  6
HIDDEN
370
-3
390
F
  0
LAYER
  5
1FC
100
AcDbSymbolTableRecord
100
AcDbLayerTableRecord
  2
DEFAULT_3
 70
0
 62
7
  6
PHANTOM
370
-3
390
F
  0
LAYER
  5
1FD
100
AcDbSymbolTableRecord
100
AcDbLayerTableRecord
  2
ASSI
 70
0
 62
7
  6
CONTINUOUS
370
-3
390
F
  0
LAYER
  5
1FE
100
AcDbSymbolTableRecord
100
AcDbLayerTableRecord
  2
COORDINATE
 70
0
 62
7
  6
CONTINUOUS
370
-3
390
F
  0
LAYER
  5
1FF
100
AcDbSymbolTableRecord
100
AcDbLayerTableRecord
  2
COPY_PUBLISH
 70
0
 62
7
  6
CONTINUOUS
370
-3
390
F
  0
LAYER
  5
200
100
AcDbSymbolTableRecord
100
AcDbLayerTableRecord
  2
COSMETICI
 70
0
 62
7
  6
CONTINUOUS
370
-3
390
F
  0
LAYER
  5
201
100
AcDbSymbolTableRecord
100
AcDbLayerTableRecord
  2
CURVE
 70
0
 62
7
  6
CONTINUOUS
370
-3
390
F
  0
LAYER
  5
202
100
AcDbSymbolTableRecord
100
AcDbLayerTableRecord
  2
DRAFT
 70
0
 62
7
  6
CONTINUOUS
370
-3
390
F
  0
LAYER
  5
203
100
AcDbSymbolTableRecord
100
AcDbLayerTableRecord
  2
IMPORT_IGES
 70
0
 62
7
  6
CONTINUOUS
370
-3
390
F
  0
LAYER
  5
204
100
AcDbSymbolTableRecord
100
AcDbLayerTableRecord
  2
INTF_1
 70
0
 62
7
  6
CONTINUOUS
370
-3
390
F
  0
LAYER
  5
205
100
AcDbSymbolTableRecord
100
AcDbLayerTableRecord
  2
INTF_10
 70
0
 62
7
  6
CONTINUOUS
370
-3
390
F
  0
LAYER
  5
206
100
AcDbSymbolTableRecord
100
AcDbLayerTableRecord
  2
INTF_11
 70
0
 62
7
  6
CONTINUOUS
370
-3
390
F
  0
LAYER
  5
207
100
AcDbSymbolTableRecord
100
AcDbLayerTableRecord
  2
INTF_2
 70
0
 62
7
  6
CONTINUOUS
370
-3
390
F
  0
LAYER
  5
208
100
AcDbSymbolTableRecord
100
AcDbLayerTableRecord
  2
INTF_3
 70
0
 62
7
  6
CONTINUOUS
370
-3
390
F
  0
LAYER
  5
209
100
AcDbSymbolTableRecord
100
AcDbLayerTableRecord
  2
INTF_4
 70
0
 62
7
  6
CONTINUOUS
370
-3
390
F
  0
LAYER
  5
20A
100
AcDbSymbolTableRecord
100
AcDbLayerTableRecord
  2
INTF_5
 70
0
 62
7
  6
CONTINUOUS
370
-3
390
F
  0
LAYER
  5
20B
100
AcDbSymbolTableRecord
100
AcDbLayerTableRecord
  2
INTF_6
 70
0
 62
7
  6
CONTINUOUS
370
-3
390
F
  0
LAYER
  5
20C
100
AcDbSymbolTableRecord
100
AcDbLayerTableRecord
  2
INTF_7
 70
0
 62
7
  6
CONTINUOUS
370
-3
390
F
  0
LAYER
  5
20D
100
AcDbSymbolTableRecord
100
AcDbLayerTableRecord
  2
INTF_9
 70
0
 62
7
  6
CONTINUOUS
370
-3
390
F
  0
LAYER
  5
20E
100
AcDbSymbolTableRecord
100
AcDbLayerTableRecord
  2
INTF_BLANK
 70
0
 62
7
  6
CONTINUOUS
370
-3
390
F
  0
LAYER
  5
20F
100
AcDbSymbolTableRecord
100
AcDbLayerTableRecord
  2
INTF_RED
 70
0
 62
7
  6
CONTINUOUS
370
-3
390
F
  0
LAYER
  5
210
100
AcDbSymbolTableRecord
100
AcDbLayerTableRecord
  2
NOTE
 70
0
 62
7
  6
CONTINUOUS
370
-3
390
F
  0
LAYER
  5
211
100
AcDbSymbolTableRecord
100
AcDbLayerTableRecord
  2
PIANI
 70
0
 62
7
  6
CONTINUOUS
370
-3
390
F
  0
LAYER
  5
212
100
AcDbSymbolTableRecord
100
AcDbLayerTableRecord
  2
PUNTI
 70
0
 62
7
  6
CONTINUOUS
370
-3
390
F
  0
LAYER
  5
213
100
AcDbSymbolTableRecord
100
AcDbLayerTableRecord
  2
RACCORDO
 70
0
 62
7
  6
CONTINUOUS
370
-3
390
F
  0
LAYER
  5
214
100
AcDbSymbolTableRecord
100
AcDbLayerTableRecord
  2
RGB____0____0____0__
 70
0
 62
7
  6
CONTINUOUS
370
-3
390
F
  0
LAYER
  5
215
100
AcDbSymbolTableRecord
100
AcDbLayerTableRecord
  2
SIMBOLI
 70
0
 62
7
  6
CONTINUOUS
370
-3
390
F
  0
LAYER
  5
216
100
AcDbSymbolTableRecord
100
AcDbLayerTableRecord
  2
SMUSSO
 70
0
 62
7
  6
CONTINUOUS
370
-3
390
F
  0
LAYER
  5
217
100
AcDbSymbolTableRecord
100
AcDbLayerTableRecord
  2
SNAPLINE
 70
0
 62
7
  6
CONTINUOUS
370
-3
390
F
  0
LAYER
  5
218
100
AcDbSymbolTableRecord
100
AcDbLayerTableRecord
  2
SUPERFICI
 70
0
 62
7
  6
CONTINUOUS
370
-3
390
F
  0
LAYER
  5
219
100
AcDbSymbolTableRecord
100
AcDbLayerTableRecord
  2
TRASH
 70
0
 62
7
  6
CONTINUOUS
370
-3
390
F
  0
ENDTAB
  0
TABLE
  2
STYLE
  5
3
100
AcDbSymbolTable
 70
1
  0
STYLE
  5
11
100
AcDbSymbolTableRecord
100
AcDbTextStyleTableRecord
  2
STANDARD
 70
0
 40
0.0
 41
0.8
 50
0.0
 71
0
 42
0.2
  3
txt
  4

  0
STYLE
  5
21A
100
AcDbSymbolTableRecord
100
AcDbTextStyleTableRecord
  2
TEXTSTYLE_1
 70
0
 40
0.0
 41
0.8
 50
0.0
 71
0
 42
0.2
  3
gdt
  4

  0
ENDTAB
  0
TABLE
  2
VIEW
  5
6
100
AcDbSymbolTable
 70
0
  0
ENDTAB
  0
TABLE
  2
UCS
  5
7
100
AcDbSymbolTable
 70
0
  0
ENDTAB
  0
TABLE
  2
APPID
  5
9
100
AcDbSymbolTable
 70
1
  0
APPID
  5
21B
100
AcDbSymbolTableRecord
100
AcDbRegAppTableRecord
  2
ACAD
 70
0
  0
ENDTAB
  0
TABLE
  2
BLOCK_RECORD
  5
1
100
AcDbSymbolTable
 70
0
  0
BLOCK_RECORD
  5
21C
100
AcDbSymbolTableRecord
100
AcDbBlockTableRecord
  2
*Model_Space
  0
BLOCK_RECORD
  5
21D
100
AcDbSymbolTableRecord
100
AcDbBlockTableRecord
  2
*Paper_Space
  0
BLOCK_RECORD
  5
21E
100
AcDbSymbolTableRecord
100
AcDbBlockTableRecord
  2
_FILLED
  0
BLOCK_RECORD
  5
21F
100
AcDbSymbolTableRecord
100
AcDbBlockTableRecord
  2
*D0
  0
BLOCK_RECORD
  5
220
100
AcDbSymbolTableRecord
100
AcDbBlockTableRecord
  2
*D1
  0
BLOCK_RECORD
  5
221
100
AcDbSymbolTableRecord
100
AcDbBlockTableRecord
  2
*D2
  0
BLOCK_RECORD
  5
222
100
AcDbSymbolTableRecord
100
AcDbBlockTableRecord
  2
*D3
  0
ENDTAB
  0
TABLE
  2
DIMSTYLE
  5
A
100
AcDbSymbolTable
 70
1
100
AcDbDimStyleTable
 71
0
  0
DIMSTYLE
105
223
100
AcDbSymbolTableRecord
100
AcDbDimStyleTableRecord
  2
STANDARD
 70
0
  3

  4

 40
1.0
 41
3.0
 42
0.5
 43
0.38
 44
1.5
 45
0.0
 46
0.0
 47
0.01
 48
0.01
140
3.0
141
0.09
142
0.0
143
25.4
144
1.0
145
0.0
146
1.0
147
0.625
 71
1
 72
0
 73
0
 74
0
 75
0
 76
0
 77
1
 78
8
 79
2
170
0
171
1
172
0
173
0
174
0
175
0
176
0
177
0
178
0
270
2
179
2
271
2
272
2
273
2
274
2
275
0
280
0
281
0
282
0
283
1
284
8
285
0
286
0
287
3
288
0
340
11
278
44
341
21E
342
21E
343
21E
344
21E
  0
DIMSTYLE
105
224
100
AcDbSymbolTableRecord
100
AcDbDimStyleTableRecord
  2
DIMSTYLE_1
 70
0
  3

  4

 40
1.0
 41
3.0
 42
0.5
 43
0.38
 44
1.5
 45
0.0
 46
0.0
 47
0.0
 48
0.0
140
3.0
141
0.09
142
0.0
143
25.4
144
1.0
145
0.0
146
1.0
147
0.75
 71
0
 72
0
 73
0
 74
0
 75
0
 76
0
 77
1
 78
8
 79
2
170
0
171
1
172
0
173
0
174
0
175
0
176
0
177
0
178
0
270
2
179
2
271
1
272
1
273
2
274
2
275
0
280
0
281
0
282
0
283
1
284
8
285
0
286
0
287
3
288
0
340
11
278
44
341
21E
342
21E
343
21E
344
21E
  0
ENDTAB
  0
ENDSEC
  0
SECTION
  2
BLOCKS
  0
BLOCK
  5
20
100
AcDbEntity
  8
0
100
AcDbBlockBegin
  2
*Model_Space
 70
0
 10
0.0
 20
0.0
 30
0.0
  3
*Model_Space
  1

  0
ENDBLK
  5
21
100
AcDbEntity
  8
0
100
AcDbBlockEnd
  0
BLOCK
  5
1C
100
AcDbEntity
  8
0
100
AcDbBlockBegin
  2
*Paper_Space
 70
0
 10
0.0
 20
0.0
 30
0.0
  3
*Paper_Space
  1

  0
ENDBLK
  5
1D
100
AcDbEntity
  8
0
100
AcDbBlockEnd
  0
BLOCK
  5
225
100
AcDbEntity
  8
0
100
AcDbBlockBegin
  2
_FILLED
 70
64
 10
0.0
 20
0.0
  3
_FILLED
  1

  0
SOLID
  5
226
100
AcDbEntity
  8
0
  6
BYBLOCK
 62
0
100
AcDbTrace
 10
0.0
 20
0.0
 11
-1.0
 21
0.3166666667
 12
-1.0
 22
-0.3166666667
 13
-1.0
 23
-0.3166666667
  0
ENDBLK
  5
227
100
AcDbEntity
  8
0
  6
BYBLOCK
 62
0
100
AcDbBlockEnd
  0
BLOCK
  5
228
100
AcDbEntity
  8
0
100
AcDbBlockBegin
 62
7
  6
CONTINUOUS
  2
*D0
 70
65
 10
0.0
 20
0.0
  3
*D0
  1

  0
LINE
  5
229
100
AcDbEntity
  8
0
100
AcDbLine
 62
7
  6
CONTINUOUS
 10
-27.4550989119
 20
26.3530366787
 11
-27.4550989119
 21
36.030851124
  0
LINE
  5
22A
100
AcDbEntity
  8
0
100
AcDbLine
 62
7
  6
CONTINUOUS
 10
-32.1248464405
 20
-24.7044218162
 11
-32.1248464405
 21
36.030851124
  0
LINE
  5
22B
100
AcDbEntity
  8
0
100
AcDbLine
 62
7
  6
CONTINUOUS
 10
-27.4550989119
 20
34.530851124
 11
-23.4550989119
 21
34.530851124
  0
LINE
  5
22C
100
AcDbEntity
  8
0
100
AcDbLine
 62
7
  6
CONTINUOUS
 10
-23.4550989119
 20
34.530851124
 11
-29.7899726762
 21
34.530851124
  0
LINE
  5
22D
100
AcDbEntity
  8
0
100
AcDbLine
 62
7
  6
CONTINUOUS
 10
-32.1248464405
 20
34.530851124
 11
-42.7320389217
 21
34.530851124
  0
LINE
  5
22E
100
AcDbEntity
  8
0
100
AcDbLine
 62
7
  6
CONTINUOUS
 10
-42.7320389217
 20
34.530851124
 11
-29.7899726762
 21
34.530851124
  0
INSERT
  5
22F
100
AcDbEntity
  8
0
100
AcDbBlockReference
 62
7
  6
CONTINUOUS
  2
_FILLED
 10
-27.4550989119
 20
34.530851124
 41
3.0
 42
3.0
 43
3.0
 50
180.0
  0
INSERT
  5
230
100
AcDbEntity
  8
0
100
AcDbBlockReference
 62
7
  6
CONTINUOUS
  2
_FILLED
 10
-32.1248464405
 20
34.530851124
 41
3.0
 42
3.0
 43
3.0
  0
ENDBLK
  5
231
100
AcDbEntity
  8
0
  6
BYBLOCK
 62
0
100
AcDbBlockEnd
  0
BLOCK
  5
232
100
AcDbEntity
  8
0
100
AcDbBlockBegin
 62
7
  6
CONTINUOUS
  2
*D1
 70
65
 10
0.0
 20
0.0
  3
*D1
  1

  0
LINE
  5
233
100
AcDbEntity
  8
0
100
AcDbLine
 62
7
  6
CONTINUOUS
 10
-24.1550989119
 20
-11.8968781766
 11
-24.1550989119
 21
44.6407248082
  0
LINE
  5
234
100
AcDbEntity
  8
0
100
AcDbLine
 62
7
  6
CONTINUOUS
 10
-32.1248464405
 20
-24.7044218162
 11
-32.1248464405
 21
44.6407248082
  0
LINE
  5
235
100
AcDbEntity
  8
0
100
AcDbLine
 62
7
  6
CONTINUOUS
 10
-24.1550989119
 20
43.1407248082
 11
-20.1550989119
 21
43.1407248082
  0
LINE
  5
236
100
AcDbEntity
  8
0
100
AcDbLine
 62
7
  6
CONTINUOUS
 10
-20.1550989119
 20
43.1407248082
 11
-28.1399726762
 21
43.1407248082
  0
LINE
  5
237
100
AcDbEntity
  8
0
100
AcDbLine
 62
7
  6
CONTINUOUS
 10
-32.1248464405
 20
43.1407248082
 11
-36.1248464405
 21
43.1407248082
  0
LINE
  5
238
100
AcDbEntity
  8
0
100
AcDbLine
 62
7
  6
CONTINUOUS
 10
-36.1248464405
 20
43.1407248082
 11
-28.1399726762
 21
43.1407248082
  0
INSERT
  5
239
100
AcDbEntity
  8
0
100
AcDbBlockReference
 62
7
  6
CONTINUOUS
  2
_FILLED
 10
-24.1550989119
 20
43.1407248082
 41
3.0
 42
3.0
 43
3.0
 50
180.0
  0
INSERT
  5
23A
100
AcDbEntity
  8
0
100
AcDbBlockReference
 62
7
  6
CONTINUOUS
  2
_FILLED
 10
-32.1248464405
 20
43.1407248082
 41
3.0
 42
3.0
 43
3.0
 50
0.0
  0
ENDBLK
  5
23B
100
AcDbEntity
  8
0
  6
BYBLOCK
 62
0
100
AcDbBlockEnd
  0
BLOCK
  5
23C
100
AcDbEntity
  8
0
100
AcDbBlockBegin
 62
7
  6
CONTINUOUS
  2
*D2
 70
65
 10
0.0
 20
0.0
  3
*D2
  1

  0
LINE
  5
23D
100
AcDbEntity
  8
0
100
AcDbLine
 62
7
  6
CONTINUOUS
 10
-11.0528653412
 20
26.3530366787
 11
-11.0528653412
 21
36.030851124
  0
LINE
  5
23E
100
AcDbEntity
  8
0
100
AcDbLine
 62
7
  6
CONTINUOUS
 10
11.0528653412
 20
26.3530366787
 11
11.0528653412
 21
36.030851124
  0
LINE
  5
23F
100
AcDbEntity
  8
0
100
AcDbLine
 62
7
  6
CONTINUOUS
 10
-11.0528653412
 20
34.530851124
 11
-0.0
 21
34.530851124
  0
LINE
  5
240
100
AcDbEntity
  8
0
100
AcDbLine
 62
7
  6
CONTINUOUS
 10
11.0528653412
 20
34.530851124
 11
-0.0
 21
34.530851124
  0
INSERT
  5
241
100
AcDbEntity
  8
0
100
AcDbBlockReference
 62
7
  6
CONTINUOUS
  2
_FILLED
 10
-11.0528653412
 20
34.530851124
 41
3.0
 42
3.0
 43
3.0
 50
180.0
  0
INSERT
  5
242
100
AcDbEntity
  8
0
100
AcDbBlockReference
 62
7
  6
CONTINUOUS
  2
_FILLED
 10
11.0528653412
 20
34.530851124
 41
3.0
 42
3.0
 43
3.0
  0
ENDBLK
  5
243
100
AcDbEntity
  8
0
  6
BYBLOCK
 62
0
100
AcDbBlockEnd
  0
BLOCK
  5
244
100
AcDbEntity
  8
0
100
AcDbBlockBegin
 62
7
  6
CONTINUOUS
  2
*D3
 70
65
 10
0.0
 20
0.0
  3
*D3
  1

  0
LINE
  5
245
100
AcDbEntity
  8
0
100
AcDbLine
 62
7
  6
CONTINUOUS
 10
11.0530366787
 20
26.3528653412
 11
20.730851124
 21
26.3528653412
  0
LINE
  5
246
100
AcDbEntity
  8
0
100
AcDbLine
 62
7
  6
CONTINUOUS
 10
11.0530366787
 20
-26.3528653412
 11
20.730851124
 21
-26.3528653412
  0
LINE
  5
247
100
AcDbEntity
  8
0
100
AcDbLine
 62
7
  6
CONTINUOUS
 10
19.230851124
 20
26.3528653412
 11
19.230851124
 21
0.0
  0
LINE
  5
248
100
AcDbEntity
  8
0
100
AcDbLine
 62
7
  6
CONTINUOUS
 10
19.230851124
 20
-26.3528653412
 11
19.230851124
 21
0.0
  0
INSERT
  5
249
100
AcDbEntity
  8
0
100
AcDbBlockReference
 62
7
  6
CONTINUOUS
  2
_FILLED
 10
19.230851124
 20
26.3528653412
 41
3.0
 42
3.0
 43
3.0
 50
90.0
  0
INSERT
  5
24A
100
AcDbEntity
  8
0
100
AcDbBlockReference
 62
7
  6
CONTINUOUS
  2
_FILLED
 10
19.230851124
 20
-26.3528653412
 41
3.0
 42
3.0
 43
3.0
 50
270.0
  0
ENDBLK
  5
24B
100
AcDbEntity
  8
0
  6
BYBLOCK
 62
0
100
AcDbBlockEnd
  0
ENDSEC
  0
SECTION
  2
ENTITIES
  0
DIMENSION
  5
24C
100
AcDbEntity
  8
0
100
AcDbDimension
 62
7
  6
CONTINUOUS
  2
*D0
 10
-32.1248464405
 20
34.530851124
 11
-42.7320389217
 21
34.530851124
 70
160
 71
3
 72
2
 41
0.9
 42
4.6697475287
  3
DIMSTYLE_1
100
AcDbAlignedDimension
 13
-27.4550989119
 23
25.8530366787
 14
-32.1248464405
 24
-25.2044218162
 50
180.0
100
AcDbRotatedDimension
  0
DIMENSION
  5
24D
100
AcDbEntity
  8
0
100
AcDbDimension
 62
7
  6
CONTINUOUS
  2
*D1
 10
-32.1248464405
 20
43.1407248082
 11
-29.3185441048
 21
43.1407248082
 70
160
 71
2
 72
2
 41
0.9
 42
7.9697475287
  3
DIMSTYLE_1
100
AcDbAlignedDimension
 13
-24.1550989119
 23
-12.3968781766
 14
-32.1248464405
 24
-25.2044218162
 50
180.0
100
AcDbRotatedDimension
  0
DIMENSION
  5
24E
100
AcDbEntity
  8
0
100
AcDbDimension
 62
7
  6
CONTINUOUS
  2
*D2
 10
11.0528653412
 20
34.530851124
 11
-4.0714285714
 21
34.530851124
 70
160
 71
2
 72
2
 41
0.9
 42
22.1057306824
  3
DIMSTYLE_1
100
AcDbAlignedDimension
 13
-11.0528653412
 23
25.8530366787
 14
11.0528653412
 24
25.8530366787
100
AcDbRotatedDimension
  0
DIMENSION
  5
24F
100
AcDbEntity
  8
0
100
AcDbDimension
 62
7
  6
CONTINUOUS
  2
*D3
 10
19.230851124
 20
-26.3528653412
 11
19.230851124
 21
-4.2857142857
 70
160
 71
2
 72
2
 41
0.9
 42
52.7057306824
  3
DIMSTYLE_1
100
AcDbAlignedDimension
 13
10.5530366787
 23
26.3528653412
 14
10.5530366787
 24
-26.3528653412
 50
270.0
100
AcDbRotatedDimension
  0
LWPOLYLINE
  5
250
100
AcDbEntity
  8
0
100
AcDbPolyline
 62
7
  6
CONTINUOUS
 90
3
 70
0
 43
0.3500000006
 10
2.3571427875
 20
37.4237081909
 10
3.2142856836
 20
38.2808506622
 10
3.2142856836
 20
35.2808497467
  0
LINE
  5
251
100
AcDbEntity
  8
RACCORDO
100
AcDbLine
 62
7
  6
CONTINUOUS
 10
-10.5530366787
 20
-26.3528653412
 11
10.5530366787
 21
-26.3528653412
  0
LINE
  5
252
100
AcDbEntity
  8
RACCORDO
100
AcDbLine
 62
250
  6
CONTINUOUS
 10
10.5205507771
 20
-26.3203794396
 11
-10.5205507771
 21
-26.3203794396
  0
LINE
  5
253
100
AcDbEntity
  8
RACCORDO
100
AcDbLine
 62
250
  6
CONTINUOUS
 10
10.5181743647
 20
-26.2989189342
 11
-10.5181743647
 21
-26.2989189342
  0
LINE
  5
254
100
AcDbEntity
  8
RACCORDO
100
AcDbLine
 62
250
  6
CONTINUOUS
 10
-10.4435052632
 20
-25.693520226
 11
10.4435052632
 21
-25.693520226
  0
LINE
  5
255
100
AcDbEntity
  8
RACCORDO
100
AcDbLine
 62
250
  6
CONTINUOUS
 10
-10.4435052632
 20
-25.1521575846
 11
10.4435052632
 21
-25.1521575846
  0
LWPOLYLINE
  5
256
100
AcDbEntity
  8
RACCORDO
100
AcDbPolyline
 62
250
  6
CONTINUOUS
 90
16
 70
0
 10
-10.9433339257
 20
-25.2044218162
 10
-10.9403172629
 20
-25.2554986684
 10
-10.9318678222
 20
-25.3060168688
 10
-10.9180780359
 20
-25.3554239923
 10
-10.8990967799
 20
-25.4031840148
 10
-10.8751327003
 20
-25.4487700445
 10
-10.8464563556
 20
-25.4916722356
 10
-10.8133911088
 20
-25.5314173585
 10
-10.7762969393
 20
-25.5675818508
 10
-10.7355712095
 20
-25.5997816538
 10
-10.6916052612
 20
-25.6276957619
 10
-10.6449261826
 20
-25.6509787721
 10
-10.5962079899
 20
-25.6693242274
 10
-10.5460551271
 20
-25.6825700891
 10
-10.4949692548
 20
-25.6906470488
 10
-10.4435052632
 20
-25.693520226
  0
LWPOLYLINE
  5
257
100
AcDbEntity
  8
RACCORDO
100
AcDbPolyline
 62
250
  6
CONTINUOUS
 90
16
 70
0
 10
-11.0180030272
 20
-25.8098205244
 10
-11.0150007584
 20
-25.8607696861
 10
-11.0065927345
 20
-25.9111644918
 10
-10.9928704398
 20
-25.9604566172
 10
-10.9739831805
 20
-26.0081097358
 10
-10.9501364609
 20
-26.0536053546
 10
-10.9215897469
 20
-26.0964484551
 10
-10.8886536431
 20
-26.13617288
 10
-10.8516865131
 20
-26.1723464048
 10
-10.8110905803
 20
-26.2045754409
 10
-10.7673075518
 20
-26.232509318
 10
-10.7208138118
 20
-26.2558440995
 10
-10.6721152389
 20
-26.2743258897
 10
-10.6217417014
 20
-26.2877535961
 10
-10.570241292
 20
-26.2959811177
 10
-10.5181743647
 20
-26.2989189342
  0
LWPOLYLINE
  5
258
100
AcDbEntity
  8
RACCORDO
100
AcDbPolyline
 62
250
  6
CONTINUOUS
 90
16
 70
0
 10
-11.0203794396
 20
-25.8205507771
 10
-11.0176079341
 20
-25.8727743335
 10
-11.0093953246
 20
-25.9244262286
 10
-10.9958315081
 20
-25.9749410473
 10
-10.9770649595
 20
-26.0237658213
 10
-10.9533011065
 20
-26.0703660817
 10
-10.9248000809
 20
-26.1142317096
 10
-10.8918738706
 20
-26.1548825217
 10
-10.8548829053
 20
-26.1918735251
 10
-10.8142321118
 20
-26.2247997886
 10
-10.7703664787
 20
-26.2533008771
 10
-10.7237661873
 20
-26.2770647964
 10
-10.6749413572
 20
-26.2958314073
 10
-10.6244264579
 20
-26.3093952757
 10
-10.5727744586
 20
-26.3176079208
 10
-10.5205507771
 20
-26.3203794396
  0
LWPOLYLINE
  5
259
100
AcDbEntity
  8
RACCORDO
100
AcDbPolyline
 62
250
  6
CONTINUOUS
 90
16
 70
0
 10
-11.0132437251
 20
25.8134150626
 10
-11.0104557606
 20
25.8657940376
 10
-11.0021943512
 20
25.9175962153
 10
-10.9885504711
 20
25.9682511464
 10
-10.9696717815
 20
26.0172067959
 10
-10.9457675487
 20
26.0639177387
 10
-10.9171122688
 20
26.1078541194
 10
-10.8840348897
 20
26.1485261269
 10
-10.8468972612
 20
26.1855014262
 10
-10.8060959292
 20
26.2183893375
 10
-10.762014426
 20
26.2468656055
 10
-10.7151938467
 20
26.270566676
 10
-10.6663444548
 20
26.2891687618
 10
-10.6160895555
 20
26.3025140488
 10
-10.5649267792
 20
26.3105469765
 10
-10.5134150626
 20
26.3132437251
  0
LINE
  5
25A
100
AcDbEntity
  8
RACCORDO
100
AcDbLine
 62
250
  6
CONTINUOUS
 10
-10.9433339257
 20
-25.2044218162
 11
-10.999881972
 21
-4.069206719
  0
LINE
  5
25B
100
AcDbEntity
  8
RACCORDO
100
AcDbLine
 62
250
  6
CONTINUOUS
 10
-10.999881972
 20
-4.069206719
 11
-11.0077342273
 21
0.404448446
  0
LINE
  5
25C
100
AcDbEntity
  8
RACCORDO
100
AcDbLine
 62
250
  6
CONTINUOUS
 10
-10.5000533095
 20
-4.0286157366
 11
-10.5079055649
 21
0.4298418583
  0
LINE
  5
25D
100
AcDbEntity
  8
RACCORDO
100
AcDbLine
 62
250
  6
CONTINUOUS
 10
-11.0077342273
 20
0.404448446
 11
-11.0122265547
 21
5.6041845376
  0
LINE
  5
25E
100
AcDbEntity
  8
RACCORDO
100
AcDbLine
 62
250
  6
CONTINUOUS
 10
-10.5079055649
 20
0.4298418583
 11
-10.5123978922
 21
5.6129760211
  0
LINE
  5
25F
100
AcDbEntity
  8
RACCORDO
100
AcDbLine
 62
7
  6
CONTINUOUS
 10
-11.0528653412
 20
25.8530366787
 11
-11.0528653412
 21
-25.8530366787
  0
LINE
  5
260
100
AcDbEntity
  8
RACCORDO
100
AcDbLine
 62
250
  6
CONTINUOUS
 10
-11.0122265547
 20
5.6041845376
 11
-11.0132437251
 21
25.8134150626
  0
LINE
  5
261
100
AcDbEntity
  8
RACCORDO
100
AcDbLine
 62
250
  6
CONTINUOUS
 10
-10.5123978922
 20
5.6129760211
 11
-10.5134150626
 21
26.3132437251
  0
LINE
  5
262
100
AcDbEntity
  8
RACCORDO
100
AcDbLine
 62
250
  6
CONTINUOUS
 10
-10.4435052632
 20
-25.693520226
 11
-10.5000533095
 21
-4.0286157366
  0
LWPOLYLINE
  5
263
100
AcDbEntity
  8
0
100
AcDbPolyline
 62
7
  6
CONTINUOUS
 90
3
 70
0
 43
0.3500000006
 10
1.3571429071
 20
35.5665654144
 10
1.2857142735
 20
35.3522809296
 10
1.1428571477
 20
35.0665652618
  0
LINE
  5
264
100
AcDbEntity
  8
RACCORDO
100
AcDbLine
 62
250
  6
CONTINUOUS
 10
10.5530366787
 20
26.3528653412
 11
10.5134150626
 21
26.3132437251
  0
LINE
  5
265
100
AcDbEntity
  8
RACCORDO
100
AcDbLine
 62
250
  6
CONTINUOUS
 10
11.0528653412
 20
25.8530366787
 11
11.0132437251
 21
25.8134150626
  0
LINE
  5
266
100
AcDbEntity
  8
RACCORDO
100
AcDbLine
 62
250
  6
CONTINUOUS
 10
-10.4845635678
 20
-10.2340775349
 11
10.4845635678
 21
-10.2340775349
  0
LINE
  5
267
100
AcDbEntity
  8
RACCORDO
100
AcDbLine
 62
250
  6
CONTINUOUS
 10
10.5205507771
 20
-26.3203794396
 11
10.5530366787
 21
-26.3528653412
  0
LINE
  5
268
100
AcDbEntity
  8
RACCORDO
100
AcDbLine
 62
250
  6
CONTINUOUS
 10
11.0203794396
 20
-25.8205507771
 11
11.0528653412
 21
-25.8530366787
  0
LINE
  5
269
100
AcDbEntity
  8
RACCORDO
100
AcDbLine
 62
250
  6
CONTINUOUS
 10
-11.0180030272
 20
-25.8098205244
 11
-10.9433339257
 21
-25.2044218162
  0
LINE
  5
26A
100
AcDbEntity
  8
RACCORDO
100
AcDbLine
 62
250
  6
CONTINUOUS
 10
-10.5181743647
 20
-26.2989189342
 11
-10.4435052632
 21
-25.693520226
  0
LWPOLYLINE
  5
26B
100
AcDbEntity
  8
RACCORDO
100
AcDbPolyline
 62
250
  6
CONTINUOUS
 90
16
 70
0
 10
10.9433339257
 20
-25.2044218162
 10
10.9393312936
 20
-25.1990339519
 10
10.9300488954
 20
-25.1937034711
 10
10.9155856063
 20
-25.1884871345
 10
10.8960935712
 20
-25.1834400593
 10
10.8717814431
 20
-25.1786164532
 10
10.8429162354
 20
-25.1740688272
 10
10.8098145022
 20
-25.1698460283
 10
10.7728270553
 20
-25.1659919162
 10
10.7323398679
 20
-25.1625463813
 10
10.6887315277
 20
-25.1595428195
 10
10.6425116892
 20
-25.1570174288
 10
10.5943317287
 20
-25.1550027627
 10
10.544774042
 20
-25.1535164672
 10
10.4943206434
 20
-25.1525665295
 10
10.4435052632
 20
-25.1521575846
  0
LINE
  5
26C
100
AcDbEntity
  8
0
100
AcDbLine
 62
7
  6
CONTINUOUS
 10
-5.0
 20
4.5
 11
-5.0
 21
-4.5
  0
LINE
  5
26D
100
AcDbEntity
  8
0
100
AcDbLine
 62
7
  6
CONTINUOUS
 10
-4.5
 20
-5.0
 11
4.5
 21
-5.0
  0
LWPOLYLINE
  5
26E
100
AcDbEntity
  8
RACCORDO
100
AcDbPolyline
 62
250
  6
CONTINUOUS
 90
16
 70
0
 10
-10.9843922303
 20
-10.2863417665
 10
-10.9804059056
 20
-10.2809671473
 10
-10.9711654667
 20
-10.2756494702
 10
-10.9567688298
 20
-10.2704450841
 10
-10.9373685479
 20
-10.2654091371
 10
-10.9131701939
 20
-10.260594992
 10
-10.8844301826
 20
-10.2560536602
 10
-10.8514530538
 20
-10.251833263
 10
-10.814588245
 20
-10.2479785215
 10
-10.7742263877
 20
-10.2445302818
 10
-10.7307951703
 20
-10.241525082
 10
-10.6847548046
 20
-10.2389947662
 10
-10.6365931486
 20
-10.236966147
 10
-10.5868205387
 20
-10.2354607201
 10
-10.5359643823
 20
-10.2344944367
 10
-10.4845635678
 20
-10.2340775349
  0
LWPOLYLINE
  5
26F
100
AcDbEntity
  8
RACCORDO
100
AcDbPolyline
 62
250
  6
CONTINUOUS
 90
10
 70
0
 10
-10.5205507771
 20
-26.3203794396
 10
-10.5202845047
 20
-26.3196404454
 10
-10.5200187372
 20
-26.3184885034
 10
-10.5197534745
 20
-26.3169242192
 10
-10.5194886477
 20
-26.3149486684
 10
-10.5192243257
 20
-26.3125626092
 10
-10.5189607157
 20
-26.3097659174
 10
-10.5186978867
 20
-26.3065589014
 10
-10.5184357697
 20
-26.3029428668
 10
-10.5181743647
 20
-26.2989189342
  0
LWPOLYLINE
  5
270
100
AcDbEntity
  8
0
100
AcDbPolyline
 62
7
  6
CONTINUOUS
 90
4
 70
0
 43
0.3500000006
 10
16.1237088089
 20
1.928571373
 10
15.4808508224
 20
1.928571373
 10
15.4808508224
 20
3.4285718307
 10
18.480850605
 20
2.5714293594
  0
LWPOLYLINE
  5
271
100
AcDbEntity
  8
RACCORDO
100
AcDbPolyline
 62
250
  6
CONTINUOUS
 90
16
 70
0
 10
10.9843922303
 20
-10.2863417665
 10
10.9804059091
 20
-10.2809670748
 10
10.9711654778
 20
-10.275649335
 10
10.9567688511
 20
-10.2704448958
 10
10.9373685806
 20
-10.2654089052
 10
10.9131702378
 20
-10.260594726
 10
10.8844302365
 20
-10.2560533711
 10
10.8514531153
 20
-10.251832962
 10
10.8145883106
 20
-10.2479782197
 10
10.7742264543
 20
-10.2445299903
 10
10.7307952338
 20
-10.2415248123
 10
10.6847548609
 20
-10.2389945297
 10
10.6365931945
 20
-10.2369659541
 10
10.5868205718
 20
-10.235460581
 10
10.5359644
 20
-10.2344943618
 10
10.4845635678
 20
-10.2340775349
  0
LINE
  5
272
100
AcDbEntity
  8
0
100
AcDbLine
 62
7
  6
CONTINUOUS
 10
5.0
 20
4.5
 11
5.0
 21
-4.5
  0
LINE
  5
273
100
AcDbEntity
  8
0
100
AcDbLine
 62
7
  6
CONTINUOUS
 10
-4.5
 20
5.0
 11
4.5
 21
5.0
  0
LWPOLYLINE
  5
274
100
AcDbEntity
  8
RACCORDO
100
AcDbPolyline
 62
250
  6
CONTINUOUS
 90
10
 70
0
 10
-11.0203794396
 20
-25.8205507771
 10
-11.0201131795
 20
-25.8201806337
 10
-11.0198474182
 20
-25.8196047637
 10
-11.0195821555
 20
-25.8188231669
 10
-11.0193173184
 20
-25.8178355767
 10
-11.01905298
 20
-25.8166422597
 10
-11.0187893598
 20
-25.815244016
 10
-11.0185265308
 20
-25.8136411122
 10
-11.0182644199
 20
-25.8118332817
 10
-11.0180030272
 20
-25.8098205244
  0
LWPOLYLINE
  5
275
100
AcDbEntity
  8
RACCORDO
100
AcDbPolyline
 62
250
  6
CONTINUOUS
 90
16
 70
0
 10
-10.9433339257
 20
-25.2044218162
 10
-10.9393316134
 20
-25.1990342099
 10
-10.9300500133
 20
-25.1937039677
 10
-10.9155879502
 20
-25.1884878431
 10
-10.896097451
 20
-25.1834409335
 10
-10.8717871371
 20
-25.1786174567
 10
-10.8429242058
 20
-25.1740699553
 10
-10.8098257103
 20
-25.1698473199
 10
-10.7728421004
 20
-25.1659933338
 10
-10.7323579702
 20
-25.1625477697
 10
-10.6887512214
 20
-25.1595440317
 10
-10.6425315726
 20
-25.1570183848
 10
-10.5943498372
 20
-25.1550034109
 10
-10.544788162
 20
-25.1535168109
 10
-10.4943286893
 20
-25.1525666373
 10
-10.4435052632
 20
-25.1521575846
  0
LWPOLYLINE
  5
276
100
AcDbEntity
  8
0
100
AcDbPolyline
 62
7
  6
CONTINUOUS
 90
10
 70
0
 43
0.3500000006
 10
17.9808515854
 20
0.8571421509
 10
18.1237082863
 20
0.9285710678
 10
18.1951372032
 20
0.9285710678
 10
18.3379939041
 20
0.7857132339
 10
18.3379939041
 20
0.7142865829
 10
18.2665649872
 20
0.642857666
 10
18.1951372032
 20
0.642857666
 10
18.0522793694
 20
0.7142865829
 10
17.9808515854
 20
0.7857132339
 10
17.9808515854
 20
0.8571421509
  0
LWPOLYLINE
  5
277
100
AcDbEntity
  8
0
100
AcDbPolyline
 62
7
  6
CONTINUOUS
 90
3
 70
0
 43
0.3500000006
 10
18.1951372032
 20
0.9285710678
 10
18.409422821
 20
0.8571421509
 10
18.6951373558
 20
0.7142865829
  0
LWPOLYLINE
  5
278
100
AcDbEntity
  8
RACCORDO
100
AcDbPolyline
 62
250
  6
CONTINUOUS
 90
10
 70
0
 10
11.0180030272
 20
-25.8098205244
 10
11.0182641283
 20
-25.8118314461
 10
11.0185260202
 20
-25.8136380283
 10
11.0187887029
 20
-25.8152402711
 10
11.0190522491
 20
-25.8166386123
 10
11.019316586
 20
-25.8178326141
 10
11.0195814954
 20
-25.8188209628
 10
11.0198469044
 20
-25.8196032206
 10
11.0201128858
 20
-25.8201798254
 10
11.0203794396
 20
-25.8205507771
  0
LINE
  5
279
100
AcDbEntity
  8
RACCORDO
100
AcDbLine
 62
250
  6
CONTINUOUS
 10
10.4435052632
 20
-25.693520226
 11
10.5181743647
 21
-26.2989189342
  0
LINE
  5
27A
100
AcDbEntity
  8
RACCORDO
100
AcDbLine
 62
250
  6
CONTINUOUS
 10
10.9433339257
 20
-25.2044218162
 11
11.0180030272
 21
-25.8098205244
  0
LWPOLYLINE
  5
27B
100
AcDbEntity
  8
RACCORDO
100
AcDbPolyline
 62
250
  6
CONTINUOUS
 90
10
 70
0
 10
10.5181743647
 20
-26.2989189342
 10
10.5184354781
 20
-26.3029386317
 10
10.5186973761
 20
-26.3065522816
 10
10.5189600588
 20
-26.3097584276
 10
10.5192235947
 20
-26.312555427
 10
10.5194879152
 20
-26.3149426285
 10
10.5197528144
 20
-26.3169198111
 10
10.5200182234
 20
-26.3184858739
 10
10.5202842109
 20
-26.3196393998
 10
10.5205507771
 20
-26.3203794396
  0
LINE
  5
27C
100
AcDbEntity
  8
RACCORDO
100
AcDbLine
 62
7
  6
CONTINUOUS
 10
11.0528653412
 20
25.8530366787
 11
11.0528653412
 21
-25.8530366787
  0
LINE
  5
27D
100
AcDbEntity
  8
RACCORDO
100
AcDbLine
 62
250
  6
CONTINUOUS
 10
10.5134150626
 20
26.3132437251
 11
10.5131061475
 21
7.7187544808
  0
LINE
  5
27E
100
AcDbEntity
  8
RACCORDO
100
AcDbLine
 62
250
  6
CONTINUOUS
 10
11.0132437251
 20
25.8134150626
 11
11.01293481
 21
7.7145018651
  0
LINE
  5
27F
100
AcDbEntity
  8
RACCORDO
100
AcDbLine
 62
250
  6
CONTINUOUS
 10
10.5131061475
 20
7.7187544808
 11
10.5095663279
 21
1.8153531225
  0
LINE
  5
280
100
AcDbEntity
  8
RACCORDO
100
AcDbLine
 62
250
  6
CONTINUOUS
 10
11.01293481
 20
7.7145018651
 11
11.0093949903
 21
1.7951110427
  0
LINE
  5
281
100
AcDbEntity
  8
RACCORDO
100
AcDbLine
 62
250
  6
CONTINUOUS
 10
10.5095663279
 20
1.8153531225
 11
10.4999047379
 21
-4.0984209729
  0
LINE
  5
282
100
AcDbEntity
  8
RACCORDO
100
AcDbLine
 62
250
  6
CONTINUOUS
 10
11.0093949903
 20
1.7951110427
 11
10.9997334003
 21
-4.1392137694
  0
LINE
  5
283
100
AcDbEntity
  8
RACCORDO
100
AcDbLine
 62
250
  6
CONTINUOUS
 10
10.4999047379
 20
-4.0984209729
 11
10.4845635678
 21
-10.2340775349
  0
LINE
  5
284
100
AcDbEntity
  8
RACCORDO
100
AcDbLine
 62
250
  6
CONTINUOUS
 10
10.4845635678
 20
-10.2340775349
 11
10.4435052632
 21
-25.693520226
  0
LINE
  5
285
100
AcDbEntity
  8
RACCORDO
100
AcDbLine
 62
250
  6
CONTINUOUS
 10
10.9997334003
 20
-4.1392137694
 11
10.9433339257
 21
-25.2044218162
  0
LINE
  5
286
100
AcDbEntity
  8
RACCORDO
100
AcDbLine
 62
250
  6
CONTINUOUS
 10
-11.0528653412
 20
-25.8530366787
 11
-11.0203794396
 21
-25.8205507771
  0
LINE
  5
287
100
AcDbEntity
  8
RACCORDO
100
AcDbLine
 62
250
  6
CONTINUOUS
 10
-10.5530366787
 20
-26.3528653412
 11
-10.5205507771
 21
-26.3203794396
  0
LINE
  5
288
100
AcDbEntity
  8
RACCORDO
100
AcDbLine
 62
250
  6
CONTINUOUS
 10
11.0132437251
 20
10.7371426949
 11
-11.0132437251
 21
10.7371426949
  0
LINE
  5
289
100
AcDbEntity
  8
RACCORDO
100
AcDbLine
 62
250
  6
CONTINUOUS
 10
-11.0132437251
 20
25.8134150626
 11
-11.0528653412
 21
25.8530366787
  0
LINE
  5
28A
100
AcDbEntity
  8
RACCORDO
100
AcDbLine
 62
250
  6
CONTINUOUS
 10
-10.5134150626
 20
26.3132437251
 11
-10.5530366787
 21
26.3528653412
  0
LWPOLYLINE
  5
28B
100
AcDbEntity
  8
RACCORDO
100
AcDbPolyline
 62
250
  6
CONTINUOUS
 90
16
 70
0
 10
11.0132437251
 20
25.8134150626
 10
11.01045539
 20
25.8657975315
 10
11.0021929183
 20
25.9176029172
 10
10.9885473613
 20
25.9682606712
 10
10.9696665657
 20
26.0172184586
 10
10.9457598445
 20
26.0639310247
 10
10.9171013786
 20
26.1078690436
 10
10.8840193212
 20
26.1485433419
 10
10.8468760531
 20
26.1855204357
 10
10.8060702069
 20
26.2184079346
 10
10.761986418
 20
26.2468816807
 10
10.7151656414
 20
26.2705791398
 10
10.6663188279
 20
26.2891770144
 10
10.6160695894
 20
26.3025182528
 10
10.5649154114
 20
26.3105481619
 10
10.5134150624
 20
26.3132437249
  0
LWPOLYLINE
  5
28C
100
AcDbEntity
  8
RACCORDO
100
AcDbPolyline
 62
250
  6
CONTINUOUS
 90
16
 70
0
 10
11.0203794396
 20
-25.8205507771
 10
11.0176079267
 20
-25.8727744031
 10
11.0093952977
 20
-25.9244263548
 10
10.9958314533
 20
-25.9749412157
 10
10.9770648724
 20
-26.0237660168
 10
10.9533009864
 20
-26.0703662895
 10
10.9247999305
 20
-26.1142319165
 10
10.8918736961
 20
-26.1548827155
 10
10.8548827155
 20
-26.1918736961
 10
10.8142319165
 20
-26.2247999305
 10
10.7703662895
 20
-26.2533009864
 10
10.7237660168
 20
-26.2770648724
 10
10.6749412157
 20
-26.2958314533
 10
10.6244263548
 20
-26.3093952977
 10
10.5727744031
 20
-26.3176079267
 10
10.5205507771
 20
-26.3203794396
  0
LWPOLYLINE
  5
28D
100
AcDbEntity
  8
RACCORDO
100
AcDbPolyline
 62
250
  6
CONTINUOUS
 90
16
 70
0
 10
11.0180030272
 20
-25.8098205244
 10
11.0150007609
 20
-25.8607696639
 10
11.0065927434
 20
-25.9111644516
 10
10.9928704578
 20
-25.9604565636
 10
10.9739832091
 20
-26.0081096736
 10
10.9501365002
 20
-26.0536052883
 10
10.9215897961
 20
-26.0964483891
 10
10.8886537001
 20
-26.1361728181
 10
10.8516865751
 20
-26.1723463501
 10
10.8110906441
 20
-26.2045753954
 10
10.7673076135
 20
-26.2325092829
 10
10.7208138675
 20
-26.255844075
 10
10.6721152852
 20
-26.2743258748
 10
10.6217417351
 20
-26.287753589
 10
10.5702413102
 20
-26.2959811157
 10
10.5181743647
 20
-26.2989189342
  0
LWPOLYLINE
  5
28E
100
AcDbEntity
  8
RACCORDO
100
AcDbPolyline
 62
250
  6
CONTINUOUS
 90
16
 70
0
 10
10.9433339257
 20
-25.2044218162
 10
10.9403175415
 20
-25.2554962
 10
10.931868878
 20
-25.3060121247
 10
10.9180803146
 20
-25.3554172354
 10
10.8991006014
 20
-25.4031757082
 10
10.8751383506
 20
-25.4487605464
 10
10.8464643259
 20
-25.4916615669
 10
10.8134024307
 20
-25.5314051086
 10
10.7763122704
 20
-25.567568382
 10
10.7355897476
 20
-25.5997684932
 10
10.6916254483
 20
-25.6276843594
 10
10.6449465425
 20
-25.6509698912
 10
10.5962265131
 20
-25.669318313
 10
10.546069567
 20
-25.6825670501
 10
10.4949774801
 20
-25.6906461719
 10
10.4435052632
 20
-25.693520226
  0
LWPOLYLINE
  5
28F
100
AcDbEntity
  8
0
100
AcDbPolyline
 62
7
  6
CONTINUOUS
 90
10
 70
0
 43
0.3500000006
 10
1.2857142735
 20
35.7808498993
 10
1.3571429071
 20
35.6379920654
 10
1.3571429071
 20
35.5665654144
 10
1.2142857814
 20
35.4237075806
 10
1.1428571477
 20
35.4237075806
 10
1.0714285848
 20
35.4951387634
 10
1.0714285848
 20
35.5665654144
 10
1.1428571477
 20
35.7094232483
 10
1.2142857814
 20
35.7808498993
 10
1.2857142735
 20
35.7808498993
  0
LWPOLYLINE
  5
290
100
AcDbEntity
  8
0
100
AcDbPolyline
 62
7
  6
CONTINUOUS
 90
7
 70
0
 43
0.3500000006
 10
18.480850605
 20
-0.642856041
 10
18.480850605
 20
-2.1428576317
 10
16.3379944267
 20
-0.642856041
 10
15.9094220581
 20
-0.642856041
 10
15.4808508224
 20
-1.0714295425
 10
15.4808508224
 20
-1.7142852631
 10
16.1237088089
 20
-2.1428576317
  0
LWPOLYLINE
  5
291
100
AcDbEntity
  8
0
100
AcDbPolyline
 62
7
  6
CONTINUOUS
 90
8
 70
0
 43
0.3500000006
 10
18.480850605
 20
-4.28571381
 10
18.480850605
 20
-3.4285713387
 10
18.0522793694
 20
-3.000000103
 10
17.195136898
 20
-3.000000103
 10
16.7665656624
 20
-3.4285713387
 10
16.7665656624
 20
-4.28571381
 10
15.4808508224
 20
-4.28571381
 10
15.4808508224
 20
-3.000000103
  0
LINE
  5
292
100
AcDbEntity
  8
RACCORDO
100
AcDbLine
 62
250
  6
CONTINUOUS
 10
11.0132437251
 20
25.8134150626
 11
-11.0132437251
 21
25.8134150626
  0
LINE
  5
293
100
AcDbEntity
  8
RACCORDO
100
AcDbLine
 62
250
  6
CONTINUOUS
 10
10.5134150626
 20
26.3132437251
 11
-10.5134150626
 21
26.3132437251
  0
LINE
  5
294
100
AcDbEntity
  8
RACCORDO
100
AcDbLine
 62
7
  6
CONTINUOUS
 10
-10.5530366787
 20
26.3528653412
 11
10.5530366787
 21
26.3528653412
  0
LWPOLYLINE
  5
295
100
AcDbEntity
  8
0
100
AcDbPolyline
 62
7
  6
CONTINUOUS
 90
7
 70
0
 43
0.3500000006
 10
-0.2142857063
 20
35.2808497467
 10
-1.7142856507
 20
35.2808497467
 10
-0.2142857063
 20
37.4237081909
 10
-0.2142857063
 20
37.8522816925
 10
-0.6428571367
 20
38.2808506622
 10
-1.2857142735
 20
38.2808506622
 10
-1.7142856507
 20
37.6379926758
  0
LWPOLYLINE
  5
296
100
AcDbEntity
  8
0
100
AcDbPolyline
 62
7
  6
CONTINUOUS
 90
7
 70
0
 43
0.3500000006
 10
-2.5714285469
 20
35.2808497467
 10
-4.0714284382
 20
35.2808497467
 10
-2.5714285469
 20
37.4237081909
 10
-2.5714285469
 20
37.8522816925
 10
-3.0000000658
 20
38.2808506622
 10
-3.6428572025
 20
38.2808506622
 10
-4.0714284382
 20
37.6379926758
  0
LINE
  5
297
100
AcDbEntity
  8
RACCORDO
100
AcDbLine
 62
7
  6
CONTINUOUS
 10
-28.6956854436
 20
-26.3203794396
 11
-27.4550989119
 21
-26.3528653412
  0
LINE
  5
298
100
AcDbEntity
  8
RACCORDO
100
AcDbLine
 62
250
  6
CONTINUOUS
 10
-28.6956854436
 20
-25.8205507771
 11
-27.4550989119
 21
-25.8530366787
  0
LINE
  5
299
100
AcDbEntity
  8
RACCORDO
100
AcDbLine
 62
250
  6
CONTINUOUS
 10
-31.6379349147
 20
-25.2044218162
 11
-32.0582630471
 21
-25.1595428195
  0
LWPOLYLINE
  5
29A
100
AcDbEntity
  8
RACCORDO
100
AcDbPolyline
 62
250
  6
CONTINUOUS
 90
5
 70
0
 10
-32.0582630471
 20
-25.1595428195
 10
-32.0989868569
 20
-25.1550027627
 10
-32.1118303005
 20
-25.1535164672
 10
-32.1195471848
 20
-25.1525665295
 10
-32.1221073882
 20
-25.1521575846
  0
LWPOLYLINE
  5
29B
100
AcDbEntity
  8
RACCORDO
100
AcDbPolyline
 62
250
  6
CONTINUOUS
 90
10
 70
0
 10
-28.786436969
 20
-25.8098205244
 10
-28.7764659195
 20
-25.8118314461
 10
-28.766464672
 20
-25.8136380283
 10
-28.7564332265
 20
-25.8152402711
 10
-28.7463688033
 20
-25.8166386123
 10
-28.7362741821
 20
-25.8178326141
 10
-28.7261577017
 20
-25.8188209628
 10
-28.7160221416
 20
-25.8196032206
 10
-28.7058647222
 20
-25.8201798254
 10
-28.6956854436
 20
-25.8205507771
  0
LINE
  5
29C
100
AcDbEntity
  8
RACCORDO
100
AcDbLine
 62
7
  6
CONTINUOUS
 10
-31.7286864401
 20
-25.693520226
 11
-28.8771884945
 21
-26.2989189342
  0
LINE
  5
29D
100
AcDbEntity
  8
RACCORDO
100
AcDbLine
 62
250
  6
CONTINUOUS
 10
-31.6379349147
 20
-25.2044218162
 11
-28.786436969
 21
-25.8098205244
  0
LWPOLYLINE
  5
29E
100
AcDbEntity
  8
0
100
AcDbPolyline
 62
7
  6
CONTINUOUS
 90
3
 70
0
 43
0.3500000006
 10
-39.6606121216
 20
35.5665654144
 10
-39.7320387726
 20
35.3522809296
 10
-39.8748966064
 20
35.0665652618
  0
LWPOLYLINE
  5
29F
100
AcDbEntity
  8
RACCORDO
100
AcDbPolyline
 62
7
  6
CONTINUOUS
 90
6
 70
0
 10
-25.8284582363
 20
20.4936437782
 10
-25.7896379609
 20
20.5171724265
 10
-25.7750155131
 20
20.5265911802
 10
-25.7641078934
 20
20.5350123489
 10
-25.7573797149
 20
20.5427506142
 10
-25.7550989119
 20
20.5502286569
  0
LWPOLYLINE
  5
2A0
100
AcDbEntity
  8
0
100
AcDbPolyline
 62
7
  6
CONTINUOUS
 90
2
 70
0
 43
0.3500000006
 10
-41.7320393829
 20
35.2808497467
 10
-41.7320393829
 20
36.7808502045
  0
LWPOLYLINE
  5
2A1
100
AcDbEntity
  8
RACCORDO
100
AcDbPolyline
 62
250
  6
CONTINUOUS
 90
4
 70
0
 10
-26.1255875781
 20
21.424555347
 10
-26.1168190894
 20
21.433489689
 10
-26.111565765
 20
21.4389809554
 10
-26.1099168118
 20
21.440935901
  0
LWPOLYLINE
  5
2A2
100
AcDbEntity
  8
RACCORDO
100
AcDbPolyline
 62
250
  6
CONTINUOUS
 90
4
 70
0
 10
-25.9141440536
 20
21.2093897535
 10
-25.9053757799
 20
21.2183238581
 10
-25.9001226
 20
21.2238149491
 10
-25.8984736873
 20
21.2257698144
  0
LINE
  5
2A3
100
AcDbEntity
  8
RACCORDO
100
AcDbLine
 62
250
  6
CONTINUOUS
 10
-26.153017407
 20
21.397020063
 11
-26.1255875781
 21
21.424555347
  0
LINE
  5
2A4
100
AcDbEntity
  8
RACCORDO
100
AcDbLine
 62
250
  6
CONTINUOUS
 10
-25.9415733691
 20
21.1818550055
 11
-25.9141440536
 21
21.2093897535
  0
LINE
  5
2A5
100
AcDbEntity
  8
RACCORDO
100
AcDbLine
 62
250
  6
CONTINUOUS
 10
-26.2399004941
 20
21.3108289413
 11
-26.153017407
 21
21.397020063
  0
LINE
  5
2A6
100
AcDbEntity
  8
RACCORDO
100
AcDbLine
 62
250
  6
CONTINUOUS
 10
-26.0284561915
 20
21.0956641086
 11
-25.9415733691
 21
21.1818550055
  0
LINE
  5
2A7
100
AcDbEntity
  8
RACCORDO
100
AcDbLine
 62
250
  6
CONTINUOUS
 10
-26.3212739859
 20
21.2306631217
 11
-26.2399004941
 21
21.3108289413
  0
LINE
  5
2A8
100
AcDbEntity
  8
RACCORDO
100
AcDbLine
 62
250
  6
CONTINUOUS
 10
-26.1098308614
 20
21.0154970351
 11
-26.0284561915
 21
21.0956641086
  0
LWPOLYLINE
  5
2A9
100
AcDbEntity
  8
RACCORDO
100
AcDbPolyline
 62
7
  6
CONTINUOUS
 90
4
 70
0
 10
-25.9037899315
 20
20.4407598898
 10
-25.8773363563
 20
20.4610271908
 10
-25.8519761834
 20
20.4785905708
 10
-25.8284582363
 20
20.4936437782
  0
LINE
  5
2AA
100
AcDbEntity
  8
DRAFT
100
AcDbLine
 62
7
  6
CONTINUOUS
 10
-27.4550989119
 20
-15.05
 11
-26.2550989119
 21
-14.794932126
  0
LINE
  5
2AB
100
AcDbEntity
  8
RACCORDO
100
AcDbLine
 62
7
  6
CONTINUOUS
 10
-24.6115210405
 20
-14.6012191724
 11
-24.7664237773
 21
-14.6147714058
  0
LINE
  5
2AC
100
AcDbEntity
  8
DRAFT
100
AcDbLine
 62
7
  6
CONTINUOUS
 10
-24.7664237773
 20
-14.6147714058
 11
-27.4550989119
 21
-14.85
  0
LWPOLYLINE
  5
2AD
100
AcDbEntity
  8
0
100
AcDbPolyline
 62
7
  6
CONTINUOUS
 90
4
 70
0
 43
0.3500000006
 10
-38.6606118164
 20
37.6379926758
 10
-38.6606118164
 20
38.2808506622
 10
-37.1606113586
 20
38.2808506622
 10
-38.01775383
 20
35.2808497467
  0
LINE
  5
2AE
100
AcDbEntity
  8
RACCORDO
100
AcDbLine
 62
7
  6
CONTINUOUS
 10
-24.6115210405
 20
-11.8987808276
 11
-24.7664237773
 21
-11.8852285942
  0
LINE
  5
2AF
100
AcDbEntity
  8
DRAFT
100
AcDbLine
 62
7
  6
CONTINUOUS
 10
-24.7664237773
 20
-11.8852285942
 11
-27.4550989119
 21
-11.65
  0
LINE
  5
2B0
100
AcDbEntity
  8
RACCORDO
100
AcDbLine
 62
250
  6
CONTINUOUS
 10
-30.1713668551
 20
-10.275649335
 11
-30.4897456845
 21
-10.2415248123
  0
LWPOLYLINE
  5
2B1
100
AcDbEntity
  8
RACCORDO
100
AcDbPolyline
 62
250
  6
CONTINUOUS
 90
5
 70
0
 10
-30.4897456845
 20
-10.2415248123
 10
-30.5306535562
 20
-10.2369659541
 10
-30.5436728827
 20
-10.235460581
 10
-30.5515341284
 20
-10.2344943618
 10
-30.554153993
 20
-10.2340775349
  0
LINE
  5
2B2
100
AcDbEntity
  8
DRAFT
100
AcDbLine
 62
7
  6
CONTINUOUS
 10
-27.4550989119
 20
-11.45
 11
-26.2550989119
 21
-11.705067874
  0
LINE
  5
2B3
100
AcDbEntity
  8
RACCORDO
100
AcDbLine
 62
250
  6
CONTINUOUS
 10
-30.0699815194
 20
-10.2863417665
 11
-30.1713668551
 21
-10.275649335
  0
LWPOLYLINE
  5
2B4
100
AcDbEntity
  8
RACCORDO
100
AcDbPolyline
 62
250
  6
CONTINUOUS
 90
7
 70
0
 10
-26.2826075692
 20
23.1807065509
 10
-26.2799554524
 20
23.1976928711
 10
-26.2778084802
 20
23.2120194347
 10
-26.2762032465
 20
23.2234420536
 10
-26.2751671117
 20
23.2317660362
 10
-26.2747177359
 20
23.2368495048
 10
-26.2748627786
 20
23.2386058148
  0
LINE
  5
2B5
100
AcDbEntity
  8
RACCORDO
100
AcDbLine
 62
250
  6
CONTINUOUS
 10
-26.2892385819
 20
23.1399531271
 11
-26.2826075692
 21
23.1807065509
  0
LINE
  5
2B6
100
AcDbEntity
  8
RACCORDO
100
AcDbLine
 62
250
  6
CONTINUOUS
 10
-26.297251358
 20
23.0925257963
 11
-26.2892385819
 21
23.1399531271
  0
LINE
  5
2B7
100
AcDbEntity
  8
RACCORDO
100
AcDbLine
 62
250
  6
CONTINUOUS
 10
-26.3061019329
 20
23.0416442642
 11
-26.297251358
 21
23.0925257963
  0
LINE
  5
2B8
100
AcDbEntity
  8
RACCORDO
100
AcDbLine
 62
250
  6
CONTINUOUS
 10
-28.968187386
 20
25.8134150626
 11
-28.9706262655
 21
25.9176029172
  0
LINE
  5
2B9
100
AcDbEntity
  8
RACCORDO
100
AcDbLine
 62
250
  6
CONTINUOUS
 10
-28.9706262655
 20
25.9176029172
 11
-28.9723830577
 21
26.0172184586
  0
LWPOLYLINE
  5
2BA
100
AcDbEntity
  8
RACCORDO
100
AcDbPolyline
 62
250
  6
CONTINUOUS
 90
11
 70
0
 10
-28.9723830577
 20
26.0172184586
 10
-28.9733803589
 20
26.1078690436
 10
-28.9735791688
 20
26.1485433419
 10
-28.9735748173
 20
26.1855204357
 10
-28.9733674681
 20
26.2184079346
 10
-28.9729587045
 20
26.2468816807
 10
-28.9723531989
 20
26.2705791398
 10
-28.971561103
 20
26.2891770144
 10
-28.9705946345
 20
26.3025182528
 10
-28.969465388
 20
26.3105481619
 10
-28.9681873926
 20
26.3132437249
  0
LWPOLYLINE
  5
2BB
100
AcDbEntity
  8
0
100
AcDbPolyline
 62
7
  6
CONTINUOUS
 90
4
 70
0
 43
0.3500000006
 10
-29.3185442505
 20
44.3192962646
 10
-29.3185442505
 20
45.176438736
 10
-28.8899730148
 20
45.6050122375
 10
-28.2471150284
 20
45.6050122375
  0
LWPOLYLINE
  5
2BC
100
AcDbEntity
  8
RACCORDO
100
AcDbPolyline
 62
250
  6
CONTINUOUS
 90
9
 70
0
 10
-28.7010751922
 20
-26.1548827155
 10
-28.7010751922
 20
-26.1918736961
 10
-28.7008729174
 20
-26.2247999305
 10
-28.7004705819
 20
-26.2533009864
 10
-28.6998725901
 20
-26.2770648724
 10
-28.6990854879
 20
-26.2958314533
 10
-28.6981178915
 20
-26.3093952977
 10
-28.6969803928
 20
-26.3176079267
 10
-28.6956854436
 20
-26.3203794396
  0
LINE
  5
2BD
100
AcDbEntity
  8
RACCORDO
100
AcDbLine
 62
7
  6
CONTINUOUS
 10
-29.4550989119
 20
25.8134150626
 11
-29.4563663779
 21
9.6945220854
  0
LINE
  5
2BE
100
AcDbEntity
  8
RACCORDO
100
AcDbLine
 62
250
  6
CONTINUOUS
 10
-28.968187386
 20
25.8134150626
 11
-28.9694345165
 21
9.6932827069
  0
LINE
  5
2BF
100
AcDbEntity
  8
RACCORDO
100
AcDbLine
 62
250
  6
CONTINUOUS
 10
-28.9694345165
 20
9.6932827069
 11
-28.9733326853
 21
8.6864860721
  0
LINE
  5
2C0
100
AcDbEntity
  8
RACCORDO
100
AcDbLine
 62
7
  6
CONTINUOUS
 10
-29.4557298482
 20
9.9958672007
 11
-29.463190309
 21
8.2005026792
  0
LINE
  5
2C1
100
AcDbEntity
  8
RACCORDO
100
AcDbLine
 62
250
  6
CONTINUOUS
 10
-28.9733326853
 20
8.6864860721
 11
-28.9799843765
 21
7.7145018651
  0
LINE
  5
2C2
100
AcDbEntity
  8
RACCORDO
100
AcDbLine
 62
250
  6
CONTINUOUS
 10
-28.7004705819
 20
-26.0703662895
 11
-28.7010751922
 21
-26.1548827155
  0
LINE
  5
2C3
100
AcDbEntity
  8
RACCORDO
100
AcDbLine
 62
7
  6
CONTINUOUS
 10
-29.4607079403
 20
8.6024214572
 11
-29.4713380394
 21
7.2438994681
  0
LINE
  5
2C4
100
AcDbEntity
  8
RACCORDO
100
AcDbLine
 62
250
  6
CONTINUOUS
 10
-28.9799843765
 20
7.7145018651
 11
-28.9897146857
 21
6.7698242066
  0
LINE
  5
2C5
100
AcDbEntity
  8
RACCORDO
100
AcDbLine
 62
7
  6
CONTINUOUS
 10
-29.4704483661
 20
7.3317081224
 11
-29.489752295
 21
5.8539126251
  0
LINE
  5
2C6
100
AcDbEntity
  8
RACCORDO
100
AcDbLine
 62
250
  6
CONTINUOUS
 10
-28.9897146857
 20
6.7698242066
 11
-29.0029169887
 21
5.8457157783
  0
LINE
  5
2C7
100
AcDbEntity
  8
RACCORDO
100
AcDbLine
 62
250
  6
CONTINUOUS
 10
-28.6990854879
 20
-25.9749412157
 11
-28.7004705819
 21
-26.0703662895
  0
LINE
  5
2C8
100
AcDbEntity
  8
RACCORDO
100
AcDbLine
 62
7
  6
CONTINUOUS
 10
-29.4849250929
 20
6.1620909439
 11
-29.5066616827
 21
4.9481910185
  0
LINE
  5
2C9
100
AcDbEntity
  8
RACCORDO
100
AcDbLine
 62
250
  6
CONTINUOUS
 10
-29.0029169887
 20
5.8457157783
 11
-29.0198605911
 21
4.9376828289
  0
LINE
  5
2CA
100
AcDbEntity
  8
RACCORDO
100
AcDbLine
 62
7
  6
CONTINUOUS
 10
-29.5056749087
 20
5.0000020633
 11
-29.5039023377
 21
5.0817197744
  0
LINE
  5
2CB
100
AcDbEntity
  8
0
100
AcDbLine
 62
7
  6
CONTINUOUS
 10
-29.5055797857
 20
5.0
 11
-29.5166296804
 21
4.5
  0
LINE
  5
2CC
100
AcDbEntity
  8
RACCORDO
100
AcDbLine
 62
7
  6
CONTINUOUS
 10
-29.5066616827
 20
4.9481910185
 11
-29.5277191736
 21
4.0519842831
  0
LINE
  5
2CD
100
AcDbEntity
  8
RACCORDO
100
AcDbLine
 62
250
  6
CONTINUOUS
 10
-29.0198605911
 20
4.9376828289
 11
-29.0409526831
 21
4.038965987
  0
LWPOLYLINE
  5
2CE
100
AcDbEntity
  8
RACCORDO
100
AcDbPolyline
 62
250
  6
CONTINUOUS
 90
3
 70
0
 10
-28.6956854436
 20
-25.8205507771
 10
-28.6969803928
 20
-25.8727744031
 10
-28.6990854879
 20
-25.9749412157
  0
LINE
  5
2CF
100
AcDbEntity
  8
RACCORDO
100
AcDbLine
 62
7
  6
CONTINUOUS
 10
-29.5277191736
 20
4.0519842831
 11
-29.5534040807
 21
3.1580875214
  0
LINE
  5
2D0
100
AcDbEntity
  8
RACCORDO
100
AcDbLine
 62
250
  6
CONTINUOUS
 10
-29.0409526831
 20
4.038965987
 11
-29.0667539299
 21
3.1423483244
  0
LINE
  5
2D1
100
AcDbEntity
  8
RACCORDO
100
AcDbLine
 62
7
  6
CONTINUOUS
 10
-29.5534040807
 20
3.1580875214
 11
-29.5841726843
 21
2.2638005874
  0
LINE
  5
2D2
100
AcDbEntity
  8
RACCORDO
100
AcDbLine
 62
250
  6
CONTINUOUS
 10
-29.0667539299
 20
3.1423483244
 11
-29.0976102846
 21
2.2451189316
  0
LINE
  5
2D3
100
AcDbEntity
  8
RACCORDO
100
AcDbLine
 62
7
  6
CONTINUOUS
 10
-29.5841726843
 20
2.2638005874
 11
-29.6205376153
 21
1.3665871387
  0
LINE
  5
2D4
100
AcDbEntity
  8
RACCORDO
100
AcDbLine
 62
250
  6
CONTINUOUS
 10
-29.0976102846
 20
2.2451189316
 11
-29.1341080298
 21
1.3447258286
  0
LINE
  5
2D5
100
AcDbEntity
  8
RACCORDO
100
AcDbLine
 62
7
  6
CONTINUOUS
 10
-29.6205376153
 20
1.3665871387
 11
-29.6625110483
 21
0.4752246861
  0
LINE
  5
2D6
100
AcDbEntity
  8
RACCORDO
100
AcDbLine
 62
250
  6
CONTINUOUS
 10
-29.1341080298
 20
1.3447258286
 11
-29.1762735611
 21
0.4500052345
  0
LINE
  5
2D7
100
AcDbEntity
  8
RACCORDO
100
AcDbLine
 62
7
  6
CONTINUOUS
 10
-29.6625110483
 20
0.4752246861
 11
-29.710304151
 21
-0.4100278538
  0
LINE
  5
2D8
100
AcDbEntity
  8
RACCORDO
100
AcDbLine
 62
250
  6
CONTINUOUS
 10
-29.1762735611
 20
0.4500052345
 11
-29.2242150582
 21
-0.4386941504
  0
LINE
  5
2D9
100
AcDbEntity
  8
RACCORDO
100
AcDbLine
 62
7
  6
CONTINUOUS
 10
-29.710304151
 20
-0.4100278538
 11
-29.7639103455
 21
-1.292879026
  0
LINE
  5
2DA
100
AcDbEntity
  8
RACCORDO
100
AcDbLine
 62
250
  6
CONTINUOUS
 10
-29.2242150582
 20
-0.4386941504
 11
-29.2779899267
 21
-1.3247833062
  0
LINE
  5
2DB
100
AcDbEntity
  8
RACCORDO
100
AcDbLine
 62
7
  6
CONTINUOUS
 10
-29.7639103455
 20
-1.292879026
 11
-29.8243010959
 21
-2.1931216932
  0
LINE
  5
2DC
100
AcDbEntity
  8
RACCORDO
100
AcDbLine
 62
250
  6
CONTINUOUS
 10
-29.2779899267
 20
-1.3247833062
 11
-29.3385924552
 21
-2.2281128408
  0
LINE
  5
2DD
100
AcDbEntity
  8
RACCORDO
100
AcDbLine
 62
7
  6
CONTINUOUS
 10
-29.8243010959
 20
-2.1931216932
 11
-29.892289382
 21
-3.1223817972
  0
LINE
  5
2DE
100
AcDbEntity
  8
RACCORDO
100
AcDbLine
 62
250
  6
CONTINUOUS
 10
-29.3385924552
 20
-2.2281128408
 11
-29.4068193589
 21
-3.1603215494
  0
LINE
  5
2DF
100
AcDbEntity
  8
RACCORDO
100
AcDbLine
 62
7
  6
CONTINUOUS
 10
-29.892289382
 20
-3.1223817972
 11
-29.969409196
 21
-4.0984209729
  0
LINE
  5
2E0
100
AcDbEntity
  8
RACCORDO
100
AcDbLine
 62
250
  6
CONTINUOUS
 10
-29.4068193589
 20
-3.1603215494
 11
-29.4841258721
 21
-4.1392137694
  0
LINE
  5
2E1
100
AcDbEntity
  8
RACCORDO
100
AcDbLine
 62
7
  6
CONTINUOUS
 10
-29.969409196
 20
-4.0984209729
 11
-30.0575028784
 21
-5.1389281624
  0
LINE
  5
2E2
100
AcDbEntity
  8
RACCORDO
100
AcDbLine
 62
250
  6
CONTINUOUS
 10
-29.4841258721
 20
-4.1392137694
 11
-29.5725101098
 21
-5.1824512115
  0
LINE
  5
2E3
100
AcDbEntity
  8
0
100
AcDbLine
 62
7
  6
CONTINUOUS
 10
-30.0027216832
 20
-4.5
 11
-30.0452838409
 21
-4.9986024987
  0
LINE
  5
2E4
100
AcDbEntity
  8
0
100
AcDbLine
 62
7
  6
CONTINUOUS
 10
-30.0452838409
 20
-4.9986024987
 11
-30.0454110631
 21
-5.0
  0
LINE
  5
2E5
100
AcDbEntity
  8
RACCORDO
100
AcDbLine
 62
7
  6
CONTINUOUS
 10
-30.0575028784
 20
-5.1389281624
 11
-30.1580844163
 21
-6.2556817226
  0
LINE
  5
2E6
100
AcDbEntity
  8
RACCORDO
100
AcDbLine
 62
250
  6
CONTINUOUS
 10
-29.5725101098
 20
-5.1824512115
 11
-29.6733033441
 21
-6.3017893656
  0
LINE
  5
2E7
100
AcDbEntity
  8
RACCORDO
100
AcDbLine
 62
7
  6
CONTINUOUS
 10
-30.1580844163
 20
-6.2556817226
 11
-30.2731798293
 21
-7.4663847312
  0
LINE
  5
2E8
100
AcDbEntity
  8
RACCORDO
100
AcDbLine
 62
250
  6
CONTINUOUS
 10
-29.6733033441
 20
-6.3017893656
 11
-29.7886206297
 21
-7.5148295421
  0
LINE
  5
2E9
100
AcDbEntity
  8
RACCORDO
100
AcDbLine
 62
7
  6
CONTINUOUS
 10
-30.2731798293
 20
-7.4663847312
 11
-30.4049545268
 21
-8.790563622
  0
LINE
  5
2EA
100
AcDbEntity
  8
RACCORDO
100
AcDbLine
 62
250
  6
CONTINUOUS
 10
-29.7886206297
 20
-7.5148295421
 11
-29.9206277851
 21
-8.841063465
  0
LINE
  5
2EB
100
AcDbEntity
  8
RACCORDO
100
AcDbLine
 62
7
  6
CONTINUOUS
 10
-30.4049545268
 20
-8.790563622
 11
-30.554153993
 21
-10.2340775349
  0
LINE
  5
2EC
100
AcDbEntity
  8
RACCORDO
100
AcDbLine
 62
250
  6
CONTINUOUS
 10
-29.9206277851
 20
-8.841063465
 11
-30.0699815194
 21
-10.2863417665
  0
LINE
  5
2ED
100
AcDbEntity
  8
RACCORDO
100
AcDbLine
 62
7
  6
CONTINUOUS
 10
-30.554153993
 20
-10.2340775349
 11
-32.1221073882
 21
-25.1521575846
  0
LINE
  5
2EE
100
AcDbEntity
  8
RACCORDO
100
AcDbLine
 62
250
  6
CONTINUOUS
 10
-30.0699815194
 20
-10.2863417665
 11
-31.6379349147
 21
-25.2044218162
  0
LINE
  5
2EF
100
AcDbEntity
  8
RACCORDO
100
AcDbLine
 62
7
  6
CONTINUOUS
 10
-27.4550989119
 20
-2.0
 11
-24.868274823
 21
-1.5438731188
  0
LWPOLYLINE
  5
2F0
100
AcDbEntity
  8
RACCORDO
100
AcDbPolyline
 62
250
  6
CONTINUOUS
 90
5
 70
0
 10
-26.4612206521
 20
21.5502637671
 10
-26.4613763017
 20
21.5676204031
 10
-26.4615904701
 20
21.5802354404
 10
-26.4618594933
 20
21.5878930533
 10
-26.4621787686
 20
21.5904622304
  0
LINE
  5
2F1
100
AcDbEntity
  8
RACCORDO
100
AcDbLine
 62
250
  6
CONTINUOUS
 10
-26.4610945145
 20
21.5025895337
 11
-26.4612206521
 21
21.5502637671
  0
LINE
  5
2F2
100
AcDbEntity
  8
RACCORDO
100
AcDbLine
 62
7
  6
CONTINUOUS
 10
-27.4550989119
 20
26.3528653412
 11
-27.4550989119
 21
-26.3528653412
  0
LINE
  5
2F3
100
AcDbEntity
  8
RACCORDO
100
AcDbLine
 62
7
  6
CONTINUOUS
 10
-26.537333755
 20
22.5846728965
 11
-26.537333755
 21
22.4153271035
  0
LINE
  5
2F4
100
AcDbEntity
  8
DRAFT
100
AcDbLine
 62
7
  6
CONTINUOUS
 10
-26.2550989119
 20
-11.705067874
 11
-26.2550989119
 21
-11.7549863962
  0
LINE
  5
2F5
100
AcDbEntity
  8
DRAFT
100
AcDbLine
 62
7
  6
CONTINUOUS
 10
-26.2550989119
 20
-14.7450136038
 11
-26.2550989119
 21
-14.794932126
  0
LINE
  5
2F6
100
AcDbEntity
  8
RACCORDO
100
AcDbLine
 62
250
  6
CONTINUOUS
 10
-26.461376302
 20
21.4052690354
 11
-26.4610945145
 21
21.5025895337
  0
LINE
  5
2F7
100
AcDbEntity
  8
RACCORDO
100
AcDbLine
 62
250
  6
CONTINUOUS
 10
-26.4621787686
 20
21.2904736535
 11
-26.461376302
 21
21.4052690354
  0
LWPOLYLINE
  5
2F8
100
AcDbEntity
  8
RACCORDO
100
AcDbPolyline
 62
250
  6
CONTINUOUS
 90
9
 70
0
 10
-31.7039540381
 20
-25.5314051086
 10
-31.7106605869
 20
-25.567568382
 10
-31.7164306039
 20
-25.5997684932
 10
-31.7212061481
 20
-25.6276843594
 10
-31.7249275462
 20
-25.6509698912
 10
-31.7275473026
 20
-25.669318313
 10
-31.729046723
 20
-25.6825670501
 10
-31.7294241
 20
-25.6906461719
 10
-31.7286864401
 20
-25.693520226
  0
LINE
  5
2F9
100
AcDbEntity
  8
RACCORDO
100
AcDbLine
 62
250
  6
CONTINUOUS
 10
-31.6880244648
 20
-25.4487605464
 11
-31.7039540381
 21
-25.5314051086
  0
LINE
  5
2FA
100
AcDbEntity
  8
RACCORDO
100
AcDbLine
 62
250
  6
CONTINUOUS
 10
-31.6693313137
 20
-25.3554172354
 11
-31.6880244648
 21
-25.4487605464
  0
LWPOLYLINE
  5
2FB
100
AcDbEntity
  8
RACCORDO
100
AcDbPolyline
 62
250
  6
CONTINUOUS
 90
3
 70
0
 10
-31.6379349147
 20
-25.2044218162
 10
-31.6486994798
 20
-25.2554962
 10
-31.6693313137
 20
-25.3554172354
  0
LWPOLYLINE
  5
2FC
100
AcDbEntity
  8
RACCORDO
100
AcDbPolyline
 62
250
  6
CONTINUOUS
 90
10
 70
0
 10
-26.0524809512
 20
20.8753151822
 10
-26.0530877645
 20
20.8917497934
 10
-26.0551122563
 20
20.9080542001
 10
-26.0585544267
 20
20.9242284023
 10
-26.0633827142
 20
20.9403850772
 10
-26.0696286803
 20
20.9564115475
 10
-26.0773870095
 20
20.9719697816
 10
-26.0866892636
 20
20.9869471023
 10
-26.0975038809
 20
21.0014561868
 10
-26.1098308614
 20
21.0154970351
  0
LINE
  5
2FD
100
AcDbEntity
  8
RACCORDO
100
AcDbLine
 62
250
  6
CONTINUOUS
 10
-26.0524809512
 20
20.3842539975
 11
-26.0524809512
 21
20.8753151822
  0
LINE
  5
2FE
100
AcDbEntity
  8
RACCORDO
100
AcDbLine
 62
250
  6
CONTINUOUS
 10
-25.9037899315
 20
19.8144107552
 11
-25.9037899315
 21
20.4407598898
  0
LINE
  5
2FF
100
AcDbEntity
  8
RACCORDO
100
AcDbLine
 62
7
  6
CONTINUOUS
 10
-25.7550989119
 20
19.9644050436
 11
-25.7550989119
 21
20.8753151822
  0
LINE
  5
300
100
AcDbEntity
  8
DRAFT
100
AcDbLine
 62
7
  6
CONTINUOUS
 10
-25.3050989119
 20
-11.8381006266
 11
-25.3050989119
 21
-14.6618993734
  0
LINE
  5
301
100
AcDbEntity
  8
DRAFT
100
AcDbLine
 62
7
  6
CONTINUOUS
 10
-25.0164237773
 20
-11.8633564283
 11
-25.0164237773
 21
-14.6366435717
  0
LINE
  5
302
100
AcDbEntity
  8
DRAFT
100
AcDbLine
 62
7
  6
CONTINUOUS
 10
-24.7664237773
 20
-11.8852285942
 11
-24.7664237773
 21
-14.6147714058
  0
LINE
  5
303
100
AcDbEntity
  8
RACCORDO
100
AcDbLine
 62
7
  6
CONTINUOUS
 10
-24.4550989119
 20
-1.0514692423
 11
-24.4550989119
 21
1.0514692423
  0
LINE
  5
304
100
AcDbEntity
  8
RACCORDO
100
AcDbLine
 62
7
  6
CONTINUOUS
 10
-27.4550989119
 20
2.0
 11
-24.868274823
 21
1.5438731188
  0
LINE
  5
305
100
AcDbEntity
  8
RACCORDO
100
AcDbLine
 62
7
  6
CONTINUOUS
 10
-24.1550989119
 20
-12.3968781766
 11
-24.1550989119
 21
-14.1031218234
  0
LWPOLYLINE
  5
306
100
AcDbEntity
  8
RACCORDO
100
AcDbPolyline
 62
250
  6
CONTINUOUS
 90
9
 70
0
 10
-28.8523373704
 20
-26.1361728181
 10
-28.8590493189
 20
-26.1723463501
 10
-28.8648287938
 20
-26.2045753954
 10
-28.8696129108
 20
-26.2325092829
 10
-28.8733496158
 20
-26.255844075
 10
-28.8759982512
 20
-26.2743258748
 10
-28.8775299981
 20
-26.287753589
 10
-28.8779281901
 20
-26.2959811157
 10
-28.8771884945
 20
-26.2989189342
  0
LINE
  5
307
100
AcDbEntity
  8
RACCORDO
100
AcDbLine
 62
250
  6
CONTINUOUS
 10
-28.8364175236
 20
-26.0536052883
 11
-28.8523373704
 21
-26.1361728181
  0
LINE
  5
308
100
AcDbEntity
  8
RACCORDO
100
AcDbLine
 62
250
  6
CONTINUOUS
 10
-28.817760238
 20
-25.9604565636
 11
-28.8364175236
 21
-26.0536052883
  0
LWPOLYLINE
  5
309
100
AcDbEntity
  8
RACCORDO
100
AcDbPolyline
 62
250
  6
CONTINUOUS
 90
3
 70
0
 10
-28.786436969
 20
-25.8098205244
 10
-28.7971753134
 20
-25.8607696639
 10
-28.817760238
 20
-25.9604565636
  0
LINE
  5
30A
100
AcDbEntity
  8
RACCORDO
100
AcDbLine
 62
250
  6
CONTINUOUS
 10
-26.3016088654
 20
21.9326977843
 11
-26.2931050166
 21
21.8831226658
  0
LWPOLYLINE
  5
30B
100
AcDbEntity
  8
RACCORDO
100
AcDbPolyline
 62
250
  6
CONTINUOUS
 90
9
 70
0
 10
-26.2931050166
 20
21.8831226658
 10
-26.2857201955
 20
21.8386534821
 10
-26.2826080637
 20
21.8192965457
 10
-26.2799558398
 20
21.8023096308
 10
-26.277808746
 20
21.7879823593
 10
-26.2762034001
 20
21.7765590595
 10
-26.2751671769
 20
21.7682345084
 10
-26.2747177474
 20
21.763150644
 10
-26.2748627833
 20
21.7613941844
  0
LWPOLYLINE
  5
30C
100
AcDbEntity
  8
0
100
AcDbPolyline
 62
7
  6
CONTINUOUS
 90
10
 70
0
 43
0.3500000006
 10
-39.7320387726
 20
35.7808498993
 10
-39.6606121216
 20
35.6379920654
 10
-39.6606121216
 20
35.5665654144
 10
-39.8034654236
 20
35.4237075806
 10
-39.8748966064
 20
35.4237075806
 10
-39.9463232574
 20
35.4951387634
 10
-39.9463232574
 20
35.5665654144
 10
-39.8748966064
 20
35.7094232483
 10
-39.8034654236
 20
35.7808498993
 10
-39.7320387726
 20
35.7808498993
  0
LINE
  5
30D
100
AcDbEntity
  8
RACCORDO
100
AcDbLine
 62
250
  6
CONTINUOUS
 10
-26.3061019329
 20
21.9583557358
 11
-26.3016088654
 21
21.9326977843
  0
LINE
  5
30E
100
AcDbEntity
  8
RACCORDO
100
AcDbLine
 62
250
  6
CONTINUOUS
 10
-28.968187386
 20
10.7371426949
 11
-29.4550989119
 21
10.7371426949
  0
LWPOLYLINE
  5
30F
100
AcDbEntity
  8
RACCORDO
100
AcDbPolyline
 62
250
  6
CONTINUOUS
 90
13
 70
0
 10
-26.3212739859
 20
21.2306631217
 10
-26.3314809143
 20
21.2401694135
 10
-26.3418492926
 20
21.2487771925
 10
-26.3523791209
 20
21.2564864587
 10
-26.3630094222
 20
21.2632283959
 10
-26.3738011734
 20
21.2690718204
 10
-26.384937305
 20
21.2742231804
 10
-26.3963740964
 20
21.2787711898
 10
-26.4081552682
 20
21.2826271347
 10
-26.4205949121
 20
21.2857313228
 10
-26.4337977254
 20
21.2880638566
 10
-26.4476590109
 20
21.2896446335
 10
-26.4621787686
 20
21.2904736535
  0
LINE
  5
310
100
AcDbEntity
  8
RACCORDO
100
AcDbLine
 62
250
  6
CONTINUOUS
 10
-26.1098308614
 20
21.0154970351
 11
-26.3212739859
 21
21.2306631217
  0
LINE
  5
311
100
AcDbEntity
  8
RACCORDO
100
AcDbLine
 62
7
  6
CONTINUOUS
 10
-25.8984736873
 20
21.2257698144
 11
-26.1099168118
 21
21.440935901
  0
LINE
  5
312
100
AcDbEntity
  8
RACCORDO
100
AcDbLine
 62
7
  6
CONTINUOUS
 10
-27.4550989119
 20
19.8008726868
 11
-25.9037899315
 21
19.8144107552
  0
LINE
  5
313
100
AcDbEntity
  8
RACCORDO
100
AcDbLine
 62
250
  6
CONTINUOUS
 10
-27.4550989119
 20
20.1138144487
 11
-25.9037899315
 21
20.106076546
  0
LWPOLYLINE
  5
314
100
AcDbEntity
  8
RACCORDO
100
AcDbPolyline
 62
250
  6
CONTINUOUS
 90
13
 70
0
 10
-25.9037899315
 20
20.106076546
 10
-25.8843309737
 20
20.1052540987
 10
-25.8652234293
 20
20.102994906
 10
-25.8467906163
 20
20.0993371955
 10
-25.8293444356
 20
20.0943428592
 10
-25.8131800933
 20
20.0880964061
 10
-25.7985711055
 20
20.080703532
 10
-25.7857646704
 20
20.0722893317
 10
-25.7749774851
 20
20.0629961813
 10
-25.766392079
 20
20.0529813299
 10
-25.7601537256
 20
20.0424142384
 10
-25.7563679838
 20
20.0314737121
 10
-25.7550989119
 20
20.0203448752
  0
LWPOLYLINE
  5
315
100
AcDbEntity
  8
RACCORDO
100
AcDbPolyline
 62
250
  6
CONTINUOUS
 90
34
 70
0
 10
-26.3061019329
 20
21.9583557358
 10
-26.2559560838
 20
21.9699089134
 10
-26.2080943278
 20
21.9853526144
 10
-26.162516665
 20
22.0046868388
 10
-26.1190301548
 20
22.0280904627
 10
-26.0778277378
 20
22.05538461
 10
-26.0394882356
 20
22.086032653
 10
-26.0039258221
 20
22.1201669694
 10
-25.9712263235
 20
22.1576551814
 10
-25.9422260408
 20
22.1975635274
 10
-25.9170356948
 20
22.2399375196
 10
-25.8955445647
 20
22.2847316459
 10
-25.8782567897
 20
22.330875608
 10
-25.8652687299
 20
22.3783849083
 10
-25.8564840251
 20
22.4272440444
 10
-25.8521177345
 20
22.4763362117
 10
-25.8522996594
 20
22.5257480019
 10
-25.8568999984
 20
22.5753928233
 10
-25.8657444057
 20
22.6238940954
 10
-25.8792234207
 20
22.6714318569
 10
-25.8969465041
 20
22.7178260691
 10
-25.9175676926
 20
22.7611600352
 10
-25.9412235701
 20
22.8009533073
 10
-25.9677775527
 20
22.8376863333
 10
-25.9954739253
 20
22.8708837603
 10
-26.0236812659
 20
22.9000174393
 10
-26.0530309965
 20
22.9256155193
 10
-26.083661668
 20
22.9487870945
 10
-26.1151943023
 20
22.9698068212
 10
-26.1480078775
 20
22.9884000431
 10
-26.1833778796
 20
23.0048518858
 10
-26.2217294705
 20
23.0192573911
 10
-26.2626374882
 20
23.0315215173
 10
-26.3061019329
 20
23.0416442642
  0
LINE
  5
316
100
AcDbEntity
  8
RACCORDO
100
AcDbLine
 62
7
  6
CONTINUOUS
 10
-27.4550989119
 20
21.5532867113
 11
-26.2748627786
 21
21.7613941852
  0
LINE
  5
317
100
AcDbEntity
  8
RACCORDO
100
AcDbLine
 62
250
  6
CONTINUOUS
 10
-27.4550989119
 20
21.7557565677
 11
-26.3061019329
 21
21.9583557358
  0
LINE
  5
318
100
AcDbEntity
  8
RACCORDO
100
AcDbLine
 62
250
  6
CONTINUOUS
 10
-26.0524809512
 20
20.8753151822
 11
-25.7550989119
 21
20.8753151828
  0
LINE
  5
319
100
AcDbEntity
  8
RACCORDO
100
AcDbLine
 62
7
  6
CONTINUOUS
 10
-27.4550989119
 20
20.3880969086
 11
-26.0524809512
 21
20.3842539975
  0
LINE
  5
31A
100
AcDbEntity
  8
RACCORDO
100
AcDbLine
 62
250
  6
CONTINUOUS
 10
-26.4621787686
 20
21.2904736535
 11
-27.4550989119
 21
21.2991387363
  0
LINE
  5
31B
100
AcDbEntity
  8
RACCORDO
100
AcDbLine
 62
7
  6
CONTINUOUS
 10
-26.4621787686
 20
21.5904622304
 11
-27.2073839778
 21
21.5969655377
  0
LINE
  5
31C
100
AcDbEntity
  8
RACCORDO
100
AcDbLine
 62
7
  6
CONTINUOUS
 10
-26.8216487224
 20
22.2128024207
 11
-27.4550989119
 21
22.2017455065
  0
LINE
  5
31D
100
AcDbEntity
  8
RACCORDO
100
AcDbLine
 62
250
  6
CONTINUOUS
 10
-26.537333755
 20
22.4153271035
 11
-27.4550989119
 21
22.3993074531
  0
LINE
  5
31E
100
AcDbEntity
  8
RACCORDO
100
AcDbLine
 62
250
  6
CONTINUOUS
 10
-27.4550989119
 20
22.6006925469
 11
-26.537333755
 21
22.5846728965
  0
LINE
  5
31F
100
AcDbEntity
  8
RACCORDO
100
AcDbLine
 62
7
  6
CONTINUOUS
 10
-27.4550989119
 20
22.7982544935
 11
-26.8216487224
 21
22.7871975793
  0
LINE
  5
320
100
AcDbEntity
  8
RACCORDO
100
AcDbLine
 62
250
  6
CONTINUOUS
 10
-26.3061019329
 20
23.0416442642
 11
-27.4550989119
 21
23.2442434323
  0
LINE
  5
321
100
AcDbEntity
  8
RACCORDO
100
AcDbLine
 62
7
  6
CONTINUOUS
 10
-26.2748627786
 20
23.2386058148
 11
-27.4550989119
 21
23.4467132887
  0
LINE
  5
322
100
AcDbEntity
  8
RACCORDO
100
AcDbLine
 62
250
  6
CONTINUOUS
 10
-27.4550989119
 20
25.8530366787
 11
-28.968187386
 21
25.8134150626
  0
LINE
  5
323
100
AcDbEntity
  8
RACCORDO
100
AcDbLine
 62
7
  6
CONTINUOUS
 10
-27.4550989119
 20
26.3528653412
 11
-28.968187386
 21
26.3132437251
  0
LINE
  5
324
100
AcDbEntity
  8
RACCORDO
100
AcDbLine
 62
250
  6
CONTINUOUS
 10
-28.968187386
 20
25.8134150626
 11
-29.4550989119
 21
25.8134150626
  0
LWPOLYLINE
  5
325
100
AcDbEntity
  8
0
100
AcDbPolyline
 62
7
  6
CONTINUOUS
 90
3
 70
0
 43
0.3500000006
 10
-41.2320392303
 20
35.9237077332
 10
-42.7320396881
 20
35.9237077332
 10
-42.0891817017
 20
38.2808506622
  0
LWPOLYLINE
  5
326
100
AcDbEntity
  8
0
100
AcDbPolyline
 62
7
  6
CONTINUOUS
 90
13
 70
0
 43
0.3500000006
 10
-28.8899730148
 20
45.6050122375
 10
-29.1756864166
 20
45.8192967224
 10
-29.1756864166
 20
46.4621547089
 10
-28.8899730148
 20
46.8907236786
 10
-28.2471150284
 20
46.8907236786
 10
-27.9614016266
 20
46.4621547089
 10
-27.9614016266
 20
45.8192967224
 10
-28.2471150284
 20
45.6050122375
 10
-27.8185437927
 20
45.176438736
 10
-27.8185437927
 20
44.3192962646
 10
-28.2471150284
 20
43.8907227631
 10
-28.8899730148
 20
43.8907227631
 10
-29.3185442505
 20
44.3192962646
  0
ARC
  5
327
100
AcDbEntity
  8
0
100
AcDbCircle
 62
7
  6
CONTINUOUS
 10
4.5
 20
4.5
 40
0.5
100
AcDbArc
 50
0.0
 51
90.0
  0
ARC
  5
328
100
AcDbEntity
  8
0
100
AcDbCircle
 62
7
  6
CONTINUOUS
 10
-4.5
 20
4.5
 40
0.5
100
AcDbArc
 50
90.0
 51
180.0
  0
ARC
  5
329
100
AcDbEntity
  8
0
100
AcDbCircle
 62
7
  6
CONTINUOUS
 10
-4.5
 20
-4.5
 40
0.5
100
AcDbArc
 50
180.0
 51
270.0
  0
ARC
  5
32A
100
AcDbEntity
  8
0
100
AcDbCircle
 62
7
  6
CONTINUOUS
 10
4.5
 20
-4.5
 40
0.5
100
AcDbArc
 50
270.0
 51
360.0
  0
ARC
  5
32B
100
AcDbEntity
  8
RACCORDO
100
AcDbCircle
 62
7
  6
CONTINUOUS
 10
-28.6695084953
 20
-25.3207221146
 40
1.0
100
AcDbArc
 50
258.0135711831
 51
268.5
  0
ARC
  5
32C
100
AcDbEntity
  8
RACCORDO
100
AcDbCircle
 62
7
  6
CONTINUOUS
 10
-26.4050989119
 20
22.5
 40
0.75
100
AcDbArc
 50
280.0
 51
80.0
  0
ARC
  5
32D
100
AcDbEntity
  8
RACCORDO
100
AcDbCircle
 62
7
  6
CONTINUOUS
 10
-26.2550989119
 20
20.8753151822
 40
0.5
100
AcDbArc
 50
0.0
 51
44.5
  0
ARC
  5
32E
100
AcDbEntity
  8
RACCORDO
100
AcDbCircle
 62
7
  6
CONTINUOUS
 10
-26.4665420363
 20
21.0904812689
 40
0.5
100
AcDbArc
 50
44.5
 51
89.5
  0
ARC
  5
32F
100
AcDbEntity
  8
RACCORDO
100
AcDbCircle
 62
7
  6
CONTINUOUS
 10
-24.6550989119
 20
-14.1031218234
 40
0.5
100
AcDbArc
 50
275.0
 51
360.0
  0
ARC
  5
330
100
AcDbEntity
  8
RACCORDO
100
AcDbCircle
 62
7
  6
CONTINUOUS
 10
-24.6550989119
 20
-12.3968781766
 40
0.5
100
AcDbArc
 50
0.0
 51
85.0
  0
ARC
  5
331
100
AcDbEntity
  8
RACCORDO
100
AcDbCircle
 62
7
  6
CONTINUOUS
 10
-24.9550989119
 20
1.0514692423
 40
0.5
100
AcDbArc
 50
0.0
 51
80.0
  0
ARC
  5
332
100
AcDbEntity
  8
RACCORDO
100
AcDbCircle
 62
7
  6
CONTINUOUS
 10
-24.9550989119
 20
-1.0514692423
 40
0.5
100
AcDbArc
 50
280.0
 51
360.0
  0
ARC
  5
333
100
AcDbEntity
  8
RACCORDO
100
AcDbCircle
 62
7
  6
CONTINUOUS
 10
-31.6248464405
 20
-25.2044218162
 40
0.5
100
AcDbArc
 50
174.0
 51
258.0135711831
  0
ARC
  5
334
100
AcDbEntity
  8
RACCORDO
100
AcDbCircle
 62
7
  6
CONTINUOUS
 10
-28.9550989119
 20
25.8134150626
 40
0.5
100
AcDbArc
 50
91.5
 51
180.0
  0
ARC
  5
335
100
AcDbEntity
  8
RACCORDO
100
AcDbCircle
 62
7
  6
CONTINUOUS
 10
-25.9050989119
 20
19.9644050436
 40
0.15
100
AcDbArc
 50
270.5
 51
360.0
  0
ELLIPSE
  5
336
100
AcDbEntity
  8
RACCORDO
100
AcDbEllipse
 62
7
  6
CONTINUOUS
 10
10.5526939449
 20
-25.8526939449
 30
0.0
 11
-0.35379574
 21
0.35379574
 31
0.0
 40
0.999315002
 41
-3.9266482006
 42
-2.3565371065
  0
ELLIPSE
  5
337
100
AcDbEntity
  8
RACCORDO
100
AcDbEllipse
 62
7
  6
CONTINUOUS
 10
10.5526939449
 20
25.8526939449
 30
0.0
 11
0.35379574
 21
0.35379574
 31
0.0
 40
0.999315002
 41
-0.7850555471
 42
0.7850555471
  0
ELLIPSE
  5
338
100
AcDbEntity
  8
RACCORDO
100
AcDbEllipse
 62
7
  6
CONTINUOUS
 10
-10.5526939449
 20
25.8526939449
 30
0.0
 11
-0.35379574
 21
0.35379574
 31
0.0
 40
0.999315002
 41
-0.7850555471
 42
0.7850555471
  0
ELLIPSE
  5
339
100
AcDbEntity
  8
RACCORDO
100
AcDbEllipse
 62
7
  6
CONTINUOUS
 10
-10.5526939449
 20
-25.8526939449
 30
0.0
 11
0.35379574
 21
0.35379574
 31
0.0
 40
0.999315002
 41
-3.9266482006
 42
-2.3565371065
  0
ELLIPSE
  5
33A
100
AcDbEntity
  8
RACCORDO
100
AcDbEllipse
 62
7
  6
CONTINUOUS
 10
-26.8252012126
 20
22.4127708773
 30
0.0
 11
0.2878469909
 21
0.0049410995
 31
0.0
 40
0.6947112101
 41
-1.5703799483
 42
-0.0119246497
  0
ELLIPSE
  5
33B
100
AcDbEntity
  8
RACCORDO
100
AcDbEllipse
 62
7
  6
CONTINUOUS
 10
-26.8252012126
 20
22.5872291227
 30
0.0
 11
0.2878469909
 21
-0.0049410995
 31
0.0
 40
0.6947112101
 41
0.0119246497
 42
1.5703799483
  0
ELLIPSE
  5
33C
100
AcDbEntity
  8
RACCORDO
100
AcDbEllipse
 62
7
  6
CONTINUOUS
 10
-26.0550989119
 20
20.8149656771
 30
0.0
 11
-0.0061950756
 21
0.4306908559
 31
0.0
 40
0.696406771
 41
-3.1535177273
 42
-2.6335999597
  0
ENDSEC
  0
SECTION
  2
OBJECTS
  0
DICTIONARY
  5
C
100
AcDbDictionary
280
0
281
1
  3
ACAD_GROUP
350
D
  3
ACAD_MLINESTYLE
350
17
  3
ACAD_LAYOUT
350
1A
  3
ACAD_PLOTSETTINGS
350
19
  3
ACAD_PLOTSTYLENAME
350
E
  0
DICTIONARY
  5
D
102
{ACAD_REACTORS
330
C
102
}
100
AcDbDictionary
280
0
281
1
  0
ACDBDICTIONARYWDFLT
  5
E
102
{ACAD_REACTORS
330
C
102
}
100
AcDbDictionary
281
1
  3
Normal
350
F
100
AcDbDictionaryWithDefault
340
F
  0
DICTIONARY
  5
17
102
{ACAD_REACTORS
330
C
102
}
100
AcDbDictionary
280
0
281
1
  3
Standard
350
18
  0
DICTIONARY
  5
19
102
{ACAD_REACTORS
330
C
102
}
100
AcDbDictionary
281
1
  0
DICTIONARY
  5
1A
102
{ACAD_REACTORS
330
C
102
}
100
AcDbDictionary
281
1
  3
Model
350
33D
  3
Layout1
350
33E
  0
ACDBPLACEHOLDER
  5
F
102
{ACAD_REACTORS
330
E
102
}
  0
MLINESTYLE
  5
18
102
{ACAD_REACTORS
330
17
102
}
100
AcDbMlineStyle
  2
STANDARD
 70
0
  3

 62
256
 51
90.0
 52
90.0
 71
2
 49
0.5
 62
256
  6
BYLAYER
 49
-0.5
 62
256
  6
BYLAYER
  0
LAYOUT
  5
33D
102
{ACAD_REACTORS
330
1A
102
}
100
AcDbPlotSettings
  1

  2
none_device
  4
ISO_A4_(297.00_x_210.00_MM)
  6

 40
0.0
 41
0.0
 42
0.0
 43
0.0
 44
297.0
 45
210.0
 46
0.0
 47
0.0
 48
0.0
 49
0.0
140
0.0
141
0.0
142
1.0
143
1.0
 70
1024
 72
1
 73
0
 74
0
  7

 75
0
147
1.0
148
0.0
149
0.0
100
AcDbLayout
  1
Model
 70
0
 71
0
 10
0.0
 20
0.0
 11
297.0
 21
210.0
 12
0.0
 22
0.0
 32
0.0
 14
0.0
 24
0.0
 34
0.0
 15
0.0
 25
0.0
 35
0.0
146
0.0
 13
0.0
 23
0.0
 33
0.0
 16
1.0
 26
0.0
 36
0.0
 17
0.0
 27
1.0
 37
0.0
 76
0
330
21C
345
0
346
0
  0
LAYOUT
  5
33E
102
{ACAD_REACTORS
330
1A
102
}
100
AcDbPlotSettings
  1

  2
none_device
  4
ISO_A4_(297.00_x_210.00_MM)
  6

 40
0.0
 41
0.0
 42
0.0
 43
0.0
 44
297.0
 45
210.0
 46
0.0
 47
0.0
 48
0.0
 49
0.0
140
0.0
141
0.0
142
1.0
143
1.0
 70
0
 72
1
 73
0
 74
0
  7

 75
0
147
1.0
148
0.0
149
0.0
100
AcDbLayout
  1
Layout1
 70
0
 71
1
 10
0.0
 20
0.0
 11
297.0
 21
210.0
 12
0.0
 22
0.0
 32
0.0
 14
0.0
 24
0.0
 34
0.0
 15
0.0
 25
0.0
 35
0.0
146
0.0
 13
0.0
 23
0.0
 33
0.0
 16
1.0
 26
0.0
 36
0.0
 17
0.0
 27
1.0
 37
0.0
 76
0
330
21D
345
0
346
0
  0
ENDSEC
  0
EOF
