  0
SECTION
  2
HEADER
  9
$ACADVER
  1
AC1024
  9
$DWGCODEPAGE
  3
ANSI_1252
  9
$EXTMAX
 10
420.0
 20
297.0
 30
0.0
  9
$EXTMIN
 10
0.0
 20
0.0
 30
0.0
  9
$LIMMIN
 10
0.0
 20
0.0
  9
$LIMMAX
 10
420.0
 20
297.0
  9
$VIEWCTR
 10
210.0
 20
148.5
  9
$VIEWSIZE
 40
297.0
  9
$CLAYER
  8
0
  9
$LTSCALE
 40
23.1
  9
$CELTYPE
  6
BYLAYER
  9
$DIMSCALE
 40
1.0
  9
$DIMASZ
 40
3.0
  9
$DIMEXO
 40
0.5
  9
$DIMDLI
 40
15.96
  9
$DIMEXE
 40
1.5
  9
$DIMCEN
 40
3.78
  9
$DIMLFAC
 40
1.0
  9
$DIMBLK
  1
_FILLED
  9
$DIMALT
 70
0
  9
$DIMALTF
 40
0.0393700787
  9
$DIMTXT
 40
3.0
  9
$DIMTOL
 70
1
  9
$DIMLIM
 70
0
  9
$DIMTFAC
 40
1.0
  9
$DIMTP
 40
0.01
  9
$DIMTM
 40
0.01
  9
$DIMGAP
 40
0.625
  9
$DIMDSEP
 70
44
  9
$AUNITS
 70
0
  9
$PDMODE
 70
3
  9
$PDSIZE
 40
3.0
  9
$HANDSEED
  5
3AA
  9
$TILEMODE
 70
1
  9
$MEASUREMENT
 70
1
  9
$INSUNITS
 70
4
  0
ENDSEC
  0
SECTION
  2
CLASSES
  0
CLASS
  1
ACDBDICTIONARYWDFLT
  2
AcDbDictionaryWithDefault
  3
AutoCAD 2000
 90
0
 91
1
280
0
281
0
  0
CLASS
  1
ACDBPLACEHOLDER
  2
AcDbPlaceHolder
  3
AutoCAD 2000
 90
0
 91
1
280
0
281
0
  0
CLASS
  1
LAYOUT
  2
AcDbLayout
  3
AutoCAD 2000
 90
0
 91
0
280
0
281
0
  0
ENDSEC
  0
SECTION
  2
TABLES
  0
TABLE
  2
VPORT
  5
8
100
AcDbSymbolTable
 70
2
  0
VPORT
  5
1F4
100
AcDbSymbolTableRecord
100
AcDbViewportTableRecord
  2
*ACTIVE
 70
0
 10
0.0
 20
0.0
 11
1.0
 21
1.0
 12
210.0
 22
148.5
 13
0.0
 23
0.0
 14
1.0
 24
1.0
 15
0.0
 25
0.0
 16
0.0
 26
0.0
 36
1.0
 17
0.0
 27
0.0
 37
0.0
 40
297.0
 41
1.4141414141
 42
50.0
 43
0.0
 44
0.0
 50
0.0
 51
0.0
 71
0
 72
100
 73
1
 74
1
 75
0
 76
0
 77
0
 78
0
  0
ENDTAB
  0
TABLE
  2
LTYPE
  5
5
100
AcDbSymbolTable
 70
6
  0
LTYPE
  5
14
100
AcDbSymbolTableRecord
100
AcDbLinetypeTableRecord
  2
BYBLOCK
 70
0
  3

 72
65
 73
0
 40
0.0
  0
LTYPE
  5
15
100
AcDbSymbolTableRecord
100
AcDbLinetypeTableRecord
  2
BYLAYER
 70
0
  3

 72
65
 73
0
 40
0.0
  0
LTYPE
  5
16
100
AcDbSymbolTableRecord
100
AcDbLinetypeTableRecord
  2
CONTINUOUS
 70
64
  3
Solid line
 72
65
 73
0
 40
0.0
  0
LTYPE
  5
1F5
100
AcDbSymbolTableRecord
100
AcDbLinetypeTableRecord
  2
CENTER
 70
64
  3
____ _ ____ _ ____ _ ____ _ ____ _ ____ _ ____
 72
65
 73
4
 40
0.6
 49
0.375
 74
0
 49
-0.075
 74
0
 49
0.075
 74
0
 49
-0.075
 74
0
  0
LTYPE
  5
1F6
100
AcDbSymbolTableRecord
100
AcDbLinetypeTableRecord
  2
HIDDEN
 70
64
  3
- - - - - - - - - - - - - - - - - - - -
 72
65
 73
2
 40
0.2
 49
0.1
 74
0
 49
-0.1
 74
0
  0
LTYPE
  5
1F7
100
AcDbSymbolTableRecord
100
AcDbLinetypeTableRecord
  2
PHANTOM
 70
64
  3
_____ _ _ _____ _ _ _____ _ _ _____
 72
65
 73
6
 40
0.8
 49
0.45
 74
0
 49
-0.05
 74
0
 49
0.1
 74
0
 49
-0.05
 74
0
 49
0.1
 74
0
 49
-0.05
 74
0
  0
LTYPE
  5
1F8
100
AcDbSymbolTableRecord
100
AcDbLinetypeTableRecord
  2
DOT
 70
64
  3
. . . . . . . . . . . . . . . . . . . .
 72
65
 73
2
 40
0.2
 49
0.1
 74
0
 49
-0.1
 74
0
  0
LTYPE
  5
1F9
100
AcDbSymbolTableRecord
100
AcDbLinetypeTableRecord
  2
DASHED
 70
64
  3
- - - - - - - - - - - - - - - - - - - -
 72
65
 73
2
 40
0.2
 49
0.1
 74
0
 49
-0.1
 74
0
  0
ENDTAB
  0
TABLE
  2
LAYER
  5
2
100
AcDbSymbolTable
 70
36
  0
LAYER
  5
10
100
AcDbSymbolTableRecord
100
AcDbLayerTableRecord
  2
0
 70
0
 62
7
  6
CONTINUOUS
370
-3
390
F
  0
LAYER
  5
1FA
100
AcDbSymbolTableRecord
100
AcDbLayerTableRecord
  2
DEFAULT_1
 70
0
 62
7
  6
CENTER
370
-3
390
F
  0
LAYER
  5
1FB
100
AcDbSymbolTableRecord
100
AcDbLayerTableRecord
  2
DEFAULT_2
 70
0
 62
7
  6
HIDDEN
370
-3
390
F
  0
LAYER
  5
1FC
100
AcDbSymbolTableRecord
100
AcDbLayerTableRecord
  2
DEFAULT_3
 70
0
 62
7
  6
PHANTOM
370
-3
390
F
  0
LAYER
  5
1FD
100
AcDbSymbolTableRecord
100
AcDbLayerTableRecord
  2
9
 70
0
 62
7
  6
CONTINUOUS
370
-3
390
F
  0
LAYER
  5
1FE
100
AcDbSymbolTableRecord
100
AcDbLayerTableRecord
  2
ASSI
 70
0
 62
7
  6
CONTINUOUS
370
-3
390
F
  0
LAYER
  5
1FF
100
AcDbSymbolTableRecord
100
AcDbLayerTableRecord
  2
COORDINATE
 70
0
 62
7
  6
CONTINUOUS
370
-3
390
F
  0
LAYER
  5
200
100
AcDbSymbolTableRecord
100
AcDbLayerTableRecord
  2
COPY_PUBLISH
 70
0
 62
7
  6
CONTINUOUS
370
-3
390
F
  0
LAYER
  5
201
100
AcDbSymbolTableRecord
100
AcDbLayerTableRecord
  2
COSMETICI
 70
0
 62
7
  6
CONTINUOUS
370
-3
390
F
  0
LAYER
  5
202
100
AcDbSymbolTableRecord
100
AcDbLayerTableRecord
  2
CURVE
 70
0
 62
7
  6
CONTINUOUS
370
-3
390
F
  0
LAYER
  5
203
100
AcDbSymbolTableRecord
100
AcDbLayerTableRecord
  2
DRAFT
 70
0
 62
7
  6
CONTINUOUS
370
-3
390
F
  0
LAYER
  5
204
100
AcDbSymbolTableRecord
100
AcDbLayerTableRecord
  2
IMPORT_IGES
 70
0
 62
7
  6
CONTINUOUS
370
-3
390
F
  0
LAYER
  5
205
100
AcDbSymbolTableRecord
100
AcDbLayerTableRecord
  2
INTF_1
 70
0
 62
7
  6
CONTINUOUS
370
-3
390
F
  0
LAYER
  5
206
100
AcDbSymbolTableRecord
100
AcDbLayerTableRecord
  2
INTF_10
 70
0
 62
7
  6
CONTINUOUS
370
-3
390
F
  0
LAYER
  5
207
100
AcDbSymbolTableRecord
100
AcDbLayerTableRecord
  2
INTF_17
 70
0
 62
7
  6
CONTINUOUS
370
-3
390
F
  0
LAYER
  5
208
100
AcDbSymbolTableRecord
100
AcDbLayerTableRecord
  2
INTF_2
 70
0
 62
7
  6
CONTINUOUS
370
-3
390
F
  0
LAYER
  5
209
100
AcDbSymbolTableRecord
100
AcDbLayerTableRecord
  2
INTF_3
 70
0
 62
7
  6
CONTINUOUS
370
-3
390
F
  0
LAYER
  5
20A
100
AcDbSymbolTableRecord
100
AcDbLayerTableRecord
  2
INTF_4
 70
0
 62
7
  6
CONTINUOUS
370
-3
390
F
  0
LAYER
  5
20B
100
AcDbSymbolTableRecord
100
AcDbLayerTableRecord
  2
INTF_5
 70
0
 62
7
  6
CONTINUOUS
370
-3
390
F
  0
LAYER
  5
20C
100
AcDbSymbolTableRecord
100
AcDbLayerTableRecord
  2
INTF_6
 70
0
 62
7
  6
CONTINUOUS
370
-3
390
F
  0
LAYER
  5
20D
100
AcDbSymbolTableRecord
100
AcDbLayerTableRecord
  2
INTF_7
 70
0
 62
7
  6
CONTINUOUS
370
-3
390
F
  0
LAYER
  5
20E
100
AcDbSymbolTableRecord
100
AcDbLayerTableRecord
  2
INTF_9
 70
0
 62
7
  6
CONTINUOUS
370
-3
390
F
  0
LAYER
  5
20F
100
AcDbSymbolTableRecord
100
AcDbLayerTableRecord
  2
INTF_BLANK
 70
0
 62
7
  6
CONTINUOUS
370
-3
390
F
  0
LAYER
  5
210
100
AcDbSymbolTableRecord
100
AcDbLayerTableRecord
  2
INTF_RED
 70
0
 62
7
  6
CONTINUOUS
370
-3
390
F
  0
LAYER
  5
211
100
AcDbSymbolTableRecord
100
AcDbLayerTableRecord
  2
NOTE
 70
0
 62
7
  6
CONTINUOUS
370
-3
390
F
  0
LAYER
  5
212
100
AcDbSymbolTableRecord
100
AcDbLayerTableRecord
  2
PIANI
 70
0
 62
7
  6
CONTINUOUS
370
-3
390
F
  0
LAYER
  5
213
100
AcDbSymbolTableRecord
100
AcDbLayerTableRecord
  2
PUNTI
 70
0
 62
7
  6
CONTINUOUS
370
-3
390
F
  0
LAYER
  5
214
100
AcDbSymbolTableRecord
100
AcDbLayerTableRecord
  2
RACCORDO
 70
0
 62
7
  6
CONTINUOUS
370
-3
390
F
  0
LAYER
  5
215
100
AcDbSymbolTableRecord
100
AcDbLayerTableRecord
  2
RGB____0____0____0__
 70
0
 62
7
  6
CONTINUOUS
370
-3
390
F
  0
LAYER
  5
216
100
AcDbSymbolTableRecord
100
AcDbLayerTableRecord
  2
SIMBOLI
 70
0
 62
7
  6
CONTINUOUS
370
-3
390
F
  0
LAYER
  5
217
100
AcDbSymbolTableRecord
100
AcDbLayerTableRecord
  2
SMUSSO
 70
0
 62
7
  6
CONTINUOUS
370
-3
390
F
  0
LAYER
  5
218
100
AcDbSymbolTableRecord
100
AcDbLayerTableRecord
  2
SUPERFICI
 70
0
 62
7
  6
CONTINUOUS
370
-3
390
F
  0
LAYER
  5
219
100
AcDbSymbolTableRecord
100
AcDbLayerTableRecord
  2
TRASH
 70
0
 62
7
  6
CONTINUOUS
370
-3
390
F
  0
ENDTAB
  0
TABLE
  2
STYLE
  5
3
100
AcDbSymbolTable
 70
1
  0
STYLE
  5
11
100
AcDbSymbolTableRecord
100
AcDbTextStyleTableRecord
  2
STANDARD
 70
0
 40
0.0
 41
0.8
 50
0.0
 71
0
 42
0.2
  3
txt
  4

  0
STYLE
  5
21A
100
AcDbSymbolTableRecord
100
AcDbTextStyleTableRecord
  2
TEXTSTYLE_1
 70
0
 40
0.0
 41
0.8
 50
0.0
 71
0
 42
0.2
  3
gdt
  4

  0
ENDTAB
  0
TABLE
  2
VIEW
  5
6
100
AcDbSymbolTable
 70
0
  0
ENDTAB
  0
TABLE
  2
UCS
  5
7
100
AcDbSymbolTable
 70
0
  0
ENDTAB
  0
TABLE
  2
APPID
  5
9
100
AcDbSymbolTable
 70
1
  0
APPID
  5
21B
100
AcDbSymbolTableRecord
100
AcDbRegAppTableRecord
  2
ACAD
 70
0
  0
ENDTAB
  0
TABLE
  2
BLOCK_RECORD
  5
1
100
AcDbSymbolTable
 70
0
  0
BLOCK_RECORD
  5
21C
100
AcDbSymbolTableRecord
100
AcDbBlockTableRecord
  2
*Model_Space
  0
BLOCK_RECORD
  5
21D
100
AcDbSymbolTableRecord
100
AcDbBlockTableRecord
  2
*Paper_Space
  0
BLOCK_RECORD
  5
21E
100
AcDbSymbolTableRecord
100
AcDbBlockTableRecord
  2
_FILLED
  0
BLOCK_RECORD
  5
21F
100
AcDbSymbolTableRecord
100
AcDbBlockTableRecord
  2
*D0
  0
BLOCK_RECORD
  5
220
100
AcDbSymbolTableRecord
100
AcDbBlockTableRecord
  2
*D1
  0
BLOCK_RECORD
  5
221
100
AcDbSymbolTableRecord
100
AcDbBlockTableRecord
  2
*D2
  0
BLOCK_RECORD
  5
222
100
AcDbSymbolTableRecord
100
AcDbBlockTableRecord
  2
*D3
  0
ENDTAB
  0
TABLE
  2
DIMSTYLE
  5
A
100
AcDbSymbolTable
 70
1
100
AcDbDimStyleTable
 71
0
  0
DIMSTYLE
105
223
100
AcDbSymbolTableRecord
100
AcDbDimStyleTableRecord
  2
STANDARD
 70
0
  3

  4

 40
1.0
 41
3.0
 42
0.5
 43
0.38
 44
1.5
 45
0.0
 46
0.0
 47
0.01
 48
0.01
140
3.0
141
0.09
142
0.0
143
25.4
144
1.0
145
0.0
146
1.0
147
0.625
 71
1
 72
0
 73
0
 74
0
 75
0
 76
0
 77
1
 78
8
 79
2
170
0
171
1
172
0
173
0
174
0
175
0
176
0
177
0
178
0
270
2
179
2
271
2
272
2
273
2
274
2
275
0
280
0
281
0
282
0
283
1
284
8
285
0
286
0
287
3
288
0
340
11
278
44
341
21E
342
21E
343
21E
344
21E
  0
DIMSTYLE
105
224
100
AcDbSymbolTableRecord
100
AcDbDimStyleTableRecord
  2
DIMSTYLE_1
 70
0
  3

  4

 40
1.0
 41
3.0
 42
0.5
 43
0.38
 44
1.5
 45
0.0
 46
0.0
 47
0.0
 48
0.0
140
3.0
141
0.09
142
0.0
143
25.4
144
1.0
145
0.0
146
1.0
147
0.75
 71
0
 72
0
 73
0
 74
0
 75
0
 76
0
 77
1
 78
8
 79
2
170
0
171
1
172
0
173
0
174
0
175
0
176
0
177
0
178
0
270
2
179
2
271
1
272
1
273
2
274
2
275
0
280
0
281
0
282
0
283
1
284
8
285
0
286
0
287
3
288
0
340
11
278
44
341
21E
342
21E
343
21E
344
21E
  0
ENDTAB
  0
ENDSEC
  0
SECTION
  2
BLOCKS
  0
BLOCK
  5
20
100
AcDbEntity
  8
0
100
AcDbBlockBegin
  2
*Model_Space
 70
0
 10
0.0
 20
0.0
 30
0.0
  3
*Model_Space
  1

  0
ENDBLK
  5
21
100
AcDbEntity
  8
0
100
AcDbBlockEnd
  0
BLOCK
  5
1C
100
AcDbEntity
  8
0
100
AcDbBlockBegin
  2
*Paper_Space
 70
0
 10
0.0
 20
0.0
 30
0.0
  3
*Paper_Space
  1

  0
ENDBLK
  5
1D
100
AcDbEntity
  8
0
100
AcDbBlockEnd
  0
BLOCK
  5
225
100
AcDbEntity
  8
0
100
AcDbBlockBegin
  2
_FILLED
 70
64
 10
0.0
 20
0.0
  3
_FILLED
  1

  0
SOLID
  5
226
100
AcDbEntity
  8
0
  6
BYBLOCK
 62
0
100
AcDbTrace
 10
0.0
 20
0.0
 11
-1.0
 21
0.3166666667
 12
-1.0
 22
-0.3166666667
 13
-1.0
 23
-0.3166666667
  0
ENDBLK
  5
227
100
AcDbEntity
  8
0
  6
BYBLOCK
 62
0
100
AcDbBlockEnd
  0
BLOCK
  5
228
100
AcDbEntity
  8
0
100
AcDbBlockBegin
 62
7
  6
CONTINUOUS
  2
*D0
 70
65
 10
0.0
 20
0.0
  3
*D0
  1

  0
LINE
  5
229
100
AcDbEntity
  8
0
100
AcDbLine
 62
7
  6
CONTINUOUS
 10
-8.1416811306
 20
40.4356785509
 11
-8.1416811306
 21
48.8758729155
  0
LINE
  5
22A
100
AcDbEntity
  8
0
100
AcDbLine
 62
7
  6
CONTINUOUS
 10
36.4640495517
 20
40.4356785509
 11
36.4640495517
 21
48.8758729155
  0
LINE
  5
22B
100
AcDbEntity
  8
0
100
AcDbLine
 62
7
  6
CONTINUOUS
 10
-8.1416811306
 20
47.3758729155
 11
14.1611842105
 21
47.3758729155
  0
LINE
  5
22C
100
AcDbEntity
  8
0
100
AcDbLine
 62
7
  6
CONTINUOUS
 10
36.4640495517
 20
47.3758729155
 11
14.1611842105
 21
47.3758729155
  0
INSERT
  5
22D
100
AcDbEntity
  8
0
100
AcDbBlockReference
 62
7
  6
CONTINUOUS
  2
_FILLED
 10
-8.1416811306
 20
47.3758729155
 41
3.0
 42
3.0
 43
3.0
 50
180.0
  0
INSERT
  5
22E
100
AcDbEntity
  8
0
100
AcDbBlockReference
 62
7
  6
CONTINUOUS
  2
_FILLED
 10
36.4640495517
 20
47.3758729155
 41
3.0
 42
3.0
 43
3.0
  0
ENDBLK
  5
22F
100
AcDbEntity
  8
0
  6
BYBLOCK
 62
0
100
AcDbBlockEnd
  0
BLOCK
  5
230
100
AcDbEntity
  8
0
100
AcDbBlockBegin
 62
7
  6
CONTINUOUS
  2
*D1
 70
65
 10
0.0
 20
0.0
  3
*D1
  1

  0
LINE
  5
231
100
AcDbEntity
  8
0
100
AcDbLine
 62
7
  6
CONTINUOUS
 10
36.4642208892
 20
40.4355072134
 11
46.5722127408
 21
40.4355072134
  0
LINE
  5
232
100
AcDbEntity
  8
0
100
AcDbLine
 62
7
  6
CONTINUOUS
 10
36.4642208892
 20
-12.270223469
 11
46.5722127408
 21
-12.270223469
  0
LINE
  5
233
100
AcDbEntity
  8
0
100
AcDbLine
 62
7
  6
CONTINUOUS
 10
45.0722127408
 20
40.4355072134
 11
45.0722127408
 21
14.0826418722
  0
LINE
  5
234
100
AcDbEntity
  8
0
100
AcDbLine
 62
7
  6
CONTINUOUS
 10
45.0722127408
 20
-12.270223469
 11
45.0722127408
 21
14.0826418722
  0
INSERT
  5
235
100
AcDbEntity
  8
0
100
AcDbBlockReference
 62
7
  6
CONTINUOUS
  2
_FILLED
 10
45.0722127408
 20
40.4355072134
 41
3.0
 42
3.0
 43
3.0
 50
90.0
  0
INSERT
  5
236
100
AcDbEntity
  8
0
100
AcDbBlockReference
 62
7
  6
CONTINUOUS
  2
_FILLED
 10
45.0722127408
 20
-12.270223469
 41
3.0
 42
3.0
 43
3.0
 50
270.0
  0
ENDBLK
  5
237
100
AcDbEntity
  8
0
  6
BYBLOCK
 62
0
100
AcDbBlockEnd
  0
BLOCK
  5
238
100
AcDbEntity
  8
0
100
AcDbBlockBegin
 62
7
  6
CONTINUOUS
  2
*D2
 70
65
 10
0.0
 20
0.0
  3
*D2
  1

  0
LINE
  5
239
100
AcDbEntity
  8
0
100
AcDbLine
 62
7
  6
CONTINUOUS
 10
-31.7885501119
 20
40.4356785509
 11
-31.7885501119
 21
45.7340289735
  0
LINE
  5
23A
100
AcDbEntity
  8
0
100
AcDbLine
 62
7
  6
CONTINUOUS
 10
-36.4582976405
 20
-10.621779944
 11
-36.4582976405
 21
45.7340289735
  0
LINE
  5
23B
100
AcDbEntity
  8
0
100
AcDbLine
 62
7
  6
CONTINUOUS
 10
-31.7885501119
 20
44.2340289735
 11
-27.7885501119
 21
44.2340289735
  0
LINE
  5
23C
100
AcDbEntity
  8
0
100
AcDbLine
 62
7
  6
CONTINUOUS
 10
-27.7885501119
 20
44.2340289735
 11
-34.1234238762
 21
44.2340289735
  0
LINE
  5
23D
100
AcDbEntity
  8
0
100
AcDbLine
 62
7
  6
CONTINUOUS
 10
-36.4582976405
 20
44.2340289735
 11
-45.6574934562
 21
44.2340289735
  0
LINE
  5
23E
100
AcDbEntity
  8
0
100
AcDbLine
 62
7
  6
CONTINUOUS
 10
-45.6574934562
 20
44.2340289735
 11
-34.1234238762
 21
44.2340289735
  0
INSERT
  5
23F
100
AcDbEntity
  8
0
100
AcDbBlockReference
 62
7
  6
CONTINUOUS
  2
_FILLED
 10
-31.7885501119
 20
44.2340289735
 41
3.0
 42
3.0
 43
3.0
 50
180.0
  0
INSERT
  5
240
100
AcDbEntity
  8
0
100
AcDbBlockReference
 62
7
  6
CONTINUOUS
  2
_FILLED
 10
-36.4582976405
 20
44.2340289735
 41
3.0
 42
3.0
 43
3.0
  0
ENDBLK
  5
241
100
AcDbEntity
  8
0
  6
BYBLOCK
 62
0
100
AcDbBlockEnd
  0
BLOCK
  5
242
100
AcDbEntity
  8
0
100
AcDbBlockBegin
 62
7
  6
CONTINUOUS
  2
*D3
 70
65
 10
0.0
 20
0.0
  3
*D3
  1

  0
LINE
  5
243
100
AcDbEntity
  8
0
100
AcDbLine
 62
7
  6
CONTINUOUS
 10
-30.0885501119
 20
35.4537179216
 11
-30.0885501119
 21
53.5711373495
  0
LINE
  5
244
100
AcDbEntity
  8
0
100
AcDbLine
 62
7
  6
CONTINUOUS
 10
-36.4582976405
 20
-10.621779944
 11
-36.4582976405
 21
53.5711373495
  0
LINE
  5
245
100
AcDbEntity
  8
0
100
AcDbLine
 62
7
  6
CONTINUOUS
 10
-30.0885501119
 20
52.0711373495
 11
-26.0885501119
 21
52.0711373495
  0
LINE
  5
246
100
AcDbEntity
  8
0
100
AcDbLine
 62
7
  6
CONTINUOUS
 10
-26.0885501119
 20
52.0711373495
 11
-33.2734238762
 21
52.0711373495
  0
LINE
  5
247
100
AcDbEntity
  8
0
100
AcDbLine
 62
7
  6
CONTINUOUS
 10
-36.4582976405
 20
52.0711373495
 11
-45.3184900165
 21
52.0711373495
  0
LINE
  5
248
100
AcDbEntity
  8
0
100
AcDbLine
 62
7
  6
CONTINUOUS
 10
-45.3184900165
 20
52.0711373495
 11
-33.2734238762
 21
52.0711373495
  0
INSERT
  5
249
100
AcDbEntity
  8
0
100
AcDbBlockReference
 62
7
  6
CONTINUOUS
  2
_FILLED
 10
-30.0885501119
 20
52.0711373495
 41
3.0
 42
3.0
 43
3.0
 50
180.0
  0
INSERT
  5
24A
100
AcDbEntity
  8
0
100
AcDbBlockReference
 62
7
  6
CONTINUOUS
  2
_FILLED
 10
-36.4582976405
 20
52.0711373495
 41
3.0
 42
3.0
 43
3.0
  0
ENDBLK
  5
24B
100
AcDbEntity
  8
0
  6
BYBLOCK
 62
0
100
AcDbBlockEnd
  0
ENDSEC
  0
SECTION
  2
ENTITIES
  0
DIMENSION
  5
24C
100
AcDbEntity
  8
0
100
AcDbDimension
 62
7
  6
CONTINUOUS
  2
*D0
 10
36.4640495517
 20
47.3758729155
 11
9.7683270677
 21
47.3758729155
 70
160
 71
2
 72
2
 41
0.9
 42
44.6057306824
  3
DIMSTYLE_1
100
AcDbAlignedDimension
 13
-8.1416811306
 23
39.9356785509
 14
36.4640495517
 24
39.9356785509
100
AcDbRotatedDimension
  0
DIMENSION
  5
24D
100
AcDbEntity
  8
0
100
AcDbDimension
 62
7
  6
CONTINUOUS
  2
*D1
 10
45.0722127408
 20
-12.270223469
 11
45.0722127408
 21
9.7969275865
 70
160
 71
2
 72
2
 41
0.9
 42
52.7057306824
  3
DIMSTYLE_1
100
AcDbAlignedDimension
 13
35.9642208892
 23
40.4355072134
 14
35.9642208892
 24
-12.270223469
 50
270.0
100
AcDbRotatedDimension
  0
DIMENSION
  5
24E
100
AcDbEntity
  8
0
100
AcDbDimension
 62
7
  6
CONTINUOUS
  2
*D2
 10
-36.4582976405
 20
44.2340289735
 11
-45.6574934562
 21
44.2340289735
 70
160
 71
3
 72
2
 41
0.9
 42
4.6697475287
  3
DIMSTYLE_1
100
AcDbAlignedDimension
 13
-31.7885501119
 23
39.9356785509
 14
-36.4582976405
 24
-11.121779944
 50
180.0
100
AcDbRotatedDimension
  0
DIMENSION
  5
24F
100
AcDbEntity
  8
0
100
AcDbDimension
 62
7
  6
CONTINUOUS
  2
*D3
 10
-36.4582976405
 20
52.0711373495
 11
-45.3184900165
 21
52.0711373495
 70
160
 71
3
 72
2
 41
0.9
 42
6.3697475287
  3
DIMSTYLE_1
100
AcDbAlignedDimension
 13
-30.0885501119
 23
34.9537179216
 14
-36.4582976405
 24
-11.121779944
 50
180.0
100
AcDbRotatedDimension
  0
LWPOLYLINE
  5
250
100
AcDbEntity
  8
0
100
AcDbPolyline
 62
7
  6
CONTINUOUS
 90
10
 70
0
 43
0.3499999917
 10
17.2683263397
 20
51.125874939
 10
16.6254705048
 20
50.4830126953
 10
16.19689888
 20
49.6258758545
 10
16.19689888
 20
48.5544451904
 10
16.6254705048
 20
48.1258703613
 10
17.2683263397
 20
48.1258703613
 10
17.6968979645
 20
48.5544451904
 10
17.6968979645
 20
49.4115884399
 10
17.2683263397
 20
49.8401568604
 10
16.3397550201
 20
49.8401568604
  0
LWPOLYLINE
  5
251
100
AcDbEntity
  8
RACCORDO
100
AcDbPolyline
 62
250
  6
CONTINUOUS
 90
16
 70
0
 10
-8.0732080198
 20
3.7963001057
 10
-8.0692216951
 20
3.801674725
 10
-8.0599812562
 20
3.806992402
 10
-8.0455846193
 20
3.8121967882
 10
-8.0261843373
 20
3.8172327351
 10
-8.0019859834
 20
3.8220468803
 10
-7.9732459721
 20
3.8265882121
 10
-7.9402688433
 20
3.8308086092
 10
-7.9034040344
 20
3.8346633507
 10
-7.8630421772
 20
3.8381115904
 10
-7.8196109598
 20
3.8411167902
 10
-7.7735705941
 20
3.8436471061
 10
-7.725408938
 20
3.8456757253
 10
-7.6756363282
 20
3.8471811521
 10
-7.6247801718
 20
3.8481474356
 10
-7.5733793573
 20
3.8485643373
  0
LINE
  5
252
100
AcDbEntity
  8
RACCORDO
100
AcDbLine
 62
250
  6
CONTINUOUS
 10
35.9642208892
 20
40.4355072134
 11
35.9245992731
 21
40.3958855973
  0
LINE
  5
253
100
AcDbEntity
  8
RACCORDO
100
AcDbLine
 62
250
  6
CONTINUOUS
 10
36.4640495517
 20
39.9356785509
 11
36.4244279356
 21
39.8960569348
  0
LINE
  5
254
100
AcDbEntity
  8
RACCORDO
100
AcDbLine
 62
250
  6
CONTINUOUS
 10
-8.1416811306
 20
-11.7703948065
 11
-8.109195229
 21
-11.7379089048
  0
LWPOLYLINE
  5
255
100
AcDbEntity
  8
0
100
AcDbPolyline
 62
7
  6
CONTINUOUS
 90
10
 70
0
 43
0.3499999917
 10
43.8222120667
 20
14.9397853088
 10
43.9650714111
 20
15.0112133789
 10
44.0364994812
 20
15.0112133789
 10
44.1793556213
 20
14.8683572388
 10
44.1793556213
 20
14.7969291687
 10
44.1079275513
 20
14.7254978943
 10
44.0364994812
 20
14.7254978943
 10
43.8936401367
 20
14.7969291687
 10
43.8222120667
 20
14.8683572388
 10
43.8222120667
 20
14.9397853088
  0
LWPOLYLINE
  5
256
100
AcDbEntity
  8
RACCORDO
100
AcDbPolyline
 62
250
  6
CONTINUOUS
 90
19
 70
0
 10
-8.0321497151
 20
-11.121779944
 10
-8.0291884142
 20
-11.1172929514
 10
-8.0225607609
 20
-11.112839137
 10
-8.0123158276
 20
-11.108451363
 10
-7.9985294797
 20
-11.104162031
 10
-7.981303541
 20
-11.1000027539
 10
-7.9607648074
 20
-11.0960041325
 10
-7.9370632302
 20
-11.0921954468
 10
-7.9103748139
 20
-11.0886050542
 10
-7.8809014567
 20
-11.0852599749
 10
-7.8488654569
 20
-11.0821850831
 10
-7.8145011206
 20
-11.0794025411
 10
-7.7780566674
 20
-11.0769323389
 10
-7.7397726193
 20
-11.0747912756
 10
-7.6999570075
 20
-11.0729970511
 10
-7.6589864538
 20
-11.0715654057
 10
-7.6171967336
 20
-11.0705052798
 10
-7.5748712356
 20
-11.0698211376
 10
-7.5323210527
 20
-11.0695157124
  0
LWPOLYLINE
  5
257
100
AcDbEntity
  8
RACCORDO
100
AcDbPolyline
 62
250
  6
CONTINUOUS
 90
10
 70
0
 10
-8.109195229
 20
-11.7379089048
 10
-8.108928969
 20
-11.7375387615
 10
-8.1086632077
 20
-11.7369628915
 10
-8.108397945
 20
-11.7361812946
 10
-8.1081331079
 20
-11.7351937044
 10
-8.1078687695
 20
-11.7340003875
 10
-8.1076051492
 20
-11.7326021438
 10
-8.1073423203
 20
-11.73099924
 10
-8.1070802094
 20
-11.7291914095
 10
-8.1068188167
 20
-11.7271786522
  0
LINE
  5
258
100
AcDbEntity
  8
RACCORDO
100
AcDbLine
 62
250
  6
CONTINUOUS
 10
-7.6418524682
 20
-12.270223469
 11
-7.6093665665
 21
-12.2377375673
  0
LWPOLYLINE
  5
259
100
AcDbEntity
  8
RACCORDO
100
AcDbPolyline
 62
250
  6
CONTINUOUS
 90
10
 70
0
 10
-7.6093665665
 20
-12.2377375673
 10
-7.6091002942
 20
-12.2369985732
 10
-7.6088345267
 20
-12.2358466312
 10
-7.608569264
 20
-12.234282347
 10
-7.6083044372
 20
-12.2323067961
 10
-7.6080401152
 20
-12.229920737
 10
-7.6077765052
 20
-12.2271240452
 10
-7.6075136762
 20
-12.2239170292
 10
-7.6072515592
 20
-12.2203009946
 10
-7.6069901542
 20
-12.216277062
  0
LWPOLYLINE
  5
25A
100
AcDbEntity
  8
RACCORDO
100
AcDbPolyline
 62
250
  6
CONTINUOUS
 90
19
 70
0
 10
-8.1020595145
 20
39.8960569348
 10
-8.1001234491
 20
39.9396676687
 10
-8.0943897171
 20
39.9829461621
 10
-8.0849019489
 20
40.0255622953
 10
-8.0717323626
 20
40.0671911209
 10
-8.0549813387
 20
40.1075149294
 10
-8.0347767723
 20
40.1462257206
 10
-8.0112710606
 20
40.1830306779
 10
-7.9846448095
 20
40.2176462954
 10
-7.9551078526
 20
40.2498018164
 10
-7.9228922019
 20
40.2792495685
 10
-7.888240861
 20
40.3057719235
 10
-7.8514106874
 20
40.3291737729
 10
-7.8126460741
 20
40.3492935483
 10
-7.772275405
 20
40.3659548352
 10
-7.7307124791
 20
40.3790021973
 10
-7.6883173234
 20
40.3883573821
 10
-7.6453814879
 20
40.3939899308
 10
-7.602230852
 20
40.3958855973
  0
LINE
  5
25B
100
AcDbEntity
  8
RACCORDO
100
AcDbLine
 62
250
  6
CONTINUOUS
 10
-8.1068188167
 20
-11.7271786522
 11
-8.0321497151
 21
-11.121779944
  0
LINE
  5
25C
100
AcDbEntity
  8
RACCORDO
100
AcDbLine
 62
250
  6
CONTINUOUS
 10
-7.6069901542
 20
-12.216277062
 11
-7.5323210527
 21
-11.6108783538
  0
LWPOLYLINE
  5
25D
100
AcDbEntity
  8
0
100
AcDbPolyline
 62
7
  6
CONTINUOUS
 90
3
 70
0
 43
0.3499999917
 10
15.1968978882
 20
48.4115890503
 10
15.1254698181
 20
48.1973016357
 10
14.9826120758
 20
47.9115893555
  0
LWPOLYLINE
  5
25E
100
AcDbEntity
  8
RACCORDO
100
AcDbPolyline
 62
250
  6
CONTINUOUS
 90
16
 70
0
 10
-8.1068188167
 20
-11.7271786522
 10
-8.1038165479
 20
-11.7781278138
 10
-8.095408524
 20
-11.8285226195
 10
-8.0816862293
 20
-11.877814745
 10
-8.06279897
 20
-11.9254678636
 10
-8.0389522504
 20
-11.9709634824
 10
-8.0104055364
 20
-12.0138065829
 10
-7.9774694326
 20
-12.0535310078
 10
-7.9405023025
 20
-12.0897045326
 10
-7.8999063698
 20
-12.1219335687
 10
-7.8561233413
 20
-12.1498674458
 10
-7.8096296013
 20
-12.1732022273
 10
-7.7609310284
 20
-12.1916840175
 10
-7.7105574908
 20
-12.2051117239
 10
-7.6590570815
 20
-12.2133392455
 10
-7.6069901542
 20
-12.216277062
  0
LWPOLYLINE
  5
25F
100
AcDbEntity
  8
RACCORDO
100
AcDbPolyline
 62
250
  6
CONTINUOUS
 90
16
 70
0
 10
-8.109195229
 20
-11.7379089048
 10
-8.1064237235
 20
-11.7901324613
 10
-8.098211114
 20
-11.8417843564
 10
-8.0846472976
 20
-11.8922991751
 10
-8.065880749
 20
-11.9411239491
 10
-8.042116896
 20
-11.9877242095
 10
-8.0136158703
 20
-12.0315898374
 10
-7.9806896601
 20
-12.0722406495
 10
-7.9436986948
 20
-12.1092316529
 10
-7.9030479013
 20
-12.1421579163
 10
-7.8591822681
 20
-12.1706590049
 10
-7.8125819768
 20
-12.1944229242
 10
-7.7637571466
 20
-12.213189535
 10
-7.7132422473
 20
-12.2267534035
 10
-7.6615902481
 20
-12.2349660486
 10
-7.6093665665
 20
-12.2377375673
  0
LWPOLYLINE
  5
260
100
AcDbEntity
  8
RACCORDO
100
AcDbPolyline
 62
250
  6
CONTINUOUS
 90
19
 70
0
 10
-8.0321497151
 20
-11.121779944
 10
-8.0300156515
 20
-11.1643580969
 10
-8.0241017676
 20
-11.2066183518
 10
-8.014451534
 20
-11.2482395733
 10
-8.0011342177
 20
-11.2889122246
 10
-7.9842510089
 20
-11.3283194377
 10
-7.9639403607
 20
-11.3661418363
 10
-7.9403713413
 20
-11.4020790621
 10
-7.9137184497
 20
-11.4358775067
 10
-7.8841633638
 20
-11.4673069115
 10
-7.8519015884
 20
-11.4961469545
 10
-7.8171969161
 20
-11.5221504242
 10
-7.7803680149
 20
-11.5450838405
 10
-7.7416998763
 20
-11.5647844241
 10
-7.7014925519
 20
-11.5811132615
 10
-7.660123067
 20
-11.5939405522
 10
-7.6179347804
 20
-11.6031949004
 10
-7.5752270989
 20
-11.6088448016
 10
-7.5323210527
 20
-11.6108783538
  0
LINE
  5
261
100
AcDbEntity
  8
RACCORDO
100
AcDbLine
 62
250
  6
CONTINUOUS
 10
-8.0321497151
 20
-11.121779944
 11
-8.0799426782
 21
6.3204143684
  0
LINE
  5
262
100
AcDbEntity
  8
RACCORDO
100
AcDbLine
 62
250
  6
CONTINUOUS
 10
-8.0799426782
 20
6.3204143684
 11
-8.0922631317
 21
11.8019052983
  0
LINE
  5
263
100
AcDbEntity
  8
RACCORDO
100
AcDbLine
 62
250
  6
CONTINUOUS
 10
-8.0922631317
 20
11.8019052983
 11
-8.0981487909
 21
15.8181845137
  0
LINE
  5
264
100
AcDbEntity
  8
RACCORDO
100
AcDbLine
 62
250
  6
CONTINUOUS
 10
-7.5924344692
 20
11.8370686682
 11
-7.5983201285
 21
15.8386381732
  0
LINE
  5
265
100
AcDbEntity
  8
RACCORDO
100
AcDbLine
 62
250
  6
CONTINUOUS
 10
-8.0981487909
 20
15.8181845137
 11
-8.1016563569
 21
21.4093610249
  0
LINE
  5
266
100
AcDbEntity
  8
RACCORDO
100
AcDbLine
 62
250
  6
CONTINUOUS
 10
-7.5983201285
 20
15.8386381732
 11
-7.6018276944
 21
21.4143499946
  0
LINE
  5
267
100
AcDbEntity
  8
RACCORDO
100
AcDbLine
 62
7
  6
CONTINUOUS
 10
-8.1416811306
 20
39.9356785509
 11
-8.1416811306
 21
-11.7703948065
  0
LINE
  5
268
100
AcDbEntity
  8
RACCORDO
100
AcDbLine
 62
250
  6
CONTINUOUS
 10
-8.1016563569
 20
21.4093610249
 11
-8.1020595145
 21
39.8960569348
  0
LINE
  5
269
100
AcDbEntity
  8
RACCORDO
100
AcDbLine
 62
250
  6
CONTINUOUS
 10
-7.6018276944
 20
21.4143499946
 11
-7.602230852
 21
40.3958855973
  0
LINE
  5
26A
100
AcDbEntity
  8
RACCORDO
100
AcDbLine
 62
250
  6
CONTINUOUS
 10
-7.5323210527
 20
-11.6108783538
 11
-7.5924344692
 21
11.8370686682
  0
LWPOLYLINE
  5
26B
100
AcDbEntity
  8
0
100
AcDbPolyline
 62
7
  6
CONTINUOUS
 90
2
 70
0
 43
0.3499999917
 10
10.7683271027
 20
48.1258703613
 10
10.7683271027
 20
49.6258758545
  0
LWPOLYLINE
  5
26C
100
AcDbEntity
  8
0
100
AcDbPolyline
 62
7
  6
CONTINUOUS
 90
2
 70
0
 43
0.3499999917
 10
13.1254702377
 20
48.1258703613
 10
13.1254702377
 20
49.6258758545
  0
LINE
  5
26D
100
AcDbEntity
  8
0
100
AcDbLine
 62
7
  6
CONTINUOUS
 10
13.1611842105
 20
-0.0173581278
 11
13.1611842105
 21
-1.8173581278
  0
LINE
  5
26E
100
AcDbEntity
  8
0
100
AcDbLine
 62
7
  6
CONTINUOUS
 10
15.1611842105
 20
-1.8173581278
 11
15.1611842105
 21
-0.0173581278
  0
LWPOLYLINE
  5
26F
100
AcDbEntity
  8
RACCORDO
100
AcDbPolyline
 62
250
  6
CONTINUOUS
 90
10
 70
0
 10
35.9293585753
 20
-12.216277062
 10
35.9296196886
 20
-12.2202967595
 10
35.9298815867
 20
-12.2239104094
 10
35.9301442693
 20
-12.2271165554
 10
35.9304078052
 20
-12.2299135548
 10
35.9306721258
 20
-12.2323007563
 10
35.9309370249
 20
-12.2342779388
 10
35.9312024339
 20
-12.2358440017
 10
35.9314684215
 20
-12.2369975275
 10
35.9317349876
 20
-12.2377375673
  0
LINE
  5
270
100
AcDbEntity
  8
RACCORDO
100
AcDbLine
 62
7
  6
CONTINUOUS
 10
36.4640495517
 20
39.9356785509
 11
36.4640495517
 21
-11.7703948065
  0
LINE
  5
271
100
AcDbEntity
  8
RACCORDO
100
AcDbLine
 62
250
  6
CONTINUOUS
 10
35.9245992731
 20
40.3958855973
 11
35.924290358
 21
21.801396353
  0
LINE
  5
272
100
AcDbEntity
  8
RACCORDO
100
AcDbLine
 62
250
  6
CONTINUOUS
 10
36.4244279356
 20
39.8960569348
 11
36.4241190205
 21
21.7971437373
  0
LINE
  5
273
100
AcDbEntity
  8
RACCORDO
100
AcDbLine
 62
250
  6
CONTINUOUS
 10
35.924290358
 20
21.801396353
 11
35.914899875
 21
11.889520179
  0
LINE
  5
274
100
AcDbEntity
  8
RACCORDO
100
AcDbLine
 62
250
  6
CONTINUOUS
 10
36.4241190205
 20
21.7971437373
 11
36.4147285375
 21
11.8545290315
  0
LINE
  5
275
100
AcDbEntity
  8
RACCORDO
100
AcDbLine
 62
250
  6
CONTINUOUS
 10
35.914899875
 20
11.889520179
 11
35.8996587435
 21
5.2920782502
  0
LINE
  5
276
100
AcDbEntity
  8
RACCORDO
100
AcDbLine
 62
250
  6
CONTINUOUS
 10
36.4147285375
 20
11.8545290315
 11
36.399487406
 21
5.2415784072
  0
LINE
  5
277
100
AcDbEntity
  8
RACCORDO
100
AcDbLine
 62
250
  6
CONTINUOUS
 10
35.8996587435
 20
5.2920782502
 11
35.8546894737
 21
-11.6108783538
  0
LINE
  5
278
100
AcDbEntity
  8
RACCORDO
100
AcDbLine
 62
250
  6
CONTINUOUS
 10
36.399487406
 20
5.2415784072
 11
36.3545181362
 21
-11.121779944
  0
LWPOLYLINE
  5
279
100
AcDbEntity
  8
RACCORDO
100
AcDbPolyline
 62
250
  6
CONTINUOUS
 90
19
 70
0
 10
36.3545181362
 20
-11.121779944
 10
36.3523879394
 20
-11.1643173126
 10
36.3464862643
 20
-11.2065316668
 10
36.3368580102
 20
-11.2481031355
 10
36.3235763992
 20
-11.28871651
 10
36.3067421948
 20
-11.3280643497
 10
36.2864827305
 20
-11.3658492295
 10
36.2629499186
 20
-11.4017870354
 10
36.2363232414
 20
-11.435602993
 10
36.2068097408
 20
-11.4670356755
 10
36.1746382671
 20
-11.4958450603
 10
36.1400504405
 20
-11.5218181791
 10
36.1033025754
 20
-11.5447636908
 10
36.0646433863
 20
-11.5645213311
 10
36.024392461
 20
-11.5809230425
 10
35.982941375
 20
-11.5938215099
 10
35.9406393566
 20
-11.6031358104
 10
35.8977809101
 20
-11.6088281517
 10
35.8546894737
 20
-11.6108783538
  0
LWPOLYLINE
  5
27A
100
AcDbEntity
  8
RACCORDO
100
AcDbPolyline
 62
250
  6
CONTINUOUS
 90
16
 70
0
 10
36.4315636501
 20
-11.7379089048
 10
36.4287921372
 20
-11.7901325309
 10
36.4205795082
 20
-11.8417844825
 10
36.4070156639
 20
-11.8922993435
 10
36.388249083
 20
-11.9411241446
 10
36.364485197
 20
-11.9877244173
 10
36.3359841411
 20
-12.0315900443
 10
36.3030579066
 20
-12.0722408433
 10
36.2660669261
 20
-12.1092318239
 10
36.225416127
 20
-12.1421580583
 10
36.1815505
 20
-12.1706591142
 10
36.1349502273
 20
-12.1944230002
 10
36.0861254262
 20
-12.2131895811
 10
36.0356105653
 20
-12.2267534255
 10
35.9839586136
 20
-12.2349660545
 10
35.9317349876
 20
-12.2377375673
  0
LWPOLYLINE
  5
27B
100
AcDbEntity
  8
RACCORDO
100
AcDbPolyline
 62
250
  6
CONTINUOUS
 90
16
 70
0
 10
36.4291872378
 20
-11.7271786522
 10
36.4261849714
 20
-11.7781277917
 10
36.417776954
 20
-11.8285225794
 10
36.4040546683
 20
-11.8778146914
 10
36.3851674196
 20
-11.9254678014
 10
36.3613207107
 20
-11.9709634161
 10
36.3327740066
 20
-12.0138065169
 10
36.2998379106
 20
-12.0535309459
 10
36.2628707856
 20
-12.0897044779
 10
36.2222748546
 20
-12.1219335232
 10
36.1784918241
 20
-12.1498674107
 10
36.1319980781
 20
-12.1732022028
 10
36.0832994957
 20
-12.1916840026
 10
36.0329259456
 20
-12.2051117167
 10
35.9814255207
 20
-12.2133392435
 10
35.9293585753
 20
-12.216277062
  0
LWPOLYLINE
  5
27C
100
AcDbEntity
  8
RACCORDO
100
AcDbPolyline
 62
250
  6
CONTINUOUS
 90
19
 70
0
 10
36.4244279356
 20
39.8960569348
 10
36.422487069
 20
39.9397220264
 10
36.4167380003
 20
39.9830597234
 10
36.4072229937
 20
40.0257383228
 10
36.3940099617
 20
40.0674396786
 10
36.3772000566
 20
40.1078347959
 10
36.3569344745
 20
40.1465894176
 10
36.3333865234
 20
40.1833907184
 10
36.3067309272
 20
40.2179816145
 10
36.2771461935
 20
40.2501307813
 10
36.2448233793
 20
40.279615127
 10
36.2100324848
 20
40.3061741685
 10
36.1731062756
 20
40.3295604794
 10
36.1343343112
 20
40.3496090697
 10
36.0940202331
 20
40.3661804019
 10
36.0525569335
 20
40.3791416215
 10
36.0102959589
 20
40.3884256421
 10
35.9675357386
 20
40.3940085899
 10
35.924599273
 20
40.3958855972
  0
LWPOLYLINE
  5
27D
100
AcDbEntity
  8
0
100
AcDbPolyline
 62
7
  6
CONTINUOUS
 90
7
 70
0
 43
0.3499999917
 10
44.3222117615
 20
13.4397862244
 10
44.3222117615
 20
11.9397839355
 10
42.179356842
 20
13.4397862244
 10
41.7507852173
 20
13.4397862244
 10
41.3222135925
 20
13.0112145996
 10
41.3222135925
 20
12.3683555603
 10
41.9650694275
 20
11.9397839355
  0
LWPOLYLINE
  5
27E
100
AcDbEntity
  8
0
100
AcDbPolyline
 62
7
  6
CONTINUOUS
 90
8
 70
0
 43
0.3499999917
 10
44.3222117615
 20
9.7969290161
 10
44.3222117615
 20
10.6540690613
 10
43.8936401367
 20
11.082640686
 10
43.0364968872
 20
11.082640686
 10
42.6079284668
 20
10.6540690613
 10
42.6079284668
 20
9.7969290161
 10
41.3222135925
 20
9.7969290161
 10
41.3222135925
 20
11.082640686
  0
LWPOLYLINE
  5
27F
100
AcDbEntity
  8
RACCORDO
100
AcDbPolyline
 62
250
  6
CONTINUOUS
 90
10
 70
0
 10
36.4291872378
 20
-11.7271786522
 10
36.4294483389
 20
-11.7291895739
 10
36.4297102308
 20
-11.7309961561
 10
36.4299729134
 20
-11.7325983989
 10
36.4302364596
 20
-11.7339967401
 10
36.4305007966
 20
-11.7351907419
 10
36.4307657059
 20
-11.7361790906
 10
36.4310311149
 20
-11.7369613484
 10
36.4312970963
 20
-11.7375379531
 10
36.4315636501
 20
-11.7379089048
  0
LINE
  5
280
100
AcDbEntity
  8
RACCORDO
100
AcDbLine
 62
250
  6
CONTINUOUS
 10
35.8546894737
 20
-11.6108783538
 11
35.9293585753
 21
-12.216277062
  0
LINE
  5
281
100
AcDbEntity
  8
RACCORDO
100
AcDbLine
 62
250
  6
CONTINUOUS
 10
36.3545181362
 20
-11.121779944
 11
36.4291872378
 21
-11.7271786522
  0
LINE
  5
282
100
AcDbEntity
  8
RACCORDO
100
AcDbLine
 62
7
  6
CONTINUOUS
 10
-7.6418524682
 20
-12.270223469
 11
35.9642208892
 21
-12.270223469
  0
LINE
  5
283
100
AcDbEntity
  8
RACCORDO
100
AcDbLine
 62
250
  6
CONTINUOUS
 10
35.9317349876
 20
-12.2377375673
 11
-7.6093665665
 21
-12.2377375673
  0
LINE
  5
284
100
AcDbEntity
  8
RACCORDO
100
AcDbLine
 62
250
  6
CONTINUOUS
 10
35.9293585753
 20
-12.216277062
 11
-7.6069901542
 21
-12.216277062
  0
LINE
  5
285
100
AcDbEntity
  8
RACCORDO
100
AcDbLine
 62
250
  6
CONTINUOUS
 10
35.8546894737
 20
-11.6108783538
 11
-7.5323210527
 21
-11.6108783538
  0
LINE
  5
286
100
AcDbEntity
  8
RACCORDO
100
AcDbLine
 62
250
  6
CONTINUOUS
 10
35.8546894737
 20
-11.0695157124
 11
-7.5323210527
 21
-11.0695157124
  0
LINE
  5
287
100
AcDbEntity
  8
RACCORDO
100
AcDbLine
 62
250
  6
CONTINUOUS
 10
35.9317349876
 20
-12.2377375673
 11
35.9642208892
 21
-12.270223469
  0
LINE
  5
288
100
AcDbEntity
  8
RACCORDO
100
AcDbLine
 62
250
  6
CONTINUOUS
 10
36.4315636501
 20
-11.7379089048
 11
36.4640495517
 21
-11.7703948065
  0
LWPOLYLINE
  5
289
100
AcDbEntity
  8
RACCORDO
100
AcDbPolyline
 62
250
  6
CONTINUOUS
 90
19
 70
0
 10
36.3545181362
 20
-11.121779944
 10
36.351552198
 20
-11.1172886292
 10
36.3449116613
 20
-11.1128299601
 10
36.3346442514
 20
-11.1084369287
 10
36.3208219553
 20
-11.1041413542
 10
36.3035471679
 20
-11.099975815
 10
36.2829576379
 20
-11.0959731685
 10
36.2592198101
 20
-11.092164364
 10
36.2325046221
 20
-11.0885756092
 10
36.2029896097
 20
-11.0852307451
 10
36.1708651797
 20
-11.0821525898
 10
36.1363872694
 20
-11.0793668083
 10
36.0998642384
 20
-11.0768977779
 10
36.0615708329
 20
-11.074762589
 10
36.021796585
 20
-11.0729759741
 10
35.9809056841
 20
-11.0715519103
 10
35.9392289208
 20
-11.0704983228
 10
35.8970539248
 20
-11.0698189775
 10
35.8546894737
 20
-11.0695157124
  0
LINE
  5
28A
100
AcDbEntity
  8
0
100
AcDbLine
 62
7
  6
CONTINUOUS
 10
13.2611842105
 20
-1.9173581278
 11
15.0611842105
 21
-1.9173581278
  0
LINE
  5
28B
100
AcDbEntity
  8
RACCORDO
100
AcDbLine
 62
250
  6
CONTINUOUS
 10
-8.1020595145
 20
39.8960569348
 11
-8.1416811306
 21
39.9356785509
  0
LINE
  5
28C
100
AcDbEntity
  8
RACCORDO
100
AcDbLine
 62
250
  6
CONTINUOUS
 10
-7.602230852
 20
40.3958855973
 11
-7.6418524682
 21
40.4355072134
  0
LWPOLYLINE
  5
28D
100
AcDbEntity
  8
RACCORDO
100
AcDbPolyline
 62
250
  6
CONTINUOUS
 90
16
 70
0
 10
36.3955764408
 20
3.7963001057
 10
36.3915901196
 20
3.8016747974
 10
36.3823496883
 20
3.8069925372
 10
36.3679530617
 20
3.8121969764
 10
36.3485527911
 20
3.8172329671
 10
36.3243544484
 20
3.8220471462
 10
36.2956144471
 20
3.8265885011
 10
36.2626373258
 20
3.8308089102
 10
36.2257725212
 20
3.8346636525
 10
36.1854106648
 20
3.8381118819
 10
36.1419794443
 20
3.8411170599
 10
36.0959390714
 20
3.8436473425
 10
36.0477774051
 20
3.8456759181
 10
35.9980047823
 20
3.8471812913
 10
35.9471486105
 20
3.8481475104
 10
35.8957477783
 20
3.8485643373
  0
LWPOLYLINE
  5
28E
100
AcDbEntity
  8
0
100
AcDbPolyline
 62
7
  6
CONTINUOUS
 90
10
 70
0
 43
0.3499999917
 10
15.1254698181
 20
48.6258700562
 10
15.1968978882
 20
48.483013916
 10
15.1968978882
 20
48.4115890503
 10
15.054041748
 20
48.2687329102
 10
14.9826120758
 20
48.2687329102
 10
14.9111840057
 20
48.3401577759
 10
14.9111840057
 20
48.4115890503
 10
14.9826120758
 20
48.5544451904
 10
15.054041748
 20
48.6258700562
 10
15.1254698181
 20
48.6258700562
  0
LINE
  5
28F
100
AcDbEntity
  8
0
100
AcDbLine
 62
7
  6
CONTINUOUS
 10
15.0611842105
 20
0.0826418722
 11
13.2611842105
 21
0.0826418722
  0
LINE
  5
290
100
AcDbEntity
  8
RACCORDO
100
AcDbLine
 62
250
  6
CONTINUOUS
 10
-7.5733793573
 20
3.8485643373
 11
35.8957477783
 21
3.8485643373
  0
LWPOLYLINE
  5
291
100
AcDbEntity
  8
0
100
AcDbPolyline
 62
7
  6
CONTINUOUS
 90
4
 70
0
 43
0.3499999917
 10
41.9650694275
 20
16.0112127686
 10
41.3222135925
 20
16.0112127686
 10
41.3222135925
 20
17.511211853
 10
44.3222117615
 20
16.6540718079
  0
LINE
  5
292
100
AcDbEntity
  8
RACCORDO
100
AcDbLine
 62
250
  6
CONTINUOUS
 10
-8.1020595145
 20
24.8197845672
 11
36.4244279356
 21
24.8197845672
  0
LWPOLYLINE
  5
293
100
AcDbEntity
  8
0
100
AcDbPolyline
 62
7
  6
CONTINUOUS
 90
3
 70
0
 43
0.3499999917
 10
44.0364994812
 20
15.0112133789
 10
44.2507836914
 20
14.9397853088
 10
44.536499176
 20
14.7969291687
  0
LINE
  5
294
100
AcDbEntity
  8
RACCORDO
100
AcDbLine
 62
250
  6
CONTINUOUS
 10
36.4244279356
 20
39.8960569348
 11
-8.1020595145
 21
39.8960569348
  0
LINE
  5
295
100
AcDbEntity
  8
RACCORDO
100
AcDbLine
 62
250
  6
CONTINUOUS
 10
35.9245992731
 20
40.3958855973
 11
-7.602230852
 21
40.3958855973
  0
LINE
  5
296
100
AcDbEntity
  8
RACCORDO
100
AcDbLine
 62
7
  6
CONTINUOUS
 10
-7.6418524682
 20
40.4355072134
 11
35.9642208892
 21
40.4355072134
  0
LWPOLYLINE
  5
297
100
AcDbEntity
  8
0
100
AcDbPolyline
 62
7
  6
CONTINUOUS
 90
3
 70
0
 43
0.3499999917
 10
13.6254691315
 20
48.768732605
 10
12.125470047
 20
48.768732605
 10
12.768326683
 20
51.125874939
  0
LWPOLYLINE
  5
298
100
AcDbEntity
  8
0
100
AcDbPolyline
 62
7
  6
CONTINUOUS
 90
3
 70
0
 43
0.3499999917
 10
11.2683267975
 20
48.768732605
 10
9.7683269119
 20
48.768732605
 10
10.4111843491
 20
51.125874939
  0
LWPOLYLINE
  5
299
100
AcDbEntity
  8
0
100
AcDbPolyline
 62
7
  6
CONTINUOUS
 90
10
 70
0
 43
0.3499999917
 10
-44.2470602417
 20
55.8211386108
 10
-44.889919281
 20
55.1782827759
 10
-45.3184909058
 20
54.3211395264
 10
-45.3184909058
 20
53.2497088623
 10
-44.889919281
 20
52.8211404419
 10
-44.2470602417
 20
52.8211404419
 10
-43.8184886169
 20
53.2497088623
 10
-43.8184886169
 20
54.1068521118
 10
-44.2470602417
 20
54.5354205322
 10
-45.1756315613
 20
54.5354205322
  0
LWPOLYLINE
  5
29A
100
AcDbEntity
  8
RACCORDO
100
AcDbPolyline
 62
7
  6
CONTINUOUS
 90
13
 70
0
 10
-30.2372411315
 20
34.4964210615
 10
-30.2167915386
 20
34.5079739338
 10
-30.1970411191
 20
34.5178767468
 10
-30.1783225788
 20
34.5262435655
 10
-30.1609929693
 20
34.5331648529
 10
-30.1452148105
 20
34.5388446343
 10
-30.1310136975
 20
34.5435471274
 10
-30.1185924704
 20
34.5474399347
 10
-30.1081496764
 20
34.5506309424
 10
-30.09976501
 20
34.553249494
 10
-30.0935989786
 20
34.5554367636
 10
-30.0898251022
 20
34.5573678625
 10
-30.0885501119
 20
34.5592233828
  0
LINE
  5
29B
100
AcDbEntity
  8
RACCORDO
100
AcDbLine
 62
250
  6
CONTINUOUS
 10
-30.4612457178
 20
35.5068159907
 11
-30.4839017058
 21
35.483668118
  0
LINE
  5
29C
100
AcDbEntity
  8
RACCORDO
100
AcDbLine
 62
250
  6
CONTINUOUS
 10
-30.2579562839
 20
35.2832248498
 11
-30.3027931718
 21
35.2377488738
  0
LINE
  5
29D
100
AcDbEntity
  8
RACCORDO
100
AcDbLine
 62
250
  6
CONTINUOUS
 10
-30.4839017058
 20
35.483668118
 11
-30.5556756568
 21
35.4112061125
  0
LINE
  5
29E
100
AcDbEntity
  8
RACCORDO
100
AcDbLine
 62
250
  6
CONTINUOUS
 10
-30.5556756568
 20
35.4112061125
 11
-30.6229045105
 21
35.3438073447
  0
LINE
  5
29F
100
AcDbEntity
  8
RACCORDO
100
AcDbLine
 62
250
  6
CONTINUOUS
 10
-30.3027931718
 20
35.2377488738
 11
-30.4095917827
 21
35.1304946169
  0
LWPOLYLINE
  5
2A0
100
AcDbEntity
  8
RACCORDO
100
AcDbPolyline
 62
7
  6
CONTINUOUS
 90
3
 70
0
 10
-31.7467182994
 20
16.8894555089
 10
-31.7862802791
 20
16.8678285793
 10
-31.7885501119
 20
16.8665720392
  0
LINE
  5
2A1
100
AcDbEntity
  8
RACCORDO
100
AcDbLine
 62
250
  6
CONTINUOUS
 10
-31.6322163415
 20
16.8391971247
 11
-31.7117719098
 21
16.7961864591
  0
LINE
  5
2A2
100
AcDbEntity
  8
RACCORDO
100
AcDbLine
 62
250
  6
CONTINUOUS
 10
-31.2644018335
 20
17.034994442
 11
-31.328301291
 21
17.0004517192
  0
LINE
  5
2A3
100
AcDbEntity
  8
RACCORDO
100
AcDbLine
 62
7
  6
CONTINUOUS
 10
-31.6708347006
 20
16.9303317894
 11
-31.7467182994
 21
16.8894555089
  0
LINE
  5
2A4
100
AcDbEntity
  8
RACCORDO
100
AcDbLine
 62
250
  6
CONTINUOUS
 10
-31.328301291
 20
17.0004517192
 11
-31.4225162121
 21
16.9502799594
  0
LINE
  5
2A5
100
AcDbEntity
  8
RACCORDO
100
AcDbLine
 62
7
  6
CONTINUOUS
 10
-31.6708347006
 20
16.9303317894
 11
-31.5332904311
 21
17.0032557723
  0
LINE
  5
2A6
100
AcDbEntity
  8
RACCORDO
100
AcDbLine
 62
250
  6
CONTINUOUS
 10
-31.4225162121
 20
16.9502799594
 11
-31.6322163415
 21
16.8391971247
  0
LINE
  5
2A7
100
AcDbEntity
  8
RACCORDO
100
AcDbLine
 62
250
  6
CONTINUOUS
 10
-31.5750666723
 20
18.5379152929
 11
-31.7885501119
 21
18.4280665644
  0
LWPOLYLINE
  5
2A8
100
AcDbEntity
  8
RACCORDO
100
AcDbPolyline
 62
250
  6
CONTINUOUS
 90
5
 70
0
 10
-31.1479945822
 20
17.698753397
 10
-31.1984141519
 20
17.6737518123
 10
-31.2483880605
 20
17.6492431058
 10
-31.2979163079
 20
17.6252272776
 10
-31.3465402544
 20
17.6019944981
  0
LINE
  5
2A9
100
AcDbEntity
  8
RACCORDO
100
AcDbLine
 62
7
  6
CONTINUOUS
 10
-31.7796021866
 20
17.5060704126
 11
-31.7885501119
 21
17.5016676293
  0
LWPOLYLINE
  5
2AA
100
AcDbEntity
  8
RACCORDO
100
AcDbPolyline
 62
250
  6
CONTINUOUS
 90
3
 70
0
 10
-31.7060263315
 20
17.4321188885
 10
-31.7605616016
 20
17.4055568423
 10
-31.7885501119
 20
17.3916651574
  0
LWPOLYLINE
  5
2AB
100
AcDbEntity
  8
IMPORT_IGES
100
AcDbPolyline
 62
7
  6
CONTINUOUS
 90
5
 70
0
 10
-31.2997906682
 20
20.0460005007
 10
-31.3190621146
 20
20.0366399954
 10
-31.4820396855
 20
19.9546383084
 10
-31.6495215325
 20
19.8683010154
 10
-31.7885501119
 20
19.7957226597
  0
LINE
  5
2AC
100
AcDbEntity
  8
RACCORDO
100
AcDbLine
 62
7
  6
CONTINUOUS
 10
-31.7812921412
 20
17.5052456462
 11
-31.6975474275
 21
17.5456483862
  0
LINE
  5
2AD
100
AcDbEntity
  8
RACCORDO
100
AcDbLine
 62
250
  6
CONTINUOUS
 10
-31.5981101811
 20
17.4836481456
 11
-31.7060263315
 21
17.4321188885
  0
LINE
  5
2AE
100
AcDbEntity
  8
RACCORDO
100
AcDbLine
 62
7
  6
CONTINUOUS
 10
-31.6264197198
 20
17.579388875
 11
-31.7277265217
 21
17.5311897502
  0
LINE
  5
2AF
100
AcDbEntity
  8
RACCORDO
100
AcDbLine
 62
7
  6
CONTINUOUS
 10
-31.5285504308
 20
17.6253750005
 11
-31.6557823277
 21
17.565508548
  0
LINE
  5
2B0
100
AcDbEntity
  8
RACCORDO
100
AcDbLine
 62
250
  6
CONTINUOUS
 10
-31.3465402544
 20
17.6019944981
 11
-31.5981101811
 21
17.4836481456
  0
LWPOLYLINE
  5
2B1
100
AcDbEntity
  8
RACCORDO
100
AcDbPolyline
 62
250
  6
CONTINUOUS
 90
7
 70
0
 10
-31.0785501149
 20
18.7816410612
 10
-31.1437993017
 20
18.751125455
 10
-31.2109763448
 20
18.7191477817
 10
-31.2800812444
 20
18.6857080414
 10
-31.3513222817
 20
18.6506526736
 10
-31.4244911754
 20
18.6141352388
 10
-31.5750666723
 20
18.5379152929
  0
LWPOLYLINE
  5
2B2
100
AcDbEntity
  8
RACCORDO
100
AcDbPolyline
 62
250
  6
CONTINUOUS
 90
9
 70
0
 10
-31.0785501165
 20
18.8804226504
 10
-31.1432252066
 20
18.850423251
 10
-31.2097568923
 20
18.8191048839
 10
-31.2781451736
 20
18.7864029651
 10
-31.348520141
 20
18.7521885881
 10
-31.420751704
 20
18.7165099604
 10
-31.4944495917
 20
18.6796106657
 10
-31.5699658003
 20
18.6413839766
 10
-31.7885501119
 20
18.5292753026
  0
LWPOLYLINE
  5
2B3
100
AcDbEntity
  8
RACCORDO
100
AcDbPolyline
 62
250
  6
CONTINUOUS
 90
3
 70
0
 10
-31.7135419849
 20
18.0348764487
 10
-31.7651076754
 20
18.0122530844
 10
-31.7885501119
 20
18.0017829947
  0
LWPOLYLINE
  5
2B4
100
AcDbEntity
  8
RACCORDO
100
AcDbPolyline
 62
7
  6
CONTINUOUS
 90
3
 70
0
 10
-31.7210296833
 20
18.1392348656
 10
-31.7710613614
 20
18.1174748182
 10
-31.7885501119
 20
18.1097521951
  0
LINE
  5
2B5
100
AcDbEntity
  8
RACCORDO
100
AcDbLine
 62
250
  6
CONTINUOUS
 10
-31.6112891411
 20
18.0788855414
 11
-31.7135419849
 21
18.0348764487
  0
LINE
  5
2B6
100
AcDbEntity
  8
RACCORDO
100
AcDbLine
 62
7
  6
CONTINUOUS
 10
-31.6232243961
 20
18.1810748521
 11
-31.7210296833
 21
18.1392348656
  0
LINE
  5
2B7
100
AcDbEntity
  8
RACCORDO
100
AcDbLine
 62
7
  6
CONTINUOUS
 10
-31.5285494001
 20
18.2211021226
 11
-31.6232243961
 21
18.1810748521
  0
LINE
  5
2B8
100
AcDbEntity
  8
RACCORDO
100
AcDbLine
 62
250
  6
CONTINUOUS
 10
-31.3270799174
 20
18.1993695513
 11
-31.6112891411
 21
18.0788855414
  0
LINE
  5
2B9
100
AcDbEntity
  8
RACCORDO
100
AcDbLine
 62
250
  6
CONTINUOUS
 10
-31.1769041739
 20
18.9287121607
 11
-31.243411852
 21
18.9015615342
  0
LINE
  5
2BA
100
AcDbEntity
  8
RACCORDO
100
AcDbLine
 62
250
  6
CONTINUOUS
 10
-31.243411852
 20
18.9015615342
 11
-31.3071782513
 21
18.8760320812
  0
LINE
  5
2BB
100
AcDbEntity
  8
RACCORDO
100
AcDbLine
 62
7
  6
CONTINUOUS
 10
-31.2539744899
 20
18.9064645045
 11
-31.3538669191
 21
18.8668695283
  0
LINE
  5
2BC
100
AcDbEntity
  8
RACCORDO
100
AcDbLine
 62
7
  6
CONTINUOUS
 10
-31.7885501119
 20
18.6982142783
 11
-31.6713896785
 21
18.7443925163
  0
LINE
  5
2BD
100
AcDbEntity
  8
RACCORDO
100
AcDbLine
 62
250
  6
CONTINUOUS
 10
-31.7010266991
 20
18.7239150939
 11
-31.7885501119
 21
18.6894222567
  0
LWPOLYLINE
  5
2BE
100
AcDbEntity
  8
RACCORDO
100
AcDbPolyline
 62
7
  6
CONTINUOUS
 90
10
 70
0
 10
-31.2539744698
 20
18.9064644544
 10
-31.2466868035
 20
18.9093031472
 10
-31.2391008352
 20
18.9120667714
 10
-31.2312083287
 20
18.9147488511
 10
-31.2230015947
 20
18.9173451488
 10
-31.21447229
 20
18.9198490191
 10
-31.2056089438
 20
18.9222470989
 10
-31.1963997038
 20
18.9245276737
 10
-31.1868349544
 20
18.9266851744
 10
-31.1769043564
 20
18.9287125418
  0
LINE
  5
2BF
100
AcDbEntity
  8
RACCORDO
100
AcDbLine
 62
250
  6
CONTINUOUS
 10
-31.3071782513
 20
18.8760320812
 11
-31.4011608393
 21
18.8392854674
  0
LINE
  5
2C0
100
AcDbEntity
  8
RACCORDO
100
AcDbLine
 62
7
  6
CONTINUOUS
 10
-31.3538669191
 20
18.8668695283
 11
-31.6734919915
 21
18.7435753064
  0
LINE
  5
2C1
100
AcDbEntity
  8
RACCORDO
100
AcDbLine
 62
250
  6
CONTINUOUS
 10
-31.4011608393
 20
18.8392854674
 11
-31.7010266991
 21
18.7239150939
  0
LWPOLYLINE
  5
2C2
100
AcDbEntity
  8
RACCORDO
100
AcDbPolyline
 62
250
  6
CONTINUOUS
 90
4
 70
0
 10
-30.4483094491
 20
35.52058404
 10
-30.4496681296
 20
35.5189417061
 10
-30.4540047591
 20
35.5143262384
 10
-30.4612457178
 20
35.5068159907
  0
LWPOLYLINE
  5
2C3
100
AcDbEntity
  8
RACCORDO
100
AcDbPolyline
 62
250
  6
CONTINUOUS
 90
5
 70
0
 10
-30.2349967213
 20
35.3072713122
 10
-30.236355486
 20
35.3056289101
 10
-30.2406923251
 20
35.3010132464
 10
-30.2479335781
 20
35.2935027154
 10
-30.2579562839
 20
35.2832248498
  0
LWPOLYLINE
  5
2C4
100
AcDbEntity
  8
RACCORDO
100
AcDbPolyline
 62
250
  6
CONTINUOUS
 90
3
 70
0
 10
-31.5221645289
 20
16.2479388179
 10
-31.6127959322
 20
16.1886442343
 10
-31.6575298848
 20
16.1596821615
  0
LINE
  5
2C5
100
AcDbEntity
  8
RACCORDO
100
AcDbLine
 62
250
  6
CONTINUOUS
 10
-31.6575298848
 20
16.1596821615
 11
-31.7804976518
 21
16.0812220062
  0
LWPOLYLINE
  5
2C6
100
AcDbEntity
  8
RACCORDO
100
AcDbPolyline
 62
250
  6
CONTINUOUS
 90
3
 70
0
 10
-31.1618533154
 20
17.091808342
 10
-31.2310135633
 20
17.0533305129
 10
-31.2644018335
 20
17.034994442
  0
LWPOLYLINE
  5
2C7
100
AcDbEntity
  8
RACCORDO
100
AcDbPolyline
 62
250
  6
CONTINUOUS
 90
3
 70
0
 10
-31.7117719098
 20
16.7961864591
 10
-31.7532528257
 20
16.7734535606
 10
-31.7885501119
 20
16.7538345633
  0
LINE
  5
2C8
100
AcDbEntity
  8
DRAFT
100
AcDbLine
 62
7
  6
CONTINUOUS
 10
-30.8273080474
 20
19.5826418722
 11
-30.2738341692
 21
20.1070784922
  0
LWPOLYLINE
  5
2C9
100
AcDbEntity
  8
0
100
AcDbPolyline
 62
7
  6
CONTINUOUS
 90
3
 70
0
 43
0.3499999917
 10
-42.2470614624
 20
53.1068527222
 10
-42.3184895325
 20
52.8925653076
 10
-42.4613456726
 20
52.6068530273
  0
LWPOLYLINE
  5
2CA
100
AcDbEntity
  8
0
100
AcDbPolyline
 62
7
  6
CONTINUOUS
 90
3
 70
0
 43
0.3499999917
 10
-42.5860652161
 20
45.2697409058
 10
-42.6574932861
 20
45.0554598999
 10
-42.8003494263
 20
44.7697412109
  0
LINE
  5
2CB
100
AcDbEntity
  8
DRAFT
100
AcDbLine
 62
7
  6
CONTINUOUS
 10
-31.7649834998
 20
7.8612084843
 11
-31.2435501119
 21
8.3826418722
  0
LINE
  5
2CC
100
AcDbEntity
  8
0
100
AcDbLine
 62
7
  6
CONTINUOUS
 10
-31.7649834998
 20
5.7607519761
 11
-30.7312717704
 21
7.9475619776
  0
LINE
  5
2CD
100
AcDbEntity
  8
IMPORT_IGES
100
AcDbLine
 62
7
  6
CONTINUOUS
 10
-30.7312717704
 20
7.9475619776
 11
-30.5435501119
 21
8.3446858457
  0
LWPOLYLINE
  5
2CE
100
AcDbEntity
  8
0
100
AcDbPolyline
 62
7
  6
CONTINUOUS
 90
2
 70
0
 43
0.3499999917
 10
-44.6574920654
 20
44.9840286255
 10
-44.6574920654
 20
46.48402771
  0
LWPOLYLINE
  5
2CF
100
AcDbEntity
  8
RACCORDO
100
AcDbPolyline
 62
250
  6
CONTINUOUS
 90
7
 70
0
 10
-30.6160587692
 20
37.6633484231
 10
-30.6134066524
 20
37.6803347434
 10
-30.6112596802
 20
37.6946613069
 10
-30.6096544465
 20
37.7060839259
 10
-30.6086183117
 20
37.7144079084
 10
-30.6081689359
 20
37.719491377
 10
-30.6083139786
 20
37.721247687
  0
LWPOLYLINE
  5
2D0
100
AcDbEntity
  8
RACCORDO
100
AcDbPolyline
 62
250
  6
CONTINUOUS
 90
7
 70
0
 10
-30.6160587692
 20
37.2633484231
 10
-30.6134066524
 20
37.2803347434
 10
-30.6112596802
 20
37.2946613069
 10
-30.6096544465
 20
37.3060839259
 10
-30.6086183117
 20
37.3144079084
 10
-30.6081689359
 20
37.319491377
 10
-30.6083139786
 20
37.321247687
  0
LINE
  5
2D1
100
AcDbEntity
  8
RACCORDO
100
AcDbLine
 62
250
  6
CONTINUOUS
 10
-30.6226897819
 20
37.6225949993
 11
-30.6160587692
 21
37.6633484231
  0
LINE
  5
2D2
100
AcDbEntity
  8
RACCORDO
100
AcDbLine
 62
250
  6
CONTINUOUS
 10
-30.6226897819
 20
37.2225949993
 11
-30.6160587692
 21
37.2633484231
  0
LINE
  5
2D3
100
AcDbEntity
  8
RACCORDO
100
AcDbLine
 62
250
  6
CONTINUOUS
 10
-30.6307025579
 20
37.5751676685
 11
-30.6226897819
 21
37.6225949993
  0
LINE
  5
2D4
100
AcDbEntity
  8
RACCORDO
100
AcDbLine
 62
250
  6
CONTINUOUS
 10
-30.6307025579
 20
37.1751676685
 11
-30.6226897819
 21
37.2225949993
  0
LINE
  5
2D5
100
AcDbEntity
  8
RACCORDO
100
AcDbLine
 62
250
  6
CONTINUOUS
 10
-30.6395531328
 20
37.5242861364
 11
-30.6307025579
 21
37.5751676685
  0
LINE
  5
2D6
100
AcDbEntity
  8
RACCORDO
100
AcDbLine
 62
250
  6
CONTINUOUS
 10
-30.6395531328
 20
37.1242861364
 11
-30.6307025579
 21
37.1751676685
  0
LWPOLYLINE
  5
2D7
100
AcDbEntity
  8
DRAFT
100
AcDbPolyline
 62
7
  6
CONTINUOUS
 90
25
 70
0
 10
-29.9885501119
 20
20.1947271096
 10
-29.9894162718
 20
20.1898858539
 10
-29.9920050343
 20
20.1849975014
 10
-29.9962974341
 20
20.1800620522
 10
-30.0022677547
 20
20.1750596242
 10
-30.0098862527
 20
20.1700100994
 10
-30.0191218057
 20
20.164973124
 10
-30.0299358769
 20
20.1599473709
 10
-30.0422845522
 20
20.1549341672
 10
-30.0561251156
 20
20.1499971398
 10
-30.0714056547
 20
20.1451361733
 10
-30.0880702686
 20
20.1403513831
 10
-30.1060672207
 20
20.1357067427
 10
-30.125330963
 20
20.131203618
 10
-30.1457969573
 20
20.1268406432
 10
-30.1674139576
 20
20.1226776939
 10
-30.1901107199
 20
20.1187163361
 10
-30.2138117808
 20
20.1149550038
 10
-30.2384595569
 20
20.1114488754
 10
-30.2639766399
 20
20.1082003756
 10
-30.2902775051
 20
20.1052070796
 10
-30.317290975
 20
20.1025168913
 10
-30.3449339169
 20
20.1001457784
 10
-30.373110192
 20
20.0980777731
 10
-30.401726023
 20
20.0963128754
  0
LWPOLYLINE
  5
2D8
100
AcDbEntity
  8
RACCORDO
100
AcDbPolyline
 62
250
  6
CONTINUOUS
 90
10
 70
0
 10
-36.040819137
 20
-11.4670356755
 10
-36.0460931893
 20
-11.4958450603
 10
-36.0507018024
 20
-11.5218181791
 10
-36.0546110646
 20
-11.5447636908
 10
-36.0577934632
 20
-11.5645213311
 10
-36.0602216867
 20
-11.5809230425
 10
-36.0618747127
 20
-11.5938215099
 10
-36.0627445052
 20
-11.6031358104
 10
-36.0628307527
 20
-11.6088281517
 10
-36.0621376401
 20
-11.6108783538
  0
LINE
  5
2D9
100
AcDbEntity
  8
RACCORDO
100
AcDbLine
 62
250
  6
CONTINUOUS
 10
-36.0284363451
 20
-11.4017870354
 11
-36.040819137
 21
-11.4670356755
  0
LINE
  5
2DA
100
AcDbEntity
  8
RACCORDO
100
AcDbLine
 62
250
  6
CONTINUOUS
 10
-36.0139310957
 20
-11.3280643497
 11
-36.0284363451
 21
-11.4017870354
  0
LINE
  5
2DB
100
AcDbEntity
  8
RACCORDO
100
AcDbLine
 62
250
  6
CONTINUOUS
 10
-35.9977432198
 20
-11.2481031355
 11
-36.0139310957
 21
-11.3280643497
  0
LWPOLYLINE
  5
2DC
100
AcDbEntity
  8
RACCORDO
100
AcDbPolyline
 62
250
  6
CONTINUOUS
 90
3
 70
0
 10
-35.9713861147
 20
-11.121779944
 10
-35.9803614002
 20
-11.1643173126
 10
-35.9977432198
 20
-11.2481031355
  0
LWPOLYLINE
  5
2DD
100
AcDbEntity
  8
0
100
AcDbPolyline
 62
7
  6
CONTINUOUS
 90
4
 70
0
 43
0.3499999917
 10
-41.5860658264
 20
47.3411709595
 10
-41.5860658264
 20
47.9840267944
 10
-40.0860635376
 20
47.9840267944
 10
-40.9432067871
 20
44.9840286255
  0
LWPOLYLINE
  5
2DE
100
AcDbEntity
  8
0
100
AcDbPolyline
 62
7
  6
CONTINUOUS
 90
2
 70
0
 43
0.3499999917
 10
-40.2470626831
 20
52.8211404419
 10
-40.2470626831
 20
54.3211395264
  0
LINE
  5
2DF
100
AcDbEntity
  8
RACCORDO
100
AcDbLine
 62
7
  6
CONTINUOUS
 10
-33.8738609329
 20
17.6717845936
 11
-33.8484899209
 21
18.6509606229
  0
LINE
  5
2E0
100
AcDbEntity
  8
RACCORDO
100
AcDbLine
 62
250
  6
CONTINUOUS
 10
-33.3866924128
 20
17.6735301435
 11
-33.4149387858
 21
16.7765641628
  0
LINE
  5
2E1
100
AcDbEntity
  8
RACCORDO
100
AcDbLine
 62
7
  6
CONTINUOUS
 10
-33.9034228364
 20
16.7402896248
 11
-33.8733979415
 21
17.6878812659
  0
LINE
  5
2E2
100
AcDbEntity
  8
RACCORDO
100
AcDbLine
 62
250
  6
CONTINUOUS
 10
-33.4149387858
 20
16.7765641628
 11
-33.4486158358
 21
15.8777529149
  0
LINE
  5
2E3
100
AcDbEntity
  8
RACCORDO
100
AcDbLine
 62
7
  6
CONTINUOUS
 10
-33.9375040301
 20
15.8386381732
 11
-33.9015751685
 21
16.7937480699
  0
LINE
  5
2E4
100
AcDbEntity
  8
RACCORDO
100
AcDbLine
 62
7
  6
CONTINUOUS
 10
-33.9350869087
 20
15.8979949947
 11
-33.9742902182
 21
15.0021102787
  0
LINE
  5
2E5
100
AcDbEntity
  8
RACCORDO
100
AcDbLine
 62
250
  6
CONTINUOUS
 10
-33.4486158358
 20
15.8777529149
 11
-33.4879319416
 21
14.9785955369
  0
LINE
  5
2E6
100
AcDbEntity
  8
RACCORDO
100
AcDbLine
 62
7
  6
CONTINUOUS
 10
-33.9982623755
 20
14.5124837305
 11
-33.9562936294
 21
15.3967746595
  0
LINE
  5
2E7
100
AcDbEntity
  8
RACCORDO
100
AcDbLine
 62
250
  6
CONTINUOUS
 10
-33.4879319416
 20
14.9785955369
 11
-33.5329468983
 21
14.0883117266
  0
LINE
  5
2E8
100
AcDbEntity
  8
RACCORDO
100
AcDbLine
 62
7
  6
CONTINUOUS
 10
-33.9959622482
 20
14.5578665583
 11
-34.043755351
 21
13.6726140184
  0
LINE
  5
2E9
100
AcDbEntity
  8
RACCORDO
100
AcDbLine
 62
250
  6
CONTINUOUS
 10
-33.5329468983
 20
14.0883117266
 11
-33.5838050811
 21
13.2009174563
  0
LINE
  5
2EA
100
AcDbEntity
  8
RACCORDO
100
AcDbLine
 62
7
  6
CONTINUOUS
 10
-34.0729914355
 20
13.1794562128
 11
-34.0215383711
 21
14.0700613908
  0
LINE
  5
2EB
100
AcDbEntity
  8
RACCORDO
100
AcDbLine
 62
7
  6
CONTINUOUS
 10
-34.0698373769
 20
13.2312236815
 11
-34.1266659133
 21
12.3425077031
  0
LINE
  5
2EC
100
AcDbEntity
  8
RACCORDO
100
AcDbLine
 62
250
  6
CONTINUOUS
 10
-33.5838050811
 20
13.2009174563
 11
-33.6408755788
 21
12.3090422841
  0
LINE
  5
2ED
100
AcDbEntity
  8
RACCORDO
100
AcDbLine
 62
7
  6
CONTINUOUS
 10
-34.1614409456
 20
11.8370686682
 11
-34.1011138391
 21
12.7312705097
  0
LINE
  5
2EE
100
AcDbEntity
  8
RACCORDO
100
AcDbLine
 62
250
  6
CONTINUOUS
 10
-33.6408755788
 20
12.3090422841
 11
-33.7050101381
 21
11.3942583873
  0
LINE
  5
2EF
100
AcDbEntity
  8
RACCORDO
100
AcDbLine
 62
7
  6
CONTINUOUS
 10
-34.2269020289
 20
10.9450071346
 11
-34.1577522959
 21
11.889520179
  0
LINE
  5
2F0
100
AcDbEntity
  8
RACCORDO
100
AcDbLine
 62
250
  6
CONTINUOUS
 10
-33.7050101381
 20
11.3942583873
 11
-33.7777768465
 21
10.438707923
  0
LINE
  5
2F1
100
AcDbEntity
  8
RACCORDO
100
AcDbLine
 62
7
  6
CONTINUOUS
 10
-34.225740582
 20
10.9602600751
 11
-34.3028603959
 21
9.9842208994
  0
LINE
  5
2F2
100
AcDbEntity
  8
RACCORDO
100
AcDbLine
 62
250
  6
CONTINUOUS
 10
-33.7777768465
 20
10.438707923
 11
-33.8603109801
 21
9.4305915795
  0
LINE
  5
2F3
100
AcDbEntity
  8
RACCORDO
100
AcDbLine
 62
7
  6
CONTINUOUS
 10
-34.2971612051
 20
10.0540261356
 11
-34.3909540784
 21
8.9437137099
  0
LINE
  5
2F4
100
AcDbEntity
  8
RACCORDO
100
AcDbLine
 62
250
  6
CONTINUOUS
 10
-33.8603109801
 20
9.4305915795
 11
-33.954545322
 21
8.3522330386
  0
LINE
  5
2F5
100
AcDbEntity
  8
RACCORDO
100
AcDbLine
 62
7
  6
CONTINUOUS
 10
-34.4529804834
 20
8.2474848286
 11
-34.3724879209
 21
9.1563394367
  0
LINE
  5
2F6
100
AcDbEntity
  8
RACCORDO
100
AcDbLine
 62
7
  6
CONTINUOUS
 10
-34.4394582621
 20
8.3970794626
 11
-34.5472478478
 21
7.233348616
  0
LINE
  5
2F7
100
AcDbEntity
  8
RACCORDO
100
AcDbLine
 62
250
  6
CONTINUOUS
 10
-33.954545322
 20
8.3522330386
 11
-34.0626005819
 21
7.1860438733
  0
LINE
  5
2F8
100
AcDbEntity
  8
RACCORDO
100
AcDbLine
 62
7
  6
CONTINUOUS
 10
-34.4953012307
 20
7.7863374845
 11
-34.6066310293
 21
6.6162571411
  0
LINE
  5
2F9
100
AcDbEntity
  8
RACCORDO
100
AcDbLine
 62
250
  6
CONTINUOUS
 10
-34.0626005819
 20
7.1860438733
 11
-34.1858249963
 21
5.920307245
  0
LINE
  5
2FA
100
AcDbEntity
  8
RACCORDO
100
AcDbLine
 62
7
  6
CONTINUOUS
 10
-34.7800172163
 20
4.8842895506
 11
-34.5841296621
 21
6.8483584706
  0
LINE
  5
2FB
100
AcDbEntity
  8
RACCORDO
100
AcDbLine
 62
250
  6
CONTINUOUS
 10
-34.1858249963
 20
5.920307245
 11
-34.3266148927
 21
4.5335760274
  0
LINE
  5
2FC
100
AcDbEntity
  8
RACCORDO
100
AcDbLine
 62
7
  6
CONTINUOUS
 10
-34.7384057267
 20
5.2920782502
 11
-34.887605193
 21
3.8485643373
  0
LINE
  5
2FD
100
AcDbEntity
  8
RACCORDO
100
AcDbLine
 62
7
  6
CONTINUOUS
 10
-34.887605193
 20
3.8485643373
 11
-36.4555585882
 21
-11.0695157124
  0
LINE
  5
2FE
100
AcDbEntity
  8
RACCORDO
100
AcDbLine
 62
250
  6
CONTINUOUS
 10
-34.3266148927
 20
4.5335760274
 11
-35.9713861147
 21
-11.121779944
  0
LINE
  5
2FF
100
AcDbEntity
  8
0
100
AcDbLine
 62
7
  6
CONTINUOUS
 10
-31.2751474167
 20
6.7969968161
 11
-31.7649834998
 21
2.8076020625
  0
LWPOLYLINE
  5
300
100
AcDbEntity
  8
RACCORDO
100
AcDbPolyline
 62
250
  6
CONTINUOUS
 90
5
 70
0
 10
-29.2055245402
 20
15.6000277661
 10
-29.2037174535
 20
15.6114366128
 10
-29.2024694487
 20
15.6197393812
 10
-29.2018018382
 20
15.624794282
 10
-29.201726023
 20
15.626514991
  0
LINE
  5
301
100
AcDbEntity
  8
RACCORDO
100
AcDbLine
 62
250
  6
CONTINUOUS
 10
-29.2106834965
 20
15.5687208841
 11
-29.2055245402
 21
15.6000277661
  0
LINE
  5
302
100
AcDbEntity
  8
RACCORDO
100
AcDbLine
 62
250
  6
CONTINUOUS
 10
-29.2215656477
 20
15.5048585069
 11
-29.2106834965
 21
15.5687208841
  0
LINE
  5
303
100
AcDbEntity
  8
RACCORDO
100
AcDbLine
 62
250
  6
CONTINUOUS
 10
-29.2347103515
 20
15.4295534404
 11
-29.2215656477
 21
15.5048585069
  0
LWPOLYLINE
  5
304
100
AcDbEntity
  8
RACCORDO
100
AcDbPolyline
 62
250
  6
CONTINUOUS
 90
9
 70
0
 10
-33.1857885703
 20
-12.0535309459
 10
-33.1925005189
 20
-12.0897044779
 10
-33.1982799938
 20
-12.1219335232
 10
-33.2030641108
 20
-12.1498674107
 10
-33.2068008158
 20
-12.1732022028
 10
-33.2094494512
 20
-12.1916840026
 10
-33.2109811981
 20
-12.2051117167
 10
-33.2113793901
 20
-12.2133392435
 10
-33.2106396944
 20
-12.216277062
  0
LINE
  5
305
100
AcDbEntity
  8
RACCORDO
100
AcDbLine
 62
250
  6
CONTINUOUS
 10
-33.1698687236
 20
-11.9709634161
 11
-33.1857885703
 21
-12.0535309459
  0
LINE
  5
306
100
AcDbEntity
  8
RACCORDO
100
AcDbLine
 62
250
  6
CONTINUOUS
 10
-33.151211438
 20
-11.8778146914
 11
-33.1698687236
 21
-11.9709634161
  0
LWPOLYLINE
  5
307
100
AcDbEntity
  8
RACCORDO
100
AcDbPolyline
 62
250
  6
CONTINUOUS
 90
3
 70
0
 10
-33.119888169
 20
-11.7271786522
 10
-33.1306265133
 20
-11.7781277917
 10
-33.151211438
 20
-11.8778146914
  0
LINE
  5
308
100
AcDbEntity
  8
RACCORDO
100
AcDbLine
 62
250
  6
CONTINUOUS
 10
-33.301638586
 20
39.8960569348
 11
-33.3037154662
 21
39.9830597234
  0
LINE
  5
309
100
AcDbEntity
  8
RACCORDO
100
AcDbLine
 62
250
  6
CONTINUOUS
 10
-33.3037154662
 20
39.9830597234
 11
-33.3053298784
 21
40.0674396786
  0
LINE
  5
30A
100
AcDbEntity
  8
RACCORDO
100
AcDbLine
 62
250
  6
CONTINUOUS
 10
-33.3053298784
 20
40.0674396786
 11
-33.3064316315
 21
40.1465894176
  0
LWPOLYLINE
  5
30B
100
AcDbEntity
  8
RACCORDO
100
AcDbPolyline
 62
250
  6
CONTINUOUS
 90
12
 70
0
 10
-33.3064316315
 20
40.1465894176
 10
-33.3069864758
 20
40.2179816145
 10
-33.3070536278
 20
40.2501307813
 10
-33.3069792999
 20
40.279615127
 10
-33.3067637413
 20
40.3061741685
 10
-33.3064091865
 20
40.3295604794
 10
-33.3059188977
 20
40.3496090697
 10
-33.3052971719
 20
40.3661804019
 10
-33.3045508188
 20
40.3791416215
 10
-33.3036872874
 20
40.3884256421
 10
-33.3027137669
 20
40.3940085899
 10
-33.3016385881
 20
40.3958855972
  0
LINE
  5
30C
100
AcDbEntity
  8
RACCORDO
100
AcDbLine
 62
250
  6
CONTINUOUS
 10
-30.7967011829
 20
35.6335116743
 11
-30.7965960832
 21
35.5937823043
  0
LWPOLYLINE
  5
30D
100
AcDbEntity
  8
RACCORDO
100
AcDbPolyline
 62
250
  6
CONTINUOUS
 90
9
 70
0
 10
-33.0345263922
 20
-12.0722408433
 10
-33.0345263922
 20
-12.1092318239
 10
-33.0343241174
 20
-12.1421580583
 10
-33.0339217819
 20
-12.1706591142
 10
-33.0333237901
 20
-12.1944230002
 10
-33.0325366879
 20
-12.2131895811
 10
-33.0315690915
 20
-12.2267534255
 10
-33.0304315928
 20
-12.2349660545
 10
-33.0291366436
 20
-12.2377375673
  0
LINE
  5
30E
100
AcDbEntity
  8
RACCORDO
100
AcDbLine
 62
7
  6
CONTINUOUS
 10
-31.7885501119
 20
40.4355072134
 11
-31.7885501119
 21
-12.270223469
  0
LINE
  5
30F
100
AcDbEntity
  8
RACCORDO
100
AcDbLine
 62
7
  6
CONTINUOUS
 10
-31.7649834998
 20
2.6276326342
 11
-31.7649834998
 21
7.8612084843
  0
LINE
  5
310
100
AcDbEntity
  8
DRAFT
100
AcDbLine
 62
250
  6
CONTINUOUS
 10
-31.5385501119
 20
2.4107697063
 11
-31.5385501119
 21
-0.7454859619
  0
LINE
  5
311
100
AcDbEntity
  8
RACCORDO
100
AcDbLine
 62
7
  6
CONTINUOUS
 10
-31.0785501119
 20
20.0586261919
 11
-31.0785501119
 21
15.9574497159
  0
LINE
  5
312
100
AcDbEntity
  8
RACCORDO
100
AcDbLine
 62
7
  6
CONTINUOUS
 10
-30.7565728294
 20
36.5121811013
 11
-30.7565728294
 21
36.6531026432
  0
LINE
  5
313
100
AcDbEntity
  8
IMPORT_IGES
100
AcDbLine
 62
7
  6
CONTINUOUS
 10
-30.731249247
 20
8.3826418722
 11
-30.731249247
 21
7.9476096257
  0
LINE
  5
314
100
AcDbEntity
  8
RACCORDO
100
AcDbLine
 62
250
  6
CONTINUOUS
 10
-30.7142501237
 20
15.8932137989
 11
-30.7142501237
 21
17.4551797485
  0
LINE
  5
315
100
AcDbEntity
  8
RACCORDO
100
AcDbLine
 62
7
  6
CONTINUOUS
 10
-30.6903801931
 20
17.4125508912
 11
-30.6903801931
 21
15.8890048861
  0
LINE
  5
316
100
AcDbEntity
  8
DRAFT
100
AcDbLine
 62
7
  6
CONTINUOUS
 10
-30.5885501119
 20
2.3775739982
 11
-30.5885501119
 21
2.327655476
  0
LINE
  5
317
100
AcDbEntity
  8
DRAFT
100
AcDbLine
 62
7
  6
CONTINUOUS
 10
-30.5885501119
 20
-0.6623717315
 11
-30.5885501119
 21
-0.7122902538
  0
LINE
  5
318
100
AcDbEntity
  8
IMPORT_IGES
100
AcDbLine
 62
7
  6
CONTINUOUS
 10
-30.5435501119
 20
8.3446858457
 11
-30.5435501119
 21
12.3021689632
  0
LINE
  5
319
100
AcDbEntity
  8
DRAFT
100
AcDbLine
 62
250
  6
CONTINUOUS
 10
-30.401726023
 20
20.7414452998
 11
-30.401726023
 21
20.0963128754
  0
LINE
  5
31A
100
AcDbEntity
  8
RACCORDO
100
AcDbLine
 62
250
  6
CONTINUOUS
 10
-30.336368478
 20
34.9537179216
 11
-30.336368478
 21
34.4677238906
  0
LINE
  5
31B
100
AcDbEntity
  8
RACCORDO
100
AcDbLine
 62
250
  6
CONTINUOUS
 10
-30.2372411315
 20
33.9031614348
 11
-30.2372411315
 21
34.4964210615
  0
LINE
  5
31C
100
AcDbEntity
  8
RACCORDO
100
AcDbLine
 62
7
  6
CONTINUOUS
 10
-30.0885501119
 20
34.0531557233
 11
-30.0885501119
 21
34.9537179216
  0
LINE
  5
31D
100
AcDbEntity
  8
DRAFT
100
AcDbLine
 62
7
  6
CONTINUOUS
 10
-29.9885501119
 20
20.9251622779
 11
-29.9885501119
 21
20.1947271096
  0
LINE
  5
31E
100
AcDbEntity
  8
DRAFT
100
AcDbLine
 62
7
  6
CONTINUOUS
 10
-29.6385501119
 20
2.2445412456
 11
-29.6385501119
 21
-0.5792575012
  0
LINE
  5
31F
100
AcDbEntity
  8
DRAFT
100
AcDbLine
 62
7
  6
CONTINUOUS
 10
-29.3498749773
 20
2.2192854439
 11
-29.3498749773
 21
-0.5540016995
  0
LINE
  5
320
100
AcDbEntity
  8
DRAFT
100
AcDbLine
 62
7
  6
CONTINUOUS
 10
-31.0699639246
 20
12.209348005
 11
-31.073858703
 21
8.3826418722
  0
LINE
  5
321
100
AcDbEntity
  8
RACCORDO
100
AcDbLine
 62
7
  6
CONTINUOUS
 10
-33.7885501119
 20
39.8960569348
 11
-33.7898175779
 21
23.7771639577
  0
LINE
  5
322
100
AcDbEntity
  8
RACCORDO
100
AcDbLine
 62
250
  6
CONTINUOUS
 10
-33.301638586
 20
39.8960569348
 11
-33.3028857165
 21
23.7759245791
  0
LINE
  5
323
100
AcDbEntity
  8
RACCORDO
100
AcDbLine
 62
250
  6
CONTINUOUS
 10
-33.3028857165
 20
23.7759245791
 11
-33.3067838853
 21
22.7691279444
  0
LINE
  5
324
100
AcDbEntity
  8
RACCORDO
100
AcDbLine
 62
250
  6
CONTINUOUS
 10
-30.7965960832
 20
35.5937823043
 11
-30.7968309026
 21
35.5126818063
  0
LINE
  5
325
100
AcDbEntity
  8
RACCORDO
100
AcDbLine
 62
7
  6
CONTINUOUS
 10
-33.7891810482
 20
24.0785090729
 11
-33.796641509
 21
22.2831445515
  0
LINE
  5
326
100
AcDbEntity
  8
RACCORDO
100
AcDbLine
 62
250
  6
CONTINUOUS
 10
-33.3067838853
 20
22.7691279444
 11
-33.3134355765
 21
21.7971437373
  0
LINE
  5
327
100
AcDbEntity
  8
RACCORDO
100
AcDbLine
 62
250
  6
CONTINUOUS
 10
-30.7968309026
 20
35.5126818063
 11
-30.797499572
 21
35.4170211302
  0
LINE
  5
328
100
AcDbEntity
  8
RACCORDO
100
AcDbLine
 62
250
  6
CONTINUOUS
 10
-33.0339217819
 20
-11.9877244173
 11
-33.0345263922
 21
-12.0722408433
  0
LINE
  5
329
100
AcDbEntity
  8
RACCORDO
100
AcDbLine
 62
7
  6
CONTINUOUS
 10
-33.7941591402
 20
22.6850633295
 11
-33.8047892394
 21
21.3265413403
  0
LINE
  5
32A
100
AcDbEntity
  8
RACCORDO
100
AcDbLine
 62
250
  6
CONTINUOUS
 10
-33.3134355765
 20
21.7971437373
 11
-33.3231658857
 21
20.8524660788
  0
LINE
  5
32B
100
AcDbEntity
  8
RACCORDO
100
AcDbLine
 62
7
  6
CONTINUOUS
 10
-33.803899566
 20
21.4143499946
 11
-33.8232034949
 21
19.9365544973
  0
LINE
  5
32C
100
AcDbEntity
  8
RACCORDO
100
AcDbLine
 62
250
  6
CONTINUOUS
 10
-33.3231658857
 20
20.8524660788
 11
-33.3363681886
 21
19.9283576505
  0
LINE
  5
32D
100
AcDbEntity
  8
RACCORDO
100
AcDbLine
 62
250
  6
CONTINUOUS
 10
-33.0325366879
 20
-11.8922993435
 11
-33.0339217819
 21
-11.9877244173
  0
LINE
  5
32E
100
AcDbEntity
  8
RACCORDO
100
AcDbLine
 62
7
  6
CONTINUOUS
 10
-33.8183762929
 20
20.2447328161
 11
-33.8401128827
 21
19.0308328907
  0
LINE
  5
32F
100
AcDbEntity
  8
RACCORDO
100
AcDbLine
 62
250
  6
CONTINUOUS
 10
-33.3363681886
 20
19.9283576505
 11
-33.3533117911
 21
19.0203247011
  0
LINE
  5
330
100
AcDbEntity
  8
RACCORDO
100
AcDbLine
 62
7
  6
CONTINUOUS
 10
-33.8373535377
 20
19.1643616467
 11
-33.8501068378
 21
18.5815364303
  0
LWPOLYLINE
  5
331
100
AcDbEntity
  8
RACCORDO
100
AcDbPolyline
 62
250
  6
CONTINUOUS
 90
3
 70
0
 10
-33.3533117911
 20
19.0203247011
 10
-33.374403883
 20
18.1216078592
 10
-33.3866924128
 20
17.6735301435
  0
LWPOLYLINE
  5
332
100
AcDbEntity
  8
RACCORDO
100
AcDbPolyline
 62
250
  6
CONTINUOUS
 90
3
 70
0
 10
-33.0291366436
 20
-11.7379089048
 10
-33.0304315928
 20
-11.7901325309
 10
-33.0325366879
 20
-11.8922993435
  0
LINE
  5
333
100
AcDbEntity
  8
DRAFT
100
AcDbLine
 62
7
  6
CONTINUOUS
 10
-31.0689987364
 20
20.059168628
 11
-31.0273080474
 21
19.5826418722
  0
LWPOLYLINE
  5
334
100
AcDbEntity
  8
RACCORDO
100
AcDbPolyline
 62
250
  6
CONTINUOUS
 90
16
 70
0
 10
-28.9868048048
 20
15.1341111145
 10
-28.9882667389
 20
15.1623708465
 10
-28.9920991843
 20
15.1897898442
 10
-28.9983021408
 20
15.2163681076
 10
-29.0069405856
 20
15.2422323855
 10
-29.0179495417
 20
15.2672559291
 10
-29.0311340779
 20
15.2910584924
 10
-29.0465217065
 20
15.3136923471
 10
-29.0640849153
 20
15.3351052215
 10
-29.0835462368
 20
15.3547600542
 10
-29.1049950058
 20
15.3726682916
 10
-29.1283418874
 20
15.3888184872
 10
-29.1530414099
 20
15.40263924
 10
-29.1789117495
 20
15.413940083
 10
-29.20613473
 20
15.4229114831
 10
-29.2347103515
 20
15.4295534404
  0
LINE
  5
335
100
AcDbEntity
  8
DRAFT
100
AcDbLine
 62
7
  6
CONTINUOUS
 10
-29.0998749773
 20
2.197413278
 11
-29.0998749773
 21
-0.5321295336
  0
LINE
  5
336
100
AcDbEntity
  8
RACCORDO
100
AcDbLine
 62
250
  6
CONTINUOUS
 10
-28.9868048048
 20
13.0311726299
 11
-28.9868048048
 21
15.1341111145
  0
LINE
  5
337
100
AcDbEntity
  8
RACCORDO
100
AcDbLine
 62
7
  6
CONTINUOUS
 10
-28.7885501119
 20
13.0311726299
 11
-28.7885501119
 21
15.1341111145
  0
LINE
  5
338
100
AcDbEntity
  8
RACCORDO
100
AcDbLine
 62
7
  6
CONTINUOUS
 10
-28.4885501119
 20
1.6857636956
 11
-28.4885501119
 21
-0.0204799511
  0
LINE
  5
339
100
AcDbEntity
  8
RACCORDO
100
AcDbLine
 62
250
  6
CONTINUOUS
 10
-29.2347103515
 20
12.735730304
 11
-29.2175958473
 21
12.63733792
  0
LWPOLYLINE
  5
33A
100
AcDbEntity
  8
RACCORDO
100
AcDbPolyline
 62
250
  6
CONTINUOUS
 90
7
 70
0
 10
-29.2175958473
 20
12.63733792
 10
-29.2078601586
 20
12.5795777258
 10
-29.2055247669
 20
12.5652571725
 10
-29.2037175976
 20
12.5538478761
 10
-29.202469521
 20
12.5455447278
 10
-29.2018018578
 20
12.5404895618
 10
-29.2017260179
 20
12.5387687543
  0
LWPOLYLINE
  5
33B
100
AcDbEntity
  8
RACCORDO
100
AcDbPolyline
 62
250
  6
CONTINUOUS
 90
5
 70
0
 10
-30.797499572
 20
35.667011611
 10
-30.7972335199
 20
35.6648705278
 10
-30.7970093446
 20
35.6584889114
 10
-30.7968308812
 20
35.6479759924
 10
-30.7967011829
 20
35.6335116743
  0
LWPOLYLINE
  5
33C
100
AcDbEntity
  8
RACCORDO
100
AcDbPolyline
 62
250
  6
CONTINUOUS
 90
17
 70
0
 10
-30.1983533899
 20
37.1022252107
 10
-30.1988867793
 20
37.1051925702
 10
-30.2122669794
 20
37.1528226614
 10
-30.2299057928
 20
37.1993243267
 10
-30.2504645492
 20
37.2427718535
 10
-30.2740864145
 20
37.2826878759
 10
-30.3006282229
 20
37.3195497599
 10
-30.3283218072
 20
37.3528638908
 10
-30.3565322064
 20
37.3820940954
 10
-30.3858943815
 20
37.4077765469
 10
-30.4165450474
 20
37.4310261497
 10
-30.4480937626
 20
37.4521174134
 10
-30.4809309686
 20
37.4707758285
 10
-30.5163647047
 20
37.4872927708
 10
-30.554830984
 20
37.5017653655
 10
-30.5958937934
 20
37.5140964873
 10
-30.6395531328
 20
37.5242861364
  0
LINE
  5
33D
100
AcDbEntity
  8
RACCORDO
100
AcDbLine
 62
250
  6
CONTINUOUS
 10
-30.6395531328
 20
36.0409976081
 11
-30.6307030057
 21
35.9901186797
  0
LINE
  5
33E
100
AcDbEntity
  8
RACCORDO
100
AcDbLine
 62
250
  6
CONTINUOUS
 10
-30.6307030057
 20
35.9901186797
 11
-30.622690379
 21
35.9426923273
  0
LWPOLYLINE
  5
33F
100
AcDbEntity
  8
RACCORDO
100
AcDbPolyline
 62
250
  6
CONTINUOUS
 90
8
 70
0
 10
-30.622690379
 20
35.9426923273
 10
-30.6160592637
 20
35.9019384179
 10
-30.6134070397
 20
35.884951503
 10
-30.611259946
 20
35.8706242315
 10
-30.6096546001
 20
35.8592009317
 10
-30.6086183768
 20
35.8508763806
 10
-30.6081689473
 20
35.8457925162
 10
-30.6083139833
 20
35.8440360566
  0
LWPOLYLINE
  5
340
100
AcDbEntity
  8
0
100
AcDbPolyline
 62
7
  6
CONTINUOUS
 90
10
 70
0
 43
0.3499999917
 10
-42.6574932861
 20
45.4840283203
 10
-42.5860652161
 20
45.3411721802
 10
-42.5860652161
 20
45.2697409058
 10
-42.7289213562
 20
45.1268847656
 10
-42.8003494263
 20
45.1268847656
 10
-42.8717807007
 20
45.19831604
 10
-42.8717807007
 20
45.2697409058
 10
-42.8003494263
 20
45.4126034546
 10
-42.7289213562
 20
45.4840283203
 10
-42.6574932861
 20
45.4840283203
  0
LWPOLYLINE
  5
341
100
AcDbEntity
  8
0
100
AcDbPolyline
 62
7
  6
CONTINUOUS
 90
10
 70
0
 43
0.3499999917
 10
-42.3184895325
 20
53.3211401367
 10
-42.2470614624
 20
53.1782775879
 10
-42.2470614624
 20
53.1068527222
 10
-42.3899176025
 20
52.963996582
 10
-42.4613456726
 20
52.963996582
 10
-42.532776947
 20
53.0354214478
 10
-42.532776947
 20
53.1068527222
 10
-42.4613456726
 20
53.2497088623
 10
-42.3899176025
 20
53.3211401367
 10
-42.3184895325
 20
53.3211401367
  0
LINE
  5
342
100
AcDbEntity
  8
RACCORDO
100
AcDbLine
 62
7
  6
CONTINUOUS
 10
-33.0291366436
 20
-12.2377375673
 11
-31.7885501119
 21
-12.270223469
  0
LINE
  5
343
100
AcDbEntity
  8
RACCORDO
100
AcDbLine
 62
250
  6
CONTINUOUS
 10
-33.0291366436
 20
-11.7379089048
 11
-31.7885501119
 21
-11.7703948065
  0
LINE
  5
344
100
AcDbEntity
  8
RACCORDO
100
AcDbLine
 62
250
  6
CONTINUOUS
 10
-35.9713861147
 20
-11.121779944
 11
-36.3917430534
 21
-11.0768977779
  0
LWPOLYLINE
  5
345
100
AcDbEntity
  8
RACCORDO
100
AcDbPolyline
 62
250
  6
CONTINUOUS
 90
5
 70
0
 10
-36.3917430534
 20
-11.0768977779
 10
-36.4394905466
 20
-11.0715519103
 10
-36.4484234175
 20
-11.0704983228
 10
-36.4537825659
 20
-11.0698189775
 10
-36.4555585882
 20
-11.0695157124
  0
LWPOLYLINE
  5
346
100
AcDbEntity
  8
RACCORDO
100
AcDbPolyline
 62
250
  6
CONTINUOUS
 90
10
 70
0
 10
-33.119888169
 20
-11.7271786522
 10
-33.1099171195
 20
-11.7291895739
 10
-33.099915872
 20
-11.7309961561
 10
-33.0898844265
 20
-11.7325983989
 10
-33.0798200033
 20
-11.7339967401
 10
-33.0697253821
 20
-11.7351907419
 10
-33.0596089016
 20
-11.7361790906
 10
-33.0494733415
 20
-11.7369613484
 10
-33.0393159222
 20
-11.7375379531
 10
-33.0291366436
 20
-11.7379089048
  0
LINE
  5
347
100
AcDbEntity
  8
RACCORDO
100
AcDbLine
 62
7
  6
CONTINUOUS
 10
-36.0621376401
 20
-11.6108783538
 11
-33.2106396944
 21
-12.216277062
  0
LINE
  5
348
100
AcDbEntity
  8
RACCORDO
100
AcDbLine
 62
250
  6
CONTINUOUS
 10
-35.9713861147
 20
-11.121779944
 11
-33.119888169
 21
-11.7271786522
  0
LINE
  5
349
100
AcDbEntity
  8
DRAFT
100
AcDbLine
 62
7
  6
CONTINUOUS
 10
-31.7885501119
 20
-0.9673581278
 11
-30.5885501119
 21
-0.7122902538
  0
LINE
  5
34A
100
AcDbEntity
  8
RACCORDO
100
AcDbLine
 62
7
  6
CONTINUOUS
 10
-28.9449722405
 20
-0.5185773002
 11
-29.0998749773
 21
-0.5321295336
  0
LINE
  5
34B
100
AcDbEntity
  8
DRAFT
100
AcDbLine
 62
7
  6
CONTINUOUS
 10
-29.0998749773
 20
-0.5321295336
 11
-31.7885501119
 21
-0.7673581278
  0
LINE
  5
34C
100
AcDbEntity
  8
RACCORDO
100
AcDbLine
 62
250
  6
CONTINUOUS
 10
-31.7649834998
 20
3.9820019845
 11
-31.7885501119
 21
3.9824133412
  0
LINE
  5
34D
100
AcDbEntity
  8
RACCORDO
100
AcDbLine
 62
7
  6
CONTINUOUS
 10
-31.7885501119
 20
4.083053229
 11
-31.7649834998
 21
4.0826418722
  0
LINE
  5
34E
100
AcDbEntity
  8
RACCORDO
100
AcDbLine
 62
250
  6
CONTINUOUS
 10
-31.7885501119
 20
4.5829770765
 11
-31.7649834998
 21
4.5825657198
  0
LINE
  5
34F
100
AcDbEntity
  8
RACCORDO
100
AcDbLine
 62
7
  6
CONTINUOUS
 10
-28.9449722405
 20
2.1838610446
 11
-29.0998749773
 21
2.197413278
  0
LINE
  5
350
100
AcDbEntity
  8
DRAFT
100
AcDbLine
 62
7
  6
CONTINUOUS
 10
-29.0998749773
 20
2.197413278
 11
-31.7885501119
 21
2.4326418722
  0
LINE
  5
351
100
AcDbEntity
  8
RACCORDO
100
AcDbLine
 62
250
  6
CONTINUOUS
 10
-34.4034327194
 20
3.7963001057
 11
-34.8231968845
 21
3.8411170599
  0
LWPOLYLINE
  5
352
100
AcDbEntity
  8
RACCORDO
100
AcDbPolyline
 62
250
  6
CONTINUOUS
 90
5
 70
0
 10
-34.8231968845
 20
3.8411170599
 10
-34.8641047562
 20
3.8456759181
 10
-34.8771240827
 20
3.8471812913
 10
-34.8849853284
 20
3.8481475104
 10
-34.887605193
 20
3.8485643373
  0
LINE
  5
353
100
AcDbEntity
  8
DRAFT
100
AcDbLine
 62
7
  6
CONTINUOUS
 10
-31.7885501119
 20
2.6326418722
 11
-30.5885501119
 21
2.3775739982
  0
LINE
  5
354
100
AcDbEntity
  8
RACCORDO
100
AcDbLine
 62
250
  6
CONTINUOUS
 10
-31.7885501119
 20
6.5823066679
 11
-31.7649834998
 21
6.5827180246
  0
LINE
  5
355
100
AcDbEntity
  8
RACCORDO
100
AcDbLine
 62
7
  6
CONTINUOUS
 10
-31.7885501119
 20
7.0822305155
 11
-31.7649834998
 21
7.0826418722
  0
LINE
  5
356
100
AcDbEntity
  8
RACCORDO
100
AcDbLine
 62
250
  6
CONTINUOUS
 10
-31.7885501119
 20
7.1815601681
 11
-31.7649834998
 21
7.1819715248
  0
LINE
  5
357
100
AcDbEntity
  8
DRAFT
100
AcDbLine
 62
7
  6
CONTINUOUS
 10
-30.7312492473
 20
8.3826418722
 11
-31.2435501119
 21
8.3826418722
  0
LINE
  5
358
100
AcDbEntity
  8
IMPORT_IGES
100
AcDbLine
 62
7
  6
CONTINUOUS
 10
-31.0775523542
 20
17.6753091281
 11
-30.7142501237
 21
17.4551797485
  0
LINE
  5
359
100
AcDbEntity
  8
RACCORDO
100
AcDbLine
 62
250
  6
CONTINUOUS
 10
-30.6229045105
 20
35.3438073447
 11
-30.4095917827
 21
35.1304946169
  0
LINE
  5
35A
100
AcDbEntity
  8
RACCORDO
100
AcDbLine
 62
7
  6
CONTINUOUS
 10
-30.4483094491
 20
35.52058404
 11
-30.2349967213
 21
35.3072713122
  0
LWPOLYLINE
  5
35B
100
AcDbEntity
  8
RACCORDO
100
AcDbPolyline
 62
250
  6
CONTINUOUS
 90
10
 70
0
 10
-30.4095917827
 20
35.1304946169
 10
-30.3954444749
 20
35.1152508626
 10
-30.3827008669
 20
35.098845576
 10
-30.3713609588
 20
35.0812787569
 10
-30.3612925555
 20
35.0624677291
 10
-30.352627852
 20
35.0424951688
 10
-30.3457634339
 20
35.021609105
 10
-30.3408314965
 20
34.999892214
 10
-30.3376998445
 20
34.9772618195
 10
-30.336368478
 20
34.9537179216
  0
LINE
  5
35C
100
AcDbEntity
  8
RACCORDO
100
AcDbLine
 62
7
  6
CONTINUOUS
 10
-31.1618533154
 20
17.091808342
 11
-31.2705217271
 21
17.0655150754
  0
LWPOLYLINE
  5
35D
100
AcDbEntity
  8
RACCORDO
100
AcDbPolyline
 62
7
  6
CONTINUOUS
 90
3
 70
0
 10
-31.2705217271
 20
17.0655150754
 10
-31.4897343584
 20
17.0138277074
 10
-31.498608621
 20
17.0116966805
  0
LWPOLYLINE
  5
35E
100
AcDbEntity
  8
RACCORDO
100
AcDbPolyline
 62
250
  6
CONTINUOUS
 90
19
 70
0
 10
-29.2347103515
 20
12.735730304
 10
-29.2081563473
 20
12.7418624216
 10
-29.1828639985
 20
12.7498978204
 10
-29.158833305
 20
12.7598365003
 10
-29.1358586776
 20
12.7719791321
 10
-29.1141457056
 20
12.786025045
 10
-29.0943111566
 20
12.801072227
 10
-29.0765997242
 20
12.8170505667
 10
-29.0607667148
 20
12.8340301754
 10
-29.0466948159
 20
12.8513193752
 10
-29.0345024726
 20
12.8685994923
 10
-29.0240712399
 20
12.8861892006
 10
-29.0149284693
 20
12.9043528435
 10
-29.0068936281
 20
12.9229838464
 10
-29.0001472491
 20
12.942188784
 10
-28.9947582822
 20
12.9625517244
 10
-28.9907497109
 20
12.9842673568
 10
-28.9880985517
 20
13.007140992
 10
-28.9868048048
 20
13.0311726299
  0
LWPOLYLINE
  5
35F
100
AcDbEntity
  8
RACCORDO
100
AcDbPolyline
 62
7
  6
CONTINUOUS
 90
6
 70
0
 10
-31.498608621
 20
17.0116966805
 10
-31.5148626465
 20
17.0079733502
 10
-31.5214686902
 20
17.0062437248
 10
-31.5266447054
 20
17.0047003245
 10
-31.5305876663
 20
17.0036252654
 10
-31.533290443
 20
17.003255766
  0
LWPOLYLINE
  5
360
100
AcDbEntity
  8
RACCORDO
100
AcDbPolyline
 62
7
  6
CONTINUOUS
 90
7
 70
0
 10
-31.5221645289
 20
16.2479388179
 10
-31.7551205647
 20
16.198222654
 10
-31.7637264756
 20
16.196350097
 10
-31.7716098166
 20
16.1946820437
 10
-31.7786827105
 20
16.1932181272
 10
-31.7844835541
 20
16.1918477083
 10
-31.7885501119
 20
16.1907444265
  0
LINE
  5
361
100
AcDbEntity
  8
RACCORDO
100
AcDbLine
 62
7
  6
CONTINUOUS
 10
-31.1479945822
 20
17.698753397
 11
-31.2591459355
 21
17.6769107282
  0
LWPOLYLINE
  5
362
100
AcDbEntity
  8
RACCORDO
100
AcDbPolyline
 62
7
  6
CONTINUOUS
 90
3
 70
0
 10
-31.2591459355
 20
17.6769107282
 10
-31.4834928171
 20
17.6342207972
 10
-31.492612343
 20
17.6324495401
  0
LWPOLYLINE
  5
363
100
AcDbEntity
  8
RACCORDO
100
AcDbPolyline
 62
7
  6
CONTINUOUS
 90
6
 70
0
 10
-31.492612343
 20
17.6324495401
 10
-31.5093575769
 20
17.6293821085
 10
-31.5161957384
 20
17.6279104366
 10
-31.5215817727
 20
17.6265625614
 10
-31.525705544
 20
17.6256362505
 10
-31.5285501119
 20
17.62537515
  0
LINE
  5
364
100
AcDbEntity
  8
RACCORDO
100
AcDbLine
 62
7
  6
CONTINUOUS
 10
-31.7885501119
 20
12.0826418722
 11
-29.201726023
 21
12.5387687534
  0
LINE
  5
365
100
AcDbEntity
  8
RACCORDO
100
AcDbLine
 62
250
  6
CONTINUOUS
 10
-31.7885501119
 20
12.2854194499
 11
-29.2347103515
 21
12.735730304
  0
LINE
  5
366
100
AcDbEntity
  8
RACCORDO
100
AcDbLine
 62
250
  6
CONTINUOUS
 10
-28.9868048048
 20
13.0311726299
 11
-28.7885501119
 21
13.0311726299
  0
LINE
  5
367
100
AcDbEntity
  8
RACCORDO
100
AcDbLine
 62
250
  6
CONTINUOUS
 10
-28.9868048048
 20
15.1341111145
 11
-28.7885501119
 21
15.1341111145
  0
LINE
  5
368
100
AcDbEntity
  8
RACCORDO
100
AcDbLine
 62
7
  6
CONTINUOUS
 10
-31.7885501119
 20
17.0115702767
 11
-31.5332901794
 21
17.0032557574
  0
LINE
  5
369
100
AcDbEntity
  8
RACCORDO
100
AcDbLine
 62
250
  6
CONTINUOUS
 10
-31.7885501119
 20
16.290557017
 11
-31.5221645289
 21
16.2479388179
  0
LINE
  5
36A
100
AcDbEntity
  8
RACCORDO
100
AcDbLine
 62
250
  6
CONTINUOUS
 10
-29.2347103515
 20
15.4295534404
 11
-31.7885501119
 21
15.8798642946
  0
LINE
  5
36B
100
AcDbEntity
  8
RACCORDO
100
AcDbLine
 62
7
  6
CONTINUOUS
 10
-29.201726023
 20
15.626514991
 11
-31.7885501119
 21
16.0826418722
  0
LINE
  5
36C
100
AcDbEntity
  8
0
100
AcDbLine
 62
7
  6
CONTINUOUS
 10
-31.0273080474
 20
19.5826418722
 11
-30.8273080474
 21
19.5826418722
  0
LINE
  5
36D
100
AcDbEntity
  8
RACCORDO
100
AcDbLine
 62
250
  6
CONTINUOUS
 10
-31.7885501119
 20
17.1122215834
 11
-31.1618533154
 21
17.091808342
  0
LWPOLYLINE
  5
36E
100
AcDbEntity
  8
DRAFT
100
AcDbPolyline
 62
7
  6
CONTINUOUS
 90
25
 70
0
 10
-30.401726023
 20
20.7414452998
 10
-30.3731662553
 20
20.7400605917
 10
-30.3449905826
 20
20.7390301692
 10
-30.3172953106
 20
20.7383540322
 10
-30.2901705422
 20
20.7380372024
 10
-30.2637142358
 20
20.738074658
 10
-30.2380306157
 20
20.7384513341
 10
-30.2132073958
 20
20.7391724958
 10
-30.1893278282
 20
20.7402328779
 10
-30.1664824743
 20
20.7416016191
 10
-30.1447485801
 20
20.7432824596
 10
-30.1241958816
 20
20.7452716591
 10
-30.1048956003
 20
20.7475271352
 10
-30.0869124936
 20
20.7500506434
 10
-30.0703006697
 20
20.7528404283
 10
-30.0551086614
 20
20.7558491403
 10
-30.0413856565
 20
20.7590772788
 10
-30.0291742815
 20
20.7625243445
 10
-30.0185086186
 20
20.7661414905
 10
-30.0094240897
 20
20.7699281062
 10
-30.0019495129
 20
20.7738848021
 10
-29.9961059446
 20
20.7779645631
 10
-29.991914351
 20
20.7821517172
 10
-29.9893922248
 20
20.7864619362
 10
-29.9885501119
 20
20.7908952203
  0
LINE
  5
36F
100
AcDbEntity
  8
RACCORDO
100
AcDbLine
 62
7
  6
CONTINUOUS
 10
-31.7885501119
 20
17.6441021385
 11
-31.5285504182
 21
17.6253751721
  0
LINE
  5
370
100
AcDbEntity
  8
RACCORDO
100
AcDbLine
 62
250
  6
CONTINUOUS
 10
-31.7885501119
 20
17.7448906126
 11
-31.1479945822
 21
17.698753397
  0
LINE
  5
371
100
AcDbEntity
  8
DRAFT
100
AcDbLine
 62
7
  6
CONTINUOUS
 10
-31.7885501119
 20
21.0826418722
 11
-29.9885501119
 21
20.9251622779
  0
LINE
  5
372
100
AcDbEntity
  8
RACCORDO
100
AcDbLine
 62
7
  6
CONTINUOUS
 10
-31.7885501119
 20
18.2491476105
 11
-31.3270799174
 21
18.1993695514
  0
LINE
  5
373
100
AcDbEntity
  8
RACCORDO
100
AcDbLine
 62
7
  6
CONTINUOUS
 10
-31.7885501119
 20
18.8355129895
 11
-31.5285501119
 21
18.7994237102
  0
LINE
  5
374
100
AcDbEntity
  8
RACCORDO
100
AcDbLine
 62
250
  6
CONTINUOUS
 10
-31.7885501119
 20
19.0139980067
 11
-31.1769041739
 21
18.9287121607
  0
LINE
  5
375
100
AcDbEntity
  8
RACCORDO
100
AcDbLine
 62
250
  6
CONTINUOUS
 10
-33.301638586
 20
24.8197845672
 11
-33.7885501119
 21
24.8197845672
  0
LWPOLYLINE
  5
376
100
AcDbEntity
  8
RACCORDO
100
AcDbPolyline
 62
250
  6
CONTINUOUS
 90
34
 70
0
 10
-30.6395531328
 20
36.0409976081
 10
-30.5904589604
 20
36.0521088104
 10
-30.5433244522
 20
36.0672034336
 10
-30.4981496084
 20
36.0862814775
 10
-30.4546216478
 20
36.1095556039
 10
-30.4130533516
 20
36.1368131511
 10
-30.374383063
 20
36.1674161341
 10
-30.3386595226
 20
36.2014514161
 10
-30.3058339898
 20
36.2388321338
 10
-30.2766985865
 20
36.2786597127
 10
-30.2513442642
 20
36.320995912
 10
-30.2296800712
 20
36.3657789725
 10
-30.2122252744
 20
36.4119250422
 10
-30.1990805766
 20
36.4594455916
 10
-30.190145275
 20
36.5083291501
 10
-30.1856365285
 20
36.5574574536
 10
-30.1856827042
 20
36.6069154711
 10
-30.1901554352
 20
36.6566182336
 10
-30.1988867793
 20
36.7051925702
 10
-30.2122669794
 20
36.7528226614
 10
-30.2299057928
 20
36.7993243267
 10
-30.2504645492
 20
36.8427718535
 10
-30.2740864145
 20
36.8826878759
 10
-30.3006282229
 20
36.9195497599
 10
-30.3283218072
 20
36.9528638908
 10
-30.3565322064
 20
36.9820940954
 10
-30.3858943815
 20
37.0077765469
 10
-30.4165450474
 20
37.0310261497
 10
-30.4480937626
 20
37.0521174134
 10
-30.4809309686
 20
37.0707758285
 10
-30.5163647047
 20
37.0872927708
 10
-30.554830984
 20
37.1017653655
 10
-30.5958937934
 20
37.1140964873
 10
-30.6395531328
 20
37.1242861364
  0
LINE
  5
377
100
AcDbEntity
  8
RACCORDO
100
AcDbLine
 62
7
  6
CONTINUOUS
 10
-31.7885501119
 20
35.6359285836
 11
-30.6083139786
 21
35.8440360575
  0
LINE
  5
378
100
AcDbEntity
  8
RACCORDO
100
AcDbLine
 62
250
  6
CONTINUOUS
 10
-31.7885501119
 20
35.8383984399
 11
-30.6395531328
 21
36.0409976081
  0
LINE
  5
379
100
AcDbEntity
  8
RACCORDO
100
AcDbLine
 62
250
  6
CONTINUOUS
 10
-31.7885501119
 20
39.9356785509
 11
-33.301638586
 21
39.8960569348
  0
LINE
  5
37A
100
AcDbEntity
  8
RACCORDO
100
AcDbLine
 62
7
  6
CONTINUOUS
 10
-31.7885501119
 20
40.4355072134
 11
-33.301638586
 21
40.3958855973
  0
LINE
  5
37B
100
AcDbEntity
  8
RACCORDO
100
AcDbLine
 62
7
  6
CONTINUOUS
 10
-31.7885501119
 20
36.2966059242
 11
-31.0408877968
 21
36.3096564184
  0
LINE
  5
37C
100
AcDbEntity
  8
RACCORDO
100
AcDbLine
 62
250
  6
CONTINUOUS
 10
-31.7885501119
 20
36.4941678708
 11
-30.7565728294
 21
36.5121811013
  0
LINE
  5
37D
100
AcDbEntity
  8
RACCORDO
100
AcDbLine
 62
7
  6
CONTINUOUS
 10
-30.2372411315
 20
33.9031614348
 11
-31.7885501119
 21
33.8896233665
  0
LINE
  5
37E
100
AcDbEntity
  8
RACCORDO
100
AcDbLine
 62
250
  6
CONTINUOUS
 10
-30.0885501119
 20
34.9537179216
 11
-30.336368478
 21
34.9537179216
  0
LINE
  5
37F
100
AcDbEntity
  8
RACCORDO
100
AcDbLine
 62
250
  6
CONTINUOUS
 10
-33.301638586
 20
39.8960569348
 11
-33.7885501119
 21
39.8960569348
  0
LWPOLYLINE
  5
380
100
AcDbEntity
  8
0
100
AcDbPolyline
 62
7
  6
CONTINUOUS
 90
3
 70
0
 43
0.3499999917
 10
-44.1574923706
 20
45.6268844604
 10
-45.6574946594
 20
45.6268844604
 10
-45.0146356201
 20
47.9840267944
  0
LWPOLYLINE
  5
381
100
AcDbEntity
  8
0
100
AcDbPolyline
 62
7
  6
CONTINUOUS
 90
3
 70
0
 43
0.3499999917
 10
-39.7470629883
 20
53.4639962769
 10
-41.2470620728
 20
53.4639962769
 10
-40.6042030334
 20
55.8211386108
  0
LINE
  5
382
100
AcDbEntity
  8
RACCORDO
100
AcDbLine
 62
7
  6
CONTINUOUS
 10
-31.7885501119
 20
34.4717655242
 11
-30.336368478
 21
34.4677238906
  0
LINE
  5
383
100
AcDbEntity
  8
RACCORDO
100
AcDbLine
 62
250
  6
CONTINUOUS
 10
-30.2372411315
 20
34.1865520776
 11
-31.7885501119
 21
34.1943899428
  0
LINE
  5
384
100
AcDbEntity
  8
RACCORDO
100
AcDbLine
 62
250
  6
CONTINUOUS
 10
-31.7885501119
 20
35.4256698972
 11
-30.797499572
 21
35.4170211302
  0
LINE
  5
385
100
AcDbEntity
  8
RACCORDO
100
AcDbLine
 62
7
  6
CONTINUOUS
 10
-31.57384615
 20
35.6737866849
 11
-30.797499572
 21
35.667011611
  0
LINE
  5
386
100
AcDbEntity
  8
RACCORDO
100
AcDbLine
 62
250
  6
CONTINUOUS
 10
-30.7565728294
 20
36.6531026432
 11
-31.7885501119
 21
36.6711158736
  0
LINE
  5
387
100
AcDbEntity
  8
RACCORDO
100
AcDbLine
 62
7
  6
CONTINUOUS
 10
-31.0408877968
 20
36.855627326
 11
-31.7885501119
 21
36.8686778203
  0
LWPOLYLINE
  5
388
100
AcDbEntity
  8
RACCORDO
100
AcDbPolyline
 62
250
  6
CONTINUOUS
 90
13
 70
0
 10
-30.2372411315
 20
34.1865520776
 10
-30.2177821737
 20
34.1857190056
 10
-30.1986746293
 20
34.1834306274
 10
-30.1802418163
 20
34.1797256647
 10
-30.1627956356
 20
34.1746668088
 10
-30.1466312933
 20
34.1683396607
 10
-30.1320223055
 20
34.1608512815
 10
-30.1192158704
 20
34.152328382
 10
-30.108428685
 20
34.1429151777
 10
-30.099843279
 20
34.1327709491
 10
-30.0936049256
 20
34.1220673462
 10
-30.0898191838
 20
34.1109854843
 10
-30.0885501119
 20
34.0997128792
  0
LWPOLYLINE
  5
389
100
AcDbEntity
  8
RACCORDO
100
AcDbPolyline
 62
250
  6
CONTINUOUS
 90
13
 70
0
 10
-30.797499572
 20
35.4170211302
 10
-30.7799024204
 20
35.4160565983
 10
-30.7630509543
 20
35.4141846147
 10
-30.7469451736
 20
35.4114051794
 10
-30.7317091623
 20
35.4077020779
 10
-30.7172188364
 20
35.4030915247
 10
-30.7031019444
 20
35.3976221633
 10
-30.6893304652
 20
35.3914235772
 10
-30.67593242
 20
35.384366183
 10
-30.6626196207
 20
35.3761098733
 10
-30.6492960047
 20
35.3665412792
 10
-30.6360576346
 20
35.3557737697
 10
-30.6229045105
 20
35.3438073447
  0
LINE
  5
38A
100
AcDbEntity
  8
RACCORDO
100
AcDbLine
 62
250
  6
CONTINUOUS
 10
-30.6395531328
 20
37.1242861364
 11
-31.7885501119
 21
37.3268853045
  0
LINE
  5
38B
100
AcDbEntity
  8
RACCORDO
100
AcDbLine
 62
7
  6
CONTINUOUS
 10
-30.6083139786
 20
37.321247687
 11
-31.7885501119
 21
37.5293551609
  0
LINE
  5
38C
100
AcDbEntity
  8
RACCORDO
100
AcDbLine
 62
250
  6
CONTINUOUS
 10
-30.6395531328
 20
37.5242861364
 11
-31.7885501119
 21
37.7268853045
  0
LINE
  5
38D
100
AcDbEntity
  8
RACCORDO
100
AcDbLine
 62
7
  6
CONTINUOUS
 10
-30.6083139786
 20
37.721247687
 11
-31.7885501119
 21
37.9293551609
  0
ARC
  5
38E
100
AcDbEntity
  8
0
100
AcDbCircle
 62
7
  6
CONTINUOUS
 10
15.0611842105
 20
-0.0173581278
 40
0.1
100
AcDbArc
 50
0.0
 51
90.0
  0
ARC
  5
38F
100
AcDbEntity
  8
0
100
AcDbCircle
 62
7
  6
CONTINUOUS
 10
13.2611842105
 20
-0.0173581278
 40
0.1
100
AcDbArc
 50
90.0
 51
180.0
  0
ARC
  5
390
100
AcDbEntity
  8
0
100
AcDbCircle
 62
7
  6
CONTINUOUS
 10
13.2611842105
 20
-1.8173581278
 40
0.1
100
AcDbArc
 50
180.0
 51
270.0
  0
ARC
  5
391
100
AcDbEntity
  8
0
100
AcDbCircle
 62
7
  6
CONTINUOUS
 10
15.0611842105
 20
-1.8173581278
 40
0.1
100
AcDbArc
 50
270.0
 51
360.0
  0
ARC
  5
392
100
AcDbEntity
  8
RACCORDO
100
AcDbCircle
 62
7
  6
CONTINUOUS
 10
-33.0029596953
 20
-11.2380802424
 40
1.0
100
AcDbArc
 50
258.0135711831
 51
268.5
  0
ARC
  5
393
100
AcDbEntity
  8
RACCORDO
100
AcDbCircle
 62
7
  6
CONTINUOUS
 10
-35.9582976405
 20
-11.121779944
 40
0.5
100
AcDbArc
 50
174.0
 51
258.0135711831
  0
ARC
  5
394
100
AcDbEntity
  8
RACCORDO
100
AcDbCircle
 62
7
  6
CONTINUOUS
 10
-33.2885501119
 20
39.8960569348
 40
0.5
100
AcDbArc
 50
91.5
 51
180.0
  0
ARC
  5
395
100
AcDbEntity
  8
RACCORDO
100
AcDbCircle
 62
7
  6
CONTINUOUS
 10
-28.9885501119
 20
-0.0204799511
 40
0.5
100
AcDbArc
 50
275.0
 51
360.0
  0
ARC
  5
396
100
AcDbEntity
  8
RACCORDO
100
AcDbCircle
 62
7
  6
CONTINUOUS
 10
-28.9885501119
 20
1.6857636956
 40
0.5
100
AcDbArc
 50
0.0
 51
85.0
  0
ARC
  5
397
100
AcDbEntity
  8
RACCORDO
100
AcDbCircle
 62
7
  6
CONTINUOUS
 10
-29.2885501119
 20
13.0311726299
 40
0.5
100
AcDbArc
 50
280.0
 51
360.0
  0
ARC
  5
398
100
AcDbEntity
  8
RACCORDO
100
AcDbCircle
 62
7
  6
CONTINUOUS
 10
-30.7385501119
 20
36.9826418722
 40
0.75
100
AcDbArc
 50
344.5174200701
 51
80.0
  0
ARC
  5
399
100
AcDbEntity
  8
RACCORDO
100
AcDbCircle
 62
7
  6
CONTINUOUS
 10
-30.7385501119
 20
36.5826418722
 40
0.75
100
AcDbArc
 50
280.0
 51
80.0
  0
ARC
  5
39A
100
AcDbEntity
  8
RACCORDO
100
AcDbCircle
 62
7
  6
CONTINUOUS
 10
-30.8018628397
 20
35.1670306494
 40
0.5
100
AcDbArc
 50
45.0008005983
 51
89.5
  0
ARC
  5
39B
100
AcDbEntity
  8
RACCORDO
100
AcDbCircle
 62
7
  6
CONTINUOUS
 10
-30.5885501119
 20
34.9537179216
 40
0.5
100
AcDbArc
 50
0.0
 51
45.0
  0
ARC
  5
39C
100
AcDbEntity
  8
RACCORDO
100
AcDbCircle
 62
7
  6
CONTINUOUS
 10
-29.2885501119
 20
15.1341111145
 40
0.5
100
AcDbArc
 50
0.0
 51
80.0
  0
ARC
  5
39D
100
AcDbEntity
  8
RACCORDO
100
AcDbCircle
 62
7
  6
CONTINUOUS
 10
-30.2385501119
 20
34.0531557233
 40
0.15
100
AcDbArc
 50
270.5
 51
360.0
  0
ARC
  5
39E
100
AcDbEntity
  8
RACCORDO
100
AcDbCircle
 62
7
  6
CONTINUOUS
 10
-30.7403801931
 20
17.4125508912
 40
0.05
100
AcDbArc
 50
0.0
 51
58.4930902702
  0
ELLIPSE
  5
39F
100
AcDbEntity
  8
RACCORDO
100
AcDbEllipse
 62
7
  6
CONTINUOUS
 10
35.9638781555
 20
-11.7700520727
 30
0.0
 11
0.35379574
 21
-0.35379574
 31
0.0
 40
0.999315002
 41
-0.7850555471
 42
0.7850555471
  0
ELLIPSE
  5
3A0
100
AcDbEntity
  8
RACCORDO
100
AcDbEllipse
 62
7
  6
CONTINUOUS
 10
35.9638781555
 20
39.9353358172
 30
0.0
 11
0.35379574
 21
0.35379574
 31
0.0
 40
0.999315002
 41
-0.7850555471
 42
0.7850555471
  0
ELLIPSE
  5
3A1
100
AcDbEntity
  8
RACCORDO
100
AcDbEllipse
 62
7
  6
CONTINUOUS
 10
-7.6415097344
 20
39.9353358172
 30
0.0
 11
-0.35379574
 21
0.35379574
 31
0.0
 40
0.999315002
 41
-0.7850555471
 42
0.7850555471
  0
ELLIPSE
  5
3A2
100
AcDbEntity
  8
RACCORDO
100
AcDbEllipse
 62
7
  6
CONTINUOUS
 10
-7.6415097344
 20
-11.7700520727
 30
0.0
 11
0.35379574
 21
0.35379574
 31
0.0
 40
0.999315002
 41
-3.9266482006
 42
-2.3565371065
  0
ELLIPSE
  5
3A3
100
AcDbEntity
  8
DRAFT
100
AcDbEllipse
 62
7
  6
CONTINUOUS
 10
-11.2207766122
 20
9.2826418722
 30
0.0
 11
64.5459301196
 21
0.0
 31
0.0
 40
0.1754608926
 41
1.8725210415
 42
1.8951047095
  0
ELLIPSE
  5
3A4
100
AcDbEntity
  8
RACCORDO
100
AcDbEllipse
 62
7
  6
CONTINUOUS
 10
-31.0444402871
 20
36.5096248751
 30
0.0
 11
0.2878469909
 21
0.0049410995
 31
0.0
 40
0.6947112101
 41
-1.5703799483
 42
-0.0119246497
  0
ELLIPSE
  5
3A5
100
AcDbEntity
  8
RACCORDO
100
AcDbEllipse
 62
7
  6
CONTINUOUS
 10
-31.0444402871
 20
36.6556588694
 30
0.0
 11
0.2878469909
 21
-0.0049410995
 31
0.0
 40
0.6947112101
 41
0.0119246497
 42
1.5703799483
  0
ELLIPSE
  5
3A6
100
AcDbEntity
  8
0
100
AcDbEllipse
 62
7
  6
CONTINUOUS
 10
-57.0285699838
 20
9.2826418722
 30
0.0
 11
79.4445384914
 21
0.0
 31
0.0
 40
0.153091273
 41
1.2290184413
 42
1.2474869946
  0
ELLIPSE
  5
3A7
100
AcDbEntity
  8
RACCORDO
100
AcDbEllipse
 62
7
  6
CONTINUOUS
 10
-30.3385501119
 20
34.8198303256
 30
0.0
 11
-0.0053940468
 21
0.3520863007
 31
0.0
 40
0.7098878919
 41
-3.154443869
 42
-2.7459336397
  0
ENDSEC
  0
SECTION
  2
OBJECTS
  0
DICTIONARY
  5
C
100
AcDbDictionary
280
0
281
1
  3
ACAD_GROUP
350
D
  3
ACAD_MLINESTYLE
350
17
  3
ACAD_LAYOUT
350
1A
  3
ACAD_PLOTSETTINGS
350
19
  3
ACAD_PLOTSTYLENAME
350
E
  0
DICTIONARY
  5
D
102
{ACAD_REACTORS
330
C
102
}
100
AcDbDictionary
280
0
281
1
  0
ACDBDICTIONARYWDFLT
  5
E
102
{ACAD_REACTORS
330
C
102
}
100
AcDbDictionary
281
1
  3
Normal
350
F
100
AcDbDictionaryWithDefault
340
F
  0
DICTIONARY
  5
17
102
{ACAD_REACTORS
330
C
102
}
100
AcDbDictionary
280
0
281
1
  3
Standard
350
18
  0
DICTIONARY
  5
19
102
{ACAD_REACTORS
330
C
102
}
100
AcDbDictionary
281
1
  0
DICTIONARY
  5
1A
102
{ACAD_REACTORS
330
C
102
}
100
AcDbDictionary
281
1
  3
Model
350
3A8
  3
Layout1
350
3A9
  0
ACDBPLACEHOLDER
  5
F
102
{ACAD_REACTORS
330
E
102
}
  0
MLINESTYLE
  5
18
102
{ACAD_REACTORS
330
17
102
}
100
AcDbMlineStyle
  2
STANDARD
 70
0
  3

 62
256
 51
90.0
 52
90.0
 71
2
 49
0.5
 62
256
  6
BYLAYER
 49
-0.5
 62
256
  6
BYLAYER
  0
LAYOUT
  5
3A8
102
{ACAD_REACTORS
330
1A
102
}
100
AcDbPlotSettings
  1

  2
none_device
  4
ISO_A3_(420.00_x_297.00_MM)
  6

 40
0.0
 41
0.0
 42
0.0
 43
0.0
 44
420.0
 45
297.0
 46
0.0
 47
0.0
 48
0.0
 49
0.0
140
0.0
141
0.0
142
1.0
143
1.0
 70
1024
 72
1
 73
0
 74
0
  7

 75
0
147
1.0
148
0.0
149
0.0
100
AcDbLayout
  1
Model
 70
0
 71
0
 10
0.0
 20
0.0
 11
420.0
 21
297.0
 12
0.0
 22
0.0
 32
0.0
 14
0.0
 24
0.0
 34
0.0
 15
0.0
 25
0.0
 35
0.0
146
0.0
 13
0.0
 23
0.0
 33
0.0
 16
1.0
 26
0.0
 36
0.0
 17
0.0
 27
1.0
 37
0.0
 76
0
330
21C
345
0
346
0
  0
LAYOUT
  5
3A9
102
{ACAD_REACTORS
330
1A
102
}
100
AcDbPlotSettings
  1

  2
none_device
  4
ISO_A3_(420.00_x_297.00_MM)
  6

 40
0.0
 41
0.0
 42
0.0
 43
0.0
 44
420.0
 45
297.0
 46
0.0
 47
0.0
 48
0.0
 49
0.0
140
0.0
141
0.0
142
1.0
143
1.0
 70
0
 72
1
 73
0
 74
0
  7

 75
0
147
1.0
148
0.0
149
0.0
100
AcDbLayout
  1
Layout1
 70
0
 71
1
 10
0.0
 20
0.0
 11
420.0
 21
297.0
 12
0.0
 22
0.0
 32
0.0
 14
0.0
 24
0.0
 34
0.0
 15
0.0
 25
0.0
 35
0.0
146
0.0
 13
0.0
 23
0.0
 33
0.0
 16
1.0
 26
0.0
 36
0.0
 17
0.0
 27
1.0
 37
0.0
 76
0
330
21D
345
0
346
0
  0
ENDSEC
  0
EOF
