  0
SECTION
  2
HEADER
  9
$ACADVER
  1
AC1024
  9
$DWGCODEPAGE
  3
ANSI_1252
  9
$EXTMAX
 10
297.0
 20
210.0
 30
0.0
  9
$EXTMIN
 10
0.0
 20
0.0
 30
0.0
  9
$LIMMIN
 10
0.0
 20
0.0
  9
$LIMMAX
 10
297.0
 20
210.0
  9
$VIEWCTR
 10
148.5
 20
105.0
  9
$VIEWSIZE
 40
210.0
  9
$CLAYER
  8
0
  9
$LTSCALE
 40
16.335
  9
$CELTYPE
  6
BYLAYER
  9
$DIMSCALE
 40
1.0
  9
$DIMASZ
 40
3.0
  9
$DIMEXO
 40
0.5
  9
$DIMDLI
 40
11.286
  9
$DIMEXE
 40
1.5
  9
$DIMCEN
 40
2.673
  9
$DIMLFAC
 40
1.0
  9
$DIMBLK
  1
_FILLED
  9
$DIMALT
 70
0
  9
$DIMALTF
 40
0.0393700787
  9
$DIMTXT
 40
3.0
  9
$DIMTOL
 70
1
  9
$DIMLIM
 70
0
  9
$DIMTFAC
 40
1.0
  9
$DIMTP
 40
0.01
  9
$DIMTM
 40
0.01
  9
$DIMGAP
 40
0.625
  9
$DIMDSEP
 70
44
  9
$AUNITS
 70
0
  9
$PDMODE
 70
3
  9
$PDSIZE
 40
3.0
  9
$HANDSEED
  5
44A
  9
$TILEMODE
 70
1
  9
$MEASUREMENT
 70
1
  9
$INSUNITS
 70
4
  0
ENDSEC
  0
SECTION
  2
CLASSES
  0
CLASS
  1
ACDBDICTIONARYWDFLT
  2
AcDbDictionaryWithDefault
  3
AutoCAD 2000
 90
0
 91
1
280
0
281
0
  0
CLASS
  1
ACDBPLACEHOLDER
  2
AcDbPlaceHolder
  3
AutoCAD 2000
 90
0
 91
1
280
0
281
0
  0
CLASS
  1
LAYOUT
  2
AcDbLayout
  3
AutoCAD 2000
 90
0
 91
0
280
0
281
0
  0
ENDSEC
  0
SECTION
  2
TABLES
  0
TABLE
  2
VPORT
  5
8
100
AcDbSymbolTable
 70
2
  0
VPORT
  5
1F4
100
AcDbSymbolTableRecord
100
AcDbViewportTableRecord
  2
*ACTIVE
 70
0
 10
0.0
 20
0.0
 11
1.0
 21
1.0
 12
148.5
 22
105.0
 13
0.0
 23
0.0
 14
1.0
 24
1.0
 15
0.0
 25
0.0
 16
0.0
 26
0.0
 36
1.0
 17
0.0
 27
0.0
 37
0.0
 40
210.0
 41
1.4142857143
 42
50.0
 43
0.0
 44
0.0
 50
0.0
 51
0.0
 71
0
 72
100
 73
1
 74
1
 75
0
 76
0
 77
0
 78
0
  0
ENDTAB
  0
TABLE
  2
LTYPE
  5
5
100
AcDbSymbolTable
 70
6
  0
LTYPE
  5
14
100
AcDbSymbolTableRecord
100
AcDbLinetypeTableRecord
  2
BYBLOCK
 70
0
  3

 72
65
 73
0
 40
0.0
  0
LTYPE
  5
15
100
AcDbSymbolTableRecord
100
AcDbLinetypeTableRecord
  2
BYLAYER
 70
0
  3

 72
65
 73
0
 40
0.0
  0
LTYPE
  5
16
100
AcDbSymbolTableRecord
100
AcDbLinetypeTableRecord
  2
CONTINUOUS
 70
64
  3
Solid line
 72
65
 73
0
 40
0.0
  0
LTYPE
  5
1F5
100
AcDbSymbolTableRecord
100
AcDbLinetypeTableRecord
  2
CENTER
 70
64
  3
____ _ ____ _ ____ _ ____ _ ____ _ ____ _ ____
 72
65
 73
4
 40
0.6
 49
0.375
 74
0
 49
-0.075
 74
0
 49
0.075
 74
0
 49
-0.075
 74
0
  0
LTYPE
  5
1F6
100
AcDbSymbolTableRecord
100
AcDbLinetypeTableRecord
  2
HIDDEN
 70
64
  3
- - - - - - - - - - - - - - - - - - - -
 72
65
 73
2
 40
0.2
 49
0.1
 74
0
 49
-0.1
 74
0
  0
LTYPE
  5
1F7
100
AcDbSymbolTableRecord
100
AcDbLinetypeTableRecord
  2
PHANTOM
 70
64
  3
_____ _ _ _____ _ _ _____ _ _ _____
 72
65
 73
6
 40
0.8
 49
0.45
 74
0
 49
-0.05
 74
0
 49
0.1
 74
0
 49
-0.05
 74
0
 49
0.1
 74
0
 49
-0.05
 74
0
  0
LTYPE
  5
1F8
100
AcDbSymbolTableRecord
100
AcDbLinetypeTableRecord
  2
DOT
 70
64
  3
. . . . . . . . . . . . . . . . . . . .
 72
65
 73
2
 40
0.2
 49
0.1
 74
0
 49
-0.1
 74
0
  0
LTYPE
  5
1F9
100
AcDbSymbolTableRecord
100
AcDbLinetypeTableRecord
  2
DASHED
 70
64
  3
- - - - - - - - - - - - - - - - - - - -
 72
65
 73
2
 40
0.2
 49
0.1
 74
0
 49
-0.1
 74
0
  0
ENDTAB
  0
TABLE
  2
LAYER
  5
2
100
AcDbSymbolTable
 70
36
  0
LAYER
  5
10
100
AcDbSymbolTableRecord
100
AcDbLayerTableRecord
  2
0
 70
0
 62
7
  6
CONTINUOUS
370
-3
390
F
  0
LAYER
  5
1FA
100
AcDbSymbolTableRecord
100
AcDbLayerTableRecord
  2
DEFAULT_1
 70
0
 62
7
  6
CENTER
370
-3
390
F
  0
LAYER
  5
1FB
100
AcDbSymbolTableRecord
100
AcDbLayerTableRecord
  2
DEFAULT_2
 70
0
 62
7
  6
HIDDEN
370
-3
390
F
  0
LAYER
  5
1FC
100
AcDbSymbolTableRecord
100
AcDbLayerTableRecord
  2
DEFAULT_3
 70
0
 62
7
  6
PHANTOM
370
-3
390
F
  0
LAYER
  5
1FD
100
AcDbSymbolTableRecord
100
AcDbLayerTableRecord
  2
9
 70
0
 62
7
  6
CONTINUOUS
370
-3
390
F
  0
LAYER
  5
1FE
100
AcDbSymbolTableRecord
100
AcDbLayerTableRecord
  2
ASSI
 70
0
 62
7
  6
CONTINUOUS
370
-3
390
F
  0
LAYER
  5
1FF
100
AcDbSymbolTableRecord
100
AcDbLayerTableRecord
  2
COORDINATE
 70
0
 62
7
  6
CONTINUOUS
370
-3
390
F
  0
LAYER
  5
200
100
AcDbSymbolTableRecord
100
AcDbLayerTableRecord
  2
COPY_PUBLISH
 70
0
 62
7
  6
CONTINUOUS
370
-3
390
F
  0
LAYER
  5
201
100
AcDbSymbolTableRecord
100
AcDbLayerTableRecord
  2
COSMETICI
 70
0
 62
7
  6
CONTINUOUS
370
-3
390
F
  0
LAYER
  5
202
100
AcDbSymbolTableRecord
100
AcDbLayerTableRecord
  2
CURVE
 70
0
 62
7
  6
CONTINUOUS
370
-3
390
F
  0
LAYER
  5
203
100
AcDbSymbolTableRecord
100
AcDbLayerTableRecord
  2
DRAFT
 70
0
 62
7
  6
CONTINUOUS
370
-3
390
F
  0
LAYER
  5
204
100
AcDbSymbolTableRecord
100
AcDbLayerTableRecord
  2
IMPORT_IGES
 70
0
 62
7
  6
CONTINUOUS
370
-3
390
F
  0
LAYER
  5
205
100
AcDbSymbolTableRecord
100
AcDbLayerTableRecord
  2
INTF_1
 70
0
 62
7
  6
CONTINUOUS
370
-3
390
F
  0
LAYER
  5
206
100
AcDbSymbolTableRecord
100
AcDbLayerTableRecord
  2
INTF_10
 70
0
 62
7
  6
CONTINUOUS
370
-3
390
F
  0
LAYER
  5
207
100
AcDbSymbolTableRecord
100
AcDbLayerTableRecord
  2
INTF_17
 70
0
 62
7
  6
CONTINUOUS
370
-3
390
F
  0
LAYER
  5
208
100
AcDbSymbolTableRecord
100
AcDbLayerTableRecord
  2
INTF_2
 70
0
 62
7
  6
CONTINUOUS
370
-3
390
F
  0
LAYER
  5
209
100
AcDbSymbolTableRecord
100
AcDbLayerTableRecord
  2
INTF_3
 70
0
 62
7
  6
CONTINUOUS
370
-3
390
F
  0
LAYER
  5
20A
100
AcDbSymbolTableRecord
100
AcDbLayerTableRecord
  2
INTF_4
 70
0
 62
7
  6
CONTINUOUS
370
-3
390
F
  0
LAYER
  5
20B
100
AcDbSymbolTableRecord
100
AcDbLayerTableRecord
  2
INTF_5
 70
0
 62
7
  6
CONTINUOUS
370
-3
390
F
  0
LAYER
  5
20C
100
AcDbSymbolTableRecord
100
AcDbLayerTableRecord
  2
INTF_6
 70
0
 62
7
  6
CONTINUOUS
370
-3
390
F
  0
LAYER
  5
20D
100
AcDbSymbolTableRecord
100
AcDbLayerTableRecord
  2
INTF_7
 70
0
 62
7
  6
CONTINUOUS
370
-3
390
F
  0
LAYER
  5
20E
100
AcDbSymbolTableRecord
100
AcDbLayerTableRecord
  2
INTF_9
 70
0
 62
7
  6
CONTINUOUS
370
-3
390
F
  0
LAYER
  5
20F
100
AcDbSymbolTableRecord
100
AcDbLayerTableRecord
  2
INTF_BLANK
 70
0
 62
7
  6
CONTINUOUS
370
-3
390
F
  0
LAYER
  5
210
100
AcDbSymbolTableRecord
100
AcDbLayerTableRecord
  2
INTF_RED
 70
0
 62
7
  6
CONTINUOUS
370
-3
390
F
  0
LAYER
  5
211
100
AcDbSymbolTableRecord
100
AcDbLayerTableRecord
  2
NOTE
 70
0
 62
7
  6
CONTINUOUS
370
-3
390
F
  0
LAYER
  5
212
100
AcDbSymbolTableRecord
100
AcDbLayerTableRecord
  2
PIANI
 70
0
 62
7
  6
CONTINUOUS
370
-3
390
F
  0
LAYER
  5
213
100
AcDbSymbolTableRecord
100
AcDbLayerTableRecord
  2
PUNTI
 70
0
 62
7
  6
CONTINUOUS
370
-3
390
F
  0
LAYER
  5
214
100
AcDbSymbolTableRecord
100
AcDbLayerTableRecord
  2
RACCORDO
 70
0
 62
7
  6
CONTINUOUS
370
-3
390
F
  0
LAYER
  5
215
100
AcDbSymbolTableRecord
100
AcDbLayerTableRecord
  2
RGB____0____0____0__
 70
0
 62
7
  6
CONTINUOUS
370
-3
390
F
  0
LAYER
  5
216
100
AcDbSymbolTableRecord
100
AcDbLayerTableRecord
  2
SIMBOLI
 70
0
 62
7
  6
CONTINUOUS
370
-3
390
F
  0
LAYER
  5
217
100
AcDbSymbolTableRecord
100
AcDbLayerTableRecord
  2
SMUSSO
 70
0
 62
7
  6
CONTINUOUS
370
-3
390
F
  0
LAYER
  5
218
100
AcDbSymbolTableRecord
100
AcDbLayerTableRecord
  2
SNAPLINE
 70
0
 62
7
  6
CONTINUOUS
370
-3
390
F
  0
LAYER
  5
219
100
AcDbSymbolTableRecord
100
AcDbLayerTableRecord
  2
SUPERFICI
 70
0
 62
7
  6
CONTINUOUS
370
-3
390
F
  0
LAYER
  5
21A
100
AcDbSymbolTableRecord
100
AcDbLayerTableRecord
  2
TRASH
 70
0
 62
7
  6
CONTINUOUS
370
-3
390
F
  0
ENDTAB
  0
TABLE
  2
STYLE
  5
3
100
AcDbSymbolTable
 70
1
  0
STYLE
  5
11
100
AcDbSymbolTableRecord
100
AcDbTextStyleTableRecord
  2
STANDARD
 70
0
 40
0.0
 41
0.8
 50
0.0
 71
0
 42
0.2
  3
txt
  4

  0
STYLE
  5
21B
100
AcDbSymbolTableRecord
100
AcDbTextStyleTableRecord
  2
TEXTSTYLE_1
 70
0
 40
0.0
 41
0.8
 50
0.0
 71
0
 42
0.2
  3
gdt
  4

  0
ENDTAB
  0
TABLE
  2
VIEW
  5
6
100
AcDbSymbolTable
 70
0
  0
ENDTAB
  0
TABLE
  2
UCS
  5
7
100
AcDbSymbolTable
 70
0
  0
ENDTAB
  0
TABLE
  2
APPID
  5
9
100
AcDbSymbolTable
 70
1
  0
APPID
  5
21C
100
AcDbSymbolTableRecord
100
AcDbRegAppTableRecord
  2
ACAD
 70
0
  0
ENDTAB
  0
TABLE
  2
BLOCK_RECORD
  5
1
100
AcDbSymbolTable
 70
0
  0
BLOCK_RECORD
  5
21D
100
AcDbSymbolTableRecord
100
AcDbBlockTableRecord
  2
*Model_Space
  0
BLOCK_RECORD
  5
21E
100
AcDbSymbolTableRecord
100
AcDbBlockTableRecord
  2
*Paper_Space
  0
BLOCK_RECORD
  5
21F
100
AcDbSymbolTableRecord
100
AcDbBlockTableRecord
  2
_FILLED
  0
BLOCK_RECORD
  5
220
100
AcDbSymbolTableRecord
100
AcDbBlockTableRecord
  2
*D0
  0
BLOCK_RECORD
  5
221
100
AcDbSymbolTableRecord
100
AcDbBlockTableRecord
  2
*D1
  0
BLOCK_RECORD
  5
222
100
AcDbSymbolTableRecord
100
AcDbBlockTableRecord
  2
*D2
  0
BLOCK_RECORD
  5
223
100
AcDbSymbolTableRecord
100
AcDbBlockTableRecord
  2
*D3
  0
ENDTAB
  0
TABLE
  2
DIMSTYLE
  5
A
100
AcDbSymbolTable
 70
1
100
AcDbDimStyleTable
 71
0
  0
DIMSTYLE
105
224
100
AcDbSymbolTableRecord
100
AcDbDimStyleTableRecord
  2
STANDARD
 70
0
  3

  4

 40
1.0
 41
3.0
 42
0.5
 43
0.38
 44
1.5
 45
0.0
 46
0.0
 47
0.01
 48
0.01
140
3.0
141
0.09
142
0.0
143
25.4
144
1.0
145
0.0
146
1.0
147
0.625
 71
1
 72
0
 73
0
 74
0
 75
0
 76
0
 77
1
 78
8
 79
2
170
0
171
1
172
0
173
0
174
0
175
0
176
0
177
0
178
0
270
2
179
2
271
2
272
2
273
2
274
2
275
0
280
0
281
0
282
0
283
1
284
8
285
0
286
0
287
3
288
0
340
11
278
44
341
21F
342
21F
343
21F
344
21F
  0
DIMSTYLE
105
225
100
AcDbSymbolTableRecord
100
AcDbDimStyleTableRecord
  2
DIMSTYLE_1
 70
0
  3

  4

 40
1.0
 41
3.0
 42
0.5
 43
0.38
 44
1.5
 45
0.0
 46
0.0
 47
0.0
 48
0.0
140
3.0
141
0.09
142
0.0
143
25.4
144
1.0
145
0.0
146
1.0
147
0.75
 71
0
 72
0
 73
0
 74
0
 75
0
 76
0
 77
1
 78
8
 79
2
170
0
171
1
172
0
173
0
174
0
175
0
176
0
177
0
178
0
270
2
179
2
271
1
272
1
273
2
274
2
275
0
280
0
281
0
282
0
283
1
284
8
285
0
286
0
287
3
288
0
340
11
278
44
341
21F
342
21F
343
21F
344
21F
  0
ENDTAB
  0
ENDSEC
  0
SECTION
  2
BLOCKS
  0
BLOCK
  5
20
100
AcDbEntity
  8
0
100
AcDbBlockBegin
  2
*Model_Space
 70
0
 10
0.0
 20
0.0
 30
0.0
  3
*Model_Space
  1

  0
ENDBLK
  5
21
100
AcDbEntity
  8
0
100
AcDbBlockEnd
  0
BLOCK
  5
1C
100
AcDbEntity
  8
0
100
AcDbBlockBegin
  2
*Paper_Space
 70
0
 10
0.0
 20
0.0
 30
0.0
  3
*Paper_Space
  1

  0
ENDBLK
  5
1D
100
AcDbEntity
  8
0
100
AcDbBlockEnd
  0
BLOCK
  5
226
100
AcDbEntity
  8
0
100
AcDbBlockBegin
  2
_FILLED
 70
64
 10
0.0
 20
0.0
  3
_FILLED
  1

  0
SOLID
  5
227
100
AcDbEntity
  8
0
  6
BYBLOCK
 62
0
100
AcDbTrace
 10
0.0
 20
0.0
 11
-1.0
 21
0.3166666667
 12
-1.0
 22
-0.3166666667
 13
-1.0
 23
-0.3166666667
  0
ENDBLK
  5
228
100
AcDbEntity
  8
0
  6
BYBLOCK
 62
0
100
AcDbBlockEnd
  0
BLOCK
  5
229
100
AcDbEntity
  8
0
100
AcDbBlockBegin
 62
7
  6
CONTINUOUS
  2
*D0
 70
65
 10
0.0
 20
0.0
  3
*D0
  1

  0
LINE
  5
22A
100
AcDbEntity
  8
0
100
AcDbLine
 62
7
  6
CONTINUOUS
 10
-14.947322064
 20
28.6581112195
 11
-14.947322064
 21
40.3359256648
  0
LINE
  5
22B
100
AcDbEntity
  8
0
100
AcDbLine
 62
7
  6
CONTINUOUS
 10
29.6584086183
 20
28.6581112195
 11
29.6584086183
 21
40.3359256648
  0
LINE
  5
22C
100
AcDbEntity
  8
0
100
AcDbLine
 62
7
  6
CONTINUOUS
 10
-14.947322064
 20
38.8359256648
 11
7.3555432771
 21
38.8359256648
  0
LINE
  5
22D
100
AcDbEntity
  8
0
100
AcDbLine
 62
7
  6
CONTINUOUS
 10
29.6584086183
 20
38.8359256648
 11
7.3555432771
 21
38.8359256648
  0
INSERT
  5
22E
100
AcDbEntity
  8
0
100
AcDbBlockReference
 62
7
  6
CONTINUOUS
  2
_FILLED
 10
-14.947322064
 20
38.8359256648
 41
3.0
 42
3.0
 43
3.0
 50
180.0
  0
INSERT
  5
22F
100
AcDbEntity
  8
0
100
AcDbBlockReference
 62
7
  6
CONTINUOUS
  2
_FILLED
 10
29.6584086183
 20
38.8359256648
 41
3.0
 42
3.0
 43
3.0
  0
ENDBLK
  5
230
100
AcDbEntity
  8
0
  6
BYBLOCK
 62
0
100
AcDbBlockEnd
  0
BLOCK
  5
231
100
AcDbEntity
  8
0
100
AcDbBlockBegin
 62
7
  6
CONTINUOUS
  2
*D1
 70
65
 10
0.0
 20
0.0
  3
*D1
  1

  0
LINE
  5
232
100
AcDbEntity
  8
0
100
AcDbLine
 62
7
  6
CONTINUOUS
 10
29.6585799558
 20
28.657939882
 11
41.3363944011
 21
28.657939882
  0
LINE
  5
233
100
AcDbEntity
  8
0
100
AcDbLine
 62
7
  6
CONTINUOUS
 10
29.6585799558
 20
-24.0477908004
 11
41.3363944011
 21
-24.0477908004
  0
LINE
  5
234
100
AcDbEntity
  8
0
100
AcDbLine
 62
7
  6
CONTINUOUS
 10
39.8363944011
 20
28.657939882
 11
39.8363944011
 21
2.3050745408
  0
LINE
  5
235
100
AcDbEntity
  8
0
100
AcDbLine
 62
7
  6
CONTINUOUS
 10
39.8363944011
 20
-24.0477908004
 11
39.8363944011
 21
2.3050745408
  0
INSERT
  5
236
100
AcDbEntity
  8
0
100
AcDbBlockReference
 62
7
  6
CONTINUOUS
  2
_FILLED
 10
39.8363944011
 20
28.657939882
 41
3.0
 42
3.0
 43
3.0
 50
90.0
  0
INSERT
  5
237
100
AcDbEntity
  8
0
100
AcDbBlockReference
 62
7
  6
CONTINUOUS
  2
_FILLED
 10
39.8363944011
 20
-24.0477908004
 41
3.0
 42
3.0
 43
3.0
 50
270.0
  0
ENDBLK
  5
238
100
AcDbEntity
  8
0
  6
BYBLOCK
 62
0
100
AcDbBlockEnd
  0
BLOCK
  5
239
100
AcDbEntity
  8
0
100
AcDbBlockBegin
 62
7
  6
CONTINUOUS
  2
*D2
 70
65
 10
0.0
 20
0.0
  3
*D2
  1

  0
LINE
  5
23A
100
AcDbEntity
  8
0
100
AcDbLine
 62
7
  6
CONTINUOUS
 10
-35.6133693964
 20
28.6581112195
 11
-35.6133693964
 21
40.3359256648
  0
LINE
  5
23B
100
AcDbEntity
  8
0
100
AcDbLine
 62
7
  6
CONTINUOUS
 10
-40.2831169251
 20
-22.3993472754
 11
-40.2831169251
 21
40.3359256648
  0
LINE
  5
23C
100
AcDbEntity
  8
0
100
AcDbLine
 62
7
  6
CONTINUOUS
 10
-35.6133693964
 20
38.8359256648
 11
-31.6133693964
 21
38.8359256648
  0
LINE
  5
23D
100
AcDbEntity
  8
0
100
AcDbLine
 62
7
  6
CONTINUOUS
 10
-31.6133693964
 20
38.8359256648
 11
-37.9482431607
 21
38.8359256648
  0
LINE
  5
23E
100
AcDbEntity
  8
0
100
AcDbLine
 62
7
  6
CONTINUOUS
 10
-40.2831169251
 20
38.8359256648
 11
-50.7799706852
 21
38.8359256648
  0
LINE
  5
23F
100
AcDbEntity
  8
0
100
AcDbLine
 62
7
  6
CONTINUOUS
 10
-50.7799706852
 20
38.8359256648
 11
-37.9482431607
 21
38.8359256648
  0
INSERT
  5
240
100
AcDbEntity
  8
0
100
AcDbBlockReference
 62
7
  6
CONTINUOUS
  2
_FILLED
 10
-35.6133693964
 20
38.8359256648
 41
3.0
 42
3.0
 43
3.0
 50
180.0
  0
INSERT
  5
241
100
AcDbEntity
  8
0
100
AcDbBlockReference
 62
7
  6
CONTINUOUS
  2
_FILLED
 10
-40.2831169251
 20
38.8359256648
 41
3.0
 42
3.0
 43
3.0
  0
ENDBLK
  5
242
100
AcDbEntity
  8
0
  6
BYBLOCK
 62
0
100
AcDbBlockEnd
  0
BLOCK
  5
243
100
AcDbEntity
  8
0
100
AcDbBlockBegin
 62
7
  6
CONTINUOUS
  2
*D3
 70
65
 10
0.0
 20
0.0
  3
*D3
  1

  0
LINE
  5
244
100
AcDbEntity
  8
0
100
AcDbLine
 62
7
  6
CONTINUOUS
 10
-32.3133693964
 20
-9.5918036358
 11
-32.3133693964
 21
48.3359256648
  0
LINE
  5
245
100
AcDbEntity
  8
0
100
AcDbLine
 62
7
  6
CONTINUOUS
 10
-40.2831169251
 20
-22.3993472754
 11
-40.2831169251
 21
48.3359256648
  0
LINE
  5
246
100
AcDbEntity
  8
0
100
AcDbLine
 62
7
  6
CONTINUOUS
 10
-32.3133693964
 20
46.8359256648
 11
-36.2982431607
 21
46.8359256648
  0
LINE
  5
247
100
AcDbEntity
  8
0
100
AcDbLine
 62
7
  6
CONTINUOUS
 10
-40.2831169251
 20
46.8359256648
 11
-36.2982431607
 21
46.8359256648
  0
LINE
  5
248
100
AcDbEntity
  8
0
100
AcDbLine
 62
7
  6
CONTINUOUS
 10
-36.2982431607
 20
46.8359256648
 11
-46.6761667641
 21
46.8359256648
  0
INSERT
  5
249
100
AcDbEntity
  8
0
100
AcDbBlockReference
 62
7
  6
CONTINUOUS
  2
_FILLED
 10
-32.3133693964
 20
46.8359256648
 41
3.0
 42
3.0
 43
3.0
  0
INSERT
  5
24A
100
AcDbEntity
  8
0
100
AcDbBlockReference
 62
7
  6
CONTINUOUS
  2
_FILLED
 10
-40.2831169251
 20
46.8359256648
 41
3.0
 42
3.0
 43
3.0
 50
180.0
  0
ENDBLK
  5
24B
100
AcDbEntity
  8
0
  6
BYBLOCK
 62
0
100
AcDbBlockEnd
  0
ENDSEC
  0
SECTION
  2
ENTITIES
  0
DIMENSION
  5
24C
100
AcDbEntity
  8
0
100
AcDbDimension
 62
7
  6
CONTINUOUS
  2
*D0
 10
29.6584086183
 20
38.8359256648
 11
2.9626861343
 21
38.8359256648
 70
160
 71
2
 72
2
 41
0.9
 42
44.6057306824
  3
DIMSTYLE_1
100
AcDbAlignedDimension
 13
-14.947322064
 23
28.1581112195
 14
29.6584086183
 24
28.1581112195
100
AcDbRotatedDimension
  0
DIMENSION
  5
24D
100
AcDbEntity
  8
0
100
AcDbDimension
 62
7
  6
CONTINUOUS
  2
*D1
 10
39.8363944011
 20
-24.0477908004
 11
39.8363944011
 21
-1.9806397449
 70
160
 71
2
 72
2
 41
0.9
 42
52.7057306824
  3
DIMSTYLE_1
100
AcDbAlignedDimension
 13
29.1585799558
 23
28.657939882
 14
29.1585799558
 24
-24.0477908004
 50
270.0
100
AcDbRotatedDimension
  0
DIMENSION
  5
24E
100
AcDbEntity
  8
0
100
AcDbDimension
 62
7
  6
CONTINUOUS
  2
*D2
 10
-40.2831169251
 20
38.8359256648
 11
-50.7799706852
 21
38.8359256648
 70
160
 71
3
 72
2
 41
0.9
 42
4.6697475287
  3
DIMSTYLE_1
100
AcDbAlignedDimension
 13
-35.6133693964
 23
28.1581112195
 14
-40.2831169251
 24
-22.8993472754
 50
180.0
100
AcDbRotatedDimension
  0
DIMENSION
  5
24F
100
AcDbEntity
  8
0
100
AcDbDimension
 62
7
  6
CONTINUOUS
  2
*D3
 10
-40.2831169251
 20
46.8359256648
 11
-46.6761667641
 21
46.8359256648
 70
160
 71
3
 72
2
 41
0.9
 42
7.9697475287
  3
DIMSTYLE_1
100
AcDbAlignedDimension
 13
-32.3133693964
 23
-10.0918036358
 14
-40.2831169251
 24
-22.8993472754
 50
180.0
100
AcDbRotatedDimension
  0
LWPOLYLINE
  5
250
100
AcDbEntity
  8
0
100
AcDbPolyline
 62
7
  6
CONTINUOUS
 90
10
 70
0
 43
0.3500000006
 10
10.4626856003
 20
42.5859276581
 10
9.8198287468
 20
41.9430696716
 10
9.3912575111
 20
41.0859272003
 10
9.3912575111
 20
40.0144957123
 10
9.8198287468
 20
39.5859267426
 10
10.4626856003
 20
39.5859267426
 10
10.8912579689
 20
40.0144957123
 10
10.8912579689
 20
40.8716381836
 10
10.4626856003
 20
41.3002116852
 10
9.534114212
 20
41.3002116852
  0
LWPOLYLINE
  5
251
100
AcDbEntity
  8
RACCORDO
100
AcDbPolyline
 62
250
  6
CONTINUOUS
 90
16
 70
0
 10
-14.8788489532
 20
-7.9812672257
 10
-14.8748626285
 20
-7.9758926065
 10
-14.8656221896
 20
-7.9705749294
 10
-14.8512255527
 20
-7.9653705433
 10
-14.8318252707
 20
-7.9603345963
 10
-14.8076269168
 20
-7.9555204512
 10
-14.7788869055
 20
-7.9509791193
 10
-14.7459097767
 20
-7.9467587222
 10
-14.7090449678
 20
-7.9429039807
 10
-14.6686831106
 20
-7.939455741
 10
-14.6252518932
 20
-7.9364505412
 10
-14.5792115274
 20
-7.9339202254
 10
-14.5310498714
 20
-7.9318916061
 10
-14.4812772616
 20
-7.9303861793
 10
-14.4304211052
 20
-7.9294198959
 10
-14.3790202907
 20
-7.9290029941
  0
LWPOLYLINE
  5
252
100
AcDbEntity
  8
0
100
AcDbPolyline
 62
7
  6
CONTINUOUS
 90
11
 70
0
 10
6.3297221163
 20
-9.027957832
 10
6.3206502746
 20
-9.0319711427
 10
6.3116177339
 20
-9.0370594485
 10
6.3029885047
 20
-9.0429671149
 10
6.2947767389
 20
-9.0496917185
 10
6.2869682846
 20
-9.0572356827
 10
6.2798846971
 20
-9.0653506442
 10
6.2734978608
 20
-9.0740586627
 10
6.2678358914
 20
-9.0833376785
 10
6.2633046905
 20
-9.0928731479
 10
6.2600395591
 20
-9.1025602234
  0
LINE
  5
253
100
AcDbEntity
  8
RACCORDO
100
AcDbLine
 62
250
  6
CONTINUOUS
 10
29.1585799558
 20
28.657939882
 11
29.1189583397
 21
28.6183182659
  0
LINE
  5
254
100
AcDbEntity
  8
RACCORDO
100
AcDbLine
 62
250
  6
CONTINUOUS
 10
29.6584086183
 20
28.1581112195
 11
29.6187870022
 21
28.1184896034
  0
LINE
  5
255
100
AcDbEntity
  8
RACCORDO
100
AcDbLine
 62
250
  6
CONTINUOUS
 10
-14.947322064
 20
-23.5479621379
 11
-14.9148361624
 21
-23.5154762363
  0
LWPOLYLINE
  5
256
100
AcDbEntity
  8
0
100
AcDbPolyline
 62
7
  6
CONTINUOUS
 90
10
 70
0
 43
0.3500000006
 10
38.5863935394
 20
3.1622162704
 10
38.7292513733
 20
3.2336451874
 10
38.8006780243
 20
3.2336451874
 10
38.9435358582
 20
3.0907896194
 10
38.9435358582
 20
3.0193607025
 10
38.8721092072
 20
2.9479317856
 10
38.8006780243
 20
2.9479317856
 10
38.6578247223
 20
3.0193607025
 10
38.5863935394
 20
3.0907896194
 10
38.5863935394
 20
3.1622162704
  0
LWPOLYLINE
  5
257
100
AcDbEntity
  8
RACCORDO
100
AcDbPolyline
 62
250
  6
CONTINUOUS
 90
19
 70
0
 10
-14.8377906485
 20
-22.8993472754
 10
-14.8348293476
 20
-22.8948602828
 10
-14.8282016943
 20
-22.8904064684
 10
-14.817956761
 20
-22.8860186944
 10
-14.8041704131
 20
-22.8817293624
 10
-14.7869444743
 20
-22.8775700853
 10
-14.7664057407
 20
-22.873571464
 10
-14.7427041636
 20
-22.8697627782
 10
-14.7160157472
 20
-22.8661723856
 10
-14.6865423901
 20
-22.8628273063
 10
-14.6545063902
 20
-22.8597524145
 10
-14.620142054
 20
-22.8569698725
 10
-14.5836976008
 20
-22.8544996703
 10
-14.5454135527
 20
-22.852358607
 10
-14.5055979408
 20
-22.8505643825
 10
-14.4646273872
 20
-22.8491327371
 10
-14.422837667
 20
-22.8480726112
 10
-14.380512169
 20
-22.847388469
 10
-14.337961986
 20
-22.8470830438
  0
LWPOLYLINE
  5
258
100
AcDbEntity
  8
RACCORDO
100
AcDbPolyline
 62
250
  6
CONTINUOUS
 90
10
 70
0
 10
-14.9148361624
 20
-23.5154762363
 10
-14.9145699024
 20
-23.5151060929
 10
-14.914304141
 20
-23.5145302229
 10
-14.9140388784
 20
-23.5137486261
 10
-14.9137740413
 20
-23.5127610359
 10
-14.9135097029
 20
-23.5115677189
 10
-14.9132460826
 20
-23.5101694752
 10
-14.9129832536
 20
-23.5085665714
 10
-14.9127211428
 20
-23.5067587409
 10
-14.9124597501
 20
-23.5047459836
  0
LINE
  5
259
100
AcDbEntity
  8
RACCORDO
100
AcDbLine
 62
250
  6
CONTINUOUS
 10
-14.4474934015
 20
-24.0477908004
 11
-14.4150074999
 21
-24.0153048987
  0
LINE
  5
25A
100
AcDbEntity
  8
0
100
AcDbLine
 62
7
  6
CONTINUOUS
 10
4.0310289943
 20
-14.57715038
 11
4.0217713972
 21
-14.5859692666
  0
LINE
  5
25B
100
AcDbEntity
  8
0
100
AcDbLine
 62
7
  6
CONTINUOUS
 10
5.245244258
 20
-14.3411485114
 11
5.2378451558
 21
-14.3480527064
  0
LINE
  5
25C
100
AcDbEntity
  8
0
100
AcDbLine
 62
7
  6
CONTINUOUS
 10
4.4168732545
 20
-15.036904287
 11
5.2378451547
 21
-14.3480527073
  0
LINE
  5
25D
100
AcDbEntity
  8
0
100
AcDbLine
 62
7
  6
CONTINUOUS
 10
4.8519923727
 20
-13.8884782049
 11
4.0310289943
 21
-14.57715038
  0
LWPOLYLINE
  5
25E
100
AcDbEntity
  8
0
100
AcDbPolyline
 62
7
  6
CONTINUOUS
 90
15
 70
0
 10
8.7718898352
 20
-13.7714520276
 10
8.6775982871
 20
-13.8505394736
 10
8.5792097321
 20
-13.9238593035
 10
8.476371216
 20
-13.9916602437
 10
8.3694356931
 20
-14.0536935678
 10
8.2594620258
 20
-14.1092130959
 10
8.1464238342
 20
-14.1580933233
 10
8.0303474983
 20
-14.2004597548
 10
7.9123710209
 20
-14.2359427254
 10
7.7924658568
 20
-14.2644695385
 10
7.6706605513
 20
-14.2861128908
 10
7.5481787427
 20
-14.300721207
 10
7.4250163559
 20
-14.3082611022
 10
7.301177466
 20
-14.3087659612
 10
7.1778979368
 20
-14.3021843644
  0
LWPOLYLINE
  5
25F
100
AcDbEntity
  8
0
100
AcDbPolyline
 62
7
  6
CONTINUOUS
 90
14
 70
0
 10
4.851991776
 20
-13.8884787054
 10
4.8598099956
 20
-13.882948501
 10
4.8682690433
 20
-13.8783512362
 10
4.8773689189
 20
-13.8746869111
 10
4.8872775481
 20
-13.8719587951
 10
4.8978270052
 20
-13.8701636187
 10
4.9085135142
 20
-13.8692915735
 10
4.9193322856
 20
-13.8693624375
 10
4.9302881089
 20
-13.8703564326
 10
4.9408915759
 20
-13.8722044159
 10
4.9510994995
 20
-13.8748909539
 10
4.9609550669
 20
-13.8784314802
 10
4.9700984308
 20
-13.8828031514
 10
4.9784096423
 20
-13.8879983533
  0
LWPOLYLINE
  5
260
100
AcDbEntity
  8
0
100
AcDbPolyline
 62
7
  6
CONTINUOUS
 90
14
 70
0
 10
4.4168738508
 20
-15.0369037867
 10
4.4090556308
 20
-15.0424339913
 10
4.4005965829
 20
-15.0470312562
 10
4.3914967071
 20
-15.0506955814
 10
4.3815880779
 20
-15.0534236974
 10
4.3710386208
 20
-15.0552188738
 10
4.3603521118
 20
-15.056090919
 10
4.3495333404
 20
-15.056020055
 10
4.3385775171
 20
-15.0550260599
 10
4.3279740501
 20
-15.0531780766
 10
4.3177661265
 20
-15.0504915385
 10
4.3079105591
 20
-15.0469510123
 10
4.2987671952
 20
-15.0425793411
 10
4.2904559838
 20
-15.0373841393
  0
LWPOLYLINE
  5
261
100
AcDbEntity
  8
0
100
AcDbPolyline
 62
7
  6
CONTINUOUS
 90
3
 70
0
 43
0.3500000006
 10
8.3912577724
 20
39.8716378784
 10
8.3198288555
 20
39.6573533936
 10
8.1769715881
 20
39.3716377258
  0
LWPOLYLINE
  5
262
100
AcDbEntity
  8
RACCORDO
100
AcDbPolyline
 62
250
  6
CONTINUOUS
 90
10
 70
0
 10
-14.4150074999
 20
-24.0153048987
 10
-14.4147412276
 20
-24.0145659046
 10
-14.4144754601
 20
-24.0134139626
 10
-14.4142101974
 20
-24.0118496784
 10
-14.4139453706
 20
-24.0098741276
 10
-14.4136810486
 20
-24.0074880684
 10
-14.4134174386
 20
-24.0046913766
 10
-14.4131546096
 20
-24.0014843606
 10
-14.4128924926
 20
-23.997868326
 10
-14.4126310876
 20
-23.9938443934
  0
LWPOLYLINE
  5
263
100
AcDbEntity
  8
0
100
AcDbPolyline
 62
7
  6
CONTINUOUS
 90
3
 70
0
 10
4.4317536939
 20
-11.9066987767
 10
4.4378771481
 20
-11.8980821425
 10
4.4427568093
 20
-11.8891065858
  0
LWPOLYLINE
  5
264
100
AcDbEntity
  8
0
100
AcDbPolyline
 62
7
  6
CONTINUOUS
 90
8
 70
0
 10
8.9319087762
 20
-13.6127258474
 10
8.9978094361
 20
-13.5359673732
 10
9.0597863836
 20
-13.4563215102
 10
9.1178938063
 20
-13.373568799
 10
9.1720775167
 20
-13.287928699
 10
9.222174952
 20
-13.2000595881
 10
9.2682116123
 20
-13.109978609
 10
9.3101619977
 20
-13.017668619
  0
LINE
  5
265
100
AcDbEntity
  8
0
100
AcDbLine
 62
7
  6
CONTINUOUS
 10
5.2452461004
 20
-14.3411462076
 11
5.2518507859
 21
-14.333519346
  0
LWPOLYLINE
  5
266
100
AcDbEntity
  8
0
100
AcDbPolyline
 62
7
  6
CONTINUOUS
 90
20
 70
0
 10
8.5472075517
 20
-13.1406842144
 10
8.472385156
 20
-13.2266361891
 10
8.3925182901
 20
-13.30577355
 10
8.3065911075
 20
-13.3793842371
 10
8.2158960814
 20
-13.4461572332
 10
8.1203328606
 20
-13.5059666278
 10
8.0200017964
 20
-13.5589383314
 10
7.9164964168
 20
-13.6041390576
 10
7.8096798817
 20
-13.6414016458
 10
7.6996890312
 20
-13.6708932567
 10
7.5885279128
 20
-13.6921820855
 10
7.4762851114
 20
-13.7051436404
 10
7.3628720422
 20
-13.7099024133
 10
7.2500269982
 20
-13.7064000753
 10
7.1377175055
 20
-13.6945149489
 10
7.025976038
 20
-13.6743687117
 10
6.9166383111
 20
-13.6462680669
 10
6.8097499667
 20
-13.6101037677
 10
6.7052653629
 20
-13.5659850609
 10
6.6048832894
 20
-13.5145463901
  0
LINE
  5
267
100
AcDbEntity
  8
0
100
AcDbLine
 62
7
  6
CONTINUOUS
 10
4.4317513684
 20
-11.906696277
 11
4.4245195228
 21
-11.9148946517
  0
LINE
  5
268
100
AcDbEntity
  8
0
100
AcDbLine
 62
7
  6
CONTINUOUS
 10
8.9319211876
 20
-13.6127138957
 11
8.8620843764
 21
-13.6865969654
  0
LWPOLYLINE
  5
269
100
AcDbEntity
  8
0
100
AcDbPolyline
 62
7
  6
CONTINUOUS
 90
14
 70
0
 10
9.7175030144
 20
-13.9007088227
 10
9.724286223
 20
-13.8939562208
 10
9.7318499655
 20
-13.8880009664
 10
9.7401942419
 20
-13.8828430595
 10
9.7494820939
 20
-13.8784555152
 10
9.7595504797
 20
-13.8748653184
 10
9.769910275
 20
-13.8721534237
 10
9.7805613351
 20
-13.8703396525
 10
9.7915038045
 20
-13.8694041835
 10
9.8022489923
 20
-13.8693685075
 10
9.8127522523
 20
-13.8702254662
 10
9.8230582307
 20
-13.8719822179
 10
9.8328121739
 20
-13.8746817286
 10
9.8418958311
 20
-13.8783383202
  0
LWPOLYLINE
  5
26A
100
AcDbEntity
  8
0
100
AcDbPolyline
 62
7
  6
CONTINUOUS
 90
14
 70
0
 10
10.4347709388
 20
-15.0245014149
 10
10.4279877302
 20
-15.0312540168
 10
10.4204239877
 20
-15.0372092712
 10
10.4120797113
 20
-15.0423671781
 10
10.4027918593
 20
-15.0467547224
 10
10.3927234735
 20
-15.0503449192
 10
10.3823636782
 20
-15.0530568139
 10
10.3717126181
 20
-15.0548705851
 10
10.3607701487
 20
-15.0558060541
 10
10.3500249609
 20
-15.0558417301
 10
10.3395217009
 20
-15.0549847715
 10
10.3292157225
 20
-15.0532280197
 10
10.3194617793
 20
-15.050528509
 10
10.3103781221
 20
-15.0468719174
  0
LINE
  5
26B
100
AcDbEntity
  8
0
100
AcDbLine
 62
7
  6
CONTINUOUS
 10
8.7656477969
 20
-13.77695687
 11
8.8620844039
 21
-13.6865969327
  0
LWPOLYLINE
  5
26C
100
AcDbEntity
  8
RACCORDO
100
AcDbPolyline
 62
250
  6
CONTINUOUS
 90
19
 70
0
 10
-14.9077004479
 20
28.1184896034
 10
-14.9057643825
 20
28.1621003373
 10
-14.9000306504
 20
28.2053788306
 10
-14.8905428823
 20
28.2479949639
 10
-14.877373296
 20
28.2896237895
 10
-14.8606222721
 20
28.3299475979
 10
-14.8404177057
 20
28.3686583892
 10
-14.816911994
 20
28.4054633465
 10
-14.7902857429
 20
28.440078964
 10
-14.760748786
 20
28.472234485
 10
-14.7285331353
 20
28.5016822371
 10
-14.6938817944
 20
28.528204592
 10
-14.6570516208
 20
28.5516064415
 10
-14.6182870074
 20
28.5717262169
 10
-14.5779163384
 20
28.5883875038
 10
-14.5363534125
 20
28.6014348658
 10
-14.4939582568
 20
28.6107900507
 10
-14.4510224213
 20
28.6164225994
 10
-14.4078717854
 20
28.6183182659
  0
LINE
  5
26D
100
AcDbEntity
  8
RACCORDO
100
AcDbLine
 62
250
  6
CONTINUOUS
 10
-14.9124597501
 20
-23.5047459836
 11
-14.8377906485
 21
-22.8993472754
  0
LINE
  5
26E
100
AcDbEntity
  8
RACCORDO
100
AcDbLine
 62
250
  6
CONTINUOUS
 10
-14.4126310876
 20
-23.9938443934
 11
-14.337961986
 21
-23.3884456852
  0
LWPOLYLINE
  5
26F
100
AcDbEntity
  8
0
100
AcDbPolyline
 62
7
  6
CONTINUOUS
 90
10
 70
0
 10
3.2726307732
 20
-11.2358694248
 10
3.2768302588
 20
-11.2267419716
 10
3.2820831751
 20
-11.2177701042
 10
3.2883407463
 20
-11.2091057456
 10
3.2954566444
 20
-11.2012046646
 10
3.3035061127
 20
-11.1941207849
 10
3.3124139079
 20
-11.1878001827
 10
3.3218079726
 20
-11.1825368561
 10
3.3317360961
 20
-11.1784226145
 10
3.3421504891
 20
-11.1753656484
  0
LWPOLYLINE
  5
270
100
AcDbEntity
  8
0
100
AcDbPolyline
 62
7
  6
CONTINUOUS
 90
3
 70
0
 10
5.2627755435
 20
-14.3159720615
 10
5.2576570193
 20
-14.3251763031
 10
5.2518507859
 20
-14.333519346
  0
LWPOLYLINE
  5
271
100
AcDbEntity
  8
0
100
AcDbPolyline
 62
7
  6
CONTINUOUS
 90
11
 70
0
 10
5.4255595788
 20
-11.300437521
 10
5.4309559998
 20
-11.2909235834
 10
5.4373473704
 20
-11.282139549
 10
5.4447336904
 20
-11.2740854178
 10
5.4533290934
 20
-11.2666650279
 10
5.462919446
 20
-11.2599745411
 10
5.4728623476
 20
-11.2543024437
 10
5.4831237729
 20
-11.2497041382
 10
5.4937377472
 20
-11.246124222
 10
5.5041639463
 20
-11.2436849738
 10
5.5134252753
 20
-11.2425268187
  0
LWPOLYLINE
  5
272
100
AcDbEntity
  8
0
100
AcDbPolyline
 62
7
  6
CONTINUOUS
 90
3
 70
0
 10
4.0073240798
 20
-14.6067504536
 10
4.0138699291
 20
-14.5958357455
 10
4.0217713972
 20
-14.5859692666
  0
LWPOLYLINE
  5
273
100
AcDbEntity
  8
0
100
AcDbPolyline
 62
7
  6
CONTINUOUS
 90
3
 70
0
 10
8.6743313789
 20
-12.9573750813
 10
8.6137953662
 20
-13.0517859194
 10
8.5461204195
 20
-13.1419743911
  0
LINE
  5
274
100
AcDbEntity
  8
0
100
AcDbLine
 62
7
  6
CONTINUOUS
 10
8.611362912
 20
-13.0553130477
 11
8.6695317789
 21
-12.9654645484
  0
LINE
  5
275
100
AcDbEntity
  8
0
100
AcDbLine
 62
7
  6
CONTINUOUS
 10
9.7175034784
 20
-13.9007082694
 11
9.4604980099
 21
-14.2071511169
  0
LINE
  5
276
100
AcDbEntity
  8
0
100
AcDbLine
 62
7
  6
CONTINUOUS
 10
10.4347704748
 20
-15.0245019682
 11
10.6917759433
 21
-14.7180591207
  0
LWPOLYLINE
  5
277
100
AcDbEntity
  8
RACCORDO
100
AcDbPolyline
 62
250
  6
CONTINUOUS
 90
16
 70
0
 10
-14.9124597501
 20
-23.5047459836
 10
-14.9094574813
 20
-23.5556951453
 10
-14.9010494574
 20
-23.6060899509
 10
-14.8873271626
 20
-23.6553820764
 10
-14.8684399034
 20
-23.703035195
 10
-14.8445931838
 20
-23.7485308138
 10
-14.8160464698
 20
-23.7913739143
 10
-14.783110366
 20
-23.8310983392
 10
-14.7461432359
 20
-23.867271864
 10
-14.7055473032
 20
-23.8995009001
 10
-14.6617642746
 20
-23.9274347772
 10
-14.6152705347
 20
-23.9507695587
 10
-14.5665719618
 20
-23.9692513489
 10
-14.5161984242
 20
-23.9826790553
 10
-14.4646980149
 20
-23.9909065769
 10
-14.4126310876
 20
-23.9938443934
  0
LWPOLYLINE
  5
278
100
AcDbEntity
  8
RACCORDO
100
AcDbPolyline
 62
250
  6
CONTINUOUS
 90
16
 70
0
 10
-14.9148361624
 20
-23.5154762363
 10
-14.9120646569
 20
-23.5676997927
 10
-14.9038520474
 20
-23.6193516878
 10
-14.890288231
 20
-23.6698665065
 10
-14.8715216824
 20
-23.7186912805
 10
-14.8477578294
 20
-23.7652915409
 10
-14.8192568037
 20
-23.8091571688
 10
-14.7863305934
 20
-23.8498079809
 10
-14.7493396282
 20
-23.8867989843
 10
-14.7086888346
 20
-23.9197252477
 10
-14.6648232015
 20
-23.9482263363
 10
-14.6182229102
 20
-23.9719902556
 10
-14.56939808
 20
-23.9907568665
 10
-14.5188831807
 20
-24.0043207349
 10
-14.4672311815
 20
-24.01253338
 10
-14.4150074999
 20
-24.0153048987
  0
LWPOLYLINE
  5
279
100
AcDbEntity
  8
RACCORDO
100
AcDbPolyline
 62
250
  6
CONTINUOUS
 90
19
 70
0
 10
-14.8377906485
 20
-22.8993472754
 10
-14.8356565849
 20
-22.9419254283
 10
-14.829742701
 20
-22.9841856832
 10
-14.8200924674
 20
-23.0258069047
 10
-14.8067751511
 20
-23.066479556
 10
-14.7898919423
 20
-23.1058867691
 10
-14.769581294
 20
-23.1437091677
 10
-14.7460122747
 20
-23.1796463935
 10
-14.7193593831
 20
-23.2134448381
 10
-14.6898042972
 20
-23.2448742429
 10
-14.6575425218
 20
-23.2737142859
 10
-14.6228378495
 20
-23.2997177556
 10
-14.5860089483
 20
-23.3226511719
 10
-14.5473408097
 20
-23.3423517555
 10
-14.5071334853
 20
-23.3586805929
 10
-14.4657640004
 20
-23.3715078836
 10
-14.4235757138
 20
-23.3807622318
 10
-14.3808680323
 20
-23.3864121331
 10
-14.337961986
 20
-23.3884456852
  0
LINE
  5
27A
100
AcDbEntity
  8
RACCORDO
100
AcDbLine
 62
250
  6
CONTINUOUS
 10
-14.8377906485
 20
-22.8993472754
 11
-14.8855836115
 21
-5.4571529631
  0
LINE
  5
27B
100
AcDbEntity
  8
RACCORDO
100
AcDbLine
 62
250
  6
CONTINUOUS
 10
-14.8855836115
 20
-5.4571529631
 11
-14.8979040651
 21
0.0243379668
  0
LINE
  5
27C
100
AcDbEntity
  8
RACCORDO
100
AcDbLine
 62
250
  6
CONTINUOUS
 10
-14.8979040651
 20
0.0243379668
 11
-14.9037897243
 21
4.0406171822
  0
LINE
  5
27D
100
AcDbEntity
  8
RACCORDO
100
AcDbLine
 62
250
  6
CONTINUOUS
 10
-14.3980754026
 20
0.0595013368
 11
-14.4039610619
 21
4.0610708417
  0
LINE
  5
27E
100
AcDbEntity
  8
RACCORDO
100
AcDbLine
 62
250
  6
CONTINUOUS
 10
-14.9037897243
 20
4.0406171822
 11
-14.9072972903
 21
9.6317936935
  0
LINE
  5
27F
100
AcDbEntity
  8
RACCORDO
100
AcDbLine
 62
250
  6
CONTINUOUS
 10
-14.4039610619
 20
4.0610708417
 11
-14.4074686278
 21
9.6367826632
  0
LINE
  5
280
100
AcDbEntity
  8
RACCORDO
100
AcDbLine
 62
7
  6
CONTINUOUS
 10
-14.947322064
 20
28.1581112195
 11
-14.947322064
 21
-23.5479621379
  0
LINE
  5
281
100
AcDbEntity
  8
RACCORDO
100
AcDbLine
 62
250
  6
CONTINUOUS
 10
-14.9072972903
 20
9.6317936935
 11
-14.9077004479
 21
28.1184896034
  0
LINE
  5
282
100
AcDbEntity
  8
RACCORDO
100
AcDbLine
 62
250
  6
CONTINUOUS
 10
-14.4074686278
 20
9.6367826632
 11
-14.4078717854
 21
28.6183182659
  0
LINE
  5
283
100
AcDbEntity
  8
RACCORDO
100
AcDbLine
 62
250
  6
CONTINUOUS
 10
-14.337961986
 20
-23.3884456852
 11
-14.3980754026
 21
0.0595013368
  0
LINE
  5
284
100
AcDbEntity
  8
0
100
AcDbLine
 62
7
  6
CONTINUOUS
 10
3.2694359425
 20
-11.2453043868
 11
3.2726307732
 21
-11.2358694248
  0
LINE
  5
285
100
AcDbEntity
  8
0
100
AcDbLine
 62
7
  6
CONTINUOUS
 10
5.336110452
 20
-11.5319518207
 11
5.3774157431
 21
-11.4152438123
  0
LWPOLYLINE
  5
286
100
AcDbEntity
  8
0
100
AcDbPolyline
 62
7
  6
CONTINUOUS
 90
17
 70
0
 10
5.9578368968
 20
-11.5557431027
 10
5.9180012547
 20
-11.6543073516
 10
5.8852135792
 20
-11.7552059921
 10
5.8593365869
 20
-11.8590321977
 10
5.8405075613
 20
-11.9651927949
 10
5.8291383526
 20
-12.0719082634
 10
5.8253720805
 20
-12.1790866346
 10
5.8290656254
 20
-12.2868198771
 10
5.8402014782
 20
-12.3936043756
 10
5.8589124028
 20
-12.4995291397
 10
5.8850656353
 20
-12.6045051599
 10
5.9182453756
 20
-12.7067617912
 10
5.9584899637
 20
-12.8061086855
 10
6.0057610596
 20
-12.902736191
 10
6.0595278422
 20
-12.9954447079
 10
6.120009079
 20
-13.0842996713
 10
6.1869860024
 20
-13.1692356461
  0
LWPOLYLINE
  5
287
100
AcDbEntity
  8
0
100
AcDbPolyline
 62
7
  6
CONTINUOUS
 90
45
 70
0
 10
5.4255594409
 20
-11.300437918
 10
5.3744190277
 20
-11.4230983725
 10
5.3310851134
 20
-11.547797767
 10
5.2955576981
 20
-11.6745361015
 10
5.2677299571
 20
-11.8038419061
 10
5.2477087151
 20
-11.9351866507
 10
5.2358144463
 20
-12.0669847447
 10
5.2321790763
 20
-12.1993030693
 10
5.2366706794
 20
-12.3320747433
 10
5.2492139527
 20
-12.4635135318
 10
5.2698952248
 20
-12.5934388646
 10
5.2986281671
 20
-12.7220313118
 10
5.3350784908
 20
-12.8480463493
 10
5.3793452823
 20
-12.9715852981
 10
5.4313294551
 20
-13.0925468371
 10
5.4903994621
 20
-13.2093824782
 10
5.5565700257
 20
-13.3218527284
 10
5.6298264235
 20
-13.4301970807
 10
5.7094929405
 20
-13.5335855259
 10
5.79576244
 20
-13.6321638946
 10
5.8884420588
 20
-13.7257863562
 10
5.9862774923
 20
-13.8131854094
 10
6.0891531868
 20
-13.8941911567
 10
6.197184696
 20
-13.9689734956
 10
6.3094643762
 20
-14.0367746171
 10
6.4262726653
 20
-14.0976026327
 10
6.5473291255
 20
-14.1514494308
 10
6.6708847989
 20
-14.1975328684
 10
6.79677336
 20
-14.2356697986
 10
6.9251611344
 20
-14.2660433682
 10
7.0547981417
 20
-14.2884208743
 10
7.1858552944
 20
-14.3027393265
 10
7.31816168
 20
-14.3090617151
 10
7.4499545797
 20
-14.3073443081
 10
7.5810752617
 20
-14.2975207995
 10
7.7116824578
 20
-14.2796574953
 10
7.8404896449
 20
-14.2539095814
 10
7.9675832776
 20
-14.2201927698
 10
8.0928769014
 20
-14.1785913485
 10
8.2148246298
 20
-14.1295133666
 10
8.3333212052
 20
-14.0728080579
 10
8.4484718852
 20
-14.0086261886
 10
8.5590465564
 20
-13.9378281066
 10
8.664635181
 20
-13.8607005946
 10
8.7656477969
 20
-13.77695687
  0
LWPOLYLINE
  5
288
100
AcDbEntity
  8
0
100
AcDbPolyline
 62
7
  6
CONTINUOUS
 90
5
 70
0
 10
5.2627793281
 20
-14.3159644943
 10
5.2671021125
 20
-14.3060377426
 10
5.2703149681
 20
-14.2957989937
 10
5.2723199713
 20
-14.285227559
 10
5.2732150456
 20
-14.2743441272
  0
LWPOLYLINE
  5
289
100
AcDbEntity
  8
0
100
AcDbPolyline
 62
7
  6
CONTINUOUS
 90
7
 70
0
 10
4.0073206413
 20
-14.6067569473
 10
4.0019693683
 20
-14.619043066
 10
3.9979745014
 20
-14.6323776361
 10
3.995819943
 20
-14.6457995766
 10
3.9957981332
 20
-14.6592916644
 10
3.9976166318
 20
-14.6728711226
 10
4.0008820206
 20
-14.6856285396
  0
LWPOLYLINE
  5
28A
100
AcDbEntity
  8
0
100
AcDbPolyline
 62
7
  6
CONTINUOUS
 90
17
 70
0
 10
8.721046753
 20
-12.8720312688
 10
8.7658816777
 20
-12.7746746215
 10
8.8040627095
 20
-12.6737331939
 10
8.8350009195
 20
-12.5711153012
 10
8.8585398958
 20
-12.4670390458
 10
8.8748360501
 20
-12.3612863254
 10
8.8837696881
 20
-12.2551111476
 10
8.8852735077
 20
-12.1483335058
 10
8.8794148108
 20
-12.0411334068
 10
8.8662758091
 20
-11.9353048783
 10
8.8457770393
 20
-11.8310196367
 10
8.8179979647
 20
-11.7281059657
 10
8.7832591857
 20
-11.6278427452
 10
8.7413588858
 20
-11.5301637726
 10
8.6924988816
 20
-11.4351352506
 10
8.6376052236
 20
-11.3442346668
 10
8.5769865953
 20
-11.2579545173
  0
LINE
  5
28B
100
AcDbEntity
  8
0
100
AcDbLine
 62
7
  6
CONTINUOUS
 10
9.4448147741
 20
-14.2331210859
 11
9.4491271625
 21
-14.2238909928
  0
LINE
  5
28C
100
AcDbEntity
  8
0
100
AcDbLine
 62
7
  6
CONTINUOUS
 10
5.9552333996
 20
-11.5618717254
 11
6.0047204511
 21
-11.4595134196
  0
LINE
  5
28D
100
AcDbEntity
  8
0
100
AcDbLine
 62
7
  6
CONTINUOUS
 10
8.7276053202
 20
-12.8585876993
 11
8.6743313789
 21
-12.9573750813
  0
LINE
  5
28E
100
AcDbEntity
  8
0
100
AcDbLine
 62
7
  6
CONTINUOUS
 10
8.6695317789
 20
-12.9654645484
 11
8.721046753
 21
-12.8720312688
  0
LWPOLYLINE
  5
28F
100
AcDbEntity
  8
0
100
AcDbPolyline
 62
7
  6
CONTINUOUS
 90
3
 70
0
 10
9.4491291212
 20
-14.2238868005
 10
9.4543568662
 20
-14.2152301445
 10
9.4604980091
 20
-14.2071511178
  0
LWPOLYLINE
  5
290
100
AcDbEntity
  8
0
100
AcDbPolyline
 62
7
  6
CONTINUOUS
 90
3
 70
0
 10
10.703144832
 20
-14.7013234371
 10
10.697917087
 20
-14.7099800931
 10
10.6917759441
 20
-14.7180591198
  0
LINE
  5
291
100
AcDbEntity
  8
0
100
AcDbLine
 62
7
  6
CONTINUOUS
 10
3.2672457668
 20
-11.255046857
 11
3.1976548463
 21
-11.6489934786
  0
LINE
  5
292
100
AcDbEntity
  8
0
100
AcDbLine
 62
7
  6
CONTINUOUS
 10
4.449258817
 20
-11.869824498
 11
4.5188497832
 21
-11.4758776175
  0
LINE
  5
293
100
AcDbEntity
  8
0
100
AcDbLine
 62
7
  6
CONTINUOUS
 10
3.2694359199
 20
-11.2453049789
 11
3.2672457668
 21
-11.255046857
  0
LWPOLYLINE
  5
294
100
AcDbEntity
  8
0
100
AcDbPolyline
 62
7
  6
CONTINUOUS
 90
3
 70
0
 10
4.4492588473
 20
-11.8698243269
 10
4.4465630286
 20
-11.8796718936
 10
4.4427731213
 20
-11.8890848979
  0
LINE
  5
295
100
AcDbEntity
  8
0
100
AcDbLine
 62
7
  6
CONTINUOUS
 10
9.3811058753
 20
-12.8282360583
 11
9.4100993676
 21
-12.7311134875
  0
LINE
  5
296
100
AcDbEntity
  8
0
100
AcDbLine
 62
7
  6
CONTINUOUS
 10
9.444811906
 20
-14.2331280513
 11
9.4413306134
 21
-14.2430957842
  0
LINE
  5
297
100
AcDbEntity
  8
0
100
AcDbLine
 62
7
  6
CONTINUOUS
 10
10.7074620472
 20
-14.6920821863
 11
10.7109433398
 21
-14.6821144535
  0
LINE
  5
298
100
AcDbEntity
  8
0
100
AcDbLine
 62
7
  6
CONTINUOUS
 10
10.7074591791
 20
-14.6920891517
 11
10.7031467907
 21
-14.7013192448
  0
LWPOLYLINE
  5
299
100
AcDbEntity
  8
0
100
AcDbPolyline
 62
7
  6
CONTINUOUS
 90
3
 70
0
 10
6.2569016021
 20
-9.1227040128
 10
6.2578947285
 20
-9.1125241832
 10
6.2600253442
 20
-9.1025895789
  0
LINE
  5
29A
100
AcDbEntity
  8
0
100
AcDbLine
 62
7
  6
CONTINUOUS
 10
4.5203444418
 20
-11.4632473036
 11
4.5188497832
 21
-11.4758776175
  0
LWPOLYLINE
  5
29B
100
AcDbEntity
  8
0
100
AcDbPolyline
 62
7
  6
CONTINUOUS
 90
4
 70
0
 10
6.0153710143
 20
-11.425163243
 10
6.013269434
 20
-11.4370676442
 10
6.0097192644
 20
-11.448517645
 10
6.0047205057
 20
-11.4595132454
  0
LINE
  5
29C
100
AcDbEntity
  8
0
100
AcDbLine
 62
7
  6
CONTINUOUS
 10
9.4344711035
 20
-12.6328149878
 11
9.4542549968
 21
-12.5331951362
  0
LWPOLYLINE
  5
29D
100
AcDbEntity
  8
0
100
AcDbPolyline
 62
7
  6
CONTINUOUS
 90
3
 70
0
 10
7.058286235
 20
-15.1768107515
 10
7.056346133
 20
-15.1862619369
 10
7.0554752624
 20
-15.1958945209
  0
LWPOLYLINE
  5
29E
100
AcDbEntity
  8
0
100
AcDbPolyline
 62
7
  6
CONTINUOUS
 90
3
 70
0
 10
7.6524558095
 20
-16.2864030044
 10
7.6543959115
 20
-16.276951819
 10
7.6552667821
 20
-16.267319235
  0
LWPOLYLINE
  5
29F
100
AcDbEntity
  8
0
100
AcDbPolyline
 62
7
  6
CONTINUOUS
 90
3
 70
0
 10
3.1972050591
 20
-11.6684898965
 10
3.1968836414
 20
-11.6587428272
 10
3.1976548428
 20
-11.6489934981
  0
LINE
  5
2A0
100
AcDbEntity
  8
0
100
AcDbLine
 62
7
  6
CONTINUOUS
 10
4.5201270706
 20
-11.4506685208
 11
4.5203444418
 21
-11.4632473036
  0
LWPOLYLINE
  5
2A1
100
AcDbEntity
  8
0
100
AcDbPolyline
 62
7
  6
CONTINUOUS
 90
2
 70
0
 43
0.3500000006
 10
3.9626861658
 20
39.5859267426
 10
3.9626861658
 20
41.0859272003
  0
LINE
  5
2A2
100
AcDbEntity
  8
0
100
AcDbLine
 62
7
  6
CONTINUOUS
 10
6.2569016021
 20
-9.1227037356
 11
6.2569016021
 21
-9.5226790902
  0
LWPOLYLINE
  5
2A3
100
AcDbEntity
  8
0
100
AcDbPolyline
 62
7
  6
CONTINUOUS
 90
2
 70
0
 43
0.3500000006
 10
6.3198288116
 20
39.5859267426
 10
6.3198288116
 20
41.0859272003
  0
LINE
  5
2A4
100
AcDbEntity
  8
0
100
AcDbLine
 62
7
  6
CONTINUOUS
 10
7.0554752624
 20
-15.1958945209
 11
7.0554752624
 21
-16.2673215879
  0
LINE
  5
2A5
100
AcDbEntity
  8
0
100
AcDbLine
 62
7
  6
CONTINUOUS
 10
7.6552667821
 20
-16.267319235
 11
7.6552667821
 21
-15.195892168
  0
LINE
  5
2A6
100
AcDbEntity
  8
0
100
AcDbLine
 62
7
  6
CONTINUOUS
 10
7.7899701044
 20
-9.6227595335
 11
7.7899701044
 21
-10.3257317898
  0
LWPOLYLINE
  5
2A7
100
AcDbEntity
  8
0
100
AcDbPolyline
 62
7
  6
CONTINUOUS
 90
11
 70
0
 10
9.479559354
 20
-12.3313100483
 10
9.4845464
 20
-12.2300145359
 10
9.4845135296
 20
-12.1284254967
 10
9.4794683559
 20
-12.0271633681
 10
9.4692812159
 20
-11.9261540001
 10
9.4540817726
 20
-11.8254715427
 10
9.434266628
 20
-11.7259588829
 10
9.40986799
 20
-11.6277427005
 10
9.3808536508
 20
-11.5306963158
 10
9.3475235889
 20
-11.4352825768
 10
9.3099006172
 20
-11.3414582554
  0
LWPOLYLINE
  5
2A8
100
AcDbEntity
  8
0
100
AcDbPolyline
 62
7
  6
CONTINUOUS
 90
6
 70
0
 10
6.0153722472
 20
-11.4251531109
 10
6.0160796253
 20
-11.4125003552
 10
6.0153377707
 20
-11.3993940415
 10
6.0129809486
 20
-11.3867107813
 10
6.008840545
 20
-11.3745361471
 10
6.0030851739
 20
-11.3627845663
  0
LWPOLYLINE
  5
2A9
100
AcDbEntity
  8
0
100
AcDbPolyline
 62
7
  6
CONTINUOUS
 90
9
 70
0
 10
9.4795757934
 20
-12.3310921838
 10
9.4694486254
 20
-12.4321509707
 10
9.4543041769
 20
-12.5329195281
 10
9.4345364005
 20
-12.6325231312
 10
9.4101789988
 20
-12.7308196649
 10
9.3811982691
 20
-12.8279512444
 10
9.347887056
 20
-12.9234694907
 10
9.3102629331
 20
-13.017429944
 10
9.2683083267
 20
-13.1097770643
  0
LINE
  5
2AA
100
AcDbEntity
  8
0
100
AcDbLine
 62
7
  6
CONTINUOUS
 10
9.4371964574
 20
-14.2750774548
 11
9.4381969981
 21
-14.2859691535
  0
LWPOLYLINE
  5
2AB
100
AcDbEntity
  8
0
100
AcDbPolyline
 62
7
  6
CONTINUOUS
 90
14
 70
0
 10
7.0554752624
 20
-16.2673215879
 10
7.0563181298
 20
-16.2769759833
 10
7.0582872082
 20
-16.286498986
 10
7.0613824977
 20
-16.2958905961
 10
7.0657218826
 20
-16.3052778673
 10
7.0711874785
 20
-16.3145337458
 10
7.0774256324
 20
-16.3232770708
 10
7.0844396464
 20
-16.3314836235
 10
7.0922262182
 20
-16.3391776226
 10
7.1004217888
 20
-16.3460505639
 10
7.1089819711
 20
-16.3520811524
 10
7.1179511521
 20
-16.357290683
 10
7.1270989333
 20
-16.3614345365
 10
7.1362376398
 20
-16.364395252
  0
LWPOLYLINE
  5
2AC
100
AcDbEntity
  8
0
100
AcDbPolyline
 62
7
  6
CONTINUOUS
 90
14
 70
0
 10
7.6552667821
 20
-15.195892168
 10
7.6544239147
 20
-15.1862377726
 10
7.6524548363
 20
-15.1767147699
 10
7.6493595468
 20
-15.1673231598
 10
7.6450201619
 20
-15.1579358886
 10
7.639554566
 20
-15.1486800101
 10
7.6333164121
 20
-15.1399366851
 10
7.6263023981
 20
-15.1317301324
 10
7.6185158263
 20
-15.1240361333
 10
7.6103202557
 20
-15.117163192
 10
7.6017600734
 20
-15.1111326035
 10
7.5927908924
 20
-15.1059230729
 10
7.5836431112
 20
-15.1017792194
 10
7.5745044047
 20
-15.0988185039
  0
LWPOLYLINE
  5
2AD
100
AcDbEntity
  8
0
100
AcDbPolyline
 62
7
  6
CONTINUOUS
 90
13
 70
0
 10
7.7905223941
 20
-10.3416537659
 10
7.7918925676
 20
-10.3573958195
 10
7.7940806247
 20
-10.3729579507
 10
7.7971171423
 20
-10.3883655767
 10
7.8009715435
 20
-10.4035932803
 10
7.8055520986
 20
-10.418564809
 10
7.8108436495
 20
-10.4332874181
 10
7.8168613542
 20
-10.4477538522
 10
7.8235589578
 20
-10.4618660931
 10
7.8309261592
 20
-10.475634293
 10
7.8389732595
 20
-10.4890482995
 10
7.8476849062
 20
-10.5019796374
 10
7.8569505685
 20
-10.5142459309
  0
LINE
  5
2AE
100
AcDbEntity
  8
0
100
AcDbLine
 62
7
  6
CONTINUOUS
 10
10.1910844983
 20
-11.4656974499
 11
10.1918919301
 21
-11.4753589766
  0
LINE
  5
2AF
100
AcDbEntity
  8
0
100
AcDbLine
 62
7
  6
CONTINUOUS
 10
8.3885022472
 20
-9.2920888528
 11
8.3901061339
 21
-9.3226914947
  0
LINE
  5
2B0
100
AcDbEntity
  8
0
100
AcDbLine
 62
7
  6
CONTINUOUS
 10
7.7899701044
 20
-10.3257317898
 11
7.7905221741
 21
-10.3416474235
  0
LINE
  5
2B1
100
AcDbEntity
  8
0
100
AcDbLine
 62
7
  6
CONTINUOUS
 10
8.3901061339
 20
-10.201363702
 11
8.3901061339
 21
-9.322691492
  0
LWPOLYLINE
  5
2B2
100
AcDbEntity
  8
0
100
AcDbPolyline
 62
7
  6
CONTINUOUS
 90
4
 70
0
 10
9.4371962138
 20
-14.2750671244
 10
9.4373521205
 20
-14.264289718
 10
9.438765019
 20
-14.2536308524
 10
9.4413331976
 20
-14.2430871545
  0
LWPOLYLINE
  5
2B3
100
AcDbEntity
  8
0
100
AcDbPolyline
 62
7
  6
CONTINUOUS
 90
4
 70
0
 10
10.7150777394
 20
-14.6501431132
 10
10.7149218327
 20
-14.6609205196
 10
10.7135089342
 20
-14.6715793852
 10
10.7109407556
 20
-14.6821230831
  0
LWPOLYLINE
  5
2B4
100
AcDbEntity
  8
0
100
AcDbPolyline
 62
7
  6
CONTINUOUS
 90
4
 70
0
 10
4.5201268654
 20
-11.4506640523
 10
4.5181962688
 20
-11.4381345844
 10
4.5144777527
 20
-11.4253105416
 10
4.509046478
 20
-11.412538042
  0
LINE
  5
2B5
100
AcDbEntity
  8
0
100
AcDbLine
 62
7
  6
CONTINUOUS
 10
10.7150774958
 20
-14.6501327828
 11
10.7140769551
 21
-14.6392410841
  0
LWPOLYLINE
  5
2B6
100
AcDbEntity
  8
0
100
AcDbPolyline
 62
7
  6
CONTINUOUS
 90
15
 70
0
 10
10.1918920682
 20
-11.4753597591
 10
10.1910762287
 20
-11.4658092975
 10
10.1913749652
 20
-11.4561800414
 10
10.1927882778
 20
-11.4464719906
 10
10.1954011605
 20
-11.4365450207
 10
10.1991286193
 20
-11.4265392561
 10
10.203715672
 20
-11.4168750706
 10
10.209175996
 20
-11.4075645083
 10
10.215495914
 20
-11.3985955249
 10
10.2223794118
 20
-11.3903523616
 10
10.2297917673
 20
-11.3828630459
 10
10.2377677027
 20
-11.3760995501
 10
10.24611537
 20
-11.3703620326
 10
10.25477082
 20
-11.3657505459
 10
10.2637980019
 20
-11.3621650373
  0
LWPOLYLINE
  5
2B7
100
AcDbEntity
  8
0
100
AcDbPolyline
 62
7
  6
CONTINUOUS
 90
15
 70
0
 10
11.5134319542
 20
-11.6488226202
 10
11.5142477938
 20
-11.6583730811
 10
11.5139490572
 20
-11.6680023368
 10
11.5125357446
 20
-11.6777103872
 10
11.509922862
 20
-11.6876373571
 10
11.5061954032
 20
-11.6976431217
 10
11.5016083505
 20
-11.7073073073
 10
11.4961480265
 20
-11.7166178696
 10
11.4898281085
 20
-11.7255868529
 10
11.4829446107
 20
-11.7338300163
 10
11.4755322551
 20
-11.741319332
 10
11.4675563198
 20
-11.7480828277
 10
11.4592086524
 20
-11.7538203453
 10
11.4505532024
 20
-11.758431832
 10
11.4415260205
 20
-11.7620173406
  0
LWPOLYLINE
  5
2B8
100
AcDbEntity
  8
0
100
AcDbPolyline
 62
7
  6
CONTINUOUS
 90
3
 70
0
 10
6.2597544377
 20
-9.5419304472
 10
6.257788002
 20
-9.5323987877
 10
6.2569016021
 20
-9.5226791093
  0
LINE
  5
2B9
100
AcDbEntity
  8
0
100
AcDbLine
 62
7
  6
CONTINUOUS
 10
9.4402869878
 20
-14.2964948583
 11
9.4381955872
 21
-14.2859596984
  0
LINE
  5
2BA
100
AcDbEntity
  8
0
100
AcDbLine
 62
7
  6
CONTINUOUS
 10
10.7119869654
 20
-14.6287153793
 11
10.714078366
 21
-14.6392505392
  0
LINE
  5
2BB
100
AcDbEntity
  8
0
100
AcDbLine
 62
7
  6
CONTINUOUS
 10
6.0129842197
 20
-11.3867236371
 11
6.0153394947
 21
-11.3994068992
  0
LINE
  5
2BC
100
AcDbEntity
  8
0
100
AcDbLine
 62
7
  6
CONTINUOUS
 10
10.1918919301
 20
-11.4753589766
 11
10.2614832319
 21
-11.8696522681
  0
LINE
  5
2BD
100
AcDbEntity
  8
0
100
AcDbLine
 62
7
  6
CONTINUOUS
 10
11.5134320923
 20
-11.6488234037
 11
11.4446672845
 21
-11.2586104069
  0
LWPOLYLINE
  5
2BE
100
AcDbEntity
  8
0
100
AcDbPolyline
 62
7
  6
CONTINUOUS
 90
14
 70
0
 10
8.3885016654
 20
-9.2920777509
 10
8.3836861572
 20
-9.2619274445
 10
8.3756596094
 20
-9.2322405729
 10
8.3642836892
 20
-9.2024826447
 10
8.3496967293
 20
-9.1731881512
 10
8.3323137281
 20
-9.1459605663
 10
8.3119386982
 20
-9.1210607835
 10
8.288767627
 20
-9.0982279093
 10
8.2638034747
 20
-9.0782827367
 10
8.2369356467
 20
-9.0614348458
 10
8.2082747375
 20
-9.0474746565
 10
8.1791554908
 20
-9.0365942223
 10
8.1500228212
 20
-9.0288575611
 10
8.1204612361
 20
-9.0242052854
  0
LWPOLYLINE
  5
2BF
100
AcDbEntity
  8
0
100
AcDbPolyline
 62
7
  6
CONTINUOUS
 90
6
 70
0
 10
5.2611773211
 20
-14.2237408481
 10
5.2654721645
 20
-14.2328740986
 10
5.2689491669
 20
-14.2426996722
 10
5.2715301198
 20
-14.2530841535
 10
5.2729803973
 20
-14.2636272961
 10
5.2732148138
 20
-14.2743527675
  0
LWPOLYLINE
  5
2C0
100
AcDbEntity
  8
0
100
AcDbPolyline
 62
7
  6
CONTINUOUS
 90
14
 70
0
 10
5.4346941142
 20
-13.0999350118
 10
5.3855811113
 20
-12.9874816831
 10
5.3429210405
 20
-12.8718333433
 10
5.3071055426
 20
-12.7541196316
 10
5.278170984
 20
-12.6343068281
 10
5.2560809982
 20
-12.5124286528
 10
5.2411181262
 20
-12.389715905
 10
5.2333740173
 20
-12.2661274976
 10
5.2327570222
 20
-12.1417045177
 10
5.2392747342
 20
-12.0178010266
 10
5.253028405
 20
-11.894407635
 10
5.273916783
 20
-11.7715337321
 10
5.3016437056
 20
-11.6505615464
 10
5.336110452
 20
-11.5319518207
  0
LINE
  5
2C1
100
AcDbEntity
  8
0
100
AcDbLine
 62
7
  6
CONTINUOUS
 10
10.2669846155
 20
-11.8891100017
 11
10.2637236368
 21
-11.8795475977
  0
LWPOLYLINE
  5
2C2
100
AcDbEntity
  8
0
100
AcDbPolyline
 62
7
  6
CONTINUOUS
 90
3
 70
0
 10
9.4402891597
 20
-14.2965030513
 10
9.4435531038
 20
-14.3066399462
 10
9.4479086689
 20
-14.3164190402
  0
LWPOLYLINE
  5
2C3
100
AcDbEntity
  8
0
100
AcDbPolyline
 62
7
  6
CONTINUOUS
 90
3
 70
0
 10
10.7119847935
 20
-14.6287071864
 10
10.7087208494
 20
-14.6185702914
 10
10.7043652843
 20
-14.6087911974
  0
LINE
  5
2C4
100
AcDbEntity
  8
0
100
AcDbLine
 62
7
  6
CONTINUOUS
 10
10.2614832319
 20
-11.8696522681
 11
10.2637245898
 21
-11.8795500754
  0
LWPOLYLINE
  5
2C5
100
AcDbEntity
  8
RACCORDO
100
AcDbPolyline
 62
250
  6
CONTINUOUS
 90
10
 70
0
 10
29.1237176419
 20
-23.9938443934
 10
29.1239787553
 20
-23.9978640909
 10
29.1242406533
 20
-24.0014777408
 10
29.1245033359
 20
-24.0046838868
 10
29.1247668718
 20
-24.0074808862
 10
29.1250311924
 20
-24.0098680877
 10
29.1252960915
 20
-24.0118452703
 10
29.1255615005
 20
-24.0134113331
 10
29.1258274881
 20
-24.014564859
 10
29.1260940542
 20
-24.0153048987
  0
LINE
  5
2C6
100
AcDbEntity
  8
RACCORDO
100
AcDbLine
 62
7
  6
CONTINUOUS
 10
29.6584086183
 20
28.1581112195
 11
29.6584086183
 21
-23.5479621379
  0
LINE
  5
2C7
100
AcDbEntity
  8
RACCORDO
100
AcDbLine
 62
250
  6
CONTINUOUS
 10
29.1189583397
 20
28.6183182659
 11
29.1186494246
 21
10.0238290216
  0
LINE
  5
2C8
100
AcDbEntity
  8
RACCORDO
100
AcDbLine
 62
250
  6
CONTINUOUS
 10
29.6187870022
 20
28.1184896034
 11
29.6184780871
 21
10.0195764059
  0
LINE
  5
2C9
100
AcDbEntity
  8
RACCORDO
100
AcDbLine
 62
250
  6
CONTINUOUS
 10
29.1186494246
 20
10.0238290216
 11
29.1092589417
 21
0.1119528476
  0
LINE
  5
2CA
100
AcDbEntity
  8
RACCORDO
100
AcDbLine
 62
250
  6
CONTINUOUS
 10
29.6184780871
 20
10.0195764059
 11
29.6090876041
 21
0.0769617
  0
LINE
  5
2CB
100
AcDbEntity
  8
RACCORDO
100
AcDbLine
 62
250
  6
CONTINUOUS
 10
29.1092589417
 20
0.1119528476
 11
29.0940178101
 21
-6.4854890812
  0
LINE
  5
2CC
100
AcDbEntity
  8
RACCORDO
100
AcDbLine
 62
250
  6
CONTINUOUS
 10
29.6090876041
 20
0.0769617
 11
29.5938464726
 21
-6.5359889242
  0
LINE
  5
2CD
100
AcDbEntity
  8
RACCORDO
100
AcDbLine
 62
250
  6
CONTINUOUS
 10
29.0940178101
 20
-6.4854890812
 11
29.0490485403
 21
-23.3884456852
  0
LINE
  5
2CE
100
AcDbEntity
  8
RACCORDO
100
AcDbLine
 62
250
  6
CONTINUOUS
 10
29.5938464726
 20
-6.5359889242
 11
29.5488772028
 21
-22.8993472754
  0
LWPOLYLINE
  5
2CF
100
AcDbEntity
  8
RACCORDO
100
AcDbPolyline
 62
250
  6
CONTINUOUS
 90
19
 70
0
 10
29.5488772028
 20
-22.8993472754
 10
29.546747006
 20
-22.941884644
 10
29.5408453309
 20
-22.9840989982
 10
29.5312170768
 20
-23.0256704669
 10
29.5179354658
 20
-23.0662838414
 10
29.5011012614
 20
-23.1056316811
 10
29.4808417971
 20
-23.1434165609
 10
29.4573089852
 20
-23.1793543668
 10
29.430682308
 20
-23.2131703244
 10
29.4011688074
 20
-23.2446030069
 10
29.3689973337
 20
-23.2734123917
 10
29.3344095071
 20
-23.2993855105
 10
29.297661642
 20
-23.3223310222
 10
29.2590024529
 20
-23.3420886625
 10
29.2187515276
 20
-23.3584903739
 10
29.1773004416
 20
-23.3713888413
 10
29.1349984232
 20
-23.3807031418
 10
29.0921399767
 20
-23.3863954831
 10
29.0490485403
 20
-23.3884456852
  0
LWPOLYLINE
  5
2D0
100
AcDbEntity
  8
RACCORDO
100
AcDbPolyline
 62
250
  6
CONTINUOUS
 90
16
 70
0
 10
29.6259227167
 20
-23.5154762363
 10
29.6231512039
 20
-23.5676998623
 10
29.6149385748
 20
-23.619351814
 10
29.6013747305
 20
-23.6698666749
 10
29.5826081496
 20
-23.718691476
 10
29.5588442636
 20
-23.7652917487
 10
29.5303432077
 20
-23.8091573757
 10
29.4974169733
 20
-23.8498081747
 10
29.4604259927
 20
-23.8867991553
 10
29.4197751936
 20
-23.9197253897
 10
29.3759095667
 20
-23.9482264456
 10
29.3293092939
 20
-23.9719903316
 10
29.2804844928
 20
-23.9907569125
 10
29.2299696319
 20
-24.0043207569
 10
29.1783176802
 20
-24.0125333859
 10
29.1260940542
 20
-24.0153048987
  0
LWPOLYLINE
  5
2D1
100
AcDbEntity
  8
RACCORDO
100
AcDbPolyline
 62
250
  6
CONTINUOUS
 90
16
 70
0
 10
29.6235463044
 20
-23.5047459836
 10
29.620544038
 20
-23.5556951231
 10
29.6121360206
 20
-23.6060899108
 10
29.5984137349
 20
-23.6553820228
 10
29.5795264862
 20
-23.7030351328
 10
29.5556797774
 20
-23.7485307475
 10
29.5271330732
 20
-23.7913738483
 10
29.4941969772
 20
-23.8310982773
 10
29.4572298522
 20
-23.8672718093
 10
29.4166339212
 20
-23.8995008546
 10
29.3728508907
 20
-23.9274347421
 10
29.3263571447
 20
-23.9507695342
 10
29.2776585623
 20
-23.969251334
 10
29.2272850122
 20
-23.9826790481
 10
29.1757845873
 20
-23.9909065749
 10
29.1237176419
 20
-23.9938443934
  0
LINE
  5
2D2
100
AcDbEntity
  8
0
100
AcDbLine
 62
7
  6
CONTINUOUS
 10
3.2145797381
 20
-11.7163304054
 11
3.2208268451
 21
-11.7253337921
  0
LINE
  5
2D3
100
AcDbEntity
  8
0
100
AcDbLine
 62
7
  6
CONTINUOUS
 10
5.2559864281
 20
-14.2151665053
 11
5.2611773211
 21
-14.2237408481
  0
LWPOLYLINE
  5
2D4
100
AcDbEntity
  8
0
100
AcDbPolyline
 62
7
  6
CONTINUOUS
 90
3
 70
0
 10
4.5021372882
 20
-11.4008687008
 10
4.509053664
 20
-11.4125502381
 10
4.5144816817
 20
-11.4253199881
  0
LINE
  5
2D5
100
AcDbEntity
  8
0
100
AcDbLine
 62
7
  6
CONTINUOUS
 10
6.2668750978
 20
-9.5602412695
 11
6.2721014793
 21
-9.5692387042
  0
LINE
  5
2D6
100
AcDbEntity
  8
0
100
AcDbLine
 62
7
  6
CONTINUOUS
 10
9.4530500993
 20
-14.3254832716
 11
9.4479067418
 21
-14.316414866
  0
LWPOLYLINE
  5
2D7
100
AcDbEntity
  8
0
100
AcDbPolyline
 62
7
  6
CONTINUOUS
 90
4
 70
0
 10
4.0114894004
 20
-14.7080679553
 10
4.005460384
 20
-14.6972548182
 10
4.0008790624
 20
-14.685619722
 10
3.9976146447
 20
-14.6728588723
  0
LWPOLYLINE
  5
2D8
100
AcDbEntity
  8
0
100
AcDbPolyline
 62
7
  6
CONTINUOUS
 90
3
 70
0
 10
9.2219404657
 20
-11.1593027075
 10
9.2679638544
 20
-11.2492709131
 10
9.3099023354
 20
-11.3414632544
  0
LINE
  5
2D9
100
AcDbEntity
  8
0
100
AcDbLine
 62
7
  6
CONTINUOUS
 10
10.2669865594
 20
-11.8891143787
 11
10.2712691408
 21
-11.8983451779
  0
LWPOLYLINE
  5
2DA
100
AcDbEntity
  8
RACCORDO
100
AcDbPolyline
 62
250
  6
CONTINUOUS
 90
19
 70
0
 10
29.6187870022
 20
28.1184896034
 10
29.6168461356
 20
28.162154695
 10
29.6110970669
 20
28.205492392
 10
29.6015820603
 20
28.2481709914
 10
29.5883690283
 20
28.2898723472
 10
29.5715591232
 20
28.3302674644
 10
29.5512935411
 20
28.3690220862
 10
29.52774559
 20
28.405823387
 10
29.5010899938
 20
28.4404142831
 10
29.4715052601
 20
28.4725634499
 10
29.4391824459
 20
28.5020477956
 10
29.4043915514
 20
28.528606837
 10
29.3674653422
 20
28.551993148
 10
29.3286933778
 20
28.5720417383
 10
29.2883792997
 20
28.5886130705
 10
29.2469160001
 20
28.6015742901
 10
29.2046550256
 20
28.6108583107
 10
29.1618948052
 20
28.6164412585
 10
29.1189583397
 20
28.6183182658
  0
LWPOLYLINE
  5
2DB
100
AcDbEntity
  8
0
100
AcDbPolyline
 62
7
  6
CONTINUOUS
 90
7
 70
0
 43
0.3500000006
 10
39.086393692
 20
1.6622180786
 10
39.086393692
 20
0.1622176208
 10
36.9435375137
 20
1.6622180786
 10
36.5149662781
 20
1.6622180786
 10
36.0863950424
 20
1.233646843
 10
36.0863950424
 20
0.5907888565
 10
36.7292507629
 20
0.1622176208
  0
LWPOLYLINE
  5
2DC
100
AcDbEntity
  8
0
100
AcDbPolyline
 62
7
  6
CONTINUOUS
 90
8
 70
0
 43
0.3500000006
 10
39.086393692
 20
-1.9806396904
 10
39.086393692
 20
-1.1234960861
 10
38.6578247223
 20
-0.6949248505
 10
37.800679985
 20
-0.6949248505
 10
37.3721087494
 20
-1.1234960861
 10
37.3721087494
 20
-1.9806396904
 10
36.0863950424
 20
-1.9806396904
 10
36.0863950424
 20
-0.6949248505
  0
LINE
  5
2DD
100
AcDbEntity
  8
0
100
AcDbLine
 62
7
  6
CONTINUOUS
 10
5.2498994869
 20
-14.2071510717
 11
4.9928954638
 21
-13.9008822023
  0
LINE
  5
2DE
100
AcDbEntity
  8
0
100
AcDbLine
 62
7
  6
CONTINUOUS
 10
4.01896611
 20
-14.7180591312
 11
4.2759701626
 21
-15.0245002905
  0
LWPOLYLINE
  5
2DF
100
AcDbEntity
  8
0
100
AcDbPolyline
 62
7
  6
CONTINUOUS
 90
5
 70
0
 10
4.5021279279
 20
-11.4008554397
 10
4.4935030285
 20
-11.3904530693
 10
4.4833908536
 20
-11.3811405962
 10
4.4726741071
 20
-11.3733853707
 10
4.4616470237
 20
-11.3673431763
  0
LINE
  5
2E0
100
AcDbEntity
  8
0
100
AcDbLine
 62
7
  6
CONTINUOUS
 10
5.2559860097
 20
-14.215166162
 11
5.2498994869
 21
-14.2071510717
  0
LINE
  5
2E1
100
AcDbEntity
  8
0
100
AcDbLine
 62
7
  6
CONTINUOUS
 10
4.0114898146
 20
-14.7080685088
 11
4.01896611
 21
-14.7180591312
  0
LINE
  5
2E2
100
AcDbEntity
  8
0
100
AcDbLine
 62
7
  6
CONTINUOUS
 10
9.453051607
 20
-14.3254856292
 11
9.4588805022
 21
-14.3337214785
  0
LINE
  5
2E3
100
AcDbEntity
  8
0
100
AcDbLine
 62
7
  6
CONTINUOUS
 10
10.6992223462
 20
-14.5997246084
 11
10.693393451
 21
-14.5914887591
  0
LINE
  5
2E4
100
AcDbEntity
  8
0
100
AcDbLine
 62
7
  6
CONTINUOUS
 10
9.0595947164
 20
-10.903341426
 11
9.117674588
 21
-10.9859820594
  0
LWPOLYLINE
  5
2E5
100
AcDbEntity
  8
0
100
AcDbPolyline
 62
7
  6
CONTINUOUS
 90
3
 70
0
 10
9.2219390466
 20
-11.1593000819
 10
9.1718503795
 20
-11.071530373
 10
9.1176775305
 20
-10.9859858422
  0
LINE
  5
2E6
100
AcDbEntity
  8
0
100
AcDbLine
 62
7
  6
CONTINUOUS
 10
10.6992238539
 20
-14.599726966
 11
10.7043672114
 21
-14.6087953716
  0
LWPOLYLINE
  5
2E7
100
AcDbEntity
  8
RACCORDO
100
AcDbPolyline
 62
250
  6
CONTINUOUS
 90
10
 70
0
 10
29.6235463044
 20
-23.5047459836
 10
29.6238074055
 20
-23.5067569053
 10
29.6240692974
 20
-23.5085634875
 10
29.62433198
 20
-23.5101657303
 10
29.6245955262
 20
-23.5115640715
 10
29.6248598632
 20
-23.5127580733
 10
29.6251247725
 20
-23.513746422
 10
29.6253901815
 20
-23.5145286798
 10
29.6256561629
 20
-23.5151052846
 10
29.6259227167
 20
-23.5154762363
  0
LINE
  5
2E8
100
AcDbEntity
  8
RACCORDO
100
AcDbLine
 62
250
  6
CONTINUOUS
 10
29.0490485403
 20
-23.3884456852
 11
29.1237176419
 21
-23.9938443934
  0
LINE
  5
2E9
100
AcDbEntity
  8
RACCORDO
100
AcDbLine
 62
250
  6
CONTINUOUS
 10
29.5488772028
 20
-22.8993472754
 11
29.6235463044
 21
-23.5047459836
  0
LWPOLYLINE
  5
2EA
100
AcDbEntity
  8
0
100
AcDbPolyline
 62
7
  6
CONTINUOUS
 90
3
 70
0
 10
4.2904559838
 20
-15.0373841393
 10
4.2828569757
 20
-15.0313577924
 10
4.2759701711
 20
-15.0245003006
  0
LWPOLYLINE
  5
2EB
100
AcDbEntity
  8
0
100
AcDbPolyline
 62
7
  6
CONTINUOUS
 90
3
 70
0
 10
4.9784096423
 20
-13.8879983533
 10
4.9860086505
 20
-13.8940247002
 10
4.9928954553
 20
-13.9008821922
  0
LINE
  5
2EC
100
AcDbEntity
  8
0
100
AcDbLine
 62
7
  6
CONTINUOUS
 10
6.4195862104
 20
-13.3918202617
 11
6.3300510411
 21
-13.316945037
  0
LWPOLYLINE
  5
2ED
100
AcDbEntity
  8
0
100
AcDbPolyline
 62
7
  6
CONTINUOUS
 90
4
 70
0
 10
5.9779320278
 20
-11.3339818511
 10
5.9876339938
 20
-11.3425109761
 10
5.9960604395
 20
-11.3520830212
 10
6.0030904533
 20
-11.3627939098
  0
LINE
  5
2EE
100
AcDbEntity
  8
0
100
AcDbLine
 62
7
  6
CONTINUOUS
 10
9.4654967703
 20
-14.3412448228
 11
9.4729004114
 21
-14.3480556622
  0
LINE
  5
2EF
100
AcDbEntity
  8
0
100
AcDbLine
 62
7
  6
CONTINUOUS
 10
10.6867771829
 20
-14.5839654148
 11
10.6793735418
 21
-14.5771545754
  0
LINE
  5
2F0
100
AcDbEntity
  8
0
100
AcDbLine
 62
7
  6
CONTINUOUS
 10
6.3300510411
 20
-13.316945037
 11
6.2492471266
 21
-13.2384472446
  0
LINE
  5
2F1
100
AcDbEntity
  8
0
100
AcDbLine
 62
7
  6
CONTINUOUS
 10
7.8777917715
 20
-10.5377491636
 11
8.4376481811
 21
-11.0977778367
  0
LINE
  5
2F2
100
AcDbEntity
  8
0
100
AcDbLine
 62
7
  6
CONTINUOUS
 10
8.8620843707
 20
-10.6735141936
 11
8.3901061339
 21
-10.201363702
  0
LWPOLYLINE
  5
2F3
100
AcDbEntity
  8
0
100
AcDbPolyline
 62
7
  6
CONTINUOUS
 90
18
 70
0
 10
8.4376483774
 20
-11.0977780331
 10
8.514422205
 20
-11.1806360076
 10
8.584331937
 20
-11.2678417358
 10
8.6473773773
 20
-11.3593950212
 10
8.7038554386
 20
-11.4558340922
 10
8.7534692081
 20
-11.5566207204
 10
8.7953279476
 20
-11.6601402211
 10
8.8292367263
 20
-11.7663976119
 10
8.855390475
 20
-11.8753878752
 10
8.8734832473
 20
-11.9854812731
 10
8.8834175164
 20
-12.0967210537
 10
8.8852908092
 20
-12.2090639691
 10
8.87908976
 20
-12.3207505372
 10
8.8647345129
 20
-12.4317939905
 10
8.8423049239
 20
-12.5421810965
 10
8.8120271958
 20
-12.6501126765
 10
8.7737403276
 20
-12.7555779509
 10
8.7276053202
 20
-12.8585876993
  0
LWPOLYLINE
  5
2F4
100
AcDbEntity
  8
0
100
AcDbPolyline
 62
7
  6
CONTINUOUS
 90
3
 70
0
 10
6.1869860024
 20
-13.1692356461
 10
6.2592714891
 20
-13.2488567275
 10
6.3367745681
 20
-13.3229959413
  0
LWPOLYLINE
  5
2F5
100
AcDbEntity
  8
0
100
AcDbPolyline
 62
7
  6
CONTINUOUS
 90
17
 70
0
 10
6.2492471266
 20
-13.2384472446
 10
6.1740464382
 20
-13.1538539183
 10
6.1056478278
 20
-13.064483879
 10
6.0441631054
 20
-12.9702491536
 10
5.9894804609
 20
-12.8712377152
 10
5.9424633159
 20
-12.7690323033
 10
5.9032521558
 20
-12.6635780909
 10
5.8717064952
 20
-12.5549299049
 10
5.8482682983
 20
-12.4448349653
 10
5.8330357023
 20
-12.3332830447
 10
5.8259105701
 20
-12.2202843704
 10
5.8270404544
 20
-12.1076168441
 10
5.8365763825
 20
-11.9952289582
 10
5.8543673271
 20
-11.8831722203
 10
5.8801077591
 20
-11.773379055
 10
5.9136958356
 20
-11.6664936039
 10
5.9552333996
 20
-11.5618717254
  0
LINE
  5
2F6
100
AcDbEntity
  8
0
100
AcDbLine
 62
7
  6
CONTINUOUS
 10
9.465496175
 20
-14.3412444243
 11
9.4588794037
 21
-14.3337202936
  0
LINE
  5
2F7
100
AcDbEntity
  8
0
100
AcDbLine
 62
7
  6
CONTINUOUS
 10
10.6867777782
 20
-14.5839658133
 11
10.6933945495
 21
-14.591489944
  0
LWPOLYLINE
  5
2F8
100
AcDbEntity
  8
0
100
AcDbPolyline
 62
7
  6
CONTINUOUS
 90
3
 70
0
 10
8.9976671823
 20
-10.8238313129
 10
8.9318296831
 20
-10.7472213145
 10
8.8620843707
 20
-10.6735141936
  0
LWPOLYLINE
  5
2F9
100
AcDbEntity
  8
0
100
AcDbPolyline
 62
7
  6
CONTINUOUS
 90
3
 70
0
 10
7.8570559816
 20
-10.5143854815
 10
7.8670916034
 20
-10.5263086569
 10
7.8777917715
 20
-10.5377491636
  0
LINE
  5
2FA
100
AcDbEntity
  8
0
100
AcDbLine
 62
7
  6
CONTINUOUS
 10
8.5769865953
 20
-11.2579545173
 11
8.5103343133
 21
-11.1758023061
  0
LINE
  5
2FB
100
AcDbEntity
  8
0
100
AcDbLine
 62
7
  6
CONTINUOUS
 10
8.9976631496
 20
-10.8238257732
 11
9.0595925086
 21
-10.9033382846
  0
LINE
  5
2FC
100
AcDbEntity
  8
RACCORDO
100
AcDbLine
 62
7
  6
CONTINUOUS
 10
-14.4474934015
 20
-24.0477908004
 11
29.1585799558
 21
-24.0477908004
  0
LINE
  5
2FD
100
AcDbEntity
  8
RACCORDO
100
AcDbLine
 62
250
  6
CONTINUOUS
 10
29.1260940542
 20
-24.0153048987
 11
-14.4150074999
 21
-24.0153048987
  0
LINE
  5
2FE
100
AcDbEntity
  8
RACCORDO
100
AcDbLine
 62
250
  6
CONTINUOUS
 10
29.1237176419
 20
-23.9938443934
 11
-14.4126310876
 21
-23.9938443934
  0
LINE
  5
2FF
100
AcDbEntity
  8
RACCORDO
100
AcDbLine
 62
250
  6
CONTINUOUS
 10
29.0490485403
 20
-23.3884456852
 11
-14.337961986
 21
-23.3884456852
  0
LINE
  5
300
100
AcDbEntity
  8
RACCORDO
100
AcDbLine
 62
250
  6
CONTINUOUS
 10
29.0490485403
 20
-22.8470830438
 11
-14.337961986
 21
-22.8470830438
  0
LWPOLYLINE
  5
301
100
AcDbEntity
  8
0
100
AcDbPolyline
 62
7
  6
CONTINUOUS
 90
20
 70
0
 10
6.5986867715
 20
-13.5108571949
 10
6.6949756903
 20
-13.5610698078
 10
6.7938620949
 20
-13.6041238004
 10
6.8951275139
 20
-13.6397742612
 10
6.9989904187
 20
-13.6682661017
 10
7.1043093565
 20
-13.6893853126
 10
7.2113693334
 20
-13.7031122672
 10
7.3198853432
 20
-13.7094665921
 10
7.4278609144
 20
-13.7082931577
 10
7.5350132399
 20
-13.6994901865
 10
7.6416251268
 20
-13.683159456
 10
7.7465485255
 20
-13.6594511682
 10
7.8500987031
 20
-13.6281758343
 10
7.9519603925
 20
-13.5895229433
 10
8.0500397429
 20
-13.544211164
 10
8.1439236738
 20
-13.4922303106
 10
8.2340252657
 20
-13.433590569
 10
8.3194899103
 20
-13.3690411659
 10
8.4004825868
 20
-13.2983544007
 10
8.4768383159
 20
-13.2217579739
  0
LWPOLYLINE
  5
302
100
AcDbEntity
  8
0
100
AcDbPolyline
 62
7
  6
CONTINUOUS
 90
3
 70
0
 10
10.3103781221
 20
-15.0468719174
 10
10.3018465001
 20
-15.0422725668
 10
10.2938669131
 20
-15.0367304573
  0
LWPOLYLINE
  5
303
100
AcDbEntity
  8
0
100
AcDbPolyline
 62
7
  6
CONTINUOUS
 90
3
 70
0
 10
9.8418958311
 20
-13.8783383202
 10
9.8504274531
 20
-13.8829376708
 10
9.8584070401
 20
-13.8884797803
  0
LINE
  5
304
100
AcDbEntity
  8
0
100
AcDbLine
 62
7
  6
CONTINUOUS
 10
6.5067922053
 20
-13.454434706
 11
6.6048832894
 21
-13.5145463901
  0
LINE
  5
305
100
AcDbEntity
  8
0
100
AcDbLine
 62
7
  6
CONTINUOUS
 10
5.9779289257
 20
-11.3339791193
 11
5.9676551882
 21
-11.3268275996
  0
LWPOLYLINE
  5
306
100
AcDbEntity
  8
0
100
AcDbPolyline
 62
7
  6
CONTINUOUS
 90
3
 70
0
 10
10.2983582085
 20
-11.9310723213
 10
10.3073071468
 20
-11.9373016743
 10
10.3166935393
 20
-11.942470171
  0
LINE
  5
307
100
AcDbEntity
  8
0
100
AcDbLine
 62
7
  6
CONTINUOUS
 10
6.5086697777
 20
-13.4555910931
 11
6.4165587963
 21
-13.389315832
  0
LINE
  5
308
100
AcDbEntity
  8
0
100
AcDbLine
 62
7
  6
CONTINUOUS
 10
9.4729004114
 20
-14.3480556622
 11
10.2938669057
 21
-15.0367304511
  0
LINE
  5
309
100
AcDbEntity
  8
0
100
AcDbLine
 62
7
  6
CONTINUOUS
 10
10.6793735418
 20
-14.5771545754
 11
9.8584070475
 21
-13.8884797865
  0
LWPOLYLINE
  5
30A
100
AcDbEntity
  8
0
100
AcDbPolyline
 62
7
  6
CONTINUOUS
 90
5
 70
0
 10
10.2983515461
 20
-11.9310669659
 10
10.2902342687
 20
-11.9240303621
 10
10.2830169355
 20
-11.9161150429
 10
10.2766312648
 20
-11.9073937243
 10
10.271266168
 20
-11.8983394802
  0
LINE
  5
30B
100
AcDbEntity
  8
RACCORDO
100
AcDbLine
 62
250
  6
CONTINUOUS
 10
29.1260940542
 20
-24.0153048987
 11
29.1585799558
 21
-24.0477908004
  0
LINE
  5
30C
100
AcDbEntity
  8
RACCORDO
100
AcDbLine
 62
250
  6
CONTINUOUS
 10
29.6259227167
 20
-23.5154762363
 11
29.6584086183
 21
-23.5479621379
  0
LWPOLYLINE
  5
30D
100
AcDbEntity
  8
RACCORDO
100
AcDbPolyline
 62
250
  6
CONTINUOUS
 90
19
 70
0
 10
29.5488772028
 20
-22.8993472754
 10
29.5459112646
 20
-22.8948559606
 10
29.5392707279
 20
-22.8903972915
 10
29.5290033181
 20
-22.8860042601
 10
29.5151810219
 20
-22.8817086856
 10
29.4979062346
 20
-22.8775431464
 10
29.4773167045
 20
-22.8735404999
 10
29.4535788768
 20
-22.8697316954
 10
29.4268636887
 20
-22.8661429406
 10
29.3973486764
 20
-22.8627980765
 10
29.3652242463
 20
-22.8597199212
 10
29.330746336
 20
-22.8569341397
 10
29.294223305
 20
-22.8544651093
 10
29.2559298995
 20
-22.8523299204
 10
29.2161556517
 20
-22.8505433055
 10
29.1752647507
 20
-22.8491192417
 10
29.1335879874
 20
-22.8480656542
 10
29.0914129914
 20
-22.8473863089
 10
29.0490485403
 20
-22.8470830438
  0
LINE
  5
30E
100
AcDbEntity
  8
0
100
AcDbLine
 62
7
  6
CONTINUOUS
 10
11.4415259094
 20
-11.7620173708
 11
11.4321271066
 21
-11.764576871
  0
LINE
  5
30F
100
AcDbEntity
  8
0
100
AcDbLine
 62
7
  6
CONTINUOUS
 10
10.273196935
 20
-11.3596055035
 11
10.263798113
 21
-11.3621650071
  0
LWPOLYLINE
  5
310
100
AcDbEntity
  8
0
100
AcDbPolyline
 62
7
  6
CONTINUOUS
 90
8
 70
0
 10
4.3611141119
 20
-11.9504307556
 10
4.3707498812
 20
-11.9480652953
 10
4.3805345235
 20
-11.9446360443
 10
4.3900645581
 20
-11.9403307962
 10
4.3993245247
 20
-11.9351527718
 10
4.4083298835
 20
-11.9290987504
 10
4.4167235352
 20
-11.9223468636
 10
4.4245444681
 20
-11.9148717528
  0
LINE
  5
311
100
AcDbEntity
  8
0
100
AcDbLine
 62
7
  6
CONTINUOUS
 10
10.3772385496
 20
-11.9507843384
 11
11.4321270873
 21
-11.7645768744
  0
LINE
  5
312
100
AcDbEntity
  8
0
100
AcDbLine
 62
7
  6
CONTINUOUS
 10
11.3241800668
 20
-11.1742394524
 11
10.273196935
 21
-11.3596055035
  0
LINE
  5
313
100
AcDbEntity
  8
0
100
AcDbLine
 62
7
  6
CONTINUOUS
 10
10.3772385508
 20
-11.9507843382
 11
10.36721258
 21
-11.9520259452
  0
LWPOLYLINE
  5
314
100
AcDbEntity
  8
0
100
AcDbPolyline
 62
7
  6
CONTINUOUS
 90
14
 70
0
 10
7.5553609675
 20
-16.3672274143
 10
7.5649741149
 20
-16.3663959852
 10
7.5744644629
 20
-16.3644399639
 10
7.5838320116
 20
-16.3613593502
 10
7.5932047397
 20
-16.3570380505
 10
7.6024546684
 20
-16.3515921584
 10
7.6111978612
 20
-16.3453699552
 10
7.6194100878
 20
-16.3383674596
 10
7.6271155785
 20
-16.3305886529
 10
7.6340030872
 20
-16.3223937602
 10
7.6400526152
 20
-16.3138246274
 10
7.6452841613
 20
-16.3048394086
 10
7.649446476
 20
-16.2956727912
 10
7.6524156591
 20
-16.2865266814
  0
LWPOLYLINE
  5
315
100
AcDbEntity
  8
0
100
AcDbPolyline
 62
7
  6
CONTINUOUS
 90
14
 70
0
 10
7.155381077
 20
-15.0959863416
 10
7.1457679296
 20
-15.0968177707
 10
7.1362775816
 20
-15.098773792
 10
7.1269100329
 20
-15.1018544057
 10
7.1175373048
 20
-15.1061757054
 10
7.1082873761
 20
-15.1116215975
 10
7.0995441833
 20
-15.1178438007
 10
7.0913319567
 20
-15.1248462963
 10
7.083626466
 20
-15.132625103
 10
7.0767389573
 20
-15.1408199957
 10
7.0706894293
 20
-15.1493891285
 10
7.0654578832
 20
-15.1583743473
 10
7.0612955685
 20
-15.1675409647
 10
7.0583263854
 20
-15.1766870745
  0
LINE
  5
316
100
AcDbEntity
  8
0
100
AcDbLine
 62
7
  6
CONTINUOUS
 10
10.3571613835
 20
-11.9522163532
 11
10.3672130295
 21
-11.9520257713
  0
LINE
  5
317
100
AcDbEntity
  8
0
100
AcDbLine
 62
7
  6
CONTINUOUS
 10
7.1553834798
 20
-16.3672274143
 11
7.5553609675
 21
-16.3672274143
  0
LINE
  5
318
100
AcDbEntity
  8
0
100
AcDbLine
 62
7
  6
CONTINUOUS
 10
7.5553585647
 20
-15.0959863416
 11
7.155381077
 21
-15.0959863416
  0
LWPOLYLINE
  5
319
100
AcDbEntity
  8
0
100
AcDbPolyline
 62
7
  6
CONTINUOUS
 90
4
 70
0
 10
4.333503522
 20
-11.950956598
 10
4.342558179
 20
-11.951845108
 10
4.351761709
 20
-11.9516698272
 10
4.3610378403
 20
-11.9504408606
  0
LINE
  5
31A
100
AcDbEntity
  8
0
100
AcDbLine
 62
7
  6
CONTINUOUS
 10
4.4377791423
 20
-11.3599305301
 11
3.3830010757
 21
-11.1739148032
  0
LINE
  5
31B
100
AcDbEntity
  8
0
100
AcDbLine
 62
7
  6
CONTINUOUS
 10
3.2789571285
 20
-11.7649209716
 11
4.333503522
 21
-11.950956598
  0
LINE
  5
31C
100
AcDbEntity
  8
0
100
AcDbLine
 62
7
  6
CONTINUOUS
 10
5.9340957437
 20
-11.3139579879
 11
5.5337755307
 21
-11.2433335097
  0
LWPOLYLINE
  5
31D
100
AcDbEntity
  8
0
100
AcDbPolyline
 62
7
  6
CONTINUOUS
 90
3
 70
0
 10
7.1363485152
 20
-16.3644311729
 10
7.1457766974
 20
-16.3663621322
 10
7.1553834798
 20
-16.3672274143
  0
LWPOLYLINE
  5
31E
100
AcDbEntity
  8
0
100
AcDbPolyline
 62
7
  6
CONTINUOUS
 90
3
 70
0
 10
7.5743935293
 20
-15.098782583
 10
7.5649653471
 20
-15.0968516237
 10
7.5553585647
 20
-15.0959863416
  0
LWPOLYLINE
  5
31F
100
AcDbEntity
  8
0
100
AcDbPolyline
 62
7
  6
CONTINUOUS
 90
15
 70
0
 10
6.9329988169
 20
-14.2676065132
 10
6.8126513773
 20
-14.2398694184
 10
6.6941341665
 20
-14.2051547559
 10
6.5774393956
 20
-14.1635351522
 10
6.463806778
 20
-14.1154100013
 10
6.3532796599
 20
-14.0606778909
 10
6.2458146951
 20
-13.9994402333
 10
6.142521558
 20
-13.9324006593
 10
6.0434824141
 20
-13.8595246364
 10
5.9486150979
 20
-13.7808466971
 10
5.8587827881
 20
-13.6971740702
 10
5.7739975185
 20
-13.6084769177
 10
5.6942472554
 20
-13.5147850776
 10
5.6203590757
 20
-13.4169952927
 10
5.5524117222
 20
-13.3151054993
  0
LINE
  5
320
100
AcDbEntity
  8
0
100
AcDbLine
 62
7
  6
CONTINUOUS
 10
4.4500178687
 20
-11.3628591933
 11
4.4377791423
 21
-11.3599305301
  0
LINE
  5
321
100
AcDbEntity
  8
0
100
AcDbLine
 62
7
  6
CONTINUOUS
 10
5.9458555242
 20
-11.316872445
 11
5.9340957437
 21
-11.3139579879
  0
LWPOLYLINE
  5
322
100
AcDbEntity
  8
0
100
AcDbPolyline
 62
7
  6
CONTINUOUS
 90
14
 70
0
 10
3.2789578007
 20
-11.7649210902
 10
3.2697315906
 20
-11.7624727165
 10
3.2608022883
 20
-11.7589453042
 10
3.2521698938
 20
-11.7543388531
 10
3.2437304689
 20
-11.748526873
 10
3.2355879519
 20
-11.7416358541
 10
3.228054157
 20
-11.7340452679
 10
3.2211455814
 20
-11.7257458667
 10
3.2148457279
 20
-11.7167468983
 10
3.2094169203
 20
-11.7074555766
 10
3.2048727419
 20
-11.6979109418
 10
3.2011996094
 20
-11.6880739538
 10
3.1986190958
 20
-11.6782347061
 10
3.1972050591
 20
-11.6684898965
  0
LINE
  5
323
100
AcDbEntity
  8
0
100
AcDbLine
 62
7
  6
CONTINUOUS
 10
5.9458559042
 20
-11.3168722603
 11
5.957042983
 21
-11.3211624932
  0
LINE
  5
324
100
AcDbEntity
  8
0
100
AcDbLine
 62
7
  6
CONTINUOUS
 10
4.4500185324
 20
-11.3628593521
 11
4.4616527168
 21
-11.367345858
  0
LINE
  5
325
100
AcDbEntity
  8
0
100
AcDbLine
 62
7
  6
CONTINUOUS
 10
5.957042983
 20
-11.3211624932
 11
5.9676569759
 21
-11.3268286857
  0
LINE
  5
326
100
AcDbEntity
  8
RACCORDO
100
AcDbLine
 62
250
  6
CONTINUOUS
 10
-14.9077004479
 20
28.1184896034
 11
-14.947322064
 21
28.1581112195
  0
LINE
  5
327
100
AcDbEntity
  8
RACCORDO
100
AcDbLine
 62
250
  6
CONTINUOUS
 10
-14.4078717854
 20
28.6183182659
 11
-14.4474934015
 21
28.657939882
  0
LWPOLYLINE
  5
328
100
AcDbEntity
  8
RACCORDO
100
AcDbPolyline
 62
250
  6
CONTINUOUS
 90
16
 70
0
 10
29.5899355074
 20
-7.9812672257
 10
29.5859491862
 20
-7.975892534
 10
29.5767087549
 20
-7.9705747942
 10
29.5623121283
 20
-7.965370355
 10
29.5429118577
 20
-7.9603343644
 10
29.518713515
 20
-7.9555201852
 10
29.4899735137
 20
-7.9509788303
 10
29.4569963924
 20
-7.9467584212
 10
29.4201315878
 20
-7.9429036789
 10
29.3797697314
 20
-7.9394554495
 10
29.3363385109
 20
-7.9364502715
 10
29.290298138
 20
-7.9339199889
 10
29.2421364717
 20
-7.9318914133
 10
29.192363849
 20
-7.9303860402
 10
29.1415076771
 20
-7.929419821
 10
29.090106845
 20
-7.9290029941
  0
LWPOLYLINE
  5
329
100
AcDbEntity
  8
0
100
AcDbPolyline
 62
7
  6
CONTINUOUS
 90
10
 70
0
 43
0.3500000006
 10
8.3198288555
 20
40.0859268951
 10
8.3912577724
 20
39.9430690613
 10
8.3912577724
 20
39.8716378784
 10
8.2484005051
 20
39.7287845764
 10
8.1769715881
 20
39.7287845764
 10
8.1055432377
 20
39.8002112274
 10
8.1055432377
 20
39.8716378784
 10
8.1769715881
 20
40.0144957123
 10
8.2484005051
 20
40.0859268951
 10
8.3198288555
 20
40.0859268951
  0
LWPOLYLINE
  5
32A
100
AcDbEntity
  8
0
100
AcDbPolyline
 62
7
  6
CONTINUOUS
 90
11
 70
0
 10
5.5134220451
 20
-11.2425268763
 10
5.5031007073
 20
-11.2438808262
 10
5.492501738
 20
-11.2464748106
 10
5.481806372
 20
-11.2502403061
 10
5.4715583135
 20
-11.2549717421
 10
5.4617532929
 20
-11.2607041526
 10
5.4523955799
 20
-11.2674025037
 10
5.4440416869
 20
-11.274756123
 10
5.4368771182
 20
-11.2826614531
 10
5.4307163695
 20
-11.2912220514
 10
5.4255594409
 20
-11.300437918
  0
LWPOLYLINE
  5
32B
100
AcDbEntity
  8
0
100
AcDbPolyline
 62
7
  6
CONTINUOUS
 90
3
 70
0
 10
3.362714979
 20
-11.1724857944
 10
3.3525290175
 20
-11.173385434
 10
3.3421426357
 20
-11.175367516
  0
LWPOLYLINE
  5
32C
100
AcDbEntity
  8
0
100
AcDbPolyline
 62
7
  6
CONTINUOUS
 90
4
 70
0
 10
6.3568094372
 20
-9.0226235041
 10
6.3477410292
 20
-9.0233266184
 10
6.3387119223
 20
-9.0251047277
 10
6.3297965817
 20
-9.0279341988
  0
LWPOLYLINE
  5
32D
100
AcDbEntity
  8
0
100
AcDbPolyline
 62
7
  6
CONTINUOUS
 90
3
 70
0
 10
5.514222262
 20
-11.2424271532
 10
5.5240928024
 20
-11.2423100007
 10
5.5337755676
 20
-11.2433335162
  0
LINE
  5
32E
100
AcDbEntity
  8
0
100
AcDbLine
 62
7
  6
CONTINUOUS
 10
6.3568073718
 20
-9.6227595335
 11
7.7899701044
 21
-9.6227595335
  0
LINE
  5
32F
100
AcDbEntity
  8
0
100
AcDbLine
 62
7
  6
CONTINUOUS
 10
8.0903824693
 20
-9.0226235041
 11
6.3568094372
 21
-9.0226235041
  0
LINE
  5
330
100
AcDbEntity
  8
RACCORDO
100
AcDbLine
 62
250
  6
CONTINUOUS
 10
-14.3790202907
 20
-7.9290029941
 11
29.090106845
 21
-7.9290029941
  0
LWPOLYLINE
  5
331
100
AcDbEntity
  8
0
100
AcDbPolyline
 62
7
  6
CONTINUOUS
 90
3
 70
0
 10
3.3627199985
 20
-11.1724854409
 10
3.372875115
 20
-11.1726621995
 10
3.3830010754
 20
-11.1739148031
  0
LINE
  5
332
100
AcDbEntity
  8
0
100
AcDbLine
 62
7
  6
CONTINUOUS
 10
8.1204612361
 20
-9.0242052854
 11
8.0903824693
 21
-9.0226235041
  0
LWPOLYLINE
  5
333
100
AcDbEntity
  8
0
100
AcDbPolyline
 62
7
  6
CONTINUOUS
 90
14
 70
0
 10
6.3568080878
 20
-9.6227595335
 10
6.3472989207
 20
-9.6219533779
 10
6.3378958281
 20
-9.6200295949
 10
6.3285988101
 20
-9.6169881845
 10
6.3192828197
 20
-9.612721467
 10
6.3100729039
 20
-9.6073371221
 10
6.3013442038
 20
-9.6011581887
 10
6.2931116519
 20
-9.5941727248
 10
6.2853603157
 20
-9.5863926723
 10
6.2784205389
 20
-9.5781768959
 10
6.2723129441
 20
-9.5695624488
 10
6.2670169088
 20
-9.5605122777
 10
6.2628009093
 20
-9.5512740877
 10
6.2597544377
 20
-9.5419304472
  0
LWPOLYLINE
  5
334
100
AcDbEntity
  8
0
100
AcDbPolyline
 62
7
  6
CONTINUOUS
 90
5
 70
0
 10
10.3571602496
 20
-11.9522164369
 10
10.3470815597
 20
-11.9513558132
 10
10.3368217548
 20
-11.9494473439
 10
10.3265355904
 20
-11.9464877593
 10
10.316687333
 20
-11.9424672497
  0
LWPOLYLINE
  5
335
100
AcDbEntity
  8
0
100
AcDbPolyline
 62
7
  6
CONTINUOUS
 90
3
 70
0
 10
5.5337755307
 20
-11.2433335097
 10
5.5236469862
 20
-11.2423444375
 10
5.5134252753
 20
-11.2425268187
  0
LWPOLYLINE
  5
336
100
AcDbEntity
  8
0
100
AcDbPolyline
 62
7
  6
CONTINUOUS
 90
4
 70
0
 43
0.3500000006
 10
36.7292507629
 20
4.2336454926
 10
36.0863950424
 20
4.2336454926
 10
36.0863950424
 20
5.7336459503
 10
39.086393692
 20
4.876503479
  0
LINE
  5
337
100
AcDbEntity
  8
RACCORDO
100
AcDbLine
 62
250
  6
CONTINUOUS
 10
-14.9077004479
 20
13.0422172357
 11
29.6187870022
 21
13.0422172357
  0
LWPOLYLINE
  5
338
100
AcDbEntity
  8
0
100
AcDbPolyline
 62
7
  6
CONTINUOUS
 90
3
 70
0
 43
0.3500000006
 10
38.8006780243
 20
3.2336451874
 10
39.014967041
 20
3.1622162704
 10
39.3006781769
 20
3.0193607025
  0
LINE
  5
339
100
AcDbEntity
  8
RACCORDO
100
AcDbLine
 62
250
  6
CONTINUOUS
 10
29.6187870022
 20
28.1184896034
 11
-14.9077004479
 21
28.1184896034
  0
LINE
  5
33A
100
AcDbEntity
  8
RACCORDO
100
AcDbLine
 62
250
  6
CONTINUOUS
 10
29.1189583397
 20
28.6183182659
 11
-14.4078717854
 21
28.6183182659
  0
LINE
  5
33B
100
AcDbEntity
  8
RACCORDO
100
AcDbLine
 62
7
  6
CONTINUOUS
 10
-14.4474934015
 20
28.657939882
 11
29.1585799558
 21
28.657939882
  0
LWPOLYLINE
  5
33C
100
AcDbEntity
  8
0
100
AcDbPolyline
 62
7
  6
CONTINUOUS
 90
3
 70
0
 43
0.3500000006
 10
6.8198289642
 20
40.228784729
 10
5.319829073
 20
40.228784729
 10
5.9626859264
 20
42.5859276581
  0
LWPOLYLINE
  5
33D
100
AcDbEntity
  8
0
100
AcDbPolyline
 62
7
  6
CONTINUOUS
 90
3
 70
0
 43
0.3500000006
 10
4.4626860352
 20
40.228784729
 10
2.9626861439
 20
40.228784729
 10
3.6055432806
 20
42.5859276581
  0
LWPOLYLINE
  5
33E
100
AcDbEntity
  8
RACCORDO
100
AcDbPolyline
 62
7
  6
CONTINUOUS
 90
13
 70
0
 10
-34.0620604161
 20
22.7188537301
 10
-34.0416108231
 20
22.7304066024
 10
-34.0218604036
 20
22.7403094154
 10
-34.0031418634
 20
22.7486762341
 10
-33.9858122538
 20
22.7555975215
 10
-33.9700340951
 20
22.7612773028
 10
-33.955832982
 20
22.765979796
 10
-33.943411755
 20
22.7698726033
 10
-33.9329689609
 20
22.7730636109
 10
-33.9245842945
 20
22.7756821626
 10
-33.9184182631
 20
22.7778694322
 10
-33.9146443867
 20
22.779800531
 10
-33.9133693964
 20
22.7816560514
  0
LINE
  5
33F
100
AcDbEntity
  8
RACCORDO
100
AcDbLine
 62
250
  6
CONTINUOUS
 10
-34.2860650023
 20
23.7292486593
 11
-34.3087209903
 21
23.7061007866
  0
LINE
  5
340
100
AcDbEntity
  8
RACCORDO
100
AcDbLine
 62
250
  6
CONTINUOUS
 10
-34.0827755685
 20
23.5056575183
 11
-34.1276124564
 21
23.4601815424
  0
LINE
  5
341
100
AcDbEntity
  8
RACCORDO
100
AcDbLine
 62
250
  6
CONTINUOUS
 10
-34.3087209903
 20
23.7061007866
 11
-34.3804949413
 21
23.6336387811
  0
LINE
  5
342
100
AcDbEntity
  8
RACCORDO
100
AcDbLine
 62
250
  6
CONTINUOUS
 10
-34.3804949413
 20
23.6336387811
 11
-34.4477237951
 21
23.5662400133
  0
LINE
  5
343
100
AcDbEntity
  8
RACCORDO
100
AcDbLine
 62
250
  6
CONTINUOUS
 10
-34.1276124564
 20
23.4601815424
 11
-34.2344110672
 21
23.3529272854
  0
LWPOLYLINE
  5
344
100
AcDbEntity
  8
RACCORDO
100
AcDbPolyline
 62
7
  6
CONTINUOUS
 90
3
 70
0
 10
-35.5715375839
 20
5.1118881775
 10
-35.6110995637
 20
5.0902612479
 10
-35.6133693964
 20
5.0890047078
  0
LINE
  5
345
100
AcDbEntity
  8
RACCORDO
100
AcDbLine
 62
250
  6
CONTINUOUS
 10
-35.4570356261
 20
5.0616297933
 11
-35.5365911943
 21
5.0186191276
  0
LINE
  5
346
100
AcDbEntity
  8
RACCORDO
100
AcDbLine
 62
250
  6
CONTINUOUS
 10
-35.089221118
 20
5.2574271106
 11
-35.1531205756
 21
5.2228843877
  0
LINE
  5
347
100
AcDbEntity
  8
RACCORDO
100
AcDbLine
 62
7
  6
CONTINUOUS
 10
-35.4956539851
 20
5.1527644579
 11
-35.5715375839
 21
5.1118881775
  0
LINE
  5
348
100
AcDbEntity
  8
RACCORDO
100
AcDbLine
 62
250
  6
CONTINUOUS
 10
-35.1531205756
 20
5.2228843877
 11
-35.2473354967
 21
5.172712628
  0
LINE
  5
349
100
AcDbEntity
  8
RACCORDO
100
AcDbLine
 62
7
  6
CONTINUOUS
 10
-35.4956539851
 20
5.1527644579
 11
-35.3581097156
 21
5.2256884408
  0
LINE
  5
34A
100
AcDbEntity
  8
RACCORDO
100
AcDbLine
 62
250
  6
CONTINUOUS
 10
-35.2473354967
 20
5.172712628
 11
-35.4570356261
 21
5.0616297933
  0
LINE
  5
34B
100
AcDbEntity
  8
RACCORDO
100
AcDbLine
 62
250
  6
CONTINUOUS
 10
-35.3998859569
 20
6.7603479614
 11
-35.6133693964
 21
6.650499233
  0
LWPOLYLINE
  5
34C
100
AcDbEntity
  8
RACCORDO
100
AcDbPolyline
 62
250
  6
CONTINUOUS
 90
5
 70
0
 10
-34.9728138667
 20
5.9211860656
 10
-35.0232334364
 20
5.8961844809
 10
-35.073207345
 20
5.8716757744
 10
-35.1227355924
 20
5.8476599461
 10
-35.1713595389
 20
5.8244271667
  0
LINE
  5
34D
100
AcDbEntity
  8
RACCORDO
100
AcDbLine
 62
7
  6
CONTINUOUS
 10
-35.6044214711
 20
5.7285030812
 11
-35.6133693964
 21
5.7241002979
  0
LWPOLYLINE
  5
34E
100
AcDbEntity
  8
RACCORDO
100
AcDbPolyline
 62
250
  6
CONTINUOUS
 90
3
 70
0
 10
-35.5308456161
 20
5.6545515571
 10
-35.5853808861
 20
5.6279895109
 10
-35.6133693964
 20
5.614097826
  0
LWPOLYLINE
  5
34F
100
AcDbEntity
  8
IMPORT_IGES
100
AcDbPolyline
 62
7
  6
CONTINUOUS
 90
5
 70
0
 10
-35.1246099528
 20
8.2684331693
 10
-35.1438813991
 20
8.259072664
 10
-35.30685897
 20
8.1770709769
 10
-35.4743408171
 20
8.090733684
 10
-35.6133693964
 20
8.0181553283
  0
LINE
  5
350
100
AcDbEntity
  8
RACCORDO
100
AcDbLine
 62
7
  6
CONTINUOUS
 10
-35.6061114257
 20
5.7276783148
 11
-35.522366712
 21
5.7680810548
  0
LINE
  5
351
100
AcDbEntity
  8
RACCORDO
100
AcDbLine
 62
250
  6
CONTINUOUS
 10
-35.4229294656
 20
5.7060808141
 11
-35.5308456161
 21
5.6545515571
  0
LINE
  5
352
100
AcDbEntity
  8
RACCORDO
100
AcDbLine
 62
7
  6
CONTINUOUS
 10
-35.4512390044
 20
5.8018215436
 11
-35.5525458062
 21
5.7536224188
  0
LINE
  5
353
100
AcDbEntity
  8
RACCORDO
100
AcDbLine
 62
7
  6
CONTINUOUS
 10
-35.3533697153
 20
5.847807669
 11
-35.4806016123
 21
5.7879412166
  0
LINE
  5
354
100
AcDbEntity
  8
RACCORDO
100
AcDbLine
 62
250
  6
CONTINUOUS
 10
-35.1713595389
 20
5.8244271667
 11
-35.4229294656
 21
5.7060808141
  0
LWPOLYLINE
  5
355
100
AcDbEntity
  8
RACCORDO
100
AcDbPolyline
 62
250
  6
CONTINUOUS
 90
7
 70
0
 10
-34.9033693995
 20
7.0040737298
 10
-34.9686185862
 20
6.9735581236
 10
-35.0357956294
 20
6.9415804503
 10
-35.1049005289
 20
6.90814071
 10
-35.1761415662
 20
6.8730853422
 10
-35.2493104599
 20
6.8365679074
 10
-35.3998859569
 20
6.7603479614
  0
LWPOLYLINE
  5
356
100
AcDbEntity
  8
RACCORDO
100
AcDbPolyline
 62
250
  6
CONTINUOUS
 90
9
 70
0
 10
-34.9033694011
 20
7.102855319
 10
-34.9680444911
 20
7.0728559196
 10
-35.0345761768
 20
7.0415375524
 10
-35.1029644582
 20
7.0088356337
 10
-35.1733394255
 20
6.9746212566
 10
-35.2455709885
 20
6.938942629
 10
-35.3192688763
 20
6.9020433343
 10
-35.3947850848
 20
6.8638166452
 10
-35.6133693964
 20
6.7517079712
  0
LWPOLYLINE
  5
357
100
AcDbEntity
  8
RACCORDO
100
AcDbPolyline
 62
250
  6
CONTINUOUS
 90
3
 70
0
 10
-35.5383612694
 20
6.2573091173
 10
-35.5899269599
 20
6.234685753
 10
-35.6133693964
 20
6.2242156633
  0
LWPOLYLINE
  5
358
100
AcDbEntity
  8
RACCORDO
100
AcDbPolyline
 62
7
  6
CONTINUOUS
 90
3
 70
0
 10
-35.5458489679
 20
6.3616675341
 10
-35.5958806459
 20
6.3399074868
 10
-35.6133693964
 20
6.3321848637
  0
LINE
  5
359
100
AcDbEntity
  8
RACCORDO
100
AcDbLine
 62
250
  6
CONTINUOUS
 10
-35.4361084257
 20
6.30131821
 11
-35.5383612694
 21
6.2573091173
  0
LINE
  5
35A
100
AcDbEntity
  8
RACCORDO
100
AcDbLine
 62
7
  6
CONTINUOUS
 10
-35.4480436807
 20
6.4035075207
 11
-35.5458489679
 21
6.3616675341
  0
LINE
  5
35B
100
AcDbEntity
  8
RACCORDO
100
AcDbLine
 62
7
  6
CONTINUOUS
 10
-35.3533686846
 20
6.4435347912
 11
-35.4480436807
 21
6.4035075207
  0
LINE
  5
35C
100
AcDbEntity
  8
RACCORDO
100
AcDbLine
 62
250
  6
CONTINUOUS
 10
-35.1518992019
 20
6.4218022198
 11
-35.4361084257
 21
6.30131821
  0
LINE
  5
35D
100
AcDbEntity
  8
RACCORDO
100
AcDbLine
 62
7
  6
CONTINUOUS
 10
-35.6106332142
 20
6.9217623126
 11
-35.6133693964
 21
6.9206469469
  0
LINE
  5
35E
100
AcDbEntity
  8
RACCORDO
100
AcDbLine
 62
250
  6
CONTINUOUS
 10
-35.0017234584
 20
7.1511448293
 11
-35.0682311365
 21
7.1239942028
  0
LINE
  5
35F
100
AcDbEntity
  8
RACCORDO
100
AcDbLine
 62
250
  6
CONTINUOUS
 10
-35.0682311365
 20
7.1239942028
 11
-35.1319975358
 21
7.0984647498
  0
LINE
  5
360
100
AcDbEntity
  8
RACCORDO
100
AcDbLine
 62
7
  6
CONTINUOUS
 10
-35.0787937745
 20
7.1288971731
 11
-35.1786862036
 21
7.0893021969
  0
LINE
  5
361
100
AcDbEntity
  8
RACCORDO
100
AcDbLine
 62
7
  6
CONTINUOUS
 10
-35.6106332142
 20
6.9217623126
 11
-35.496208963
 21
6.9668251848
  0
LINE
  5
362
100
AcDbEntity
  8
RACCORDO
100
AcDbLine
 62
250
  6
CONTINUOUS
 10
-35.5258459837
 20
6.9463477625
 11
-35.6133693964
 21
6.9118549253
  0
LWPOLYLINE
  5
363
100
AcDbEntity
  8
RACCORDO
100
AcDbPolyline
 62
7
  6
CONTINUOUS
 90
10
 70
0
 10
-35.0787937543
 20
7.128897123
 10
-35.071506088
 20
7.1317358158
 10
-35.0639201197
 20
7.13449944
 10
-35.0560276133
 20
7.1371815197
 10
-35.0478208793
 20
7.1397778174
 10
-35.0392915745
 20
7.1422816877
 10
-35.0304282283
 20
7.1446797675
 10
-35.0212189883
 20
7.1469603423
 10
-35.011654239
 20
7.149117843
 10
-35.0017236409
 20
7.1511452104
  0
LINE
  5
364
100
AcDbEntity
  8
RACCORDO
100
AcDbLine
 62
250
  6
CONTINUOUS
 10
-35.1319975358
 20
7.0984647498
 11
-35.2259801238
 21
7.061718136
  0
LINE
  5
365
100
AcDbEntity
  8
RACCORDO
100
AcDbLine
 62
7
  6
CONTINUOUS
 10
-35.1786862036
 20
7.0893021969
 11
-35.498311276
 21
6.966007975
  0
LINE
  5
366
100
AcDbEntity
  8
RACCORDO
100
AcDbLine
 62
250
  6
CONTINUOUS
 10
-35.2259801238
 20
7.061718136
 11
-35.5258459837
 21
6.9463477625
  0
LWPOLYLINE
  5
367
100
AcDbEntity
  8
RACCORDO
100
AcDbPolyline
 62
250
  6
CONTINUOUS
 90
4
 70
0
 10
-34.2731287337
 20
23.7430167086
 10
-34.2744874141
 20
23.7413743746
 10
-34.2788240437
 20
23.736758907
 10
-34.2860650023
 20
23.7292486593
  0
LWPOLYLINE
  5
368
100
AcDbEntity
  8
RACCORDO
100
AcDbPolyline
 62
250
  6
CONTINUOUS
 90
5
 70
0
 10
-34.0598160058
 20
23.5297039807
 10
-34.0611747705
 20
23.5280615787
 10
-34.0655116097
 20
23.523445915
 10
-34.0727528626
 20
23.515935384
 10
-34.0827755685
 20
23.5056575183
  0
LWPOLYLINE
  5
369
100
AcDbEntity
  8
RACCORDO
100
AcDbPolyline
 62
250
  6
CONTINUOUS
 90
3
 70
0
 10
-35.3469838134
 20
4.4703714865
 10
-35.4376152167
 20
4.4110769029
 10
-35.4823491693
 20
4.3821148301
  0
LINE
  5
36A
100
AcDbEntity
  8
RACCORDO
100
AcDbLine
 62
250
  6
CONTINUOUS
 10
-35.4823491693
 20
4.3821148301
 11
-35.6053169363
 21
4.3036546748
  0
LWPOLYLINE
  5
36B
100
AcDbEntity
  8
RACCORDO
100
AcDbPolyline
 62
250
  6
CONTINUOUS
 90
3
 70
0
 10
-34.9866726
 20
5.3142410106
 10
-35.0558328478
 20
5.2757631815
 10
-35.089221118
 20
5.2574271106
  0
LWPOLYLINE
  5
36C
100
AcDbEntity
  8
RACCORDO
100
AcDbPolyline
 62
250
  6
CONTINUOUS
 90
3
 70
0
 10
-35.5365911943
 20
5.0186191276
 10
-35.5780721103
 20
4.9958862291
 10
-35.6133693964
 20
4.9762672319
  0
LINE
  5
36D
100
AcDbEntity
  8
DRAFT
100
AcDbLine
 62
7
  6
CONTINUOUS
 10
-34.6521273319
 20
7.8050745408
 11
-34.0986534537
 21
8.3295111608
  0
LWPOLYLINE
  5
36E
100
AcDbEntity
  8
0
100
AcDbPolyline
 62
7
  6
CONTINUOUS
 90
3
 70
0
 43
0.3500000006
 10
-47.7085435181
 20
39.8716378784
 10
-47.7799701691
 20
39.6573533936
 10
-47.9228280029
 20
39.3716377258
  0
LINE
  5
36F
100
AcDbEntity
  8
DRAFT
100
AcDbLine
 62
7
  6
CONTINUOUS
 10
-35.5898027843
 20
-3.9163588471
 11
-35.0683693964
 21
-3.3949254592
  0
LINE
  5
370
100
AcDbEntity
  8
0
100
AcDbLine
 62
7
  6
CONTINUOUS
 10
-35.5898027843
 20
-6.0168153553
 11
-34.556091055
 21
-3.8300053538
  0
LINE
  5
371
100
AcDbEntity
  8
IMPORT_IGES
100
AcDbLine
 62
7
  6
CONTINUOUS
 10
-34.556091055
 20
-3.8300053538
 11
-34.3683693964
 21
-3.4328814857
  0
LWPOLYLINE
  5
372
100
AcDbEntity
  8
0
100
AcDbPolyline
 62
7
  6
CONTINUOUS
 90
2
 70
0
 43
0.3500000006
 10
-49.7799707794
 20
39.5859267426
 10
-49.7799707794
 20
41.0859272003
  0
LWPOLYLINE
  5
373
100
AcDbEntity
  8
0
100
AcDbPolyline
 62
7
  6
CONTINUOUS
 90
4
 70
0
 43
0.3500000006
 10
-46.7085432129
 20
41.9430696716
 10
-46.7085432129
 20
42.5859276581
 10
-45.2085427551
 20
42.5859276581
 10
-46.0656852264
 20
39.5859267426
  0
LWPOLYLINE
  5
374
100
AcDbEntity
  8
0
100
AcDbPolyline
 62
7
  6
CONTINUOUS
 90
4
 70
0
 43
0.3500000006
 10
-46.6761676025
 20
48.0144981537
 10
-46.6761676025
 20
48.871640625
 10
-46.247594101
 20
49.3002095947
 10
-45.6047361145
 20
49.3002095947
  0
LWPOLYLINE
  5
375
100
AcDbEntity
  8
RACCORDO
100
AcDbPolyline
 62
250
  6
CONTINUOUS
 90
7
 70
0
 10
-34.4408780537
 20
25.8857810917
 10
-34.438225937
 20
25.9027674119
 10
-34.4360789648
 20
25.9170939755
 10
-34.4344737311
 20
25.9285165944
 10
-34.4334375962
 20
25.936840577
 10
-34.4329882204
 20
25.9419240456
 10
-34.4331332631
 20
25.9436803556
  0
LWPOLYLINE
  5
376
100
AcDbEntity
  8
RACCORDO
100
AcDbPolyline
 62
250
  6
CONTINUOUS
 90
7
 70
0
 10
-34.4408780537
 20
25.4857810917
 10
-34.438225937
 20
25.5027674119
 10
-34.4360789648
 20
25.5170939755
 10
-34.4344737311
 20
25.5285165944
 10
-34.4334375962
 20
25.536840577
 10
-34.4329882204
 20
25.5419240456
 10
-34.4331332631
 20
25.5436803556
  0
LINE
  5
377
100
AcDbEntity
  8
RACCORDO
100
AcDbLine
 62
250
  6
CONTINUOUS
 10
-34.4475090665
 20
25.8450276679
 11
-34.4408780537
 21
25.8857810917
  0
LINE
  5
378
100
AcDbEntity
  8
RACCORDO
100
AcDbLine
 62
250
  6
CONTINUOUS
 10
-34.4475090665
 20
25.4450276679
 11
-34.4408780537
 21
25.4857810917
  0
LINE
  5
379
100
AcDbEntity
  8
RACCORDO
100
AcDbLine
 62
250
  6
CONTINUOUS
 10
-34.4555218425
 20
25.7976003371
 11
-34.4475090665
 21
25.8450276679
  0
LINE
  5
37A
100
AcDbEntity
  8
RACCORDO
100
AcDbLine
 62
250
  6
CONTINUOUS
 10
-34.4555218425
 20
25.3976003371
 11
-34.4475090665
 21
25.4450276679
  0
LINE
  5
37B
100
AcDbEntity
  8
RACCORDO
100
AcDbLine
 62
250
  6
CONTINUOUS
 10
-34.4643724174
 20
25.746718805
 11
-34.4555218425
 21
25.7976003371
  0
LINE
  5
37C
100
AcDbEntity
  8
RACCORDO
100
AcDbLine
 62
250
  6
CONTINUOUS
 10
-34.4643724174
 20
25.346718805
 11
-34.4555218425
 21
25.3976003371
  0
LWPOLYLINE
  5
37D
100
AcDbEntity
  8
DRAFT
100
AcDbPolyline
 62
7
  6
CONTINUOUS
 90
25
 70
0
 10
-33.8133693964
 20
8.4171597782
 10
-33.8142355563
 20
8.4123185224
 10
-33.8168243188
 20
8.40743017
 10
-33.8211167186
 20
8.4024947207
 10
-33.8270870392
 20
8.3974922927
 10
-33.8347055372
 20
8.392442768
 10
-33.8439410903
 20
8.3874057926
 10
-33.8547551615
 20
8.3823800395
 10
-33.8671038368
 20
8.3773668358
 10
-33.8809444002
 20
8.3724298084
 10
-33.8962249392
 20
8.3675688419
 10
-33.9128895531
 20
8.3627840516
 10
-33.9308865052
 20
8.3581394113
 10
-33.9501502475
 20
8.3536362866
 10
-33.9706162418
 20
8.3492733118
 10
-33.9922332421
 20
8.3451103625
 10
-34.0149300044
 20
8.3411490047
 10
-34.0386310653
 20
8.3373876724
 10
-34.0632788414
 20
8.333881544
 10
-34.0887959244
 20
8.3306330442
 10
-34.1150967896
 20
8.3276397482
 10
-34.1421102596
 20
8.3249495598
 10
-34.1697532015
 20
8.322578447
 10
-34.1979294765
 20
8.3205104417
 10
-34.2265453076
 20
8.318745544
  0
LWPOLYLINE
  5
37E
100
AcDbEntity
  8
RACCORDO
100
AcDbPolyline
 62
250
  6
CONTINUOUS
 90
10
 70
0
 10
-39.8656384216
 20
-23.2446030069
 10
-39.8709124739
 20
-23.2734123917
 10
-39.8755210869
 20
-23.2993855105
 10
-39.8794303491
 20
-23.3223310222
 10
-39.8826127477
 20
-23.3420886625
 10
-39.8850409712
 20
-23.3584903739
 10
-39.8866939972
 20
-23.3713888413
 10
-39.8875637898
 20
-23.3807031418
 10
-39.8876500372
 20
-23.3863954831
 10
-39.8869569246
 20
-23.3884456852
  0
LINE
  5
37F
100
AcDbEntity
  8
RACCORDO
100
AcDbLine
 62
250
  6
CONTINUOUS
 10
-39.8532556297
 20
-23.1793543668
 11
-39.8656384216
 21
-23.2446030069
  0
LINE
  5
380
100
AcDbEntity
  8
RACCORDO
100
AcDbLine
 62
250
  6
CONTINUOUS
 10
-39.8387503803
 20
-23.1056316811
 11
-39.8532556297
 21
-23.1793543668
  0
LINE
  5
381
100
AcDbEntity
  8
RACCORDO
100
AcDbLine
 62
250
  6
CONTINUOUS
 10
-39.8225625044
 20
-23.0256704669
 11
-39.8387503803
 21
-23.1056316811
  0
LWPOLYLINE
  5
382
100
AcDbEntity
  8
RACCORDO
100
AcDbPolyline
 62
250
  6
CONTINUOUS
 90
3
 70
0
 10
-39.7962053992
 20
-22.8993472754
 10
-39.8051806847
 20
-22.941884644
 10
-39.8225625044
 20
-23.0256704669
  0
LINE
  5
383
100
AcDbEntity
  8
RACCORDO
100
AcDbLine
 62
7
  6
CONTINUOUS
 10
-37.6986802174
 20
5.8942172622
 11
-37.6733092054
 21
6.8733932915
  0
LINE
  5
384
100
AcDbEntity
  8
RACCORDO
100
AcDbLine
 62
250
  6
CONTINUOUS
 10
-37.2115116974
 20
5.8959628121
 11
-37.2397580703
 21
4.9989968314
  0
LINE
  5
385
100
AcDbEntity
  8
RACCORDO
100
AcDbLine
 62
7
  6
CONTINUOUS
 10
-37.7282421209
 20
4.9627222934
 11
-37.6982172261
 21
5.9103139344
  0
LINE
  5
386
100
AcDbEntity
  8
RACCORDO
100
AcDbLine
 62
250
  6
CONTINUOUS
 10
-37.2397580703
 20
4.9989968314
 11
-37.2734351203
 21
4.1001855835
  0
LINE
  5
387
100
AcDbEntity
  8
RACCORDO
100
AcDbLine
 62
7
  6
CONTINUOUS
 10
-37.7623233146
 20
4.0610708417
 11
-37.726394453
 21
5.0161807385
  0
LINE
  5
388
100
AcDbEntity
  8
RACCORDO
100
AcDbLine
 62
7
  6
CONTINUOUS
 10
-37.7599061932
 20
4.1204276633
 11
-37.7991095027
 21
3.2245429473
  0
LINE
  5
389
100
AcDbEntity
  8
RACCORDO
100
AcDbLine
 62
250
  6
CONTINUOUS
 10
-37.2734351203
 20
4.1001855835
 11
-37.3127512261
 21
3.2010282055
  0
LINE
  5
38A
100
AcDbEntity
  8
RACCORDO
100
AcDbLine
 62
7
  6
CONTINUOUS
 10
-37.8230816601
 20
2.7349163991
 11
-37.7811129139
 21
3.6192073281
  0
LINE
  5
38B
100
AcDbEntity
  8
RACCORDO
100
AcDbLine
 62
250
  6
CONTINUOUS
 10
-37.3127512261
 20
3.2010282055
 11
-37.3577661828
 21
2.3107443952
  0
LINE
  5
38C
100
AcDbEntity
  8
RACCORDO
100
AcDbLine
 62
7
  6
CONTINUOUS
 10
-37.8207815328
 20
2.7802992269
 11
-37.8685746355
 21
1.895046687
  0
LINE
  5
38D
100
AcDbEntity
  8
RACCORDO
100
AcDbLine
 62
250
  6
CONTINUOUS
 10
-37.3577661828
 20
2.3107443952
 11
-37.4086243656
 21
1.4233501249
  0
LINE
  5
38E
100
AcDbEntity
  8
RACCORDO
100
AcDbLine
 62
7
  6
CONTINUOUS
 10
-37.89781072
 20
1.4018888814
 11
-37.8463576557
 21
2.2924940593
  0
LINE
  5
38F
100
AcDbEntity
  8
RACCORDO
100
AcDbLine
 62
7
  6
CONTINUOUS
 10
-37.8946566615
 20
1.4536563501
 11
-37.9514851979
 21
0.5649403716
  0
LINE
  5
390
100
AcDbEntity
  8
RACCORDO
100
AcDbLine
 62
250
  6
CONTINUOUS
 10
-37.4086243656
 20
1.4233501249
 11
-37.4656948634
 21
0.5314749527
  0
LINE
  5
391
100
AcDbEntity
  8
RACCORDO
100
AcDbLine
 62
7
  6
CONTINUOUS
 10
-37.9862602302
 20
0.0595013368
 11
-37.9259331236
 21
0.9537031783
  0
LINE
  5
392
100
AcDbEntity
  8
RACCORDO
100
AcDbLine
 62
250
  6
CONTINUOUS
 10
-37.4656948634
 20
0.5314749527
 11
-37.5298294226
 21
-0.3833089442
  0
LINE
  5
393
100
AcDbEntity
  8
RACCORDO
100
AcDbLine
 62
7
  6
CONTINUOUS
 10
-38.0517213134
 20
-0.8325601968
 11
-37.9825715804
 21
0.1119528476
  0
LINE
  5
394
100
AcDbEntity
  8
RACCORDO
100
AcDbLine
 62
250
  6
CONTINUOUS
 10
-37.5298294226
 20
-0.3833089442
 11
-37.6025961311
 21
-1.3388594085
  0
LINE
  5
395
100
AcDbEntity
  8
RACCORDO
100
AcDbLine
 62
7
  6
CONTINUOUS
 10
-38.0505598665
 20
-0.8173072564
 11
-38.1276796805
 21
-1.7933464321
  0
LINE
  5
396
100
AcDbEntity
  8
RACCORDO
100
AcDbLine
 62
250
  6
CONTINUOUS
 10
-37.6025961311
 20
-1.3388594085
 11
-37.6851302647
 21
-2.3469757519
  0
LINE
  5
397
100
AcDbEntity
  8
RACCORDO
100
AcDbLine
 62
7
  6
CONTINUOUS
 10
-38.1219804896
 20
-1.7235411958
 11
-38.2157733629
 21
-2.8338536216
  0
LINE
  5
398
100
AcDbEntity
  8
RACCORDO
100
AcDbLine
 62
250
  6
CONTINUOUS
 10
-37.6851302647
 20
-2.3469757519
 11
-37.7793646066
 21
-3.4253342928
  0
LINE
  5
399
100
AcDbEntity
  8
RACCORDO
100
AcDbLine
 62
7
  6
CONTINUOUS
 10
-38.2777997679
 20
-3.5300825029
 11
-38.1973072054
 21
-2.6212278947
  0
LINE
  5
39A
100
AcDbEntity
  8
RACCORDO
100
AcDbLine
 62
7
  6
CONTINUOUS
 10
-38.2642775466
 20
-3.3804878688
 11
-38.3720671324
 21
-4.5442187154
  0
LINE
  5
39B
100
AcDbEntity
  8
RACCORDO
100
AcDbLine
 62
250
  6
CONTINUOUS
 10
-37.7793646066
 20
-3.4253342928
 11
-37.8874198665
 21
-4.5915234581
  0
LINE
  5
39C
100
AcDbEntity
  8
RACCORDO
100
AcDbLine
 62
7
  6
CONTINUOUS
 10
-38.3201205152
 20
-3.9912298469
 11
-38.4314503138
 21
-5.1613101904
  0
LINE
  5
39D
100
AcDbEntity
  8
RACCORDO
100
AcDbLine
 62
250
  6
CONTINUOUS
 10
-37.8874198665
 20
-4.5915234581
 11
-38.0106442809
 21
-5.8572600864
  0
LINE
  5
39E
100
AcDbEntity
  8
RACCORDO
100
AcDbLine
 62
7
  6
CONTINUOUS
 10
-38.6048365009
 20
-6.8932777808
 11
-38.4089489467
 21
-4.9292088608
  0
LINE
  5
39F
100
AcDbEntity
  8
RACCORDO
100
AcDbLine
 62
250
  6
CONTINUOUS
 10
-38.0106442809
 20
-5.8572600864
 11
-38.1514341773
 21
-7.243991304
  0
LINE
  5
3A0
100
AcDbEntity
  8
RACCORDO
100
AcDbLine
 62
7
  6
CONTINUOUS
 10
-38.5632250113
 20
-6.4854890812
 11
-38.7124244775
 21
-7.9290029941
  0
LINE
  5
3A1
100
AcDbEntity
  8
RACCORDO
100
AcDbLine
 62
7
  6
CONTINUOUS
 10
-38.7124244775
 20
-7.9290029941
 11
-40.2803778727
 21
-22.8470830438
  0
LINE
  5
3A2
100
AcDbEntity
  8
RACCORDO
100
AcDbLine
 62
250
  6
CONTINUOUS
 10
-38.1514341773
 20
-7.243991304
 11
-39.7962053992
 21
-22.8993472754
  0
LINE
  5
3A3
100
AcDbEntity
  8
0
100
AcDbLine
 62
7
  6
CONTINUOUS
 10
-35.0999667012
 20
-4.9805705153
 11
-35.5898027843
 21
-8.9699652689
  0
LWPOLYLINE
  5
3A4
100
AcDbEntity
  8
RACCORDO
100
AcDbPolyline
 62
250
  6
CONTINUOUS
 90
5
 70
0
 10
-33.0303438248
 20
3.8224604347
 10
-33.0285367381
 20
3.8338692814
 10
-33.0272887333
 20
3.8421720497
 10
-33.0266211228
 20
3.8472269505
 10
-33.0265453076
 20
3.8489476596
  0
LINE
  5
3A5
100
AcDbEntity
  8
RACCORDO
100
AcDbLine
 62
250
  6
CONTINUOUS
 10
-33.035502781
 20
3.7911535527
 11
-33.0303438248
 21
3.8224604347
  0
LINE
  5
3A6
100
AcDbEntity
  8
RACCORDO
100
AcDbLine
 62
250
  6
CONTINUOUS
 10
-33.0463849322
 20
3.7272911755
 11
-33.035502781
 21
3.7911535527
  0
LINE
  5
3A7
100
AcDbEntity
  8
RACCORDO
100
AcDbLine
 62
250
  6
CONTINUOUS
 10
-33.059529636
 20
3.651986109
 11
-33.0463849322
 21
3.7272911755
  0
LWPOLYLINE
  5
3A8
100
AcDbEntity
  8
RACCORDO
100
AcDbPolyline
 62
250
  6
CONTINUOUS
 90
9
 70
0
 10
-37.0106078549
 20
-23.8310982773
 10
-37.0173198034
 20
-23.8672718093
 10
-37.0230992783
 20
-23.8995008546
 10
-37.0278833953
 20
-23.9274347421
 10
-37.0316201004
 20
-23.9507695342
 10
-37.0342687357
 20
-23.969251334
 10
-37.0358004826
 20
-23.9826790481
 10
-37.0361986746
 20
-23.9909065749
 10
-37.035458979
 20
-23.9938443934
  0
LINE
  5
3A9
100
AcDbEntity
  8
RACCORDO
100
AcDbLine
 62
250
  6
CONTINUOUS
 10
-36.9946880081
 20
-23.7485307475
 11
-37.0106078549
 21
-23.8310982773
  0
LINE
  5
3AA
100
AcDbEntity
  8
RACCORDO
100
AcDbLine
 62
250
  6
CONTINUOUS
 10
-36.9760307225
 20
-23.6553820228
 11
-36.9946880081
 21
-23.7485307475
  0
LWPOLYLINE
  5
3AB
100
AcDbEntity
  8
RACCORDO
100
AcDbPolyline
 62
250
  6
CONTINUOUS
 90
3
 70
0
 10
-36.9447074536
 20
-23.5047459836
 10
-36.9554457979
 20
-23.5556951231
 10
-36.9760307225
 20
-23.6553820228
  0
LINE
  5
3AC
100
AcDbEntity
  8
RACCORDO
100
AcDbLine
 62
250
  6
CONTINUOUS
 10
-37.1264578705
 20
28.1184896034
 11
-37.1285347507
 21
28.205492392
  0
LINE
  5
3AD
100
AcDbEntity
  8
RACCORDO
100
AcDbLine
 62
250
  6
CONTINUOUS
 10
-37.1285347507
 20
28.205492392
 11
-37.130149163
 21
28.2898723472
  0
LINE
  5
3AE
100
AcDbEntity
  8
RACCORDO
100
AcDbLine
 62
250
  6
CONTINUOUS
 10
-37.130149163
 20
28.2898723472
 11
-37.131250916
 21
28.3690220862
  0
LWPOLYLINE
  5
3AF
100
AcDbEntity
  8
RACCORDO
100
AcDbPolyline
 62
250
  6
CONTINUOUS
 90
12
 70
0
 10
-37.131250916
 20
28.3690220862
 10
-37.1318057603
 20
28.4404142831
 10
-37.1318729124
 20
28.4725634499
 10
-37.1317985845
 20
28.5020477956
 10
-37.1315830258
 20
28.528606837
 10
-37.1312284711
 20
28.551993148
 10
-37.1307381822
 20
28.5720417383
 10
-37.1301164564
 20
28.5886130705
 10
-37.1293701034
 20
28.6015742901
 10
-37.1285065719
 20
28.6108583107
 10
-37.1275330514
 20
28.6164412585
 10
-37.1264578726
 20
28.6183182658
  0
LINE
  5
3B0
100
AcDbEntity
  8
RACCORDO
100
AcDbLine
 62
250
  6
CONTINUOUS
 10
-34.6215204675
 20
23.8559443428
 11
-34.6214153677
 21
23.8162149728
  0
LWPOLYLINE
  5
3B1
100
AcDbEntity
  8
RACCORDO
100
AcDbPolyline
 62
250
  6
CONTINUOUS
 90
9
 70
0
 10
-36.8593456767
 20
-23.8498081747
 10
-36.8593456767
 20
-23.8867991553
 10
-36.8591434019
 20
-23.9197253897
 10
-36.8587410665
 20
-23.9482264456
 10
-36.8581430746
 20
-23.9719903316
 10
-36.8573559724
 20
-23.9907569125
 10
-36.856388376
 20
-24.0043207569
 10
-36.8552508773
 20
-24.0125333859
 10
-36.8539559281
 20
-24.0153048987
  0
LINE
  5
3B2
100
AcDbEntity
  8
RACCORDO
100
AcDbLine
 62
7
  6
CONTINUOUS
 10
-35.6133693964
 20
28.657939882
 11
-35.6133693964
 21
-24.0477908004
  0
LINE
  5
3B3
100
AcDbEntity
  8
RACCORDO
100
AcDbLine
 62
7
  6
CONTINUOUS
 10
-35.5898027843
 20
-9.1499346972
 11
-35.5898027843
 21
-3.9163588471
  0
LINE
  5
3B4
100
AcDbEntity
  8
DRAFT
100
AcDbLine
 62
250
  6
CONTINUOUS
 10
-35.3633693964
 20
-9.3667976251
 11
-35.3633693964
 21
-12.5230532933
  0
LINE
  5
3B5
100
AcDbEntity
  8
RACCORDO
100
AcDbLine
 62
7
  6
CONTINUOUS
 10
-34.9033693964
 20
8.2810588605
 11
-34.9033693964
 21
4.1798823845
  0
LINE
  5
3B6
100
AcDbEntity
  8
RACCORDO
100
AcDbLine
 62
7
  6
CONTINUOUS
 10
-34.581392114
 20
24.7346137699
 11
-34.581392114
 21
24.8755353117
  0
LINE
  5
3B7
100
AcDbEntity
  8
IMPORT_IGES
100
AcDbLine
 62
7
  6
CONTINUOUS
 10
-34.5560685316
 20
-3.3949254592
 11
-34.5560685316
 21
-3.8299577057
  0
LINE
  5
3B8
100
AcDbEntity
  8
RACCORDO
100
AcDbLine
 62
250
  6
CONTINUOUS
 10
-34.5390694083
 20
4.1156464675
 11
-34.5390694083
 21
5.6776124171
  0
LINE
  5
3B9
100
AcDbEntity
  8
RACCORDO
100
AcDbLine
 62
7
  6
CONTINUOUS
 10
-34.5151994776
 20
5.6349835598
 11
-34.5151994776
 21
4.1114375547
  0
LINE
  5
3BA
100
AcDbEntity
  8
DRAFT
100
AcDbLine
 62
7
  6
CONTINUOUS
 10
-34.4133693964
 20
-9.3999933332
 11
-34.4133693964
 21
-9.4499118554
  0
LINE
  5
3BB
100
AcDbEntity
  8
DRAFT
100
AcDbLine
 62
7
  6
CONTINUOUS
 10
-34.4133693964
 20
-12.439939063
 11
-34.4133693964
 21
-12.4898575852
  0
LINE
  5
3BC
100
AcDbEntity
  8
IMPORT_IGES
100
AcDbLine
 62
7
  6
CONTINUOUS
 10
-34.3683693964
 20
-3.4328814857
 11
-34.3683693964
 21
0.5246016318
  0
LINE
  5
3BD
100
AcDbEntity
  8
DRAFT
100
AcDbLine
 62
250
  6
CONTINUOUS
 10
-34.2265453076
 20
8.9638779684
 11
-34.2265453076
 21
8.318745544
  0
LINE
  5
3BE
100
AcDbEntity
  8
RACCORDO
100
AcDbLine
 62
250
  6
CONTINUOUS
 10
-34.1611877625
 20
23.1761505901
 11
-34.1611877625
 21
22.6901565592
  0
LINE
  5
3BF
100
AcDbEntity
  8
RACCORDO
100
AcDbLine
 62
250
  6
CONTINUOUS
 10
-34.0620604161
 20
22.1255941034
 11
-34.0620604161
 21
22.7188537301
  0
LINE
  5
3C0
100
AcDbEntity
  8
RACCORDO
100
AcDbLine
 62
7
  6
CONTINUOUS
 10
-33.9133693964
 20
22.2755883919
 11
-33.9133693964
 21
23.1761505901
  0
LINE
  5
3C1
100
AcDbEntity
  8
DRAFT
100
AcDbLine
 62
7
  6
CONTINUOUS
 10
-33.8133693964
 20
9.1475949465
 11
-33.8133693964
 21
8.4171597782
  0
LINE
  5
3C2
100
AcDbEntity
  8
DRAFT
100
AcDbLine
 62
7
  6
CONTINUOUS
 10
-33.4633693964
 20
-9.5330260858
 11
-33.4633693964
 21
-12.3568248326
  0
LINE
  5
3C3
100
AcDbEntity
  8
DRAFT
100
AcDbLine
 62
7
  6
CONTINUOUS
 10
-33.1746942618
 20
-9.5582818875
 11
-33.1746942618
 21
-12.3315690309
  0
LINE
  5
3C4
100
AcDbEntity
  8
DRAFT
100
AcDbLine
 62
7
  6
CONTINUOUS
 10
-34.8947832092
 20
0.4317806736
 11
-34.8986779875
 21
-3.3949254592
  0
LINE
  5
3C5
100
AcDbEntity
  8
RACCORDO
100
AcDbLine
 62
7
  6
CONTINUOUS
 10
-37.6133693964
 20
28.1184896034
 11
-37.6146368624
 21
11.9995966263
  0
LINE
  5
3C6
100
AcDbEntity
  8
RACCORDO
100
AcDbLine
 62
250
  6
CONTINUOUS
 10
-37.1264578705
 20
28.1184896034
 11
-37.127705001
 21
11.9983572477
  0
LINE
  5
3C7
100
AcDbEntity
  8
RACCORDO
100
AcDbLine
 62
250
  6
CONTINUOUS
 10
-37.127705001
 20
11.9983572477
 11
-37.1316031698
 21
10.9915606129
  0
LINE
  5
3C8
100
AcDbEntity
  8
RACCORDO
100
AcDbLine
 62
250
  6
CONTINUOUS
 10
-34.6214153677
 20
23.8162149728
 11
-34.6216501871
 21
23.7351144749
  0
LINE
  5
3C9
100
AcDbEntity
  8
RACCORDO
100
AcDbLine
 62
7
  6
CONTINUOUS
 10
-37.6140003327
 20
12.3009417415
 11
-37.6214607935
 21
10.5055772201
  0
LINE
  5
3CA
100
AcDbEntity
  8
RACCORDO
100
AcDbLine
 62
250
  6
CONTINUOUS
 10
-37.1316031698
 20
10.9915606129
 11
-37.138254861
 21
10.0195764059
  0
LINE
  5
3CB
100
AcDbEntity
  8
RACCORDO
100
AcDbLine
 62
250
  6
CONTINUOUS
 10
-34.6216501871
 20
23.7351144749
 11
-34.6223188565
 21
23.6394537988
  0
LINE
  5
3CC
100
AcDbEntity
  8
RACCORDO
100
AcDbLine
 62
250
  6
CONTINUOUS
 10
-36.8587410664
 20
-23.7652917487
 11
-36.8593456767
 21
-23.8498081747
  0
LINE
  5
3CD
100
AcDbEntity
  8
RACCORDO
100
AcDbLine
 62
7
  6
CONTINUOUS
 10
-37.6189784248
 20
10.907495998
 11
-37.6296085239
 21
9.5489740089
  0
LINE
  5
3CE
100
AcDbEntity
  8
RACCORDO
100
AcDbLine
 62
250
  6
CONTINUOUS
 10
-37.138254861
 20
10.0195764059
 11
-37.1479851702
 21
9.0748987474
  0
LINE
  5
3CF
100
AcDbEntity
  8
RACCORDO
100
AcDbLine
 62
7
  6
CONTINUOUS
 10
-37.6287188506
 20
9.6367826632
 11
-37.6480227795
 21
8.1589871659
  0
LINE
  5
3D0
100
AcDbEntity
  8
RACCORDO
100
AcDbLine
 62
250
  6
CONTINUOUS
 10
-37.1479851702
 20
9.0748987474
 11
-37.1611874732
 21
8.1507903191
  0
LINE
  5
3D1
100
AcDbEntity
  8
RACCORDO
100
AcDbLine
 62
250
  6
CONTINUOUS
 10
-36.8573559724
 20
-23.6698666749
 11
-36.8587410664
 21
-23.7652917487
  0
LINE
  5
3D2
100
AcDbEntity
  8
RACCORDO
100
AcDbLine
 62
7
  6
CONTINUOUS
 10
-37.6431955775
 20
8.4671654847
 11
-37.6649321673
 21
7.2532655593
  0
LINE
  5
3D3
100
AcDbEntity
  8
RACCORDO
100
AcDbLine
 62
250
  6
CONTINUOUS
 10
-37.1611874732
 20
8.1507903191
 11
-37.1781310756
 21
7.2427573697
  0
LINE
  5
3D4
100
AcDbEntity
  8
RACCORDO
100
AcDbLine
 62
7
  6
CONTINUOUS
 10
-37.6621728223
 20
7.3867943153
 11
-37.6749261223
 21
6.8039690989
  0
LWPOLYLINE
  5
3D5
100
AcDbEntity
  8
RACCORDO
100
AcDbPolyline
 62
250
  6
CONTINUOUS
 90
3
 70
0
 10
-37.1781310756
 20
7.2427573697
 10
-37.1992231676
 20
6.3440405278
 10
-37.2115116974
 20
5.8959628121
  0
LWPOLYLINE
  5
3D6
100
AcDbEntity
  8
RACCORDO
100
AcDbPolyline
 62
250
  6
CONTINUOUS
 90
3
 70
0
 10
-36.8539559281
 20
-23.5154762363
 10
-36.8552508773
 20
-23.5676998623
 10
-36.8573559724
 20
-23.6698666749
  0
LINE
  5
3D7
100
AcDbEntity
  8
DRAFT
100
AcDbLine
 62
7
  6
CONTINUOUS
 10
-34.8938180209
 20
8.2816012965
 11
-34.8521273319
 21
7.8050745408
  0
LWPOLYLINE
  5
3D8
100
AcDbEntity
  8
RACCORDO
100
AcDbPolyline
 62
250
  6
CONTINUOUS
 90
16
 70
0
 10
-32.8116240893
 20
3.3565437831
 10
-32.8130860234
 20
3.3848035151
 10
-32.8169184688
 20
3.4122225128
 10
-32.8231214254
 20
3.4388007762
 10
-32.8317598702
 20
3.4646650541
 10
-32.8427688262
 20
3.4896885977
 10
-32.8559533624
 20
3.513491161
 10
-32.871340991
 20
3.5361250157
 10
-32.8889041999
 20
3.5575378901
 10
-32.9083655214
 20
3.5771927227
 10
-32.9298142903
 20
3.5951009602
 10
-32.9531611719
 20
3.6112511558
 10
-32.9778606944
 20
3.6250719086
 10
-33.003731034
 20
3.6363727516
 10
-33.0309540145
 20
3.6453441517
 10
-33.059529636
 20
3.651986109
  0
LINE
  5
3D9
100
AcDbEntity
  8
DRAFT
100
AcDbLine
 62
7
  6
CONTINUOUS
 10
-32.9246942618
 20
-9.5801540534
 11
-32.9246942618
 21
-12.309696865
  0
LINE
  5
3DA
100
AcDbEntity
  8
RACCORDO
100
AcDbLine
 62
250
  6
CONTINUOUS
 10
-32.8116240893
 20
1.2536052985
 11
-32.8116240893
 21
3.3565437831
  0
LINE
  5
3DB
100
AcDbEntity
  8
RACCORDO
100
AcDbLine
 62
7
  6
CONTINUOUS
 10
-32.6133693964
 20
1.2536052985
 11
-32.6133693964
 21
3.3565437831
  0
LINE
  5
3DC
100
AcDbEntity
  8
RACCORDO
100
AcDbLine
 62
7
  6
CONTINUOUS
 10
-32.3133693964
 20
-10.0918036358
 11
-32.3133693964
 21
-11.7980472825
  0
LINE
  5
3DD
100
AcDbEntity
  8
RACCORDO
100
AcDbLine
 62
250
  6
CONTINUOUS
 10
-33.059529636
 20
0.9581629726
 11
-33.0424151319
 21
0.8597705885
  0
LWPOLYLINE
  5
3DE
100
AcDbEntity
  8
RACCORDO
100
AcDbPolyline
 62
250
  6
CONTINUOUS
 90
7
 70
0
 10
-33.0424151319
 20
0.8597705885
 10
-33.0326794431
 20
0.8020103944
 10
-33.0303440515
 20
0.7876898411
 10
-33.0285368821
 20
0.7762805447
 10
-33.0272888056
 20
0.7679773964
 10
-33.0266211423
 20
0.7629222303
 10
-33.0265453024
 20
0.7612014229
  0
LWPOLYLINE
  5
3DF
100
AcDbEntity
  8
RACCORDO
100
AcDbPolyline
 62
250
  6
CONTINUOUS
 90
5
 70
0
 10
-34.6223188565
 20
23.8894442795
 10
-34.6220528045
 20
23.8873031964
 10
-34.6218286291
 20
23.88092158
 10
-34.6216501658
 20
23.870408661
 10
-34.6215204675
 20
23.8559443428
  0
LWPOLYLINE
  5
3E0
100
AcDbEntity
  8
RACCORDO
100
AcDbPolyline
 62
250
  6
CONTINUOUS
 90
17
 70
0
 10
-34.0231726744
 20
25.3246578793
 10
-34.0237060638
 20
25.3276252388
 10
-34.037086264
 20
25.37525533
 10
-34.0547250773
 20
25.4217569953
 10
-34.0752838338
 20
25.4652045221
 10
-34.0989056991
 20
25.5051205445
 10
-34.1254475075
 20
25.5419824285
 10
-34.1531410917
 20
25.5752965593
 10
-34.181351491
 20
25.604526764
 10
-34.2107136661
 20
25.6302092155
 10
-34.2413643319
 20
25.6534588183
 10
-34.2729130471
 20
25.674550082
 10
-34.3057502531
 20
25.6932084971
 10
-34.3411839892
 20
25.7097254393
 10
-34.3796502685
 20
25.724198034
 10
-34.4207130779
 20
25.7365291559
 10
-34.4643724174
 20
25.746718805
  0
LINE
  5
3E1
100
AcDbEntity
  8
RACCORDO
100
AcDbLine
 62
250
  6
CONTINUOUS
 10
-34.4643724174
 20
24.2634302766
 11
-34.4555222902
 21
24.2125513483
  0
LINE
  5
3E2
100
AcDbEntity
  8
RACCORDO
100
AcDbLine
 62
250
  6
CONTINUOUS
 10
-34.4555222902
 20
24.2125513483
 11
-34.4475096636
 21
24.1651249959
  0
LWPOLYLINE
  5
3E3
100
AcDbEntity
  8
RACCORDO
100
AcDbPolyline
 62
250
  6
CONTINUOUS
 90
8
 70
0
 10
-34.4475096636
 20
24.1651249959
 10
-34.4408785482
 20
24.1243710865
 10
-34.4382263243
 20
24.1073841716
 10
-34.4360792305
 20
24.0930569001
 10
-34.4344738847
 20
24.0816336003
 10
-34.4334376614
 20
24.0733090492
 10
-34.4329882319
 20
24.0682251848
 10
-34.4331332678
 20
24.0664687252
  0
LWPOLYLINE
  5
3E4
100
AcDbEntity
  8
0
100
AcDbPolyline
 62
7
  6
CONTINUOUS
 90
10
 70
0
 43
0.3500000006
 10
-47.7799701691
 20
40.0859268951
 10
-47.7085435181
 20
39.9430690613
 10
-47.7085435181
 20
39.8716378784
 10
-47.8514013519
 20
39.7287845764
 10
-47.9228280029
 20
39.7287845764
 10
-47.9942546539
 20
39.8002112274
 10
-47.9942546539
 20
39.8716378784
 10
-47.9228280029
 20
40.0144957123
 10
-47.8514013519
 20
40.0859268951
 10
-47.7799701691
 20
40.0859268951
  0
LINE
  5
3E5
100
AcDbEntity
  8
RACCORDO
100
AcDbLine
 62
7
  6
CONTINUOUS
 10
-36.8539559281
 20
-24.0153048987
 11
-35.6133693964
 21
-24.0477908004
  0
LINE
  5
3E6
100
AcDbEntity
  8
RACCORDO
100
AcDbLine
 62
250
  6
CONTINUOUS
 10
-36.8539559281
 20
-23.5154762363
 11
-35.6133693964
 21
-23.5479621379
  0
LINE
  5
3E7
100
AcDbEntity
  8
RACCORDO
100
AcDbLine
 62
250
  6
CONTINUOUS
 10
-39.7962053992
 20
-22.8993472754
 11
-40.2165623379
 21
-22.8544651093
  0
LWPOLYLINE
  5
3E8
100
AcDbEntity
  8
RACCORDO
100
AcDbPolyline
 62
250
  6
CONTINUOUS
 90
5
 70
0
 10
-40.2165623379
 20
-22.8544651093
 10
-40.2643098311
 20
-22.8491192417
 10
-40.273242702
 20
-22.8480656542
 10
-40.2786018504
 20
-22.8473863089
 10
-40.2803778727
 20
-22.8470830438
  0
LWPOLYLINE
  5
3E9
100
AcDbEntity
  8
RACCORDO
100
AcDbPolyline
 62
250
  6
CONTINUOUS
 90
10
 70
0
 10
-36.9447074536
 20
-23.5047459836
 10
-36.9347364041
 20
-23.5067569053
 10
-36.9247351565
 20
-23.5085634875
 10
-36.914703711
 20
-23.5101657303
 10
-36.9046392878
 20
-23.5115640715
 10
-36.8945446666
 20
-23.5127580733
 10
-36.8844281862
 20
-23.513746422
 10
-36.8742926261
 20
-23.5145286798
 10
-36.8641352067
 20
-23.5151052846
 10
-36.8539559281
 20
-23.5154762363
  0
LINE
  5
3EA
100
AcDbEntity
  8
RACCORDO
100
AcDbLine
 62
7
  6
CONTINUOUS
 10
-39.8869569246
 20
-23.3884456852
 11
-37.035458979
 21
-23.9938443934
  0
LINE
  5
3EB
100
AcDbEntity
  8
RACCORDO
100
AcDbLine
 62
250
  6
CONTINUOUS
 10
-39.7962053992
 20
-22.8993472754
 11
-36.9447074536
 21
-23.5047459836
  0
LINE
  5
3EC
100
AcDbEntity
  8
DRAFT
100
AcDbLine
 62
7
  6
CONTINUOUS
 10
-35.6133693964
 20
-12.7449254592
 11
-34.4133693964
 21
-12.4898575852
  0
LINE
  5
3ED
100
AcDbEntity
  8
RACCORDO
100
AcDbLine
 62
7
  6
CONTINUOUS
 10
-32.769791525
 20
-12.2961446316
 11
-32.9246942618
 21
-12.309696865
  0
LINE
  5
3EE
100
AcDbEntity
  8
DRAFT
100
AcDbLine
 62
7
  6
CONTINUOUS
 10
-32.9246942618
 20
-12.309696865
 11
-35.6133693964
 21
-12.5449254592
  0
LINE
  5
3EF
100
AcDbEntity
  8
RACCORDO
100
AcDbLine
 62
250
  6
CONTINUOUS
 10
-35.5898027843
 20
-7.7955653469
 11
-35.6133693964
 21
-7.7951539902
  0
LINE
  5
3F0
100
AcDbEntity
  8
RACCORDO
100
AcDbLine
 62
7
  6
CONTINUOUS
 10
-35.6133693964
 20
-7.6945141025
 11
-35.5898027843
 21
-7.6949254592
  0
LINE
  5
3F1
100
AcDbEntity
  8
RACCORDO
100
AcDbLine
 62
250
  6
CONTINUOUS
 10
-35.6133693964
 20
-7.1945902549
 11
-35.5898027843
 21
-7.1950016116
  0
LINE
  5
3F2
100
AcDbEntity
  8
RACCORDO
100
AcDbLine
 62
7
  6
CONTINUOUS
 10
-32.769791525
 20
-9.5937062868
 11
-32.9246942618
 21
-9.5801540534
  0
LINE
  5
3F3
100
AcDbEntity
  8
DRAFT
100
AcDbLine
 62
7
  6
CONTINUOUS
 10
-32.9246942618
 20
-9.5801540534
 11
-35.6133693964
 21
-9.3449254592
  0
LINE
  5
3F4
100
AcDbEntity
  8
RACCORDO
100
AcDbLine
 62
250
  6
CONTINUOUS
 10
-38.228252004
 20
-7.9812672257
 11
-38.648016169
 21
-7.9364502715
  0
LWPOLYLINE
  5
3F5
100
AcDbEntity
  8
RACCORDO
100
AcDbPolyline
 62
250
  6
CONTINUOUS
 90
5
 70
0
 10
-38.648016169
 20
-7.9364502715
 10
-38.6889240408
 20
-7.9318914133
 10
-38.7019433672
 20
-7.9303860402
 10
-38.7098046129
 20
-7.929419821
 10
-38.7124244775
 20
-7.9290029941
  0
LINE
  5
3F6
100
AcDbEntity
  8
DRAFT
100
AcDbLine
 62
7
  6
CONTINUOUS
 10
-35.6133693964
 20
-9.1449254592
 11
-34.4133693964
 21
-9.3999933332
  0
LINE
  5
3F7
100
AcDbEntity
  8
RACCORDO
100
AcDbLine
 62
250
  6
CONTINUOUS
 10
-35.6133693964
 20
-5.1952606635
 11
-35.5898027843
 21
-5.1948493068
  0
LINE
  5
3F8
100
AcDbEntity
  8
RACCORDO
100
AcDbLine
 62
7
  6
CONTINUOUS
 10
-35.6133693964
 20
-4.6953368159
 11
-35.5898027843
 21
-4.6949254592
  0
LINE
  5
3F9
100
AcDbEntity
  8
RACCORDO
100
AcDbLine
 62
250
  6
CONTINUOUS
 10
-35.6133693964
 20
-4.5960071634
 11
-35.5898027843
 21
-4.5955958066
  0
LINE
  5
3FA
100
AcDbEntity
  8
DRAFT
100
AcDbLine
 62
7
  6
CONTINUOUS
 10
-34.5560685319
 20
-3.3949254592
 11
-35.0683693964
 21
-3.3949254592
  0
LINE
  5
3FB
100
AcDbEntity
  8
IMPORT_IGES
100
AcDbLine
 62
7
  6
CONTINUOUS
 10
-34.9023716388
 20
5.8977417967
 11
-34.5390694083
 21
5.6776124171
  0
LINE
  5
3FC
100
AcDbEntity
  8
RACCORDO
100
AcDbLine
 62
250
  6
CONTINUOUS
 10
-34.4477237951
 20
23.5662400133
 11
-34.2344110672
 21
23.3529272854
  0
LINE
  5
3FD
100
AcDbEntity
  8
RACCORDO
100
AcDbLine
 62
7
  6
CONTINUOUS
 10
-34.2731287337
 20
23.7430167086
 11
-34.0598160058
 21
23.5297039807
  0
LWPOLYLINE
  5
3FE
100
AcDbEntity
  8
RACCORDO
100
AcDbPolyline
 62
250
  6
CONTINUOUS
 90
10
 70
0
 10
-34.2344110672
 20
23.3529272854
 10
-34.2202637594
 20
23.3376835312
 10
-34.2075201514
 20
23.3212782446
 10
-34.1961802434
 20
23.3037114255
 10
-34.18611184
 20
23.2849003976
 10
-34.1774471365
 20
23.2649278374
 10
-34.1705827185
 20
23.2440417736
 10
-34.1656507811
 20
23.2223248826
 10
-34.1625191291
 20
23.1996944881
 10
-34.1611877625
 20
23.1761505901
  0
LINE
  5
3FF
100
AcDbEntity
  8
RACCORDO
100
AcDbLine
 62
7
  6
CONTINUOUS
 10
-34.9866726
 20
5.3142410106
 11
-35.0953410117
 21
5.287947744
  0
LWPOLYLINE
  5
400
100
AcDbEntity
  8
RACCORDO
100
AcDbPolyline
 62
7
  6
CONTINUOUS
 90
3
 70
0
 10
-35.0953410117
 20
5.287947744
 10
-35.3145536429
 20
5.236260376
 10
-35.3234279056
 20
5.234129349
  0
LWPOLYLINE
  5
401
100
AcDbEntity
  8
RACCORDO
100
AcDbPolyline
 62
250
  6
CONTINUOUS
 90
19
 70
0
 10
-33.059529636
 20
0.9581629726
 10
-33.0329756318
 20
0.9642950902
 10
-33.007683283
 20
0.9723304889
 10
-32.9836525896
 20
0.9822691689
 10
-32.9606779622
 20
0.9944118006
 10
-32.9389649901
 20
1.0084577136
 10
-32.9191304411
 20
1.0235048956
 10
-32.9014190087
 20
1.0394832353
 10
-32.8855859993
 20
1.056462844
 10
-32.8715141004
 20
1.0737520438
 10
-32.8593217572
 20
1.0910321609
 10
-32.8488905244
 20
1.1086218692
 10
-32.8397477538
 20
1.1267855121
 10
-32.8317129126
 20
1.145416515
 10
-32.8249665336
 20
1.1646214526
 10
-32.8195775668
 20
1.184984393
 10
-32.8155689954
 20
1.2067000254
 10
-32.8129178363
 20
1.2295736606
 10
-32.8116240893
 20
1.2536052985
  0
LWPOLYLINE
  5
402
100
AcDbEntity
  8
RACCORDO
100
AcDbPolyline
 62
7
  6
CONTINUOUS
 90
6
 70
0
 10
-35.3234279056
 20
5.234129349
 10
-35.339681931
 20
5.2304060188
 10
-35.3462879748
 20
5.2286763933
 10
-35.3514639899
 20
5.2271329931
 10
-35.3554069509
 20
5.2260579339
 10
-35.3581097275
 20
5.2256884346
  0
LWPOLYLINE
  5
403
100
AcDbEntity
  8
RACCORDO
100
AcDbPolyline
 62
7
  6
CONTINUOUS
 90
7
 70
0
 10
-35.3469838134
 20
4.4703714865
 10
-35.5799398492
 20
4.4206553226
 10
-35.5885457601
 20
4.4187827656
 10
-35.5964291011
 20
4.4171147123
 10
-35.603501995
 20
4.4156507958
 10
-35.6093028386
 20
4.4142803769
 10
-35.6133693964
 20
4.4131770951
  0
LINE
  5
404
100
AcDbEntity
  8
RACCORDO
100
AcDbLine
 62
7
  6
CONTINUOUS
 10
-34.9728138667
 20
5.9211860656
 11
-35.0839652201
 21
5.8993433968
  0
LWPOLYLINE
  5
405
100
AcDbEntity
  8
RACCORDO
100
AcDbPolyline
 62
7
  6
CONTINUOUS
 90
3
 70
0
 10
-35.0839652201
 20
5.8993433968
 10
-35.3083121016
 20
5.8566534658
 10
-35.3174316276
 20
5.8548822087
  0
LWPOLYLINE
  5
406
100
AcDbEntity
  8
RACCORDO
100
AcDbPolyline
 62
7
  6
CONTINUOUS
 90
6
 70
0
 10
-35.3174316276
 20
5.8548822087
 10
-35.3341768614
 20
5.8518147771
 10
-35.341015023
 20
5.8503431051
 10
-35.3464010572
 20
5.8489952299
 10
-35.3505248286
 20
5.8480689191
 10
-35.3533693964
 20
5.8478078186
  0
LINE
  5
407
100
AcDbEntity
  8
RACCORDO
100
AcDbLine
 62
7
  6
CONTINUOUS
 10
-35.6133693964
 20
0.3050745408
 11
-33.0265453076
 21
0.761201422
  0
LINE
  5
408
100
AcDbEntity
  8
RACCORDO
100
AcDbLine
 62
250
  6
CONTINUOUS
 10
-35.6133693964
 20
0.5078521185
 11
-33.059529636
 21
0.9581629726
  0
LINE
  5
409
100
AcDbEntity
  8
RACCORDO
100
AcDbLine
 62
250
  6
CONTINUOUS
 10
-32.8116240893
 20
1.2536052985
 11
-32.6133693964
 21
1.2536052985
  0
LINE
  5
40A
100
AcDbEntity
  8
RACCORDO
100
AcDbLine
 62
250
  6
CONTINUOUS
 10
-32.8116240893
 20
3.3565437831
 11
-32.6133693964
 21
3.3565437831
  0
LINE
  5
40B
100
AcDbEntity
  8
RACCORDO
100
AcDbLine
 62
7
  6
CONTINUOUS
 10
-35.6133693964
 20
5.2340029453
 11
-35.3581094639
 21
5.225688426
  0
LINE
  5
40C
100
AcDbEntity
  8
RACCORDO
100
AcDbLine
 62
250
  6
CONTINUOUS
 10
-35.6133693964
 20
4.5129896856
 11
-35.3469838134
 21
4.4703714865
  0
LINE
  5
40D
100
AcDbEntity
  8
RACCORDO
100
AcDbLine
 62
250
  6
CONTINUOUS
 10
-33.059529636
 20
3.651986109
 11
-35.6133693964
 21
4.1022969632
  0
LINE
  5
40E
100
AcDbEntity
  8
RACCORDO
100
AcDbLine
 62
7
  6
CONTINUOUS
 10
-33.0265453076
 20
3.8489476596
 11
-35.6133693964
 21
4.3050745408
  0
LINE
  5
40F
100
AcDbEntity
  8
0
100
AcDbLine
 62
7
  6
CONTINUOUS
 10
-34.8521273319
 20
7.8050745408
 11
-34.6521273319
 21
7.8050745408
  0
LINE
  5
410
100
AcDbEntity
  8
RACCORDO
100
AcDbLine
 62
250
  6
CONTINUOUS
 10
-35.6133693964
 20
5.334654252
 11
-34.9866726
 21
5.3142410106
  0
LWPOLYLINE
  5
411
100
AcDbEntity
  8
DRAFT
100
AcDbPolyline
 62
7
  6
CONTINUOUS
 90
25
 70
0
 10
-34.2265453076
 20
8.9638779684
 10
-34.1979855399
 20
8.9624932603
 10
-34.1698098672
 20
8.9614628378
 10
-34.1421145952
 20
8.9607867008
 10
-34.1149898267
 20
8.9604698709
 10
-34.0885335204
 20
8.9605073266
 10
-34.0628499002
 20
8.9608840027
 10
-34.0380266803
 20
8.9616051644
 10
-34.0141471128
 20
8.9626655465
 10
-33.9913017588
 20
8.9640342877
 10
-33.9695678646
 20
8.9657151282
 10
-33.9490151661
 20
8.9677043277
 10
-33.9297148849
 20
8.9699598037
 10
-33.9117317781
 20
8.972483312
 10
-33.8951199543
 20
8.9752730968
 10
-33.8799279459
 20
8.9782818089
 10
-33.866204941
 20
8.9815099474
 10
-33.8539935661
 20
8.9849570131
 10
-33.8433279032
 20
8.9885741591
 10
-33.8342433742
 20
8.9923607748
 10
-33.8267687975
 20
8.9963174707
 10
-33.8209252291
 20
9.0003972316
 10
-33.8167336355
 20
9.0045843858
 10
-33.8142115093
 20
9.0088946048
 10
-33.8133693964
 20
9.0133278889
  0
LINE
  5
412
100
AcDbEntity
  8
RACCORDO
100
AcDbLine
 62
7
  6
CONTINUOUS
 10
-35.6133693964
 20
5.8665348071
 11
-35.3533697028
 21
5.8478078407
  0
LINE
  5
413
100
AcDbEntity
  8
RACCORDO
100
AcDbLine
 62
250
  6
CONTINUOUS
 10
-35.6133693964
 20
5.9673232812
 11
-34.9728138667
 21
5.9211860656
  0
LINE
  5
414
100
AcDbEntity
  8
DRAFT
100
AcDbLine
 62
7
  6
CONTINUOUS
 10
-35.6133693964
 20
9.3050745408
 11
-33.8133693964
 21
9.1475949465
  0
LINE
  5
415
100
AcDbEntity
  8
RACCORDO
100
AcDbLine
 62
7
  6
CONTINUOUS
 10
-35.6133693964
 20
6.4715802791
 11
-35.1518992019
 21
6.42180222
  0
LINE
  5
416
100
AcDbEntity
  8
RACCORDO
100
AcDbLine
 62
7
  6
CONTINUOUS
 10
-35.6133693964
 20
7.0579456581
 11
-35.3533693964
 21
7.0218563788
  0
LINE
  5
417
100
AcDbEntity
  8
RACCORDO
100
AcDbLine
 62
250
  6
CONTINUOUS
 10
-35.6133693964
 20
7.2364306753
 11
-35.0017234584
 21
7.1511448293
  0
LINE
  5
418
100
AcDbEntity
  8
RACCORDO
100
AcDbLine
 62
250
  6
CONTINUOUS
 10
-37.1264578705
 20
13.0422172357
 11
-37.6133693964
 21
13.0422172357
  0
LWPOLYLINE
  5
419
100
AcDbEntity
  8
RACCORDO
100
AcDbPolyline
 62
250
  6
CONTINUOUS
 90
34
 70
0
 10
-34.4643724174
 20
24.2634302766
 10
-34.4152782449
 20
24.274541479
 10
-34.3681437368
 20
24.2896361022
 10
-34.322968893
 20
24.3087141461
 10
-34.2794409324
 20
24.3319882725
 10
-34.2378726361
 20
24.3592458197
 10
-34.1992023475
 20
24.3898488027
 10
-34.1634788071
 20
24.4238840847
 10
-34.1306532744
 20
24.4612648024
 10
-34.101517871
 20
24.5010923813
 10
-34.0761635487
 20
24.5434285806
 10
-34.0544993557
 20
24.5882116411
 10
-34.037044559
 20
24.6343577108
 10
-34.0238998611
 20
24.6818782602
 10
-34.0149645595
 20
24.7307618187
 10
-34.0104558131
 20
24.7798901222
 10
-34.0105019888
 20
24.8293481397
 10
-34.0149747197
 20
24.8790509022
 10
-34.0237060638
 20
24.9276252388
 10
-34.037086264
 20
24.97525533
 10
-34.0547250773
 20
25.0217569953
 10
-34.0752838338
 20
25.0652045221
 10
-34.0989056991
 20
25.1051205445
 10
-34.1254475075
 20
25.1419824285
 10
-34.1531410917
 20
25.1752965593
 10
-34.181351491
 20
25.204526764
 10
-34.2107136661
 20
25.2302092155
 10
-34.2413643319
 20
25.2534588183
 10
-34.2729130471
 20
25.274550082
 10
-34.3057502531
 20
25.2932084971
 10
-34.3411839892
 20
25.3097254393
 10
-34.3796502685
 20
25.324198034
 10
-34.4207130779
 20
25.3365291559
 10
-34.4643724174
 20
25.346718805
  0
LINE
  5
41A
100
AcDbEntity
  8
RACCORDO
100
AcDbLine
 62
7
  6
CONTINUOUS
 10
-35.6133693964
 20
23.8583612521
 11
-34.4331332631
 21
24.066468726
  0
LINE
  5
41B
100
AcDbEntity
  8
RACCORDO
100
AcDbLine
 62
250
  6
CONTINUOUS
 10
-35.6133693964
 20
24.0608311085
 11
-34.4643724174
 21
24.2634302766
  0
LINE
  5
41C
100
AcDbEntity
  8
RACCORDO
100
AcDbLine
 62
250
  6
CONTINUOUS
 10
-35.6133693964
 20
28.1581112195
 11
-37.1264578705
 21
28.1184896034
  0
LINE
  5
41D
100
AcDbEntity
  8
RACCORDO
100
AcDbLine
 62
7
  6
CONTINUOUS
 10
-35.6133693964
 20
28.657939882
 11
-37.1264578705
 21
28.6183182659
  0
LINE
  5
41E
100
AcDbEntity
  8
RACCORDO
100
AcDbLine
 62
7
  6
CONTINUOUS
 10
-35.6133693964
 20
24.5190385927
 11
-34.8657070814
 21
24.532089087
  0
LINE
  5
41F
100
AcDbEntity
  8
RACCORDO
100
AcDbLine
 62
250
  6
CONTINUOUS
 10
-35.6133693964
 20
24.7166005394
 11
-34.581392114
 21
24.7346137699
  0
LINE
  5
420
100
AcDbEntity
  8
RACCORDO
100
AcDbLine
 62
7
  6
CONTINUOUS
 10
-34.0620604161
 20
22.1255941034
 11
-35.6133693964
 21
22.112056035
  0
LINE
  5
421
100
AcDbEntity
  8
RACCORDO
100
AcDbLine
 62
250
  6
CONTINUOUS
 10
-33.9133693964
 20
23.1761505901
 11
-34.1611877625
 21
23.1761505901
  0
LINE
  5
422
100
AcDbEntity
  8
RACCORDO
100
AcDbLine
 62
250
  6
CONTINUOUS
 10
-37.1264578705
 20
28.1184896034
 11
-37.6133693964
 21
28.1184896034
  0
LWPOLYLINE
  5
423
100
AcDbEntity
  8
0
100
AcDbPolyline
 62
7
  6
CONTINUOUS
 90
3
 70
0
 43
0.3500000006
 10
-49.2799706268
 20
40.228784729
 10
-50.7799710846
 20
40.228784729
 10
-50.1371130981
 20
42.5859276581
  0
LINE
  5
424
100
AcDbEntity
  8
RACCORDO
100
AcDbLine
 62
7
  6
CONTINUOUS
 10
-35.6133693964
 20
22.6941981928
 11
-34.1611877625
 21
22.6901565592
  0
LINE
  5
425
100
AcDbEntity
  8
RACCORDO
100
AcDbLine
 62
250
  6
CONTINUOUS
 10
-34.0620604161
 20
22.4089847462
 11
-35.6133693964
 21
22.4168226114
  0
LINE
  5
426
100
AcDbEntity
  8
RACCORDO
100
AcDbLine
 62
250
  6
CONTINUOUS
 10
-35.6133693964
 20
23.6481025658
 11
-34.6223188565
 21
23.6394537988
  0
LINE
  5
427
100
AcDbEntity
  8
RACCORDO
100
AcDbLine
 62
7
  6
CONTINUOUS
 10
-35.3986654346
 20
23.8962193535
 11
-34.6223188565
 21
23.8894442795
  0
LINE
  5
428
100
AcDbEntity
  8
RACCORDO
100
AcDbLine
 62
250
  6
CONTINUOUS
 10
-34.581392114
 20
24.8755353117
 11
-35.6133693964
 21
24.8935485422
  0
LINE
  5
429
100
AcDbEntity
  8
RACCORDO
100
AcDbLine
 62
7
  6
CONTINUOUS
 10
-34.8657070814
 20
25.0780599946
 11
-35.6133693964
 21
25.0911104889
  0
LWPOLYLINE
  5
42A
100
AcDbEntity
  8
RACCORDO
100
AcDbPolyline
 62
250
  6
CONTINUOUS
 90
13
 70
0
 10
-34.0620604161
 20
22.4089847462
 10
-34.0426014582
 20
22.4081516742
 10
-34.0234939139
 20
22.405863296
 10
-34.0050611009
 20
22.4021583332
 10
-33.9876149202
 20
22.3970994774
 10
-33.9714505778
 20
22.3907723292
 10
-33.95684159
 20
22.3832839501
 10
-33.9440351549
 20
22.3747610506
 10
-33.9332479696
 20
22.3653478463
 10
-33.9246625636
 20
22.3552036177
 10
-33.9184242102
 20
22.3445000148
 10
-33.9146384683
 20
22.3334181529
 10
-33.9133693964
 20
22.3221455477
  0
LWPOLYLINE
  5
42B
100
AcDbEntity
  8
RACCORDO
100
AcDbPolyline
 62
250
  6
CONTINUOUS
 90
13
 70
0
 10
-34.6223188565
 20
23.6394537988
 10
-34.6047217049
 20
23.6384892669
 10
-34.5878702388
 20
23.6366172833
 10
-34.5717644582
 20
23.633837848
 10
-34.5565284468
 20
23.6301347465
 10
-34.5420381209
 20
23.6255241933
 10
-34.5279212289
 20
23.6200548319
 10
-34.5141497497
 20
23.6138562458
 10
-34.5007517045
 20
23.6067988516
 10
-34.4874389052
 20
23.5985425419
 10
-34.4741152892
 20
23.5889739478
 10
-34.4608769192
 20
23.5782064382
 10
-34.4477237951
 20
23.5662400133
  0
LINE
  5
42C
100
AcDbEntity
  8
RACCORDO
100
AcDbLine
 62
250
  6
CONTINUOUS
 10
-34.4643724174
 20
25.346718805
 11
-35.6133693964
 21
25.5493179731
  0
LINE
  5
42D
100
AcDbEntity
  8
RACCORDO
100
AcDbLine
 62
7
  6
CONTINUOUS
 10
-34.4331332631
 20
25.5436803556
 11
-35.6133693964
 21
25.7517878295
  0
LINE
  5
42E
100
AcDbEntity
  8
RACCORDO
100
AcDbLine
 62
250
  6
CONTINUOUS
 10
-34.4643724174
 20
25.746718805
 11
-35.6133693964
 21
25.9493179731
  0
LINE
  5
42F
100
AcDbEntity
  8
RACCORDO
100
AcDbLine
 62
7
  6
CONTINUOUS
 10
-34.4331332631
 20
25.9436803556
 11
-35.6133693964
 21
26.1517878295
  0
LWPOLYLINE
  5
430
100
AcDbEntity
  8
0
100
AcDbPolyline
 62
7
  6
CONTINUOUS
 90
13
 70
0
 43
0.3500000006
 10
-46.247594101
 20
49.3002095947
 10
-46.5333097687
 20
49.5144986115
 10
-46.5333097687
 20
50.157352066
 10
-46.247594101
 20
50.5859255676
 10
-45.6047361145
 20
50.5859255676
 10
-45.3190249786
 20
50.157352066
 10
-45.3190249786
 20
49.5144986115
 10
-45.6047361145
 20
49.3002095947
 10
-45.1761671448
 20
48.871640625
 10
-45.1761671448
 20
48.0144981537
 10
-45.6047361145
 20
47.5859246521
 10
-46.247594101
 20
47.5859246521
 10
-46.6761676025
 20
48.0144981537
  0
ARC
  5
431
100
AcDbEntity
  8
0
100
AcDbCircle
 62
7
  6
CONTINUOUS
 10
11.3422443423
 20
-11.2766597646
 40
0.1040011461
100
AcDbArc
 50
9.9942650217
 51
100.002610229
  0
ARC
  5
432
100
AcDbEntity
  8
RACCORDO
100
AcDbCircle
 62
7
  6
CONTINUOUS
 10
-36.8277789798
 20
-23.0156475738
 40
1.0
100
AcDbArc
 50
258.0135711831
 51
268.5
  0
ARC
  5
433
100
AcDbEntity
  8
RACCORDO
100
AcDbCircle
 62
7
  6
CONTINUOUS
 10
-39.7831169251
 20
-22.8993472754
 40
0.5
100
AcDbArc
 50
174.0
 51
258.0135711831
  0
ARC
  5
434
100
AcDbEntity
  8
RACCORDO
100
AcDbCircle
 62
7
  6
CONTINUOUS
 10
-37.1133693964
 20
28.1184896034
 40
0.5
100
AcDbArc
 50
91.5
 51
180.0
  0
ARC
  5
435
100
AcDbEntity
  8
RACCORDO
100
AcDbCircle
 62
7
  6
CONTINUOUS
 10
-32.8133693964
 20
-11.7980472825
 40
0.5
100
AcDbArc
 50
275.0
 51
360.0
  0
ARC
  5
436
100
AcDbEntity
  8
RACCORDO
100
AcDbCircle
 62
7
  6
CONTINUOUS
 10
-32.8133693964
 20
-10.0918036358
 40
0.5
100
AcDbArc
 50
0.0
 51
85.0
  0
ARC
  5
437
100
AcDbEntity
  8
RACCORDO
100
AcDbCircle
 62
7
  6
CONTINUOUS
 10
-33.1133693964
 20
1.2536052985
 40
0.5
100
AcDbArc
 50
280.0
 51
360.0
  0
ARC
  5
438
100
AcDbEntity
  8
RACCORDO
100
AcDbCircle
 62
7
  6
CONTINUOUS
 10
-34.5633693964
 20
25.2050745408
 40
0.75
100
AcDbArc
 50
344.5174200701
 51
80.0
  0
ARC
  5
439
100
AcDbEntity
  8
RACCORDO
100
AcDbCircle
 62
7
  6
CONTINUOUS
 10
-34.5633693964
 20
24.8050745408
 40
0.75
100
AcDbArc
 50
280.0
 51
80.0
  0
ARC
  5
43A
100
AcDbEntity
  8
RACCORDO
100
AcDbCircle
 62
7
  6
CONTINUOUS
 10
-34.6266821243
 20
23.389463318
 40
0.5
100
AcDbArc
 50
45.0008005983
 51
89.5
  0
ARC
  5
43B
100
AcDbEntity
  8
RACCORDO
100
AcDbCircle
 62
7
  6
CONTINUOUS
 10
-34.4133693964
 20
23.1761505901
 40
0.5
100
AcDbArc
 50
0.0
 51
45.0
  0
ARC
  5
43C
100
AcDbEntity
  8
RACCORDO
100
AcDbCircle
 62
7
  6
CONTINUOUS
 10
-33.1133693964
 20
3.3565437831
 40
0.5
100
AcDbArc
 50
0.0
 51
80.0
  0
ARC
  5
43D
100
AcDbEntity
  8
RACCORDO
100
AcDbCircle
 62
7
  6
CONTINUOUS
 10
-34.0633693964
 20
22.2755883919
 40
0.15
100
AcDbArc
 50
270.5
 51
360.0
  0
ARC
  5
43E
100
AcDbEntity
  8
RACCORDO
100
AcDbCircle
 62
7
  6
CONTINUOUS
 10
-34.5651994776
 20
5.6349835598
 40
0.05
100
AcDbArc
 50
0.0
 51
58.4930902702
  0
ELLIPSE
  5
43F
100
AcDbEntity
  8
RACCORDO
100
AcDbEllipse
 62
7
  6
CONTINUOUS
 10
29.1582372221
 20
-23.5476194041
 30
0.0
 11
-0.35379574
 21
0.35379574
 31
0.0
 40
0.999315002
 41
-3.9266482006
 42
-2.3565371065
  0
ELLIPSE
  5
440
100
AcDbEntity
  8
RACCORDO
100
AcDbEllipse
 62
7
  6
CONTINUOUS
 10
29.1582372221
 20
28.1577684857
 30
0.0
 11
0.35379574
 21
0.35379574
 31
0.0
 40
0.999315002
 41
-0.7850555471
 42
0.7850555471
  0
ELLIPSE
  5
441
100
AcDbEntity
  8
RACCORDO
100
AcDbEllipse
 62
7
  6
CONTINUOUS
 10
-14.4471506678
 20
28.1577684857
 30
0.0
 11
0.35379574
 21
-0.35379574
 31
0.0
 40
0.999315002
 41
2.3565371065
 42
3.9266482006
  0
ELLIPSE
  5
442
100
AcDbEntity
  8
RACCORDO
100
AcDbEllipse
 62
7
  6
CONTINUOUS
 10
-14.4471506678
 20
-23.5476194041
 30
0.0
 11
0.35379574
 21
0.35379574
 31
0.0
 40
0.999315002
 41
-3.9266482006
 42
-2.3565371065
  0
ELLIPSE
  5
443
100
AcDbEntity
  8
DRAFT
100
AcDbEllipse
 62
7
  6
CONTINUOUS
 10
-15.0455958967
 20
-2.4949254592
 30
0.0
 11
64.5459301196
 21
0.0
 31
0.0
 40
0.1754608926
 41
1.8725210415
 42
1.8951047095
  0
ELLIPSE
  5
444
100
AcDbEntity
  8
RACCORDO
100
AcDbEllipse
 62
7
  6
CONTINUOUS
 10
-34.8692595716
 20
24.7320575437
 30
0.0
 11
0.2878469909
 21
0.0049410995
 31
0.0
 40
0.6947112101
 41
-1.5703799483
 42
-0.0119246497
  0
ELLIPSE
  5
445
100
AcDbEntity
  8
RACCORDO
100
AcDbEllipse
 62
7
  6
CONTINUOUS
 10
-34.8692595716
 20
24.8780915379
 30
0.0
 11
0.2878469909
 21
-0.0049410995
 31
0.0
 40
0.6947112101
 41
0.0119246497
 42
1.5703799483
  0
ELLIPSE
  5
446
100
AcDbEntity
  8
0
100
AcDbEllipse
 62
7
  6
CONTINUOUS
 10
-60.8533892684
 20
-2.4949254592
 30
0.0
 11
79.4445384914
 21
0.0
 31
0.0
 40
0.153091273
 41
1.2290184413
 42
1.2474869946
  0
ELLIPSE
  5
447
100
AcDbEntity
  8
RACCORDO
100
AcDbEllipse
 62
7
  6
CONTINUOUS
 10
-34.1633693964
 20
23.0422629942
 30
0.0
 11
-0.0053940468
 21
0.3520863007
 31
0.0
 40
0.7098878919
 41
-3.154443869
 42
-2.7459336397
  0
ENDSEC
  0
SECTION
  2
OBJECTS
  0
DICTIONARY
  5
C
100
AcDbDictionary
280
0
281
1
  3
ACAD_GROUP
350
D
  3
ACAD_MLINESTYLE
350
17
  3
ACAD_LAYOUT
350
1A
  3
ACAD_PLOTSETTINGS
350
19
  3
ACAD_PLOTSTYLENAME
350
E
  0
DICTIONARY
  5
D
102
{ACAD_REACTORS
330
C
102
}
100
AcDbDictionary
280
0
281
1
  0
ACDBDICTIONARYWDFLT
  5
E
102
{ACAD_REACTORS
330
C
102
}
100
AcDbDictionary
281
1
  3
Normal
350
F
100
AcDbDictionaryWithDefault
340
F
  0
DICTIONARY
  5
17
102
{ACAD_REACTORS
330
C
102
}
100
AcDbDictionary
280
0
281
1
  3
Standard
350
18
  0
DICTIONARY
  5
19
102
{ACAD_REACTORS
330
C
102
}
100
AcDbDictionary
281
1
  0
DICTIONARY
  5
1A
102
{ACAD_REACTORS
330
C
102
}
100
AcDbDictionary
281
1
  3
Model
350
448
  3
Layout1
350
449
  0
ACDBPLACEHOLDER
  5
F
102
{ACAD_REACTORS
330
E
102
}
  0
MLINESTYLE
  5
18
102
{ACAD_REACTORS
330
17
102
}
100
AcDbMlineStyle
  2
STANDARD
 70
0
  3

 62
256
 51
90.0
 52
90.0
 71
2
 49
0.5
 62
256
  6
BYLAYER
 49
-0.5
 62
256
  6
BYLAYER
  0
LAYOUT
  5
448
102
{ACAD_REACTORS
330
1A
102
}
100
AcDbPlotSettings
  1

  2
none_device
  4
ISO_A4_(297.00_x_210.00_MM)
  6

 40
0.0
 41
0.0
 42
0.0
 43
0.0
 44
297.0
 45
210.0
 46
0.0
 47
0.0
 48
0.0
 49
0.0
140
0.0
141
0.0
142
1.0
143
1.0
 70
1024
 72
1
 73
0
 74
0
  7

 75
0
147
1.0
148
0.0
149
0.0
100
AcDbLayout
  1
Model
 70
0
 71
0
 10
0.0
 20
0.0
 11
297.0
 21
210.0
 12
0.0
 22
0.0
 32
0.0
 14
0.0
 24
0.0
 34
0.0
 15
0.0
 25
0.0
 35
0.0
146
0.0
 13
0.0
 23
0.0
 33
0.0
 16
1.0
 26
0.0
 36
0.0
 17
0.0
 27
1.0
 37
0.0
 76
0
330
21D
345
0
346
0
  0
LAYOUT
  5
449
102
{ACAD_REACTORS
330
1A
102
}
100
AcDbPlotSettings
  1

  2
none_device
  4
ISO_A4_(297.00_x_210.00_MM)
  6

 40
0.0
 41
0.0
 42
0.0
 43
0.0
 44
297.0
 45
210.0
 46
0.0
 47
0.0
 48
0.0
 49
0.0
140
0.0
141
0.0
142
1.0
143
1.0
 70
0
 72
1
 73
0
 74
0
  7

 75
0
147
1.0
148
0.0
149
0.0
100
AcDbLayout
  1
Layout1
 70
0
 71
1
 10
0.0
 20
0.0
 11
297.0
 21
210.0
 12
0.0
 22
0.0
 32
0.0
 14
0.0
 24
0.0
 34
0.0
 15
0.0
 25
0.0
 35
0.0
146
0.0
 13
0.0
 23
0.0
 33
0.0
 16
1.0
 26
0.0
 36
0.0
 17
0.0
 27
1.0
 37
0.0
 76
0
330
21E
345
0
346
0
  0
ENDSEC
  0
EOF
