  0
SECTION
  2
HEADER
  9
$ACADVER
  1
AC1024
  9
$DWGCODEPAGE
  3
ANSI_1252
  9
$EXTMAX
 10
297.0
 20
210.0
 30
0.0
  9
$EXTMIN
 10
0.0
 20
0.0
 30
0.0
  9
$LIMMIN
 10
0.0
 20
0.0
  9
$LIMMAX
 10
297.0
 20
210.0
  9
$VIEWCTR
 10
148.5
 20
105.0
  9
$VIEWSIZE
 40
210.0
  9
$CLAYER
  8
0
  9
$LTSCALE
 40
16.335
  9
$CELTYPE
  6
BYLAYER
  9
$DIMSCALE
 40
1.0
  9
$DIMASZ
 40
3.0
  9
$DIMEXO
 40
0.5
  9
$DIMDLI
 40
11.286
  9
$DIMEXE
 40
1.5
  9
$DIMCEN
 40
2.673
  9
$DIMLFAC
 40
1.0
  9
$DIMBLK
  1
_FILLED
  9
$DIMALT
 70
0
  9
$DIMALTF
 40
0.0393700787
  9
$DIMTXT
 40
3.0
  9
$DIMTOL
 70
1
  9
$DIMLIM
 70
0
  9
$DIMTFAC
 40
1.0
  9
$DIMTP
 40
0.01
  9
$DIMTM
 40
0.01
  9
$DIMGAP
 40
0.625
  9
$DIMDSEP
 70
44
  9
$AUNITS
 70
0
  9
$PDMODE
 70
3
  9
$PDSIZE
 40
3.0
  9
$HANDSEED
  5
3BD
  9
$TILEMODE
 70
1
  9
$MEASUREMENT
 70
1
  9
$INSUNITS
 70
4
  0
ENDSEC
  0
SECTION
  2
CLASSES
  0
CLASS
  1
ACDBDICTIONARYWDFLT
  2
AcDbDictionaryWithDefault
  3
AutoCAD 2000
 90
0
 91
1
280
0
281
0
  0
CLASS
  1
ACDBPLACEHOLDER
  2
AcDbPlaceHolder
  3
AutoCAD 2000
 90
0
 91
1
280
0
281
0
  0
CLASS
  1
LAYOUT
  2
AcDbLayout
  3
AutoCAD 2000
 90
0
 91
0
280
0
281
0
  0
ENDSEC
  0
SECTION
  2
TABLES
  0
TABLE
  2
VPORT
  5
8
100
AcDbSymbolTable
 70
2
  0
VPORT
  5
1F4
100
AcDbSymbolTableRecord
100
AcDbViewportTableRecord
  2
*ACTIVE
 70
0
 10
0.0
 20
0.0
 11
1.0
 21
1.0
 12
148.5
 22
105.0
 13
0.0
 23
0.0
 14
1.0
 24
1.0
 15
0.0
 25
0.0
 16
0.0
 26
0.0
 36
1.0
 17
0.0
 27
0.0
 37
0.0
 40
210.0
 41
1.4142857143
 42
50.0
 43
0.0
 44
0.0
 50
0.0
 51
0.0
 71
0
 72
100
 73
1
 74
1
 75
0
 76
0
 77
0
 78
0
  0
ENDTAB
  0
TABLE
  2
LTYPE
  5
5
100
AcDbSymbolTable
 70
6
  0
LTYPE
  5
14
100
AcDbSymbolTableRecord
100
AcDbLinetypeTableRecord
  2
BYBLOCK
 70
0
  3

 72
65
 73
0
 40
0.0
  0
LTYPE
  5
15
100
AcDbSymbolTableRecord
100
AcDbLinetypeTableRecord
  2
BYLAYER
 70
0
  3

 72
65
 73
0
 40
0.0
  0
LTYPE
  5
16
100
AcDbSymbolTableRecord
100
AcDbLinetypeTableRecord
  2
CONTINUOUS
 70
64
  3
Solid line
 72
65
 73
0
 40
0.0
  0
LTYPE
  5
1F5
100
AcDbSymbolTableRecord
100
AcDbLinetypeTableRecord
  2
CENTER
 70
64
  3
____ _ ____ _ ____ _ ____ _ ____ _ ____ _ ____
 72
65
 73
4
 40
0.6
 49
0.375
 74
0
 49
-0.075
 74
0
 49
0.075
 74
0
 49
-0.075
 74
0
  0
LTYPE
  5
1F6
100
AcDbSymbolTableRecord
100
AcDbLinetypeTableRecord
  2
HIDDEN
 70
64
  3
- - - - - - - - - - - - - - - - - - - -
 72
65
 73
2
 40
0.2
 49
0.1
 74
0
 49
-0.1
 74
0
  0
LTYPE
  5
1F7
100
AcDbSymbolTableRecord
100
AcDbLinetypeTableRecord
  2
PHANTOM
 70
64
  3
_____ _ _ _____ _ _ _____ _ _ _____
 72
65
 73
6
 40
0.8
 49
0.45
 74
0
 49
-0.05
 74
0
 49
0.1
 74
0
 49
-0.05
 74
0
 49
0.1
 74
0
 49
-0.05
 74
0
  0
LTYPE
  5
1F8
100
AcDbSymbolTableRecord
100
AcDbLinetypeTableRecord
  2
DOT
 70
64
  3
. . . . . . . . . . . . . . . . . . . .
 72
65
 73
2
 40
0.2
 49
0.1
 74
0
 49
-0.1
 74
0
  0
LTYPE
  5
1F9
100
AcDbSymbolTableRecord
100
AcDbLinetypeTableRecord
  2
DASHED
 70
64
  3
- - - - - - - - - - - - - - - - - - - -
 72
65
 73
2
 40
0.2
 49
0.1
 74
0
 49
-0.1
 74
0
  0
ENDTAB
  0
TABLE
  2
LAYER
  5
2
100
AcDbSymbolTable
 70
36
  0
LAYER
  5
10
100
AcDbSymbolTableRecord
100
AcDbLayerTableRecord
  2
0
 70
0
 62
7
  6
CONTINUOUS
370
-3
390
F
  0
LAYER
  5
1FA
100
AcDbSymbolTableRecord
100
AcDbLayerTableRecord
  2
DEFAULT_1
 70
0
 62
7
  6
CENTER
370
-3
390
F
  0
LAYER
  5
1FB
100
AcDbSymbolTableRecord
100
AcDbLayerTableRecord
  2
DEFAULT_2
 70
0
 62
7
  6
HIDDEN
370
-3
390
F
  0
LAYER
  5
1FC
100
AcDbSymbolTableRecord
100
AcDbLayerTableRecord
  2
DEFAULT_3
 70
0
 62
7
  6
PHANTOM
370
-3
390
F
  0
LAYER
  5
1FD
100
AcDbSymbolTableRecord
100
AcDbLayerTableRecord
  2
9
 70
0
 62
7
  6
CONTINUOUS
370
-3
390
F
  0
LAYER
  5
1FE
100
AcDbSymbolTableRecord
100
AcDbLayerTableRecord
  2
ASSI
 70
0
 62
7
  6
CONTINUOUS
370
-3
390
F
  0
LAYER
  5
1FF
100
AcDbSymbolTableRecord
100
AcDbLayerTableRecord
  2
COORDINATE
 70
0
 62
7
  6
CONTINUOUS
370
-3
390
F
  0
LAYER
  5
200
100
AcDbSymbolTableRecord
100
AcDbLayerTableRecord
  2
COPY_PUBLISH
 70
0
 62
7
  6
CONTINUOUS
370
-3
390
F
  0
LAYER
  5
201
100
AcDbSymbolTableRecord
100
AcDbLayerTableRecord
  2
COSMETICI
 70
0
 62
7
  6
CONTINUOUS
370
-3
390
F
  0
LAYER
  5
202
100
AcDbSymbolTableRecord
100
AcDbLayerTableRecord
  2
CURVE
 70
0
 62
7
  6
CONTINUOUS
370
-3
390
F
  0
LAYER
  5
203
100
AcDbSymbolTableRecord
100
AcDbLayerTableRecord
  2
DRAFT
 70
0
 62
7
  6
CONTINUOUS
370
-3
390
F
  0
LAYER
  5
204
100
AcDbSymbolTableRecord
100
AcDbLayerTableRecord
  2
IMPORT_IGES
 70
0
 62
7
  6
CONTINUOUS
370
-3
390
F
  0
LAYER
  5
205
100
AcDbSymbolTableRecord
100
AcDbLayerTableRecord
  2
INTF_1
 70
0
 62
7
  6
CONTINUOUS
370
-3
390
F
  0
LAYER
  5
206
100
AcDbSymbolTableRecord
100
AcDbLayerTableRecord
  2
INTF_10
 70
0
 62
7
  6
CONTINUOUS
370
-3
390
F
  0
LAYER
  5
207
100
AcDbSymbolTableRecord
100
AcDbLayerTableRecord
  2
INTF_17
 70
0
 62
7
  6
CONTINUOUS
370
-3
390
F
  0
LAYER
  5
208
100
AcDbSymbolTableRecord
100
AcDbLayerTableRecord
  2
INTF_2
 70
0
 62
7
  6
CONTINUOUS
370
-3
390
F
  0
LAYER
  5
209
100
AcDbSymbolTableRecord
100
AcDbLayerTableRecord
  2
INTF_3
 70
0
 62
7
  6
CONTINUOUS
370
-3
390
F
  0
LAYER
  5
20A
100
AcDbSymbolTableRecord
100
AcDbLayerTableRecord
  2
INTF_4
 70
0
 62
7
  6
CONTINUOUS
370
-3
390
F
  0
LAYER
  5
20B
100
AcDbSymbolTableRecord
100
AcDbLayerTableRecord
  2
INTF_5
 70
0
 62
7
  6
CONTINUOUS
370
-3
390
F
  0
LAYER
  5
20C
100
AcDbSymbolTableRecord
100
AcDbLayerTableRecord
  2
INTF_6
 70
0
 62
7
  6
CONTINUOUS
370
-3
390
F
  0
LAYER
  5
20D
100
AcDbSymbolTableRecord
100
AcDbLayerTableRecord
  2
INTF_7
 70
0
 62
7
  6
CONTINUOUS
370
-3
390
F
  0
LAYER
  5
20E
100
AcDbSymbolTableRecord
100
AcDbLayerTableRecord
  2
INTF_9
 70
0
 62
7
  6
CONTINUOUS
370
-3
390
F
  0
LAYER
  5
20F
100
AcDbSymbolTableRecord
100
AcDbLayerTableRecord
  2
INTF_BLANK
 70
0
 62
7
  6
CONTINUOUS
370
-3
390
F
  0
LAYER
  5
210
100
AcDbSymbolTableRecord
100
AcDbLayerTableRecord
  2
INTF_RED
 70
0
 62
7
  6
CONTINUOUS
370
-3
390
F
  0
LAYER
  5
211
100
AcDbSymbolTableRecord
100
AcDbLayerTableRecord
  2
NOTE
 70
0
 62
7
  6
CONTINUOUS
370
-3
390
F
  0
LAYER
  5
212
100
AcDbSymbolTableRecord
100
AcDbLayerTableRecord
  2
PIANI
 70
0
 62
7
  6
CONTINUOUS
370
-3
390
F
  0
LAYER
  5
213
100
AcDbSymbolTableRecord
100
AcDbLayerTableRecord
  2
PUNTI
 70
0
 62
7
  6
CONTINUOUS
370
-3
390
F
  0
LAYER
  5
214
100
AcDbSymbolTableRecord
100
AcDbLayerTableRecord
  2
RACCORDO
 70
0
 62
7
  6
CONTINUOUS
370
-3
390
F
  0
LAYER
  5
215
100
AcDbSymbolTableRecord
100
AcDbLayerTableRecord
  2
RGB____0____0____0__
 70
0
 62
7
  6
CONTINUOUS
370
-3
390
F
  0
LAYER
  5
216
100
AcDbSymbolTableRecord
100
AcDbLayerTableRecord
  2
SIMBOLI
 70
0
 62
7
  6
CONTINUOUS
370
-3
390
F
  0
LAYER
  5
217
100
AcDbSymbolTableRecord
100
AcDbLayerTableRecord
  2
SMUSSO
 70
0
 62
7
  6
CONTINUOUS
370
-3
390
F
  0
LAYER
  5
218
100
AcDbSymbolTableRecord
100
AcDbLayerTableRecord
  2
SNAPLINE
 70
0
 62
7
  6
CONTINUOUS
370
-3
390
F
  0
LAYER
  5
219
100
AcDbSymbolTableRecord
100
AcDbLayerTableRecord
  2
SUPERFICI
 70
0
 62
7
  6
CONTINUOUS
370
-3
390
F
  0
LAYER
  5
21A
100
AcDbSymbolTableRecord
100
AcDbLayerTableRecord
  2
TRASH
 70
0
 62
7
  6
CONTINUOUS
370
-3
390
F
  0
ENDTAB
  0
TABLE
  2
STYLE
  5
3
100
AcDbSymbolTable
 70
1
  0
STYLE
  5
11
100
AcDbSymbolTableRecord
100
AcDbTextStyleTableRecord
  2
STANDARD
 70
0
 40
0.0
 41
0.8
 50
0.0
 71
0
 42
0.2
  3
txt
  4

  0
STYLE
  5
21B
100
AcDbSymbolTableRecord
100
AcDbTextStyleTableRecord
  2
TEXTSTYLE_1
 70
0
 40
0.0
 41
0.8
 50
0.0
 71
0
 42
0.2
  3
gdt
  4

  0
ENDTAB
  0
TABLE
  2
VIEW
  5
6
100
AcDbSymbolTable
 70
0
  0
ENDTAB
  0
TABLE
  2
UCS
  5
7
100
AcDbSymbolTable
 70
0
  0
ENDTAB
  0
TABLE
  2
APPID
  5
9
100
AcDbSymbolTable
 70
1
  0
APPID
  5
21C
100
AcDbSymbolTableRecord
100
AcDbRegAppTableRecord
  2
ACAD
 70
0
  0
ENDTAB
  0
TABLE
  2
BLOCK_RECORD
  5
1
100
AcDbSymbolTable
 70
0
  0
BLOCK_RECORD
  5
21D
100
AcDbSymbolTableRecord
100
AcDbBlockTableRecord
  2
*Model_Space
  0
BLOCK_RECORD
  5
21E
100
AcDbSymbolTableRecord
100
AcDbBlockTableRecord
  2
*Paper_Space
  0
BLOCK_RECORD
  5
21F
100
AcDbSymbolTableRecord
100
AcDbBlockTableRecord
  2
_FILLED
  0
BLOCK_RECORD
  5
220
100
AcDbSymbolTableRecord
100
AcDbBlockTableRecord
  2
*D0
  0
BLOCK_RECORD
  5
221
100
AcDbSymbolTableRecord
100
AcDbBlockTableRecord
  2
*D1
  0
BLOCK_RECORD
  5
222
100
AcDbSymbolTableRecord
100
AcDbBlockTableRecord
  2
*D2
  0
BLOCK_RECORD
  5
223
100
AcDbSymbolTableRecord
100
AcDbBlockTableRecord
  2
*D3
  0
ENDTAB
  0
TABLE
  2
DIMSTYLE
  5
A
100
AcDbSymbolTable
 70
1
100
AcDbDimStyleTable
 71
0
  0
DIMSTYLE
105
224
100
AcDbSymbolTableRecord
100
AcDbDimStyleTableRecord
  2
STANDARD
 70
0
  3

  4

 40
1.0
 41
3.0
 42
0.5
 43
0.38
 44
1.5
 45
0.0
 46
0.0
 47
0.01
 48
0.01
140
3.0
141
0.09
142
0.0
143
25.4
144
1.0
145
0.0
146
1.0
147
0.625
 71
1
 72
0
 73
0
 74
0
 75
0
 76
0
 77
1
 78
8
 79
2
170
0
171
1
172
0
173
0
174
0
175
0
176
0
177
0
178
0
270
2
179
2
271
2
272
2
273
2
274
2
275
0
280
0
281
0
282
0
283
1
284
8
285
0
286
0
287
3
288
0
340
11
278
44
341
21F
342
21F
343
21F
344
21F
  0
DIMSTYLE
105
225
100
AcDbSymbolTableRecord
100
AcDbDimStyleTableRecord
  2
DIMSTYLE_1
 70
0
  3

  4

 40
1.0
 41
3.0
 42
0.5
 43
0.38
 44
1.5
 45
0.0
 46
0.0
 47
0.0
 48
0.0
140
3.0
141
0.09
142
0.0
143
25.4
144
1.0
145
0.0
146
1.0
147
0.75
 71
0
 72
0
 73
0
 74
0
 75
0
 76
0
 77
1
 78
8
 79
2
170
0
171
1
172
0
173
0
174
0
175
0
176
0
177
0
178
0
270
2
179
2
271
1
272
1
273
2
274
2
275
0
280
0
281
0
282
0
283
1
284
8
285
0
286
0
287
3
288
0
340
11
278
44
341
21F
342
21F
343
21F
344
21F
  0
ENDTAB
  0
ENDSEC
  0
SECTION
  2
BLOCKS
  0
BLOCK
  5
20
100
AcDbEntity
  8
0
100
AcDbBlockBegin
  2
*Model_Space
 70
0
 10
0.0
 20
0.0
 30
0.0
  3
*Model_Space
  1

  0
ENDBLK
  5
21
100
AcDbEntity
  8
0
100
AcDbBlockEnd
  0
BLOCK
  5
1C
100
AcDbEntity
  8
0
100
AcDbBlockBegin
  2
*Paper_Space
 70
0
 10
0.0
 20
0.0
 30
0.0
  3
*Paper_Space
  1

  0
ENDBLK
  5
1D
100
AcDbEntity
  8
0
100
AcDbBlockEnd
  0
BLOCK
  5
226
100
AcDbEntity
  8
0
100
AcDbBlockBegin
  2
_FILLED
 70
64
 10
0.0
 20
0.0
  3
_FILLED
  1

  0
SOLID
  5
227
100
AcDbEntity
  8
0
  6
BYBLOCK
 62
0
100
AcDbTrace
 10
0.0
 20
0.0
 11
-1.0
 21
0.3166666667
 12
-1.0
 22
-0.3166666667
 13
-1.0
 23
-0.3166666667
  0
ENDBLK
  5
228
100
AcDbEntity
  8
0
  6
BYBLOCK
 62
0
100
AcDbBlockEnd
  0
BLOCK
  5
229
100
AcDbEntity
  8
0
100
AcDbBlockBegin
 62
7
  6
CONTINUOUS
  2
*D0
 70
65
 10
0.0
 20
0.0
  3
*D0
  1

  0
LINE
  5
22A
100
AcDbEntity
  8
0
100
AcDbLine
 62
7
  6
CONTINUOUS
 10
-12.1240207688
 20
65.8556209851
 11
-12.1240207688
 21
77.5334354304
  0
LINE
  5
22B
100
AcDbEntity
  8
0
100
AcDbLine
 62
7
  6
CONTINUOUS
 10
32.4817099135
 20
65.8556209851
 11
32.4817099135
 21
77.5334354304
  0
LINE
  5
22C
100
AcDbEntity
  8
0
100
AcDbLine
 62
7
  6
CONTINUOUS
 10
-12.1240207688
 20
76.0334354304
 11
10.1788445724
 21
76.0334354304
  0
LINE
  5
22D
100
AcDbEntity
  8
0
100
AcDbLine
 62
7
  6
CONTINUOUS
 10
32.4817099135
 20
76.0334354304
 11
10.1788445724
 21
76.0334354304
  0
INSERT
  5
22E
100
AcDbEntity
  8
0
100
AcDbBlockReference
 62
7
  6
CONTINUOUS
  2
_FILLED
 10
-12.1240207688
 20
76.0334354304
 41
3.0
 42
3.0
 43
3.0
 50
180.0
  0
INSERT
  5
22F
100
AcDbEntity
  8
0
100
AcDbBlockReference
 62
7
  6
CONTINUOUS
  2
_FILLED
 10
32.4817099135
 20
76.0334354304
 41
3.0
 42
3.0
 43
3.0
  0
ENDBLK
  5
230
100
AcDbEntity
  8
0
  6
BYBLOCK
 62
0
100
AcDbBlockEnd
  0
BLOCK
  5
231
100
AcDbEntity
  8
0
100
AcDbBlockBegin
 62
7
  6
CONTINUOUS
  2
*D1
 70
65
 10
0.0
 20
0.0
  3
*D1
  1

  0
LINE
  5
232
100
AcDbEntity
  8
0
100
AcDbLine
 62
7
  6
CONTINUOUS
 10
32.4818812511
 20
65.8554496476
 11
44.1596956963
 21
65.8554496476
  0
LINE
  5
233
100
AcDbEntity
  8
0
100
AcDbLine
 62
7
  6
CONTINUOUS
 10
32.4818812511
 20
13.1497189653
 11
44.1596956963
 21
13.1497189653
  0
LINE
  5
234
100
AcDbEntity
  8
0
100
AcDbLine
 62
7
  6
CONTINUOUS
 10
42.6596956963
 20
65.8554496476
 11
42.6596956963
 21
39.5025843064
  0
LINE
  5
235
100
AcDbEntity
  8
0
100
AcDbLine
 62
7
  6
CONTINUOUS
 10
42.6596956963
 20
13.1497189653
 11
42.6596956963
 21
39.5025843064
  0
INSERT
  5
236
100
AcDbEntity
  8
0
100
AcDbBlockReference
 62
7
  6
CONTINUOUS
  2
_FILLED
 10
42.6596956963
 20
65.8554496476
 41
3.0
 42
3.0
 43
3.0
 50
90.0
  0
INSERT
  5
237
100
AcDbEntity
  8
0
100
AcDbBlockReference
 62
7
  6
CONTINUOUS
  2
_FILLED
 10
42.6596956963
 20
13.1497189653
 41
3.0
 42
3.0
 43
3.0
 50
270.0
  0
ENDBLK
  5
238
100
AcDbEntity
  8
0
  6
BYBLOCK
 62
0
100
AcDbBlockEnd
  0
BLOCK
  5
239
100
AcDbEntity
  8
0
100
AcDbBlockBegin
 62
7
  6
CONTINUOUS
  2
*D2
 70
65
 10
0.0
 20
0.0
  3
*D2
  1

  0
LINE
  5
23A
100
AcDbEntity
  8
0
100
AcDbLine
 62
7
  6
CONTINUOUS
 10
-32.4285206711
 20
65.8556209851
 11
-32.4285206711
 21
77.5334354304
  0
LINE
  5
23B
100
AcDbEntity
  8
0
100
AcDbLine
 62
7
  6
CONTINUOUS
 10
-37.0982681997
 20
14.7981624902
 11
-37.0982681997
 21
77.5334354304
  0
LINE
  5
23C
100
AcDbEntity
  8
0
100
AcDbLine
 62
7
  6
CONTINUOUS
 10
-32.4285206711
 20
76.0334354304
 11
-28.4285206711
 21
76.0334354304
  0
LINE
  5
23D
100
AcDbEntity
  8
0
100
AcDbLine
 62
7
  6
CONTINUOUS
 10
-28.4285206711
 20
76.0334354304
 11
-34.7633944354
 21
76.0334354304
  0
LINE
  5
23E
100
AcDbEntity
  8
0
100
AcDbLine
 62
7
  6
CONTINUOUS
 10
-37.0982681997
 20
76.0334354304
 11
-47.1616941391
 21
76.0334354304
  0
LINE
  5
23F
100
AcDbEntity
  8
0
100
AcDbLine
 62
7
  6
CONTINUOUS
 10
-47.1616941391
 20
76.0334354304
 11
-34.7633944354
 21
76.0334354304
  0
INSERT
  5
240
100
AcDbEntity
  8
0
100
AcDbBlockReference
 62
7
  6
CONTINUOUS
  2
_FILLED
 10
-32.4285206711
 20
76.0334354304
 41
3.0
 42
3.0
 43
3.0
 50
180.0
  0
INSERT
  5
241
100
AcDbEntity
  8
0
100
AcDbBlockReference
 62
7
  6
CONTINUOUS
  2
_FILLED
 10
-37.0982681997
 20
76.0334354304
 41
3.0
 42
3.0
 43
3.0
  0
ENDBLK
  5
242
100
AcDbEntity
  8
0
  6
BYBLOCK
 62
0
100
AcDbBlockEnd
  0
BLOCK
  5
243
100
AcDbEntity
  8
0
100
AcDbBlockBegin
 62
7
  6
CONTINUOUS
  2
*D3
 70
65
 10
0.0
 20
0.0
  3
*D3
  1

  0
LINE
  5
244
100
AcDbEntity
  8
0
100
AcDbLine
 62
7
  6
CONTINUOUS
 10
-29.1285206711
 20
27.6057061298
 11
-29.1285206711
 21
85.5334354304
  0
LINE
  5
245
100
AcDbEntity
  8
0
100
AcDbLine
 62
7
  6
CONTINUOUS
 10
-37.0982681997
 20
14.7981624902
 11
-37.0982681997
 21
85.5334354304
  0
LINE
  5
246
100
AcDbEntity
  8
0
100
AcDbLine
 62
7
  6
CONTINUOUS
 10
-29.1285206711
 20
84.0334354304
 11
-25.1285206711
 21
84.0334354304
  0
LINE
  5
247
100
AcDbEntity
  8
0
100
AcDbLine
 62
7
  6
CONTINUOUS
 10
-25.1285206711
 20
84.0334354304
 11
-33.1133944354
 21
84.0334354304
  0
LINE
  5
248
100
AcDbEntity
  8
0
100
AcDbLine
 62
7
  6
CONTINUOUS
 10
-37.0982681997
 20
84.0334354304
 11
-42.3498168844
 21
84.0334354304
  0
LINE
  5
249
100
AcDbEntity
  8
0
100
AcDbLine
 62
7
  6
CONTINUOUS
 10
-42.3498168844
 20
84.0334354304
 11
-33.1133944354
 21
84.0334354304
  0
INSERT
  5
24A
100
AcDbEntity
  8
0
100
AcDbBlockReference
 62
7
  6
CONTINUOUS
  2
_FILLED
 10
-29.1285206711
 20
84.0334354304
 41
3.0
 42
3.0
 43
3.0
 50
180.0
  0
INSERT
  5
24B
100
AcDbEntity
  8
0
100
AcDbBlockReference
 62
7
  6
CONTINUOUS
  2
_FILLED
 10
-37.0982681997
 20
84.0334354304
 41
3.0
 42
3.0
 43
3.0
  0
ENDBLK
  5
24C
100
AcDbEntity
  8
0
  6
BYBLOCK
 62
0
100
AcDbBlockEnd
  0
ENDSEC
  0
SECTION
  2
ENTITIES
  0
DIMENSION
  5
24D
100
AcDbEntity
  8
0
100
AcDbDimension
 62
7
  6
CONTINUOUS
  2
*D0
 10
32.4817099135
 20
76.0334354304
 11
5.7859874295
 21
76.0334354304
 70
160
 71
2
 72
2
 41
0.9
 42
44.6057306824
  3
DIMSTYLE_1
100
AcDbAlignedDimension
 13
-12.1240207688
 23
65.3556209851
 14
32.4817099135
 24
65.3556209851
100
AcDbRotatedDimension
  0
DIMENSION
  5
24E
100
AcDbEntity
  8
0
100
AcDbDimension
 62
7
  6
CONTINUOUS
  2
*D1
 10
42.6596956963
 20
13.1497189653
 11
42.6596956963
 21
35.2168700207
 70
160
 71
2
 72
2
 41
0.9
 42
52.7057306824
  3
DIMSTYLE_1
100
AcDbAlignedDimension
 13
31.9818812511
 23
65.8554496476
 14
31.9818812511
 24
13.1497189653
 50
270.0
100
AcDbRotatedDimension
  0
DIMENSION
  5
24F
100
AcDbEntity
  8
0
100
AcDbDimension
 62
7
  6
CONTINUOUS
  2
*D2
 10
-37.0982681997
 20
76.0334354304
 11
-47.1616941391
 21
76.0334354304
 70
160
 71
3
 72
2
 41
0.9
 42
4.6697475287
  3
DIMSTYLE_1
100
AcDbAlignedDimension
 13
-32.4285206711
 23
65.3556209851
 14
-37.0982681997
 24
14.2981624902
 50
180.0
100
AcDbRotatedDimension
  0
DIMENSION
  5
250
100
AcDbEntity
  8
0
100
AcDbDimension
 62
7
  6
CONTINUOUS
  2
*D3
 10
-37.0982681997
 20
84.0334354304
 11
-42.3498168844
 21
84.0334354304
 70
160
 71
3
 72
2
 41
0.9
 42
7.9697475287
  3
DIMSTYLE_1
100
AcDbAlignedDimension
 13
-29.1285206711
 23
27.1057061298
 14
-37.0982681997
 24
14.2981624902
 50
180.0
100
AcDbRotatedDimension
  0
LWPOLYLINE
  5
251
100
AcDbEntity
  8
0
100
AcDbPolyline
 62
7
  6
CONTINUOUS
 90
10
 70
0
 43
0.3500000006
 10
13.2859870148
 20
79.7834328918
 10
12.6431301613
 20
79.1405794373
 10
12.2145589256
 20
78.2834324341
 10
12.2145589256
 20
77.2120100098
 10
12.6431301613
 20
76.7834319763
 10
13.2859870148
 20
76.7834319763
 10
13.7145593834
 20
77.2120100098
 10
13.7145593834
 20
78.0691479492
 10
13.2859870148
 20
78.4977169189
 10
12.3574156265
 20
78.4977169189
  0
LWPOLYLINE
  5
252
100
AcDbEntity
  8
RACCORDO
100
AcDbPolyline
 62
250
  6
CONTINUOUS
 90
16
 70
0
 10
-12.0555476579
 20
29.2162425399
 10
-12.0515613332
 20
29.2216171592
 10
-12.0423208944
 20
29.2269348362
 10
-12.0279242575
 20
29.2321392224
 10
-12.0085239755
 20
29.2371751693
 10
-11.9843256215
 20
29.2419893145
 10
-11.9555856103
 20
29.2465306463
 10
-11.9226084815
 20
29.2507510435
 10
-11.8857436726
 20
29.2546057849
 10
-11.8453818154
 20
29.2580540246
 10
-11.801950598
 20
29.2610592244
 10
-11.7559102322
 20
29.2635895403
 10
-11.7077485762
 20
29.2656181595
 10
-11.6579759663
 20
29.2671235863
 10
-11.6071198099
 20
29.2680898698
 10
-11.5557189954
 20
29.2685067715
  0
LINE
  5
253
100
AcDbEntity
  8
RACCORDO
100
AcDbLine
 62
250
  6
CONTINUOUS
 10
31.9818812511
 20
65.8554496476
 11
31.9422596349
 21
65.8158280315
  0
LINE
  5
254
100
AcDbEntity
  8
RACCORDO
100
AcDbLine
 62
250
  6
CONTINUOUS
 10
32.4817099135
 20
65.3556209851
 11
32.4420882974
 21
65.315999369
  0
LINE
  5
255
100
AcDbEntity
  8
RACCORDO
100
AcDbLine
 62
250
  6
CONTINUOUS
 10
-12.1240207688
 20
13.6495476277
 11
-12.0915348672
 21
13.6820335294
  0
LWPOLYLINE
  5
256
100
AcDbEntity
  8
0
100
AcDbPolyline
 62
7
  6
CONTINUOUS
 90
10
 70
0
 43
0.3500000006
 10
41.4096972198
 20
40.359728302
 10
41.5525550537
 20
40.431154953
 10
41.6239817047
 20
40.431154953
 10
41.7668395386
 20
40.2882971191
 10
41.7668395386
 20
40.2168704681
 10
41.6954083557
 20
40.1454392853
 10
41.6239817047
 20
40.1454392853
 10
41.4811238708
 20
40.2168704681
 10
41.4096972198
 20
40.2882971191
 10
41.4096972198
 20
40.359728302
  0
LWPOLYLINE
  5
257
100
AcDbEntity
  8
RACCORDO
100
AcDbPolyline
 62
250
  6
CONTINUOUS
 90
19
 70
0
 10
-12.0144893533
 20
14.2981624902
 10
-12.0115280523
 20
14.3026494828
 10
-12.004900399
 20
14.3071032973
 10
-11.9946554657
 20
14.3114910712
 10
-11.9808691178
 20
14.3157804032
 10
-11.9636431791
 20
14.3199396803
 10
-11.9431044455
 20
14.3239383017
 10
-11.9194028684
 20
14.3277469874
 10
-11.892714452
 20
14.3313373801
 10
-11.8632410949
 20
14.3346824593
 10
-11.831205095
 20
14.3377573511
 10
-11.7968407588
 20
14.3405398931
 10
-11.7603963056
 20
14.3430100953
 10
-11.7221122575
 20
14.3451511586
 10
-11.6822966456
 20
14.3469453831
 10
-11.641326092
 20
14.3483770285
 10
-11.5995363718
 20
14.3494371544
 10
-11.5572108738
 20
14.3501212966
 10
-11.5146606908
 20
14.3504267218
  0
LWPOLYLINE
  5
258
100
AcDbEntity
  8
RACCORDO
100
AcDbPolyline
 62
250
  6
CONTINUOUS
 90
10
 70
0
 10
-12.0915348672
 20
13.6820335294
 10
-12.0912686072
 20
13.6824036727
 10
-12.0910028458
 20
13.6829795428
 10
-12.0907375832
 20
13.6837611396
 10
-12.0904727461
 20
13.6847487298
 10
-12.0902084077
 20
13.6859420467
 10
-12.0899447874
 20
13.6873402904
 10
-12.0896819584
 20
13.6889431942
 10
-12.0894198476
 20
13.6907510247
 10
-12.0891584549
 20
13.692763782
  0
LINE
  5
259
100
AcDbEntity
  8
RACCORDO
100
AcDbLine
 62
250
  6
CONTINUOUS
 10
-11.6241921063
 20
13.1497189653
 11
-11.5917062047
 21
13.1822048669
  0
LWPOLYLINE
  5
25A
100
AcDbEntity
  8
0
100
AcDbPolyline
 62
7
  6
CONTINUOUS
 90
3
 70
0
 43
0.3500000006
 10
11.2145586205
 20
77.069147644
 10
11.1431308365
 20
76.8548631592
 10
11.0002730026
 20
76.5691474915
  0
LWPOLYLINE
  5
25B
100
AcDbEntity
  8
RACCORDO
100
AcDbPolyline
 62
250
  6
CONTINUOUS
 90
10
 70
0
 10
-11.5917062047
 20
13.1822048669
 10
-11.5914399323
 20
13.182943861
 10
-11.5911741648
 20
13.184095803
 10
-11.5909089022
 20
13.1856600873
 10
-11.5906440753
 20
13.1876356381
 10
-11.5903797533
 20
13.1900216972
 10
-11.5901161433
 20
13.192818389
 10
-11.5898533144
 20
13.196025405
 10
-11.5895911974
 20
13.1996414396
 10
-11.5893297924
 20
13.2036653722
  0
LWPOLYLINE
  5
25C
100
AcDbEntity
  8
RACCORDO
100
AcDbPolyline
 62
250
  6
CONTINUOUS
 90
19
 70
0
 10
-12.0843991527
 20
65.315999369
 10
-12.0824630872
 20
65.3596101029
 10
-12.0767293552
 20
65.4028885963
 10
-12.067241587
 20
65.4455047295
 10
-12.0540720007
 20
65.4871335551
 10
-12.0373209769
 20
65.5274573636
 10
-12.0171164105
 20
65.5661681548
 10
-11.9936106987
 20
65.6029731121
 10
-11.9669844476
 20
65.6375887296
 10
-11.9374474908
 20
65.6697442507
 10
-11.9052318401
 20
65.6991920027
 10
-11.8705804992
 20
65.7257143577
 10
-11.8337503256
 20
65.7491162071
 10
-11.7949857122
 20
65.7692359825
 10
-11.7546150432
 20
65.7858972694
 10
-11.7130521173
 20
65.7989446315
 10
-11.6706569616
 20
65.8082998163
 10
-11.627721126
 20
65.813932365
 10
-11.5845704902
 20
65.8158280315
  0
LINE
  5
25D
100
AcDbEntity
  8
RACCORDO
100
AcDbLine
 62
250
  6
CONTINUOUS
 10
-12.0891584549
 20
13.692763782
 11
-12.0144893533
 21
14.2981624902
  0
LINE
  5
25E
100
AcDbEntity
  8
RACCORDO
100
AcDbLine
 62
250
  6
CONTINUOUS
 10
-11.5893297924
 20
13.2036653722
 11
-11.5146606908
 21
13.8090640804
  0
LWPOLYLINE
  5
25F
100
AcDbEntity
  8
RACCORDO
100
AcDbPolyline
 62
250
  6
CONTINUOUS
 90
16
 70
0
 10
-12.0891584549
 20
13.692763782
 10
-12.086156186
 20
13.6418146204
 10
-12.0777481622
 20
13.5914198147
 10
-12.0640258674
 20
13.5421276893
 10
-12.0451386081
 20
13.4944745706
 10
-12.0212918886
 20
13.4489789518
 10
-11.9927451746
 20
13.4061358513
 10
-11.9598090707
 20
13.3664114264
 10
-11.9228419407
 20
13.3302379016
 10
-11.8822460079
 20
13.2980088655
 10
-11.8384629794
 20
13.2700749884
 10
-11.7919692395
 20
13.2467402069
 10
-11.7432706666
 20
13.2282584167
 10
-11.692897129
 20
13.2148307103
 10
-11.6413967196
 20
13.2066031888
 10
-11.5893297924
 20
13.2036653722
  0
LWPOLYLINE
  5
260
100
AcDbEntity
  8
RACCORDO
100
AcDbPolyline
 62
250
  6
CONTINUOUS
 90
16
 70
0
 10
-12.0915348672
 20
13.6820335294
 10
-12.0887633617
 20
13.6298099729
 10
-12.0805507522
 20
13.5781580778
 10
-12.0669869357
 20
13.5276432591
 10
-12.0482203872
 20
13.4788184851
 10
-12.0244565341
 20
13.4322182248
 10
-11.9959555085
 20
13.3883525968
 10
-11.9630292982
 20
13.3477017847
 10
-11.926038333
 20
13.3107107813
 10
-11.8853875394
 20
13.2777845179
 10
-11.8415219063
 20
13.2492834293
 10
-11.794921615
 20
13.22551951
 10
-11.7460967848
 20
13.2067528992
 10
-11.6955818855
 20
13.1931890307
 10
-11.6439298862
 20
13.1849763856
 10
-11.5917062047
 20
13.1822048669
  0
LWPOLYLINE
  5
261
100
AcDbEntity
  8
RACCORDO
100
AcDbPolyline
 62
250
  6
CONTINUOUS
 90
19
 70
0
 10
-12.0144893533
 20
14.2981624902
 10
-12.0123552896
 20
14.2555843373
 10
-12.0064414058
 20
14.2133240824
 10
-11.9967911722
 20
14.171702861
 10
-11.9834738559
 20
14.1310302096
 10
-11.9665906471
 20
14.0916229965
 10
-11.9462799988
 20
14.0538005979
 10
-11.9227109795
 20
14.0178633721
 10
-11.8960580878
 20
13.9840649275
 10
-11.866503002
 20
13.9526355227
 10
-11.8342412266
 20
13.9237954797
 10
-11.7995365543
 20
13.89779201
 10
-11.762707653
 20
13.8748585938
 10
-11.7240395145
 20
13.8551580101
 10
-11.68383219
 20
13.8388291727
 10
-11.6424627051
 20
13.826001882
 10
-11.6002744186
 20
13.8167475339
 10
-11.557566737
 20
13.8110976326
 10
-11.5146606908
 20
13.8090640804
  0
LINE
  5
262
100
AcDbEntity
  8
RACCORDO
100
AcDbLine
 62
250
  6
CONTINUOUS
 10
-12.0144893533
 20
14.2981624902
 11
-12.0622823163
 21
31.7403568026
  0
LINE
  5
263
100
AcDbEntity
  8
RACCORDO
100
AcDbLine
 62
250
  6
CONTINUOUS
 10
-12.0622823163
 20
31.7403568026
 11
-12.0746027699
 21
37.2218477325
  0
LINE
  5
264
100
AcDbEntity
  8
RACCORDO
100
AcDbLine
 62
250
  6
CONTINUOUS
 10
-12.0746027699
 20
37.2218477325
 11
-12.0804884291
 21
41.2381269479
  0
LINE
  5
265
100
AcDbEntity
  8
RACCORDO
100
AcDbLine
 62
250
  6
CONTINUOUS
 10
-11.5747741074
 20
37.2570111024
 11
-11.5806597666
 21
41.2585806074
  0
LINE
  5
266
100
AcDbEntity
  8
RACCORDO
100
AcDbLine
 62
250
  6
CONTINUOUS
 10
-12.0804884291
 20
41.2381269479
 11
-12.083995995
 21
46.8293034591
  0
LINE
  5
267
100
AcDbEntity
  8
RACCORDO
100
AcDbLine
 62
250
  6
CONTINUOUS
 10
-11.5806597666
 20
41.2585806074
 11
-11.5841673325
 21
46.8342924288
  0
LINE
  5
268
100
AcDbEntity
  8
RACCORDO
100
AcDbLine
 62
7
  6
CONTINUOUS
 10
-12.1240207688
 20
65.3556209851
 11
-12.1240207688
 21
13.6495476277
  0
LINE
  5
269
100
AcDbEntity
  8
RACCORDO
100
AcDbLine
 62
250
  6
CONTINUOUS
 10
-12.083995995
 20
46.8293034591
 11
-12.0843991527
 21
65.315999369
  0
LINE
  5
26A
100
AcDbEntity
  8
RACCORDO
100
AcDbLine
 62
250
  6
CONTINUOUS
 10
-11.5841673325
 20
46.8342924288
 11
-11.5845704902
 21
65.8158280315
  0
LINE
  5
26B
100
AcDbEntity
  8
RACCORDO
100
AcDbLine
 62
250
  6
CONTINUOUS
 10
-11.5146606908
 20
13.8090640804
 11
-11.5747741074
 21
37.2570111024
  0
LINE
  5
26C
100
AcDbEntity
  8
0
100
AcDbLine
 62
7
  6
CONTINUOUS
 10
5.9288445724
 20
24.7025843064
 11
5.9288445724
 21
24.3025843064
  0
LINE
  5
26D
100
AcDbEntity
  8
0
100
AcDbLine
 62
7
  6
CONTINUOUS
 10
6.0288445724
 20
23.2361413533
 11
6.0288445724
 21
22.8361413533
  0
LWPOLYLINE
  5
26E
100
AcDbEntity
  8
0
100
AcDbPolyline
 62
7
  6
CONTINUOUS
 90
2
 70
0
 43
0.3500000006
 10
6.7859872971
 20
76.7834319763
 10
6.7859872971
 20
78.2834324341
  0
LINE
  5
26F
100
AcDbEntity
  8
0
100
AcDbLine
 62
7
  6
CONTINUOUS
 10
7.5288445724
 20
22.8361413533
 11
7.5288445724
 21
23.2361413533
  0
LWPOLYLINE
  5
270
100
AcDbEntity
  8
0
100
AcDbPolyline
 62
7
  6
CONTINUOUS
 90
2
 70
0
 43
0.3500000006
 10
9.1431302261
 20
76.7834319763
 10
9.1431302261
 20
78.2834324341
  0
LINE
  5
271
100
AcDbEntity
  8
0
100
AcDbLine
 62
7
  6
CONTINUOUS
 10
10.5748073053
 20
26.1001786204
 11
10.5748073053
 21
26.0901786204
  0
LINE
  5
272
100
AcDbEntity
  8
0
100
AcDbLine
 62
7
  6
CONTINUOUS
 10
10.5748073053
 20
24.2025843064
 11
10.5748073053
 21
23.2361413533
  0
LINE
  5
273
100
AcDbEntity
  8
0
100
AcDbLine
 62
7
  6
CONTINUOUS
 10
11.1748073053
 20
23.3361413533
 11
11.1748073053
 21
24.5025843064
  0
LINE
  5
274
100
AcDbEntity
  8
0
100
AcDbLine
 62
7
  6
CONTINUOUS
 10
13.8288445724
 20
25.9901786204
 11
13.8288445724
 21
23.3361413533
  0
LINE
  5
275
100
AcDbEntity
  8
0
100
AcDbLine
 62
7
  6
CONTINUOUS
 10
14.4288445724
 20
23.2361413533
 11
14.4288445724
 21
26.0901786204
  0
LWPOLYLINE
  5
276
100
AcDbEntity
  8
RACCORDO
100
AcDbPolyline
 62
250
  6
CONTINUOUS
 90
10
 70
0
 10
31.9470189371
 20
13.2036653722
 10
31.9472800505
 20
13.1996456747
 10
31.9475419485
 20
13.1960320248
 10
31.9478046311
 20
13.1928258788
 10
31.9480681671
 20
13.1900288794
 10
31.9483324876
 20
13.1876416779
 10
31.9485973867
 20
13.1856644954
 10
31.9488627957
 20
13.1840984325
 10
31.9491287833
 20
13.1829449067
 10
31.9493953494
 20
13.1822048669
  0
LINE
  5
277
100
AcDbEntity
  8
RACCORDO
100
AcDbLine
 62
7
  6
CONTINUOUS
 10
32.4817099135
 20
65.3556209851
 11
32.4817099135
 21
13.6495476277
  0
LINE
  5
278
100
AcDbEntity
  8
RACCORDO
100
AcDbLine
 62
250
  6
CONTINUOUS
 10
31.9422596349
 20
65.8158280315
 11
31.9419507199
 21
47.2213387872
  0
LINE
  5
279
100
AcDbEntity
  8
RACCORDO
100
AcDbLine
 62
250
  6
CONTINUOUS
 10
32.4420882974
 20
65.315999369
 11
32.4417793824
 21
47.2170861715
  0
LINE
  5
27A
100
AcDbEntity
  8
RACCORDO
100
AcDbLine
 62
250
  6
CONTINUOUS
 10
31.9419507199
 20
47.2213387872
 11
31.9325602369
 21
37.3094626132
  0
LINE
  5
27B
100
AcDbEntity
  8
RACCORDO
100
AcDbLine
 62
250
  6
CONTINUOUS
 10
32.4417793824
 20
47.2170861715
 11
32.4323888993
 21
37.2744714657
  0
LINE
  5
27C
100
AcDbEntity
  8
RACCORDO
100
AcDbLine
 62
250
  6
CONTINUOUS
 10
31.9325602369
 20
37.3094626132
 11
31.9173191053
 21
30.7120206844
  0
LINE
  5
27D
100
AcDbEntity
  8
RACCORDO
100
AcDbLine
 62
250
  6
CONTINUOUS
 10
32.4323888993
 20
37.2744714657
 11
32.4171477678
 21
30.6615208414
  0
LINE
  5
27E
100
AcDbEntity
  8
RACCORDO
100
AcDbLine
 62
250
  6
CONTINUOUS
 10
31.9173191053
 20
30.7120206844
 11
31.8723498355
 21
13.8090640804
  0
LINE
  5
27F
100
AcDbEntity
  8
RACCORDO
100
AcDbLine
 62
250
  6
CONTINUOUS
 10
32.4171477678
 20
30.6615208414
 11
32.372178498
 21
14.2981624902
  0
LWPOLYLINE
  5
280
100
AcDbEntity
  8
RACCORDO
100
AcDbPolyline
 62
250
  6
CONTINUOUS
 90
19
 70
0
 10
32.372178498
 20
14.2981624902
 10
32.3700483013
 20
14.2556251216
 10
32.3641466261
 20
14.2134107674
 10
32.354518372
 20
14.1718392987
 10
32.341236761
 20
14.1312259242
 10
32.3244025566
 20
14.0918780846
 10
32.3041430924
 20
14.0540932048
 10
32.2806102804
 20
14.0181553988
 10
32.2539836033
 20
13.9843394412
 10
32.2244701027
 20
13.9529067588
 10
32.1922986289
 20
13.9240973739
 10
32.1577108023
 20
13.8981242551
 10
32.1209629372
 20
13.8751787435
 10
32.0823037481
 20
13.8554211031
 10
32.0420528228
 20
13.8390193917
 10
32.0006017369
 20
13.8261209243
 10
31.9582997184
 20
13.8168066238
 10
31.9154412719
 20
13.8111142826
 10
31.8723498355
 20
13.8090640804
  0
LWPOLYLINE
  5
281
100
AcDbEntity
  8
RACCORDO
100
AcDbPolyline
 62
250
  6
CONTINUOUS
 90
16
 70
0
 10
32.4492240119
 20
13.6820335294
 10
32.4464524991
 20
13.6298099033
 10
32.4382398701
 20
13.5781579517
 10
32.4246760257
 20
13.5276430908
 10
32.4059094448
 20
13.4788182896
 10
32.3821455588
 20
13.4322180169
 10
32.3536445029
 20
13.38835239
 10
32.3207182685
 20
13.3477015909
 10
32.2837272879
 20
13.3107106103
 10
32.2430764889
 20
13.2777843759
 10
32.1992108619
 20
13.24928332
 10
32.1526105892
 20
13.225519434
 10
32.103785788
 20
13.2067528531
 10
32.0532709271
 20
13.1931890087
 10
32.0016189755
 20
13.1849763797
 10
31.9493953494
 20
13.1822048669
  0
LWPOLYLINE
  5
282
100
AcDbEntity
  8
RACCORDO
100
AcDbPolyline
 62
250
  6
CONTINUOUS
 90
16
 70
0
 10
32.4468475996
 20
13.692763782
 10
32.4438453332
 20
13.6418146425
 10
32.4354373158
 20
13.5914198548
 10
32.4217150302
 20
13.5421277429
 10
32.4028277815
 20
13.4944746329
 10
32.3789810726
 20
13.4489790181
 10
32.3504343685
 20
13.4061359173
 10
32.3174982725
 20
13.3664114883
 10
32.2805311474
 20
13.3302379563
 10
32.2399352165
 20
13.298008911
 10
32.1961521859
 20
13.2700750235
 10
32.1496584399
 20
13.2467402314
 10
32.1009598575
 20
13.2282584316
 10
32.0505863074
 20
13.2148307175
 10
31.9990858825
 20
13.2066031907
 10
31.9470189371
 20
13.2036653722
  0
LWPOLYLINE
  5
283
100
AcDbEntity
  8
RACCORDO
100
AcDbPolyline
 62
250
  6
CONTINUOUS
 90
19
 70
0
 10
32.4420882974
 20
65.315999369
 10
32.4401474308
 20
65.3596644607
 10
32.4343983621
 20
65.4030021576
 10
32.4248833556
 20
65.445680757
 10
32.4116703235
 20
65.4873821128
 10
32.3948604184
 20
65.5277772301
 10
32.3745948363
 20
65.5665318518
 10
32.3510468853
 20
65.6033331526
 10
32.3243912891
 20
65.6379240487
 10
32.2948065554
 20
65.6700732155
 10
32.2624837412
 20
65.6995575612
 10
32.2276928467
 20
65.7261166027
 10
32.1907666374
 20
65.7495029136
 10
32.151994673
 20
65.7695515039
 10
32.1116805949
 20
65.7861228361
 10
32.0702172954
 20
65.7990840557
 10
32.0279563208
 20
65.8083680763
 10
31.9851961004
 20
65.8139510241
 10
31.9422596349
 20
65.8158280314
  0
LWPOLYLINE
  5
284
100
AcDbEntity
  8
0
100
AcDbPolyline
 62
7
  6
CONTINUOUS
 90
7
 70
0
 43
0.3500000006
 10
41.9096973724
 20
38.8597278442
 10
41.9096973724
 20
37.3597273865
 10
39.7668389282
 20
38.8597278442
 10
39.3382654266
 20
38.8597278442
 10
38.9096964569
 20
38.4311543427
 10
38.9096964569
 20
37.7882963562
 10
39.5525544434
 20
37.3597273865
  0
LWPOLYLINE
  5
285
100
AcDbEntity
  8
0
100
AcDbPolyline
 62
7
  6
CONTINUOUS
 90
8
 70
0
 43
0.3500000006
 10
41.9096973724
 20
35.2168689423
 10
41.9096973724
 20
36.0740114136
 10
41.4811238708
 20
36.5025849152
 10
40.6239813995
 20
36.5025849152
 10
40.1954078979
 20
36.0740114136
 10
40.1954078979
 20
35.2168689423
 10
38.9096964569
 20
35.2168689423
 10
38.9096964569
 20
36.5025849152
  0
LWPOLYLINE
  5
286
100
AcDbEntity
  8
RACCORDO
100
AcDbPolyline
 62
250
  6
CONTINUOUS
 90
10
 70
0
 10
32.4468475996
 20
13.692763782
 10
32.4471087007
 20
13.6907528603
 10
32.4473705926
 20
13.6889462781
 10
32.4476332752
 20
13.6873440353
 10
32.4478968214
 20
13.6859456941
 10
32.4481611584
 20
13.6847516923
 10
32.4484260678
 20
13.6837633436
 10
32.4486914767
 20
13.6829810858
 10
32.4489574581
 20
13.6824044811
 10
32.4492240119
 20
13.6820335294
  0
LINE
  5
287
100
AcDbEntity
  8
RACCORDO
100
AcDbLine
 62
250
  6
CONTINUOUS
 10
31.8723498355
 20
13.8090640804
 11
31.9470189371
 21
13.2036653722
  0
LINE
  5
288
100
AcDbEntity
  8
RACCORDO
100
AcDbLine
 62
250
  6
CONTINUOUS
 10
32.372178498
 20
14.2981624902
 11
32.4468475996
 21
13.692763782
  0
LINE
  5
289
100
AcDbEntity
  8
RACCORDO
100
AcDbLine
 62
7
  6
CONTINUOUS
 10
-11.6241921063
 20
13.1497189653
 11
31.9818812511
 21
13.1497189653
  0
LINE
  5
28A
100
AcDbEntity
  8
RACCORDO
100
AcDbLine
 62
250
  6
CONTINUOUS
 10
31.9493953494
 20
13.1822048669
 11
-11.5917062047
 21
13.1822048669
  0
LINE
  5
28B
100
AcDbEntity
  8
RACCORDO
100
AcDbLine
 62
250
  6
CONTINUOUS
 10
31.9470189371
 20
13.2036653722
 11
-11.5893297924
 21
13.2036653722
  0
LINE
  5
28C
100
AcDbEntity
  8
RACCORDO
100
AcDbLine
 62
250
  6
CONTINUOUS
 10
31.8723498355
 20
13.8090640804
 11
-11.5146606908
 21
13.8090640804
  0
LINE
  5
28D
100
AcDbEntity
  8
RACCORDO
100
AcDbLine
 62
250
  6
CONTINUOUS
 10
31.8723498355
 20
14.3504267218
 11
-11.5146606908
 21
14.3504267218
  0
LINE
  5
28E
100
AcDbEntity
  8
RACCORDO
100
AcDbLine
 62
250
  6
CONTINUOUS
 10
31.9493953494
 20
13.1822048669
 11
31.9818812511
 21
13.1497189653
  0
LINE
  5
28F
100
AcDbEntity
  8
RACCORDO
100
AcDbLine
 62
250
  6
CONTINUOUS
 10
32.4492240119
 20
13.6820335294
 11
32.4817099135
 21
13.6495476277
  0
LWPOLYLINE
  5
290
100
AcDbEntity
  8
RACCORDO
100
AcDbPolyline
 62
250
  6
CONTINUOUS
 90
19
 70
0
 10
32.372178498
 20
14.2981624902
 10
32.3692125598
 20
14.302653805
 10
32.3625720232
 20
14.3071124742
 10
32.3523046133
 20
14.3115055055
 10
32.3384823171
 20
14.31580108
 10
32.3212075298
 20
14.3199666192
 10
32.3006179997
 20
14.3239692657
 10
32.276880172
 20
14.3277780702
 10
32.2501649839
 20
14.331366825
 10
32.2206499716
 20
14.3347116891
 10
32.1885255415
 20
14.3377898444
 10
32.1540476312
 20
14.3405756259
 10
32.1175246002
 20
14.3430446563
 10
32.0792311948
 20
14.3451798452
 10
32.0394569469
 20
14.3469664601
 10
31.9985660459
 20
14.3483905239
 10
31.9568892826
 20
14.3494441114
 10
31.9147142867
 20
14.3501234568
 10
31.8723498355
 20
14.3504267218
  0
LINE
  5
291
100
AcDbEntity
  8
0
100
AcDbLine
 62
7
  6
CONTINUOUS
 10
6.1288445724
 20
22.7361413533
 11
7.4288445724
 21
22.7361413533
  0
LINE
  5
292
100
AcDbEntity
  8
0
100
AcDbLine
 62
7
  6
CONTINUOUS
 10
11.0748073053
 20
22.7361413533
 11
13.9288445724
 21
22.7361413533
  0
LINE
  5
293
100
AcDbEntity
  8
0
100
AcDbLine
 62
7
  6
CONTINUOUS
 10
13.8288445724
 20
23.3361413533
 11
11.1748073053
 21
23.3361413533
  0
LINE
  5
294
100
AcDbEntity
  8
0
100
AcDbLine
 62
7
  6
CONTINUOUS
 10
7.4288445724
 20
23.3361413533
 11
6.1288445724
 21
23.3361413533
  0
LINE
  5
295
100
AcDbEntity
  8
0
100
AcDbLine
 62
7
  6
CONTINUOUS
 10
6.0288445724
 20
24.2025843064
 11
10.5748073053
 21
24.2025843064
  0
LINE
  5
296
100
AcDbEntity
  8
0
100
AcDbLine
 62
7
  6
CONTINUOUS
 10
10.8748073053
 20
24.8025843064
 11
6.0288445724
 21
24.8025843064
  0
LINE
  5
297
100
AcDbEntity
  8
RACCORDO
100
AcDbLine
 62
250
  6
CONTINUOUS
 10
-12.0843991527
 20
65.315999369
 11
-12.1240207688
 21
65.3556209851
  0
LINE
  5
298
100
AcDbEntity
  8
RACCORDO
100
AcDbLine
 62
250
  6
CONTINUOUS
 10
-11.5845704902
 20
65.8158280315
 11
-11.6241921063
 21
65.8554496476
  0
LWPOLYLINE
  5
299
100
AcDbEntity
  8
RACCORDO
100
AcDbPolyline
 62
250
  6
CONTINUOUS
 90
16
 70
0
 10
32.4132368027
 20
29.2162425399
 10
32.4092504814
 20
29.2216172316
 10
32.4000100501
 20
29.2269349714
 10
32.3856134235
 20
29.2321394106
 10
32.366213153
 20
29.2371754013
 10
32.3420148102
 20
29.2419895804
 10
32.3132748089
 20
29.2465309353
 10
32.2802976877
 20
29.2507513444
 10
32.243432883
 20
29.2546060867
 10
32.2030710266
 20
29.2580543161
 10
32.1596398062
 20
29.2610594941
 10
32.1135994332
 20
29.2635897767
 10
32.0654377669
 20
29.2656183524
 10
32.0156651442
 20
29.2671237255
 10
31.9648089723
 20
29.2680899446
 10
31.9134081402
 20
29.2685067715
  0
LWPOLYLINE
  5
29A
100
AcDbEntity
  8
0
100
AcDbPolyline
 62
7
  6
CONTINUOUS
 90
10
 70
0
 43
0.3500000006
 10
11.1431308365
 20
77.2834321289
 10
11.2145586205
 20
77.1405788269
 10
11.2145586205
 20
77.069147644
 10
11.0717019196
 20
76.926294342
 10
11.0002730026
 20
76.926294342
 10
10.9288440857
 20
76.9977255249
 10
10.9288440857
 20
77.069147644
 10
11.0002730026
 20
77.2120100098
 10
11.0717019196
 20
77.2834321289
 10
11.1431308365
 20
77.2834321289
  0
LINE
  5
29B
100
AcDbEntity
  8
0
100
AcDbLine
 62
7
  6
CONTINUOUS
 10
10.6748073053
 20
25.9901786204
 11
13.8288445724
 21
25.9901786204
  0
LINE
  5
29C
100
AcDbEntity
  8
0
100
AcDbLine
 62
7
  6
CONTINUOUS
 10
13.9288445724
 20
26.5901786204
 11
11.0648073053
 21
26.5901786204
  0
LINE
  5
29D
100
AcDbEntity
  8
RACCORDO
100
AcDbLine
 62
250
  6
CONTINUOUS
 10
-11.5557189954
 20
29.2685067715
 11
31.9134081402
 21
29.2685067715
  0
LWPOLYLINE
  5
29E
100
AcDbEntity
  8
0
100
AcDbPolyline
 62
7
  6
CONTINUOUS
 90
4
 70
0
 43
0.3500000006
 10
39.5525544434
 20
41.4311552582
 10
38.9096964569
 20
41.4311552582
 10
38.9096964569
 20
42.9311557159
 10
41.9096973724
 20
42.0740132446
  0
LINE
  5
29F
100
AcDbEntity
  8
RACCORDO
100
AcDbLine
 62
250
  6
CONTINUOUS
 10
-12.0843991527
 20
50.2397270014
 11
32.4420882974
 21
50.2397270014
  0
LWPOLYLINE
  5
2A0
100
AcDbEntity
  8
0
100
AcDbPolyline
 62
7
  6
CONTINUOUS
 90
3
 70
0
 43
0.3500000006
 10
41.6239817047
 20
40.431154953
 10
41.8382661896
 20
40.359728302
 10
42.1239818573
 20
40.2168704681
  0
LINE
  5
2A1
100
AcDbEntity
  8
RACCORDO
100
AcDbLine
 62
250
  6
CONTINUOUS
 10
32.4420882974
 20
65.315999369
 11
-12.0843991527
 21
65.315999369
  0
LINE
  5
2A2
100
AcDbEntity
  8
RACCORDO
100
AcDbLine
 62
250
  6
CONTINUOUS
 10
31.9422596349
 20
65.8158280315
 11
-11.5845704902
 21
65.8158280315
  0
LINE
  5
2A3
100
AcDbEntity
  8
RACCORDO
100
AcDbLine
 62
7
  6
CONTINUOUS
 10
-11.6241921063
 20
65.8554496476
 11
31.9818812511
 21
65.8554496476
  0
LWPOLYLINE
  5
2A4
100
AcDbEntity
  8
0
100
AcDbPolyline
 62
7
  6
CONTINUOUS
 90
3
 70
0
 43
0.3500000006
 10
9.6431303787
 20
77.4262944946
 10
8.1431304874
 20
77.4262944946
 10
8.7859873409
 20
79.7834328918
  0
LWPOLYLINE
  5
2A5
100
AcDbEntity
  8
0
100
AcDbPolyline
 62
7
  6
CONTINUOUS
 90
3
 70
0
 43
0.3500000006
 10
7.2859874496
 20
77.4262944946
 10
5.7859875584
 20
77.4262944946
 10
6.4288444118
 20
79.7834328918
  0
LWPOLYLINE
  5
2A6
100
AcDbEntity
  8
RACCORDO
100
AcDbPolyline
 62
7
  6
CONTINUOUS
 90
13
 70
0
 10
-30.8772116907
 20
59.9163634957
 10
-30.8567620978
 20
59.927916368
 10
-30.8370116783
 20
59.9378191811
 10
-30.8182931381
 20
59.9461859998
 10
-30.8009635285
 20
59.9531072871
 10
-30.7851853697
 20
59.9587870685
 10
-30.7709842567
 20
59.9634895616
 10
-30.7585630296
 20
59.9673823689
 10
-30.7481202356
 20
59.9705733766
 10
-30.7397355692
 20
59.9731919282
 10
-30.7335695378
 20
59.9753791979
 10
-30.7297956614
 20
59.9773102967
 10
-30.7285206711
 20
59.979165817
  0
LINE
  5
2A7
100
AcDbEntity
  8
RACCORDO
100
AcDbLine
 62
250
  6
CONTINUOUS
 10
-31.101216277
 20
60.9267584249
 11
-31.123872265
 21
60.9036105522
  0
LINE
  5
2A8
100
AcDbEntity
  8
RACCORDO
100
AcDbLine
 62
250
  6
CONTINUOUS
 10
-30.8979268431
 20
60.703167284
 11
-30.942763731
 21
60.657691308
  0
LINE
  5
2A9
100
AcDbEntity
  8
RACCORDO
100
AcDbLine
 62
250
  6
CONTINUOUS
 10
-31.123872265
 20
60.9036105522
 11
-31.195646216
 21
60.8311485467
  0
LINE
  5
2AA
100
AcDbEntity
  8
RACCORDO
100
AcDbLine
 62
250
  6
CONTINUOUS
 10
-31.195646216
 20
60.8311485467
 11
-31.2628750698
 21
60.7637497789
  0
LINE
  5
2AB
100
AcDbEntity
  8
RACCORDO
100
AcDbLine
 62
250
  6
CONTINUOUS
 10
-30.942763731
 20
60.657691308
 11
-31.0495623419
 21
60.5504370511
  0
LWPOLYLINE
  5
2AC
100
AcDbEntity
  8
RACCORDO
100
AcDbPolyline
 62
7
  6
CONTINUOUS
 90
3
 70
0
 10
-32.3866888586
 20
42.3093979431
 10
-32.4262508384
 20
42.2877710135
 10
-32.4285206711
 20
42.2865144734
  0
LINE
  5
2AD
100
AcDbEntity
  8
RACCORDO
100
AcDbLine
 62
250
  6
CONTINUOUS
 10
-32.2721869007
 20
42.2591395589
 11
-32.351742469
 21
42.2161288933
  0
LINE
  5
2AE
100
AcDbEntity
  8
RACCORDO
100
AcDbLine
 62
250
  6
CONTINUOUS
 10
-31.9043723927
 20
42.4549368762
 11
-31.9682718502
 21
42.4203941534
  0
LINE
  5
2AF
100
AcDbEntity
  8
RACCORDO
100
AcDbLine
 62
7
  6
CONTINUOUS
 10
-32.3108052598
 20
42.3502742236
 11
-32.3866888586
 21
42.3093979431
  0
LINE
  5
2B0
100
AcDbEntity
  8
RACCORDO
100
AcDbLine
 62
250
  6
CONTINUOUS
 10
-31.9682718502
 20
42.4203941534
 11
-32.0624867713
 21
42.3702223937
  0
LINE
  5
2B1
100
AcDbEntity
  8
RACCORDO
100
AcDbLine
 62
7
  6
CONTINUOUS
 10
-32.1732607336
 20
42.423198342
 11
-32.3108052598
 21
42.3502742236
  0
LINE
  5
2B2
100
AcDbEntity
  8
RACCORDO
100
AcDbLine
 62
250
  6
CONTINUOUS
 10
-32.0624867713
 20
42.3702223937
 11
-32.2721869007
 21
42.2591395589
  0
LINE
  5
2B3
100
AcDbEntity
  8
RACCORDO
100
AcDbLine
 62
250
  6
CONTINUOUS
 10
-32.2150372315
 20
43.9578577271
 11
-32.4285206711
 21
43.8480089986
  0
LWPOLYLINE
  5
2B4
100
AcDbEntity
  8
RACCORDO
100
AcDbPolyline
 62
250
  6
CONTINUOUS
 90
5
 70
0
 10
-31.7879651414
 20
43.1186958312
 10
-31.8383847111
 20
43.0936942465
 10
-31.8883586197
 20
43.06918554
 10
-31.9378868671
 20
43.0451697118
 10
-31.9865108136
 20
43.0219369323
  0
LINE
  5
2B5
100
AcDbEntity
  8
RACCORDO
100
AcDbLine
 62
7
  6
CONTINUOUS
 10
-32.4195727458
 20
42.9260128468
 11
-32.4285206711
 21
42.9216100635
  0
LWPOLYLINE
  5
2B6
100
AcDbEntity
  8
RACCORDO
100
AcDbPolyline
 62
250
  6
CONTINUOUS
 90
3
 70
0
 10
-32.3459968907
 20
42.8520613227
 10
-32.4005321608
 20
42.8254992765
 10
-32.4285206711
 20
42.8116075917
  0
LWPOLYLINE
  5
2B7
100
AcDbEntity
  8
IMPORT_IGES
100
AcDbPolyline
 62
7
  6
CONTINUOUS
 90
5
 70
0
 10
-31.9397612275
 20
45.4659429349
 10
-31.9590326738
 20
45.4565824296
 10
-32.1220102447
 20
45.3745807426
 10
-32.2894920917
 20
45.2882434496
 10
-32.4285206711
 20
45.2156650939
  0
LINE
  5
2B8
100
AcDbEntity
  8
RACCORDO
100
AcDbLine
 62
7
  6
CONTINUOUS
 10
-32.4212627004
 20
42.9251880804
 11
-32.3375179867
 21
42.9655908204
  0
LINE
  5
2B9
100
AcDbEntity
  8
RACCORDO
100
AcDbLine
 62
250
  6
CONTINUOUS
 10
-32.2380807403
 20
42.9035905798
 11
-32.3459968907
 21
42.8520613227
  0
LINE
  5
2BA
100
AcDbEntity
  8
RACCORDO
100
AcDbLine
 62
7
  6
CONTINUOUS
 10
-32.2663902791
 20
42.9993313092
 11
-32.3676970809
 21
42.9511321844
  0
LINE
  5
2BB
100
AcDbEntity
  8
RACCORDO
100
AcDbLine
 62
7
  6
CONTINUOUS
 10
-32.16852099
 20
43.0453174347
 11
-32.295752887
 21
42.9854509823
  0
LINE
  5
2BC
100
AcDbEntity
  8
RACCORDO
100
AcDbLine
 62
250
  6
CONTINUOUS
 10
-31.9865108136
 20
43.0219369323
 11
-32.2380807403
 21
42.9035905798
  0
LWPOLYLINE
  5
2BD
100
AcDbEntity
  8
RACCORDO
100
AcDbPolyline
 62
250
  6
CONTINUOUS
 90
7
 70
0
 10
-31.7185206741
 20
44.2015834954
 10
-31.7837698609
 20
44.1710678892
 10
-31.850946904
 20
44.1390902159
 10
-31.9200518036
 20
44.1056504756
 10
-31.9912928409
 20
44.0705951079
 10
-32.0644617346
 20
44.034077673
 10
-32.2150372315
 20
43.9578577271
  0
LWPOLYLINE
  5
2BE
100
AcDbEntity
  8
RACCORDO
100
AcDbPolyline
 62
250
  6
CONTINUOUS
 90
9
 70
0
 10
-31.7185206757
 20
44.3003650846
 10
-31.7831957658
 20
44.2703656852
 10
-31.8497274515
 20
44.2390473181
 10
-31.9181157328
 20
44.2063453993
 10
-31.9884907002
 20
44.1721310223
 10
-32.0607222632
 20
44.1364523947
 10
-32.1344201509
 20
44.0995530999
 10
-32.2099363595
 20
44.0613264108
 10
-32.4285206711
 20
43.9492177368
  0
LWPOLYLINE
  5
2BF
100
AcDbEntity
  8
RACCORDO
100
AcDbPolyline
 62
250
  6
CONTINUOUS
 90
3
 70
0
 10
-32.3535125441
 20
43.4548188829
 10
-32.4050782346
 20
43.4321955186
 10
-32.4285206711
 20
43.4217254289
  0
LWPOLYLINE
  5
2C0
100
AcDbEntity
  8
RACCORDO
100
AcDbPolyline
 62
7
  6
CONTINUOUS
 90
3
 70
0
 10
-32.3610002425
 20
43.5591772998
 10
-32.4110319206
 20
43.5374172524
 10
-32.4285206711
 20
43.5296946293
  0
LINE
  5
2C1
100
AcDbEntity
  8
RACCORDO
100
AcDbLine
 62
250
  6
CONTINUOUS
 10
-32.2512597003
 20
43.4988279756
 11
-32.3535125441
 21
43.4548188829
  0
LINE
  5
2C2
100
AcDbEntity
  8
RACCORDO
100
AcDbLine
 62
7
  6
CONTINUOUS
 10
-32.2631949553
 20
43.6010172863
 11
-32.3610002425
 21
43.5591772998
  0
LINE
  5
2C3
100
AcDbEntity
  8
RACCORDO
100
AcDbLine
 62
7
  6
CONTINUOUS
 10
-32.1685199593
 20
43.6410445568
 11
-32.2631949553
 21
43.6010172863
  0
LINE
  5
2C4
100
AcDbEntity
  8
RACCORDO
100
AcDbLine
 62
250
  6
CONTINUOUS
 10
-31.9670504766
 20
43.6193119855
 11
-32.2512597003
 21
43.4988279756
  0
LINE
  5
2C5
100
AcDbEntity
  8
RACCORDO
100
AcDbLine
 62
7
  6
CONTINUOUS
 10
-32.4257844889
 20
44.1192720782
 11
-32.4285206711
 21
44.1181567125
  0
LINE
  5
2C6
100
AcDbEntity
  8
RACCORDO
100
AcDbLine
 62
250
  6
CONTINUOUS
 10
-31.8168747331
 20
44.3486545949
 11
-31.8833824112
 21
44.3215039684
  0
LINE
  5
2C7
100
AcDbEntity
  8
RACCORDO
100
AcDbLine
 62
250
  6
CONTINUOUS
 10
-31.8833824112
 20
44.3215039684
 11
-31.9471488105
 21
44.2959745154
  0
LINE
  5
2C8
100
AcDbEntity
  8
RACCORDO
100
AcDbLine
 62
7
  6
CONTINUOUS
 10
-31.8939450491
 20
44.3264069387
 11
-31.9938374783
 21
44.2868119626
  0
LINE
  5
2C9
100
AcDbEntity
  8
RACCORDO
100
AcDbLine
 62
7
  6
CONTINUOUS
 10
-32.4257844889
 20
44.1192720782
 11
-32.3113602377
 21
44.1643349505
  0
LINE
  5
2CA
100
AcDbEntity
  8
RACCORDO
100
AcDbLine
 62
250
  6
CONTINUOUS
 10
-32.3409972583
 20
44.1438575281
 11
-32.4285206711
 21
44.1093646909
  0
LWPOLYLINE
  5
2CB
100
AcDbEntity
  8
RACCORDO
100
AcDbPolyline
 62
7
  6
CONTINUOUS
 90
10
 70
0
 10
-31.893945029
 20
44.3264068886
 10
-31.8866573627
 20
44.3292455814
 10
-31.8790713944
 20
44.3320092056
 10
-31.8711788879
 20
44.3346912853
 10
-31.8629721539
 20
44.337287583
 10
-31.8544428492
 20
44.3397914533
 10
-31.845579503
 20
44.3421895331
 10
-31.836370263
 20
44.344470108
 10
-31.8268055136
 20
44.3466276086
 10
-31.8168749156
 20
44.3486549761
  0
LINE
  5
2CC
100
AcDbEntity
  8
RACCORDO
100
AcDbLine
 62
250
  6
CONTINUOUS
 10
-31.9471488105
 20
44.2959745154
 11
-32.0411313985
 21
44.2592279016
  0
LINE
  5
2CD
100
AcDbEntity
  8
RACCORDO
100
AcDbLine
 62
7
  6
CONTINUOUS
 10
-31.9938374783
 20
44.2868119626
 11
-32.3134625507
 21
44.1635177406
  0
LINE
  5
2CE
100
AcDbEntity
  8
RACCORDO
100
AcDbLine
 62
250
  6
CONTINUOUS
 10
-32.0411313985
 20
44.2592279016
 11
-32.3409972583
 21
44.1438575281
  0
LWPOLYLINE
  5
2CF
100
AcDbEntity
  8
RACCORDO
100
AcDbPolyline
 62
250
  6
CONTINUOUS
 90
4
 70
0
 10
-31.0882800083
 20
60.9405264742
 10
-31.0896386888
 20
60.9388841403
 10
-31.0939753183
 20
60.9342686726
 10
-31.101216277
 20
60.9267584249
  0
LWPOLYLINE
  5
2D0
100
AcDbEntity
  8
RACCORDO
100
AcDbPolyline
 62
250
  6
CONTINUOUS
 90
5
 70
0
 10
-30.8749672805
 20
60.7272137464
 10
-30.8763260452
 20
60.7255713443
 10
-30.8806628843
 20
60.7209556806
 10
-30.8879041373
 20
60.7134451496
 10
-30.8979268431
 20
60.703167284
  0
LWPOLYLINE
  5
2D1
100
AcDbEntity
  8
RACCORDO
100
AcDbPolyline
 62
250
  6
CONTINUOUS
 90
3
 70
0
 10
-32.1621350881
 20
41.6678812522
 10
-32.2527664914
 20
41.6085866686
 10
-32.297500444
 20
41.5796245957
  0
LINE
  5
2D2
100
AcDbEntity
  8
RACCORDO
100
AcDbLine
 62
250
  6
CONTINUOUS
 10
-32.297500444
 20
41.5796245957
 11
-32.420468211
 21
41.5011644405
  0
LWPOLYLINE
  5
2D3
100
AcDbEntity
  8
RACCORDO
100
AcDbPolyline
 62
250
  6
CONTINUOUS
 90
3
 70
0
 10
-31.8018238747
 20
42.5117507762
 10
-31.8709841225
 20
42.4732729471
 10
-31.9043723927
 20
42.4549368762
  0
LWPOLYLINE
  5
2D4
100
AcDbEntity
  8
RACCORDO
100
AcDbPolyline
 62
250
  6
CONTINUOUS
 90
3
 70
0
 10
-32.351742469
 20
42.2161288933
 10
-32.393223385
 20
42.1933959948
 10
-32.4285206711
 20
42.1737769975
  0
LINE
  5
2D5
100
AcDbEntity
  8
DRAFT
100
AcDbLine
 62
7
  6
CONTINUOUS
 10
-31.4672786066
 20
45.0025843064
 11
-30.9138047284
 21
45.5270209265
  0
LWPOLYLINE
  5
2D6
100
AcDbEntity
  8
0
100
AcDbPolyline
 62
7
  6
CONTINUOUS
 90
3
 70
0
 43
0.3500000006
 10
-44.0902654266
 20
77.069147644
 10
-44.1616920776
 20
76.8548631592
 10
-44.3045499115
 20
76.5691474915
  0
LINE
  5
2D7
100
AcDbEntity
  8
DRAFT
100
AcDbLine
 62
7
  6
CONTINUOUS
 10
-32.404954059
 20
33.2811509185
 11
-31.8835206711
 21
33.8025843064
  0
LINE
  5
2D8
100
AcDbEntity
  8
0
100
AcDbLine
 62
7
  6
CONTINUOUS
 10
-32.404954059
 20
31.1806944103
 11
-31.3712423296
 21
33.3675044118
  0
LINE
  5
2D9
100
AcDbEntity
  8
IMPORT_IGES
100
AcDbLine
 62
7
  6
CONTINUOUS
 10
-31.3712423296
 20
33.3675044118
 11
-31.1835206711
 21
33.7646282799
  0
LWPOLYLINE
  5
2DA
100
AcDbEntity
  8
0
100
AcDbPolyline
 62
7
  6
CONTINUOUS
 90
2
 70
0
 43
0.3500000006
 10
-46.161692688
 20
76.7834319763
 10
-46.161692688
 20
78.2834324341
  0
LWPOLYLINE
  5
2DB
100
AcDbEntity
  8
0
100
AcDbPolyline
 62
7
  6
CONTINUOUS
 90
4
 70
0
 43
0.3500000006
 10
-43.0902651215
 20
79.1405794373
 10
-43.0902651215
 20
79.7834328918
 10
-41.5902646637
 20
79.7834328918
 10
-42.447407135
 20
76.7834319763
  0
LWPOLYLINE
  5
2DC
100
AcDbEntity
  8
0
100
AcDbPolyline
 62
7
  6
CONTINUOUS
 90
4
 70
0
 43
0.3500000006
 10
-42.3498180542
 20
85.2120033875
 10
-42.3498180542
 20
86.0691503906
 10
-41.9212445526
 20
86.4977193604
 10
-41.2783865662
 20
86.4977193604
  0
LWPOLYLINE
  5
2DD
100
AcDbEntity
  8
RACCORDO
100
AcDbPolyline
 62
250
  6
CONTINUOUS
 90
7
 70
0
 10
-31.2560293284
 20
63.0832908573
 10
-31.2533772116
 20
63.1002771776
 10
-31.2512302394
 20
63.1146037411
 10
-31.2496250057
 20
63.1260263601
 10
-31.2485888709
 20
63.1343503426
 10
-31.2481394951
 20
63.1394338112
 10
-31.2482845378
 20
63.1411901212
  0
LWPOLYLINE
  5
2DE
100
AcDbEntity
  8
RACCORDO
100
AcDbPolyline
 62
250
  6
CONTINUOUS
 90
7
 70
0
 10
-31.2560293284
 20
62.6832908573
 10
-31.2533772116
 20
62.7002771776
 10
-31.2512302394
 20
62.7146037411
 10
-31.2496250057
 20
62.7260263601
 10
-31.2485888709
 20
62.7343503426
 10
-31.2481394951
 20
62.7394338112
 10
-31.2482845378
 20
62.7411901212
  0
LINE
  5
2DF
100
AcDbEntity
  8
RACCORDO
100
AcDbLine
 62
250
  6
CONTINUOUS
 10
-31.2626603411
 20
63.0425374335
 11
-31.2560293284
 21
63.0832908573
  0
LINE
  5
2E0
100
AcDbEntity
  8
RACCORDO
100
AcDbLine
 62
250
  6
CONTINUOUS
 10
-31.2626603411
 20
62.6425374335
 11
-31.2560293284
 21
62.6832908573
  0
LINE
  5
2E1
100
AcDbEntity
  8
RACCORDO
100
AcDbLine
 62
250
  6
CONTINUOUS
 10
-31.2706731172
 20
62.9951101027
 11
-31.2626603411
 21
63.0425374335
  0
LINE
  5
2E2
100
AcDbEntity
  8
RACCORDO
100
AcDbLine
 62
250
  6
CONTINUOUS
 10
-31.2706731172
 20
62.5951101027
 11
-31.2626603411
 21
62.6425374335
  0
LINE
  5
2E3
100
AcDbEntity
  8
RACCORDO
100
AcDbLine
 62
250
  6
CONTINUOUS
 10
-31.2795236921
 20
62.9442285706
 11
-31.2706731172
 21
62.9951101027
  0
LINE
  5
2E4
100
AcDbEntity
  8
RACCORDO
100
AcDbLine
 62
250
  6
CONTINUOUS
 10
-31.2795236921
 20
62.5442285706
 11
-31.2706731172
 21
62.5951101027
  0
LWPOLYLINE
  5
2E5
100
AcDbEntity
  8
DRAFT
100
AcDbPolyline
 62
7
  6
CONTINUOUS
 90
25
 70
0
 10
-30.6285206711
 20
45.6146695438
 10
-30.629386831
 20
45.6098282881
 10
-30.6319755935
 20
45.6049399356
 10
-30.6362679933
 20
45.6000044864
 10
-30.6422383139
 20
45.5950020584
 10
-30.6498568119
 20
45.5899525336
 10
-30.6590923649
 20
45.5849155582
 10
-30.6699064362
 20
45.5798898051
 10
-30.6822551114
 20
45.5748766014
 10
-30.6960956748
 20
45.569939574
 10
-30.7113762139
 20
45.5650786075
 10
-30.7280408278
 20
45.5602938173
 10
-30.7460377799
 20
45.5556491769
 10
-30.7653015222
 20
45.5511460522
 10
-30.7857675165
 20
45.5467830774
 10
-30.8073845168
 20
45.5426201281
 10
-30.8300812791
 20
45.5386587703
 10
-30.85378234
 20
45.534897438
 10
-30.8784301161
 20
45.5313913096
 10
-30.9039471991
 20
45.5281428098
 10
-30.9302480643
 20
45.5251495138
 10
-30.9572615343
 20
45.5224593255
 10
-30.9849044761
 20
45.5200882126
 10
-31.0130807512
 20
45.5180202073
 10
-31.0416965822
 20
45.5162553096
  0
LWPOLYLINE
  5
2E6
100
AcDbEntity
  8
RACCORDO
100
AcDbPolyline
 62
250
  6
CONTINUOUS
 90
10
 70
0
 10
-36.6807896963
 20
13.9529067588
 10
-36.6860637486
 20
13.9240973739
 10
-36.6906723616
 20
13.8981242551
 10
-36.6945816238
 20
13.8751787435
 10
-36.6977640224
 20
13.8554211031
 10
-36.7001922459
 20
13.8390193917
 10
-36.7018452719
 20
13.8261209243
 10
-36.7027150645
 20
13.8168066238
 10
-36.7028013119
 20
13.8111142826
 10
-36.7021081993
 20
13.8090640804
  0
LINE
  5
2E7
100
AcDbEntity
  8
RACCORDO
100
AcDbLine
 62
250
  6
CONTINUOUS
 10
-36.6684069043
 20
14.0181553988
 11
-36.6807896963
 21
13.9529067588
  0
LINE
  5
2E8
100
AcDbEntity
  8
RACCORDO
100
AcDbLine
 62
250
  6
CONTINUOUS
 10
-36.6539016549
 20
14.0918780846
 11
-36.6684069043
 21
14.0181553988
  0
LINE
  5
2E9
100
AcDbEntity
  8
RACCORDO
100
AcDbLine
 62
250
  6
CONTINUOUS
 10
-36.637713779
 20
14.1718392987
 11
-36.6539016549
 21
14.0918780846
  0
LWPOLYLINE
  5
2EA
100
AcDbEntity
  8
RACCORDO
100
AcDbPolyline
 62
250
  6
CONTINUOUS
 90
3
 70
0
 10
-36.6113566739
 20
14.2981624902
 10
-36.6203319594
 20
14.2556251216
 10
-36.637713779
 20
14.1718392987
  0
LINE
  5
2EB
100
AcDbEntity
  8
RACCORDO
100
AcDbLine
 62
7
  6
CONTINUOUS
 10
-34.5138314921
 20
43.0917270278
 11
-34.4884604801
 21
44.0709030571
  0
LINE
  5
2EC
100
AcDbEntity
  8
RACCORDO
100
AcDbLine
 62
250
  6
CONTINUOUS
 10
-34.026662972
 20
43.0934725777
 11
-34.054909345
 21
42.196506597
  0
LINE
  5
2ED
100
AcDbEntity
  8
RACCORDO
100
AcDbLine
 62
7
  6
CONTINUOUS
 10
-34.5433933956
 20
42.1602320591
 11
-34.5133685007
 21
43.1078237001
  0
LINE
  5
2EE
100
AcDbEntity
  8
RACCORDO
100
AcDbLine
 62
250
  6
CONTINUOUS
 10
-34.054909345
 20
42.196506597
 11
-34.088586395
 21
41.2976953491
  0
LINE
  5
2EF
100
AcDbEntity
  8
RACCORDO
100
AcDbLine
 62
7
  6
CONTINUOUS
 10
-34.5774745893
 20
41.2585806074
 11
-34.5415457277
 21
42.2136905041
  0
LINE
  5
2F0
100
AcDbEntity
  8
RACCORDO
100
AcDbLine
 62
7
  6
CONTINUOUS
 10
-34.5750574679
 20
41.317937429
 11
-34.6142607774
 21
40.4220527129
  0
LINE
  5
2F1
100
AcDbEntity
  8
RACCORDO
100
AcDbLine
 62
250
  6
CONTINUOUS
 10
-34.088586395
 20
41.2976953491
 11
-34.1279025008
 21
40.3985379711
  0
LINE
  5
2F2
100
AcDbEntity
  8
RACCORDO
100
AcDbLine
 62
7
  6
CONTINUOUS
 10
-34.6382329348
 20
39.9324261647
 11
-34.5962641886
 21
40.8167170937
  0
LINE
  5
2F3
100
AcDbEntity
  8
RACCORDO
100
AcDbLine
 62
250
  6
CONTINUOUS
 10
-34.1279025008
 20
40.3985379711
 11
-34.1729174575
 21
39.5082541609
  0
LINE
  5
2F4
100
AcDbEntity
  8
RACCORDO
100
AcDbLine
 62
7
  6
CONTINUOUS
 10
-34.6359328074
 20
39.9778089925
 11
-34.6837259102
 21
39.0925564526
  0
LINE
  5
2F5
100
AcDbEntity
  8
RACCORDO
100
AcDbLine
 62
250
  6
CONTINUOUS
 10
-34.1729174575
 20
39.5082541609
 11
-34.2237756403
 21
38.6208598905
  0
LINE
  5
2F6
100
AcDbEntity
  8
RACCORDO
100
AcDbLine
 62
7
  6
CONTINUOUS
 10
-34.7129619947
 20
38.599398647
 11
-34.6615089303
 21
39.490003825
  0
LINE
  5
2F7
100
AcDbEntity
  8
RACCORDO
100
AcDbLine
 62
7
  6
CONTINUOUS
 10
-34.7098079361
 20
38.6511661157
 11
-34.7666364726
 21
37.7624501373
  0
LINE
  5
2F8
100
AcDbEntity
  8
RACCORDO
100
AcDbLine
 62
250
  6
CONTINUOUS
 10
-34.2237756403
 20
38.6208598905
 11
-34.280846138
 21
37.7289847184
  0
LINE
  5
2F9
100
AcDbEntity
  8
RACCORDO
100
AcDbLine
 62
7
  6
CONTINUOUS
 10
-34.8014115049
 20
37.2570111024
 11
-34.7410843983
 21
38.1512129439
  0
LINE
  5
2FA
100
AcDbEntity
  8
RACCORDO
100
AcDbLine
 62
250
  6
CONTINUOUS
 10
-34.280846138
 20
37.7289847184
 11
-34.3449806973
 21
36.8142008215
  0
LINE
  5
2FB
100
AcDbEntity
  8
RACCORDO
100
AcDbLine
 62
7
  6
CONTINUOUS
 10
-34.8668725881
 20
36.3649495688
 11
-34.7977228551
 21
37.3094626132
  0
LINE
  5
2FC
100
AcDbEntity
  8
RACCORDO
100
AcDbLine
 62
250
  6
CONTINUOUS
 10
-34.3449806973
 20
36.8142008215
 11
-34.4177474057
 21
35.8586503572
  0
LINE
  5
2FD
100
AcDbEntity
  8
RACCORDO
100
AcDbLine
 62
7
  6
CONTINUOUS
 10
-34.8657111412
 20
36.3802025093
 11
-34.9428309552
 21
35.4041633336
  0
LINE
  5
2FE
100
AcDbEntity
  8
RACCORDO
100
AcDbLine
 62
250
  6
CONTINUOUS
 10
-34.4177474057
 20
35.8586503572
 11
-34.5002815393
 21
34.8505340137
  0
LINE
  5
2FF
100
AcDbEntity
  8
RACCORDO
100
AcDbLine
 62
7
  6
CONTINUOUS
 10
-34.9371317643
 20
35.4739685698
 11
-35.0309246376
 21
34.3636561441
  0
LINE
  5
300
100
AcDbEntity
  8
RACCORDO
100
AcDbLine
 62
250
  6
CONTINUOUS
 10
-34.5002815393
 20
34.8505340137
 11
-34.5945158812
 21
33.7721754728
  0
LINE
  5
301
100
AcDbEntity
  8
RACCORDO
100
AcDbLine
 62
7
  6
CONTINUOUS
 10
-35.0929510426
 20
33.6674272628
 11
-35.0124584801
 21
34.5762818709
  0
LINE
  5
302
100
AcDbEntity
  8
RACCORDO
100
AcDbLine
 62
7
  6
CONTINUOUS
 10
-35.0794288213
 20
33.8170218968
 11
-35.1872184071
 21
32.6532910502
  0
LINE
  5
303
100
AcDbEntity
  8
RACCORDO
100
AcDbLine
 62
250
  6
CONTINUOUS
 10
-34.5945158812
 20
33.7721754728
 11
-34.7025711411
 21
32.6059863075
  0
LINE
  5
304
100
AcDbEntity
  8
RACCORDO
100
AcDbLine
 62
7
  6
CONTINUOUS
 10
-35.1352717899
 20
33.2062799187
 11
-35.2466015885
 21
32.0361995753
  0
LINE
  5
305
100
AcDbEntity
  8
RACCORDO
100
AcDbLine
 62
250
  6
CONTINUOUS
 10
-34.7025711411
 20
32.6059863075
 11
-34.8257955555
 21
31.3402496792
  0
LINE
  5
306
100
AcDbEntity
  8
RACCORDO
100
AcDbLine
 62
7
  6
CONTINUOUS
 10
-35.4199877756
 20
30.3042319848
 11
-35.2241002214
 21
32.2683009048
  0
LINE
  5
307
100
AcDbEntity
  8
RACCORDO
100
AcDbLine
 62
250
  6
CONTINUOUS
 10
-34.8257955555
 20
31.3402496792
 11
-34.966585452
 21
29.9535184616
  0
LINE
  5
308
100
AcDbEntity
  8
RACCORDO
100
AcDbLine
 62
7
  6
CONTINUOUS
 10
-35.3783762859
 20
30.7120206844
 11
-35.5275757522
 21
29.2685067715
  0
LINE
  5
309
100
AcDbEntity
  8
RACCORDO
100
AcDbLine
 62
7
  6
CONTINUOUS
 10
-35.5275757522
 20
29.2685067715
 11
-37.0955291474
 21
14.3504267218
  0
LINE
  5
30A
100
AcDbEntity
  8
RACCORDO
100
AcDbLine
 62
250
  6
CONTINUOUS
 10
-34.966585452
 20
29.9535184616
 11
-36.6113566739
 21
14.2981624902
  0
LINE
  5
30B
100
AcDbEntity
  8
0
100
AcDbLine
 62
7
  6
CONTINUOUS
 10
-31.9151179759
 20
32.2169392503
 11
-32.404954059
 21
28.2275444967
  0
LWPOLYLINE
  5
30C
100
AcDbEntity
  8
RACCORDO
100
AcDbPolyline
 62
250
  6
CONTINUOUS
 90
5
 70
0
 10
-29.8454950994
 20
41.0199702003
 10
-29.8436880127
 20
41.031379047
 10
-29.8424400079
 20
41.0396818154
 10
-29.8417723974
 20
41.0447367162
 10
-29.8416965822
 20
41.0464574252
  0
LINE
  5
30D
100
AcDbEntity
  8
RACCORDO
100
AcDbLine
 62
250
  6
CONTINUOUS
 10
-29.8506540557
 20
40.9886633183
 11
-29.8454950994
 21
41.0199702003
  0
LINE
  5
30E
100
AcDbEntity
  8
RACCORDO
100
AcDbLine
 62
250
  6
CONTINUOUS
 10
-29.8615362069
 20
40.9248009411
 11
-29.8506540557
 21
40.9886633183
  0
LINE
  5
30F
100
AcDbEntity
  8
RACCORDO
100
AcDbLine
 62
250
  6
CONTINUOUS
 10
-29.8746809107
 20
40.8494958746
 11
-29.8615362069
 21
40.9248009411
  0
LWPOLYLINE
  5
310
100
AcDbEntity
  8
RACCORDO
100
AcDbPolyline
 62
250
  6
CONTINUOUS
 90
9
 70
0
 10
-33.8257591296
 20
13.3664114883
 10
-33.8324710781
 20
13.3302379563
 10
-33.838250553
 20
13.298008911
 10
-33.84303467
 20
13.2700750235
 10
-33.846771375
 20
13.2467402314
 10
-33.8494200104
 20
13.2282584316
 10
-33.8509517573
 20
13.2148307175
 10
-33.8513499493
 20
13.2066031907
 10
-33.8506102537
 20
13.2036653722
  0
LINE
  5
311
100
AcDbEntity
  8
RACCORDO
100
AcDbLine
 62
250
  6
CONTINUOUS
 10
-33.8098392828
 20
13.4489790181
 11
-33.8257591296
 21
13.3664114883
  0
LINE
  5
312
100
AcDbEntity
  8
RACCORDO
100
AcDbLine
 62
250
  6
CONTINUOUS
 10
-33.7911819972
 20
13.5421277429
 11
-33.8098392828
 21
13.4489790181
  0
LWPOLYLINE
  5
313
100
AcDbEntity
  8
RACCORDO
100
AcDbPolyline
 62
250
  6
CONTINUOUS
 90
3
 70
0
 10
-33.7598587282
 20
13.692763782
 10
-33.7705970725
 20
13.6418146425
 10
-33.7911819972
 20
13.5421277429
  0
LINE
  5
314
100
AcDbEntity
  8
RACCORDO
100
AcDbLine
 62
250
  6
CONTINUOUS
 10
-33.9416091452
 20
65.315999369
 11
-33.9436860254
 21
65.4030021576
  0
LINE
  5
315
100
AcDbEntity
  8
RACCORDO
100
AcDbLine
 62
250
  6
CONTINUOUS
 10
-33.9436860254
 20
65.4030021576
 11
-33.9453004376
 21
65.4873821128
  0
LINE
  5
316
100
AcDbEntity
  8
RACCORDO
100
AcDbLine
 62
250
  6
CONTINUOUS
 10
-33.9453004376
 20
65.4873821128
 11
-33.9464021907
 21
65.5665318518
  0
LWPOLYLINE
  5
317
100
AcDbEntity
  8
RACCORDO
100
AcDbPolyline
 62
250
  6
CONTINUOUS
 90
12
 70
0
 10
-33.9464021907
 20
65.5665318518
 10
-33.946957035
 20
65.6379240487
 10
-33.947024187
 20
65.6700732155
 10
-33.9469498591
 20
65.6995575612
 10
-33.9467343005
 20
65.7261166027
 10
-33.9463797458
 20
65.7495029136
 10
-33.9458894569
 20
65.7695515039
 10
-33.9452677311
 20
65.7861228361
 10
-33.944521378
 20
65.7990840557
 10
-33.9436578466
 20
65.8083680763
 10
-33.9426843261
 20
65.8139510241
 10
-33.9416091473
 20
65.8158280314
  0
LINE
  5
318
100
AcDbEntity
  8
RACCORDO
100
AcDbLine
 62
250
  6
CONTINUOUS
 10
-31.4366717422
 20
61.0534541085
 11
-31.4365666424
 21
61.0137247385
  0
LWPOLYLINE
  5
319
100
AcDbEntity
  8
RACCORDO
100
AcDbPolyline
 62
250
  6
CONTINUOUS
 90
9
 70
0
 10
-33.6744969514
 20
13.3477015909
 10
-33.6744969514
 20
13.3107106103
 10
-33.6742946766
 20
13.2777843759
 10
-33.6738923411
 20
13.24928332
 10
-33.6732943493
 20
13.225519434
 10
-33.6725072471
 20
13.2067528531
 10
-33.6715396507
 20
13.1931890087
 10
-33.670402152
 20
13.1849763797
 10
-33.6691072028
 20
13.1822048669
  0
LINE
  5
31A
100
AcDbEntity
  8
RACCORDO
100
AcDbLine
 62
7
  6
CONTINUOUS
 10
-32.4285206711
 20
65.8554496476
 11
-32.4285206711
 21
13.1497189653
  0
LINE
  5
31B
100
AcDbEntity
  8
RACCORDO
100
AcDbLine
 62
7
  6
CONTINUOUS
 10
-32.404954059
 20
28.0475750684
 11
-32.404954059
 21
33.2811509185
  0
LINE
  5
31C
100
AcDbEntity
  8
DRAFT
100
AcDbLine
 62
250
  6
CONTINUOUS
 10
-32.1785206711
 20
27.8307121405
 11
-32.1785206711
 21
24.6744564723
  0
LINE
  5
31D
100
AcDbEntity
  8
RACCORDO
100
AcDbLine
 62
7
  6
CONTINUOUS
 10
-31.7185206711
 20
45.4785686261
 11
-31.7185206711
 21
41.3773921501
  0
LINE
  5
31E
100
AcDbEntity
  8
RACCORDO
100
AcDbLine
 62
7
  6
CONTINUOUS
 10
-31.3965433886
 20
61.9321235355
 11
-31.3965433886
 21
62.0730450774
  0
LINE
  5
31F
100
AcDbEntity
  8
IMPORT_IGES
100
AcDbLine
 62
7
  6
CONTINUOUS
 10
-31.3712198062
 20
33.8025843064
 11
-31.3712198062
 21
33.3675520599
  0
LINE
  5
320
100
AcDbEntity
  8
RACCORDO
100
AcDbLine
 62
250
  6
CONTINUOUS
 10
-31.3542206829
 20
41.3131562332
 11
-31.3542206829
 21
42.8751221827
  0
LINE
  5
321
100
AcDbEntity
  8
RACCORDO
100
AcDbLine
 62
7
  6
CONTINUOUS
 10
-31.3303507523
 20
42.8324933254
 11
-31.3303507523
 21
41.3089473204
  0
LINE
  5
322
100
AcDbEntity
  8
DRAFT
100
AcDbLine
 62
7
  6
CONTINUOUS
 10
-31.2285206711
 20
27.7975164324
 11
-31.2285206711
 21
27.7475979102
  0
LINE
  5
323
100
AcDbEntity
  8
DRAFT
100
AcDbLine
 62
7
  6
CONTINUOUS
 10
-31.2285206711
 20
24.7575707027
 11
-31.2285206711
 21
24.7076521804
  0
LINE
  5
324
100
AcDbEntity
  8
IMPORT_IGES
100
AcDbLine
 62
7
  6
CONTINUOUS
 10
-31.1835206711
 20
33.7646282799
 11
-31.1835206711
 21
37.7221113974
  0
LINE
  5
325
100
AcDbEntity
  8
DRAFT
100
AcDbLine
 62
250
  6
CONTINUOUS
 10
-31.0416965822
 20
46.161387734
 11
-31.0416965822
 21
45.5162553096
  0
LINE
  5
326
100
AcDbEntity
  8
RACCORDO
100
AcDbLine
 62
250
  6
CONTINUOUS
 10
-30.9763390372
 20
60.3736603558
 11
-30.9763390372
 21
59.8876663248
  0
LINE
  5
327
100
AcDbEntity
  8
RACCORDO
100
AcDbLine
 62
250
  6
CONTINUOUS
 10
-30.8772116907
 20
59.323103869
 11
-30.8772116907
 21
59.9163634957
  0
LINE
  5
328
100
AcDbEntity
  8
RACCORDO
100
AcDbLine
 62
7
  6
CONTINUOUS
 10
-30.7285206711
 20
59.4730981575
 11
-30.7285206711
 21
60.3736603558
  0
LINE
  5
329
100
AcDbEntity
  8
DRAFT
100
AcDbLine
 62
7
  6
CONTINUOUS
 10
-30.6285206711
 20
46.3451047121
 11
-30.6285206711
 21
45.6146695438
  0
LINE
  5
32A
100
AcDbEntity
  8
DRAFT
100
AcDbLine
 62
7
  6
CONTINUOUS
 10
-30.2785206711
 20
27.6644836799
 11
-30.2785206711
 21
24.840684933
  0
LINE
  5
32B
100
AcDbEntity
  8
DRAFT
100
AcDbLine
 62
7
  6
CONTINUOUS
 10
-29.9898455365
 20
27.6392278781
 11
-29.9898455365
 21
24.8659407347
  0
LINE
  5
32C
100
AcDbEntity
  8
DRAFT
100
AcDbLine
 62
7
  6
CONTINUOUS
 10
-31.7099344838
 20
37.6292904392
 11
-31.7138292622
 21
33.8025843064
  0
LINE
  5
32D
100
AcDbEntity
  8
RACCORDO
100
AcDbLine
 62
7
  6
CONTINUOUS
 10
-34.4285206711
 20
65.315999369
 11
-34.4297881371
 21
49.1971063919
  0
LINE
  5
32E
100
AcDbEntity
  8
RACCORDO
100
AcDbLine
 62
250
  6
CONTINUOUS
 10
-33.9416091452
 20
65.315999369
 11
-33.9428562757
 21
49.1958670133
  0
LINE
  5
32F
100
AcDbEntity
  8
RACCORDO
100
AcDbLine
 62
250
  6
CONTINUOUS
 10
-33.9428562757
 20
49.1958670133
 11
-33.9467544445
 21
48.1890703786
  0
LINE
  5
330
100
AcDbEntity
  8
RACCORDO
100
AcDbLine
 62
250
  6
CONTINUOUS
 10
-31.4365666424
 20
61.0137247385
 11
-31.4368014618
 21
60.9326242405
  0
LINE
  5
331
100
AcDbEntity
  8
RACCORDO
100
AcDbLine
 62
7
  6
CONTINUOUS
 10
-34.4291516074
 20
49.4984515072
 11
-34.4366120682
 21
47.7030869857
  0
LINE
  5
332
100
AcDbEntity
  8
RACCORDO
100
AcDbLine
 62
250
  6
CONTINUOUS
 10
-33.9467544445
 20
48.1890703786
 11
-33.9534061357
 21
47.2170861715
  0
LINE
  5
333
100
AcDbEntity
  8
RACCORDO
100
AcDbLine
 62
250
  6
CONTINUOUS
 10
-31.4368014618
 20
60.9326242405
 11
-31.4374701312
 21
60.8369635644
  0
LINE
  5
334
100
AcDbEntity
  8
RACCORDO
100
AcDbLine
 62
250
  6
CONTINUOUS
 10
-33.6738923411
 20
13.4322180169
 11
-33.6744969514
 21
13.3477015909
  0
LINE
  5
335
100
AcDbEntity
  8
RACCORDO
100
AcDbLine
 62
7
  6
CONTINUOUS
 10
-34.4341296994
 20
48.1050057637
 11
-34.4447597986
 21
46.7464837745
  0
LINE
  5
336
100
AcDbEntity
  8
RACCORDO
100
AcDbLine
 62
250
  6
CONTINUOUS
 10
-33.9534061357
 20
47.2170861715
 11
-33.9631364449
 21
46.272408513
  0
LINE
  5
337
100
AcDbEntity
  8
RACCORDO
100
AcDbLine
 62
7
  6
CONTINUOUS
 10
-34.4438701253
 20
46.8342924288
 11
-34.4631740541
 21
45.3564969315
  0
LINE
  5
338
100
AcDbEntity
  8
RACCORDO
100
AcDbLine
 62
250
  6
CONTINUOUS
 10
-33.9631364449
 20
46.272408513
 11
-33.9763387478
 21
45.3483000847
  0
LINE
  5
339
100
AcDbEntity
  8
RACCORDO
100
AcDbLine
 62
250
  6
CONTINUOUS
 10
-33.6725072471
 20
13.5276430908
 11
-33.6738923411
 21
13.4322180169
  0
LINE
  5
33A
100
AcDbEntity
  8
RACCORDO
100
AcDbLine
 62
7
  6
CONTINUOUS
 10
-34.4583468521
 20
45.6646752503
 11
-34.4800834419
 21
44.4507753249
  0
LINE
  5
33B
100
AcDbEntity
  8
RACCORDO
100
AcDbLine
 62
250
  6
CONTINUOUS
 10
-33.9763387478
 20
45.3483000847
 11
-33.9932823503
 21
44.4402671353
  0
LINE
  5
33C
100
AcDbEntity
  8
RACCORDO
100
AcDbLine
 62
7
  6
CONTINUOUS
 10
-34.4773240969
 20
44.5843040809
 11
-34.490077397
 21
44.0014788645
  0
LWPOLYLINE
  5
33D
100
AcDbEntity
  8
RACCORDO
100
AcDbPolyline
 62
250
  6
CONTINUOUS
 90
3
 70
0
 10
-33.9932823503
 20
44.4402671353
 10
-34.0143744422
 20
43.5415502934
 10
-34.026662972
 20
43.0934725777
  0
LWPOLYLINE
  5
33E
100
AcDbEntity
  8
RACCORDO
100
AcDbPolyline
 62
250
  6
CONTINUOUS
 90
3
 70
0
 10
-33.6691072028
 20
13.6820335294
 10
-33.670402152
 20
13.6298099033
 10
-33.6725072471
 20
13.5276430908
  0
LINE
  5
33F
100
AcDbEntity
  8
DRAFT
100
AcDbLine
 62
7
  6
CONTINUOUS
 10
-31.7089692956
 20
45.4791110622
 11
-31.6672786066
 21
45.0025843064
  0
LWPOLYLINE
  5
340
100
AcDbEntity
  8
RACCORDO
100
AcDbPolyline
 62
250
  6
CONTINUOUS
 90
16
 70
0
 10
-29.626775364
 20
40.5540535487
 10
-29.6282372981
 20
40.5823132807
 10
-29.6320697435
 20
40.6097322784
 10
-29.6382727001
 20
40.6363105418
 10
-29.6469111449
 20
40.6621748197
 10
-29.6579201009
 20
40.6871983633
 10
-29.6711046371
 20
40.7110009266
 10
-29.6864922657
 20
40.7336347813
 10
-29.7040554745
 20
40.7550476557
 10
-29.723516796
 20
40.7747024884
 10
-29.744965565
 20
40.7926107258
 10
-29.7683124466
 20
40.8087609214
 10
-29.7930119691
 20
40.8225816742
 10
-29.8188823087
 20
40.8338825172
 10
-29.8461052892
 20
40.8428539173
 10
-29.8746809107
 20
40.8494958746
  0
LINE
  5
341
100
AcDbEntity
  8
DRAFT
100
AcDbLine
 62
7
  6
CONTINUOUS
 10
-29.7398455365
 20
27.6173557122
 11
-29.7398455365
 21
24.8878129006
  0
LINE
  5
342
100
AcDbEntity
  8
RACCORDO
100
AcDbLine
 62
250
  6
CONTINUOUS
 10
-29.626775364
 20
38.4511150641
 11
-29.626775364
 21
40.5540535487
  0
LINE
  5
343
100
AcDbEntity
  8
RACCORDO
100
AcDbLine
 62
7
  6
CONTINUOUS
 10
-29.4285206711
 20
38.4511150641
 11
-29.4285206711
 21
40.5540535487
  0
LINE
  5
344
100
AcDbEntity
  8
RACCORDO
100
AcDbLine
 62
7
  6
CONTINUOUS
 10
-29.1285206711
 20
27.1057061298
 11
-29.1285206711
 21
25.3994624831
  0
LINE
  5
345
100
AcDbEntity
  8
RACCORDO
100
AcDbLine
 62
250
  6
CONTINUOUS
 10
-29.8746809107
 20
38.1556727382
 11
-29.8575664065
 21
38.0572803542
  0
LWPOLYLINE
  5
346
100
AcDbEntity
  8
RACCORDO
100
AcDbPolyline
 62
250
  6
CONTINUOUS
 90
7
 70
0
 10
-29.8575664065
 20
38.0572803542
 10
-29.8478307178
 20
37.9995201601
 10
-29.8454953261
 20
37.9851996067
 10
-29.8436881568
 20
37.9737903103
 10
-29.8424400802
 20
37.965487162
 10
-29.841772417
 20
37.960431996
 10
-29.8416965771
 20
37.9587111885
  0
LWPOLYLINE
  5
347
100
AcDbEntity
  8
RACCORDO
100
AcDbPolyline
 62
250
  6
CONTINUOUS
 90
5
 70
0
 10
-31.4374701312
 20
61.0869540452
 10
-31.4372040791
 20
61.084812962
 10
-31.4369799038
 20
61.0784313456
 10
-31.4368014404
 20
61.0679184266
 10
-31.4366717422
 20
61.0534541085
  0
LWPOLYLINE
  5
348
100
AcDbEntity
  8
RACCORDO
100
AcDbPolyline
 62
250
  6
CONTINUOUS
 90
17
 70
0
 10
-30.8383239491
 20
62.5221676449
 10
-30.8388573385
 20
62.5251350044
 10
-30.8522375386
 20
62.5727650956
 10
-30.869876352
 20
62.6192667609
 10
-30.8904351085
 20
62.6627142877
 10
-30.9140569737
 20
62.7026303101
 10
-30.9405987821
 20
62.7394921941
 10
-30.9682923664
 20
62.772806325
 10
-30.9965027656
 20
62.8020365296
 10
-31.0258649407
 20
62.8277189811
 10
-31.0565156066
 20
62.8509685839
 10
-31.0880643218
 20
62.8720598477
 10
-31.1209015278
 20
62.8907182627
 10
-31.1563352639
 20
62.907235205
 10
-31.1948015432
 20
62.9217077997
 10
-31.2358643526
 20
62.9340389215
 10
-31.2795236921
 20
62.9442285706
  0
LINE
  5
349
100
AcDbEntity
  8
RACCORDO
100
AcDbLine
 62
250
  6
CONTINUOUS
 10
-31.2795236921
 20
61.4609400423
 11
-31.2706735649
 21
61.4100611139
  0
LINE
  5
34A
100
AcDbEntity
  8
RACCORDO
100
AcDbLine
 62
250
  6
CONTINUOUS
 10
-31.2706735649
 20
61.4100611139
 11
-31.2626609382
 21
61.3626347615
  0
LWPOLYLINE
  5
34B
100
AcDbEntity
  8
RACCORDO
100
AcDbPolyline
 62
250
  6
CONTINUOUS
 90
8
 70
0
 10
-31.2626609382
 20
61.3626347615
 10
-31.2560298229
 20
61.3218808522
 10
-31.2533775989
 20
61.3048939372
 10
-31.2512305052
 20
61.2905666657
 10
-31.2496251593
 20
61.2791433659
 10
-31.248588936
 20
61.2708188148
 10
-31.2481395065
 20
61.2657349504
 10
-31.2482845425
 20
61.2639784908
  0
LWPOLYLINE
  5
34C
100
AcDbEntity
  8
0
100
AcDbPolyline
 62
7
  6
CONTINUOUS
 90
10
 70
0
 43
0.3500000006
 10
-44.1616920776
 20
77.2834321289
 10
-44.0902654266
 20
77.1405788269
 10
-44.0902654266
 20
77.069147644
 10
-44.2331232605
 20
76.926294342
 10
-44.3045499115
 20
76.926294342
 10
-44.3759810944
 20
76.9977255249
 10
-44.3759810944
 20
77.069147644
 10
-44.3045499115
 20
77.2120100098
 10
-44.2331232605
 20
77.2834321289
 10
-44.1616920776
 20
77.2834321289
  0
LINE
  5
34D
100
AcDbEntity
  8
RACCORDO
100
AcDbLine
 62
7
  6
CONTINUOUS
 10
-33.6691072028
 20
13.1822048669
 11
-32.4285206711
 21
13.1497189653
  0
LINE
  5
34E
100
AcDbEntity
  8
RACCORDO
100
AcDbLine
 62
250
  6
CONTINUOUS
 10
-33.6691072028
 20
13.6820335294
 11
-32.4285206711
 21
13.6495476277
  0
LINE
  5
34F
100
AcDbEntity
  8
RACCORDO
100
AcDbLine
 62
250
  6
CONTINUOUS
 10
-36.6113566739
 20
14.2981624902
 11
-37.0317136126
 21
14.3430446563
  0
LWPOLYLINE
  5
350
100
AcDbEntity
  8
RACCORDO
100
AcDbPolyline
 62
250
  6
CONTINUOUS
 90
5
 70
0
 10
-37.0317136126
 20
14.3430446563
 10
-37.0794611058
 20
14.3483905239
 10
-37.0883939767
 20
14.3494441114
 10
-37.0937531251
 20
14.3501234568
 10
-37.0955291474
 20
14.3504267218
  0
LWPOLYLINE
  5
351
100
AcDbEntity
  8
RACCORDO
100
AcDbPolyline
 62
250
  6
CONTINUOUS
 90
10
 70
0
 10
-33.7598587282
 20
13.692763782
 10
-33.7498876787
 20
13.6907528603
 10
-33.7398864312
 20
13.6889462781
 10
-33.7298549857
 20
13.6873440353
 10
-33.7197905625
 20
13.6859456941
 10
-33.7096959413
 20
13.6847516923
 10
-33.6995794609
 20
13.6837633436
 10
-33.6894439008
 20
13.6829810858
 10
-33.6792864814
 20
13.6824044811
 10
-33.6691072028
 20
13.6820335294
  0
LINE
  5
352
100
AcDbEntity
  8
RACCORDO
100
AcDbLine
 62
7
  6
CONTINUOUS
 10
-36.7021081993
 20
13.8090640804
 11
-33.8506102537
 21
13.2036653722
  0
LINE
  5
353
100
AcDbEntity
  8
RACCORDO
100
AcDbLine
 62
250
  6
CONTINUOUS
 10
-36.6113566739
 20
14.2981624902
 11
-33.7598587282
 21
13.692763782
  0
LINE
  5
354
100
AcDbEntity
  8
DRAFT
100
AcDbLine
 62
7
  6
CONTINUOUS
 10
-32.4285206711
 20
24.4525843064
 11
-31.2285206711
 21
24.7076521804
  0
LINE
  5
355
100
AcDbEntity
  8
RACCORDO
100
AcDbLine
 62
7
  6
CONTINUOUS
 10
-29.5849427997
 20
24.901365134
 11
-29.7398455365
 21
24.8878129006
  0
LINE
  5
356
100
AcDbEntity
  8
DRAFT
100
AcDbLine
 62
7
  6
CONTINUOUS
 10
-29.7398455365
 20
24.8878129006
 11
-32.4285206711
 21
24.6525843064
  0
LINE
  5
357
100
AcDbEntity
  8
RACCORDO
100
AcDbLine
 62
250
  6
CONTINUOUS
 10
-32.404954059
 20
29.4019444187
 11
-32.4285206711
 21
29.4023557754
  0
LINE
  5
358
100
AcDbEntity
  8
RACCORDO
100
AcDbLine
 62
7
  6
CONTINUOUS
 10
-32.4285206711
 20
29.5029956632
 11
-32.404954059
 21
29.5025843064
  0
LINE
  5
359
100
AcDbEntity
  8
RACCORDO
100
AcDbLine
 62
250
  6
CONTINUOUS
 10
-32.4285206711
 20
30.0029195108
 11
-32.404954059
 21
30.002508154
  0
LINE
  5
35A
100
AcDbEntity
  8
RACCORDO
100
AcDbLine
 62
7
  6
CONTINUOUS
 10
-29.5849427997
 20
27.6038034788
 11
-29.7398455365
 21
27.6173557122
  0
LINE
  5
35B
100
AcDbEntity
  8
DRAFT
100
AcDbLine
 62
7
  6
CONTINUOUS
 10
-29.7398455365
 20
27.6173557122
 11
-32.4285206711
 21
27.8525843064
  0
LINE
  5
35C
100
AcDbEntity
  8
RACCORDO
100
AcDbLine
 62
250
  6
CONTINUOUS
 10
-35.0434032786
 20
29.2162425399
 11
-35.4631674437
 21
29.2610594941
  0
LWPOLYLINE
  5
35D
100
AcDbEntity
  8
RACCORDO
100
AcDbPolyline
 62
250
  6
CONTINUOUS
 90
5
 70
0
 10
-35.4631674437
 20
29.2610594941
 10
-35.5040753154
 20
29.2656183524
 10
-35.5170946419
 20
29.2671237255
 10
-35.5249558876
 20
29.2680899446
 10
-35.5275757522
 20
29.2685067715
  0
LINE
  5
35E
100
AcDbEntity
  8
DRAFT
100
AcDbLine
 62
7
  6
CONTINUOUS
 10
-32.4285206711
 20
28.0525843064
 11
-31.2285206711
 21
27.7975164324
  0
LINE
  5
35F
100
AcDbEntity
  8
RACCORDO
100
AcDbLine
 62
250
  6
CONTINUOUS
 10
-32.4285206711
 20
32.0022491021
 11
-32.404954059
 21
32.0026604589
  0
LINE
  5
360
100
AcDbEntity
  8
RACCORDO
100
AcDbLine
 62
7
  6
CONTINUOUS
 10
-32.4285206711
 20
32.5021729497
 11
-32.404954059
 21
32.5025843064
  0
LINE
  5
361
100
AcDbEntity
  8
RACCORDO
100
AcDbLine
 62
250
  6
CONTINUOUS
 10
-32.4285206711
 20
32.6015026023
 11
-32.404954059
 21
32.601913959
  0
LINE
  5
362
100
AcDbEntity
  8
DRAFT
100
AcDbLine
 62
7
  6
CONTINUOUS
 10
-31.3712198065
 20
33.8025843064
 11
-31.8835206711
 21
33.8025843064
  0
LINE
  5
363
100
AcDbEntity
  8
IMPORT_IGES
100
AcDbLine
 62
7
  6
CONTINUOUS
 10
-31.7175229134
 20
43.0952515623
 11
-31.3542206829
 21
42.8751221827
  0
LINE
  5
364
100
AcDbEntity
  8
RACCORDO
100
AcDbLine
 62
250
  6
CONTINUOUS
 10
-31.2628750698
 20
60.7637497789
 11
-31.0495623419
 21
60.5504370511
  0
LINE
  5
365
100
AcDbEntity
  8
RACCORDO
100
AcDbLine
 62
7
  6
CONTINUOUS
 10
-31.0882800083
 20
60.9405264742
 11
-30.8749672805
 21
60.7272137464
  0
LWPOLYLINE
  5
366
100
AcDbEntity
  8
RACCORDO
100
AcDbPolyline
 62
250
  6
CONTINUOUS
 90
10
 70
0
 10
-31.0495623419
 20
60.5504370511
 10
-31.0354150341
 20
60.5351932969
 10
-31.0226714261
 20
60.5187880102
 10
-31.0113315181
 20
60.5012211911
 10
-31.0012631147
 20
60.4824101633
 10
-30.9925984112
 20
60.462437603
 10
-30.9857339932
 20
60.4415515392
 10
-30.9808020557
 20
60.4198346482
 10
-30.9776704037
 20
60.3972042537
 10
-30.9763390372
 20
60.3736603558
  0
LINE
  5
367
100
AcDbEntity
  8
RACCORDO
100
AcDbLine
 62
7
  6
CONTINUOUS
 10
-31.8018238747
 20
42.5117507762
 11
-31.9104922863
 21
42.4854575096
  0
LWPOLYLINE
  5
368
100
AcDbEntity
  8
RACCORDO
100
AcDbPolyline
 62
7
  6
CONTINUOUS
 90
3
 70
0
 10
-31.9104922863
 20
42.4854575096
 10
-32.1297049176
 20
42.4337701417
 10
-32.1385791802
 20
42.4316391147
  0
LWPOLYLINE
  5
369
100
AcDbEntity
  8
RACCORDO
100
AcDbPolyline
 62
250
  6
CONTINUOUS
 90
19
 70
0
 10
-29.8746809107
 20
38.1556727382
 10
-29.8481269065
 20
38.1618048558
 10
-29.8228345577
 20
38.1698402546
 10
-29.7988038642
 20
38.1797789345
 10
-29.7758292368
 20
38.1919215663
 10
-29.7541162648
 20
38.2059674792
 10
-29.7342817158
 20
38.2210146612
 10
-29.7165702834
 20
38.2369930009
 10
-29.700737274
 20
38.2539726096
 10
-29.6866653751
 20
38.2712618094
 10
-29.6744730318
 20
38.2885419265
 10
-29.6640417991
 20
38.3061316348
 10
-29.6548990285
 20
38.3242952778
 10
-29.6468641873
 20
38.3429262806
 10
-29.6401178083
 20
38.3621312183
 10
-29.6347288414
 20
38.3824941586
 10
-29.6307202701
 20
38.404209791
 10
-29.6280691109
 20
38.4270834262
 10
-29.626775364
 20
38.4511150641
  0
LWPOLYLINE
  5
36A
100
AcDbEntity
  8
RACCORDO
100
AcDbPolyline
 62
7
  6
CONTINUOUS
 90
6
 70
0
 10
-32.1385791802
 20
42.4316391147
 10
-32.1548332057
 20
42.4279157844
 10
-32.1614392494
 20
42.426186159
 10
-32.1666152646
 20
42.4246427587
 10
-32.1705582255
 20
42.4235676996
 10
-32.1732610022
 20
42.4231982002
  0
LWPOLYLINE
  5
36B
100
AcDbEntity
  8
RACCORDO
100
AcDbPolyline
 62
7
  6
CONTINUOUS
 90
7
 70
0
 10
-32.1621350881
 20
41.6678812522
 10
-32.3950911239
 20
41.6181650883
 10
-32.4036970348
 20
41.6162925312
 10
-32.4115803758
 20
41.6146244779
 10
-32.4186532697
 20
41.6131605614
 10
-32.4244541133
 20
41.6117901425
 10
-32.4285206711
 20
41.6106868607
  0
LINE
  5
36C
100
AcDbEntity
  8
RACCORDO
100
AcDbLine
 62
7
  6
CONTINUOUS
 10
-31.7879651414
 20
43.1186958312
 11
-31.8991164947
 21
43.0968531624
  0
LWPOLYLINE
  5
36D
100
AcDbEntity
  8
RACCORDO
100
AcDbPolyline
 62
7
  6
CONTINUOUS
 90
3
 70
0
 10
-31.8991164947
 20
43.0968531624
 10
-32.1234633763
 20
43.0541632314
 10
-32.1325829022
 20
43.0523919743
  0
LWPOLYLINE
  5
36E
100
AcDbEntity
  8
RACCORDO
100
AcDbPolyline
 62
7
  6
CONTINUOUS
 90
6
 70
0
 10
-32.1325829022
 20
43.0523919743
 10
-32.1493281361
 20
43.0493245428
 10
-32.1561662977
 20
43.0478528708
 10
-32.1615523319
 20
43.0465049956
 10
-32.1656761032
 20
43.0455786847
 10
-32.1685206711
 20
43.0453175842
  0
LINE
  5
36F
100
AcDbEntity
  8
RACCORDO
100
AcDbLine
 62
7
  6
CONTINUOUS
 10
-32.4285206711
 20
37.5025843064
 11
-29.8416965822
 21
37.9587111876
  0
LINE
  5
370
100
AcDbEntity
  8
RACCORDO
100
AcDbLine
 62
250
  6
CONTINUOUS
 10
-32.4285206711
 20
37.7053618841
 11
-29.8746809107
 21
38.1556727382
  0
LINE
  5
371
100
AcDbEntity
  8
RACCORDO
100
AcDbLine
 62
250
  6
CONTINUOUS
 10
-29.626775364
 20
38.4511150641
 11
-29.4285206711
 21
38.4511150641
  0
LINE
  5
372
100
AcDbEntity
  8
RACCORDO
100
AcDbLine
 62
250
  6
CONTINUOUS
 10
-29.626775364
 20
40.5540535487
 11
-29.4285206711
 21
40.5540535487
  0
LINE
  5
373
100
AcDbEntity
  8
RACCORDO
100
AcDbLine
 62
7
  6
CONTINUOUS
 10
-32.4285206711
 20
42.4315127109
 11
-32.1732607386
 21
42.4231981916
  0
LINE
  5
374
100
AcDbEntity
  8
RACCORDO
100
AcDbLine
 62
250
  6
CONTINUOUS
 10
-32.4285206711
 20
41.7104994512
 11
-32.1621350881
 21
41.6678812522
  0
LINE
  5
375
100
AcDbEntity
  8
RACCORDO
100
AcDbLine
 62
250
  6
CONTINUOUS
 10
-29.8746809107
 20
40.8494958746
 11
-32.4285206711
 21
41.2998067288
  0
LINE
  5
376
100
AcDbEntity
  8
RACCORDO
100
AcDbLine
 62
7
  6
CONTINUOUS
 10
-29.8416965822
 20
41.0464574252
 11
-32.4285206711
 21
41.5025843064
  0
LINE
  5
377
100
AcDbEntity
  8
0
100
AcDbLine
 62
7
  6
CONTINUOUS
 10
-31.6672786066
 20
45.0025843064
 11
-31.4672786066
 21
45.0025843064
  0
LINE
  5
378
100
AcDbEntity
  8
RACCORDO
100
AcDbLine
 62
250
  6
CONTINUOUS
 10
-32.4285206711
 20
42.5321640176
 11
-31.8018238747
 21
42.5117507762
  0
LWPOLYLINE
  5
379
100
AcDbEntity
  8
DRAFT
100
AcDbPolyline
 62
7
  6
CONTINUOUS
 90
25
 70
0
 10
-31.0416965822
 20
46.161387734
 10
-31.0131368145
 20
46.160003026
 10
-30.9849611418
 20
46.1589726034
 10
-30.9572658698
 20
46.1582964664
 10
-30.9301411014
 20
46.1579796366
 10
-30.9036847951
 20
46.1580170923
 10
-30.8780011749
 20
46.1583937683
 10
-30.853177955
 20
46.15911493
 10
-30.8292983874
 20
46.1601753122
 10
-30.8064530335
 20
46.1615440533
 10
-30.7847191393
 20
46.1632248938
 10
-30.7641664408
 20
46.1652140933
 10
-30.7448661595
 20
46.1674695694
 10
-30.7268830528
 20
46.1699930776
 10
-30.710271229
 20
46.1727828625
 10
-30.6950792206
 20
46.1757915745
 10
-30.6813562157
 20
46.179019713
 10
-30.6691448407
 20
46.1824667787
 10
-30.6584791779
 20
46.1860839247
 10
-30.6493946489
 20
46.1898705404
 10
-30.6419200721
 20
46.1938272364
 10
-30.6360765038
 20
46.1979069973
 10
-30.6318849102
 20
46.2020941514
 10
-30.629362784
 20
46.2064043705
 10
-30.6285206711
 20
46.2108376545
  0
LINE
  5
37A
100
AcDbEntity
  8
RACCORDO
100
AcDbLine
 62
7
  6
CONTINUOUS
 10
-32.4285206711
 20
43.0640445727
 11
-32.1685209774
 21
43.0453176063
  0
LINE
  5
37B
100
AcDbEntity
  8
RACCORDO
100
AcDbLine
 62
250
  6
CONTINUOUS
 10
-32.4285206711
 20
43.1648330468
 11
-31.7879651414
 21
43.1186958312
  0
LINE
  5
37C
100
AcDbEntity
  8
DRAFT
100
AcDbLine
 62
7
  6
CONTINUOUS
 10
-32.4285206711
 20
46.5025843064
 11
-30.6285206711
 21
46.3451047121
  0
LINE
  5
37D
100
AcDbEntity
  8
RACCORDO
100
AcDbLine
 62
7
  6
CONTINUOUS
 10
-32.4285206711
 20
43.6690900447
 11
-31.9670504766
 21
43.6193119856
  0
LINE
  5
37E
100
AcDbEntity
  8
RACCORDO
100
AcDbLine
 62
7
  6
CONTINUOUS
 10
-32.4285206711
 20
44.2554554237
 11
-32.1685206711
 21
44.2193661444
  0
LINE
  5
37F
100
AcDbEntity
  8
RACCORDO
100
AcDbLine
 62
250
  6
CONTINUOUS
 10
-32.4285206711
 20
44.4339404409
 11
-31.8168747331
 21
44.3486545949
  0
LINE
  5
380
100
AcDbEntity
  8
RACCORDO
100
AcDbLine
 62
250
  6
CONTINUOUS
 10
-33.9416091452
 20
50.2397270014
 11
-34.4285206711
 21
50.2397270014
  0
LWPOLYLINE
  5
381
100
AcDbEntity
  8
RACCORDO
100
AcDbPolyline
 62
250
  6
CONTINUOUS
 90
34
 70
0
 10
-31.2795236921
 20
61.4609400423
 10
-31.2304295196
 20
61.4720512446
 10
-31.1832950115
 20
61.4871458678
 10
-31.1381201676
 20
61.5062239117
 10
-31.094592207
 20
61.5294980382
 10
-31.0530239108
 20
61.5567555854
 10
-31.0143536222
 20
61.5873585683
 10
-30.9786300818
 20
61.6213938503
 10
-30.9458045491
 20
61.658774568
 10
-30.9166691457
 20
61.6986021469
 10
-30.8913148234
 20
61.7409383462
 10
-30.8696506304
 20
61.7857214068
 10
-30.8521958337
 20
61.8318674764
 10
-30.8390511358
 20
61.8793880258
 10
-30.8301158342
 20
61.9282715843
 10
-30.8256070877
 20
61.9773998878
 10
-30.8256532635
 20
62.0268579053
 10
-30.8301259944
 20
62.0765606678
 10
-30.8388573385
 20
62.1251350044
 10
-30.8522375386
 20
62.1727650956
 10
-30.869876352
 20
62.2192667609
 10
-30.8904351085
 20
62.2627142877
 10
-30.9140569737
 20
62.3026303101
 10
-30.9405987821
 20
62.3394921941
 10
-30.9682923664
 20
62.372806325
 10
-30.9965027656
 20
62.4020365296
 10
-31.0258649407
 20
62.4277189811
 10
-31.0565156066
 20
62.4509685839
 10
-31.0880643218
 20
62.4720598477
 10
-31.1209015278
 20
62.4907182627
 10
-31.1563352639
 20
62.507235205
 10
-31.1948015432
 20
62.5217077997
 10
-31.2358643526
 20
62.5340389215
 10
-31.2795236921
 20
62.5442285706
  0
LINE
  5
382
100
AcDbEntity
  8
RACCORDO
100
AcDbLine
 62
7
  6
CONTINUOUS
 10
-32.4285206711
 20
61.0558710178
 11
-31.2482845378
 21
61.2639784917
  0
LINE
  5
383
100
AcDbEntity
  8
RACCORDO
100
AcDbLine
 62
250
  6
CONTINUOUS
 10
-32.4285206711
 20
61.2583408741
 11
-31.2795236921
 21
61.4609400423
  0
LINE
  5
384
100
AcDbEntity
  8
RACCORDO
100
AcDbLine
 62
250
  6
CONTINUOUS
 10
-32.4285206711
 20
65.3556209851
 11
-33.9416091452
 21
65.315999369
  0
LINE
  5
385
100
AcDbEntity
  8
RACCORDO
100
AcDbLine
 62
7
  6
CONTINUOUS
 10
-32.4285206711
 20
65.8554496476
 11
-33.9416091452
 21
65.8158280315
  0
LINE
  5
386
100
AcDbEntity
  8
RACCORDO
100
AcDbLine
 62
7
  6
CONTINUOUS
 10
-32.4285206711
 20
61.7165483584
 11
-31.6808583561
 21
61.7295988526
  0
LINE
  5
387
100
AcDbEntity
  8
RACCORDO
100
AcDbLine
 62
250
  6
CONTINUOUS
 10
-32.4285206711
 20
61.914110305
 11
-31.3965433886
 21
61.9321235355
  0
LINE
  5
388
100
AcDbEntity
  8
RACCORDO
100
AcDbLine
 62
7
  6
CONTINUOUS
 10
-30.8772116907
 20
59.323103869
 11
-32.4285206711
 21
59.3095658007
  0
LINE
  5
389
100
AcDbEntity
  8
RACCORDO
100
AcDbLine
 62
250
  6
CONTINUOUS
 10
-30.7285206711
 20
60.3736603558
 11
-30.9763390372
 21
60.3736603558
  0
LINE
  5
38A
100
AcDbEntity
  8
RACCORDO
100
AcDbLine
 62
250
  6
CONTINUOUS
 10
-33.9416091452
 20
65.315999369
 11
-34.4285206711
 21
65.315999369
  0
LWPOLYLINE
  5
38B
100
AcDbEntity
  8
0
100
AcDbPolyline
 62
7
  6
CONTINUOUS
 90
3
 70
0
 43
0.3500000006
 10
-45.6616925354
 20
77.4262944946
 10
-47.1616929932
 20
77.4262944946
 10
-46.5188350067
 20
79.7834328918
  0
LINE
  5
38C
100
AcDbEntity
  8
RACCORDO
100
AcDbLine
 62
7
  6
CONTINUOUS
 10
-32.4285206711
 20
59.8917079584
 11
-30.9763390372
 21
59.8876663248
  0
LINE
  5
38D
100
AcDbEntity
  8
RACCORDO
100
AcDbLine
 62
250
  6
CONTINUOUS
 10
-30.8772116907
 20
59.6064945119
 11
-32.4285206711
 21
59.614332377
  0
LINE
  5
38E
100
AcDbEntity
  8
RACCORDO
100
AcDbLine
 62
250
  6
CONTINUOUS
 10
-32.4285206711
 20
60.8456123314
 11
-31.4374701312
 21
60.8369635644
  0
LINE
  5
38F
100
AcDbEntity
  8
RACCORDO
100
AcDbLine
 62
7
  6
CONTINUOUS
 10
-32.2138167092
 20
61.0937291191
 11
-31.4374701312
 21
61.0869540452
  0
LINE
  5
390
100
AcDbEntity
  8
RACCORDO
100
AcDbLine
 62
250
  6
CONTINUOUS
 10
-31.3965433886
 20
62.0730450774
 11
-32.4285206711
 21
62.0910583078
  0
LINE
  5
391
100
AcDbEntity
  8
RACCORDO
100
AcDbLine
 62
7
  6
CONTINUOUS
 10
-31.6808583561
 20
62.2755697602
 11
-32.4285206711
 21
62.2886202545
  0
LWPOLYLINE
  5
392
100
AcDbEntity
  8
RACCORDO
100
AcDbPolyline
 62
250
  6
CONTINUOUS
 90
13
 70
0
 10
-30.8772116907
 20
59.6064945119
 10
-30.8577527329
 20
59.6056614398
 10
-30.8386451885
 20
59.6033730616
 10
-30.8202123755
 20
59.5996680989
 10
-30.8027661948
 20
59.594609243
 10
-30.7866018525
 20
59.5882820949
 10
-30.7719928647
 20
59.5807937157
 10
-30.7591864296
 20
59.5722708162
 10
-30.7483992442
 20
59.5628576119
 10
-30.7398138382
 20
59.5527133833
 10
-30.7335754848
 20
59.5420097804
 10
-30.729789743
 20
59.5309279185
 10
-30.7285206711
 20
59.5196553134
  0
LWPOLYLINE
  5
393
100
AcDbEntity
  8
RACCORDO
100
AcDbPolyline
 62
250
  6
CONTINUOUS
 90
13
 70
0
 10
-31.4374701312
 20
60.8369635644
 10
-31.4198729796
 20
60.8359990325
 10
-31.4030215135
 20
60.8341270489
 10
-31.3869157328
 20
60.8313476136
 10
-31.3716797215
 20
60.8276445121
 10
-31.3571893956
 20
60.8230339589
 10
-31.3430725036
 20
60.8175645975
 10
-31.3293010244
 20
60.8113660114
 10
-31.3159029792
 20
60.8043086172
 10
-31.3025901799
 20
60.7960523075
 10
-31.2892665639
 20
60.7864837134
 10
-31.2760281938
 20
60.7757162039
 10
-31.2628750698
 20
60.7637497789
  0
LINE
  5
394
100
AcDbEntity
  8
RACCORDO
100
AcDbLine
 62
250
  6
CONTINUOUS
 10
-31.2795236921
 20
62.5442285706
 11
-32.4285206711
 21
62.7468277387
  0
LINE
  5
395
100
AcDbEntity
  8
RACCORDO
100
AcDbLine
 62
7
  6
CONTINUOUS
 10
-31.2482845378
 20
62.7411901212
 11
-32.4285206711
 21
62.9492975951
  0
LINE
  5
396
100
AcDbEntity
  8
RACCORDO
100
AcDbLine
 62
250
  6
CONTINUOUS
 10
-31.2795236921
 20
62.9442285706
 11
-32.4285206711
 21
63.1468277387
  0
LINE
  5
397
100
AcDbEntity
  8
RACCORDO
100
AcDbLine
 62
7
  6
CONTINUOUS
 10
-31.2482845378
 20
63.1411901212
 11
-32.4285206711
 21
63.3492975951
  0
LWPOLYLINE
  5
398
100
AcDbEntity
  8
0
100
AcDbPolyline
 62
7
  6
CONTINUOUS
 90
13
 70
0
 43
0.3500000006
 10
-41.9212445526
 20
86.4977193604
 10
-42.2069602203
 20
86.7120038452
 10
-42.2069602203
 20
87.3548663635
 10
-41.9212445526
 20
87.7834353333
 10
-41.2783865662
 20
87.7834353333
 10
-40.9926754303
 20
87.3548663635
 10
-40.9926754303
 20
86.7120038452
 10
-41.2783865662
 20
86.4977193604
 10
-40.8498175964
 20
86.0691503906
 10
-40.8498175964
 20
85.2120033875
 10
-41.2783865662
 20
84.7834344177
 10
-41.9212445526
 20
84.7834344177
 10
-42.3498180542
 20
85.2120033875
  0
ARC
  5
399
100
AcDbEntity
  8
0
100
AcDbCircle
 62
7
  6
CONTINUOUS
 10
11.0748073053
 20
23.2361413533
 40
0.5
100
AcDbArc
 50
180.0
 51
270.0
  0
ARC
  5
39A
100
AcDbEntity
  8
0
100
AcDbCircle
 62
7
  6
CONTINUOUS
 10
13.9288445724
 20
23.2361413533
 40
0.5
100
AcDbArc
 50
270.0
 51
360.0
  0
ARC
  5
39B
100
AcDbEntity
  8
0
100
AcDbCircle
 62
7
  6
CONTINUOUS
 10
13.9288445724
 20
26.0901786204
 40
0.5
100
AcDbArc
 50
0.0
 51
90.0
  0
ARC
  5
39C
100
AcDbEntity
  8
0
100
AcDbCircle
 62
7
  6
CONTINUOUS
 10
11.0648073053
 20
26.1001786204
 40
0.49
100
AcDbArc
 50
90.0
 51
180.0
  0
ARC
  5
39D
100
AcDbEntity
  8
0
100
AcDbCircle
 62
7
  6
CONTINUOUS
 10
10.8748073053
 20
24.5025843064
 40
0.3
100
AcDbArc
 50
0.0
 51
90.0
  0
ARC
  5
39E
100
AcDbEntity
  8
0
100
AcDbCircle
 62
7
  6
CONTINUOUS
 10
6.1288445724
 20
23.2361413533
 40
0.1
100
AcDbArc
 50
90.0
 51
180.0
  0
ARC
  5
39F
100
AcDbEntity
  8
0
100
AcDbCircle
 62
7
  6
CONTINUOUS
 10
6.1288445724
 20
22.8361413533
 40
0.1
100
AcDbArc
 50
180.0
 51
270.0
  0
ARC
  5
3A0
100
AcDbEntity
  8
0
100
AcDbCircle
 62
7
  6
CONTINUOUS
 10
7.4288445724
 20
22.8361413533
 40
0.1
100
AcDbArc
 50
270.0
 51
360.0
  0
ARC
  5
3A1
100
AcDbEntity
  8
0
100
AcDbCircle
 62
7
  6
CONTINUOUS
 10
7.4288445724
 20
23.2361413533
 40
0.1
100
AcDbArc
 50
0.0
 51
90.0
  0
ARC
  5
3A2
100
AcDbEntity
  8
0
100
AcDbCircle
 62
7
  6
CONTINUOUS
 10
10.6748073053
 20
26.0901786204
 40
0.1
100
AcDbArc
 50
180.0
 51
270.0
  0
ARC
  5
3A3
100
AcDbEntity
  8
0
100
AcDbCircle
 62
7
  6
CONTINUOUS
 10
6.0288445724
 20
24.7025843064
 40
0.1
100
AcDbArc
 50
90.0
 51
180.0
  0
ARC
  5
3A4
100
AcDbEntity
  8
0
100
AcDbCircle
 62
7
  6
CONTINUOUS
 10
6.0288445724
 20
24.3025843064
 40
0.1
100
AcDbArc
 50
180.0
 51
270.0
  0
ARC
  5
3A5
100
AcDbEntity
  8
RACCORDO
100
AcDbCircle
 62
7
  6
CONTINUOUS
 10
-33.6429302545
 20
14.1818621919
 40
1.0
100
AcDbArc
 50
258.0135711831
 51
268.5
  0
ARC
  5
3A6
100
AcDbEntity
  8
RACCORDO
100
AcDbCircle
 62
7
  6
CONTINUOUS
 10
-36.5982681997
 20
14.2981624902
 40
0.5
100
AcDbArc
 50
174.0
 51
258.0135711831
  0
ARC
  5
3A7
100
AcDbEntity
  8
RACCORDO
100
AcDbCircle
 62
7
  6
CONTINUOUS
 10
-33.9285206711
 20
65.315999369
 40
0.5
100
AcDbArc
 50
91.5
 51
180.0
  0
ARC
  5
3A8
100
AcDbEntity
  8
RACCORDO
100
AcDbCircle
 62
7
  6
CONTINUOUS
 10
-29.6285206711
 20
25.3994624831
 40
0.5
100
AcDbArc
 50
275.0
 51
360.0
  0
ARC
  5
3A9
100
AcDbEntity
  8
RACCORDO
100
AcDbCircle
 62
7
  6
CONTINUOUS
 10
-29.6285206711
 20
27.1057061298
 40
0.5
100
AcDbArc
 50
0.0
 51
85.0
  0
ARC
  5
3AA
100
AcDbEntity
  8
RACCORDO
100
AcDbCircle
 62
7
  6
CONTINUOUS
 10
-29.9285206711
 20
38.4511150641
 40
0.5
100
AcDbArc
 50
280.0
 51
360.0
  0
ARC
  5
3AB
100
AcDbEntity
  8
RACCORDO
100
AcDbCircle
 62
7
  6
CONTINUOUS
 10
-31.3785206711
 20
62.4025843064
 40
0.75
100
AcDbArc
 50
344.5174200701
 51
80.0
  0
ARC
  5
3AC
100
AcDbEntity
  8
RACCORDO
100
AcDbCircle
 62
7
  6
CONTINUOUS
 10
-31.3785206711
 20
62.0025843064
 40
0.75
100
AcDbArc
 50
280.0
 51
80.0
  0
ARC
  5
3AD
100
AcDbEntity
  8
RACCORDO
100
AcDbCircle
 62
7
  6
CONTINUOUS
 10
-31.4418333989
 20
60.5869730836
 40
0.5
100
AcDbArc
 50
45.0008005983
 51
89.5
  0
ARC
  5
3AE
100
AcDbEntity
  8
RACCORDO
100
AcDbCircle
 62
7
  6
CONTINUOUS
 10
-31.2285206711
 20
60.3736603558
 40
0.5
100
AcDbArc
 50
0.0
 51
45.0
  0
ARC
  5
3AF
100
AcDbEntity
  8
RACCORDO
100
AcDbCircle
 62
7
  6
CONTINUOUS
 10
-29.9285206711
 20
40.5540535487
 40
0.5
100
AcDbArc
 50
0.0
 51
80.0
  0
ARC
  5
3B0
100
AcDbEntity
  8
RACCORDO
100
AcDbCircle
 62
7
  6
CONTINUOUS
 10
-30.8785206711
 20
59.4730981575
 40
0.15
100
AcDbArc
 50
270.5
 51
360.0
  0
ARC
  5
3B1
100
AcDbEntity
  8
RACCORDO
100
AcDbCircle
 62
7
  6
CONTINUOUS
 10
-31.3803507523
 20
42.8324933254
 40
0.05
100
AcDbArc
 50
0.0
 51
58.4930902702
  0
ELLIPSE
  5
3B2
100
AcDbEntity
  8
RACCORDO
100
AcDbEllipse
 62
7
  6
CONTINUOUS
 10
31.9815385173
 20
13.6498903615
 30
0.0
 11
-0.35379574
 21
0.35379574
 31
0.0
 40
0.999315002
 41
-3.9266482006
 42
-2.3565371065
  0
ELLIPSE
  5
3B3
100
AcDbEntity
  8
RACCORDO
100
AcDbEllipse
 62
7
  6
CONTINUOUS
 10
31.9815385173
 20
65.3552782514
 30
0.0
 11
0.35379574
 21
0.35379574
 31
0.0
 40
0.999315002
 41
-0.7850555471
 42
0.7850555471
  0
ELLIPSE
  5
3B4
100
AcDbEntity
  8
RACCORDO
100
AcDbEllipse
 62
7
  6
CONTINUOUS
 10
-11.6238493726
 20
65.3552782514
 30
0.0
 11
-0.35379574
 21
0.35379574
 31
0.0
 40
0.999315002
 41
-0.7850555471
 42
0.7850555471
  0
ELLIPSE
  5
3B5
100
AcDbEntity
  8
RACCORDO
100
AcDbEllipse
 62
7
  6
CONTINUOUS
 10
-11.6238493726
 20
13.6498903615
 30
0.0
 11
0.35379574
 21
0.35379574
 31
0.0
 40
0.999315002
 41
-3.9266482006
 42
-2.3565371065
  0
ELLIPSE
  5
3B6
100
AcDbEntity
  8
DRAFT
100
AcDbEllipse
 62
7
  6
CONTINUOUS
 10
-11.8607471714
 20
34.7025843064
 30
0.0
 11
64.5459301196
 21
0.0
 31
0.0
 40
0.1754608926
 41
1.8725210415
 42
1.8951047095
  0
ELLIPSE
  5
3B7
100
AcDbEntity
  8
RACCORDO
100
AcDbEllipse
 62
7
  6
CONTINUOUS
 10
-31.6844108463
 20
61.9295673093
 30
0.0
 11
0.2878469909
 21
0.0049410995
 31
0.0
 40
0.6947112101
 41
-1.5703799483
 42
-0.0119246497
  0
ELLIPSE
  5
3B8
100
AcDbEntity
  8
RACCORDO
100
AcDbEllipse
 62
7
  6
CONTINUOUS
 10
-31.6844108463
 20
62.0756013036
 30
0.0
 11
0.2878469909
 21
-0.0049410995
 31
0.0
 40
0.6947112101
 41
0.0119246497
 42
1.5703799483
  0
ELLIPSE
  5
3B9
100
AcDbEntity
  8
0
100
AcDbEllipse
 62
7
  6
CONTINUOUS
 10
-57.668540543
 20
34.7025843064
 30
0.0
 11
79.4445384914
 21
0.0
 31
0.0
 40
0.153091273
 41
1.2290184413
 42
1.2474869946
  0
ELLIPSE
  5
3BA
100
AcDbEntity
  8
RACCORDO
100
AcDbEllipse
 62
7
  6
CONTINUOUS
 10
-30.9785206711
 20
60.2397727598
 30
0.0
 11
-0.0053940468
 21
0.3520863007
 31
0.0
 40
0.7098878919
 41
-3.154443869
 42
-2.7459336397
  0
ENDSEC
  0
SECTION
  2
OBJECTS
  0
DICTIONARY
  5
C
100
AcDbDictionary
280
0
281
1
  3
ACAD_GROUP
350
D
  3
ACAD_MLINESTYLE
350
17
  3
ACAD_LAYOUT
350
1A
  3
ACAD_PLOTSETTINGS
350
19
  3
ACAD_PLOTSTYLENAME
350
E
  0
DICTIONARY
  5
D
102
{ACAD_REACTORS
330
C
102
}
100
AcDbDictionary
280
0
281
1
  0
ACDBDICTIONARYWDFLT
  5
E
102
{ACAD_REACTORS
330
C
102
}
100
AcDbDictionary
281
1
  3
Normal
350
F
100
AcDbDictionaryWithDefault
340
F
  0
DICTIONARY
  5
17
102
{ACAD_REACTORS
330
C
102
}
100
AcDbDictionary
280
0
281
1
  3
Standard
350
18
  0
DICTIONARY
  5
19
102
{ACAD_REACTORS
330
C
102
}
100
AcDbDictionary
281
1
  0
DICTIONARY
  5
1A
102
{ACAD_REACTORS
330
C
102
}
100
AcDbDictionary
281
1
  3
Model
350
3BB
  3
Layout1
350
3BC
  0
ACDBPLACEHOLDER
  5
F
102
{ACAD_REACTORS
330
E
102
}
  0
MLINESTYLE
  5
18
102
{ACAD_REACTORS
330
17
102
}
100
AcDbMlineStyle
  2
STANDARD
 70
0
  3

 62
256
 51
90.0
 52
90.0
 71
2
 49
0.5
 62
256
  6
BYLAYER
 49
-0.5
 62
256
  6
BYLAYER
  0
LAYOUT
  5
3BB
102
{ACAD_REACTORS
330
1A
102
}
100
AcDbPlotSettings
  1

  2
none_device
  4
ISO_A4_(297.00_x_210.00_MM)
  6

 40
0.0
 41
0.0
 42
0.0
 43
0.0
 44
297.0
 45
210.0
 46
0.0
 47
0.0
 48
0.0
 49
0.0
140
0.0
141
0.0
142
1.0
143
1.0
 70
1024
 72
1
 73
0
 74
0
  7

 75
0
147
1.0
148
0.0
149
0.0
100
AcDbLayout
  1
Model
 70
0
 71
0
 10
0.0
 20
0.0
 11
297.0
 21
210.0
 12
0.0
 22
0.0
 32
0.0
 14
0.0
 24
0.0
 34
0.0
 15
0.0
 25
0.0
 35
0.0
146
0.0
 13
0.0
 23
0.0
 33
0.0
 16
1.0
 26
0.0
 36
0.0
 17
0.0
 27
1.0
 37
0.0
 76
0
330
21D
345
0
346
0
  0
LAYOUT
  5
3BC
102
{ACAD_REACTORS
330
1A
102
}
100
AcDbPlotSettings
  1

  2
none_device
  4
ISO_A4_(297.00_x_210.00_MM)
  6

 40
0.0
 41
0.0
 42
0.0
 43
0.0
 44
297.0
 45
210.0
 46
0.0
 47
0.0
 48
0.0
 49
0.0
140
0.0
141
0.0
142
1.0
143
1.0
 70
0
 72
1
 73
0
 74
0
  7

 75
0
147
1.0
148
0.0
149
0.0
100
AcDbLayout
  1
Layout1
 70
0
 71
1
 10
0.0
 20
0.0
 11
297.0
 21
210.0
 12
0.0
 22
0.0
 32
0.0
 14
0.0
 24
0.0
 34
0.0
 15
0.0
 25
0.0
 35
0.0
146
0.0
 13
0.0
 23
0.0
 33
0.0
 16
1.0
 26
0.0
 36
0.0
 17
0.0
 27
1.0
 37
0.0
 76
0
330
21E
345
0
346
0
  0
ENDSEC
  0
EOF
