  0
SECTION
  2
HEADER
  9
$ACADVER
  1
AC1024
  9
$DWGCODEPAGE
  3
ANSI_1252
  9
$EXTMAX
 10
297.0
 20
210.0
 30
0.0
  9
$EXTMIN
 10
0.0
 20
0.0
 30
0.0
  9
$LIMMIN
 10
0.0
 20
0.0
  9
$LIMMAX
 10
297.0
 20
210.0
  9
$VIEWCTR
 10
148.5
 20
105.0
  9
$VIEWSIZE
 40
210.0
  9
$CLAYER
  8
0
  9
$LTSCALE
 40
16.335
  9
$CELTYPE
  6
BYLAYER
  9
$DIMSCALE
 40
1.0
  9
$DIMASZ
 40
3.0
  9
$DIMEXO
 40
0.5
  9
$DIMDLI
 40
11.286
  9
$DIMEXE
 40
1.5
  9
$DIMCEN
 40
2.673
  9
$DIMLFAC
 40
1.0
  9
$DIMBLK
  1
_FILLED
  9
$DIMALT
 70
0
  9
$DIMALTF
 40
0.0393700787
  9
$DIMTXT
 40
3.0
  9
$DIMTOL
 70
1
  9
$DIMLIM
 70
0
  9
$DIMTFAC
 40
1.0
  9
$DIMTP
 40
0.01
  9
$DIMTM
 40
0.01
  9
$DIMGAP
 40
0.625
  9
$DIMDSEP
 70
44
  9
$AUNITS
 70
0
  9
$PDMODE
 70
3
  9
$PDSIZE
 40
3.0
  9
$HANDSEED
  5
38C
  9
$TILEMODE
 70
1
  9
$MEASUREMENT
 70
1
  9
$INSUNITS
 70
4
  0
ENDSEC
  0
SECTION
  2
CLASSES
  0
CLASS
  1
ACDBDICTIONARYWDFLT
  2
AcDbDictionaryWithDefault
  3
AutoCAD 2000
 90
0
 91
1
280
0
281
0
  0
CLASS
  1
ACDBPLACEHOLDER
  2
AcDbPlaceHolder
  3
AutoCAD 2000
 90
0
 91
1
280
0
281
0
  0
CLASS
  1
LAYOUT
  2
AcDbLayout
  3
AutoCAD 2000
 90
0
 91
0
280
0
281
0
  0
ENDSEC
  0
SECTION
  2
TABLES
  0
TABLE
  2
VPORT
  5
8
100
AcDbSymbolTable
 70
2
  0
VPORT
  5
1F4
100
AcDbSymbolTableRecord
100
AcDbViewportTableRecord
  2
*ACTIVE
 70
0
 10
0.0
 20
0.0
 11
1.0
 21
1.0
 12
148.5
 22
105.0
 13
0.0
 23
0.0
 14
1.0
 24
1.0
 15
0.0
 25
0.0
 16
0.0
 26
0.0
 36
1.0
 17
0.0
 27
0.0
 37
0.0
 40
210.0
 41
1.4142857143
 42
50.0
 43
0.0
 44
0.0
 50
0.0
 51
0.0
 71
0
 72
100
 73
1
 74
1
 75
0
 76
0
 77
0
 78
0
  0
ENDTAB
  0
TABLE
  2
LTYPE
  5
5
100
AcDbSymbolTable
 70
6
  0
LTYPE
  5
14
100
AcDbSymbolTableRecord
100
AcDbLinetypeTableRecord
  2
BYBLOCK
 70
0
  3

 72
65
 73
0
 40
0.0
  0
LTYPE
  5
15
100
AcDbSymbolTableRecord
100
AcDbLinetypeTableRecord
  2
BYLAYER
 70
0
  3

 72
65
 73
0
 40
0.0
  0
LTYPE
  5
16
100
AcDbSymbolTableRecord
100
AcDbLinetypeTableRecord
  2
CONTINUOUS
 70
64
  3
Solid line
 72
65
 73
0
 40
0.0
  0
LTYPE
  5
1F5
100
AcDbSymbolTableRecord
100
AcDbLinetypeTableRecord
  2
CENTER
 70
64
  3
____ _ ____ _ ____ _ ____ _ ____ _ ____ _ ____
 72
65
 73
4
 40
0.6
 49
0.375
 74
0
 49
-0.075
 74
0
 49
0.075
 74
0
 49
-0.075
 74
0
  0
LTYPE
  5
1F6
100
AcDbSymbolTableRecord
100
AcDbLinetypeTableRecord
  2
HIDDEN
 70
64
  3
- - - - - - - - - - - - - - - - - - - -
 72
65
 73
2
 40
0.2
 49
0.1
 74
0
 49
-0.1
 74
0
  0
LTYPE
  5
1F7
100
AcDbSymbolTableRecord
100
AcDbLinetypeTableRecord
  2
PHANTOM
 70
64
  3
_____ _ _ _____ _ _ _____ _ _ _____
 72
65
 73
6
 40
0.8
 49
0.45
 74
0
 49
-0.05
 74
0
 49
0.1
 74
0
 49
-0.05
 74
0
 49
0.1
 74
0
 49
-0.05
 74
0
  0
LTYPE
  5
1F8
100
AcDbSymbolTableRecord
100
AcDbLinetypeTableRecord
  2
DOT
 70
64
  3
. . . . . . . . . . . . . . . . . . . .
 72
65
 73
2
 40
0.2
 49
0.1
 74
0
 49
-0.1
 74
0
  0
LTYPE
  5
1F9
100
AcDbSymbolTableRecord
100
AcDbLinetypeTableRecord
  2
DASHED
 70
64
  3
- - - - - - - - - - - - - - - - - - - -
 72
65
 73
2
 40
0.2
 49
0.1
 74
0
 49
-0.1
 74
0
  0
ENDTAB
  0
TABLE
  2
LAYER
  5
2
100
AcDbSymbolTable
 70
36
  0
LAYER
  5
10
100
AcDbSymbolTableRecord
100
AcDbLayerTableRecord
  2
0
 70
0
 62
7
  6
CONTINUOUS
370
-3
390
F
  0
LAYER
  5
1FA
100
AcDbSymbolTableRecord
100
AcDbLayerTableRecord
  2
DEFAULT_1
 70
0
 62
7
  6
CENTER
370
-3
390
F
  0
LAYER
  5
1FB
100
AcDbSymbolTableRecord
100
AcDbLayerTableRecord
  2
DEFAULT_2
 70
0
 62
7
  6
HIDDEN
370
-3
390
F
  0
LAYER
  5
1FC
100
AcDbSymbolTableRecord
100
AcDbLayerTableRecord
  2
DEFAULT_3
 70
0
 62
7
  6
PHANTOM
370
-3
390
F
  0
LAYER
  5
1FD
100
AcDbSymbolTableRecord
100
AcDbLayerTableRecord
  2
9
 70
0
 62
7
  6
CONTINUOUS
370
-3
390
F
  0
LAYER
  5
1FE
100
AcDbSymbolTableRecord
100
AcDbLayerTableRecord
  2
ASSI
 70
0
 62
7
  6
CONTINUOUS
370
-3
390
F
  0
LAYER
  5
1FF
100
AcDbSymbolTableRecord
100
AcDbLayerTableRecord
  2
COORDINATE
 70
0
 62
7
  6
CONTINUOUS
370
-3
390
F
  0
LAYER
  5
200
100
AcDbSymbolTableRecord
100
AcDbLayerTableRecord
  2
COPY_PUBLISH
 70
0
 62
7
  6
CONTINUOUS
370
-3
390
F
  0
LAYER
  5
201
100
AcDbSymbolTableRecord
100
AcDbLayerTableRecord
  2
COSMETICI
 70
0
 62
7
  6
CONTINUOUS
370
-3
390
F
  0
LAYER
  5
202
100
AcDbSymbolTableRecord
100
AcDbLayerTableRecord
  2
CURVE
 70
0
 62
7
  6
CONTINUOUS
370
-3
390
F
  0
LAYER
  5
203
100
AcDbSymbolTableRecord
100
AcDbLayerTableRecord
  2
DRAFT
 70
0
 62
7
  6
CONTINUOUS
370
-3
390
F
  0
LAYER
  5
204
100
AcDbSymbolTableRecord
100
AcDbLayerTableRecord
  2
IMPORT_IGES
 70
0
 62
7
  6
CONTINUOUS
370
-3
390
F
  0
LAYER
  5
205
100
AcDbSymbolTableRecord
100
AcDbLayerTableRecord
  2
INTF_10
 70
0
 62
7
  6
CONTINUOUS
370
-3
390
F
  0
LAYER
  5
206
100
AcDbSymbolTableRecord
100
AcDbLayerTableRecord
  2
INTF_2
 70
0
 62
7
  6
CONTINUOUS
370
-3
390
F
  0
LAYER
  5
207
100
AcDbSymbolTableRecord
100
AcDbLayerTableRecord
  2
INTF_3
 70
0
 62
7
  6
CONTINUOUS
370
-3
390
F
  0
LAYER
  5
208
100
AcDbSymbolTableRecord
100
AcDbLayerTableRecord
  2
INTF_4
 70
0
 62
7
  6
CONTINUOUS
370
-3
390
F
  0
LAYER
  5
209
100
AcDbSymbolTableRecord
100
AcDbLayerTableRecord
  2
INTF_5
 70
0
 62
7
  6
CONTINUOUS
370
-3
390
F
  0
LAYER
  5
20A
100
AcDbSymbolTableRecord
100
AcDbLayerTableRecord
  2
INTF_6
 70
0
 62
7
  6
CONTINUOUS
370
-3
390
F
  0
LAYER
  5
20B
100
AcDbSymbolTableRecord
100
AcDbLayerTableRecord
  2
INTF_7
 70
0
 62
7
  6
CONTINUOUS
370
-3
390
F
  0
LAYER
  5
20C
100
AcDbSymbolTableRecord
100
AcDbLayerTableRecord
  2
INTF_9
 70
0
 62
7
  6
CONTINUOUS
370
-3
390
F
  0
LAYER
  5
20D
100
AcDbSymbolTableRecord
100
AcDbLayerTableRecord
  2
INTF_BLANK
 70
0
 62
7
  6
CONTINUOUS
370
-3
390
F
  0
LAYER
  5
20E
100
AcDbSymbolTableRecord
100
AcDbLayerTableRecord
  2
INTF_RED
 70
0
 62
7
  6
CONTINUOUS
370
-3
390
F
  0
LAYER
  5
20F
100
AcDbSymbolTableRecord
100
AcDbLayerTableRecord
  2
NOTE
 70
0
 62
7
  6
CONTINUOUS
370
-3
390
F
  0
LAYER
  5
210
100
AcDbSymbolTableRecord
100
AcDbLayerTableRecord
  2
PIANI
 70
0
 62
7
  6
CONTINUOUS
370
-3
390
F
  0
LAYER
  5
211
100
AcDbSymbolTableRecord
100
AcDbLayerTableRecord
  2
PUNTI
 70
0
 62
7
  6
CONTINUOUS
370
-3
390
F
  0
LAYER
  5
212
100
AcDbSymbolTableRecord
100
AcDbLayerTableRecord
  2
RACCORDO
 70
0
 62
7
  6
CONTINUOUS
370
-3
390
F
  0
LAYER
  5
213
100
AcDbSymbolTableRecord
100
AcDbLayerTableRecord
  2
RGB____0____0____0__
 70
0
 62
7
  6
CONTINUOUS
370
-3
390
F
  0
LAYER
  5
214
100
AcDbSymbolTableRecord
100
AcDbLayerTableRecord
  2
SIMBOLI
 70
0
 62
7
  6
CONTINUOUS
370
-3
390
F
  0
LAYER
  5
215
100
AcDbSymbolTableRecord
100
AcDbLayerTableRecord
  2
SMUSSO
 70
0
 62
7
  6
CONTINUOUS
370
-3
390
F
  0
LAYER
  5
216
100
AcDbSymbolTableRecord
100
AcDbLayerTableRecord
  2
SNAPLINE
 70
0
 62
7
  6
CONTINUOUS
370
-3
390
F
  0
LAYER
  5
217
100
AcDbSymbolTableRecord
100
AcDbLayerTableRecord
  2
SUPERFICI
 70
0
 62
7
  6
CONTINUOUS
370
-3
390
F
  0
LAYER
  5
218
100
AcDbSymbolTableRecord
100
AcDbLayerTableRecord
  2
TRASH
 70
0
 62
7
  6
CONTINUOUS
370
-3
390
F
  0
ENDTAB
  0
TABLE
  2
STYLE
  5
3
100
AcDbSymbolTable
 70
1
  0
STYLE
  5
11
100
AcDbSymbolTableRecord
100
AcDbTextStyleTableRecord
  2
STANDARD
 70
0
 40
0.0
 41
0.8
 50
0.0
 71
0
 42
0.2
  3
txt
  4

  0
STYLE
  5
219
100
AcDbSymbolTableRecord
100
AcDbTextStyleTableRecord
  2
TEXTSTYLE_1
 70
0
 40
0.0
 41
0.8
 50
0.0
 71
0
 42
0.2
  3
gdt
  4

  0
ENDTAB
  0
TABLE
  2
VIEW
  5
6
100
AcDbSymbolTable
 70
0
  0
ENDTAB
  0
TABLE
  2
UCS
  5
7
100
AcDbSymbolTable
 70
0
  0
ENDTAB
  0
TABLE
  2
APPID
  5
9
100
AcDbSymbolTable
 70
1
  0
APPID
  5
21A
100
AcDbSymbolTableRecord
100
AcDbRegAppTableRecord
  2
ACAD
 70
0
  0
ENDTAB
  0
TABLE
  2
BLOCK_RECORD
  5
1
100
AcDbSymbolTable
 70
0
  0
BLOCK_RECORD
  5
21B
100
AcDbSymbolTableRecord
100
AcDbBlockTableRecord
  2
*Model_Space
  0
BLOCK_RECORD
  5
21C
100
AcDbSymbolTableRecord
100
AcDbBlockTableRecord
  2
*Paper_Space
  0
BLOCK_RECORD
  5
21D
100
AcDbSymbolTableRecord
100
AcDbBlockTableRecord
  2
_FILLED
  0
BLOCK_RECORD
  5
21E
100
AcDbSymbolTableRecord
100
AcDbBlockTableRecord
  2
*D0
  0
BLOCK_RECORD
  5
21F
100
AcDbSymbolTableRecord
100
AcDbBlockTableRecord
  2
*D1
  0
BLOCK_RECORD
  5
220
100
AcDbSymbolTableRecord
100
AcDbBlockTableRecord
  2
*D2
  0
BLOCK_RECORD
  5
221
100
AcDbSymbolTableRecord
100
AcDbBlockTableRecord
  2
*D3
  0
ENDTAB
  0
TABLE
  2
DIMSTYLE
  5
A
100
AcDbSymbolTable
 70
1
100
AcDbDimStyleTable
 71
0
  0
DIMSTYLE
105
222
100
AcDbSymbolTableRecord
100
AcDbDimStyleTableRecord
  2
STANDARD
 70
0
  3

  4

 40
1.0
 41
3.0
 42
0.5
 43
0.38
 44
1.5
 45
0.0
 46
0.0
 47
0.01
 48
0.01
140
3.0
141
0.09
142
0.0
143
25.4
144
1.0
145
0.0
146
1.0
147
0.625
 71
1
 72
0
 73
0
 74
0
 75
0
 76
0
 77
1
 78
8
 79
2
170
0
171
1
172
0
173
0
174
0
175
0
176
0
177
0
178
0
270
2
179
2
271
2
272
2
273
2
274
2
275
0
280
0
281
0
282
0
283
1
284
8
285
0
286
0
287
3
288
0
340
11
278
44
341
21D
342
21D
343
21D
344
21D
  0
DIMSTYLE
105
223
100
AcDbSymbolTableRecord
100
AcDbDimStyleTableRecord
  2
DIMSTYLE_1
 70
0
  3

  4

 40
1.0
 41
3.0
 42
0.5
 43
0.38
 44
1.5
 45
0.0
 46
0.0
 47
0.0
 48
0.0
140
3.0
141
0.09
142
0.0
143
25.4
144
1.0
145
0.0
146
1.0
147
0.75
 71
0
 72
0
 73
0
 74
0
 75
0
 76
0
 77
1
 78
8
 79
2
170
0
171
1
172
0
173
0
174
0
175
0
176
0
177
0
178
0
270
2
179
2
271
1
272
1
273
2
274
2
275
0
280
0
281
0
282
0
283
1
284
8
285
0
286
0
287
3
288
0
340
11
278
44
341
21D
342
21D
343
21D
344
21D
  0
ENDTAB
  0
ENDSEC
  0
SECTION
  2
BLOCKS
  0
BLOCK
  5
20
100
AcDbEntity
  8
0
100
AcDbBlockBegin
  2
*Model_Space
 70
0
 10
0.0
 20
0.0
 30
0.0
  3
*Model_Space
  1

  0
ENDBLK
  5
21
100
AcDbEntity
  8
0
100
AcDbBlockEnd
  0
BLOCK
  5
1C
100
AcDbEntity
  8
0
100
AcDbBlockBegin
  2
*Paper_Space
 70
0
 10
0.0
 20
0.0
 30
0.0
  3
*Paper_Space
  1

  0
ENDBLK
  5
1D
100
AcDbEntity
  8
0
100
AcDbBlockEnd
  0
BLOCK
  5
224
100
AcDbEntity
  8
0
100
AcDbBlockBegin
  2
_FILLED
 70
64
 10
0.0
 20
0.0
  3
_FILLED
  1

  0
SOLID
  5
225
100
AcDbEntity
  8
0
  6
BYBLOCK
 62
0
100
AcDbTrace
 10
0.0
 20
0.0
 11
-1.0
 21
0.3166666667
 12
-1.0
 22
-0.3166666667
 13
-1.0
 23
-0.3166666667
  0
ENDBLK
  5
226
100
AcDbEntity
  8
0
  6
BYBLOCK
 62
0
100
AcDbBlockEnd
  0
BLOCK
  5
227
100
AcDbEntity
  8
0
100
AcDbBlockBegin
 62
7
  6
CONTINUOUS
  2
*D0
 70
65
 10
0.0
 20
0.0
  3
*D0
  1

  0
LINE
  5
228
100
AcDbEntity
  8
0
100
AcDbLine
 62
7
  6
CONTINUOUS
 10
-11.0528653412
 20
24.0316242746
 11
-11.0528653412
 21
35.7094387199
  0
LINE
  5
229
100
AcDbEntity
  8
0
100
AcDbLine
 62
7
  6
CONTINUOUS
 10
11.0528653412
 20
24.0316242746
 11
11.0528653412
 21
35.7094387199
  0
LINE
  5
22A
100
AcDbEntity
  8
0
100
AcDbLine
 62
7
  6
CONTINUOUS
 10
-11.0528653412
 20
34.2094387199
 11
0.0
 21
34.2094387199
  0
LINE
  5
22B
100
AcDbEntity
  8
0
100
AcDbLine
 62
7
  6
CONTINUOUS
 10
11.0528653412
 20
34.2094387199
 11
0.0
 21
34.2094387199
  0
INSERT
  5
22C
100
AcDbEntity
  8
0
100
AcDbBlockReference
 62
7
  6
CONTINUOUS
  2
_FILLED
 10
-11.0528653412
 20
34.2094387199
 41
3.0
 42
3.0
 43
3.0
 50
180.0
  0
INSERT
  5
22D
100
AcDbEntity
  8
0
100
AcDbBlockReference
 62
7
  6
CONTINUOUS
  2
_FILLED
 10
11.0528653412
 20
34.2094387199
 41
3.0
 42
3.0
 43
3.0
  0
ENDBLK
  5
22E
100
AcDbEntity
  8
0
  6
BYBLOCK
 62
0
100
AcDbBlockEnd
  0
BLOCK
  5
22F
100
AcDbEntity
  8
0
100
AcDbBlockBegin
 62
7
  6
CONTINUOUS
  2
*D1
 70
65
 10
0.0
 20
0.0
  3
*D1
  1

  0
LINE
  5
230
100
AcDbEntity
  8
0
100
AcDbLine
 62
7
  6
CONTINUOUS
 10
11.0530366787
 20
24.0314529371
 11
22.730851124
 21
24.0314529371
  0
LINE
  5
231
100
AcDbEntity
  8
0
100
AcDbLine
 62
7
  6
CONTINUOUS
 10
11.0530366787
 20
-28.6742777453
 11
22.730851124
 21
-28.6742777453
  0
LINE
  5
232
100
AcDbEntity
  8
0
100
AcDbLine
 62
7
  6
CONTINUOUS
 10
21.230851124
 20
24.0314529371
 11
21.230851124
 21
-2.3214124041
  0
LINE
  5
233
100
AcDbEntity
  8
0
100
AcDbLine
 62
7
  6
CONTINUOUS
 10
21.230851124
 20
-28.6742777453
 11
21.230851124
 21
-2.3214124041
  0
INSERT
  5
234
100
AcDbEntity
  8
0
100
AcDbBlockReference
 62
7
  6
CONTINUOUS
  2
_FILLED
 10
21.230851124
 20
24.0314529371
 41
3.0
 42
3.0
 43
3.0
 50
90.0
  0
INSERT
  5
235
100
AcDbEntity
  8
0
100
AcDbBlockReference
 62
7
  6
CONTINUOUS
  2
_FILLED
 10
21.230851124
 20
-28.6742777453
 41
3.0
 42
3.0
 43
3.0
 50
270.0
  0
ENDBLK
  5
236
100
AcDbEntity
  8
0
  6
BYBLOCK
 62
0
100
AcDbBlockEnd
  0
BLOCK
  5
237
100
AcDbEntity
  8
0
100
AcDbBlockBegin
 62
7
  6
CONTINUOUS
  2
*D2
 70
65
 10
0.0
 20
0.0
  3
*D2
  1

  0
LINE
  5
238
100
AcDbEntity
  8
0
100
AcDbLine
 62
7
  6
CONTINUOUS
 10
-26.1225432759
 20
24.0316242746
 11
-26.1225432759
 21
35.7094387199
  0
LINE
  5
239
100
AcDbEntity
  8
0
100
AcDbLine
 62
7
  6
CONTINUOUS
 10
-30.7922908046
 20
-27.0258342203
 11
-30.7922908046
 21
35.7094387199
  0
LINE
  5
23A
100
AcDbEntity
  8
0
100
AcDbLine
 62
7
  6
CONTINUOUS
 10
-26.1225432759
 20
34.2094387199
 11
-22.1225432759
 21
34.2094387199
  0
LINE
  5
23B
100
AcDbEntity
  8
0
100
AcDbLine
 62
7
  6
CONTINUOUS
 10
-22.1225432759
 20
34.2094387199
 11
-28.4574170402
 21
34.2094387199
  0
LINE
  5
23C
100
AcDbEntity
  8
0
100
AcDbLine
 62
7
  6
CONTINUOUS
 10
-30.7922908046
 20
34.2094387199
 11
-42.3186201279
 21
34.2094387199
  0
LINE
  5
23D
100
AcDbEntity
  8
0
100
AcDbLine
 62
7
  6
CONTINUOUS
 10
-42.3186201279
 20
34.2094387199
 11
-28.4574170402
 21
34.2094387199
  0
INSERT
  5
23E
100
AcDbEntity
  8
0
100
AcDbBlockReference
 62
7
  6
CONTINUOUS
  2
_FILLED
 10
-26.1225432759
 20
34.2094387199
 41
3.0
 42
3.0
 43
3.0
 50
180.0
  0
INSERT
  5
23F
100
AcDbEntity
  8
0
100
AcDbBlockReference
 62
7
  6
CONTINUOUS
  2
_FILLED
 10
-30.7922908046
 20
34.2094387199
 41
3.0
 42
3.0
 43
3.0
  0
ENDBLK
  5
240
100
AcDbEntity
  8
0
  6
BYBLOCK
 62
0
100
AcDbBlockEnd
  0
BLOCK
  5
241
100
AcDbEntity
  8
0
100
AcDbBlockBegin
 62
7
  6
CONTINUOUS
  2
*D3
 70
65
 10
0.0
 20
0.0
  3
*D3
  1

  0
LINE
  5
242
100
AcDbEntity
  8
0
100
AcDbLine
 62
7
  6
CONTINUOUS
 10
-22.8225432759
 20
-14.2182905807
 11
-22.8225432759
 21
43.7094387199
  0
LINE
  5
243
100
AcDbEntity
  8
0
100
AcDbLine
 62
7
  6
CONTINUOUS
 10
-30.7922908046
 20
-27.0258342203
 11
-30.7922908046
 21
43.7094387199
  0
LINE
  5
244
100
AcDbEntity
  8
0
100
AcDbLine
 62
7
  6
CONTINUOUS
 10
-22.8225432759
 20
42.2094387199
 11
-26.8074170402
 21
42.2094387199
  0
LINE
  5
245
100
AcDbEntity
  8
0
100
AcDbLine
 62
7
  6
CONTINUOUS
 10
-30.7922908046
 20
42.2094387199
 11
-26.8074170402
 21
42.2094387199
  0
LINE
  5
246
100
AcDbEntity
  8
0
100
AcDbLine
 62
7
  6
CONTINUOUS
 10
-26.8074170402
 20
42.2094387199
 11
-40.5744336617
 21
42.2094387199
  0
INSERT
  5
247
100
AcDbEntity
  8
0
100
AcDbBlockReference
 62
7
  6
CONTINUOUS
  2
_FILLED
 10
-22.8225432759
 20
42.2094387199
 41
3.0
 42
3.0
 43
3.0
  0
INSERT
  5
248
100
AcDbEntity
  8
0
100
AcDbBlockReference
 62
7
  6
CONTINUOUS
  2
_FILLED
 10
-30.7922908046
 20
42.2094387199
 41
3.0
 42
3.0
 43
3.0
 50
180.0
  0
ENDBLK
  5
249
100
AcDbEntity
  8
0
  6
BYBLOCK
 62
0
100
AcDbBlockEnd
  0
ENDSEC
  0
SECTION
  2
ENTITIES
  0
DIMENSION
  5
24A
100
AcDbEntity
  8
0
100
AcDbDimension
 62
7
  6
CONTINUOUS
  2
*D0
 10
11.0528653412
 20
34.2094387199
 11
-4.0714285714
 21
34.2094387199
 70
160
 71
2
 72
2
 41
0.9
 42
22.1057306824
  3
DIMSTYLE_1
100
AcDbAlignedDimension
 13
-11.0528653412
 23
23.5316242746
 14
11.0528653412
 24
23.5316242746
100
AcDbRotatedDimension
  0
DIMENSION
  5
24B
100
AcDbEntity
  8
0
100
AcDbDimension
 62
7
  6
CONTINUOUS
  2
*D1
 10
21.230851124
 20
-28.6742777453
 11
21.230851124
 21
-6.6071266898
 70
160
 71
2
 72
2
 41
0.9
 42
52.7057306824
  3
DIMSTYLE_1
100
AcDbAlignedDimension
 13
10.5530366787
 23
24.0314529371
 14
10.5530366787
 24
-28.6742777453
 50
270.0
100
AcDbRotatedDimension
  0
DIMENSION
  5
24C
100
AcDbEntity
  8
0
100
AcDbDimension
 62
7
  6
CONTINUOUS
  2
*D2
 10
-30.7922908046
 20
34.2094387199
 11
-42.3186201279
 21
34.2094387199
 70
160
 71
3
 72
2
 41
0.9
 42
4.6697475287
  3
DIMSTYLE_1
100
AcDbAlignedDimension
 13
-26.1225432759
 23
23.5316242746
 14
-30.7922908046
 24
-27.5258342203
 50
180.0
100
AcDbRotatedDimension
  0
DIMENSION
  5
24D
100
AcDbEntity
  8
0
100
AcDbDimension
 62
7
  6
CONTINUOUS
  2
*D3
 10
-30.7922908046
 20
42.2094387199
 11
-40.5744336617
 21
42.2094387199
 70
160
 71
3
 72
2
 41
0.9
 42
7.9697475287
  3
DIMSTYLE_1
100
AcDbAlignedDimension
 13
-22.8225432759
 23
-14.7182905807
 14
-30.7922908046
 24
-27.5258342203
 50
180.0
100
AcDbRotatedDimension
  0
LWPOLYLINE
  5
24E
100
AcDbEntity
  8
0
100
AcDbPolyline
 62
7
  6
CONTINUOUS
 90
3
 70
0
 43
0.3500000006
 10
2.3571427875
 20
37.1022950592
 10
3.2142856836
 20
37.9594375305
 10
3.2142856836
 20
34.959436615
  0
LINE
  5
24F
100
AcDbEntity
  8
RACCORDO
100
AcDbLine
 62
250
  6
CONTINUOUS
 10
10.5530366787
 20
24.0314529371
 11
10.5134150626
 21
23.991831321
  0
LINE
  5
250
100
AcDbEntity
  8
RACCORDO
100
AcDbLine
 62
250
  6
CONTINUOUS
 10
11.0528653412
 20
23.5316242746
 11
11.0132437251
 21
23.4920026585
  0
LWPOLYLINE
  5
251
100
AcDbEntity
  8
0
100
AcDbPolyline
 62
7
  6
CONTINUOUS
 90
10
 70
0
 43
0.3500000006
 10
19.9808521957
 20
-1.4642693253
 10
20.1237077637
 20
-1.3928415413
 10
20.1951366806
 20
-1.3928415413
 10
20.3379945145
 20
-1.5356982422
 10
20.3379945145
 20
-1.6071271591
 10
20.2665655975
 20
-1.6785549431
 10
20.1951366806
 20
-1.6785549431
 10
20.0522788467
 20
-1.6071271591
 10
19.9808521957
 20
-1.5356982422
 10
19.9808521957
 20
-1.4642693253
  0
LWPOLYLINE
  5
252
100
AcDbEntity
  8
RACCORDO
100
AcDbPolyline
 62
250
  6
CONTINUOUS
 90
16
 70
0
 10
-10.9843922303
 20
-12.6077541706
 10
-10.9804059056
 20
-12.6023795514
 10
-10.9711654667
 20
-12.5970618743
 10
-10.9567688298
 20
-12.5918574882
 10
-10.9373685479
 20
-12.5868215412
 10
-10.9131701939
 20
-12.5820073961
 10
-10.8844301826
 20
-12.5774660643
 10
-10.8514530538
 20
-12.5732456671
 10
-10.814588245
 20
-12.5693909256
 10
-10.7742263877
 20
-12.5659426859
 10
-10.7307951703
 20
-12.5629374861
 10
-10.6847548046
 20
-12.5604071703
 10
-10.6365931486
 20
-12.558378551
 10
-10.5868205387
 20
-12.5568731242
 10
-10.5359643823
 20
-12.5559068408
 10
-10.4845635678
 20
-12.555489939
  0
LWPOLYLINE
  5
253
100
AcDbEntity
  8
0
100
AcDbPolyline
 62
7
  6
CONTINUOUS
 90
3
 70
0
 43
0.3500000006
 10
1.3571429071
 20
35.2451522827
 10
1.2857142735
 20
35.0308677979
 10
1.1428571477
 20
34.7451521301
  0
LWPOLYLINE
  5
254
100
AcDbEntity
  8
RACCORDO
100
AcDbPolyline
 62
250
  6
CONTINUOUS
 90
10
 70
0
 10
-11.0203794396
 20
-28.1419631812
 10
-11.0201131795
 20
-28.1415930378
 10
-11.0198474182
 20
-28.1410171678
 10
-11.0195821555
 20
-28.140235571
 10
-11.0193173184
 20
-28.1392479808
 10
-11.01905298
 20
-28.1380546638
 10
-11.0187893598
 20
-28.1366564201
 10
-11.0185265308
 20
-28.1350535163
 10
-11.0182644199
 20
-28.1332456858
 10
-11.0180030272
 20
-28.1312329285
  0
LWPOLYLINE
  5
255
100
AcDbEntity
  8
RACCORDO
100
AcDbPolyline
 62
250
  6
CONTINUOUS
 90
16
 70
0
 10
-10.9433339257
 20
-27.5258342203
 10
-10.9393316134
 20
-27.520446614
 10
-10.9300500133
 20
-27.5151163718
 10
-10.9155879502
 20
-27.5099002471
 10
-10.896097451
 20
-27.5048533376
 10
-10.8717871371
 20
-27.5000298608
 10
-10.8429242058
 20
-27.4954823594
 10
-10.8098257103
 20
-27.491259724
 10
-10.7728421004
 20
-27.4874057379
 10
-10.7323579702
 20
-27.4839601738
 10
-10.6887512214
 20
-27.4809564358
 10
-10.6425315726
 20
-27.4784307888
 10
-10.5943498372
 20
-27.476415815
 10
-10.544788162
 20
-27.474929215
 10
-10.4943286893
 20
-27.4739790414
 10
-10.4435052632
 20
-27.4735699887
  0
LINE
  5
256
100
AcDbEntity
  8
RACCORDO
100
AcDbLine
 62
250
  6
CONTINUOUS
 10
-11.0528653412
 20
-28.1744490828
 11
-11.0203794396
 21
-28.1419631812
  0
LINE
  5
257
100
AcDbEntity
  8
RACCORDO
100
AcDbLine
 62
250
  6
CONTINUOUS
 10
-10.5530366787
 20
-28.6742777453
 11
-10.5205507771
 21
-28.6417918437
  0
LWPOLYLINE
  5
258
100
AcDbEntity
  8
RACCORDO
100
AcDbPolyline
 62
250
  6
CONTINUOUS
 90
10
 70
0
 10
-10.5205507771
 20
-28.6417918437
 10
-10.5202845047
 20
-28.6410528495
 10
-10.5200187372
 20
-28.6399009075
 10
-10.5197534745
 20
-28.6383366233
 10
-10.5194886477
 20
-28.6363610725
 10
-10.5192243257
 20
-28.6339750133
 10
-10.5189607157
 20
-28.6311783215
 10
-10.5186978867
 20
-28.6279713055
 10
-10.5184357697
 20
-28.6243552709
 10
-10.5181743647
 20
-28.6203313383
  0
LWPOLYLINE
  5
259
100
AcDbEntity
  8
RACCORDO
100
AcDbPolyline
 62
250
  6
CONTINUOUS
 90
16
 70
0
 10
-11.0132437251
 20
23.4920026585
 10
-11.0104557606
 20
23.5443816335
 10
-11.0021943512
 20
23.5961838112
 10
-10.9885504711
 20
23.6468387423
 10
-10.9696717815
 20
23.6957943918
 10
-10.9457675487
 20
23.7425053346
 10
-10.9171122688
 20
23.7864417153
 10
-10.8840348897
 20
23.8271137229
 10
-10.8468972612
 20
23.8640890221
 10
-10.8060959292
 20
23.8969769334
 10
-10.762014426
 20
23.9254532014
 10
-10.7151938467
 20
23.9491542719
 10
-10.6663444548
 20
23.9677563577
 10
-10.6160895555
 20
23.9811016447
 10
-10.5649267792
 20
23.9891345724
 10
-10.5134150626
 20
23.991831321
  0
LINE
  5
25A
100
AcDbEntity
  8
RACCORDO
100
AcDbLine
 62
250
  6
CONTINUOUS
 10
-11.0180030272
 20
-28.1312329285
 11
-10.9433339257
 21
-27.5258342203
  0
LINE
  5
25B
100
AcDbEntity
  8
RACCORDO
100
AcDbLine
 62
250
  6
CONTINUOUS
 10
-10.5181743647
 20
-28.6203313383
 11
-10.4435052632
 21
-28.0149326301
  0
LWPOLYLINE
  5
25C
100
AcDbEntity
  8
RACCORDO
100
AcDbPolyline
 62
250
  6
CONTINUOUS
 90
16
 70
0
 10
-10.9433339257
 20
-27.5258342203
 10
-10.9403172629
 20
-27.5769110725
 10
-10.9318678222
 20
-27.6274292729
 10
-10.9180780359
 20
-27.6768363964
 10
-10.8990967799
 20
-27.7245964189
 10
-10.8751327003
 20
-27.7701824486
 10
-10.8464563556
 20
-27.8130846397
 10
-10.8133911088
 20
-27.8528297626
 10
-10.7762969393
 20
-27.8889942549
 10
-10.7355712095
 20
-27.9211940579
 10
-10.6916052612
 20
-27.949108166
 10
-10.6449261826
 20
-27.9723911762
 10
-10.5962079899
 20
-27.9907366315
 10
-10.5460551271
 20
-28.0039824932
 10
-10.4949692548
 20
-28.0120594529
 10
-10.4435052632
 20
-28.0149326301
  0
LWPOLYLINE
  5
25D
100
AcDbEntity
  8
RACCORDO
100
AcDbPolyline
 62
250
  6
CONTINUOUS
 90
16
 70
0
 10
-11.0180030272
 20
-28.1312329285
 10
-11.0150007584
 20
-28.1821820902
 10
-11.0065927345
 20
-28.2325768958
 10
-10.9928704398
 20
-28.2818690213
 10
-10.9739831805
 20
-28.3295221399
 10
-10.9501364609
 20
-28.3750177587
 10
-10.9215897469
 20
-28.4178608592
 10
-10.8886536431
 20
-28.4575852841
 10
-10.8516865131
 20
-28.4937588089
 10
-10.8110905803
 20
-28.525987845
 10
-10.7673075518
 20
-28.5539217221
 10
-10.7208138118
 20
-28.5772565036
 10
-10.6721152389
 20
-28.5957382938
 10
-10.6217417014
 20
-28.6091660002
 10
-10.570241292
 20
-28.6173935218
 10
-10.5181743647
 20
-28.6203313383
  0
LWPOLYLINE
  5
25E
100
AcDbEntity
  8
RACCORDO
100
AcDbPolyline
 62
250
  6
CONTINUOUS
 90
16
 70
0
 10
-11.0203794396
 20
-28.1419631812
 10
-11.0176079341
 20
-28.1941867376
 10
-11.0093953246
 20
-28.2458386327
 10
-10.9958315081
 20
-28.2963534514
 10
-10.9770649595
 20
-28.3451782254
 10
-10.9533011065
 20
-28.3917784858
 10
-10.9248000809
 20
-28.4356441137
 10
-10.8918738706
 20
-28.4762949258
 10
-10.8548829053
 20
-28.5132859292
 10
-10.8142321118
 20
-28.5462121927
 10
-10.7703664787
 20
-28.5747132812
 10
-10.7237661873
 20
-28.5984772005
 10
-10.6749413572
 20
-28.6172438114
 10
-10.6244264579
 20
-28.6308076798
 10
-10.5727744586
 20
-28.6390203249
 10
-10.5205507771
 20
-28.6417918437
  0
LINE
  5
25F
100
AcDbEntity
  8
RACCORDO
100
AcDbLine
 62
250
  6
CONTINUOUS
 10
-10.9433339257
 20
-27.5258342203
 11
-10.9911268887
 21
-10.083639908
  0
LINE
  5
260
100
AcDbEntity
  8
RACCORDO
100
AcDbLine
 62
250
  6
CONTINUOUS
 10
-10.9911268887
 20
-10.083639908
 11
-11.0034473422
 21
-4.6021489781
  0
LINE
  5
261
100
AcDbEntity
  8
RACCORDO
100
AcDbLine
 62
250
  6
CONTINUOUS
 10
-11.0034473422
 20
-4.6021489781
 11
-11.0093330014
 21
-0.5858697627
  0
LINE
  5
262
100
AcDbEntity
  8
RACCORDO
100
AcDbLine
 62
250
  6
CONTINUOUS
 10
-10.5036186798
 20
-4.5669856081
 11
-10.509504339
 21
-0.5654161032
  0
LINE
  5
263
100
AcDbEntity
  8
RACCORDO
100
AcDbLine
 62
250
  6
CONTINUOUS
 10
-11.0093330014
 20
-0.5858697627
 11
-11.0128405674
 21
5.0053067486
  0
LINE
  5
264
100
AcDbEntity
  8
RACCORDO
100
AcDbLine
 62
250
  6
CONTINUOUS
 10
-10.509504339
 20
-0.5654161032
 11
-10.5130119049
 21
5.0102957183
  0
LINE
  5
265
100
AcDbEntity
  8
RACCORDO
100
AcDbLine
 62
7
  6
CONTINUOUS
 10
-11.0528653412
 20
23.5316242746
 11
-11.0528653412
 21
-28.1744490828
  0
LINE
  5
266
100
AcDbEntity
  8
RACCORDO
100
AcDbLine
 62
250
  6
CONTINUOUS
 10
-11.0128405674
 20
5.0053067486
 11
-11.0132437251
 21
23.4920026585
  0
LINE
  5
267
100
AcDbEntity
  8
RACCORDO
100
AcDbLine
 62
250
  6
CONTINUOUS
 10
-10.5130119049
 20
5.0102957183
 11
-10.5134150626
 21
23.991831321
  0
LINE
  5
268
100
AcDbEntity
  8
RACCORDO
100
AcDbLine
 62
250
  6
CONTINUOUS
 10
-10.4435052632
 20
-28.0149326301
 11
-10.5036186798
 21
-4.5669856081
  0
LINE
  5
269
100
AcDbEntity
  8
0
100
AcDbLine
 62
7
  6
CONTINUOUS
 10
-1.0
 20
-16.4214124041
 11
-1.0
 21
-18.2214124041
  0
LINE
  5
26A
100
AcDbEntity
  8
0
100
AcDbLine
 62
7
  6
CONTINUOUS
 10
1.0
 20
-16.4214124041
 11
1.0
 21
-18.2214124041
  0
LWPOLYLINE
  5
26B
100
AcDbEntity
  8
RACCORDO
100
AcDbPolyline
 62
250
  6
CONTINUOUS
 90
10
 70
0
 10
10.5181743647
 20
-28.6203313383
 10
10.5184354781
 20
-28.6243510358
 10
10.5186973761
 20
-28.6279646857
 10
10.5189600588
 20
-28.6311708317
 10
10.5192235947
 20
-28.6339678311
 10
10.5194879152
 20
-28.6363550326
 10
10.5197528144
 20
-28.6383322152
 10
10.5200182234
 20
-28.639898278
 10
10.5202842109
 20
-28.6410518039
 10
10.5205507771
 20
-28.6417918437
  0
LINE
  5
26C
100
AcDbEntity
  8
RACCORDO
100
AcDbLine
 62
7
  6
CONTINUOUS
 10
11.0528653412
 20
23.5316242746
 11
11.0528653412
 21
-28.1744490828
  0
LINE
  5
26D
100
AcDbEntity
  8
RACCORDO
100
AcDbLine
 62
250
  6
CONTINUOUS
 10
10.5134150626
 20
23.991831321
 11
10.5131061475
 21
5.3973420767
  0
LINE
  5
26E
100
AcDbEntity
  8
RACCORDO
100
AcDbLine
 62
250
  6
CONTINUOUS
 10
11.0132437251
 20
23.4920026585
 11
11.01293481
 21
5.393089461
  0
LINE
  5
26F
100
AcDbEntity
  8
RACCORDO
100
AcDbLine
 62
250
  6
CONTINUOUS
 10
10.5131061475
 20
5.3973420767
 11
10.5037156645
 21
-4.5145340973
  0
LINE
  5
270
100
AcDbEntity
  8
RACCORDO
100
AcDbLine
 62
250
  6
CONTINUOUS
 10
11.01293481
 20
5.393089461
 11
11.003544327
 21
-4.5495252449
  0
LINE
  5
271
100
AcDbEntity
  8
RACCORDO
100
AcDbLine
 62
250
  6
CONTINUOUS
 10
10.5037156645
 20
-4.5145340973
 11
10.488474533
 21
-11.1119760261
  0
LINE
  5
272
100
AcDbEntity
  8
RACCORDO
100
AcDbLine
 62
250
  6
CONTINUOUS
 10
11.003544327
 20
-4.5495252449
 11
10.9883031955
 21
-11.1624758691
  0
LINE
  5
273
100
AcDbEntity
  8
RACCORDO
100
AcDbLine
 62
250
  6
CONTINUOUS
 10
10.488474533
 20
-11.1119760261
 11
10.4435052632
 21
-28.0149326301
  0
LINE
  5
274
100
AcDbEntity
  8
RACCORDO
100
AcDbLine
 62
250
  6
CONTINUOUS
 10
10.9883031955
 20
-11.1624758691
 11
10.9433339257
 21
-27.5258342203
  0
LWPOLYLINE
  5
275
100
AcDbEntity
  8
RACCORDO
100
AcDbPolyline
 62
250
  6
CONTINUOUS
 90
16
 70
0
 10
11.0203794396
 20
-28.1419631812
 10
11.0176079267
 20
-28.1941868072
 10
11.0093952977
 20
-28.2458387589
 10
10.9958314533
 20
-28.2963536198
 10
10.9770648724
 20
-28.3451784209
 10
10.9533009864
 20
-28.3917786936
 10
10.9247999305
 20
-28.4356443206
 10
10.8918736961
 20
-28.4762951196
 10
10.8548827155
 20
-28.5132861002
 10
10.8142319165
 20
-28.5462123346
 10
10.7703662895
 20
-28.5747133905
 10
10.7237660168
 20
-28.5984772765
 10
10.6749412157
 20
-28.6172438574
 10
10.6244263548
 20
-28.6308077018
 10
10.5727744031
 20
-28.6390203308
 10
10.5205507771
 20
-28.6417918437
  0
LWPOLYLINE
  5
276
100
AcDbEntity
  8
RACCORDO
100
AcDbPolyline
 62
250
  6
CONTINUOUS
 90
16
 70
0
 10
11.0180030272
 20
-28.1312329285
 10
11.0150007609
 20
-28.182182068
 10
11.0065927434
 20
-28.2325768557
 10
10.9928704578
 20
-28.2818689677
 10
10.9739832091
 20
-28.3295220777
 10
10.9501365002
 20
-28.3750176924
 10
10.9215897961
 20
-28.4178607932
 10
10.8886537001
 20
-28.4575852222
 10
10.8516865751
 20
-28.4937587542
 10
10.8110906441
 20
-28.5259877995
 10
10.7673076135
 20
-28.553921687
 10
10.7208138675
 20
-28.5772564791
 10
10.6721152852
 20
-28.5957382789
 10
10.6217417351
 20
-28.609165993
 10
10.5702413102
 20
-28.6173935198
 10
10.5181743647
 20
-28.6203313383
  0
LWPOLYLINE
  5
277
100
AcDbEntity
  8
RACCORDO
100
AcDbPolyline
 62
250
  6
CONTINUOUS
 90
16
 70
0
 10
10.9433339257
 20
-27.5258342203
 10
10.9403175415
 20
-27.5769086041
 10
10.931868878
 20
-27.6274245288
 10
10.9180803146
 20
-27.6768296395
 10
10.8991006014
 20
-27.7245881123
 10
10.8751383506
 20
-27.7701729505
 10
10.8464643259
 20
-27.813073971
 10
10.8134024307
 20
-27.8528175127
 10
10.7763122704
 20
-27.8889807861
 10
10.7355897476
 20
-27.9211808973
 10
10.6916254483
 20
-27.9490967635
 10
10.6449465425
 20
-27.9723822953
 10
10.5962265131
 20
-27.9907307171
 10
10.546069567
 20
-28.0039794542
 10
10.4949774801
 20
-28.012058576
 10
10.4435052632
 20
-28.0149326301
  0
LWPOLYLINE
  5
278
100
AcDbEntity
  8
RACCORDO
100
AcDbPolyline
 62
250
  6
CONTINUOUS
 90
16
 70
0
 10
11.0132437251
 20
23.4920026585
 10
11.01045539
 20
23.5443851274
 10
11.0021929183
 20
23.5961905131
 10
10.9885473613
 20
23.6468482671
 10
10.9696665657
 20
23.6958060545
 10
10.9457598445
 20
23.7425186206
 10
10.9171013786
 20
23.7864566395
 10
10.8840193212
 20
23.8271309378
 10
10.8468760531
 20
23.8641080316
 10
10.8060702069
 20
23.8969955305
 10
10.761986418
 20
23.9254692766
 10
10.7151656414
 20
23.9491667357
 10
10.6663188279
 20
23.9677646103
 10
10.6160695894
 20
23.9811058487
 10
10.5649154114
 20
23.9891357578
 10
10.5134150624
 20
23.9918313208
  0
LWPOLYLINE
  5
279
100
AcDbEntity
  8
RACCORDO
100
AcDbPolyline
 62
250
  6
CONTINUOUS
 90
10
 70
0
 10
11.0180030272
 20
-28.1312329285
 10
11.0182641283
 20
-28.1332438502
 10
11.0185260202
 20
-28.1350504324
 10
11.0187887029
 20
-28.1366526752
 10
11.0190522491
 20
-28.1380510164
 10
11.019316586
 20
-28.1392450182
 10
11.0195814954
 20
-28.1402333669
 10
11.0198469044
 20
-28.1410156247
 10
11.0201128858
 20
-28.1415922295
 10
11.0203794396
 20
-28.1419631812
  0
LINE
  5
27A
100
AcDbEntity
  8
RACCORDO
100
AcDbLine
 62
250
  6
CONTINUOUS
 10
10.4435052632
 20
-28.0149326301
 11
10.5181743647
 21
-28.6203313383
  0
LINE
  5
27B
100
AcDbEntity
  8
RACCORDO
100
AcDbLine
 62
250
  6
CONTINUOUS
 10
10.9433339257
 20
-27.5258342203
 11
11.0180030272
 21
-28.1312329285
  0
LWPOLYLINE
  5
27C
100
AcDbEntity
  8
0
100
AcDbPolyline
 62
7
  6
CONTINUOUS
 90
7
 70
0
 43
0.3500000006
 10
20.4808500824
 20
-2.964269783
 10
20.4808500824
 20
-4.4642691078
 10
18.3379939041
 20
-2.964269783
 10
17.9094226685
 20
-2.964269783
 10
17.4808514328
 20
-3.3928410187
 10
17.4808514328
 20
-4.0356978722
 10
18.1237082863
 20
-4.4642691078
  0
LWPOLYLINE
  5
27D
100
AcDbEntity
  8
0
100
AcDbPolyline
 62
7
  6
CONTINUOUS
 90
8
 70
0
 43
0.3500000006
 10
20.4808500824
 20
-6.6071264191
 10
20.4808500824
 20
-5.7499839478
 10
20.0522788467
 20
-5.3214127121
 10
19.1951363754
 20
-5.3214127121
 10
18.7665651398
 20
-5.7499839478
 10
18.7665651398
 20
-6.6071264191
 10
17.4808514328
 20
-6.6071264191
 10
17.4808514328
 20
-5.3214127121
  0
LINE
  5
27E
100
AcDbEntity
  8
RACCORDO
100
AcDbLine
 62
250
  6
CONTINUOUS
 10
10.5205507771
 20
-28.6417918437
 11
10.5530366787
 21
-28.6742777453
  0
LINE
  5
27F
100
AcDbEntity
  8
RACCORDO
100
AcDbLine
 62
250
  6
CONTINUOUS
 10
11.0203794396
 20
-28.1419631812
 11
11.0528653412
 21
-28.1744490828
  0
LWPOLYLINE
  5
280
100
AcDbEntity
  8
RACCORDO
100
AcDbPolyline
 62
250
  6
CONTINUOUS
 90
16
 70
0
 10
10.9433339257
 20
-27.5258342203
 10
10.9393312936
 20
-27.520446356
 10
10.9300488954
 20
-27.5151158752
 10
10.9155856063
 20
-27.5098995386
 10
10.8960935712
 20
-27.5048524633
 10
10.8717814431
 20
-27.5000288573
 10
10.8429162354
 20
-27.4954812313
 10
10.8098145022
 20
-27.4912584324
 10
10.7728270553
 20
-27.4874043203
 10
10.7323398679
 20
-27.4839587854
 10
10.6887315277
 20
-27.4809552236
 10
10.6425116892
 20
-27.4784298329
 10
10.5943317287
 20
-27.4764151668
 10
10.544774042
 20
-27.4749288713
 10
10.4943206434
 20
-27.4739789336
 10
10.4435052632
 20
-27.4735699887
  0
LINE
  5
281
100
AcDbEntity
  8
RACCORDO
100
AcDbLine
 62
7
  6
CONTINUOUS
 10
-10.5530366787
 20
-28.6742777453
 11
10.5530366787
 21
-28.6742777453
  0
LINE
  5
282
100
AcDbEntity
  8
RACCORDO
100
AcDbLine
 62
250
  6
CONTINUOUS
 10
10.5205507771
 20
-28.6417918437
 11
-10.5205507771
 21
-28.6417918437
  0
LINE
  5
283
100
AcDbEntity
  8
RACCORDO
100
AcDbLine
 62
250
  6
CONTINUOUS
 10
10.5181743647
 20
-28.6203313383
 11
-10.5181743647
 21
-28.6203313383
  0
LINE
  5
284
100
AcDbEntity
  8
RACCORDO
100
AcDbLine
 62
250
  6
CONTINUOUS
 10
-10.4435052632
 20
-28.0149326301
 11
10.4435052632
 21
-28.0149326301
  0
LINE
  5
285
100
AcDbEntity
  8
RACCORDO
100
AcDbLine
 62
250
  6
CONTINUOUS
 10
-10.4435052632
 20
-27.4735699887
 11
10.4435052632
 21
-27.4735699887
  0
LWPOLYLINE
  5
286
100
AcDbEntity
  8
RACCORDO
100
AcDbPolyline
 62
250
  6
CONTINUOUS
 90
16
 70
0
 10
10.9843922303
 20
-12.6077541706
 10
10.9804059091
 20
-12.6023794789
 10
10.9711654778
 20
-12.5970617391
 10
10.9567688511
 20
-12.5918572999
 10
10.9373685806
 20
-12.5868213093
 10
10.9131702378
 20
-12.5820071301
 10
10.8844302365
 20
-12.5774657752
 10
10.8514531153
 20
-12.5732453661
 10
10.8145883106
 20
-12.5693906238
 10
10.7742264543
 20
-12.5659423944
 10
10.7307952338
 20
-12.5629372164
 10
10.6847548609
 20
-12.5604069338
 10
10.6365931945
 20
-12.5583783582
 10
10.5868205718
 20
-12.5568729851
 10
10.5359644
 20
-12.5559067659
 10
10.4845635678
 20
-12.555489939
  0
LINE
  5
287
100
AcDbEntity
  8
0
100
AcDbLine
 62
7
  6
CONTINUOUS
 10
-0.9
 20
-18.3214124041
 11
0.9
 21
-18.3214124041
  0
LWPOLYLINE
  5
288
100
AcDbEntity
  8
0
100
AcDbPolyline
 62
7
  6
CONTINUOUS
 90
10
 70
0
 43
0.3500000006
 10
1.2857142735
 20
35.4594367676
 10
1.3571429071
 20
35.3165834656
 10
1.3571429071
 20
35.2451522827
 10
1.2142857814
 20
35.1022944489
 10
1.1428571477
 20
35.1022944489
 10
1.0714285848
 20
35.1737256317
 10
1.0714285848
 20
35.2451522827
 10
1.1428571477
 20
35.3880101166
 10
1.2142857814
 20
35.4594367676
 10
1.2857142735
 20
35.4594367676
  0
LINE
  5
289
100
AcDbEntity
  8
0
100
AcDbLine
 62
7
  6
CONTINUOUS
 10
-0.9
 20
-16.3214124041
 11
0.9
 21
-16.3214124041
  0
LINE
  5
28A
100
AcDbEntity
  8
RACCORDO
100
AcDbLine
 62
250
  6
CONTINUOUS
 10
-10.4845635678
 20
-12.555489939
 11
10.4845635678
 21
-12.555489939
  0
LINE
  5
28B
100
AcDbEntity
  8
RACCORDO
100
AcDbLine
 62
250
  6
CONTINUOUS
 10
-11.0132437251
 20
23.4920026585
 11
-11.0528653412
 21
23.5316242746
  0
LINE
  5
28C
100
AcDbEntity
  8
RACCORDO
100
AcDbLine
 62
250
  6
CONTINUOUS
 10
-10.5134150626
 20
23.991831321
 11
-10.5530366787
 21
24.0314529371
  0
LWPOLYLINE
  5
28D
100
AcDbEntity
  8
0
100
AcDbPolyline
 62
7
  6
CONTINUOUS
 90
4
 70
0
 43
0.3500000006
 10
18.1237082863
 20
-0.3928401031
 10
17.4808514328
 20
-0.3928401031
 10
17.4808514328
 20
1.1071580887
 10
20.4808500824
 20
0.2500156174
  0
LWPOLYLINE
  5
28E
100
AcDbEntity
  8
0
100
AcDbPolyline
 62
7
  6
CONTINUOUS
 90
3
 70
0
 43
0.3500000006
 10
20.1951366806
 20
-1.3928415413
 10
20.4094234314
 20
-1.4642693253
 10
20.6951368332
 20
-1.6071271591
  0
LINE
  5
28F
100
AcDbEntity
  8
RACCORDO
100
AcDbLine
 62
250
  6
CONTINUOUS
 10
11.0132437251
 20
8.4157302908
 11
-11.0132437251
 21
8.4157302908
  0
LINE
  5
290
100
AcDbEntity
  8
RACCORDO
100
AcDbLine
 62
250
  6
CONTINUOUS
 10
11.0132437251
 20
23.4920026585
 11
-11.0132437251
 21
23.4920026585
  0
LINE
  5
291
100
AcDbEntity
  8
RACCORDO
100
AcDbLine
 62
250
  6
CONTINUOUS
 10
10.5134150626
 20
23.991831321
 11
-10.5134150626
 21
23.991831321
  0
LINE
  5
292
100
AcDbEntity
  8
RACCORDO
100
AcDbLine
 62
7
  6
CONTINUOUS
 10
-10.5530366787
 20
24.0314529371
 11
10.5530366787
 21
24.0314529371
  0
LWPOLYLINE
  5
293
100
AcDbEntity
  8
0
100
AcDbPolyline
 62
7
  6
CONTINUOUS
 90
7
 70
0
 43
0.3500000006
 10
-0.2142857063
 20
34.959436615
 10
-1.7142856507
 20
34.959436615
 10
-0.2142857063
 20
37.1022950592
 10
-0.2142857063
 20
37.5308685608
 10
-0.6428571367
 20
37.9594375305
 10
-1.2857142735
 20
37.9594375305
 10
-1.7142856507
 20
37.3165795441
  0
LWPOLYLINE
  5
294
100
AcDbEntity
  8
0
100
AcDbPolyline
 62
7
  6
CONTINUOUS
 90
7
 70
0
 43
0.3500000006
 10
-2.5714285469
 20
34.959436615
 10
-4.0714284382
 20
34.959436615
 10
-2.5714285469
 20
37.1022950592
 10
-2.5714285469
 20
37.5308685608
 10
-3.0000000658
 20
37.9594375305
 10
-3.6428572025
 20
37.9594375305
 10
-4.0714284382
 20
37.3165795441
  0
LWPOLYLINE
  5
295
100
AcDbEntity
  8
RACCORDO
100
AcDbPolyline
 62
7
  6
CONTINUOUS
 90
10
 70
0
 10
-24.5712342956
 20
18.1192255634
 10
-24.5447971138
 20
18.1390732791
 10
-24.519447442
 20
18.1562184957
 10
-24.4959337444
 20
18.1708558555
 10
-24.4750086782
 20
18.1831755609
 10
-24.4571054305
 20
18.1935812752
 10
-24.4424753174
 20
18.2025925353
 10
-24.4315602922
 20
18.2105940105
 10
-24.4248263725
 20
18.2179119113
 10
-24.4225432759
 20
18.2249746559
  0
LINE
  5
296
100
AcDbEntity
  8
RACCORDO
100
AcDbLine
 62
250
  6
CONTINUOUS
 10
-24.7930315421
 20
19.0970346286
 11
-24.8204608576
 21
19.0694998806
  0
LINE
  5
297
100
AcDbEntity
  8
RACCORDO
100
AcDbLine
 62
250
  6
CONTINUOUS
 10
-24.5815889914
 20
18.881868032
 11
-24.6090189605
 21
18.8543326608
  0
LINE
  5
298
100
AcDbEntity
  8
RACCORDO
100
AcDbLine
 62
250
  6
CONTINUOUS
 10
-24.8204608576
 20
19.0694998806
 11
-24.90734368
 21
18.9833089837
  0
LINE
  5
299
100
AcDbEntity
  8
RACCORDO
100
AcDbLine
 62
250
  6
CONTINUOUS
 10
-24.6090189605
 20
18.8543326608
 11
-24.6959020807
 21
18.768141461
  0
LINE
  5
29A
100
AcDbEntity
  8
RACCORDO
100
AcDbLine
 62
250
  6
CONTINUOUS
 10
-24.90734368
 20
18.9833089837
 11
-24.9887183499
 21
18.9031419102
  0
LINE
  5
29B
100
AcDbEntity
  8
RACCORDO
100
AcDbLine
 62
250
  6
CONTINUOUS
 10
-24.6959020807
 20
18.768141461
 11
-24.7772752254
 21
18.6879758235
  0
LWPOLYLINE
  5
29C
100
AcDbEntity
  8
RACCORDO
100
AcDbPolyline
 62
7
  6
CONTINUOUS
 90
3
 70
0
 10
-26.0807114634
 20
0.4854012326
 10
-26.1202734432
 20
0.463774303
 10
-26.1225432759
 20
0.4625177629
  0
LINE
  5
29D
100
AcDbEntity
  8
RACCORDO
100
AcDbLine
 62
250
  6
CONTINUOUS
 10
-25.9662095056
 20
0.4351428484
 11
-26.0457650738
 21
0.3921321827
  0
LINE
  5
29E
100
AcDbEntity
  8
RACCORDO
100
AcDbLine
 62
250
  6
CONTINUOUS
 10
-25.5983949976
 20
0.6309401657
 11
-25.6622944551
 21
0.5963974428
  0
LINE
  5
29F
100
AcDbEntity
  8
RACCORDO
100
AcDbLine
 62
7
  6
CONTINUOUS
 10
-26.0048278646
 20
0.526277513
 11
-26.0807114634
 21
0.4854012326
  0
LINE
  5
2A0
100
AcDbEntity
  8
RACCORDO
100
AcDbLine
 62
250
  6
CONTINUOUS
 10
-25.6622944551
 20
0.5963974428
 11
-25.7565093762
 21
0.5462256831
  0
LINE
  5
2A1
100
AcDbEntity
  8
RACCORDO
100
AcDbLine
 62
7
  6
CONTINUOUS
 10
-26.0048278646
 20
0.526277513
 11
-25.8672835952
 21
0.5992014959
  0
LINE
  5
2A2
100
AcDbEntity
  8
RACCORDO
100
AcDbLine
 62
250
  6
CONTINUOUS
 10
-25.7565093762
 20
0.5462256831
 11
-25.9662095056
 21
0.4351428484
  0
LINE
  5
2A3
100
AcDbEntity
  8
DRAFT
100
AcDbLine
 62
7
  6
CONTINUOUS
 10
-25.1875478105
 20
3.4785875959
 11
-24.8415541727
 21
3.6594982296
  0
LINE
  5
2A4
100
AcDbEntity
  8
RACCORDO
100
AcDbLine
 62
250
  6
CONTINUOUS
 10
-25.9090598364
 20
2.1338610165
 11
-26.1225432759
 21
2.0240122881
  0
LWPOLYLINE
  5
2A5
100
AcDbEntity
  8
IMPORT_IGES
100
AcDbPolyline
 62
7
  6
CONTINUOUS
 90
4
 70
0
 10
-25.6784021077
 20
3.6198325364
 10
-25.8160328496
 20
3.550584032
 10
-25.9835146966
 20
3.4642467391
 10
-26.1225432759
 20
3.3916683834
  0
LWPOLYLINE
  5
2A6
100
AcDbEntity
  8
RACCORDO
100
AcDbPolyline
 62
250
  6
CONTINUOUS
 90
5
 70
0
 10
-25.4819877463
 20
1.2946991207
 10
-25.532407316
 20
1.269697536
 10
-25.5823812245
 20
1.2451888295
 10
-25.6319094719
 20
1.2211730012
 10
-25.6805334185
 20
1.1979402218
  0
LINE
  5
2A7
100
AcDbEntity
  8
RACCORDO
100
AcDbLine
 62
7
  6
CONTINUOUS
 10
-26.1135953507
 20
1.1020161363
 11
-26.1225432759
 21
1.097613353
  0
LWPOLYLINE
  5
2A8
100
AcDbEntity
  8
RACCORDO
100
AcDbPolyline
 62
250
  6
CONTINUOUS
 90
3
 70
0
 10
-26.0400194956
 20
1.0280646122
 10
-26.0945547656
 20
1.001502566
 10
-26.1225432759
 20
0.9876108811
  0
LINE
  5
2A9
100
AcDbEntity
  8
RACCORDO
100
AcDbLine
 62
7
  6
CONTINUOUS
 10
-26.1152853052
 20
1.1011913699
 11
-26.0315405916
 21
1.1415941099
  0
LINE
  5
2AA
100
AcDbEntity
  8
RACCORDO
100
AcDbLine
 62
250
  6
CONTINUOUS
 10
-25.9321033452
 20
1.0795938692
 11
-26.0400194956
 21
1.0280646122
  0
LINE
  5
2AB
100
AcDbEntity
  8
RACCORDO
100
AcDbLine
 62
7
  6
CONTINUOUS
 10
-25.9604128839
 20
1.1753345987
 11
-26.0617196858
 21
1.1271354739
  0
LINE
  5
2AC
100
AcDbEntity
  8
RACCORDO
100
AcDbLine
 62
7
  6
CONTINUOUS
 10
-25.8625435948
 20
1.2213207241
 11
-25.9897754918
 21
1.1614542717
  0
LINE
  5
2AD
100
AcDbEntity
  8
RACCORDO
100
AcDbLine
 62
250
  6
CONTINUOUS
 10
-25.6805334185
 20
1.1979402218
 11
-25.9321033452
 21
1.0795938692
  0
LWPOLYLINE
  5
2AE
100
AcDbEntity
  8
RACCORDO
100
AcDbPolyline
 62
250
  6
CONTINUOUS
 90
7
 70
0
 10
-25.412543279
 20
2.3775867849
 10
-25.4777924657
 20
2.3470711787
 10
-25.5449695089
 20
2.3150935054
 10
-25.6140744084
 20
2.2816537651
 10
-25.6853154457
 20
2.2465983973
 10
-25.7584843394
 20
2.2100809625
 10
-25.9090598364
 20
2.1338610165
  0
LWPOLYLINE
  5
2AF
100
AcDbEntity
  8
RACCORDO
100
AcDbPolyline
 62
250
  6
CONTINUOUS
 90
9
 70
0
 10
-25.4125432806
 20
2.4763683741
 10
-25.4772183706
 20
2.4463689747
 10
-25.5437500563
 20
2.4150506075
 10
-25.6121383377
 20
2.3823486888
 10
-25.682513305
 20
2.3481343117
 10
-25.754744868
 20
2.3124556841
 10
-25.8284427558
 20
2.2755563894
 10
-25.9039589644
 20
2.2373297003
 10
-26.1225432759
 20
2.1252210263
  0
LWPOLYLINE
  5
2B0
100
AcDbEntity
  8
RACCORDO
100
AcDbPolyline
 62
250
  6
CONTINUOUS
 90
3
 70
0
 10
-26.0475351489
 20
1.6308221724
 10
-26.0991008395
 20
1.6081988081
 10
-26.1225432759
 20
1.5977287184
  0
LWPOLYLINE
  5
2B1
100
AcDbEntity
  8
RACCORDO
100
AcDbPolyline
 62
7
  6
CONTINUOUS
 90
3
 70
0
 10
-26.0550228474
 20
1.7351805892
 10
-26.1050545255
 20
1.7134205419
 10
-26.1225432759
 20
1.7056979187
  0
LINE
  5
2B2
100
AcDbEntity
  8
RACCORDO
100
AcDbLine
 62
250
  6
CONTINUOUS
 10
-25.9452823052
 20
1.6748312651
 11
-26.0475351489
 21
1.6308221724
  0
LINE
  5
2B3
100
AcDbEntity
  8
RACCORDO
100
AcDbLine
 62
7
  6
CONTINUOUS
 10
-25.9572175602
 20
1.7770205758
 11
-26.0550228474
 21
1.7351805892
  0
LINE
  5
2B4
100
AcDbEntity
  8
RACCORDO
100
AcDbLine
 62
7
  6
CONTINUOUS
 10
-25.8625425641
 20
1.8170478463
 11
-25.9572175602
 21
1.7770205758
  0
LINE
  5
2B5
100
AcDbEntity
  8
RACCORDO
100
AcDbLine
 62
250
  6
CONTINUOUS
 10
-25.6610730814
 20
1.7953152749
 11
-25.9452823052
 21
1.6748312651
  0
LINE
  5
2B6
100
AcDbEntity
  8
RACCORDO
100
AcDbLine
 62
7
  6
CONTINUOUS
 10
-26.1198070938
 20
2.2952753677
 11
-26.1225432759
 21
2.294160002
  0
LINE
  5
2B7
100
AcDbEntity
  8
RACCORDO
100
AcDbLine
 62
250
  6
CONTINUOUS
 10
-25.510897338
 20
2.5246578844
 11
-25.577405016
 21
2.4975072579
  0
LINE
  5
2B8
100
AcDbEntity
  8
RACCORDO
100
AcDbLine
 62
250
  6
CONTINUOUS
 10
-25.577405016
 20
2.4975072579
 11
-25.6411714153
 21
2.4719778049
  0
LINE
  5
2B9
100
AcDbEntity
  8
RACCORDO
100
AcDbLine
 62
7
  6
CONTINUOUS
 10
-25.587967654
 20
2.5024102282
 11
-25.6878600831
 21
2.462815252
  0
LINE
  5
2BA
100
AcDbEntity
  8
RACCORDO
100
AcDbLine
 62
7
  6
CONTINUOUS
 10
-26.1198070938
 20
2.2952753677
 11
-26.0053828426
 21
2.3403382399
  0
LINE
  5
2BB
100
AcDbEntity
  8
RACCORDO
100
AcDbLine
 62
250
  6
CONTINUOUS
 10
-26.0350198632
 20
2.3198608176
 11
-26.1225432759
 21
2.2853679804
  0
LWPOLYLINE
  5
2BC
100
AcDbEntity
  8
RACCORDO
100
AcDbPolyline
 62
7
  6
CONTINUOUS
 90
10
 70
0
 10
-25.5879676338
 20
2.5024101781
 10
-25.5806799675
 20
2.5052488709
 10
-25.5730939992
 20
2.5080124951
 10
-25.5652014928
 20
2.5106945748
 10
-25.5569947588
 20
2.5132908725
 10
-25.5484654541
 20
2.5157947428
 10
-25.5396021079
 20
2.5181928226
 10
-25.5303928679
 20
2.5204733974
 10
-25.5208281185
 20
2.5226308981
 10
-25.5108975204
 20
2.5246582655
  0
LINE
  5
2BD
100
AcDbEntity
  8
RACCORDO
100
AcDbLine
 62
250
  6
CONTINUOUS
 10
-25.6411714153
 20
2.4719778049
 11
-25.7351540033
 21
2.4352311911
  0
LINE
  5
2BE
100
AcDbEntity
  8
RACCORDO
100
AcDbLine
 62
7
  6
CONTINUOUS
 10
-25.6878600831
 20
2.462815252
 11
-26.0074851555
 21
2.3395210301
  0
LINE
  5
2BF
100
AcDbEntity
  8
RACCORDO
100
AcDbLine
 62
250
  6
CONTINUOUS
 10
-25.7351540033
 20
2.4352311911
 11
-26.0350198632
 21
2.3198608176
  0
LWPOLYLINE
  5
2C0
100
AcDbEntity
  8
RACCORDO
100
AcDbPolyline
 62
250
  6
CONTINUOUS
 90
4
 70
0
 10
-24.7773611758
 20
19.1134146895
 10
-24.7790100885
 20
19.1114598242
 10
-24.7842632684
 20
19.1059687332
 10
-24.7930315421
 20
19.0970346286
  0
LWPOLYLINE
  5
2C1
100
AcDbEntity
  8
RACCORDO
100
AcDbPolyline
 62
250
  6
CONTINUOUS
 90
4
 70
0
 10
-24.5659180513
 20
18.8982486028
 10
-24.5675670486
 20
18.8962936759
 10
-24.5728204332
 20
18.8908024017
 10
-24.5815889914
 20
18.881868032
  0
LWPOLYLINE
  5
2C2
100
AcDbEntity
  8
RACCORDO
100
AcDbPolyline
 62
250
  6
CONTINUOUS
 90
3
 70
0
 10
-25.856157693
 20
-0.1561154584
 10
-25.9467890962
 20
-0.215410042
 10
-25.9915230489
 20
-0.2443721148
  0
LINE
  5
2C3
100
AcDbEntity
  8
RACCORDO
100
AcDbLine
 62
250
  6
CONTINUOUS
 10
-25.9915230489
 20
-0.2443721148
 11
-26.1144908158
 21
-0.3228322701
  0
LWPOLYLINE
  5
2C4
100
AcDbEntity
  8
RACCORDO
100
AcDbPolyline
 62
250
  6
CONTINUOUS
 90
3
 70
0
 10
-25.4958464795
 20
0.6877540657
 10
-25.5650067274
 20
0.6492762366
 10
-25.5983949976
 20
0.6309401657
  0
LWPOLYLINE
  5
2C5
100
AcDbEntity
  8
RACCORDO
100
AcDbPolyline
 62
250
  6
CONTINUOUS
 90
3
 70
0
 10
-26.0457650738
 20
0.3921321827
 10
-26.0872459898
 20
0.3693992842
 10
-26.1225432759
 20
0.349780287
  0
LWPOLYLINE
  5
2C6
100
AcDbEntity
  8
0
100
AcDbPolyline
 62
7
  6
CONTINUOUS
 90
3
 70
0
 43
0.3500000006
 10
-39.247193161
 20
35.2451522827
 10
-39.318619812
 20
35.0308677979
 10
-39.4614776459
 20
34.7451521301
  0
LINE
  5
2C7
100
AcDbEntity
  8
DRAFT
100
AcDbLine
 62
7
  6
CONTINUOUS
 10
-26.0989766638
 20
-8.542845792
 11
-25.5775432759
 21
-8.0214124041
  0
LINE
  5
2C8
100
AcDbEntity
  8
0
100
AcDbLine
 62
7
  6
CONTINUOUS
 10
-26.0989766638
 20
-10.6433023002
 11
-25.0652649345
 21
-8.4564922987
  0
LINE
  5
2C9
100
AcDbEntity
  8
IMPORT_IGES
100
AcDbLine
 62
7
  6
CONTINUOUS
 10
-25.0652649345
 20
-8.4564922987
 11
-24.8775432759
 21
-8.0593684306
  0
LWPOLYLINE
  5
2CA
100
AcDbEntity
  8
0
100
AcDbPolyline
 62
7
  6
CONTINUOUS
 90
2
 70
0
 43
0.3500000006
 10
-41.3186204224
 20
34.959436615
 10
-41.3186204224
 20
36.4594370728
  0
LWPOLYLINE
  5
2CB
100
AcDbEntity
  8
0
100
AcDbPolyline
 62
7
  6
CONTINUOUS
 90
4
 70
0
 43
0.3500000006
 10
-40.5744345703
 20
43.3880080261
 10
-40.5744345703
 20
44.2451550293
 10
-40.1458610687
 20
44.673723999
 10
-39.5030030823
 20
44.673723999
  0
LWPOLYLINE
  5
2CC
100
AcDbEntity
  8
0
100
AcDbPolyline
 62
7
  6
CONTINUOUS
 90
4
 70
0
 43
0.3500000006
 10
-38.2471928558
 20
37.3165795441
 10
-38.2471928558
 20
37.9594375305
 10
-36.7471923981
 20
37.9594375305
 10
-37.6043348694
 20
34.959436615
  0
LWPOLYLINE
  5
2CD
100
AcDbEntity
  8
RACCORDO
100
AcDbPolyline
 62
250
  6
CONTINUOUS
 90
5
 70
0
 10
-24.9461056636
 20
20.8907061859
 10
-24.9442985771
 20
20.9021150329
 10
-24.9430505716
 20
20.9104178012
 10
-24.9423829598
 20
20.9154727019
 10
-24.9423071427
 20
20.9171934107
  0
LINE
  5
2CE
100
AcDbEntity
  8
RACCORDO
100
AcDbLine
 62
250
  6
CONTINUOUS
 10
-24.9512646183
 20
20.8593993034
 11
-24.9461056636
 21
20.8907061859
  0
LINE
  5
2CF
100
AcDbEntity
  8
RACCORDO
100
AcDbLine
 62
250
  6
CONTINUOUS
 10
-24.962146768
 20
20.795536926
 11
-24.9512646183
 21
20.8593993034
  0
LINE
  5
2D0
100
AcDbEntity
  8
RACCORDO
100
AcDbLine
 62
250
  6
CONTINUOUS
 10
-24.9752914711
 20
20.7202318601
 11
-24.962146768
 21
20.795536926
  0
LWPOLYLINE
  5
2D1
100
AcDbEntity
  8
DRAFT
100
AcDbPolyline
 62
7
  6
CONTINUOUS
 90
25
 70
0
 10
-24.3225432759
 20
3.7593644705
 10
-24.3234071662
 20
3.7545238252
 10
-24.3259896781
 20
3.7496501424
 10
-24.3302726985
 20
3.744743422
 10
-24.336231374
 20
3.7397840527
 10
-24.3438368249
 20
3.7347916459
 10
-24.3530587825
 20
3.7298250362
 10
-24.3638596343
 20
3.7248829187
 10
-24.3761962172
 20
3.7199665982
 10
-24.3900262704
 20
3.7151388237
 10
-24.4052985222
 20
3.7103995363
 10
-24.4219576752
 20
3.7057487948
 10
-24.4399521415
 20
3.7012495246
 10
-24.4592171342
 20
3.6969030751
 10
-24.4796881836
 20
3.6927080968
 10
-24.5013127348
 20
3.6887234665
 10
-24.524019573
 20
3.6849508823
 10
-24.5477332342
 20
3.6813886461
 10
-24.5723942751
 20
3.6780905412
 10
-24.5979250536
 20
3.6750591909
 10
-24.6242398249
 20
3.672291972
 10
-24.6512652213
 20
3.6698347978
 10
-24.6789171204
 20
3.6677029727
 10
-24.7070997688
 20
3.6658811923
 10
-24.7357191871
 20
3.6643694565
  0
LWPOLYLINE
  5
2D2
100
AcDbEntity
  8
RACCORDO
100
AcDbPolyline
 62
250
  6
CONTINUOUS
 90
9
 70
0
 10
-30.3713984022
 20
-27.8528175127
 10
-30.3781049509
 20
-27.8889807861
 10
-30.3838749679
 20
-27.9211808973
 10
-30.3886505122
 20
-27.9490967635
 10
-30.3923719102
 20
-27.9723822953
 10
-30.3949916666
 20
-27.9907307171
 10
-30.396491087
 20
-28.0039794542
 10
-30.396868464
 20
-28.012058576
 10
-30.3961308042
 20
-28.0149326301
  0
LINE
  5
2D3
100
AcDbEntity
  8
RACCORDO
100
AcDbLine
 62
250
  6
CONTINUOUS
 10
-30.3554688289
 20
-27.7701729505
 11
-30.3713984022
 21
-27.8528175127
  0
LINE
  5
2D4
100
AcDbEntity
  8
RACCORDO
100
AcDbLine
 62
250
  6
CONTINUOUS
 10
-30.3367756778
 20
-27.6768296395
 11
-30.3554688289
 21
-27.7701729505
  0
LWPOLYLINE
  5
2D5
100
AcDbEntity
  8
RACCORDO
100
AcDbPolyline
 62
250
  6
CONTINUOUS
 90
3
 70
0
 10
-30.3053792787
 20
-27.5258342203
 10
-30.3161438438
 20
-27.5769086041
 10
-30.3367756778
 20
-27.6768296395
  0
LINE
  5
2D6
100
AcDbEntity
  8
RACCORDO
100
AcDbLine
 62
7
  6
CONTINUOUS
 10
-28.2078540969
 20
1.2677303173
 11
-28.182483085
 21
2.2469063466
  0
LINE
  5
2D7
100
AcDbEntity
  8
RACCORDO
100
AcDbLine
 62
250
  6
CONTINUOUS
 10
-27.7206855769
 20
1.2694758672
 11
-27.7489319499
 21
0.3725098865
  0
LINE
  5
2D8
100
AcDbEntity
  8
RACCORDO
100
AcDbLine
 62
7
  6
CONTINUOUS
 10
-28.2374160005
 20
0.3362353485
 11
-28.2073911056
 21
1.2838269895
  0
LINE
  5
2D9
100
AcDbEntity
  8
RACCORDO
100
AcDbLine
 62
250
  6
CONTINUOUS
 10
-27.7489319499
 20
0.3725098865
 11
-27.7826089998
 21
-0.5263013614
  0
LINE
  5
2DA
100
AcDbEntity
  8
RACCORDO
100
AcDbLine
 62
7
  6
CONTINUOUS
 10
-28.2714971941
 20
-0.5654161032
 11
-28.2355683326
 21
0.3896937936
  0
LINE
  5
2DB
100
AcDbEntity
  8
RACCORDO
100
AcDbLine
 62
7
  6
CONTINUOUS
 10
-28.2690800727
 20
-0.5060592816
 11
-28.3082833823
 21
-1.4019439976
  0
LINE
  5
2DC
100
AcDbEntity
  8
RACCORDO
100
AcDbLine
 62
250
  6
CONTINUOUS
 10
-27.7826089998
 20
-0.5263013614
 11
-27.8219251056
 21
-1.4254587394
  0
LINE
  5
2DD
100
AcDbEntity
  8
RACCORDO
100
AcDbLine
 62
7
  6
CONTINUOUS
 10
-28.3322555396
 20
-1.8915705458
 11
-28.2902867934
 21
-1.0072796168
  0
LINE
  5
2DE
100
AcDbEntity
  8
RACCORDO
100
AcDbLine
 62
250
  6
CONTINUOUS
 10
-27.8219251056
 20
-1.4254587394
 11
-27.8669400623
 21
-2.3157425497
  0
LINE
  5
2DF
100
AcDbEntity
  8
RACCORDO
100
AcDbLine
 62
7
  6
CONTINUOUS
 10
-28.3299554123
 20
-1.846187718
 11
-28.377748515
 21
-2.7314402579
  0
LINE
  5
2E0
100
AcDbEntity
  8
RACCORDO
100
AcDbLine
 62
250
  6
CONTINUOUS
 10
-27.8669400623
 20
-2.3157425497
 11
-27.9177982451
 21
-3.20313682
  0
LINE
  5
2E1
100
AcDbEntity
  8
RACCORDO
100
AcDbLine
 62
7
  6
CONTINUOUS
 10
-28.4069845995
 20
-3.2245980635
 11
-28.3555315352
 21
-2.3339928856
  0
LINE
  5
2E2
100
AcDbEntity
  8
RACCORDO
100
AcDbLine
 62
7
  6
CONTINUOUS
 10
-28.403830541
 20
-3.1728305948
 11
-28.4606590774
 21
-4.0615465733
  0
LINE
  5
2E3
100
AcDbEntity
  8
RACCORDO
100
AcDbLine
 62
250
  6
CONTINUOUS
 10
-27.9177982451
 20
-3.20313682
 11
-27.9748687429
 21
-4.0950119922
  0
LINE
  5
2E4
100
AcDbEntity
  8
RACCORDO
100
AcDbLine
 62
7
  6
CONTINUOUS
 10
-28.4954341097
 20
-4.5669856081
 11
-28.4351070032
 21
-3.6727837666
  0
LINE
  5
2E5
100
AcDbEntity
  8
RACCORDO
100
AcDbLine
 62
250
  6
CONTINUOUS
 10
-27.9748687429
 20
-4.0950119922
 11
-28.0390033021
 21
-5.0097958891
  0
LINE
  5
2E6
100
AcDbEntity
  8
RACCORDO
100
AcDbLine
 62
7
  6
CONTINUOUS
 10
-28.5608951929
 20
-5.4590471417
 11
-28.49174546
 21
-4.5145340973
  0
LINE
  5
2E7
100
AcDbEntity
  8
RACCORDO
100
AcDbLine
 62
250
  6
CONTINUOUS
 10
-28.0390033021
 20
-5.0097958891
 11
-28.1117700106
 21
-5.9653463534
  0
LINE
  5
2E8
100
AcDbEntity
  8
RACCORDO
100
AcDbLine
 62
7
  6
CONTINUOUS
 10
-28.5597337461
 20
-5.4437942013
 11
-28.63685356
 21
-6.419833377
  0
LINE
  5
2E9
100
AcDbEntity
  8
RACCORDO
100
AcDbLine
 62
250
  6
CONTINUOUS
 10
-28.1117700106
 20
-5.9653463534
 11
-28.1943041442
 21
-6.9734626968
  0
LINE
  5
2EA
100
AcDbEntity
  8
RACCORDO
100
AcDbLine
 62
7
  6
CONTINUOUS
 10
-28.6311543692
 20
-6.3500281407
 11
-28.7249472425
 21
-7.4603405665
  0
LINE
  5
2EB
100
AcDbEntity
  8
RACCORDO
100
AcDbLine
 62
250
  6
CONTINUOUS
 10
-28.1943041442
 20
-6.9734626968
 11
-28.2885384861
 21
-8.0518212377
  0
LINE
  5
2EC
100
AcDbEntity
  8
RACCORDO
100
AcDbLine
 62
7
  6
CONTINUOUS
 10
-28.7869736475
 20
-8.1565694478
 11
-28.706481085
 21
-7.2477148396
  0
LINE
  5
2ED
100
AcDbEntity
  8
RACCORDO
100
AcDbLine
 62
7
  6
CONTINUOUS
 10
-28.7734514262
 20
-8.0069748137
 11
-28.8812410119
 21
-9.1707056603
  0
LINE
  5
2EE
100
AcDbEntity
  8
RACCORDO
100
AcDbLine
 62
250
  6
CONTINUOUS
 10
-28.2885384861
 20
-8.0518212377
 11
-28.396593746
 21
-9.218010403
  0
LINE
  5
2EF
100
AcDbEntity
  8
RACCORDO
100
AcDbLine
 62
7
  6
CONTINUOUS
 10
-28.8292943948
 20
-8.6177167918
 11
-28.9406241933
 21
-9.7877971353
  0
LINE
  5
2F0
100
AcDbEntity
  8
RACCORDO
100
AcDbLine
 62
250
  6
CONTINUOUS
 10
-28.396593746
 20
-9.218010403
 11
-28.5198181604
 21
-10.4837470313
  0
LINE
  5
2F1
100
AcDbEntity
  8
RACCORDO
100
AcDbLine
 62
7
  6
CONTINUOUS
 10
-29.1140103804
 20
-11.5197647257
 11
-28.9181228262
 21
-9.5556958057
  0
LINE
  5
2F2
100
AcDbEntity
  8
RACCORDO
100
AcDbLine
 62
250
  6
CONTINUOUS
 10
-28.5198181604
 20
-10.4837470313
 11
-28.6606080568
 21
-11.8704782489
  0
LINE
  5
2F3
100
AcDbEntity
  8
RACCORDO
100
AcDbLine
 62
7
  6
CONTINUOUS
 10
-29.0723988908
 20
-11.1119760261
 11
-29.221598357
 21
-12.555489939
  0
LINE
  5
2F4
100
AcDbEntity
  8
RACCORDO
100
AcDbLine
 62
7
  6
CONTINUOUS
 10
-29.221598357
 20
-12.555489939
 11
-30.7895517523
 21
-27.4735699887
  0
LINE
  5
2F5
100
AcDbEntity
  8
RACCORDO
100
AcDbLine
 62
250
  6
CONTINUOUS
 10
-28.6606080568
 20
-11.8704782489
 11
-30.3053792787
 21
-27.5258342203
  0
LINE
  5
2F6
100
AcDbEntity
  8
0
100
AcDbLine
 62
7
  6
CONTINUOUS
 10
-25.6091405808
 20
-9.6070574602
 11
-26.0989766638
 21
-13.5964522138
  0
LWPOLYLINE
  5
2F7
100
AcDbEntity
  8
RACCORDO
100
AcDbPolyline
 62
250
  6
CONTINUOUS
 90
9
 70
0
 10
-27.5197817344
 20
-28.4575852222
 10
-27.526493683
 20
-28.4937587542
 10
-27.5322731578
 20
-28.5259877995
 10
-27.5370572748
 20
-28.553921687
 10
-27.5407939799
 20
-28.5772564791
 10
-27.5434426153
 20
-28.5957382789
 10
-27.5449743621
 20
-28.609165993
 10
-27.5453725541
 20
-28.6173935198
 10
-27.5446328585
 20
-28.6203313383
  0
LINE
  5
2F8
100
AcDbEntity
  8
RACCORDO
100
AcDbLine
 62
250
  6
CONTINUOUS
 10
-27.5038618876
 20
-28.3750176924
 11
-27.5197817344
 21
-28.4575852222
  0
LINE
  5
2F9
100
AcDbEntity
  8
RACCORDO
100
AcDbLine
 62
250
  6
CONTINUOUS
 10
-27.4852046021
 20
-28.2818689677
 11
-27.5038618876
 21
-28.3750176924
  0
LWPOLYLINE
  5
2FA
100
AcDbEntity
  8
RACCORDO
100
AcDbPolyline
 62
250
  6
CONTINUOUS
 90
3
 70
0
 10
-27.4538813331
 20
-28.1312329285
 10
-27.4646196774
 20
-28.182182068
 10
-27.4852046021
 20
-28.2818689677
  0
LINE
  5
2FB
100
AcDbEntity
  8
RACCORDO
100
AcDbLine
 62
250
  6
CONTINUOUS
 10
-27.6356317501
 20
23.4920026585
 11
-27.6380706295
 21
23.5961905131
  0
LINE
  5
2FC
100
AcDbEntity
  8
RACCORDO
100
AcDbLine
 62
250
  6
CONTINUOUS
 10
-27.6380706295
 20
23.5961905131
 11
-27.6398274217
 21
23.6958060545
  0
LWPOLYLINE
  5
2FD
100
AcDbEntity
  8
RACCORDO
100
AcDbPolyline
 62
250
  6
CONTINUOUS
 90
11
 70
0
 10
-27.6398274217
 20
23.6958060545
 10
-27.640824723
 20
23.7864566395
 10
-27.6410235328
 20
23.8271309378
 10
-27.6410191814
 20
23.8641080316
 10
-27.6408118322
 20
23.8969955305
 10
-27.6404030686
 20
23.9254692766
 10
-27.6397975629
 20
23.9491667357
 10
-27.6390054671
 20
23.9677646103
 10
-27.6380389986
 20
23.9811058487
 10
-27.636909752
 20
23.9891357578
 10
-27.6356317567
 20
23.9918313208
  0
LINE
  5
2FE
100
AcDbEntity
  8
RACCORDO
100
AcDbLine
 62
250
  6
CONTINUOUS
 10
-25.1286650732
 20
19.2227413167
 11
-25.1285389526
 21
19.1750662463
  0
LWPOLYLINE
  5
2FF
100
AcDbEntity
  8
RACCORDO
100
AcDbPolyline
 62
250
  6
CONTINUOUS
 90
9
 70
0
 10
-27.3685195563
 20
-28.4762951196
 10
-27.3685195563
 20
-28.5132861002
 10
-27.3683172814
 20
-28.5462123346
 10
-27.367914946
 20
-28.5747133905
 10
-27.3673169541
 20
-28.5984772765
 10
-27.3665298519
 20
-28.6172438574
 10
-27.3655622555
 20
-28.6308077018
 10
-27.3644247568
 20
-28.6390203308
 10
-27.3631298077
 20
-28.6417918437
  0
LINE
  5
300
100
AcDbEntity
  8
RACCORDO
100
AcDbLine
 62
7
  6
CONTINUOUS
 10
-26.1225432759
 20
24.0314529371
 11
-26.1225432759
 21
-28.6742777453
  0
LINE
  5
301
100
AcDbEntity
  8
RACCORDO
100
AcDbLine
 62
7
  6
CONTINUOUS
 10
-26.0989766638
 20
-13.7764216421
 11
-26.0989766638
 21
-8.542845792
  0
LINE
  5
302
100
AcDbEntity
  8
RACCORDO
100
AcDbLine
 62
7
  6
CONTINUOUS
 10
-25.4125432759
 20
3.6326650182
 11
-25.4125432759
 21
-0.4466045604
  0
LINE
  5
303
100
AcDbEntity
  8
RACCORDO
100
AcDbLine
 62
7
  6
CONTINUOUS
 10
-25.1066966222
 20
20.0932076998
 11
-25.1066966222
 21
20.263967492
  0
LINE
  5
304
100
AcDbEntity
  8
IMPORT_IGES
100
AcDbLine
 62
7
  6
CONTINUOUS
 10
-25.0652424111
 20
-8.0214124041
 11
-25.0652424111
 21
-8.4564446506
  0
LINE
  5
305
100
AcDbEntity
  8
RACCORDO
100
AcDbLine
 62
250
  6
CONTINUOUS
 10
-25.0482432878
 20
-0.5108404774
 11
-25.0482432878
 21
1.0511254722
  0
LINE
  5
306
100
AcDbEntity
  8
RACCORDO
100
AcDbLine
 62
7
  6
CONTINUOUS
 10
-25.0243733572
 20
1.0084966149
 11
-25.0243733572
 21
-0.5150493902
  0
LINE
  5
307
100
AcDbEntity
  8
DRAFT
100
AcDbLine
 62
7
  6
CONTINUOUS
 10
-24.9225432759
 20
-14.0264802781
 11
-24.9225432759
 21
-14.0763988003
  0
LINE
  5
308
100
AcDbEntity
  8
DRAFT
100
AcDbLine
 62
7
  6
CONTINUOUS
 10
-24.9225432759
 20
-17.0664260079
 11
-24.9225432759
 21
-17.1163445301
  0
LINE
  5
309
100
AcDbEntity
  8
IMPORT_IGES
100
AcDbLine
 62
7
  6
CONTINUOUS
 10
-24.8775432759
 20
-8.0593684306
 11
-24.8775432759
 21
-4.1018853131
  0
LINE
  5
30A
100
AcDbEntity
  8
DRAFT
100
AcDbLine
 62
250
  6
CONTINUOUS
 10
-24.7357191871
 20
4.3373910235
 11
-24.7357191871
 21
3.6643694565
  0
LINE
  5
30B
100
AcDbEntity
  8
RACCORDO
100
AcDbLine
 62
250
  6
CONTINUOUS
 10
-24.7199253153
 20
18.5477939707
 11
-24.7199253153
 21
18.0638075573
  0
LINE
  5
30C
100
AcDbEntity
  8
RACCORDO
100
AcDbLine
 62
250
  6
CONTINUOUS
 10
-24.5712342956
 20
17.4991071585
 11
-24.5712342956
 21
18.1192255634
  0
LINE
  5
30D
100
AcDbEntity
  8
RACCORDO
100
AcDbLine
 62
7
  6
CONTINUOUS
 10
-24.4225432759
 20
17.649101447
 11
-24.4225432759
 21
18.5477939707
  0
LINE
  5
30E
100
AcDbEntity
  8
DRAFT
100
AcDbLine
 62
7
  6
CONTINUOUS
 10
-24.3225432759
 20
4.5211080016
 11
-24.3225432759
 21
3.7593644705
  0
LINE
  5
30F
100
AcDbEntity
  8
DRAFT
100
AcDbLine
 62
7
  6
CONTINUOUS
 10
-23.9725432759
 20
-14.1595130307
 11
-23.9725432759
 21
-16.9833117775
  0
LINE
  5
310
100
AcDbEntity
  8
DRAFT
100
AcDbLine
 62
7
  6
CONTINUOUS
 10
-23.6838681413
 20
-14.1847688324
 11
-23.6838681413
 21
-16.9580559758
  0
LINE
  5
311
100
AcDbEntity
  8
DRAFT
100
AcDbLine
 62
7
  6
CONTINUOUS
 10
-25.4039570887
 20
-4.1947062713
 11
-25.407851867
 21
-8.0214124041
  0
LINE
  5
312
100
AcDbEntity
  8
RACCORDO
100
AcDbLine
 62
7
  6
CONTINUOUS
 10
-28.1225432759
 20
23.4920026585
 11
-28.1238107419
 21
7.3731096814
  0
LINE
  5
313
100
AcDbEntity
  8
RACCORDO
100
AcDbLine
 62
250
  6
CONTINUOUS
 10
-27.6356317501
 20
23.4920026585
 11
-27.6368788806
 21
7.3718703028
  0
LINE
  5
314
100
AcDbEntity
  8
RACCORDO
100
AcDbLine
 62
250
  6
CONTINUOUS
 10
-27.6368788806
 20
7.3718703028
 11
-27.6407770493
 21
6.365073668
  0
LINE
  5
315
100
AcDbEntity
  8
RACCORDO
100
AcDbLine
 62
250
  6
CONTINUOUS
 10
-25.1285389526
 20
19.1750662463
 11
-25.1288207319
 21
19.0777456917
  0
LINE
  5
316
100
AcDbEntity
  8
RACCORDO
100
AcDbLine
 62
7
  6
CONTINUOUS
 10
-28.1231742122
 20
7.6744547966
 11
-28.1306346731
 21
5.8790902752
  0
LINE
  5
317
100
AcDbEntity
  8
RACCORDO
100
AcDbLine
 62
250
  6
CONTINUOUS
 10
-27.6407770493
 20
6.365073668
 11
-27.6474287406
 21
5.393089461
  0
LINE
  5
318
100
AcDbEntity
  8
RACCORDO
100
AcDbLine
 62
250
  6
CONTINUOUS
 10
-25.1288207319
 20
19.0777456917
 11
-25.1296231326
 21
18.9629524419
  0
LINE
  5
319
100
AcDbEntity
  8
RACCORDO
100
AcDbLine
 62
250
  6
CONTINUOUS
 10
-27.367914946
 20
-28.3917786936
 11
-27.3685195563
 21
-28.4762951196
  0
LINE
  5
31A
100
AcDbEntity
  8
RACCORDO
100
AcDbLine
 62
7
  6
CONTINUOUS
 10
-28.1281523043
 20
6.2810090531
 11
-28.1387824034
 21
4.922487064
  0
LINE
  5
31B
100
AcDbEntity
  8
RACCORDO
100
AcDbLine
 62
250
  6
CONTINUOUS
 10
-27.6474287406
 20
5.393089461
 11
-27.6571590498
 21
4.4484118025
  0
LINE
  5
31C
100
AcDbEntity
  8
RACCORDO
100
AcDbLine
 62
7
  6
CONTINUOUS
 10
-28.1378927301
 20
5.0102957183
 11
-28.157196659
 21
3.532500221
  0
LINE
  5
31D
100
AcDbEntity
  8
RACCORDO
100
AcDbLine
 62
250
  6
CONTINUOUS
 10
-27.6571590498
 20
4.4484118025
 11
-27.6703613527
 21
3.5243033742
  0
LINE
  5
31E
100
AcDbEntity
  8
RACCORDO
100
AcDbLine
 62
250
  6
CONTINUOUS
 10
-27.3665298519
 20
-28.2963536198
 11
-27.367914946
 21
-28.3917786936
  0
LINE
  5
31F
100
AcDbEntity
  8
RACCORDO
100
AcDbLine
 62
7
  6
CONTINUOUS
 10
-28.152369457
 20
3.8406785398
 11
-28.1741060468
 21
2.6267786144
  0
LINE
  5
320
100
AcDbEntity
  8
RACCORDO
100
AcDbLine
 62
250
  6
CONTINUOUS
 10
-27.6703613527
 20
3.5243033742
 11
-27.6873049552
 21
2.6162704248
  0
LINE
  5
321
100
AcDbEntity
  8
RACCORDO
100
AcDbLine
 62
7
  6
CONTINUOUS
 10
-28.1713467018
 20
2.7603073704
 11
-28.1841000018
 21
2.177482154
  0
LWPOLYLINE
  5
322
100
AcDbEntity
  8
RACCORDO
100
AcDbPolyline
 62
250
  6
CONTINUOUS
 90
3
 70
0
 10
-27.6873049552
 20
2.6162704248
 10
-27.7083970471
 20
1.7175535829
 10
-27.7206855769
 20
1.2694758672
  0
LWPOLYLINE
  5
323
100
AcDbEntity
  8
RACCORDO
100
AcDbPolyline
 62
250
  6
CONTINUOUS
 90
3
 70
0
 10
-27.3631298077
 20
-28.1419631812
 10
-27.3644247568
 20
-28.1941868072
 10
-27.3665298519
 20
-28.2963536198
  0
LINE
  5
324
100
AcDbEntity
  8
DRAFT
100
AcDbLine
 62
7
  6
CONTINUOUS
 10
-25.4010759264
 20
3.6332146682
 11
-25.3875478105
 21
3.4785875959
  0
LINE
  5
325
100
AcDbEntity
  8
DRAFT
100
AcDbLine
 62
7
  6
CONTINUOUS
 10
-23.4338681413
 20
-14.2066409983
 11
-23.4338681413
 21
-16.9361838099
  0
LINE
  5
326
100
AcDbEntity
  8
RACCORDO
100
AcDbLine
 62
7
  6
CONTINUOUS
 10
-23.1225432759
 20
-3.3728816464
 11
-23.1225432759
 21
-1.2699431618
  0
LINE
  5
327
100
AcDbEntity
  8
RACCORDO
100
AcDbLine
 62
7
  6
CONTINUOUS
 10
-22.8225432759
 20
-14.7182905807
 11
-22.8225432759
 21
-16.4245342275
  0
LWPOLYLINE
  5
328
100
AcDbEntity
  8
RACCORDO
100
AcDbPolyline
 62
250
  6
CONTINUOUS
 90
5
 70
0
 10
-25.1296231326
 20
19.2629410189
 10
-25.1293038733
 20
19.2603717366
 10
-25.1290348651
 20
19.2527138446
 10
-25.1288207105
 20
19.2400984118
 10
-25.1286650732
 20
19.2227413167
  0
LINE
  5
329
100
AcDbEntity
  8
RACCORDO
100
AcDbLine
 62
250
  6
CONTINUOUS
 10
-24.9752914711
 20
19.6369433317
 11
-24.9581771523
 21
19.5385522043
  0
LWPOLYLINE
  5
32A
100
AcDbEntity
  8
RACCORDO
100
AcDbPolyline
 62
250
  6
CONTINUOUS
 90
7
 70
0
 10
-24.9581771523
 20
19.5385522043
 10
-24.9484413879
 20
19.4807916015
 10
-24.9461059572
 20
19.4664707991
 10
-24.9442987545
 20
19.4550612704
 10
-24.9430506546
 20
19.4467579331
 10
-24.942382981
 20
19.4417026372
 10
-24.9423071473
 20
19.4399817803
  0
LWPOLYLINE
  5
32B
100
AcDbEntity
  8
0
100
AcDbPolyline
 62
7
  6
CONTINUOUS
 90
10
 70
0
 43
0.3500000006
 10
-39.318619812
 20
35.4594367676
 10
-39.247193161
 20
35.3165834656
 10
-39.247193161
 20
35.2451522827
 10
-39.390046463
 20
35.1022944489
 10
-39.4614776459
 20
35.1022944489
 10
-39.5329042969
 20
35.1737256317
 10
-39.5329042969
 20
35.2451522827
 10
-39.4614776459
 20
35.3880101166
 10
-39.390046463
 20
35.4594367676
 10
-39.318619812
 20
35.4594367676
  0
LINE
  5
32C
100
AcDbEntity
  8
RACCORDO
100
AcDbLine
 62
7
  6
CONTINUOUS
 10
-27.3631298077
 20
-28.6417918437
 11
-26.1225432759
 21
-28.6742777453
  0
LINE
  5
32D
100
AcDbEntity
  8
RACCORDO
100
AcDbLine
 62
250
  6
CONTINUOUS
 10
-27.3631298077
 20
-28.1419631812
 11
-26.1225432759
 21
-28.1744490828
  0
LINE
  5
32E
100
AcDbEntity
  8
RACCORDO
100
AcDbLine
 62
250
  6
CONTINUOUS
 10
-30.3053792787
 20
-27.5258342203
 11
-30.7257074111
 21
-27.4809552236
  0
LWPOLYLINE
  5
32F
100
AcDbEntity
  8
RACCORDO
100
AcDbPolyline
 62
250
  6
CONTINUOUS
 90
5
 70
0
 10
-30.7257074111
 20
-27.4809552236
 10
-30.766431221
 20
-27.4764151668
 10
-30.7792746646
 20
-27.4749288713
 10
-30.7869915488
 20
-27.4739789336
 10
-30.7895517523
 20
-27.4735699887
  0
LWPOLYLINE
  5
330
100
AcDbEntity
  8
RACCORDO
100
AcDbPolyline
 62
250
  6
CONTINUOUS
 90
10
 70
0
 10
-27.4538813331
 20
-28.1312329285
 10
-27.4439102836
 20
-28.1332438502
 10
-27.4339090361
 20
-28.1350504324
 10
-27.4238775905
 20
-28.1366526752
 10
-27.4138131673
 20
-28.1380510164
 10
-27.4037185461
 20
-28.1392450182
 10
-27.3936020657
 20
-28.1402333669
 10
-27.3834665056
 20
-28.1410156247
 10
-27.3733090863
 20
-28.1415922295
 10
-27.3631298077
 20
-28.1419631812
  0
LINE
  5
331
100
AcDbEntity
  8
RACCORDO
100
AcDbLine
 62
7
  6
CONTINUOUS
 10
-30.3961308042
 20
-28.0149326301
 11
-27.5446328585
 21
-28.6203313383
  0
LINE
  5
332
100
AcDbEntity
  8
RACCORDO
100
AcDbLine
 62
250
  6
CONTINUOUS
 10
-30.3053792787
 20
-27.5258342203
 11
-27.4538813331
 21
-28.1312329285
  0
LINE
  5
333
100
AcDbEntity
  8
DRAFT
100
AcDbLine
 62
7
  6
CONTINUOUS
 10
-26.1225432759
 20
-17.3714124041
 11
-24.9225432759
 21
-17.1163445301
  0
LINE
  5
334
100
AcDbEntity
  8
RACCORDO
100
AcDbLine
 62
7
  6
CONTINUOUS
 10
-23.2789654045
 20
-16.9226315765
 11
-23.4338681413
 21
-16.9361838099
  0
LINE
  5
335
100
AcDbEntity
  8
DRAFT
100
AcDbLine
 62
7
  6
CONTINUOUS
 10
-23.4338681413
 20
-16.9361838099
 11
-26.1225432759
 21
-17.1714124041
  0
LINE
  5
336
100
AcDbEntity
  8
RACCORDO
100
AcDbLine
 62
250
  6
CONTINUOUS
 10
-26.0989766638
 20
-12.4220522918
 11
-26.1225432759
 21
-12.4216409351
  0
LINE
  5
337
100
AcDbEntity
  8
RACCORDO
100
AcDbLine
 62
7
  6
CONTINUOUS
 10
-26.1225432759
 20
-12.3210010474
 11
-26.0989766638
 21
-12.3214124041
  0
LINE
  5
338
100
AcDbEntity
  8
RACCORDO
100
AcDbLine
 62
250
  6
CONTINUOUS
 10
-26.1225432759
 20
-11.8210771998
 11
-26.0989766638
 21
-11.8214885565
  0
LINE
  5
339
100
AcDbEntity
  8
RACCORDO
100
AcDbLine
 62
7
  6
CONTINUOUS
 10
-23.2789654045
 20
-14.2201932317
 11
-23.4338681413
 21
-14.2066409983
  0
LINE
  5
33A
100
AcDbEntity
  8
DRAFT
100
AcDbLine
 62
7
  6
CONTINUOUS
 10
-23.4338681413
 20
-14.2066409983
 11
-26.1225432759
 21
-13.9714124041
  0
LINE
  5
33B
100
AcDbEntity
  8
RACCORDO
100
AcDbLine
 62
250
  6
CONTINUOUS
 10
-28.7374258835
 20
-12.6077541706
 11
-29.1571900486
 21
-12.5629372164
  0
LWPOLYLINE
  5
33C
100
AcDbEntity
  8
RACCORDO
100
AcDbPolyline
 62
250
  6
CONTINUOUS
 90
5
 70
0
 10
-29.1571900486
 20
-12.5629372164
 10
-29.1980979203
 20
-12.5583783582
 10
-29.2111172467
 20
-12.5568729851
 10
-29.2189784924
 20
-12.5559067659
 10
-29.221598357
 20
-12.555489939
  0
LINE
  5
33D
100
AcDbEntity
  8
DRAFT
100
AcDbLine
 62
7
  6
CONTINUOUS
 10
-26.1225432759
 20
-13.7714124041
 11
-24.9225432759
 21
-14.0264802781
  0
LINE
  5
33E
100
AcDbEntity
  8
RACCORDO
100
AcDbLine
 62
250
  6
CONTINUOUS
 10
-26.1225432759
 20
-9.8217476084
 11
-26.0989766638
 21
-9.8213362517
  0
LINE
  5
33F
100
AcDbEntity
  8
RACCORDO
100
AcDbLine
 62
7
  6
CONTINUOUS
 10
-26.1225432759
 20
-9.3218237608
 11
-26.0989766638
 21
-9.3214124041
  0
LINE
  5
340
100
AcDbEntity
  8
RACCORDO
100
AcDbLine
 62
250
  6
CONTINUOUS
 10
-26.1225432759
 20
-9.2224941083
 11
-26.0989766638
 21
-9.2220827515
  0
LINE
  5
341
100
AcDbEntity
  8
DRAFT
100
AcDbLine
 62
7
  6
CONTINUOUS
 10
-25.0652424114
 20
-8.0214124041
 11
-25.5775432759
 21
-8.0214124041
  0
LINE
  5
342
100
AcDbEntity
  8
IMPORT_IGES
100
AcDbLine
 62
7
  6
CONTINUOUS
 10
-25.4115455183
 20
1.2712548518
 11
-25.0482432878
 21
1.0511254722
  0
LINE
  5
343
100
AcDbEntity
  8
RACCORDO
100
AcDbLine
 62
250
  6
CONTINUOUS
 10
-24.9887183499
 20
18.9031419102
 11
-24.7772752254
 21
18.6879758235
  0
LINE
  5
344
100
AcDbEntity
  8
RACCORDO
100
AcDbLine
 62
7
  6
CONTINUOUS
 10
-24.7773611758
 20
19.1134146895
 11
-24.5659180513
 21
18.8982486028
  0
LWPOLYLINE
  5
345
100
AcDbEntity
  8
RACCORDO
100
AcDbPolyline
 62
250
  6
CONTINUOUS
 90
10
 70
0
 10
-24.7772752254
 20
18.6879758235
 10
-24.7663838635
 20
18.6761025157
 10
-24.7565356429
 20
18.6632851899
 10
-24.7477305637
 20
18.649523846
 10
-24.7398530978
 20
18.6347939447
 10
-24.7330187732
 20
18.6191200253
 10
-24.7275741743
 20
18.6025757064
 10
-24.723634829
 20
18.5851855274
 10
-24.7210852093
 20
18.5669249488
 10
-24.7199253153
 20
18.5477939707
  0
LINE
  5
346
100
AcDbEntity
  8
RACCORDO
100
AcDbLine
 62
7
  6
CONTINUOUS
 10
-25.4958464795
 20
0.6877540657
 11
-25.6045148912
 21
0.6614607991
  0
LWPOLYLINE
  5
347
100
AcDbEntity
  8
RACCORDO
100
AcDbPolyline
 62
7
  6
CONTINUOUS
 90
3
 70
0
 10
-25.6045148912
 20
0.6614607991
 10
-25.8237275224
 20
0.6097734311
 10
-25.8326017851
 20
0.6076424041
  0
LWPOLYLINE
  5
348
100
AcDbEntity
  8
RACCORDO
100
AcDbPolyline
 62
7
  6
CONTINUOUS
 90
6
 70
0
 10
-25.8326017851
 20
0.6076424041
 10
-25.8488558106
 20
0.6039190739
 10
-25.8554618543
 20
0.6021894484
 10
-25.8606378695
 20
0.6006460482
 10
-25.8645808304
 20
0.599570989
 10
-25.867283607
 20
0.5992014897
  0
LWPOLYLINE
  5
349
100
AcDbEntity
  8
RACCORDO
100
AcDbPolyline
 62
7
  6
CONTINUOUS
 90
7
 70
0
 10
-25.856157693
 20
-0.1561154584
 10
-26.0891137288
 20
-0.2058316223
 10
-26.0977196396
 20
-0.2077041793
 10
-26.1056029807
 20
-0.2093722326
 10
-26.1126758745
 20
-0.2108361491
 10
-26.1184767181
 20
-0.212206568
 10
-26.1225432759
 20
-0.2133098498
  0
LINE
  5
34A
100
AcDbEntity
  8
RACCORDO
100
AcDbLine
 62
7
  6
CONTINUOUS
 10
-25.4819877463
 20
1.2946991207
 11
-25.5931390996
 21
1.2728564519
  0
LWPOLYLINE
  5
34B
100
AcDbEntity
  8
RACCORDO
100
AcDbPolyline
 62
7
  6
CONTINUOUS
 90
3
 70
0
 10
-25.5931390996
 20
1.2728564519
 10
-25.8174859812
 20
1.2301665209
 10
-25.8266055071
 20
1.2283952638
  0
LWPOLYLINE
  5
34C
100
AcDbEntity
  8
RACCORDO
100
AcDbPolyline
 62
7
  6
CONTINUOUS
 90
6
 70
0
 10
-25.8266055071
 20
1.2283952638
 10
-25.8433507409
 20
1.2253278322
 10
-25.8501889025
 20
1.2238561602
 10
-25.8555749368
 20
1.222508285
 10
-25.8596987081
 20
1.2215819742
 10
-25.8625432759
 20
1.2213208737
  0
LINE
  5
34D
100
AcDbEntity
  8
RACCORDO
100
AcDbLine
 62
7
  6
CONTINUOUS
 10
-26.1225432759
 20
-4.3214124041
 11
-23.5357191871
 21
-3.8652855229
  0
LINE
  5
34E
100
AcDbEntity
  8
RACCORDO
100
AcDbLine
 62
7
  6
CONTINUOUS
 10
-26.1225432759
 20
0.6075160004
 11
-25.8672833434
 21
0.5992014811
  0
LINE
  5
34F
100
AcDbEntity
  8
RACCORDO
100
AcDbLine
 62
250
  6
CONTINUOUS
 10
-26.1225432759
 20
-0.1134972593
 11
-25.856157693
 21
-0.1561154584
  0
LINE
  5
350
100
AcDbEntity
  8
RACCORDO
100
AcDbLine
 62
7
  6
CONTINUOUS
 10
-26.1225432759
 20
-0.3214124041
 11
-23.5357191871
 21
-0.7775392853
  0
LINE
  5
351
100
AcDbEntity
  8
0
100
AcDbLine
 62
7
  6
CONTINUOUS
 10
-25.3875478105
 20
3.4785875959
 11
-25.1875478105
 21
3.4785875959
  0
LINE
  5
352
100
AcDbEntity
  8
RACCORDO
100
AcDbLine
 62
250
  6
CONTINUOUS
 10
-26.1225432759
 20
0.7081673071
 11
-25.4958464795
 21
0.6877540657
  0
LWPOLYLINE
  5
353
100
AcDbEntity
  8
DRAFT
100
AcDbPolyline
 62
7
  6
CONTINUOUS
 90
25
 70
0
 10
-24.7357191871
 20
4.3373910235
 10
-24.7071595017
 20
4.3360063239
 10
-24.6789839888
 20
4.3349759042
 10
-24.6512889489
 20
4.3342997644
 10
-24.6241645025
 20
4.3339829275
 10
-24.5977085735
 20
4.3340203704
 10
-24.5720253051
 20
4.3343970244
 10
-24.5472024109
 20
4.3351181504
 10
-24.5233231353
 20
4.3361784873
 10
-24.5004779645
 20
4.337547183
 10
-24.4787441397
 20
4.3392279763
 10
-24.4581914195
 20
4.3412171284
 10
-24.4388910087
 20
4.3434725703
 10
-24.4209076623
 20
4.3459960619
 10
-24.4042955313
 20
4.3487858434
 10
-24.3891031983
 20
4.3517945672
 10
-24.3753798581
 20
4.3550227373
 10
-24.3631681594
 20
4.3584698496
 10
-24.3525022338
 20
4.3620870448
 10
-24.3434175021
 20
4.3658737139
 10
-24.3359427782
 20
4.3698304659
 10
-24.3300991311
 20
4.3739102682
 10
-24.3259075114
 20
4.3780974432
 10
-24.3233853845
 20
4.3824076684
 10
-24.3225432759
 20
4.386840944
  0
LINE
  5
354
100
AcDbEntity
  8
RACCORDO
100
AcDbLine
 62
7
  6
CONTINUOUS
 10
-26.1225432759
 20
1.2400478622
 11
-25.8625435823
 21
1.2213208957
  0
LINE
  5
355
100
AcDbEntity
  8
RACCORDO
100
AcDbLine
 62
250
  6
CONTINUOUS
 10
-26.1225432759
 20
1.3408363363
 11
-25.4819877463
 21
1.2946991207
  0
LINE
  5
356
100
AcDbEntity
  8
DRAFT
100
AcDbLine
 62
7
  6
CONTINUOUS
 10
-26.1225432759
 20
4.6785875959
 11
-24.3225432759
 21
4.5211080016
  0
LINE
  5
357
100
AcDbEntity
  8
RACCORDO
100
AcDbLine
 62
7
  6
CONTINUOUS
 10
-26.1225432759
 20
1.8450933342
 11
-25.6610730814
 21
1.7953152751
  0
LINE
  5
358
100
AcDbEntity
  8
RACCORDO
100
AcDbLine
 62
7
  6
CONTINUOUS
 10
-26.1225432759
 20
2.4314587132
 11
-25.8625432759
 21
2.3953694339
  0
LINE
  5
359
100
AcDbEntity
  8
RACCORDO
100
AcDbLine
 62
250
  6
CONTINUOUS
 10
-26.1225432759
 20
2.6099437304
 11
-25.510897338
 21
2.5246578844
  0
LINE
  5
35A
100
AcDbEntity
  8
RACCORDO
100
AcDbLine
 62
250
  6
CONTINUOUS
 10
-27.6356317501
 20
8.4157302908
 11
-28.1225432759
 21
8.4157302908
  0
LWPOLYLINE
  5
35B
100
AcDbEntity
  8
0
100
AcDbPolyline
 62
7
  6
CONTINUOUS
 90
13
 70
0
 43
0.3500000006
 10
-40.1458610687
 20
44.673723999
 10
-40.4315767365
 20
44.8880084839
 10
-40.4315767365
 20
45.5308664703
 10
-40.1458610687
 20
45.9594399719
 10
-39.5030030823
 20
45.9594399719
 10
-39.2172919464
 20
45.5308664703
 10
-39.2172919464
 20
44.8880084839
 10
-39.5030030823
 20
44.673723999
 10
-39.0744341125
 20
44.2451550293
 10
-39.0744341125
 20
43.3880080261
 10
-39.5030030823
 20
42.9594390564
 10
-40.1458610687
 20
42.9594390564
 10
-40.5744345703
 20
43.3880080261
  0
LWPOLYLINE
  5
35C
100
AcDbEntity
  8
RACCORDO
100
AcDbPolyline
 62
250
  6
CONTINUOUS
 90
34
 70
0
 10
-24.9752914711
 20
19.6369433317
 10
-24.9252341754
 20
19.6484589679
 10
-24.8774334856
 20
19.6638732057
 10
-24.8318894017
 20
19.6831860451
 10
-24.7883988252
 20
19.7065792143
 10
-24.7471648547
 20
19.7338709851
 10
-24.7087967861
 20
19.7645161725
 10
-24.67322014
 20
19.798643296
 10
-24.6405093958
 20
19.836123836
 10
-24.6114972882
 20
19.8760270487
 10
-24.5862928587
 20
19.9183999345
 10
-24.5647870656
 20
19.963195493
 10
-24.5474855181
 20
20.0093419787
 10
-24.5344850226
 20
20.0568545297
 10
-24.5256887727
 20
20.1057180079
 10
-24.5213119583
 20
20.1548152544
 10
-24.5214843574
 20
20.2042327967
 10
-24.526076192
 20
20.2538841072
 10
-24.5349133174
 20
20.3023924437
 10
-24.5483863652
 20
20.3499380702
 10
-24.5661047039
 20
20.3963407227
 10
-24.5867222934
 20
20.4396828668
 10
-24.610375957
 20
20.4794839718
 10
-24.6369288714
 20
20.5162245683
 10
-24.6646245274
 20
20.5494287148
 10
-24.6928311478
 20
20.5785678345
 10
-24.7221805097
 20
20.6041705041
 10
-24.7528114351
 20
20.6273465115
 10
-24.7843441234
 20
20.6483706146
 10
-24.8171583752
 20
20.6669680556
 10
-24.8525324135
 20
20.6834243491
 10
-24.8908923128
 20
20.6978346668
 10
-24.9318119987
 20
20.7101038371
 10
-24.9752914711
 20
20.7202318601
  0
LINE
  5
35D
100
AcDbEntity
  8
RACCORDO
100
AcDbLine
 62
7
  6
CONTINUOUS
 10
-26.1225432759
 20
19.2318743072
 11
-24.9423071427
 21
19.4399817811
  0
LINE
  5
35E
100
AcDbEntity
  8
RACCORDO
100
AcDbLine
 62
250
  6
CONTINUOUS
 10
-26.1225432759
 20
19.4346518849
 11
-24.9752914711
 21
19.6369433317
  0
LINE
  5
35F
100
AcDbEntity
  8
RACCORDO
100
AcDbLine
 62
250
  6
CONTINUOUS
 10
-26.1225432759
 20
23.5316242746
 11
-27.6356317501
 21
23.4920026585
  0
LINE
  5
360
100
AcDbEntity
  8
RACCORDO
100
AcDbLine
 62
7
  6
CONTINUOUS
 10
-26.1225432759
 20
24.0314529371
 11
-27.6356317501
 21
23.991831321
  0
LINE
  5
361
100
AcDbEntity
  8
RACCORDO
100
AcDbLine
 62
7
  6
CONTINUOUS
 10
-24.5712342956
 20
17.4991071585
 11
-26.1225432759
 21
17.4855690901
  0
LINE
  5
362
100
AcDbEntity
  8
RACCORDO
100
AcDbLine
 62
7
  6
CONTINUOUS
 10
-26.1225432759
 20
19.8855690901
 11
-25.3902687239
 21
19.8919595533
  0
LINE
  5
363
100
AcDbEntity
  8
RACCORDO
100
AcDbLine
 62
250
  6
CONTINUOUS
 10
-26.1225432759
 20
20.0843425403
 11
-25.1066966222
 21
20.0932076998
  0
LINE
  5
364
100
AcDbEntity
  8
RACCORDO
100
AcDbLine
 62
250
  6
CONTINUOUS
 10
-24.4225432759
 20
18.5477939707
 11
-24.7199253153
 21
18.5477939707
  0
LINE
  5
365
100
AcDbEntity
  8
RACCORDO
100
AcDbLine
 62
250
  6
CONTINUOUS
 10
-27.6356317501
 20
23.4920026585
 11
-28.1225432759
 21
23.4920026585
  0
LWPOLYLINE
  5
366
100
AcDbEntity
  8
0
100
AcDbPolyline
 62
7
  6
CONTINUOUS
 90
3
 70
0
 43
0.3500000006
 10
-40.8186202698
 20
35.6022946014
 10
-42.3186207275
 20
35.6022946014
 10
-41.6757627411
 20
37.9594375305
  0
LINE
  5
367
100
AcDbEntity
  8
RACCORDO
100
AcDbLine
 62
7
  6
CONTINUOUS
 10
-26.1225432759
 20
18.0677112479
 11
-24.7199253153
 21
18.0638075573
  0
LINE
  5
368
100
AcDbEntity
  8
RACCORDO
100
AcDbLine
 62
250
  6
CONTINUOUS
 10
-24.5712342956
 20
17.7824978013
 11
-26.1225432759
 21
17.7903356665
  0
LINE
  5
369
100
AcDbEntity
  8
RACCORDO
100
AcDbLine
 62
250
  6
CONTINUOUS
 10
-26.1225432759
 20
18.9716175248
 11
-25.1296231326
 21
18.9629524419
  0
LINE
  5
36A
100
AcDbEntity
  8
RACCORDO
100
AcDbLine
 62
7
  6
CONTINUOUS
 10
-25.9078393141
 20
19.2697324086
 11
-25.1296231326
 21
19.2629410189
  0
LINE
  5
36B
100
AcDbEntity
  8
RACCORDO
100
AcDbLine
 62
250
  6
CONTINUOUS
 10
-25.1066966222
 20
20.263967492
 11
-26.1225432759
 21
20.2728326515
  0
LINE
  5
36C
100
AcDbEntity
  8
RACCORDO
100
AcDbLine
 62
7
  6
CONTINUOUS
 10
-25.3902687239
 20
20.4652156385
 11
-26.1225432759
 21
20.4716061017
  0
LWPOLYLINE
  5
36D
100
AcDbEntity
  8
RACCORDO
100
AcDbPolyline
 62
250
  6
CONTINUOUS
 90
13
 70
0
 10
-24.5712342956
 20
17.7824978013
 10
-24.5517753378
 20
17.7816647293
 10
-24.5326677934
 20
17.7793763511
 10
-24.5142349804
 20
17.7756713883
 10
-24.4967887997
 20
17.7706125325
 10
-24.4806244573
 20
17.7642853843
 10
-24.4660154696
 20
17.7567970052
 10
-24.4532090344
 20
17.7482741057
 10
-24.4424218491
 20
17.7388609014
 10
-24.4338364431
 20
17.7287166728
 10
-24.4275980897
 20
17.7180130699
 10
-24.4238123478
 20
17.706931208
 10
-24.4225432759
 20
17.6956586028
  0
LWPOLYLINE
  5
36E
100
AcDbEntity
  8
RACCORDO
100
AcDbPolyline
 62
250
  6
CONTINUOUS
 90
13
 70
0
 10
-25.1296231326
 20
18.9629524419
 10
-25.115377751
 20
18.962163779
 10
-25.1017391892
 20
18.9606320286
 10
-25.088707447
 20
18.9583571906
 10
-25.0763809897
 20
18.9553251111
 10
-25.0646613521
 20
18.951549944
 10
-25.0532531391
 20
18.9470741518
 10
-25.0421332425
 20
18.942002603
 10
-25.0313247705
 20
18.9362304291
 10
-25.0206016523
 20
18.9294854872
 10
-25.009888531
 20
18.9216770629
 10
-24.9992607636
 20
18.9128958706
 10
-24.9887183499
 20
18.9031419102
  0
LINE
  5
36F
100
AcDbEntity
  8
RACCORDO
100
AcDbLine
 62
250
  6
CONTINUOUS
 10
-24.9752914711
 20
20.7202318601
 11
-26.1225432759
 21
20.9225233069
  0
LINE
  5
370
100
AcDbEntity
  8
RACCORDO
100
AcDbLine
 62
7
  6
CONTINUOUS
 10
-24.9423071427
 20
20.9171934107
 11
-26.1225432759
 21
21.1253008846
  0
ARC
  5
371
100
AcDbEntity
  8
0
100
AcDbCircle
 62
7
  6
CONTINUOUS
 10
0.9
 20
-16.4214124041
 40
0.1
100
AcDbArc
 50
0.0
 51
90.0
  0
ARC
  5
372
100
AcDbEntity
  8
0
100
AcDbCircle
 62
7
  6
CONTINUOUS
 10
-0.9
 20
-16.4214124041
 40
0.1
100
AcDbArc
 50
90.0
 51
180.0
  0
ARC
  5
373
100
AcDbEntity
  8
0
100
AcDbCircle
 62
7
  6
CONTINUOUS
 10
-0.9
 20
-18.2214124041
 40
0.1
100
AcDbArc
 50
180.0
 51
270.0
  0
ARC
  5
374
100
AcDbEntity
  8
0
100
AcDbCircle
 62
7
  6
CONTINUOUS
 10
0.9
 20
-18.2214124041
 40
0.1
100
AcDbArc
 50
270.0
 51
360.0
  0
ARC
  5
375
100
AcDbEntity
  8
RACCORDO
100
AcDbCircle
 62
7
  6
CONTINUOUS
 10
-27.3369528594
 20
-27.6421345187
 40
1.0
100
AcDbArc
 50
258.0135711831
 51
268.5
  0
ARC
  5
376
100
AcDbEntity
  8
RACCORDO
100
AcDbCircle
 62
7
  6
CONTINUOUS
 10
-25.0725432759
 20
20.1785875959
 40
0.75
100
AcDbArc
 50
280.0
 51
80.0
  0
ARC
  5
377
100
AcDbEntity
  8
RACCORDO
100
AcDbCircle
 62
7
  6
CONTINUOUS
 10
-23.3225432759
 20
-14.7182905807
 40
0.5
100
AcDbArc
 50
0.0
 51
85.0
  0
ARC
  5
378
100
AcDbEntity
  8
RACCORDO
100
AcDbCircle
 62
7
  6
CONTINUOUS
 10
-23.3225432759
 20
-16.4245342275
 40
0.5
100
AcDbArc
 50
275.0
 51
360.0
  0
ARC
  5
379
100
AcDbEntity
  8
RACCORDO
100
AcDbCircle
 62
7
  6
CONTINUOUS
 10
-30.2922908046
 20
-27.5258342203
 40
0.5
100
AcDbArc
 50
174.0
 51
258.0135711831
  0
ARC
  5
37A
100
AcDbEntity
  8
RACCORDO
100
AcDbCircle
 62
7
  6
CONTINUOUS
 10
-27.6225432759
 20
23.4920026585
 40
0.5
100
AcDbArc
 50
91.5
 51
180.0
  0
ARC
  5
37B
100
AcDbEntity
  8
RACCORDO
100
AcDbCircle
 62
7
  6
CONTINUOUS
 10
-25.1339864004
 20
18.7629600573
 40
0.5
100
AcDbArc
 50
44.5
 51
89.5
  0
ARC
  5
37C
100
AcDbEntity
  8
RACCORDO
100
AcDbCircle
 62
7
  6
CONTINUOUS
 10
-24.9225432759
 20
18.5477939707
 40
0.5
100
AcDbArc
 50
0.0
 51
44.5
  0
ARC
  5
37D
100
AcDbEntity
  8
RACCORDO
100
AcDbCircle
 62
7
  6
CONTINUOUS
 10
-23.6225432759
 20
-1.2699431618
 40
0.5
100
AcDbArc
 50
0.0
 51
80.0
  0
ARC
  5
37E
100
AcDbEntity
  8
RACCORDO
100
AcDbCircle
 62
7
  6
CONTINUOUS
 10
-23.6225432759
 20
-3.3728816464
 40
0.5
100
AcDbArc
 50
280.0
 51
360.0
  0
ARC
  5
37F
100
AcDbEntity
  8
RACCORDO
100
AcDbCircle
 62
7
  6
CONTINUOUS
 10
-24.5725432759
 20
17.649101447
 40
0.15
100
AcDbArc
 50
270.5
 51
360.0
  0
ARC
  5
380
100
AcDbEntity
  8
RACCORDO
100
AcDbCircle
 62
7
  6
CONTINUOUS
 10
-25.0743733572
 20
1.0084966149
 40
0.05
100
AcDbArc
 50
0.0
 51
58.4930902702
  0
ELLIPSE
  5
381
100
AcDbEntity
  8
RACCORDO
100
AcDbEllipse
 62
7
  6
CONTINUOUS
 10
10.5526939449
 20
-28.174106349
 30
0.0
 11
-0.35379574
 21
0.35379574
 31
0.0
 40
0.999315002
 41
-3.9266482006
 42
-2.3565371065
  0
ELLIPSE
  5
382
100
AcDbEntity
  8
RACCORDO
100
AcDbEllipse
 62
7
  6
CONTINUOUS
 10
10.5526939449
 20
23.5312815408
 30
0.0
 11
0.35379574
 21
0.35379574
 31
0.0
 40
0.999315002
 41
-0.7850555471
 42
0.7850555471
  0
ELLIPSE
  5
383
100
AcDbEntity
  8
RACCORDO
100
AcDbEllipse
 62
7
  6
CONTINUOUS
 10
-10.5526939449
 20
23.5312815408
 30
0.0
 11
-0.35379574
 21
0.35379574
 31
0.0
 40
0.999315002
 41
-0.7850555471
 42
0.7850555471
  0
ELLIPSE
  5
384
100
AcDbEntity
  8
RACCORDO
100
AcDbEllipse
 62
7
  6
CONTINUOUS
 10
-10.5526939449
 20
-28.174106349
 30
0.0
 11
0.35379574
 21
0.35379574
 31
0.0
 40
0.999315002
 41
-3.9266482006
 42
-2.3565371065
  0
ELLIPSE
  5
385
100
AcDbEntity
  8
DRAFT
100
AcDbEllipse
 62
7
  6
CONTINUOUS
 10
-8.8124310903
 20
-7.1214124041
 30
0.0
 11
63.2804152257
 21
0.0
 31
0.0
 40
0.1761108909
 41
1.8251610131
 42
1.8478741742
  0
ELLIPSE
  5
386
100
AcDbEntity
  8
RACCORDO
100
AcDbEllipse
 62
7
  6
CONTINUOUS
 10
-24.7225432759
 20
18.4863352792
 30
0.0
 11
-0.0064728562
 21
0.4225035608
 31
0.0
 40
0.7098878919
 41
-3.154443869
 42
-2.6345261014
  0
ELLIPSE
  5
387
100
AcDbEntity
  8
RACCORDO
100
AcDbEllipse
 62
7
  6
CONTINUOUS
 10
-25.3920293961
 20
20.2652233879
 30
0.0
 11
0.2853275264
 21
-0.0024688431
 31
0.0
 40
0.7009226047
 41
0.0060647732
 42
1.5706904684
  0
ELLIPSE
  5
388
100
AcDbEntity
  8
RACCORDO
100
AcDbEllipse
 62
7
  6
CONTINUOUS
 10
-25.3920293961
 20
20.0919518039
 30
0.0
 11
0.2853275264
 21
0.0024688431
 31
0.0
 40
0.7009226047
 41
-1.5706904684
 42
-0.0060647732
  0
ELLIPSE
  5
389
100
AcDbEntity
  8
0
100
AcDbEllipse
 62
7
  6
CONTINUOUS
 10
-51.3625631479
 20
-7.1214124041
 30
0.0
 11
79.4445384914
 21
0.0
 31
0.0
 40
0.153091273
 41
1.2290184413
 42
1.2474869946
  0
ENDSEC
  0
SECTION
  2
OBJECTS
  0
DICTIONARY
  5
C
100
AcDbDictionary
280
0
281
1
  3
ACAD_GROUP
350
D
  3
ACAD_MLINESTYLE
350
17
  3
ACAD_LAYOUT
350
1A
  3
ACAD_PLOTSETTINGS
350
19
  3
ACAD_PLOTSTYLENAME
350
E
  0
DICTIONARY
  5
D
102
{ACAD_REACTORS
330
C
102
}
100
AcDbDictionary
280
0
281
1
  0
ACDBDICTIONARYWDFLT
  5
E
102
{ACAD_REACTORS
330
C
102
}
100
AcDbDictionary
281
1
  3
Normal
350
F
100
AcDbDictionaryWithDefault
340
F
  0
DICTIONARY
  5
17
102
{ACAD_REACTORS
330
C
102
}
100
AcDbDictionary
280
0
281
1
  3
Standard
350
18
  0
DICTIONARY
  5
19
102
{ACAD_REACTORS
330
C
102
}
100
AcDbDictionary
281
1
  0
DICTIONARY
  5
1A
102
{ACAD_REACTORS
330
C
102
}
100
AcDbDictionary
281
1
  3
Model
350
38A
  3
Layout1
350
38B
  0
ACDBPLACEHOLDER
  5
F
102
{ACAD_REACTORS
330
E
102
}
  0
MLINESTYLE
  5
18
102
{ACAD_REACTORS
330
17
102
}
100
AcDbMlineStyle
  2
STANDARD
 70
0
  3

 62
256
 51
90.0
 52
90.0
 71
2
 49
0.5
 62
256
  6
BYLAYER
 49
-0.5
 62
256
  6
BYLAYER
  0
LAYOUT
  5
38A
102
{ACAD_REACTORS
330
1A
102
}
100
AcDbPlotSettings
  1

  2
none_device
  4
ISO_A4_(297.00_x_210.00_MM)
  6

 40
0.0
 41
0.0
 42
0.0
 43
0.0
 44
297.0
 45
210.0
 46
0.0
 47
0.0
 48
0.0
 49
0.0
140
0.0
141
0.0
142
1.0
143
1.0
 70
1024
 72
1
 73
0
 74
0
  7

 75
0
147
1.0
148
0.0
149
0.0
100
AcDbLayout
  1
Model
 70
0
 71
0
 10
0.0
 20
0.0
 11
297.0
 21
210.0
 12
0.0
 22
0.0
 32
0.0
 14
0.0
 24
0.0
 34
0.0
 15
0.0
 25
0.0
 35
0.0
146
0.0
 13
0.0
 23
0.0
 33
0.0
 16
1.0
 26
0.0
 36
0.0
 17
0.0
 27
1.0
 37
0.0
 76
0
330
21B
345
0
346
0
  0
LAYOUT
  5
38B
102
{ACAD_REACTORS
330
1A
102
}
100
AcDbPlotSettings
  1

  2
none_device
  4
ISO_A4_(297.00_x_210.00_MM)
  6

 40
0.0
 41
0.0
 42
0.0
 43
0.0
 44
297.0
 45
210.0
 46
0.0
 47
0.0
 48
0.0
 49
0.0
140
0.0
141
0.0
142
1.0
143
1.0
 70
0
 72
1
 73
0
 74
0
  7

 75
0
147
1.0
148
0.0
149
0.0
100
AcDbLayout
  1
Layout1
 70
0
 71
1
 10
0.0
 20
0.0
 11
297.0
 21
210.0
 12
0.0
 22
0.0
 32
0.0
 14
0.0
 24
0.0
 34
0.0
 15
0.0
 25
0.0
 35
0.0
146
0.0
 13
0.0
 23
0.0
 33
0.0
 16
1.0
 26
0.0
 36
0.0
 17
0.0
 27
1.0
 37
0.0
 76
0
330
21C
345
0
346
0
  0
ENDSEC
  0
EOF
